0
SECTION
2
HEADER
9
$ACADVER
1
AC1015
9
$DWGCODEPAGE
3
ANSI_1252
9
$HANDSEED
5
1d0
9
$ANGBASE
50
0
9
$ANGDIR
70
0
9
$ATTMODE
70
1
9
$AUNITS
70
0
9
$AUPREC
70
0
9
$CECOLOR
62
256
9
$CELTSCALE
40
1
9
$CELTYPE
6
ByLayer
9
$CELWEIGHT
370
18
9
$CLAYER
8
0
9
$CMLJUST
70
0
9
$CMLSCALE
40
1
9
$CMLSTYLE
2
Standard
9
$DIMSTYLE
2
Standard
9
$TEXTSIZE
40
0.2
9
$TEXTSTYLE
7
Standard
9
$LUNITS
70
2
9
$LUPREC
70
4
9
$EXTNAMES
290
1
9
$INSUNITS
70
4
9
$LTSCALE
40
1
9
$LWDISPLAY
290
1
9
$PDMODE
70
0
9
$PDSIZE
40
0
9
$PLINEGEN
70
0
0
ENDSEC
0
SECTION
2
CLASSES
0
CLASS
1
RASTERVARIABLES
2
AcDbRasterVariables
3
ISM
90
0
280
0
281
0
0
ENDSEC
0
SECTION
2
TABLES
0
TABLE
2
VPORT
5
1c6
100
AcDbSymbolTable
0
VPORT
5
1
100
AcDbSymbolTableRecord
100
AcDbViewportTableRecord
2
*Active
70
0
10
0
20
0
11
1
21
1
12
-1
22
1
13
0
23
0
14
0.5
24
0.5
15
10
25
10
16
0
26
0
36
1
17
0
27
0
37
0
0
ENDTAB
0
TABLE
2
LTYPE
5
1c7
100
AcDbSymbolTable
0
LTYPE
5
14
100
AcDbSymbolTableRecord
100
AcDbLinetypeTableRecord
70
0
2
ByBlock
3

72
65
73
0
40
0
0
LTYPE
5
15
100
AcDbSymbolTableRecord
100
AcDbLinetypeTableRecord
70
0
2
ByLayer
3

72
65
73
0
40
0
0
LTYPE
5
16
100
AcDbSymbolTableRecord
100
AcDbLinetypeTableRecord
70
0
2
Continuous
3
Solid line
72
65
73
0
40
0
0
LTYPE
5
6E
100
AcDbSymbolTableRecord
100
AcDbLinetypeTableRecord
70
0
2
CENTER
3
____ _ ____ _ ____ _ ____
72
65
73
4
40
47.5
49
22
74
0
49
-8.5
74
0
49
8.5
74
0
49
-8.5
74
0
0
LTYPE
5
6F
100
AcDbSymbolTableRecord
100
AcDbLinetypeTableRecord
70
0
2
DASHED
3
__ __ __ __ __ __ __ __ __
72
65
73
2
40
25.72
49
12.86
74
0
49
-12.86
74
0
0
ENDTAB
0
TABLE
2
LAYER
5
1c8
100
AcDbSymbolTable
0
LAYER
5
10
100
AcDbSymbolTableRecord
100
AcDbLayerTableRecord
2
0
70
0
62
7
6
Continuous
290
1
370
-3
390
0
0
LAYER
5
71
100
AcDbSymbolTableRecord
100
AcDbLayerTableRecord
2
81
70
0
62
-3
6
Continuous
290
1
370
-3
390
0
0
LAYER
5
73
100
AcDbSymbolTableRecord
100
AcDbLayerTableRecord
2
80
70
0
62
-6
6
Continuous
290
1
370
-3
390
0
0
LAYER
5
75
100
AcDbSymbolTableRecord
100
AcDbLayerTableRecord
2
1
70
0
62
4
6
Continuous
290
1
370
-3
390
0
0
LAYER
5
7E
100
AcDbSymbolTableRecord
100
AcDbLayerTableRecord
2
4
70
0
62
-2
6
CENTER
290
1
370
-3
390
0
0
LAYER
5
A8
100
AcDbSymbolTableRecord
100
AcDbLayerTableRecord
2
2
70
0
62
7
6
Continuous
290
1
370
-3
390
0
0
LAYER
5
F3
100
AcDbSymbolTableRecord
100
AcDbLayerTableRecord
2
Defpoints
70
0
62
7
6
Continuous
290
0
370
-3
390
0
0
LAYER
5
1b0
100
AcDbSymbolTableRecord
100
AcDbLayerTableRecord
2
SK4
70
0
62
2
6
CENTER
290
1
370
-3
390
0
0
LAYER
5
1b1
100
AcDbSymbolTableRecord
100
AcDbLayerTableRecord
2
SK1
70
0
62
4
6
Continuous
290
1
370
-3
390
0
0
LAYER
5
1b2
100
AcDbSymbolTableRecord
100
AcDbLayerTableRecord
2
SK2
70
0
62
7
6
Continuous
290
1
370
-3
390
0
0
LAYER
5
1b3
100
AcDbSymbolTableRecord
100
AcDbLayerTableRecord
2
CUT
70
0
62
-1
6
Continuous
290
1
370
-3
390
0
0
LAYER
5
1b4
100
AcDbSymbolTableRecord
100
AcDbLayerTableRecord
2
NOCUT
70
0
62
-7
6
Continuous
290
1
370
-3
390
0
0
LAYER
5
1b5
100
AcDbSymbolTableRecord
100
AcDbLayerTableRecord
2
SK6
70
0
62
5
6
Continuous
290
1
370
-3
390
0
0
ENDTAB
0
TABLE
2
STYLE
5
1c9
100
AcDbSymbolTable
0
STYLE
5
11
100
AcDbSymbolTableRecord
100
AcDbTextStyleTableRecord
2
Standard
3
txt
70
0
71
0
40
0
41
1
42
0
50
0
0
STYLE
5
CF
100
AcDbSymbolTableRecord
100
AcDbTextStyleTableRecord
2
iso_b_vert
3
simplex.shx
70
0
71
0
40
0
41
1
42
0
50
0
0
STYLE
5
D0
100
AcDbSymbolTableRecord
100
AcDbTextStyleTableRecord
2
DWGDirectTextStyle
3
simplex
70
0
71
0
40
0
41
1
42
0
50
0
0
ENDTAB
0
TABLE
2
DIMSTYLE
5
1ca
100
AcDbSymbolTable
100
AcDbDimStyleTable
0
DIMSTYLE
105
27
100
AcDbSymbolTableRecord
100
AcDbDimStyleTableRecord
2
Standard
70
0
3
<>
41
0.18
42
0.0625
44
0.18
140
0.18
147
0.09
73
0
74
0
77
1
271
2
275
0
278
52
280
0
340
11
0
ENDTAB
0
TABLE
2
VIEW
5
1cb
100
AcDbSymbolTable
0
ENDTAB
0
TABLE
2
UCS
5
1cc
100
AcDbSymbolTable
0
ENDTAB
0
TABLE
2
APPID
5
1cd
100
AcDbSymbolTable
0
APPID
5
12
100
AcDbSymbolTableRecord
100
AcDbRegAppTableRecord
2
ACAD
70
0
0
APPID
5
EF
100
AcDbSymbolTableRecord
100
AcDbRegAppTableRecord
2
ACAD_DSTYLE_DIMBREAK
70
0
0
APPID
5
16F
100
AcDbSymbolTableRecord
100
AcDbRegAppTableRecord
2
ACAD_DSTYLE_DIM_LINETYPE
70
0
0
APPID
5
170
100
AcDbSymbolTableRecord
100
AcDbRegAppTableRecord
2
ACAD_DSTYLE_DIM_EXT1_LINETYPE
70
0
0
APPID
5
171
100
AcDbSymbolTableRecord
100
AcDbRegAppTableRecord
2
ACAD_DSTYLE_DIM_EXT2_LINETYPE
70
0
0
APPID
5
1AC
100
AcDbSymbolTableRecord
100
AcDbRegAppTableRecord
2
ACAD_MLEADERVER
70
0
0
ENDTAB
0
TABLE
2
BLOCK_RECORD
5
1ce
100
AcDbSymbolTable
0
BLOCK_RECORD
5
1F
100
AcDbSymbolTableRecord
100
AcDbBlockTableRecord
2
*Model_Space
340
0
70
0
0
BLOCK_RECORD
5
1B
100
AcDbSymbolTableRecord
100
AcDbBlockTableRecord
2
*Paper_Space
340
0
70
0
0
BLOCK_RECORD
5
23
100
AcDbSymbolTableRecord
100
AcDbBlockTableRecord
2
*Paper_Space0
340
0
70
0
0
BLOCK_RECORD
5
F4
100
AcDbSymbolTableRecord
100
AcDbBlockTableRecord
2
*D1
340
0
70
0
0
BLOCK_RECORD
5
100
100
AcDbSymbolTableRecord
100
AcDbBlockTableRecord
2
_U0
340
0
70
0
0
BLOCK_RECORD
5
10C
100
AcDbSymbolTableRecord
100
AcDbBlockTableRecord
2
*D3
340
0
70
0
0
BLOCK_RECORD
5
118
100
AcDbSymbolTableRecord
100
AcDbBlockTableRecord
2
_U1
340
0
70
0
0
BLOCK_RECORD
5
124
100
AcDbSymbolTableRecord
100
AcDbBlockTableRecord
2
*D5
340
0
70
0
0
BLOCK_RECORD
5
130
100
AcDbSymbolTableRecord
100
AcDbBlockTableRecord
2
_U2
340
0
70
0
0
BLOCK_RECORD
5
13C
100
AcDbSymbolTableRecord
100
AcDbBlockTableRecord
2
*D7
340
0
70
0
0
BLOCK_RECORD
5
148
100
AcDbSymbolTableRecord
100
AcDbBlockTableRecord
2
_U3
340
0
70
0
0
ENDTAB
0
ENDSEC
0
SECTION
2
BLOCKS
0
BLOCK
5
20
100
AcDbEntity
8
0
100
AcDbBlockBegin
2
*Model_Space
70
0
10
0
20
0
30
0
3
*Model_Space
0
ENDBLK
5
21
100
AcDbEntity
8
0
100
AcDbBlockEnd
0
BLOCK
5
1C
100
AcDbEntity
8
0
100
AcDbBlockBegin
2
*Paper_Space
70
0
10
0
20
0
30
0
3
*Paper_Space
0
ENDBLK
5
1D
100
AcDbEntity
8
0
100
AcDbBlockEnd
0
BLOCK
5
24
100
AcDbEntity
8
0
100
AcDbBlockBegin
2
*Paper_Space0
70
0
10
0
20
0
30
0
3
*Paper_Space0
0
ENDBLK
5
25
100
AcDbEntity
8
0
100
AcDbBlockEnd
0
BLOCK
5
F5
100
AcDbEntity
8
0
100
AcDbBlockBegin
2
*D1
70
1
10
0
20
0
30
0
3
*D1
0
LINE
5
F7
100
AcDbEntity
8
0
62
256
6
ByLayer
370
-2
48
1
60
0
100
AcDbLine
10
-24
20
-2.7375
30
0
11
-24
21
-53.708511
31
0
39
0
210
0
220
0
230
1
0
LINE
5
F8
100
AcDbEntity
8
0
62
256
6
ByLayer
370
-2
48
1
60
0
100
AcDbLine
10
29
20
-1.5875
30
0
11
29
21
-53.708511
31
0
39
0
210
0
220
0
230
1
0
LINE
5
F9
100
AcDbEntity
8
0
62
256
6
ByLayer
370
-2
48
1
60
0
100
AcDbLine
10
-20.5
20
-51.708511
30
0
11
25.5
21
-51.708511
31
0
39
0
210
0
220
0
230
1
0
SOLID
5
FA
100
AcDbEntity
8
0
62
256
6
ByLayer
370
-1
48
1
60
0
100
AcDbTrace
10
-20.5
20
-51.125177
30
0
11
-20.5
21
-52.291844
31
0
12
-24
22
-51.708511
32
0
13
-24
23
-51.708511
33
0
39
0
210
0
220
0
230
1
0
SOLID
5
FB
100
AcDbEntity
8
0
62
256
6
ByLayer
370
-1
48
1
60
0
100
AcDbTrace
10
25.5
20
-52.291844
30
0
11
25.5
21
-51.125177
31
0
12
29
22
-51.708511
32
0
13
29
23
-51.708511
33
0
39
0
210
0
220
0
230
1
0
MTEXT
5
FC
100
AcDbEntity
8
0
62
256
6
ByLayer
370
18
48
1
60
0
100
AcDbMText
10
2.5
20
-45.708511
30
0
210
0
220
0
230
1
1
\A1;53
40
3
41
0
44
1
50
0
71
5
72
5
7
iso_b_vert
0
POINT
5
FD
100
AcDbEntity
8
Defpoints
62
0
6
ByLayer
370
-1
48
1
60
0
100
AcDbPoint
10
-24
20
-1.15
30
0
39
0
210
0
220
0
230
1
50
360
0
POINT
5
FE
100
AcDbEntity
8
Defpoints
62
0
6
ByLayer
370
-1
48
1
60
0
100
AcDbPoint
10
29
20
0
30
0
39
0
210
0
220
0
230
1
50
360
0
POINT
5
FF
100
AcDbEntity
8
Defpoints
62
0
6
ByLayer
370
-1
48
1
60
0
100
AcDbPoint
10
29
20
-51.708511
30
0
39
0
210
0
220
0
230
1
50
360
0
ENDBLK
5
F6
100
AcDbEntity
8
0
100
AcDbBlockEnd
0
BLOCK
5
107
100
AcDbEntity
8
0
100
AcDbBlockBegin
2
_U0
70
0
10
0
20
0
30
0
3
_U0
0
MTEXT
5
101
100
AcDbEntity
8
SK2
62
256
6
ByLayer
370
18
48
1
60
0
100
AcDbMText
10
-1.98237
20
-50.823396
30
0
210
0
220
0
230
1
1
\W0.7468;53.00
40
3
41
0
44
1.084337
50
0
71
7
72
5
7
iso_b_vert
0
LINE
5
102
100
AcDbEntity
8
SK2
62
256
6
ByLayer
370
13
48
1
60
0
100
AcDbLine
10
-24
20
-2.7375
30
0
11
-24
21
-53.708511
31
0
39
0
210
0
220
0
230
1
0
LINE
5
103
100
AcDbEntity
8
SK2
62
256
6
ByLayer
370
13
48
1
60
0
100
AcDbLine
10
29
20
-1.5875
30
0
11
29
21
-53.708511
31
0
39
0
210
0
220
0
230
1
0
LINE
5
104
100
AcDbEntity
8
SK2
62
256
6
ByLayer
370
13
48
1
60
0
100
AcDbLine
10
-24
20
-51.708511
30
0
11
29
21
-51.708511
31
0
39
0
210
0
220
0
230
1
0
SOLID
5
105
100
AcDbEntity
8
SK2
62
256
6
ByLayer
370
18
48
1
60
0
100
AcDbTrace
10
-24
20
-51.708511
30
0
11
-20.500002
21
-51.247727
31
0
12
-20.499998
22
-52.169294
32
0
13
-20.499998
23
-52.169294
33
0
39
0
210
0
220
0
230
1
0
SOLID
5
106
100
AcDbEntity
8
SK2
62
256
6
ByLayer
370
18
48
1
60
0
100
AcDbTrace
10
29
20
-51.708511
30
0
11
25.500002
21
-52.169294
31
0
12
25.499998
22
-51.247727
32
0
13
25.499998
23
-51.247727
33
0
39
0
210
0
220
0
230
1
0
ENDBLK
5
108
100
AcDbEntity
8
0
100
AcDbBlockEnd
0
BLOCK
5
10D
100
AcDbEntity
8
0
100
AcDbBlockBegin
2
*D3
70
1
10
0
20
0
30
0
3
*D3
0
LINE
5
10F
100
AcDbEntity
8
0
62
256
6
ByLayer
370
-2
48
1
60
0
100
AcDbLine
10
29
20
-1.5875
30
0
11
29
21
-43.708511
31
0
39
0
210
0
220
0
230
1
0
LINE
5
110
100
AcDbEntity
8
0
62
256
6
ByLayer
370
-2
48
1
60
0
100
AcDbLine
10
2
20
-2.7375
30
0
11
2
21
-43.708511
31
0
39
0
210
0
220
0
230
1
0
LINE
5
111
100
AcDbEntity
8
0
62
256
6
ByLayer
370
-2
48
1
60
0
100
AcDbLine
10
25.5
20
-41.708511
30
0
11
5.5
21
-41.708511
31
0
39
0
210
0
220
0
230
1
0
SOLID
5
112
100
AcDbEntity
8
0
62
256
6
ByLayer
370
-1
48
1
60
0
100
AcDbTrace
10
25.5
20
-42.291844
30
0
11
25.5
21
-41.125177
31
0
12
29
22
-41.708511
32
0
13
29
23
-41.708511
33
0
39
0
210
0
220
0
230
1
0
SOLID
5
113
100
AcDbEntity
8
0
62
256
6
ByLayer
370
-1
48
1
60
0
100
AcDbTrace
10
5.5
20
-41.125177
30
0
11
5.5
21
-42.291844
31
0
12
2
22
-41.708511
32
0
13
2
23
-41.708511
33
0
39
0
210
0
220
0
230
1
0
MTEXT
5
114
100
AcDbEntity
8
0
62
256
6
ByLayer
370
18
48
1
60
0
100
AcDbMText
10
15.5
20
-35.708511
30
0
210
0
220
0
230
1
1
\A1;27
40
3
41
0
44
1
50
0
71
5
72
5
7
iso_b_vert
0
POINT
5
115
100
AcDbEntity
8
Defpoints
62
0
6
ByLayer
370
-1
48
1
60
0
100
AcDbPoint
10
29
20
0
30
0
39
0
210
0
220
0
230
1
50
360
0
POINT
5
116
100
AcDbEntity
8
Defpoints
62
0
6
ByLayer
370
-1
48
1
60
0
100
AcDbPoint
10
2
20
-1.15
30
0
39
0
210
0
220
0
230
1
50
360
0
POINT
5
117
100
AcDbEntity
8
Defpoints
62
0
6
ByLayer
370
-1
48
1
60
0
100
AcDbPoint
10
2
20
-41.708511
30
0
39
0
210
0
220
0
230
1
50
360
0
ENDBLK
5
10E
100
AcDbEntity
8
0
100
AcDbBlockEnd
0
BLOCK
5
11F
100
AcDbEntity
8
0
100
AcDbBlockBegin
2
_U1
70
0
10
0
20
0
30
0
3
_U1
0
MTEXT
5
119
100
AcDbEntity
8
2
62
256
6
ByLayer
370
18
48
1
60
0
100
AcDbMText
10
11.01763
20
-40.823396
30
0
210
0
220
0
230
1
1
\W0.7468;27.00
40
3
41
0
44
1.084337
50
0
71
7
72
5
7
iso_b_vert
0
LINE
5
11A
100
AcDbEntity
8
2
62
256
6
ByLayer
370
13
48
1
60
0
100
AcDbLine
10
29
20
-1.5875
30
0
11
29
21
-43.708511
31
0
39
0
210
0
220
0
230
1
0
LINE
5
11B
100
AcDbEntity
8
2
62
256
6
ByLayer
370
13
48
1
60
0
100
AcDbLine
10
2
20
-2.7375
30
0
11
2
21
-43.708511
31
0
39
0
210
0
220
0
230
1
0
LINE
5
11C
100
AcDbEntity
8
2
62
256
6
ByLayer
370
13
48
1
60
0
100
AcDbLine
10
29
20
-41.708511
30
0
11
2
21
-41.708511
31
0
39
0
210
0
220
0
230
1
0
SOLID
5
11D
100
AcDbEntity
8
2
62
256
6
ByLayer
370
18
48
1
60
0
100
AcDbTrace
10
29
20
-41.708511
30
0
11
25.500002
21
-42.169294
31
0
12
25.499998
22
-41.247727
32
0
13
25.499998
23
-41.247727
33
0
39
0
210
0
220
0
230
1
0
SOLID
5
11E
100
AcDbEntity
8
2
62
256
6
ByLayer
370
18
48
1
60
0
100
AcDbTrace
10
2
20
-41.708511
30
0
11
5.499998
21
-41.247727
31
0
12
5.500002
22
-42.169294
32
0
13
5.500002
23
-42.169294
33
0
39
0
210
0
220
0
230
1
0
ENDBLK
5
120
100
AcDbEntity
8
0
100
AcDbBlockEnd
0
BLOCK
5
125
100
AcDbEntity
8
0
100
AcDbBlockBegin
2
*D5
70
1
10
0
20
0
30
0
3
*D5
0
LINE
5
127
100
AcDbEntity
8
0
62
256
6
ByLayer
370
-2
48
1
60
0
100
AcDbLine
10
-24
20
-2.7375
30
0
11
-24
21
-38.708511
31
0
39
0
210
0
220
0
230
1
0
LINE
5
128
100
AcDbEntity
8
0
62
256
6
ByLayer
370
-2
48
1
60
0
100
AcDbLine
10
0
20
-2.7375
30
0
11
0
21
-38.708511
31
0
39
0
210
0
220
0
230
1
0
LINE
5
129
100
AcDbEntity
8
0
62
256
6
ByLayer
370
-2
48
1
60
0
100
AcDbLine
10
-20.5
20
-36.708511
30
0
11
-3.5
21
-36.708511
31
0
39
0
210
0
220
0
230
1
0
SOLID
5
12A
100
AcDbEntity
8
0
62
256
6
ByLayer
370
-1
48
1
60
0
100
AcDbTrace
10
-20.5
20
-36.125177
30
0
11
-20.5
21
-37.291844
31
0
12
-24
22
-36.708511
32
0
13
-24
23
-36.708511
33
0
39
0
210
0
220
0
230
1
0
SOLID
5
12B
100
AcDbEntity
8
0
62
256
6
ByLayer
370
-1
48
1
60
0
100
AcDbTrace
10
-3.5
20
-37.291844
30
0
11
-3.5
21
-36.125177
31
0
12
0
22
-36.708511
32
0
13
0
23
-36.708511
33
0
39
0
210
0
220
0
230
1
0
MTEXT
5
12C
100
AcDbEntity
8
0
62
256
6
ByLayer
370
18
48
1
60
0
100
AcDbMText
10
-12
20
-30.708511
30
0
210
0
220
0
230
1
1
\A1;24
40
3
41
0
44
1
50
0
71
5
72
5
7
iso_b_vert
0
POINT
5
12D
100
AcDbEntity
8
Defpoints
62
0
6
ByLayer
370
-1
48
1
60
0
100
AcDbPoint
10
-24
20
-1.15
30
0
39
0
210
0
220
0
230
1
50
360
0
POINT
5
12E
100
AcDbEntity
8
Defpoints
62
0
6
ByLayer
370
-1
48
1
60
0
100
AcDbPoint
10
0
20
-1.15
30
0
39
0
210
0
220
0
230
1
50
360
0
POINT
5
12F
100
AcDbEntity
8
Defpoints
62
0
6
ByLayer
370
-1
48
1
60
0
100
AcDbPoint
10
0
20
-36.708511
30
0
39
0
210
0
220
0
230
1
50
360
0
ENDBLK
5
126
100
AcDbEntity
8
0
100
AcDbBlockEnd
0
BLOCK
5
137
100
AcDbEntity
8
0
100
AcDbBlockBegin
2
_U2
70
0
10
0
20
0
30
0
3
_U2
0
MTEXT
5
131
100
AcDbEntity
8
SK2
62
256
6
ByLayer
370
18
48
1
60
0
100
AcDbMText
10
-16.640313
20
-35.823396
30
0
210
0
220
0
230
1
1
\W0.7694;24.00
40
3
41
0
44
1.084337
50
0
71
7
72
5
7
iso_b_vert
0
LINE
5
132
100
AcDbEntity
8
SK2
62
256
6
ByLayer
370
13
48
1
60
0
100
AcDbLine
10
-24
20
-2.7375
30
0
11
-24
21
-38.708511
31
0
39
0
210
0
220
0
230
1
0
LINE
5
133
100
AcDbEntity
8
SK2
62
256
6
ByLayer
370
13
48
1
60
0
100
AcDbLine
10
0
20
-2.7375
30
0
11
0
21
-38.708511
31
0
39
0
210
0
220
0
230
1
0
LINE
5
134
100
AcDbEntity
8
SK2
62
256
6
ByLayer
370
13
48
1
60
0
100
AcDbLine
10
-24
20
-36.708511
30
0
11
0
21
-36.708511
31
0
39
0
210
0
220
0
230
1
0
SOLID
5
135
100
AcDbEntity
8
SK2
62
256
6
ByLayer
370
18
48
1
60
0
100
AcDbTrace
10
-24
20
-36.708511
30
0
11
-20.500002
21
-36.247727
31
0
12
-20.499998
22
-37.169294
32
0
13
-20.499998
23
-37.169294
33
0
39
0
210
0
220
0
230
1
0
SOLID
5
136
100
AcDbEntity
8
SK2
62
256
6
ByLayer
370
18
48
1
60
0
100
AcDbTrace
10
0
20
-36.708511
30
0
11
-3.499998
21
-37.169294
31
0
12
-3.500002
22
-36.247727
32
0
13
-3.500002
23
-36.247727
33
0
39
0
210
0
220
0
230
1
0
ENDBLK
5
138
100
AcDbEntity
8
0
100
AcDbBlockEnd
0
BLOCK
5
13D
100
AcDbEntity
8
0
100
AcDbBlockBegin
2
*D7
70
1
10
0
20
0
30
0
3
*D7
0
LINE
5
13F
100
AcDbEntity
8
0
62
256
6
ByLayer
370
-2
48
1
60
0
100
AcDbLine
10
29
20
-1.5875
30
0
11
29
21
-36.708511
31
0
39
0
210
0
220
0
230
1
0
LINE
5
140
100
AcDbEntity
8
0
62
256
6
ByLayer
370
-2
48
1
60
0
100
AcDbLine
10
8.75
20
-2.7375
30
0
11
8.75
21
-36.708511
31
0
39
0
210
0
220
0
230
1
0
LINE
5
141
100
AcDbEntity
8
0
62
256
6
ByLayer
370
-2
48
1
60
0
100
AcDbLine
10
25.5
20
-34.708511
30
0
11
12.25
21
-34.708511
31
0
39
0
210
0
220
0
230
1
0
SOLID
5
142
100
AcDbEntity
8
0
62
256
6
ByLayer
370
-1
48
1
60
0
100
AcDbTrace
10
25.5
20
-35.291844
30
0
11
25.5
21
-34.125177
31
0
12
29
22
-34.708511
32
0
13
29
23
-34.708511
33
0
39
0
210
0
220
0
230
1
0
SOLID
5
143
100
AcDbEntity
8
0
62
256
6
ByLayer
370
-1
48
1
60
0
100
AcDbTrace
10
12.25
20
-34.125177
30
0
11
12.25
21
-35.291844
31
0
12
8.75
22
-34.708511
32
0
13
8.75
23
-34.708511
33
0
39
0
210
0
220
0
230
1
0
MTEXT
5
144
100
AcDbEntity
8
0
62
256
6
ByLayer
370
18
48
1
60
0
100
AcDbMText
10
18.875
20
-28.708511
30
0
210
0
220
0
230
1
1
\A1;20.25
40
3
41
0
44
1
50
0
71
5
72
5
7
iso_b_vert
0
POINT
5
145
100
AcDbEntity
8
Defpoints
62
0
6
ByLayer
370
-1
48
1
60
0
100
AcDbPoint
10
29
20
0
30
0
39
0
210
0
220
0
230
1
50
360
0
POINT
5
146
100
AcDbEntity
8
Defpoints
62
0
6
ByLayer
370
-1
48
1
60
0
100
AcDbPoint
10
8.75
20
-1.15
30
0
39
0
210
0
220
0
230
1
50
360
0
POINT
5
147
100
AcDbEntity
8
Defpoints
62
0
6
ByLayer
370
-1
48
1
60
0
100
AcDbPoint
10
8.75
20
-34.708511
30
0
39
0
210
0
220
0
230
1
50
360
0
ENDBLK
5
13E
100
AcDbEntity
8
0
100
AcDbBlockEnd
0
BLOCK
5
14F
100
AcDbEntity
8
0
100
AcDbBlockBegin
2
_U3
70
0
10
0
20
0
30
0
3
_U3
0
MTEXT
5
149
100
AcDbEntity
8
2
62
256
6
ByLayer
370
18
48
1
60
0
100
AcDbMText
10
14.39263
20
-33.823396
30
0
210
0
220
0
230
1
1
\W0.7468;20.25
40
3
41
0
44
1.084337
50
0
71
7
72
5
7
iso_b_vert
0
LINE
5
14A
100
AcDbEntity
8
2
62
256
6
ByLayer
370
13
48
1
60
0
100
AcDbLine
10
29
20
-1.5875
30
0
11
29
21
-36.708511
31
0
39
0
210
0
220
0
230
1
0
LINE
5
14B
100
AcDbEntity
8
2
62
256
6
ByLayer
370
13
48
1
60
0
100
AcDbLine
10
8.75
20
-2.7375
30
0
11
8.75
21
-36.708511
31
0
39
0
210
0
220
0
230
1
0
LINE
5
14C
100
AcDbEntity
8
2
62
256
6
ByLayer
370
13
48
1
60
0
100
AcDbLine
10
29
20
-34.708511
30
0
11
8.75
21
-34.708511
31
0
39
0
210
0
220
0
230
1
0
SOLID
5
14D
100
AcDbEntity
8
2
62
256
6
ByLayer
370
18
48
1
60
0
100
AcDbTrace
10
29
20
-34.708511
30
0
11
25.500002
21
-35.169294
31
0
12
25.499998
22
-34.247727
32
0
13
25.499998
23
-34.247727
33
0
39
0
210
0
220
0
230
1
0
SOLID
5
14E
100
AcDbEntity
8
2
62
256
6
ByLayer
370
18
48
1
60
0
100
AcDbTrace
10
8.75
20
-34.708511
30
0
11
12.249998
21
-34.247727
31
0
12
12.250002
22
-35.169294
32
0
13
12.250002
23
-35.169294
33
0
39
0
210
0
220
0
230
1
0
ENDBLK
5
150
100
AcDbEntity
8
0
100
AcDbBlockEnd
0
ENDSEC
0
SECTION
2
ENTITIES
0
ARC
5
B9
100
AcDbEntity
8
2
62
256
6
ByLayer
370
13
48
1
60
0
100
AcDbCircle
39
0
10
29
20
0
30
0
40
22
210
0
220
0
230
1
100
AcDbArc
50
7.83748
51
61.596605
0
ARC
5
BA
100
AcDbEntity
8
2
62
256
6
ByLayer
370
13
48
1
60
0
100
AcDbCircle
39
0
10
29
20
0
30
0
40
22
210
0
220
0
230
1
100
AcDbArc
50
298.403395
51
352.16252
0
POINT
5
70
100
AcDbEntity
8
81
62
256
6
ByLayer
370
18
48
1
60
0
100
AcDbPoint
10
29
20
0
30
0
39
0
210
0
220
0
230
1
50
360
0
POINT
5
72
100
AcDbEntity
8
80
62
256
6
ByLayer
370
18
48
1
60
0
100
AcDbPoint
10
0
20
0
30
0
39
0
210
0
220
0
230
1
50
360
0
POINT
5
74
100
AcDbEntity
8
1
62
256
6
ByLayer
370
18
48
1
60
1
100
AcDbPoint
10
-24
20
-1.15
30
0
39
0
210
0
220
0
230
1
50
360
0
POINT
5
76
100
AcDbEntity
8
1
62
256
6
ByLayer
370
18
48
1
60
1
100
AcDbPoint
10
29
20
0
30
0
39
0
210
0
220
0
230
1
50
360
0
POINT
5
77
100
AcDbEntity
8
1
62
256
6
ByLayer
370
18
48
1
60
1
100
AcDbPoint
10
29
20
0
30
0
39
0
210
0
220
0
230
1
50
360
0
POINT
5
78
100
AcDbEntity
8
1
62
256
6
ByLayer
370
18
48
1
60
1
100
AcDbPoint
10
2
20
-1.15
30
0
39
0
210
0
220
0
230
1
50
360
0
POINT
5
79
100
AcDbEntity
8
1
62
256
6
ByLayer
370
18
48
1
60
1
100
AcDbPoint
10
-24
20
-1.15
30
0
39
0
210
0
220
0
230
1
50
360
0
POINT
5
7A
100
AcDbEntity
8
1
62
256
6
ByLayer
370
18
48
1
60
1
100
AcDbPoint
10
0
20
-1.15
30
0
39
0
210
0
220
0
230
1
50
360
0
POINT
5
7B
100
AcDbEntity
8
1
62
256
6
ByLayer
370
18
48
1
60
1
100
AcDbPoint
10
29
20
0
30
0
39
0
210
0
220
0
230
1
50
360
0
POINT
5
7C
100
AcDbEntity
8
1
62
256
6
ByLayer
370
18
48
1
60
1
100
AcDbPoint
10
8.75
20
-1.15
30
0
39
0
210
0
220
0
230
1
50
360
0
SPLINE
5
BB
100
AcDbEntity
8
CUT
62
256
6
ByLayer
370
18
48
1
60
0
100
AcDbSpline
70
2053
71
3
72
17
73
13
40
0
40
0
40
0
40
0
40
0.478405233661527
40
0.478405233661527
40
0.478405233661527
40
0.505400033529608
40
0.505400033529608
40
0.505400033529608
40
0.9691131622616
40
0.9691131622616
40
0.9691131622616
40
1
40
1
40
1
40
1
41
1
10
29
20
0
30
0
41
1
10
22.25
20
0
30
0
41
1
10
15.5
20
0
30
0
41
1
10
8.75
20
0
30
0
41
1
10
8.75
20
0.380879819644946
30
0
41
1
10
8.75
20
0.76175963928992
30
0
41
1
10
8.75000000000006
20
1.14263945893487
30
0
41
1
10
15.2927030864527
20
1.14509297259164
30
0
41
1
10
21.8354061729052
20
1.14754648624839
30
0
41
1
10
28.3781092593578
20
1.14999999990516
30
0
41
1
10
28.5854061729052
20
0.766666666603442
30
0
41
1
10
28.7927030864526
20
0.383333333301721
30
0
41
1
10
29
20
0
30
0
0
SPLINE
5
BD
100
AcDbEntity
8
NOCUT
62
256
6
ByLayer
370
18
48
1
60
0
100
AcDbSpline
70
2053
71
3
72
26
73
22
40
0
40
0
40
0
40
0
40
0.48434232321136
40
0.48434232321136
40
0.48434232321136
40
0.501240907947745
40
0.501240907947745
40
0.501240907947745
40
0.629166446584547
40
0.629166446584547
40
0.629166446584547
40
0.6306536464281
40
0.6306536464281
40
0.6306536464281
40
0.981154808567361
40
0.981154808567361
40
0.981154808567361
40
0.987429283214362
40
0.987429283214362
40
0.987429283214362
40
1
40
1
40
1
40
1
41
1
10
-24
20
0
30
0
41
1
10
-13.0833333333333
20
0
30
0
41
1
10
-2.16666666666666
20
0
30
0
41
1
10
8.75
20
0
30
0
41
1
10
8.75
20
0.380879819644946
30
0
41
1
10
8.75
20
0.76175963928992
30
0
41
1
10
8.75
20
1.14263945893487
30
0
41
1
10
5.86666666666653
20
1.14155820893518
30
0
41
1
10
2.98333333333304
20
1.14047695893547
30
0
41
1
10
0.0999999999983743
20
1.13939570893589
30
0
41
1
10
0.0666666666647586
20
1.14293047262405
30
0
41
1
10
0.0333333333323935
20
1.14646523631202
30
0
41
1
10
0
20
1.15000000000001
30
0
41
1
10
-7.90000000000001
20
1.15000000000001
30
0
41
1
10
-15.8
20
1.15000000000001
30
0
41
1
10
-23.7
20
1.15000000000001
30
0
41
1
10
-23.8
20
1.05000000000001
30
0
41
1
10
-23.9
20
0.949999999999989
30
0
41
1
10
-24
20
0.849999999999994
30
0
41
1
10
-24
20
0.566666666666663
30
0
41
1
10
-24
20
0.283333333333331
30
0
41
1
10
-24
20
0
30
0
0
SPLINE
5
BF
100
AcDbEntity
8
1
62
256
6
ByLayer
370
18
48
1
60
0
100
AcDbSpline
70
4
71
3
72
56
73
52
40
0
40
0
40
0
40
0
40
0.125000000000024
40
0.125000000000024
40
0.250000000000049
40
0.250000000000049
40
0.281250000000053
40
0.281250000000053
40
0.312500000000057
40
0.312500000000057
40
0.375000000000061
40
0.375000000000061
40
0.437500000000066
40
0.437500000000066
40
0.468750000000066
40
0.468750000000066
40
0.476562500000066
40
0.476562500000066
40
0.484375000000065
40
0.484375000000065
40
0.492187500000064
40
0.492187500000064
40
0.500000000000063
40
0.500000000000063
40
0.507812500000063
40
0.507812500000063
40
0.515625000000062
40
0.515625000000062
40
0.523437500000061
40
0.523437500000061
40
0.531250000000061
40
0.531250000000061
40
0.546875000000059
40
0.546875000000059
40
0.562500000000058
40
0.562500000000058
40
0.593750000000055
40
0.593750000000055
40
0.625000000000053
40
0.625000000000053
40
0.687500000000047
40
0.687500000000047
40
0.750000000000042
40
0.750000000000042
40
0.781250000000037
40
0.781250000000037
40
0.812500000000032
40
0.812500000000032
40
0.875000000000023
40
0.875000000000023
40
1
40
1
40
1
40
1
41
1
10
28.3781092593578
20
1.11301164432049
30
0
41
1
10
28.4251762019295
20
1.02645897512525
30
0
41
1
10
28.4720540119002
20
0.93932469031401
30
0
41
1
10
28.5648916826085
20
0.76439669177995
30
0
41
1
10
28.6109197215284
20
0.676584771022959
30
0
41
1
10
28.6671384055792
20
0.566011637124888
30
0
41
1
10
28.6783041034235
20
0.543847250112094
30
0
41
1
10
28.7004862936934
20
0.499447706511859
30
0
41
1
10
28.7115130334394
20
0.477222572776697
30
0
41
1
10
28.7444815846253
20
0.410566527465761
30
0
41
1
10
28.7663070716738
20
0.366180692811525
30
0
41
1
10
28.8091389926913
20
0.277356826807477
30
0
41
1
10
28.8302183244471
20
0.232923319157919
30
0
41
1
10
28.8599219351266
20
0.165869207998298
30
0
41
1
10
28.8694981849569
20
0.143428549515477
30
0
41
1
10
28.8806667098439
20
0.115233920664565
30
0
41
1
10
28.882860360765
20
0.109587504334087
30
0
41
1
10
28.8871236876953
20
0.0982479385582451
30
0
41
1
10
28.8891980212556
20
0.0925586251425443
30
0
41
1
10
28.8930646619574
20
0.0810021805338295
30
0
41
1
10
28.8948524470186
20
0.0751202351733298
30
0
41
1
10
28.8977723428898
20
0.0632042323302926
30
0
41
1
10
28.8989089529028
20
0.0571510629749525
30
0
41
1
10
28.9003107788899
20
0.04479131059
30
0
41
1
10
28.9005528474373
20
0.038644199007166
30
0
41
1
10
28.9000668164425
20
0.0266857273976768
30
0
41
1
10
28.8993221971781
20
0.0207819514122036
30
0
41
1
10
28.8969961025892
20
0.0098071876917629
30
0
41
1
10
28.8954056728882
20
0.0046560207126731
30
0
41
1
10
28.8916913201518
20
-0.0050575552613452
30
0
41
1
10
28.8896091649066
20
-0.0095768200496593
30
0
41
1
10
28.88309773604
20
-0.0228541385095582
30
0
41
1
10
28.8784307754232
20
-0.0314038410882631
30
0
41
1
10
28.8688023067433
20
-0.0483833158376399
30
0
41
1
10
28.8638130535755
20
-0.0567530125404119
30
0
41
1
10
28.8484535167968
20
-0.0814679279932022
30
0
41
1
10
28.8377120925932
20
-0.0973965853884238
30
0
41
1
10
28.8158462465569
20
-0.128123706091685
30
0
41
1
10
28.8046951255187
20
-0.142958475022113
30
0
41
1
10
28.7709006398767
20
-0.186038717437668
30
0
41
1
10
28.7479301266784
20
-0.212865551671058
30
0
41
1
10
28.7016667249811
20
-0.263036285060394
30
0
41
1
10
28.6783547546441
20
-0.286371888674808
30
0
41
1
10
28.643197817455
20
-0.318785661761723
30
0
41
1
10
28.6314298861863
20
-0.329168960895345
30
0
41
1
10
28.6080152350092
20
-0.34891119755639
30
0
41
1
10
28.5963475191306
20
-0.358290623519508
30
0
41
1
10
28.5614522858395
20
-0.384988829016891
30
0
41
1
10
28.5383330617627
20
-0.400870990385982
30
0
41
1
10
28.4692883096197
20
-0.442928389866438
30
0
41
1
10
28.4236773638933
20
-0.463555186890943
30
0
41
1
10
28.3781092593578
20
-0.476644578102906
30
0
0
SPLINE
5
C0
100
AcDbEntity
8
1
62
256
6
ByLayer
370
18
48
1
60
0
100
AcDbSpline
70
4
71
3
72
56
73
52
40
0
40
0
40
0
40
0
40
0.0442399578131053
40
0.0442399578131053
40
0.066359936719658
40
0.066359936719658
40
0.0884799156262107
40
0.0884799156262107
40
0.176959831252421
40
0.176959831252421
40
0.221199789065527
40
0.221199789065527
40
0.243319767972077
40
0.243319767972077
40
0.265439746878628
40
0.265439746878628
40
0.309679704691733
40
0.309679704691733
40
0.331799683598284
40
0.331799683598284
40
0.353919662504835
40
0.353919662504835
40
0.442399578131038
40
0.442399578131038
40
0.486639535944139
40
0.486639535944139
40
0.530879493757241
40
0.530879493757241
40
0.575119451570342
40
0.575119451570342
40
0.619359409383443
40
0.619359409383443
40
0.663599367196545
40
0.663599367196545
40
0.685719346103094
40
0.685719346103094
40
0.707839325009642
40
0.707839325009642
40
0.752079282822744
40
0.752079282822744
40
0.796319240635845
40
0.796319240635845
40
0.840559198448947
40
0.840559198448947
40
0.884799156262048
40
0.884799156262048
40
0.92903911407515
40
0.92903911407515
40
0.973279071888251
40
0.973279071888251
40
1
40
1
40
1
40
1
41
1
10
28.3781092593576
20
-0.476644578102821
30
0
41
1
10
28.3162982044062
20
-0.445636875477646
30
0
41
1
10
28.2547727890632
20
-0.41399619117567
30
0
41
1
10
28.1629372819531
20
-0.365539611499742
30
0
41
1
10
28.132404795303
20
-0.349214272616678
30
0
41
1
10
28.0713816349889
20
-0.316427621632187
30
0
41
1
10
28.0408737334288
20
-0.299997496364483
30
0
41
1
10
27.888332591498
20
-0.217702779315459
30
0
41
1
10
27.7664444469244
20
-0.151136237093624
30
0
41
1
10
27.5835042689917
20
-0.0508089984211892
30
0
41
1
10
27.5225159840241
20
-0.0172691028501504
30
0
41
1
10
27.4311067926353
20
0.033347816373464
30
0
41
1
10
27.400649847515
20
0.0502724768391829
30
0
41
1
10
27.3397573741204
20
0.0842201502817375
30
0
41
1
10
27.3093273975998
20
0.101253557543629
30
0
41
1
10
27.2179353728444
20
0.152253722281472
30
0
41
1
10
27.1567663601086
20
0.185924693096638
30
0
41
1
10
27.0646755253959
20
0.235979649116814
30
0
41
1
10
27.0339243285919
20
0.25259313836554
30
0
41
1
10
26.9723054094301
20
0.285662183762497
30
0
41
1
10
26.9414066941109
20
0.302134100058623
30
0
41
1
10
26.7869625323903
20
0.383832314019372
30
0
41
1
10
26.6640742460015
20
0.446743822103315
30
0
41
1
10
26.4812281060385
20
0.538297559991378
30
0
41
1
10
26.4205269752921
20
0.568323382964508
30
0
41
1
10
26.2988598078496
20
0.62617836589672
30
0
41
1
10
26.2379850079351
20
0.654164017423255
30
0
41
1
10
26.116167220184
20
0.708310409171361
30
0
41
1
10
26.0552076041948
20
0.734445215848751
30
0
41
1
10
25.9331249608151
20
0.78476205619981
30
0
41
1
10
25.8720103820579
20
0.808958728533668
30
0
41
1
10
25.7497480301224
20
0.855540811060393
30
0
41
1
10
25.688635841101
20
0.877966340015831
30
0
41
1
10
25.5968002544055
20
0.909998590326722
30
0
41
1
10
25.5661292209944
20
0.920371252989355
30
0
41
1
10
25.5046143271407
20
0.940447303619294
30
0
41
1
10
25.4737441609279
20
0.950172640568979
30
0
41
1
10
25.3812116622162
20
0.978320990080078
30
0
41
1
10
25.3196913483201
20
0.995699353298505
30
0
41
1
10
25.1968962623208
20
1.02768848877554
30
0
41
1
10
25.1356072921814
20
1.04229005246773
30
0
41
1
10
25.0132973166337
20
1.06879234826442
30
0
41
1
10
24.9522915402785
20
1.08070464008901
30
0
41
1
10
24.8306501861179
20
1.10183012022253
30
0
41
1
10
24.7700425634263
20
1.11103672355685
30
0
41
1
10
24.6484637001245
20
1.12635293295421
30
0
41
1
10
24.5875665377094
20
1.132515370654
30
0
41
1
10
24.4655925868656
20
1.14191089166169
30
0
41
1
10
24.4044999593331
20
1.14513692286098
30
0
41
1
10
24.3062784562598
20
1.14794623172162
30
0
41
1
10
24.2692425358134
20
1.14846832298443
30
0
41
1
10
24.2321688946236
20
1.14844626152515
30
0
0
SPLINE
5
C1
100
AcDbEntity
8
1
62
256
6
ByLayer
370
18
48
1
60
0
100
AcDbSpline
70
4
71
3
72
108
73
104
40
0
40
0
40
0
40
0
40
0.0165806275960051
40
0.0165806275960051
40
0.0386293995557058
40
0.0386293995557058
40
0.0606781715154063
40
0.0606781715154063
40
0.0717025574952555
40
0.0717025574952555
40
0.0827269434751047
40
0.0827269434751047
40
0.126824487394498
40
0.126824487394498
40
0.148873259354194
40
0.148873259354194
40
0.159897645334042
40
0.159897645334042
40
0.17092203131389
40
0.17092203131389
40
0.192970803273583
40
0.192970803273583
40
0.215019575233277
40
0.215019575233277
40
0.237068347192971
40
0.237068347192971
40
0.259117119152665
40
0.259117119152665
40
0.270141505132512
40
0.270141505132512
40
0.281165891112359
40
0.281165891112359
40
0.303214663072054
40
0.303214663072054
40
0.32526343503175
40
0.32526343503175
40
0.336287821011597
40
0.336287821011597
40
0.347312206991444
40
0.347312206991444
40
0.358336592971291
40
0.358336592971291
40
0.369360978951137
40
0.369360978951137
40
0.391409750910833
40
0.391409750910833
40
0.413458522870529
40
0.413458522870529
40
0.435507294830224
40
0.435507294830224
40
0.45755606678992
40
0.45755606678992
40
0.468580452769769
40
0.468580452769769
40
0.479604838749618
40
0.479604838749618
40
0.501653610709317
40
0.501653610709317
40
0.523702382669017
40
0.523702382669017
40
0.545751154628716
40
0.545751154628716
40
0.556775540608566
40
0.556775540608566
40
0.567799926588416
40
0.567799926588416
40
0.589848698548118
40
0.589848698548118
40
0.611897470507819
40
0.611897470507819
40
0.655995014427224
40
0.655995014427224
40
0.667019400407075
40
0.667019400407075
40
0.678043786386927
40
0.678043786386927
40
0.70009255834663
40
0.70009255834663
40
0.722141330306334
40
0.722141330306334
40
0.744190102266038
40
0.744190102266038
40
0.755214488245889
40
0.755214488245889
40
0.766238874225739
40
0.766238874225739
40
0.788287646185443
40
0.788287646185443
40
0.810336418145146
40
0.810336418145146
40
0.83238519010485
40
0.83238519010485
40
0.854433962064553
40
0.854433962064553
40
0.876482734024257
40
0.876482734024257
40
0.920580277943664
40
0.920580277943664
40
0.942629049903366
40
0.942629049903366
40
0.964677821863069
40
0.964677821863069
40
1
40
1
40
1
40
1
41
1
10
19.5240837115573
20
-0.738602783519411
30
0
41
1
10
19.4777695743402
20
-0.75811081755387
30
0
41
1
10
19.4315405784652
20
-0.776991959427789
30
0
41
1
10
19.3239847186618
20
-0.819486625650228
30
0
41
1
10
19.2627055692769
20
-0.842610392443646
30
0
41
1
10
19.140473005848
20
-0.886743579828106
30
0
41
1
10
19.0795365931079
20
-0.907770639069071
30
0
41
1
10
18.9883788256854
20
-0.937670184235344
30
0
41
1
10
18.958030952504
20
-0.947357822124104
30
0
41
1
10
18.8972613727258
20
-0.966020298005645
30
0
41
1
10
18.8668453121456
20
-0.975002804762937
30
0
41
1
10
18.7146477755753
20
-1.01823727193465
30
0
41
1
10
18.5925716038605
20
-1.0475229366447
30
0
41
1
10
18.408664807829
20
-1.08330876879697
30
0
41
1
10
18.3472525178232
20
-1.0938954314027
30
0
41
1
10
18.2550392631381
20
-1.10773056511351
30
0
41
1
10
18.2242872940167
20
-1.1120008804435
30
0
41
1
10
18.162731161634
20
-1.11982679777873
30
0
41
1
10
18.1319299246367
20
-1.12338149423954
30
0
41
1
10
18.0396865470325
20
-1.13283311995906
30
0
41
1
10
17.9782635118516
20
-1.13755577286415
30
0
41
1
10
17.8556439654206
20
-1.14400569771618
30
0
41
1
10
17.7944374184315
20
-1.1457254588673
30
0
41
1
10
17.6721308985382
20
-1.14621732307001
30
0
41
1
10
17.6110273949111
20
-1.14499451273693
30
0
41
1
10
17.489016498504
20
-1.13961081441013
30
0
41
1
10
17.4281255871419
20
-1.13544479475342
30
0
41
1
10
17.3369566746894
20
-1.12691059844309
30
0
41
1
10
17.3065967164924
20
-1.12368199938766
30
0
41
1
10
17.2457925851389
20
-1.11650495269188
30
0
41
1
10
17.2153433975784
20
-1.11256061394627
30
0
41
1
10
17.1238766210612
20
-1.09966798677647
30
0
41
1
10
17.062755488195
20
-1.08965325095679
30
0
41
1
10
16.9401985273534
20
-1.0668186615242
30
0
41
1
10
16.8787453943057
20
-1.05401000283672
30
0
41
1
10
16.786283465284
20
-1.0327092205558
30
0
41
1
10
16.7554179255869
20
-1.02525913538665
30
0
41
1
10
16.6936127646586
20
-1.00963363195294
30
0
41
1
10
16.662698417501
20
-1.00146322320003
30
0
41
1
10
16.6010922526207
20
-0.984455144020558
30
0
41
1
10
16.5703696932724
20
-0.975606239260486
30
0
41
1
10
16.5090698927153
20
-0.957228478733498
30
0
41
1
10
16.4784991934911
20
-0.947691681037355
30
0
41
1
10
16.3868151888563
20
-0.918263328839231
30
0
41
1
10
16.3256976421904
20
-0.897598022941736
30
0
41
1
10
16.2035653458326
20
-0.854150534504271
30
0
41
1
10
16.142543357473
20
-0.831373304821454
30
0
41
1
10
16.0204905284449
20
-0.783871157343668
30
0
41
1
10
15.9594536471756
20
-0.759157403665142
30
0
41
1
10
15.8374453257232
20
-0.707683511413336
30
0
41
1
10
15.7764905100056
20
-0.680898639627031
30
0
41
1
10
15.6851432340658
20
-0.639075617500936
30
0
41
1
10
15.6547118253403
20
-0.624853290452961
30
0
41
1
10
15.5937572326574
20
-0.596038660506849
30
0
41
1
10
15.5632202675376
20
-0.58146941792748
30
0
41
1
10
15.4714362946731
20
-0.537276530222755
30
0
41
1
10
15.4100387565908
20
-0.507131811911194
30
0
41
1
10
15.2868131035862
20
-0.445504143735008
30
0
41
1
10
15.2248337033083
20
-0.41398076474033
30
0
41
1
10
15.101396639201
20
-0.350244797039835
30
0
41
1
10
15.0398754612385
20
-0.317976567574931
30
0
41
1
10
14.9479721805486
20
-0.268822278317884
30
0
41
1
10
14.9174021771462
20
-0.252309686262123
30
0
41
1
10
14.8563812658885
20
-0.219046522520671
30
0
41
1
10
14.8259371847184
20
-0.202283347536593
30
0
41
1
10
14.7346202585549
20
-0.151937475891458
30
0
41
1
10
14.6736908000407
20
-0.118431251717709
30
0
41
1
10
14.5518057778146
20
-0.0513949203936477
30
0
41
1
10
14.4908499611673
20
-0.0178651617483183
30
0
41
1
10
14.3078031142006
20
0.082499593970681
30
0
41
1
10
14.1855025973516
20
0.149052426543676
30
0
41
1
10
14.0326772035067
20
0.232523512882324
30
0
41
1
10
14.0021159001802
20
0.249234242620275
30
0
41
1
10
13.9408927689234
20
0.282488055748331
30
0
41
1
10
13.9102123484841
20
0.298996509411836
30
0
41
1
10
13.817941933338
20
0.348124152664099
30
0
41
1
10
13.7560254274568
20
0.380471819489145
30
0
41
1
10
13.6327006395798
20
0.443691291429445
30
0
41
1
10
13.5711899575573
20
0.474579708847131
30
0
41
1
10
13.4484166090852
20
0.534867202722893
30
0
41
1
10
13.3871638937341
20
0.564286040615116
30
0
41
1
10
13.2955713723732
20
0.607459440939323
30
0
41
1
10
13.2650890207775
20
0.621691726799952
30
0
41
1
10
13.204217760426
20
0.649825332270183
30
0
41
1
10
13.1738346158459
20
0.663734721107261
30
0
41
1
10
13.0826903323753
20
0.704752967704565
30
0
41
1
10
13.0218301071416
20
0.73100160091397
30
0
41
1
10
12.8999477496101
20
0.781409819992604
30
0
41
1
10
12.8389364250346
20
0.805582308376074
30
0
41
1
10
12.7166859386086
20
0.851762241610828
30
0
41
1
10
12.6554349749731
20
0.873757140585269
30
0
41
1
10
12.5327433401785
20
0.915616449338415
30
0
41
1
10
12.4713186402688
20
0.935499832455605
30
0
41
1
10
12.348353992494
20
0.973128131979024
30
0
41
1
10
12.2866929184432
20
0.990891676359553
30
0
41
1
10
12.102051920141
20
1.03935795399062
30
0
41
1
10
11.979439246718
20
1.06584389228934
30
0
41
1
10
11.7959239196407
20
1.09710651793276
30
0
41
1
10
11.7348232422217
20
1.10611774803107
30
0
41
1
10
11.6128804557532
20
1.12135121536494
30
0
41
1
10
11.5520756737705
20
1.12757915438365
30
0
41
1
10
11.3939522110105
20
1.1399278493044
30
0
41
1
10
11.2962489903112
20
1.14364622109801
30
0
41
1
10
11.1981525492008
20
1.14355987881669
30
0
0
SPLINE
5
C2
100
AcDbEntity
8
1
62
256
6
ByLayer
370
18
48
1
60
0
100
AcDbSpline
70
4
71
3
72
26
73
22
40
0
40
0
40
0
40
0
40
0.0378083313007826
40
0.0378083313007826
40
0.0944078412242678
40
0.0944078412242678
40
0.320805880918212
40
0.320805880918212
40
0.434004900765184
40
0.434004900765184
40
0.490604410688667
40
0.490604410688667
40
0.547203920612151
40
0.547203920612151
40
0.660402940459115
40
0.660402940459115
40
0.773601960306077
40
0.773601960306077
40
0.886800980153039
40
0.886800980153039
40
1
40
1
40
1
40
1
41
1
10
6.50074123590448
20
-0.730184892278771
30
0
41
1
10
6.48018236349947
20
-0.738991012577628
30
0
41
1
10
6.45959837765861
20
-0.747692932722032
30
0
41
1
10
6.40814513725164
20
-0.769068432650926
30
0
41
1
10
6.37732626706148
20
-0.781558607657928
30
0
41
1
10
6.22340855908635
20
-0.842483711704261
30
0
41
1
10
6.10085072516466
20
-0.886374932129115
30
0
41
1
10
5.91754239428053
20
-0.944926217333006
30
0
41
1
10
5.85655716192622
20
-0.963260761670739
30
0
41
1
10
5.76532658235595
20
-0.989024471992821
30
0
41
1
10
5.73495850168752
20
-0.997322176880658
30
0
41
1
10
5.67427906367391
20
-1.013300051952
30
0
41
1
10
5.64396126772311
20
-1.02097322896844
30
0
41
1
10
5.55287192993075
20
-1.04288226431174
30
0
41
1
10
5.49201994676278
20
-1.05606293006474
30
0
41
1
10
5.37014261504288
20
-1.07967650309422
30
0
41
1
10
5.30909579274515
20
-1.09009047060394
30
0
41
1
10
5.18667272389573
20
-1.10807787852036
30
0
41
1
10
5.1253039456935
20
-1.11566088176499
30
0
41
1
10
5.00235519664756
20
-1.12799354689534
30
0
41
1
10
4.94077667382652
20
-1.13274724874992
30
0
41
1
10
4.87918802521776
20
-1.13600893239888
30
0
0
SPLINE
5
C3
100
AcDbEntity
8
1
62
256
6
ByLayer
370
18
48
1
60
0
100
AcDbSpline
70
4
71
3
72
54
73
50
40
0
40
0
40
0
40
0
40
0.0536826314536383
40
0.0536826314536383
40
0.107365262907277
40
0.107365262907277
40
0.214730525814556
40
0.214730525814556
40
0.268413157268195
40
0.268413157268195
40
0.322095788721835
40
0.322095788721835
40
0.375778420175474
40
0.375778420175474
40
0.402619735902294
40
0.402619735902294
40
0.429461051629114
40
0.429461051629114
40
0.456302367355934
40
0.456302367355934
40
0.483143683082753
40
0.483143683082753
40
0.509984998809573
40
0.509984998809573
40
0.536826314536393
40
0.536826314536393
40
0.590508945990032
40
0.590508945990032
40
0.644191577443672
40
0.644191577443672
40
0.697874208897312
40
0.697874208897312
40
0.751556840350949
40
0.751556840350949
40
0.805239471804586
40
0.805239471804586
40
0.832080787531407
40
0.832080787531407
40
0.858922103258228
40
0.858922103258228
40
0.912604734711874
40
0.912604734711874
40
0.939446050438695
40
0.939446050438695
40
0.966287366165516
40
0.966287366165516
40
0.993128681892337
40
0.993128681892337
40
1
40
1
40
1
40
1
41
1
10
4.87918802521779
20
0.0911266768409575
30
0
41
1
10
4.94057312523961
20
0.0563199965471597
30
0
41
1
10
5.00207606705962
20
0.0221900009643434
30
0
41
1
10
5.12510578767575
20
-0.0452184160357945
30
0
41
1
10
5.18663025583174
20
-0.0785013392483904
30
0
41
1
10
5.37079524044694
20
-0.17795741338324
30
0
41
1
10
5.49290318786916
20
-0.243967356073654
30
0
41
1
10
5.67521195906158
20
-0.34212529954749
30
0
41
1
10
5.73578578700392
20
-0.374787696648923
30
0
41
1
10
5.85767966407639
20
-0.438002677692623
30
0
41
1
10
5.91896843546124
20
-0.468620400020143
30
0
41
1
10
6.04190276577975
20
-0.528477957390635
30
0
41
1
10
6.10354049645804
20
-0.557730932215009
30
0
41
1
10
6.1960406366189
20
-0.600936616778938
30
0
41
1
10
6.2268882809052
20
-0.615213888398188
30
0
41
1
10
6.28862464680302
20
-0.643492754914433
30
0
41
1
10
6.31955036198246
20
-0.657510353621973
30
0
41
1
10
6.38123379424968
20
-0.68514431692472
30
0
41
1
10
6.4119908020879
20
-0.698763068315174
30
0
41
1
10
6.47332833243746
20
-0.725604819245547
30
0
41
1
10
6.50389724360116
20
-0.738843582101964
30
0
41
1
10
6.56497274513302
20
-0.764750007114174
30
0
41
1
10
6.59548414095426
20
-0.777410766666009
30
0
41
1
10
6.65659848351277
20
-0.80196928138875
30
0
41
1
10
6.68719642770949
20
-0.813876018257702
30
0
41
1
10
6.7790554198582
20
-0.848596508298328
30
0
41
1
10
6.84038194356683
20
-0.870417454648731
30
0
41
1
10
6.96288156154728
20
-0.911884630204668
30
0
41
1
10
7.02402213179528
20
-0.931561488462421
30
0
41
1
10
7.14607043532624
20
-0.968742804854571
30
0
41
1
10
7.20700124393605
20
-0.986223327264668
30
0
41
1
10
7.32868268477213
20
-1.01884190679806
30
0
41
1
10
7.38936069440553
20
-1.03401834434132
30
0
41
1
10
7.51153556371662
20
-1.06116253177467
30
0
41
1
10
7.57303966250021
20
-1.07315901045561
30
0
41
1
10
7.66567348631276
20
-1.08904986978084
30
0
41
1
10
7.6966144473991
20
-1.09399429501082
30
0
41
1
10
7.75858131048074
20
-1.10319833242605
30
0
41
1
10
7.78962743096358
20
-1.10746098186993
30
0
41
1
10
7.88242718757925
20
-1.11917091400719
30
0
41
1
10
7.94398155044209
20
-1.12555175333435
30
0
41
1
10
8.03590493072818
20
-1.13291208698996
30
0
41
1
10
8.06647739327116
20
-1.13499738434621
30
0
41
1
10
8.12747803574848
20
-1.13841998733471
30
0
41
1
10
8.15789381884451
20
-1.1397578527382
30
0
41
1
10
8.21867387911277
20
-1.14165993975519
30
0
41
1
10
8.24904557761687
20
-1.14222305144546
30
0
41
1
10
8.28726130104624
20
-1.14245178193801
30
0
41
1
10
8.29505424402748
20
-1.14247359712499
30
0
41
1
10
8.3028506722826
20
-1.14247087152603
30
0
0
SPLINE
5
C4
100
AcDbEntity
8
1
62
256
6
ByLayer
370
18
48
1
60
0
100
AcDbSpline
70
4
71
3
72
122
73
118
40
0
40
0
40
0
40
0
40
0.015716716381014
40
0.015716716381014
40
0.0267537560459713
40
0.0267537560459713
40
0.0377907957109286
40
0.0377907957109286
40
0.0598648750408451
40
0.0598648750408451
40
0.0709019147058033
40
0.0709019147058033
40
0.0819389543707614
40
0.0819389543707614
40
0.104013033700678
40
0.104013033700678
40
0.115050073365636
40
0.115050073365636
40
0.126087113030594
40
0.126087113030594
40
0.148161192360513
40
0.148161192360513
40
0.170235271690431
40
0.170235271690431
40
0.214383430350266
40
0.214383430350266
40
0.225420470015225
40
0.225420470015225
40
0.236457509680184
40
0.236457509680184
40
0.247494549345144
40
0.247494549345144
40
0.258531589010103
40
0.258531589010103
40
0.280605668340019
40
0.280605668340019
40
0.302679747669935
40
0.302679747669935
40
0.313716787334894
40
0.313716787334894
40
0.324753826999852
40
0.324753826999852
40
0.33579086666481
40
0.33579086666481
40
0.346827906329769
40
0.346827906329769
40
0.368901985659685
40
0.368901985659685
40
0.390976064989601
40
0.390976064989601
40
0.413050144319518
40
0.413050144319518
40
0.424087183984475
40
0.424087183984475
40
0.435124223649432
40
0.435124223649432
40
0.457198302979349
40
0.457198302979349
40
0.479272382309265
40
0.479272382309265
40
0.501346461639182
40
0.501346461639182
40
0.512383501304141
40
0.512383501304141
40
0.5234205409691
40
0.5234205409691
40
0.534457580634059
40
0.534457580634059
40
0.545494620299018
40
0.545494620299018
40
0.567568699628938
40
0.567568699628938
40
0.589642778958858
40
0.589642778958858
40
0.611716858288779
40
0.611716858288779
40
0.633790937618699
40
0.633790937618699
40
0.655865016948619
40
0.655865016948619
40
0.677939096278539
40
0.677939096278539
40
0.70001317560846
40
0.70001317560846
40
0.711050215273421
40
0.711050215273421
40
0.722087254938382
40
0.722087254938382
40
0.733124294603343
40
0.733124294603343
40
0.744161334268304
40
0.744161334268304
40
0.766235413598228
40
0.766235413598228
40
0.788309492928152
40
0.788309492928152
40
0.810383572258076
40
0.810383572258076
40
0.832457651588
40
0.832457651588
40
0.854531730917924
40
0.854531730917924
40
0.876605810247848
40
0.876605810247848
40
0.898679889577772
40
0.898679889577772
40
0.909716929242735
40
0.909716929242735
40
0.920753968907697
40
0.920753968907697
40
0.931791008572659
40
0.931791008572659
40
0.942828048237621
40
0.942828048237621
40
0.964902127567543
40
0.964902127567543
40
1
40
1
40
1
40
1
41
1
10
13.0159539911687
20
0.737472112428719
30
0
41
1
10
13.059279355041
20
0.755897166349683
30
0
41
1
10
13.1025531238257
20
0.773937663712957
30
0
41
1
10
13.17614516463
20
0.803939805597736
30
0
41
1
10
13.2065044576499
20
0.816083705940514
30
0
41
1
10
13.2673759874639
20
0.839704571056956
30
0
41
1
10
13.2979003006403
20
0.851167042620773
30
0
41
1
10
13.3897670130693
20
0.884500459971832
30
0
41
1
10
13.4513696452251
20
0.905366665144328
30
0
41
1
10
13.5440624343547
20
0.93496339695875
30
0
41
1
10
13.5750081362238
20
0.944543890430538
30
0
41
1
10
13.6369549151397
20
0.963172114389067
30
0
41
1
10
13.66793450252
20
0.972213326767672
30
0
41
1
10
13.7605389205851
20
0.998382686872048
30
0
41
1
10
13.8219711732897
20
1.01459375152166
30
0
41
1
10
13.9136929438087
20
1.03697521999462
30
0
41
1
10
13.944188069514
20
1.04411893307707
30
0
41
1
10
14.0050489845422
20
1.05773610787409
30
0
41
1
10
14.0354277378268
20
1.06419820963592
30
0
41
1
10
14.1266401242039
20
1.08239829872366
30
0
41
1
10
14.187640596601
20
1.09290546365148
30
0
41
1
10
14.3098721350981
20
1.11098053137917
30
0
41
1
10
14.3710788833551
20
1.11856464187946
30
0
41
1
10
14.5544705074335
20
1.13718983037933
30
0
41
1
10
14.6764199825817
20
1.14408836349665
30
0
41
1
10
14.8287258754453
20
1.14503554196267
30
0
41
1
10
14.8591927109169
20
1.14483695260208
30
0
41
1
10
14.9202947457179
20
1.14366561065637
30
0
41
1
10
14.9509402077102
20
1.14269506545767
30
0
41
1
10
15.0124673499555
20
1.14001531136242
30
0
41
1
10
15.0433378545781
20
1.13830569756013
30
0
41
1
10
15.1052505207434
20
1.13415564732492
30
0
41
1
10
15.1362604960877
20
1.13171657295823
30
0
41
1
10
15.2290659628118
20
1.1233360569222
30
0
41
1
10
15.2907411676581
20
1.11632028374299
30
0
41
1
10
15.4135290182966
20
1.09934171166808
30
0
41
1
10
15.4746745590701
20
1.08938902724219
30
0
41
1
10
15.5660572870997
20
1.07222775297637
30
0
41
1
10
15.5964575363136
20
1.06613206072785
30
0
41
1
10
15.6571442201484
20
1.05318003985127
30
0
41
1
10
15.6874411475572
20
1.0463292913692
30
0
41
1
10
15.7480985740361
20
1.03199809579414
30
0
41
1
10
15.7784684038523
20
1.0245261111391
30
0
41
1
10
15.839350940357
20
1.00904614861076
30
0
41
1
10
15.8698517134565
20
1.00102920970187
30
0
41
1
10
15.9614713382556
20
0.976123388880637
30
0
41
1
10
16.0227083979548
20
0.958388088688594
30
0
41
1
10
16.1451646284635
20
0.920335018287489
30
0
41
1
10
16.2063649943648
20
0.89998779827522
30
0
41
1
10
16.3287866419066
20
0.856615014651027
30
0
41
1
10
16.3900177110457
20
0.833603854325162
30
0
41
1
10
16.4818922743094
20
0.796964470584072
30
0
41
1
10
16.5125293814423
20
0.78440505408858
30
0
41
1
10
16.5739874821346
20
0.758811229716173
30
0
41
1
10
16.6047842923249
20
0.745802317807971
30
0
41
1
10
16.6971505350943
20
0.706485477266284
30
0
41
1
10
16.7587787873688
20
0.679763016475647
30
0
41
1
10
16.8818287743129
20
0.624897902492563
30
0
41
1
10
16.9432312824964
20
0.596723642355727
30
0
41
1
10
17.0655845303775
20
0.538550898000608
30
0
41
1
10
17.1265683489501
20
0.508603466380492
30
0
41
1
10
17.217799907024
20
0.46243774171171
30
0
41
1
10
17.248167128797
20
0.446837333537673
30
0
41
1
10
17.3088101077138
20
0.415197544961899
30
0
41
1
10
17.3390902897936
20
0.399164928612464
30
0
41
1
10
17.3997264534263
20
0.366947822367763
30
0
41
1
10
17.4300884818944
20
0.350774240036657
30
0
41
1
10
17.4909925607424
20
0.31846951915054
30
0
41
1
10
17.5215212773377
20
0.302315341158419
30
0
41
1
10
17.6132758212359
20
0.253749362096101
30
0
41
1
10
17.674670322388
20
0.221237928201276
30
0
41
1
10
17.7975789316764
20
0.155343518826584
30
0
41
1
10
17.8590682032033
20
0.121910291169115
30
0
41
1
10
17.9821813527088
20
0.054135774365335
30
0
41
1
10
18.0439577143449
20
0.0197446026869841
30
0
41
1
10
18.1666151364262
20
-0.049362525023497
30
0
41
1
10
18.227591638635
20
-0.0840674179536052
30
0
41
1
10
18.3499653514811
20
-0.15168084243021
30
0
41
1
10
18.4112769812268
20
-0.184763751964226
30
0
41
1
10
18.5338339898256
20
-0.250127866473491
30
0
41
1
10
18.5950645627354
20
-0.282435237350825
30
0
41
1
10
18.7171885948126
20
-0.346724089899652
30
0
41
1
10
18.778114361933
20
-0.378645503682009
30
0
41
1
10
18.8693517296809
20
-0.426072959146523
30
0
41
1
10
18.8997369634782
20
-0.441809808340736
30
0
41
1
10
18.9604469673749
20
-0.473142632679128
30
0
41
1
10
18.9907669929481
20
-0.488745943839064
30
0
41
1
10
19.0514952357181
20
-0.51955678931148
30
0
41
1
10
19.0819069272023
20
-0.534758676652103
30
0
41
1
10
19.1429439493582
20
-0.564566083143433
30
0
41
1
10
19.1735570898494
20
-0.579192384068421
30
0
41
1
10
19.2656182849723
20
-0.622351349204195
30
0
41
1
10
19.3272877813897
20
-0.650167573047014
30
0
41
1
10
19.4508896552169
20
-0.704410920595649
30
0
41
1
10
19.5129005748077
20
-0.730920949218586
30
0
41
1
10
19.6360640623752
20
-0.782045430545054
30
0
41
1
10
19.6973472921796
20
-0.806686872382443
30
0
41
1
10
19.8192986438356
20
-0.854073314259182
30
0
41
1
10
19.8799447169263
20
-0.876818239319363
30
0
41
1
10
20.0017559851036
20
-0.919059552332811
30
0
41
1
10
20.0628589771417
20
-0.93866356090993
30
0
41
1
10
20.1851380763029
20
-0.975341639961982
30
0
41
1
10
20.2463039509825
20
-0.99242459015548
30
0
41
1
10
20.368415617013
20
-1.0243005629105
30
0
41
1
10
20.4293914056721
20
-1.03905936625279
30
0
41
1
10
20.5207954647627
20
-1.05929666625948
30
0
41
1
10
20.5512520655925
20
-1.06572675728913
30
0
41
1
10
20.6121370807
20
-1.07793999897655
30
0
41
1
10
20.642555223121
20
-1.08372815283326
30
0
41
1
10
20.7034880449322
20
-1.09456276985244
30
0
41
1
10
20.7340066691522
20
-1.0996069451239
30
0
41
1
10
20.7952841966559
20
-1.108889514732
30
0
41
1
10
20.8260353359812
20
-1.11313415216335
30
0
41
1
10
20.918563518848
20
-1.12473773759856
30
0
41
1
10
20.9806992444384
20
-1.1309755554488
30
0
41
1
10
21.140696792656
20
-1.14332388930705
30
0
41
1
10
21.2382425399298
20
-1.14725127326256
30
0
41
1
10
21.3351719272383
20
-1.14736014353525
30
0
0
SPLINE
5
C5
100
AcDbEntity
8
1
62
256
6
ByLayer
370
18
48
1
60
0
100
AcDbSpline
70
4
71
3
72
38
73
34
40
0
40
0
40
0
40
0
40
0.0623534163642376
40
0.0623534163642376
40
0.140490631667223
40
0.140490631667223
40
0.179559239318712
40
0.179559239318712
40
0.218627846970201
40
0.218627846970201
40
0.296765062273186
40
0.296765062273186
40
0.335833669924682
40
0.335833669924682
40
0.374902277576178
40
0.374902277576178
40
0.531176708182148
40
0.531176708182148
40
0.570245315833635
40
0.570245315833635
40
0.609313923485122
40
0.609313923485122
40
0.687451138788095
40
0.687451138788095
40
0.765588354091071
40
0.765588354091071
40
0.843725569394046
40
0.843725569394046
40
0.882794177045532
40
0.882794177045532
40
0.921862784697019
40
0.921862784697019
40
1
40
1
40
1
40
1
41
1
10
26.0337679787776
20
0.734711263612269
30
0
41
1
10
26.082525514153
20
0.755151225076844
30
0
41
1
10
26.1312449787036
20
0.775050283611535
30
0
41
1
10
26.2408715614608
20
0.818716991225784
30
0
41
1
10
26.3017724189984
20
0.842146034569112
30
0
41
1
10
26.3930492637984
20
0.87589415531292
30
0
41
1
10
26.4234526201696
20
0.886922375970642
30
0
41
1
10
26.484264213478
20
0.908462375567751
30
0
41
1
10
26.5146858937145
20
0.918957427930536
30
0
41
1
10
26.6062277497558
20
0.949360421715284
30
0
41
1
10
26.6677040032385
20
0.968109127724915
30
0
41
1
10
26.7604176159483
20
0.994218214589978
30
0
41
1
10
26.7914345853139
20
1.00259668532814
30
0
41
1
10
26.853314104145
20
1.01865918057982
30
0
41
1
10
26.8841989161444
20
1.02635036796894
30
0
41
1
10
27.0382452653211
20
1.06320118683297
30
0
41
1
10
27.1603040287836
20
1.08752802105045
30
0
41
1
10
27.3116480503374
20
1.11090428173452
30
0
41
1
10
27.3418750738621
20
1.11521464410316
30
0
41
1
10
27.4023972609531
20
1.12304552817267
30
0
41
1
10
27.4327044396254
20
1.12656279247469
30
0
41
1
10
27.5237940140471
20
1.13595761113345
30
0
41
1
10
27.5847123374633
20
1.14070086608521
30
0
41
1
10
27.7066109291287
20
1.14734806729766
30
0
41
1
10
27.767566666442
20
1.14925196748709
30
0
41
1
10
27.8893426020988
20
1.1501499320139
30
0
41
1
10
27.9501950485499
20
1.14913806138424
30
0
41
1
10
28.0414645270605
20
1.14531872257211
30
0
41
1
10
28.0718805917795
20
1.14366078456013
30
0
41
1
10
28.1327152111301
20
1.13955247021301
30
0
41
1
10
28.1631455936622
20
1.13710270551556
30
0
41
1
10
28.2547091248702
20
1.12862647448321
30
0
41
1
10
28.316209907956
20
1.12151790368722
30
0
41
1
10
28.3781092593576
20
1.11301164432052
30
0
0
SPLINE
5
C6
100
AcDbEntity
8
1
62
256
6
ByLayer
370
18
48
1
60
0
100
AcDbSpline
70
4
71
3
72
120
73
116
40
0
40
0
40
0
40
0
40
0.0047665298367565
40
0.0047665298367565
40
0.0268337912528684
40
0.0268337912528684
40
0.0489010526689803
40
0.0489010526689803
40
0.0599346833770371
40
0.0599346833770371
40
0.070968314085094
40
0.070968314085094
40
0.0930355755012078
40
0.0930355755012078
40
0.115102836917321
40
0.115102836917321
40
0.137170098333435
40
0.137170098333435
40
0.159237359749549
40
0.159237359749549
40
0.181304621165663
40
0.181304621165663
40
0.203371882581777
40
0.203371882581777
40
0.22543914399789
40
0.22543914399789
40
0.236472774705946
40
0.236472774705946
40
0.247506405414002
40
0.247506405414002
40
0.258540036122058
40
0.258540036122058
40
0.269573666830114
40
0.269573666830114
40
0.291640928246228
40
0.291640928246228
40
0.335775451078457
40
0.335775451078457
40
0.357842712494572
40
0.357842712494572
40
0.379909973910687
40
0.379909973910687
40
0.401977235326802
40
0.401977235326802
40
0.413010866034859
40
0.413010866034859
40
0.424044496742916
40
0.424044496742916
40
0.446111758159031
40
0.446111758159031
40
0.457145388867088
40
0.457145388867088
40
0.468179019575146
40
0.468179019575146
40
0.490246280991261
40
0.490246280991261
40
0.512313542407375
40
0.512313542407375
40
0.53438080382349
40
0.53438080382349
40
0.545414434531547
40
0.545414434531547
40
0.556448065239604
40
0.556448065239604
40
0.578515326655719
40
0.578515326655719
40
0.589548957363777
40
0.589548957363777
40
0.600582588071834
40
0.600582588071834
40
0.622649849487949
40
0.622649849487949
40
0.644717110904063
40
0.644717110904063
40
0.65575074161212
40
0.65575074161212
40
0.666784372320176
40
0.666784372320176
40
0.688851633736289
40
0.688851633736289
40
0.710918895152402
40
0.710918895152402
40
0.732986156568515
40
0.732986156568515
40
0.74401978727657
40
0.74401978727657
40
0.755053417984626
40
0.755053417984626
40
0.766087048692681
40
0.766087048692681
40
0.777120679400737
40
0.777120679400737
40
0.799187940816847
40
0.799187940816847
40
0.821255202232958
40
0.821255202232958
40
0.843322463649069
40
0.843322463649069
40
0.854356094357123
40
0.854356094357123
40
0.865389725065178
40
0.865389725065178
40
0.909524247897392
40
0.909524247897392
40
0.931591509313498
40
0.931591509313498
40
0.942625140021551
40
0.942625140021551
40
0.953658770729604
40
0.953658770729604
40
0.975726032145708
40
0.975726032145708
40
0.997793293561812
40
0.997793293561812
40
1
40
1
40
1
40
1
41
1
10
26.0337099463895
20
-0.743164695042907
30
0
41
1
10
26.0205323289957
20
-0.748689641067784
30
0
41
1
10
26.007351211782
20
-0.754169415703444
30
0
41
1
10
25.9331249608152
20
-0.78476205619981
30
0
41
1
10
25.8720103820578
20
-0.808958728533668
30
0
41
1
10
25.7497480301224
20
-0.855540811060393
30
0
41
1
10
25.6886358411011
20
-0.877966340015831
30
0
41
1
10
25.5968002544055
20
-0.909998590326694
30
0
41
1
10
25.5661292209944
20
-0.920371252989327
30
0
41
1
10
25.5046143271407
20
-0.940447303619294
30
0
41
1
10
25.4737441609279
20
-0.950172640568979
30
0
41
1
10
25.3812116622162
20
-0.978320990080078
30
0
41
1
10
25.3196913483201
20
-0.995699353298505
30
0
41
1
10
25.1968962623209
20
-1.02768848877554
30
0
41
1
10
25.1356072921813
20
-1.04229005246773
30
0
41
1
10
25.0132973166337
20
-1.06879234826442
30
0
41
1
10
24.9522915402786
20
-1.08070464008901
30
0
41
1
10
24.8306501861179
20
-1.10183012022253
30
0
41
1
10
24.7700425634263
20
-1.11103672355685
30
0
41
1
10
24.6484637001245
20
-1.12635293295421
30
0
41
1
10
24.5875665377094
20
-1.132515370654
30
0
41
1
10
24.4655925868656
20
-1.14191089166169
30
0
41
1
10
24.4044999593332
20
-1.14513692286098
30
0
41
1
10
24.2820292461883
20
-1.1486398020559
30
0
41
1
10
24.2206574537979
20
-1.14892261566837
30
0
41
1
10
24.1284771623558
20
-1.14708688709649
30
0
41
1
10
24.097729532592
20
-1.14609707658582
30
0
41
1
10
24.0361971823849
20
-1.14333960788235
30
0
41
1
10
24.0053770095071
20
-1.14156768937249
30
0
41
1
10
23.9438734994934
20
-1.13725109577513
30
0
41
1
10
23.9131704713298
20
-1.13471175939352
30
0
41
1
10
23.8517774152249
20
-1.12891310390015
30
0
41
1
10
23.8210986974705
20
-1.12565144095268
30
0
41
1
10
23.7291391778039
20
-1.11479436482332
30
0
41
1
10
23.6679378131521
20
-1.10612498093892
30
0
41
1
10
23.4845284565092
20
-1.07598670721885
30
0
41
1
10
23.362414446011
20
-1.05051401184409
30
0
41
1
10
23.1799820827935
20
-1.00375069747653
30
0
41
1
10
23.1193431318872
20
-0.986660835078567
30
0
41
1
10
22.9976168006353
20
-0.950186113256876
30
0
41
1
10
22.9365785165963
20
-0.93077309185233
30
0
41
1
10
22.8142066558074
20
-0.889572770959774
30
0
41
1
10
22.7528581742809
20
-0.867799110238479
30
0
41
1
10
22.6605282805344
20
-0.833450630643341
30
0
41
1
10
22.6297022073024
20
-0.821717704904643
30
0
41
1
10
22.5679606715848
20
-0.797665591805014
30
0
41
1
10
22.5370141417745
20
-0.785331775677975
30
0
41
1
10
22.4444610868409
20
-0.747561544931415
30
0
41
1
10
22.3830743758768
20
-0.721293612233239
30
0
41
1
10
22.2913838686409
20
-0.680366192616503
30
0
41
1
10
22.2608646738282
20
-0.666500146831538
30
0
41
1
10
22.1998034375078
20
-0.638497324678269
30
0
41
1
10
22.1692737389521
20
-0.62434216983803
30
0
41
1
10
22.0777111423072
20
-0.581387553078258
30
0
41
1
10
22.0167124476729
20
-0.552086519966394
30
0
41
1
10
21.8947310767197
20
-0.49229244476092
30
0
41
1
10
21.8337318421295
20
-0.461827596959608
30
0
41
1
10
21.711739777523
20
-0.399730468420188
30
0
41
1
10
21.6507614646152
20
-0.368074142172247
30
0
41
1
10
21.5593881781022
20
-0.319533258204842
30
0
41
1
10
21.5289469407317
20
-0.303174781843438
30
0
41
1
10
21.4680632380606
20
-0.270155920075439
30
0
41
1
10
21.4376115867117
20
-0.253511585961206
30
0
41
1
10
21.346032441795
20
-0.203530846608601
30
0
41
1
10
21.2847369343685
20
-0.170047913006812
30
0
41
1
10
21.1924824420519
20
-0.119489331520157
30
0
41
1
10
21.1616758553864
20
-0.102586424238183
30
0
41
1
10
21.0999405809968
20
-0.0687025615152663
30
0
41
1
10
21.0689909470718
20
-0.0517133663859966
30
0
41
1
10
20.9763740080749
20
-0.0008919492755695
30
0
41
1
10
20.9148033297388
20
0.0328633486004151
30
0
41
1
10
20.792116159742
20
0.100335327299007
30
0
41
1
10
20.7310182638039
20
0.1340857766792
30
0
41
1
10
20.6396934574531
20
0.18462985059216
30
0
41
1
10
20.6092933237639
20
0.201441149827332
30
0
41
1
10
20.5484404549612
20
0.234744317074472
30
0
41
1
10
20.517998669101
20
0.251256761456091
30
0
41
1
10
20.4266509781709
20
0.300425824636449
30
0
41
1
10
20.3657343005783
20
0.3327348799003
30
0
41
1
10
20.2438070237261
20
0.396323855237
30
0
41
1
10
20.1827794560289
20
0.427574559401307
30
0
41
1
10
20.0606031296976
20
0.489001931484438
30
0
41
1
10
19.9994686455059
20
0.519203703883278
30
0
41
1
10
19.9077671046759
20
0.563832757326708
30
0
41
1
10
19.8772012643546
20
0.578598526331064
30
0
41
1
10
19.8160445051717
20
0.607857240885579
30
0
41
1
10
19.7854525858573
20
0.622348025924282
30
0
41
1
10
19.7240940708797
20
0.650813251999523
30
0
41
1
10
19.6933358279084
20
0.664801791743713
30
0
41
1
10
19.6316774928715
20
0.692318145133186
30
0
41
1
10
19.6007672112745
20
0.705853349624391
30
0
41
1
10
19.5082683137086
20
0.745587384467342
30
0
41
1
10
19.4467655360191
20
0.770976671272535
30
0
41
1
10
19.3239847186618
20
0.819486625650228
30
0
41
1
10
19.2627055692769
20
0.842610392443646
30
0
41
1
10
19.140473005848
20
0.886743579828106
30
0
41
1
10
19.0795365931079
20
0.907770639069071
30
0
41
1
10
18.9883788256854
20
0.937670184235344
30
0
41
1
10
18.958030952504
20
0.947357822124104
30
0
41
1
10
18.8972613727258
20
0.966020298005645
30
0
41
1
10
18.8668453121456
20
0.975002804762909
30
0
41
1
10
18.7146477755754
20
1.01823727193465
30
0
41
1
10
18.5925716038606
20
1.0475229366447
30
0
41
1
10
18.408664807829
20
1.08330876879697
30
0
41
1
10
18.3472525178231
20
1.0938954314027
30
0
41
1
10
18.255039263138
20
1.10773056511351
30
0
41
1
10
18.2242872940167
20
1.1120008804435
30
0
41
1
10
18.162731161634
20
1.11982679777873
30
0
41
1
10
18.1319299246367
20
1.12338149423954
30
0
41
1
10
18.0396865470325
20
1.13283311995906
30
0
41
1
10
17.9782635118516
20
1.13755577286415
30
0
41
1
10
17.8556439654207
20
1.14400569771618
30
0
41
1
10
17.7944374184315
20
1.1457254588673
30
0
41
1
10
17.7271688870928
20
1.14599598395918
30
0
41
1
10
17.721054113255
20
1.14600588978766
30
0
41
1
10
17.7149398852693
20
1.14600110815772
30
0
0
SPLINE
5
C7
100
AcDbEntity
8
1
62
256
6
ByLayer
370
18
48
1
60
0
100
AcDbSpline
70
4
71
3
72
96
73
92
40
0
40
0
40
0
40
0
40
0.0068616822395537
40
0.0068616822395537
40
0.0294330076431986
40
0.0294330076431986
40
0.0520043330468435
40
0.0520043330468435
40
0.0745756584504883
40
0.0745756584504883
40
0.0971469838541332
40
0.0971469838541332
40
0.142289634661425
40
0.142289634661425
40
0.164860960065071
40
0.164860960065071
40
0.187432285468716
40
0.187432285468716
40
0.232574936276008
40
0.232574936276008
40
0.255146261679654
40
0.255146261679654
40
0.277717587083299
40
0.277717587083299
40
0.300288912486945
40
0.300288912486945
40
0.322860237890591
40
0.322860237890591
40
0.345431563294237
40
0.345431563294237
40
0.368002888697883
40
0.368002888697883
40
0.390574214101528
40
0.390574214101528
40
0.401859876803352
40
0.401859876803352
40
0.413145539505174
40
0.413145539505174
40
0.43571686490882
40
0.43571686490882
40
0.458288190312466
40
0.458288190312466
40
0.480859515716112
40
0.480859515716112
40
0.503430841119758
40
0.503430841119758
40
0.526002166523404
40
0.526002166523404
40
0.548573491927049
40
0.548573491927049
40
0.571144817330695
40
0.571144817330695
40
0.593716142734341
40
0.593716142734341
40
0.605001805436164
40
0.605001805436164
40
0.616287468137987
40
0.616287468137987
40
0.638858793541635
40
0.638858793541635
40
0.68400144434893
40
0.68400144434893
40
0.706572769752579
40
0.706572769752579
40
0.729144095156227
40
0.729144095156227
40
0.751715420559876
40
0.751715420559876
40
0.774286745963525
40
0.774286745963525
40
0.796858071367173
40
0.796858071367173
40
0.808143734068998
40
0.808143734068998
40
0.819429396770823
40
0.819429396770823
40
0.86457204757812
40
0.86457204757812
40
0.887143372981768
40
0.887143372981768
40
0.898429035683592
40
0.898429035683592
40
0.909714698385416
40
0.909714698385416
40
0.932286023789062
40
0.932286023789062
40
0.954857349192708
40
0.954857349192708
40
0.977428674596354
40
0.977428674596354
40
1
40
1
40
1
40
1
41
1
10
13.0164443724763
20
-0.732928502313428
30
0
41
1
10
12.9979336799763
20
-0.740785082698807
30
0
41
1
10
12.9794150448762
20
-0.748543661916187
30
0
41
1
10
12.8999477496101
20
-0.781409819992604
30
0
41
1
10
12.8389364250346
20
-0.805582308376074
30
0
41
1
10
12.7166859386086
20
-0.851762241610828
30
0
41
1
10
12.6554349749732
20
-0.873757140585269
30
0
41
1
10
12.5327433401786
20
-0.915616449338415
30
0
41
1
10
12.4713186402688
20
-0.935499832455577
30
0
41
1
10
12.3483539924941
20
-0.973128131979053
30
0
41
1
10
12.2866929184432
20
-0.990891676359553
30
0
41
1
10
12.1020519201411
20
-1.03935795399062
30
0
41
1
10
11.979439246718
20
-1.06584389228934
30
0
41
1
10
11.7959239196408
20
-1.09710651793276
30
0
41
1
10
11.7348232422217
20
-1.10611774803107
30
0
41
1
10
11.6128804557532
20
-1.12135121536494
30
0
41
1
10
11.5520756737705
20
-1.12757915438365
30
0
41
1
10
11.3697659072772
20
-1.14181668528644
30
0
41
1
10
11.2476810525698
20
-1.1452540342751
30
0
41
1
10
11.063609173093
20
-1.14156136304442
30
0
41
1
10
11.0020680459388
20
-1.13885290157827
30
0
41
1
10
10.8786664183492
20
-1.13043436039672
30
0
41
1
10
10.8167116749856
20
-1.12470280280459
30
0
41
1
10
10.693682453309
20
-1.11020390256937
30
0
41
1
10
10.63252092244
20
-1.10140215443513
30
0
41
1
10
10.5101270450356
20
-1.08112472247583
30
0
41
1
10
10.4489708064551
20
-1.06962629224571
30
0
41
1
10
10.326765063221
20
-1.04397485295863
30
0
41
1
10
10.2656999190893
20
-1.02983047018009
30
0
41
1
10
10.1435746293444
20
-0.999000222812583
30
0
41
1
10
10.082520889949
20
-0.982313214148434
30
0
41
1
10
9.96054742524882
20
-0.94625440191308
30
0
41
1
10
9.89965715950069
20
-0.926846296001429
30
0
41
1
10
9.80832423172922
20
-0.895738972024247
30
0
41
1
10
9.77785259145779
20
-0.885068533909219
30
0
41
1
10
9.71677376482876
20
-0.863226911061417
30
0
41
1
10
9.68617797647684
20
-0.852043116741044
30
0
41
1
10
9.59424739188378
20
-0.817678108150943
30
0
41
1
10
9.5327722501367
20
-0.793678735076782
30
0
41
1
10
9.40936669587575
20
-0.743603018460277
30
0
41
1
10
9.34733372066171
20
-0.717510119471399
30
0
41
1
10
9.22395126855457
20
-0.663710632937551
30
0
41
1
10
9.16248862938937
20
-0.635932061620338
30
0
41
1
10
9.04010108451342
20
-0.578475970240845
30
0
41
1
10
8.97921639103305
20
-0.548725569571388
30
0
41
1
10
8.85728029672839
20
-0.488473434560234
30
0
41
1
10
8.79628793823491
20
-0.457881242113871
30
0
41
1
10
8.67429899284014
20
-0.395716076401982
30
0
41
1
10
8.61328761813857
20
-0.36416737024399
30
0
41
1
10
8.49115333786293
20
-0.300284286310813
30
0
41
1
10
8.43003478514032
20
-0.267943951150642
30
0
41
1
10
8.30780801181896
20
-0.202245250512306
30
0
41
1
10
8.24672307629419
20
-0.168842142139539
30
0
41
1
10
8.15503916448307
20
-0.118054891226222
30
0
41
1
10
8.12444645868544
20
-0.101053087043994
30
0
41
1
10
8.06309189651938
20
-0.0671076427802859
30
0
41
1
10
8.03234254447415
20
-0.0501406471318262
30
0
41
1
10
7.93990364654724
20
0.0007897465832798
30
0
41
1
10
7.87794861061334
20
0.0348399728799222
30
0
41
1
10
7.69294733536557
20
0.135996029201465
30
0
41
1
10
7.57012234966072
20
0.202208515567691
30
0
41
1
10
7.38712014556708
20
0.300588164680192
30
0
41
1
10
7.32638322594593
20
0.333316259172023
30
0
41
1
10
7.20466285674291
20
0.39725600909361
30
0
41
1
10
7.14371487282682
20
0.428538294530171
30
0
41
1
10
7.02170522822996
20
0.489858786945575
30
0
41
1
10
6.96062977751055
20
0.519872090309036
30
0
41
1
10
6.83825362883255
20
0.578470702449692
30
0
41
1
10
6.77695518681639
20
0.607061687530575
30
0
41
1
10
6.65424510911558
20
0.662978775243914
30
0
41
1
10
6.59285288303718
20
0.690333755783172
30
0
41
1
10
6.50063790219559
20
0.730306152080345
30
0
41
1
10
6.46983976247014
20
0.743438298444801
30
0
41
1
10
6.40814513725164
20
0.769068432650926
30
0
41
1
10
6.37732626706148
20
0.781558607657928
30
0
41
1
10
6.22340855908635
20
0.842483711704261
30
0
41
1
10
6.10085072516466
20
0.886374932129115
30
0
41
1
10
5.91754239428056
20
0.944926217333006
30
0
41
1
10
5.85655716192622
20
0.963260761670739
30
0
41
1
10
5.76532658235595
20
0.989024471992821
30
0
41
1
10
5.73495850168752
20
0.997322176880658
30
0
41
1
10
5.67427906367391
20
1.013300051952
30
0
41
1
10
5.64396126772311
20
1.02097322896844
30
0
41
1
10
5.55287192993075
20
1.04288226431174
30
0
41
1
10
5.49201994676278
20
1.05606293006474
30
0
41
1
10
5.37014261504288
20
1.07967650309422
30
0
41
1
10
5.30909579274515
20
1.09009047060394
30
0
41
1
10
5.18667272389573
20
1.10807787852036
30
0
41
1
10
5.1253039456935
20
1.11566088176499
30
0
41
1
10
5.00235519664756
20
1.12799354689534
30
0
41
1
10
4.94077667382652
20
1.13274724874992
30
0
41
1
10
4.87918802521779
20
1.13600893239888
30
0
0
SPLINE
5
C8
100
AcDbEntity
8
1
62
256
6
ByLayer
370
18
48
1
60
0
100
AcDbSpline
70
4
71
3
72
8
73
4
40
0
40
0
40
0
40
0
40
1
40
1
40
1
40
1
41
1
10
4.87918802521776
20
1.13600893239888
30
0
41
1
10
4.78667600660276
20
1.13922476714475
30
0
41
1
10
4.69460769972841
20
1.14097703704633
30
0
41
1
10
4.60294961859603
20
1.14108322379121
30
0
0
SPLINE
5
C9
100
AcDbEntity
8
1
62
256
6
ByLayer
370
18
48
1
60
0
100
AcDbSpline
70
4
71
3
72
124
73
120
40
0
40
0
40
0
40
0
40
0.0041059950383533
40
0.0041059950383533
40
0.0151435223238291
40
0.0151435223238291
40
0.0261810496093049
40
0.0261810496093049
40
0.0482561041802556
40
0.0482561041802556
40
0.0703311587512063
40
0.0703311587512063
40
0.0924062133221579
40
0.0924062133221579
40
0.114481267893111
40
0.114481267893111
40
0.136556322464063
40
0.136556322464063
40
0.147593849749539
40
0.147593849749539
40
0.158631377035016
40
0.158631377035016
40
0.180706431605966
40
0.180706431605966
40
0.191743958891442
40
0.191743958891442
40
0.202781486176917
40
0.202781486176917
40
0.213819013462392
40
0.213819013462392
40
0.224856540747868
40
0.224856540747868
40
0.246931595318817
40
0.246931595318817
40
0.269006649889765
40
0.269006649889765
40
0.291081704460714
40
0.291081704460714
40
0.313156759031663
40
0.313156759031663
40
0.324194286317137
40
0.324194286317137
40
0.335231813602612
40
0.335231813602612
40
0.357306868173562
40
0.357306868173562
40
0.379381922744513
40
0.379381922744513
40
0.390419450029989
40
0.390419450029989
40
0.401456977315464
40
0.401456977315464
40
0.412494504600939
40
0.412494504600939
40
0.423532031886414
40
0.423532031886414
40
0.445607086457365
40
0.445607086457365
40
0.467682141028316
40
0.467682141028316
40
0.489757195599267
40
0.489757195599267
40
0.500794722884742
40
0.500794722884742
40
0.511832250170217
40
0.511832250170217
40
0.53390730474117
40
0.53390730474117
40
0.555982359312123
40
0.555982359312123
40
0.600132468454028
40
0.600132468454028
40
0.611169995739504
40
0.611169995739504
40
0.622207523024981
40
0.622207523024981
40
0.644282577595933
40
0.644282577595933
40
0.666357632166886
40
0.666357632166886
40
0.677395159452361
40
0.677395159452361
40
0.688432686737837
40
0.688432686737837
40
0.699470214023312
40
0.699470214023312
40
0.710507741308787
40
0.710507741308787
40
0.732582795879736
40
0.732582795879736
40
0.754657850450685
40
0.754657850450685
40
0.776732905021634
40
0.776732905021634
40
0.798807959592583
40
0.798807959592583
40
0.809845486878058
40
0.809845486878058
40
0.820883014163533
40
0.820883014163533
40
0.842958068734486
40
0.842958068734486
40
0.853995596019962
40
0.853995596019962
40
0.865033123305438
40
0.865033123305438
40
0.887108177876391
40
0.887108177876391
40
0.898145705161867
40
0.898145705161867
40
0.909183232447342
40
0.909183232447342
40
0.931258287018292
40
0.931258287018292
40
0.953333341589243
40
0.953333341589243
40
0.997483450731145
40
0.997483450731145
40
1
40
1
40
1
40
1
41
1
10
6.50033810205545
20
0.737227662798972
30
0
41
1
10
6.51171040257188
20
0.742120006345516
30
0
41
1
10
6.52307485455637
20
0.746978158612393
30
0
41
1
10
6.56497274513299
20
0.764750007114145
30
0
41
1
10
6.59548414095423
20
0.77741076666598
30
0
41
1
10
6.65659848351274
20
0.80196928138875
30
0
41
1
10
6.68719642770947
20
0.813876018257702
30
0
41
1
10
6.77905541985814
20
0.8485965082983
30
0
41
1
10
6.8403819435668
20
0.870417454648731
30
0
41
1
10
6.96288156154725
20
0.911884630204668
30
0
41
1
10
7.02402213179522
20
0.931561488462393
30
0
41
1
10
7.14607043532618
20
0.968742804854543
30
0
41
1
10
7.20700124393602
20
0.986223327264639
30
0
41
1
10
7.32868268477208
20
1.01884190679803
30
0
41
1
10
7.38936069440547
20
1.03401834434132
30
0
41
1
10
7.51153556371654
20
1.06116253177464
30
0
41
1
10
7.57303966250018
20
1.07315901045561
30
0
41
1
10
7.66567348631273
20
1.08904986978084
30
0
41
1
10
7.69661444739904
20
1.09399429501079
30
0
41
1
10
7.75858131048068
20
1.10319833242605
30
0
41
1
10
7.78962743096352
20
1.10746098186991
30
0
41
1
10
7.88242718757917
20
1.11917091400719
30
0
41
1
10
7.94398155044203
20
1.12555175333435
30
0
41
1
10
8.03590493072812
20
1.13291208698996
30
0
41
1
10
8.06647739327104
20
1.13499738434621
30
0
41
1
10
8.1274780357484
20
1.13841998733469
30
0
41
1
10
8.15789381884446
20
1.1397578527382
30
0
41
1
10
8.21867387911269
20
1.14165993975519
30
0
41
1
10
8.24904557761681
20
1.14222305144548
30
0
41
1
10
8.30989874639221
20
1.14258727260938
30
0
41
1
10
8.34038337528358
20
1.14239088667713
30
0
41
1
10
8.43195441213555
20
1.14071343627799
30
0
41
1
10
8.49315736548985
20
1.13815279876624
30
0
41
1
10
8.61554497143376
20
1.1301849157793
30
0
41
1
10
8.67669732032522
20
1.12476287410638
30
0
41
1
10
8.79887629797895
20
1.11092744948229
30
0
41
1
10
8.85992900877258
20
1.10252276243489
30
0
41
1
10
8.98198335403029
20
1.08259269913319
30
0
41
1
10
9.04289754304142
20
1.07098760162208
30
0
41
1
10
9.13491971483023
20
1.05161288926556
30
0
41
1
10
9.16571287206693
20
1.04484251448835
30
0
41
1
10
9.2275024633837
20
1.03067616629241
30
0
41
1
10
9.25851857565155
20
1.02327351438853
30
0
41
1
10
9.35138207031321
20
1.00019706858725
30
0
41
1
10
9.4131733802034
20
0.983631808381432
30
0
41
1
10
9.53620701322214
20
0.947858625166504
30
0
41
1
10
9.59746766848221
20
0.928661299806151
30
0
41
1
10
9.68903479420626
20
0.897922852800974
30
0
41
1
10
9.71950339492133
20
0.887353296373732
30
0
41
1
10
9.78032631298871
20
0.865549475407818
30
0
41
1
10
9.81066914560589
20
0.854300511256497
30
0
41
1
10
9.87130902329034
20
0.831211012649817
30
0
41
1
10
9.90161656294001
20
0.819383126492255
30
0
41
1
10
9.96235477170697
20
0.795362616273223
30
0
41
1
10
9.99279492404423
20
0.783184128928241
30
0
41
1
10
10.0842867918584
20
0.746120535124817
30
0
41
1
10
10.1455023220489
20
0.720703389405372
30
0
41
1
10
10.268045349658
20
0.668040080720033
30
0
41
1
10
10.3293420370965
20
0.640743683771063
30
0
41
1
10
10.451912930337
20
0.584029978890129
30
0
41
1
10
10.5132159532786
20
0.554656915763331
30
0
41
1
10
10.6052260407966
20
0.509029286942393
30
0
41
1
10
10.6358931139764
20
0.493536639204422
30
0
41
1
10
10.6972972772008
20
0.462098976816094
30
0
41
1
10
10.7280711671186
20
0.446161465962092
30
0
41
1
10
10.8203196912871
20
0.398362879463321
30
0
41
1
10
10.881905513806
20
0.366559564571162
30
0
41
1
10
11.0049966314624
20
0.302630637537561
30
0
41
1
10
11.0664943306836
20
0.270491175173873
30
0
41
1
10
11.2503532468745
20
0.172651396908123
30
0
41
1
10
11.3721282900059
20
0.10561593651903
30
0
41
1
10
11.5236899551609
20
0.0201544512668477
30
0
41
1
10
11.5539956129817
20
0.0030272029744651
30
0
41
1
10
11.6147441200464
20
-0.0310168754888025
30
0
41
1
10
11.6451991244511
20
-0.0479109639626074
30
0
41
1
10
11.7367950566744
20
-0.0982278553034348
30
0
41
1
10
11.7981471190759
20
-0.131321561015113
30
0
41
1
10
11.9210969740772
20
-0.197220482290618
30
0
41
1
10
11.9826662433645
20
-0.230079509930306
30
0
41
1
10
12.0750862054766
20
-0.279379917185338
30
0
41
1
10
12.1059101019106
20
-0.29580370554271
30
0
41
1
10
12.1676049283172
20
-0.328609577420849
30
0
41
1
10
12.1984886139703
20
-0.344995775259832
30
0
41
1
10
12.2600059089252
20
-0.377570353556223
30
0
41
1
10
12.2906672862051
20
-0.393792607588011
30
0
41
1
10
12.3518465166055
20
-0.426006711864773
30
0
41
1
10
12.3823773740733
20
-0.441974349390563
30
0
41
1
10
12.4740214926271
20
-0.489071662003141
30
0
41
1
10
12.5352626365446
20
-0.519273760439063
30
0
41
1
10
12.657817767296
20
-0.57780155664372
30
0
41
1
10
12.7191179334486
20
-0.606151153202035
30
0
41
1
10
12.8414291716149
20
-0.661564446466514
30
0
41
1
10
12.902441793258
20
-0.688619000699106
30
0
41
1
10
13.0242643527616
20
-0.74123453458833
30
0
41
1
10
13.0850658105399
20
-0.766808402876478
30
0
41
1
10
13.17614516463
20
-0.803939805597679
30
0
41
1
10
13.2065044576498
20
-0.816083705940457
30
0
41
1
10
13.2673759874638
20
-0.839704571056899
30
0
41
1
10
13.2979003006402
20
-0.851167042620716
30
0
41
1
10
13.3897670130691
20
-0.884500459971775
30
0
41
1
10
13.4513696452249
20
-0.905366665144271
30
0
41
1
10
13.5440624343545
20
-0.934963396958693
30
0
41
1
10
13.5750081362237
20
-0.944543890430481
30
0
41
1
10
13.6369549151395
20
-0.963172114389039
30
0
41
1
10
13.6679345025198
20
-0.972213326767644
30
0
41
1
10
13.7605389205849
20
-0.998382686871992
30
0
41
1
10
13.8219711732896
20
-1.0145937515216
30
0
41
1
10
13.9136929438085
20
-1.03697521999456
30
0
41
1
10
13.9441880695139
20
-1.04411893307702
30
0
41
1
10
14.005048984542
20
-1.05773610787404
30
0
41
1
10
14.0354277378266
20
-1.06419820963586
30
0
41
1
10
14.1266401242037
20
-1.08239829872363
30
0
41
1
10
14.1876405966008
20
-1.09290546365145
30
0
41
1
10
14.3098721350979
20
-1.11098053137914
30
0
41
1
10
14.3710788833549
20
-1.11856464187943
30
0
41
1
10
14.5544705074333
20
-1.1371898303793
30
0
41
1
10
14.6764199825815
20
-1.14408836349662
30
0
41
1
10
14.8052098264003
20
-1.14488929748819
30
0
41
1
10
14.8121552499949
20
-1.14491231772396
30
0
41
1
10
14.8191018983546
20
-1.14491517815873
30
0
0
SPLINE
5
CA
100
AcDbEntity
8
1
62
256
6
ByLayer
370
18
48
1
60
0
100
AcDbSpline
70
4
71
3
72
118
73
114
40
0
40
0
40
0
40
0
40
0.0060359884388268
40
0.0060359884388268
40
0.0280653312164329
40
0.0280653312164329
40
0.0500946739940393
40
0.0500946739940393
40
0.0721240167716454
40
0.0721240167716454
40
0.0941533595492518
40
0.0941533595492518
40
0.116182702326858
40
0.116182702326858
40
0.127197373715662
40
0.127197373715662
40
0.138212045104466
40
0.138212045104466
40
0.149226716493271
40
0.149226716493271
40
0.160241387882075
40
0.160241387882075
40
0.182270730659683
40
0.182270730659683
40
0.226329416214898
40
0.226329416214898
40
0.248358758992504
40
0.248358758992504
40
0.27038810177011
40
0.27038810177011
40
0.292417444547716
40
0.292417444547716
40
0.314446787325323
40
0.314446787325323
40
0.325461458714126
40
0.325461458714126
40
0.336476130102929
40
0.336476130102929
40
0.347490801491732
40
0.347490801491732
40
0.358505472880536
40
0.358505472880536
40
0.38053481565814
40
0.38053481565814
40
0.402564158435744
40
0.402564158435744
40
0.424593501213349
40
0.424593501213349
40
0.446622843990953
40
0.446622843990953
40
0.468652186768557
40
0.468652186768557
40
0.490681529546162
40
0.490681529546162
40
0.512710872323766
40
0.512710872323766
40
0.523725543712567
40
0.523725543712567
40
0.534740215101368
40
0.534740215101368
40
0.545754886490169
40
0.545754886490169
40
0.55676955787897
40
0.55676955787897
40
0.578798900656571
40
0.578798900656571
40
0.600828243434172
40
0.600828243434172
40
0.622857586211772
40
0.622857586211772
40
0.644886928989373
40
0.644886928989373
40
0.666916271766973
40
0.666916271766973
40
0.688945614544574
40
0.688945614544574
40
0.699960285933374
40
0.699960285933374
40
0.710974957322174
40
0.710974957322174
40
0.733004300099775
40
0.733004300099775
40
0.744018971488574
40
0.744018971488574
40
0.755033642877373
40
0.755033642877373
40
0.777062985654972
40
0.777062985654972
40
0.799092328432571
40
0.799092328432571
40
0.82112167121017
40
0.82112167121017
40
0.832136342598969
40
0.832136342598969
40
0.843151013987768
40
0.843151013987768
40
0.865180356765369
40
0.865180356765369
40
0.876195028154168
40
0.876195028154168
40
0.887209699542967
40
0.887209699542967
40
0.931268385098161
40
0.931268385098161
40
0.942283056486958
40
0.942283056486958
40
0.953297727875755
40
0.953297727875755
40
0.975327070653349
40
0.975327070653349
40
0.997356413430943
40
0.997356413430943
40
1
40
1
40
1
40
1
41
1
10
19.5237790438682
20
0.735264657084684
30
0
41
1
10
19.5407035905756
20
0.742404046560353
30
0
41
1
10
19.55760906471
20
0.74947919567856
30
0
41
1
10
19.636064062375
20
0.78204543054494
30
0
41
1
10
19.6973472921793
20
0.806686872382329
30
0
41
1
10
19.8192986438353
20
0.854073314259068
30
0
41
1
10
19.879944716926
20
0.876818239319277
30
0
41
1
10
20.0017559851033
20
0.919059552332726
30
0
41
1
10
20.0628589771414
20
0.938663560909845
30
0
41
1
10
20.1851380763027
20
0.975341639961897
30
0
41
1
10
20.2463039509822
20
0.992424590155423
30
0
41
1
10
20.3684156170127
20
1.02430056291044
30
0
41
1
10
20.4293914056719
20
1.0390593662527
30
0
41
1
10
20.5207954647624
20
1.05929666625943
30
0
41
1
10
20.5512520655922
20
1.06572675728907
30
0
41
1
10
20.6121370806997
20
1.07793999897649
30
0
41
1
10
20.6425552231207
20
1.0837281528332
30
0
41
1
10
20.7034880449318
20
1.09456276985239
30
0
41
1
10
20.7340066691519
20
1.09960694512387
30
0
41
1
10
20.7952841966556
20
1.10888951473197
30
0
41
1
10
20.8260353359809
20
1.11313415216333
30
0
41
1
10
20.9185635188478
20
1.12473773759854
30
0
41
1
10
20.9806992444381
20
1.13097555544877
30
0
41
1
10
21.1660243101256
20
1.14527862327014
30
0
41
1
10
21.2885035486171
20
1.14903378321267
30
0
41
1
10
21.4707965669468
20
1.145502866767
30
0
41
1
10
21.5312589538336
20
1.14275743308286
30
0
41
1
10
21.6527626357297
20
1.13436670782775
30
0
41
1
10
21.7137817595489
20
1.1287570838951
30
0
41
1
10
21.8360291784471
20
1.11478316577831
30
0
41
1
10
21.8972514386668
20
1.10641570367662
30
0
41
1
10
22.0195949068572
20
1.0867335625554
30
0
41
1
10
22.0807419041534
20
1.07542311813231
30
0
41
1
10
22.1724918125257
20
1.05618609442789
30
0
41
1
10
22.2030792706713
20
1.0493947261113
30
0
41
1
10
22.2642579749018
20
1.0350259339082
30
0
41
1
10
22.2948371235879
20
1.02743691388935
30
0
41
1
10
22.3560988817751
20
1.01153305515257
30
0
41
1
10
22.3868092750197
20
1.00321784019357
30
0
41
1
10
22.4483962471947
20
0.986045597485855
30
0
41
1
10
22.4792063494946
20
0.977210007351232
30
0
41
1
10
22.5716332222135
20
0.949940124612766
30
0
41
1
10
22.6332470221836
20
0.930749291031219
30
0
41
1
10
22.7561506343114
20
0.890080419378847
30
0
41
1
10
22.8174078579461
20
0.868559043377701
30
0
41
1
10
22.9395053433826
20
0.823065508532409
30
0
41
1
10
23.0003698091143
20
0.799123298874463
30
0
41
1
10
23.1217384535668
20
0.748784895013983
30
0
41
1
10
23.1821607700154
20
0.722256859432918
30
0
41
1
10
23.3036139837255
20
0.668101991834391
30
0
41
1
10
23.3646763813973
20
0.640547343241735
30
0
41
1
10
23.4871494779184
20
0.584103720587393
30
0
41
1
10
23.5485565058871
20
0.555208989885301
30
0
41
1
10
23.6713964062805
20
0.495525174384369
30
0
41
1
10
23.7328491019145
20
0.464762519592284
30
0
41
1
10
23.8251488109116
20
0.417279979253067
30
0
41
1
10
23.8559666361472
20
0.40121318502122
30
0
41
1
10
23.9174899028068
20
0.368688781039367
30
0
41
1
10
23.9481451134618
20
0.352230101393474
30
0
41
1
10
24.0093398392574
20
0.319098860394064
30
0
41
1
10
24.0398890683198
20
0.302444204925621
30
0
41
1
10
24.101039300884
20
0.269229744170445
30
0
41
1
10
24.1316479890356
20
0.252684107047969
30
0
41
1
10
24.2235289410498
20
0.203147534647343
30
0
41
1
10
24.2848521910316
20
0.170249752973632
30
0
41
1
10
24.4073164405705
20
0.104116034547559
30
0
41
1
10
24.4684257599842
20
0.0708216858964477
30
0
41
1
10
24.5903349599149
20
0.0036602736631721
30
0
41
1
10
24.6511623371576
20
-0.0301560945145809
30
0
41
1
10
24.7725871766199
20
-0.0982150206672543
30
0
41
1
10
24.833087517517
20
-0.13263667886693
30
0
41
1
10
24.9547243617899
20
-0.200309251637265
30
0
41
1
10
25.0159398612725
20
-0.233414470217554
30
0
41
1
10
25.1388736745987
20
-0.298699890102796
30
0
41
1
10
25.2005845722956
20
-0.330893766426698
30
0
41
1
10
25.2932739773546
20
-0.378959367132154
30
0
41
1
10
25.3242309156269
20
-0.394956649678079
30
0
41
1
10
25.385978723885
20
-0.426725510414997
30
0
41
1
10
25.41677197699
20
-0.442498493816913
30
0
41
1
10
25.5089244901213
20
-0.48944917132539
30
0
41
1
10
25.5700316408195
20
-0.520301628901336
30
0
41
1
10
25.661299204328
20
-0.565694243290494
30
0
41
1
10
25.6916803720142
20
-0.580636525483385
30
0
41
1
10
25.7525103003432
20
-0.609911612423019
30
0
41
1
10
25.7829708375663
20
-0.624227161041318
30
0
41
1
10
25.8744706787772
20
-0.66627059986277
30
0
41
1
10
25.935612654216
20
-0.693125777732803
30
0
41
1
10
26.0578562411279
20
-0.745043717449704
30
0
41
1
10
26.1189286845842
20
-0.770144429568887
30
0
41
1
10
26.2408715614605
20
-0.818716991225642
30
0
41
1
10
26.301772418998
20
-0.842146034568998
30
0
41
1
10
26.393049263798
20
-0.875894155312778
30
0
41
1
10
26.4234526201693
20
-0.886922375970528
30
0
41
1
10
26.4842642134776
20
-0.908462375567638
30
0
41
1
10
26.5146858937142
20
-0.918957427930422
30
0
41
1
10
26.6062277497554
20
-0.94936042171517
30
0
41
1
10
26.6677040032381
20
-0.968109127724802
30
0
41
1
10
26.760417615948
20
-0.994218214589893
30
0
41
1
10
26.7914345853135
20
-1.00259668532806
30
0
41
1
10
26.8533141041447
20
-1.01865918057973
30
0
41
1
10
26.884198916144
20
-1.02635036796886
30
0
41
1
10
27.0382452653207
20
-1.06320118683289
30
0
41
1
10
27.1603040287832
20
-1.08752802105036
30
0
41
1
10
27.311648050337
20
-1.11090428173446
30
0
41
1
10
27.3418750738617
20
-1.11521464410311
30
0
41
1
10
27.4023972609526
20
-1.12304552817261
30
0
41
1
10
27.432704439625
20
-1.12656279247466
30
0
41
1
10
27.5237940140467
20
-1.13595761113342
30
0
41
1
10
27.5847123374629
20
-1.14070086608518
30
0
41
1
10
27.7066109291283
20
-1.14734806729763
30
0
41
1
10
27.7675666664415
20
-1.14925196748709
30
0
41
1
10
27.8357613712704
20
-1.14975482895579
30
0
41
1
10
27.8430675967377
20
-1.14978767083795
30
0
41
1
10
27.8503733614683
20
-1.14979934837549
30
0
0
SPLINE
5
CB
100
AcDbEntity
8
1
62
256
6
ByLayer
370
18
48
1
60
0
100
AcDbSpline
70
4
71
5
72
96
73
90
40
0
40
0
40
0
40
0
40
0
40
0
40
0.0151299695986804
40
0.0719577833814323
40
0.127977790277681
40
0.182827815363033
40
0.23923398858607
40
0.29688910631077
40
0.35435349485161
40
0.406114791040153
40
0.440946816615728
40
0.464209367166002
40
0.485265540034818
40
0.505497903219405
40
0.524906252205151
40
0.543473149904427
40
0.561181870121326
40
0.578016165331209
40
0.593960426017993
40
0.60899991605078
40
0.623121147873995
40
0.636312539412483
40
0.648565694317897
40
0.65987824984847
40
0.662154549962324
40
0.667342270830376
40
0.669823628898846
40
0.670261515616812
40
0.672304986967316
40
0.67467851620427
40
0.677052045441225
40
0.67932635217816
40
0.679765924068491
40
0.681600658915094
40
0.683790003169466
40
0.688548565624354
40
0.690225694171913
40
0.692296958602367
40
0.694368223032821
40
0.696384599702766
40
0.696842096930401
40
0.698400976372711
40
0.700356718363552
40
0.702312460354392
40
0.704242852131647
40
0.704713283741231
40
0.706173243908903
40
0.710112666322536
40
0.712670423522647
40
0.714170974413379
40
0.718258803621542
40
0.720792503455917
40
0.722226044151681
40
0.725970384411005
40
0.728309262273731
40
0.729585013835218
40
0.731443325362434
40
0.733301636889649
40
0.735277025066725
40
0.735891221390689
40
0.7372524132438
40
0.739473110249635
40
0.740583458752553
40
0.741693807255471
40
0.743334990773226
40
0.744976174290981
40
0.746051908025308
40
0.748258541326491
40
0.75486779363839
40
0.756520106716364
40
0.758172419794339
40
0.759824732872314
40
0.761477045950288
40
0.764548780528468
40
0.767620515106649
40
0.770692249684829
40
0.773763984263009
40
0.777997299143863
40
0.779907453419369
40
0.786050922575729
40
0.802582647846653
40
0.840655695241194
40
0.888770482484792
40
0.924030433607856
40
0.957158752060862
40
0.989277295845473
40
1
40
1
40
1
40
1
40
1
40
1
41
1
10
4.87918802521776
20
-1.13600893239891
30
0
41
1
10
4.87918802521776
20
-1.1316769908909
30
0
41
1
10
4.87918802521776
20
-1.11107689879623
30
0
41
1
10
4.87918802521779
20
-1.07446061803446
30
0
41
1
10
4.87918802521779
20
-1.02220437383946
30
0
41
1
10
4.87918802521779
20
-0.953941298424553
30
0
41
1
10
4.87918802521776
20
-0.873646248409301
30
0
41
1
10
4.87918802521781
20
-0.793451605539389
30
0
41
1
10
4.87918802521776
20
-0.714775993025114
30
0
41
1
10
4.87918802521781
20
-0.642016350911433
30
0
41
1
10
4.87918802521773
20
-0.578814509326776
30
0
41
1
10
4.87918802521779
20
-0.526026557683764
30
0
41
1
10
4.87918802521779
20
-0.483778311520752
30
0
41
1
10
4.87918802521779
20
-0.450651355708743
30
0
41
1
10
4.87918802521776
20
-0.422115556178824
30
0
41
1
10
4.87918802521779
20
-0.395175216108157
30
0
41
1
10
4.87918802521779
20
-0.369452545602115
30
0
41
1
10
4.87918802521779
20
-0.344959913958093
30
0
41
1
10
4.87918802521779
20
-0.321713559947739
30
0
41
1
10
4.87918802521776
20
-0.299729269220961
30
0
41
1
10
4.87918802521779
20
-0.279022149347924
30
0
41
1
10
4.87918802521779
20
-0.2596058242369
30
0
41
1
10
4.87918802521779
20
-0.241489006822803
30
0
41
1
10
4.87918802521779
20
-0.226895000529964
30
0
41
1
10
4.87918802521779
20
-0.214756312353018
30
0
41
1
10
4.87918802521779
20
-0.205554253804564
30
0
41
1
10
4.87918802521779
20
-0.199593961485959
30
0
41
1
10
4.87918802521779
20
-0.196179277706051
30
0
41
1
10
4.87918802521779
20
-0.192737316024847
30
0
41
1
10
4.87918802521779
20
-0.190068584117
30
0
41
1
10
4.87918802521779
20
-0.187456781808294
30
0
41
1
10
4.87918802521779
20
-0.184845202781872
30
0
41
1
10
4.87918802521779
20
-0.182292430971017
30
0
41
1
10
4.87918802521779
20
-0.179792405573409
30
0
41
1
10
4.87918802521779
20
-0.176641772391576
30
0
41
1
10
4.87918802521779
20
-0.173661349096363
30
0
41
1
10
4.87918802521779
20
-0.170248636225978
30
0
41
1
10
4.87918802521781
20
-0.16679283629233
30
0
41
1
10
4.87918802521781
20
-0.163411176461409
30
0
41
1
10
4.87918802521781
20
-0.161199949269957
30
0
41
1
10
4.87918802521781
20
-0.159035297618118
30
0
41
1
10
4.87918802521781
20
-0.156916389918365
30
0
41
1
10
4.87918802521784
20
-0.154843794245721
30
0
41
1
10
4.87918802521784
20
-0.152810508749866
30
0
41
1
10
4.87918802521784
20
-0.150797234701201
30
0
41
1
10
4.87918802521784
20
-0.148831023764643
30
0
41
1
10
4.87918802521784
20
-0.14638997957428
30
0
41
1
10
4.87918802521781
20
-0.143839030580097
30
0
41
1
10
4.87918802521781
20
-0.141439650704143
30
0
41
1
10
4.87918802521781
20
-0.138243018060109
30
0
41
1
10
4.87918802521779
20
-0.134907964335042
30
0
41
1
10
4.87918802521776
20
-0.132234936022769
30
0
41
1
10
4.8791880252177
20
-0.129394406274344
30
0
41
1
10
4.87918802521762
20
-0.126505377006225
30
0
41
1
10
4.87918802521756
20
-0.12428425694435
30
0
41
1
10
4.87918802521747
20
-0.122275513413058
30
0
41
1
10
4.87918802521739
20
-0.120276879457918
30
0
41
1
10
4.8791880252173
20
-0.118659115528658
30
0
41
1
10
4.87918802521725
20
-0.117389773158635
30
0
41
1
10
4.87918802521716
20
-0.116151278095202
30
0
41
1
10
4.87918802521708
20
-0.114897936081832
30
0
41
1
10
4.87918802521702
20
-0.113803373935895
30
0
41
1
10
4.87918802521699
20
-0.112870484501855
30
0
41
1
10
4.87918802521693
20
-0.111827852368833
30
0
41
1
10
4.87918802521691
20
-0.110788050888289
30
0
41
1
10
4.87918802521691
20
-0.109933730583293
30
0
41
1
10
4.87918802521693
20
-0.108971640259028
30
0
41
1
10
4.87918802521699
20
-0.107387027188253
30
0
41
1
10
4.8791880252171
20
-0.105908430862343
30
0
41
1
10
4.87918802521722
20
-0.104515735888128
30
0
41
1
10
4.87918802521736
20
-0.103131832272197
30
0
41
1
10
4.87918802521747
20
-0.101846473718183
30
0
41
1
10
4.87918802521753
20
-0.100919067446455
30
0
41
1
10
4.87918802521762
20
-0.0998704848260559
30
0
41
1
10
4.8791880252177
20
-0.0987012685419586
30
0
41
1
10
4.87918802521776
20
-0.0974094322591839
30
0
41
1
10
4.87918802521781
20
-0.0958834721489552
30
0
41
1
10
4.87918802521784
20
-0.0944654776959339
30
0
41
1
10
4.87918802521787
20
-0.0927616270264764
30
0
41
1
10
4.8791880252179
20
-0.0898053626947615
30
0
41
1
10
4.87918802521787
20
-0.0835682739462413
30
0
41
1
10
4.87918802521776
20
-0.0731304386286524
30
0
41
1
10
4.87918802521779
20
-0.0595353941817791
30
0
41
1
10
4.87918802521776
20
-0.0434228153147274
30
0
41
1
10
4.87918802521776
20
-0.0258663064136044
30
0
41
1
10
4.87918802521779
20
-0.0108762562705067
30
0
41
1
10
4.87918802521779
20
-0.0004234647103942
30
0
41
1
10
4.87918802521781
20
0.0067445210415542
30
0
41
1
10
4.87918802521776
20
0.0107858525760207
30
0
41
1
10
4.87918802521773
20
0.011797067602572
30
0
0
SPLINE
5
CC
100
AcDbEntity
8
1
62
256
6
ByLayer
370
18
48
1
60
0
100
AcDbSpline
70
4
71
5
72
15
73
9
40
0
40
0
40
0
40
0
40
0
40
0
40
0.002701012807585
40
0.434322917539489
40
0.847086412271205
40
1
40
1
40
1
40
1
40
1
40
1
41
1
10
4.87918802521779
20
0.0695242774020528
30
0
41
1
10
4.87918802521779
20
0.0695356253444572
30
0
41
1
10
4.87918802521779
20
0.0713599440755672
30
0
41
1
10
4.87918802521779
20
0.0747829598561793
30
0
41
1
10
4.87918802521776
20
0.0785113326877251
30
0
41
1
10
4.87918802521779
20
0.081863218835025
30
0
41
1
10
4.87918802521779
20
0.0848193271454534
30
0
41
1
10
4.87918802521779
20
0.0863695161842486
30
0
41
1
10
4.87918802521779
20
0.0867792774020302
30
0
0
SPLINE
5
CD
100
AcDbEntity
8
1
62
256
6
ByLayer
370
18
48
1
60
0
100
AcDbSpline
70
4
71
3
72
92
73
88
40
0
40
0
40
0
40
0
40
0.125000000000016
40
0.125000000000016
40
0.187500000000024
40
0.187500000000024
40
0.250000000000031
40
0.250000000000031
40
0.281250000000035
40
0.281250000000035
40
0.312500000000039
40
0.312500000000039
40
0.343750000000042
40
0.343750000000042
40
0.375000000000046
40
0.375000000000046
40
0.390625000000047
40
0.390625000000047
40
0.406250000000048
40
0.406250000000048
40
0.43750000000005
40
0.43750000000005
40
0.45312500000005
40
0.45312500000005
40
0.46093750000005
40
0.46093750000005
40
0.468750000000051
40
0.468750000000051
40
0.484375000000051
40
0.484375000000051
40
0.500000000000051
40
0.500000000000051
40
0.507812500000051
40
0.507812500000051
40
0.515625000000051
40
0.523437500000052
40
0.523437500000052
40
0.527343750000052
40
0.527343750000052
40
0.531250000000052
40
0.539062500000052
40
0.539062500000052
40
0.546875000000052
40
0.546875000000052
40
0.562500000000052
40
0.562500000000052
40
0.570312500000051
40
0.570312500000051
40
0.578125000000051
40
0.578125000000051
40
0.593750000000051
40
0.593750000000051
40
0.609375000000051
40
0.609375000000051
40
0.625000000000051
40
0.625000000000051
40
0.656250000000049
40
0.656250000000049
40
0.671875000000048
40
0.671875000000048
40
0.687500000000048
40
0.687500000000048
40
0.695312500000047
40
0.695312500000047
40
0.703125000000047
40
0.703125000000047
40
0.707031250000047
40
0.707031250000047
40
0.710937500000047
40
0.710937500000047
40
0.718750000000045
40
0.718750000000045
40
0.726562500000043
40
0.726562500000043
40
0.734375000000041
40
0.734375000000041
40
0.750000000000039
40
0.750000000000039
40
0.812500000000029
40
0.812500000000029
40
0.843750000000024
40
0.843750000000024
40
0.875000000000019
40
0.875000000000019
40
0.937500000000009
40
0.937500000000009
40
1
40
1
40
1
40
1
41
1
10
4.87918802521776
20
-1.13600893239888
30
0
41
1
10
4.61248629868459
20
-1.14527982164986
30
0
41
1
10
4.34947227789687
20
-1.14238696585994
30
0
41
1
10
3.95927932908344
20
-1.11324241392876
30
0
41
1
10
3.8299358290468
20
-1.09939221606552
30
0
41
1
10
3.57253090900264
20
-1.06196757430524
30
0
41
1
10
3.44446690420844
20
-1.0384175601186
30
0
41
1
10
3.25327664028694
20
-0.99414240187744
30
0
41
1
10
3.18961846960309
20
-0.977855657961669
30
0
41
1
10
3.06360981142836
20
-0.942142699549407
30
0
41
1
10
3.00115382874182
20
-0.922698444148153
30
0
41
1
10
2.87746568446903
20
-0.880180693026489
30
0
41
1
10
2.81623175643367
20
-0.857112062471089
30
0
41
1
10
2.69520310878207
20
-0.806655026076498
30
0
41
1
10
2.63540431411431
20
-0.779277750223429
30
0
41
1
10
2.54707478652224
20
-0.734107744928366
30
0
41
1
10
2.51786134660611
20
-0.718362644212419
30
0
41
1
10
2.45997431682821
20
-0.68526413628544
30
0
41
1
10
2.43129969920187
20
-0.667904055293235
30
0
41
1
10
2.34713708342611
20
-0.613533023113831
30
0
41
1
10
2.29317410758173
20
-0.574158253806132
30
0
41
1
10
2.21707534759031
20
-0.508152766979009
30
0
41
1
10
2.1925266686855
20
-0.484980181558171
30
0
41
1
10
2.15733594050633
20
-0.447909395465672
30
0
41
1
10
2.14587970134343
20
-0.435164502154038
30
0
41
1
10
2.12361922800039
20
-0.408757048455385
30
0
41
1
10
2.1128885975175
20
-0.39517846071044
30
0
41
1
10
2.08222843699963
20
-0.3533410103459
30
0
41
1
10
2.06373744177392
20
-0.323934370683673
30
0
41
1
10
2.0322574177211
20
-0.260892358470272
30
0
41
1
10
2.01974154603775
20
-0.228165491641789
30
0
41
1
10
2.00719794947406
20
-0.176783150704836
30
0
41
1
10
2.0040584925236
20
-0.159241119690734
30
0
41
1
10
2.00023406497689
20
-0.123386542597672
30
0
41
1
10
1.99895265755836
20
-0.0875970546987048
30
0
41
1
10
2.002811280645
20
-0.0519436017074497
30
0
41
1
10
2.00766787930328
20
-0.0252571711903329
30
0
41
1
10
2.00962171344105
20
-0.0163500003475008
30
0
41
1
10
2.01411109682158
20
0.0011693384594764
30
0
41
1
10
2.02173134663957
20
0.0271036020384372
30
0
41
1
10
2.03185545235183
20
0.0520643197950506
30
0
41
1
10
2.04735790569273
20
0.084567025512257
30
0
41
1
10
2.05615633834358
20
0.100483449172032
30
0
41
1
10
2.0845953392957
20
0.146156971646548
30
0
41
1
10
2.10639179641379
20
0.174233374557957
30
0
41
1
10
2.14215062975518
20
0.213800200595472
30
0
41
1
10
2.15459006635805
20
0.226559402936715
30
0
41
1
10
2.18036940942386
20
0.251320386236813
30
0
41
1
10
2.19358099043393
20
0.263200250991218
30
0
41
1
10
2.23402719481297
20
0.297583637334924
30
0
41
1
10
2.2620656658346
20
0.318843087096866
30
0
41
1
10
2.31975030327331
20
0.358896653750236
30
0
41
1
10
2.34940099664385
20
0.377683527251435
30
0
41
1
10
2.40998224652302
20
0.413312330062268
30
0
41
1
10
2.44095855444604
20
0.430172856950634
30
0
41
1
10
2.53516620443668
20
0.478213403022295
30
0
41
1
10
2.59938453218214
20
0.506770190354843
30
0
41
1
10
2.69719750107171
20
0.546059508366596
30
0
41
1
10
2.73005310918148
20
0.558554558649007
30
0
41
1
10
2.79620588068681
20
0.582505473484702
30
0
41
1
10
2.82953254098803
20
0.59393310416354
30
0
41
1
10
2.87967127594203
20
0.610477179257998
30
0
41
1
10
2.896398174761
20
0.615927377631408
30
0
41
1
10
2.92990126659117
20
0.626649586357075
30
0
41
1
10
2.94664878260329
20
0.631986233607137
30
0
41
1
10
2.97286808633371
20
0.637312872772043
30
0
41
1
10
2.98181329985329
20
0.638662017341829
30
0
41
1
10
2.99993007773844
20
0.640507339514983
30
0
41
1
10
3.00891031413602
20
0.640996685263246
30
0
41
1
10
3.03565330061389
20
0.641371901498758
30
0
41
1
10
3.05321549376512
20
0.640150391406166
30
0
41
1
10
3.08789810525411
20
0.635249084759437
30
0
41
1
10
3.10502631061726
20
0.631608932549142
30
0
41
1
10
3.13926451932161
20
0.624193507885252
30
0
41
1
10
3.15637161489826
20
0.620404087577299
30
0
41
1
10
3.20772386968002
20
0.609165727950653
30
0
41
1
10
3.24198589059228
20
0.601716534044868
30
0
41
1
10
3.41328792999332
20
0.564191575487058
30
0
41
1
10
3.55031791179496
20
0.533345957578831
30
0
41
1
10
3.75593474068131
20
0.486158916208865
30
0
41
1
10
3.82458285461536
20
0.470438796712415
30
0
41
1
10
3.96069410155729
20
0.435786385906454
30
0
41
1
10
4.02820264217112
20
0.416960414939155
30
0
41
1
10
4.22924888156075
20
0.356228268306154
30
0
41
1
10
4.36128586437559
20
0.310010849870139
30
0
41
1
10
4.622244451347
20
0.207479468390034
30
0
41
1
10
4.7511703536544
20
0.151170377139437
30
0
41
1
10
4.87918802521776
20
0.0911266768409575
30
0
0
LINE
5
7D
100
AcDbEntity
8
4
62
256
6
ByLayer
370
18
48
0.05
60
0
100
AcDbLine
10
-5
20
0
30
0
11
34
21
0
31
0
39
0
210
0
220
0
230
1
0
LINE
5
7F
100
AcDbEntity
8
81
62
256
6
ByLayer
370
18
48
1
60
0
100
AcDbLine
10
29
20
0
30
0
11
34
21
0
31
0
39
0
210
0
220
0
230
1
0
LINE
5
80
100
AcDbEntity
8
80
62
256
6
ByLayer
370
18
48
1
60
0
100
AcDbLine
10
0
20
0
30
0
11
-5
21
0
31
0
39
0
210
0
220
0
230
1
0
LINE
5
81
100
AcDbEntity
8
SK4
62
256
6
ByLayer
370
18
48
0.05
60
0
100
AcDbLine
10
-29
20
0
30
0
11
34
21
0
31
0
39
0
210
0
220
0
230
1
0
LINE
5
83
100
AcDbEntity
8
1
62
256
6
ByLayer
370
18
48
1
60
0
100
AcDbLine
10
0
20
1.15
30
0
11
0
21
-1.15
31
0
39
0
210
0
220
0
230
1
0
LINE
5
84
100
AcDbEntity
8
1
62
256
6
ByLayer
370
18
48
1
60
0
100
AcDbLine
10
28.378109
20
-1.15
30
0
11
28.378109
21
-0.476645
31
0
39
0
210
0
220
0
230
1
0
LINE
5
85
100
AcDbEntity
8
1
62
256
6
ByLayer
370
18
48
1
60
0
100
AcDbLine
10
28.378109
20
1.15
30
0
11
28.378109
21
1.113012
31
0
39
0
210
0
220
0
230
1
0
LINE
5
86
100
AcDbEntity
8
1
62
256
6
ByLayer
370
18
48
1
60
0
100
AcDbLine
10
0.1
20
-1.139396
30
0
11
0.1
21
1.139396
31
0
39
0
210
0
220
0
230
1
0
LINE
5
87
100
AcDbEntity
8
SK1
62
256
6
ByLayer
370
18
48
1
60
0
100
AcDbLine
10
-24
20
-0.85
30
0
11
-24
21
0.85
31
0
39
0
210
0
220
0
230
1
0
LINE
5
89
100
AcDbEntity
8
SK1
62
256
6
ByLayer
370
18
48
1
60
0
100
AcDbLine
10
0
20
1.15
30
0
11
0
21
-1.15
31
0
39
0
210
0
220
0
230
1
0
LINE
5
8A
100
AcDbEntity
8
SK1
62
256
6
ByLayer
370
18
48
1
60
0
100
AcDbLine
10
-23.7
20
-1.15
30
0
11
-23.7
21
1.15
31
0
39
0
210
0
220
0
230
1
0
LINE
5
8B
100
AcDbEntity
8
1
62
256
6
ByLayer
370
18
48
1
60
0
100
AcDbLine
10
29
20
0
30
0
11
28.378109
21
1.15
31
0
39
0
210
0
220
0
230
1
0
LINE
5
8C
100
AcDbEntity
8
1
62
256
6
ByLayer
370
18
48
1
60
0
100
AcDbLine
10
28.378109
20
-1.15
30
0
11
29
21
0
31
0
39
0
210
0
220
0
230
1
0
LINE
5
8D
100
AcDbEntity
8
1
62
256
6
ByLayer
370
18
48
1
60
0
100
AcDbLine
10
0.1
20
1.139396
30
0
11
0
21
1.15
31
0
39
0
210
0
220
0
230
1
0
LINE
5
8E
100
AcDbEntity
8
1
62
256
6
ByLayer
370
18
48
1
60
0
100
AcDbLine
10
0
20
-1.15
30
0
11
0.1
21
-1.139396
31
0
39
0
210
0
220
0
230
1
0
LINE
5
8F
100
AcDbEntity
8
1
62
256
6
ByLayer
370
18
48
1
60
0
100
AcDbLine
10
0.1
20
-1.139396
30
0
11
4.604562
21
-1.141085
31
0
39
0
210
0
220
0
230
1
0
LINE
5
90
100
AcDbEntity
8
1
62
256
6
ByLayer
370
18
48
1
60
0
100
AcDbLine
10
8.302811
20
-1.142472
30
0
11
11.197615
21
-1.143557
31
0
39
0
210
0
220
0
230
1
0
LINE
5
91
100
AcDbEntity
8
1
62
256
6
ByLayer
370
18
48
1
60
0
100
AcDbLine
10
14.818538
20
-1.144915
30
0
11
17.71507
21
-1.146001
31
0
39
0
210
0
220
0
230
1
0
LINE
5
92
100
AcDbEntity
8
1
62
256
6
ByLayer
370
18
48
1
60
0
100
AcDbLine
10
21.334124
20
-1.147359
30
0
11
24.2329
21
-1.148446
31
0
39
0
210
0
220
0
230
1
0
LINE
5
93
100
AcDbEntity
8
1
62
256
6
ByLayer
370
18
48
1
60
0
100
AcDbLine
10
27.850099
20
-1.149802
30
0
11
28.378109
21
-1.15
31
0
39
0
210
0
220
0
230
1
0
LINE
5
94
100
AcDbEntity
8
1
62
256
6
ByLayer
370
18
48
1
60
0
100
AcDbLine
10
28.378109
20
1.15
30
0
11
27.850099
21
1.149802
31
0
39
0
210
0
220
0
230
1
0
LINE
5
95
100
AcDbEntity
8
1
62
256
6
ByLayer
370
18
48
1
60
0
100
AcDbLine
10
24.2329
20
1.148446
30
0
11
21.334124
21
1.147359
31
0
39
0
210
0
220
0
230
1
0
LINE
5
96
100
AcDbEntity
8
1
62
256
6
ByLayer
370
18
48
1
60
0
100
AcDbLine
10
17.71507
20
1.146001
30
0
11
14.818538
21
1.144915
31
0
39
0
210
0
220
0
230
1
0
LINE
5
97
100
AcDbEntity
8
1
62
256
6
ByLayer
370
18
48
1
60
0
100
AcDbLine
10
11.197615
20
1.143557
30
0
11
8.302811
21
1.142472
31
0
39
0
210
0
220
0
230
1
0
LINE
5
98
100
AcDbEntity
8
1
62
256
6
ByLayer
370
18
48
1
60
0
100
AcDbLine
10
4.604562
20
1.141085
30
0
11
0.1
21
1.139396
31
0
39
0
210
0
220
0
230
1
0
LINE
5
99
100
AcDbEntity
8
SK1
62
256
6
ByLayer
370
18
48
1
60
0
100
AcDbLine
10
-24
20
-0.85
30
0
11
-23.7
21
-1.15
31
0
39
0
210
0
220
0
230
1
0
LINE
5
9A
100
AcDbEntity
8
SK1
62
256
6
ByLayer
370
18
48
1
60
0
100
AcDbLine
10
-23.7
20
1.15
30
0
11
-24
21
0.85
31
0
39
0
210
0
220
0
230
1
0
LINE
5
9B
100
AcDbEntity
8
SK1
62
256
6
ByLayer
370
18
48
1
60
0
100
AcDbLine
10
-23.7
20
-1.15
30
0
11
0
21
-1.15
31
0
39
0
210
0
220
0
230
1
0
LINE
5
9C
100
AcDbEntity
8
SK1
62
256
6
ByLayer
370
18
48
1
60
0
100
AcDbLine
10
0
20
1.15
30
0
11
-23.7
21
1.15
31
0
39
0
210
0
220
0
230
1
0
LINE
5
9D
100
AcDbEntity
8
SK2
62
256
6
ByLayer
370
13
48
1
60
0
100
AcDbLine
10
-30.5
20
27.932741
30
0
11
-30.5
21
-8.65
31
0
39
0
210
0
220
0
230
1
0
LINE
5
9F
100
AcDbEntity
8
SK2
62
256
6
ByLayer
370
13
48
1
60
0
100
AcDbLine
10
-25.5875
20
1.15
30
0
11
-32.5
21
1.15
31
0
39
0
210
0
220
0
230
1
0
LINE
5
A0
100
AcDbEntity
8
SK2
62
256
6
ByLayer
370
13
48
1
60
0
100
AcDbLine
10
-25.5875
20
-1.15
30
0
11
-32.5
21
-1.15
31
0
39
0
210
0
220
0
230
1
0
LINE
5
A1
100
AcDbEntity
8
1
62
256
6
ByLayer
370
18
48
1
60
1
100
AcDbLine
10
-30.5
20
1.15
30
0
11
-30.960784
21
4.649998
31
0
39
0
210
0
220
0
230
1
0
LINE
5
A2
100
AcDbEntity
8
1
62
256
6
ByLayer
370
18
48
1
60
1
100
AcDbLine
10
-30.960784
20
4.649998
30
0
11
-30.039216
21
4.650002
31
0
39
0
210
0
220
0
230
1
0
LINE
5
A3
100
AcDbEntity
8
1
62
256
6
ByLayer
370
18
48
1
60
1
100
AcDbLine
10
-30.039216
20
4.650002
30
0
11
-30.5
21
1.15
31
0
39
0
210
0
220
0
230
1
0
LINE
5
A4
100
AcDbEntity
8
1
62
256
6
ByLayer
370
18
48
1
60
1
100
AcDbLine
10
-30.5
20
-1.15
30
0
11
-30.039216
21
-4.649998
31
0
39
0
210
0
220
0
230
1
0
LINE
5
A5
100
AcDbEntity
8
1
62
256
6
ByLayer
370
18
48
1
60
1
100
AcDbLine
10
-30.039216
20
-4.649998
30
0
11
-30.960784
21
-4.650002
31
0
39
0
210
0
220
0
230
1
0
LINE
5
A6
100
AcDbEntity
8
1
62
256
6
ByLayer
370
18
48
1
60
1
100
AcDbLine
10
-30.960784
20
-4.650002
30
0
11
-30.5
21
-1.15
31
0
39
0
210
0
220
0
230
1
0
LINE
5
A7
100
AcDbEntity
8
2
62
256
6
ByLayer
370
13
48
1
60
0
100
AcDbLine
10
37.878109
20
27.932741
30
0
11
37.878109
21
-8.65
31
0
39
0
210
0
220
0
230
1
0
LINE
5
A9
100
AcDbEntity
8
2
62
256
6
ByLayer
370
13
48
1
60
0
100
AcDbLine
10
29.965609
20
1.15
30
0
11
39.878109
21
1.15
31
0
39
0
210
0
220
0
230
1
0
LINE
5
AA
100
AcDbEntity
8
2
62
256
6
ByLayer
370
13
48
1
60
0
100
AcDbLine
10
29.965609
20
-1.15
30
0
11
39.878109
21
-1.15
31
0
39
0
210
0
220
0
230
1
0
LINE
5
AB
100
AcDbEntity
8
1
62
256
6
ByLayer
370
18
48
1
60
1
100
AcDbLine
10
37.878109
20
1.15
30
0
11
37.417326
21
4.649998
31
0
39
0
210
0
220
0
230
1
0
LINE
5
AC
100
AcDbEntity
8
1
62
256
6
ByLayer
370
18
48
1
60
1
100
AcDbLine
10
37.417326
20
4.649998
30
0
11
38.338893
21
4.650002
31
0
39
0
210
0
220
0
230
1
0
LINE
5
AD
100
AcDbEntity
8
1
62
256
6
ByLayer
370
18
48
1
60
1
100
AcDbLine
10
38.338893
20
4.650002
30
0
11
37.878109
21
1.15
31
0
39
0
210
0
220
0
230
1
0
LINE
5
AE
100
AcDbEntity
8
1
62
256
6
ByLayer
370
18
48
1
60
1
100
AcDbLine
10
37.878109
20
-1.15
30
0
11
38.338893
21
-4.649998
31
0
39
0
210
0
220
0
230
1
0
LINE
5
AF
100
AcDbEntity
8
1
62
256
6
ByLayer
370
18
48
1
60
1
100
AcDbLine
10
38.338893
20
-4.649998
30
0
11
37.417326
21
-4.650002
31
0
39
0
210
0
220
0
230
1
0
LINE
5
B0
100
AcDbEntity
8
1
62
256
6
ByLayer
370
18
48
1
60
1
100
AcDbLine
10
37.417326
20
-4.650002
30
0
11
37.878109
21
-1.15
31
0
39
0
210
0
220
0
230
1
0
LINE
5
B1
100
AcDbEntity
8
2
62
256
6
ByLayer
370
13
48
1
60
0
100
AcDbLine
10
29.755136
20
-1.396397
30
0
11
40.416232
21
-21.110889
31
0
39
0
210
0
220
0
230
1
0
LINE
5
B2
100
AcDbEntity
8
2
62
256
6
ByLayer
370
13
48
1
60
0
100
AcDbLine
10
29.755136
20
1.396397
30
0
11
40.416232
21
21.110889
31
0
39
0
210
0
220
0
230
1
0
LINE
5
B3
100
AcDbEntity
8
1
62
256
6
ByLayer
370
18
48
1
60
1
100
AcDbLine
10
39.464879
20
-19.351649
30
0
11
42.239971
21
-17.169637
31
0
39
0
210
0
220
0
230
1
0
LINE
5
B4
100
AcDbEntity
8
1
62
256
6
ByLayer
370
18
48
1
60
1
100
AcDbLine
10
42.239971
20
-17.169637
30
0
11
42.710161
21
-17.962233
31
0
39
0
210
0
220
0
230
1
0
LINE
5
B5
100
AcDbEntity
8
1
62
256
6
ByLayer
370
18
48
1
60
1
100
AcDbLine
10
42.710161
20
-17.962233
30
0
11
39.464879
21
-19.351649
31
0
39
0
210
0
220
0
230
1
0
LINE
5
B6
100
AcDbEntity
8
1
62
256
6
ByLayer
370
18
48
1
60
1
100
AcDbLine
10
39.464879
20
19.351649
30
0
11
42.710158
21
17.962234
31
0
39
0
210
0
220
0
230
1
0
LINE
5
B7
100
AcDbEntity
8
1
62
256
6
ByLayer
370
18
48
1
60
1
100
AcDbLine
10
42.710158
20
17.962234
30
0
11
42.239974
21
17.169635
31
0
39
0
210
0
220
0
230
1
0
LINE
5
B8
100
AcDbEntity
8
1
62
256
6
ByLayer
370
18
48
1
60
1
100
AcDbLine
10
42.239974
20
17.169635
30
0
11
39.464879
21
19.351649
31
0
39
0
210
0
220
0
230
1
0
LINE
5
D2
100
AcDbEntity
8
1
62
256
6
ByLayer
370
18
48
1
60
1
100
AcDbLine
10
-30.5
20
1.15
30
0
11
-30.960784
21
4.649998
31
0
39
0
210
0
220
0
230
1
0
LINE
5
D3
100
AcDbEntity
8
1
62
256
6
ByLayer
370
18
48
1
60
1
100
AcDbLine
10
-30.960784
20
4.649998
30
0
11
-30.039216
21
4.650002
31
0
39
0
210
0
220
0
230
1
0
LINE
5
D4
100
AcDbEntity
8
1
62
256
6
ByLayer
370
18
48
1
60
1
100
AcDbLine
10
-30.039216
20
4.650002
30
0
11
-30.5
21
1.15
31
0
39
0
210
0
220
0
230
1
0
LINE
5
D6
100
AcDbEntity
8
1
62
256
6
ByLayer
370
18
48
1
60
1
100
AcDbLine
10
-30.5
20
-1.15
30
0
11
-30.039216
21
-4.649998
31
0
39
0
210
0
220
0
230
1
0
LINE
5
D7
100
AcDbEntity
8
1
62
256
6
ByLayer
370
18
48
1
60
1
100
AcDbLine
10
-30.039216
20
-4.649998
30
0
11
-30.960784
21
-4.650002
31
0
39
0
210
0
220
0
230
1
0
LINE
5
D8
100
AcDbEntity
8
1
62
256
6
ByLayer
370
18
48
1
60
1
100
AcDbLine
10
-30.960784
20
-4.650002
30
0
11
-30.5
21
-1.15
31
0
39
0
210
0
220
0
230
1
0
LINE
5
DC
100
AcDbEntity
8
1
62
256
6
ByLayer
370
18
48
1
60
1
100
AcDbLine
10
37.878109
20
1.15
30
0
11
37.417326
21
4.649998
31
0
39
0
210
0
220
0
230
1
0
LINE
5
DD
100
AcDbEntity
8
1
62
256
6
ByLayer
370
18
48
1
60
1
100
AcDbLine
10
37.417326
20
4.649998
30
0
11
38.338893
21
4.650002
31
0
39
0
210
0
220
0
230
1
0
LINE
5
DE
100
AcDbEntity
8
1
62
256
6
ByLayer
370
18
48
1
60
1
100
AcDbLine
10
38.338893
20
4.650002
30
0
11
37.878109
21
1.15
31
0
39
0
210
0
220
0
230
1
0
LINE
5
E0
100
AcDbEntity
8
1
62
256
6
ByLayer
370
18
48
1
60
1
100
AcDbLine
10
37.878109
20
-1.15
30
0
11
38.338893
21
-4.649998
31
0
39
0
210
0
220
0
230
1
0
LINE
5
E1
100
AcDbEntity
8
1
62
256
6
ByLayer
370
18
48
1
60
1
100
AcDbLine
10
38.338893
20
-4.649998
30
0
11
37.417326
21
-4.650002
31
0
39
0
210
0
220
0
230
1
0
LINE
5
E2
100
AcDbEntity
8
1
62
256
6
ByLayer
370
18
48
1
60
1
100
AcDbLine
10
37.417326
20
-4.650002
30
0
11
37.878109
21
-1.15
31
0
39
0
210
0
220
0
230
1
0
LINE
5
E5
100
AcDbEntity
8
1
62
256
6
ByLayer
370
18
48
1
60
1
100
AcDbLine
10
39.464879
20
-19.351649
30
0
11
42.239971
21
-17.169637
31
0
39
0
210
0
220
0
230
1
0
LINE
5
E6
100
AcDbEntity
8
1
62
256
6
ByLayer
370
18
48
1
60
1
100
AcDbLine
10
42.239971
20
-17.169637
30
0
11
42.710161
21
-17.962233
31
0
39
0
210
0
220
0
230
1
0
LINE
5
E7
100
AcDbEntity
8
1
62
256
6
ByLayer
370
18
48
1
60
1
100
AcDbLine
10
42.710161
20
-17.962233
30
0
11
39.464879
21
-19.351649
31
0
39
0
210
0
220
0
230
1
0
LINE
5
E9
100
AcDbEntity
8
1
62
256
6
ByLayer
370
18
48
1
60
1
100
AcDbLine
10
39.464879
20
19.351649
30
0
11
42.710158
21
17.962234
31
0
39
0
210
0
220
0
230
1
0
LINE
5
EA
100
AcDbEntity
8
1
62
256
6
ByLayer
370
18
48
1
60
1
100
AcDbLine
10
42.710158
20
17.962234
30
0
11
42.239974
21
17.169635
31
0
39
0
210
0
220
0
230
1
0
LINE
5
EB
100
AcDbEntity
8
1
62
256
6
ByLayer
370
18
48
1
60
1
100
AcDbLine
10
42.239974
20
17.169635
30
0
11
39.464879
21
19.351649
31
0
39
0
210
0
220
0
230
1
0
MTEXT
5
CE
100
AcDbEntity
8
SK2
62
256
6
ByLayer
370
18
48
1
60
0
100
AcDbMText
10
-31.841114
20
12.808438
30
0
210
0
220
0
230
1
1
%%c
40
3
41
0
44
1.084337
50
90
71
7
72
5
7
iso_b_vert
0
MTEXT
5
D1
100
AcDbEntity
8
SK2
62
256
6
ByLayer
370
18
48
1
60
0
100
AcDbMText
10
-31.841114
20
18.785
30
0
210
0
220
0
230
1
1
\W0.7468;2.300
40
3
41
0
44
1.084337
50
90
71
7
72
5
7
iso_b_vert
0
MTEXT
5
DA
100
AcDbEntity
8
2
62
256
6
ByLayer
370
18
48
1
60
0
100
AcDbMText
10
36.536995
20
12.808438
30
0
210
0
220
0
230
1
1
%%c
40
3
41
0
44
1.084337
50
90
71
7
72
5
7
iso_b_vert
0
MTEXT
5
DB
100
AcDbEntity
8
2
62
256
6
ByLayer
370
18
48
1
60
0
100
AcDbMText
10
36.536995
20
18.785
30
0
210
0
220
0
230
1
1
\W0.7468;2.300
40
3
41
0
44
1.084337
50
90
71
7
72
5
7
iso_b_vert
0
MTEXT
5
E4
100
AcDbEntity
8
2
62
256
6
ByLayer
370
18
48
1
60
0
100
AcDbMText
10
48.092229
20
-2.114886
30
0
210
0
220
0
230
1
1
\W0.6008;118%%d
40
3
41
0
44
1.084337
50
0
71
7
72
5
7
iso_b_vert
0
MTEXT
5
ED
100
AcDbEntity
8
SK6
62
256
6
ByLayer
370
18
48
1
60
0
100
AcDbMText
10
-4.382141
20
-67.114886
30
0
210
0
220
0
230
1
1
\W0.7690;R0032.3
40
3
41
0
44
1.084337
50
0
71
7
72
5
7
iso_b_vert
0
HATCH
5
D5
100
AcDbEntity
8
SK2
62
256
6
ByLayer
370
13
48
1
60
0
100
AcDbHatch
10
0
20
0
30
0
210
0
220
0
230
1
2
ANSI31
70
0
71
0
91
1
92
5
93
3
72
1
10
-30.5
20
1.15000000000001
11
-30.9607837415528
21
4.64999830744682
72
1
10
-30.9607837415528
20
4.64999830744682
11
-30.0392162584472
21
4.65000169255319
72
1
10
-30.0392162584472
20
4.65000169255319
11
-30.5
21
1.15000000000001
97
0
75
0
76
1
52
0
41
0.0062
77
0
78
1
53
45
43
0
44
0
45
-0.0139193969876572
46
0.0139193969876572
79
0
47
0
98
1
10
0
20
0
0
HATCH
5
D9
100
AcDbEntity
8
SK2
62
256
6
ByLayer
370
13
48
1
60
0
100
AcDbHatch
10
0
20
0
30
0
210
0
220
0
230
1
2
ANSI31
70
0
71
0
91
1
92
5
93
3
72
1
10
-30.5
20
-1.15000000000001
11
-30.0392162584472
21
-4.64999830744682
72
1
10
-30.0392162584472
20
-4.64999830744682
11
-30.9607837415528
21
-4.65000169255319
72
1
10
-30.9607837415528
20
-4.65000169255319
11
-30.5
21
-1.15000000000001
97
0
75
0
76
1
52
0
41
0.0062
77
0
78
1
53
45
43
0
44
0
45
-0.0139193969876572
46
0.0139193969876572
79
0
47
0
98
1
10
0
20
0
0
HATCH
5
DF
100
AcDbEntity
8
2
62
256
6
ByLayer
370
13
48
1
60
0
100
AcDbHatch
10
0
20
0
30
0
210
0
220
0
230
1
2
ANSI31
70
0
71
0
91
1
92
5
93
3
72
1
10
37.8781092593065
20
1.15000000000001
11
37.4173255177537
21
4.64999830744682
72
1
10
37.4173255177537
20
4.64999830744682
11
38.3388930008593
21
4.65000169255319
72
1
10
38.3388930008593
20
4.65000169255319
11
37.8781092593065
21
1.15000000000001
97
0
75
0
76
1
52
0
41
0.0062
77
0
78
1
53
45
43
0
44
0
45
-0.0139193969876572
46
0.0139193969876572
79
0
47
0
98
1
10
0
20
0
0
HATCH
5
E3
100
AcDbEntity
8
2
62
256
6
ByLayer
370
13
48
1
60
0
100
AcDbHatch
10
0
20
0
30
0
210
0
220
0
230
1
2
ANSI31
70
0
71
0
91
1
92
5
93
3
72
1
10
37.8781092593065
20
-1.15000000000001
11
38.3388930008593
21
-4.64999830744682
72
1
10
38.3388930008593
20
-4.64999830744682
11
37.4173255177537
21
-4.65000169255319
72
1
10
37.4173255177537
20
-4.65000169255319
11
37.8781092593065
21
-1.15000000000001
97
0
75
0
76
1
52
0
41
0.0062
77
0
78
1
53
45
43
0
44
0
45
-0.0139193969876572
46
0.0139193969876572
79
0
47
0
98
1
10
0
20
0
0
HATCH
5
E8
100
AcDbEntity
8
2
62
256
6
ByLayer
370
13
48
1
60
0
100
AcDbHatch
10
0
20
0
30
0
210
0
220
0
230
1
2
ANSI31
70
0
71
0
91
1
92
5
93
3
72
1
10
39.4648791987518
20
-19.3516485952885
11
42.239971107838
21
-17.1696369764528
72
1
10
42.239971107838
20
-17.1696369764528
11
42.7101613929248
21
-17.9622325364573
72
1
10
42.7101613929248
20
-17.9622325364573
11
39.4648791987518
21
-19.3516485952885
97
0
75
0
76
1
52
0
41
0.0062
77
0
78
1
53
45
43
0
44
0
45
-0.0139193969876572
46
0.0139193969876572
79
0
47
0
98
1
10
0
20
0
0
HATCH
5
EC
100
AcDbEntity
8
2
62
256
6
ByLayer
370
13
48
1
60
0
100
AcDbHatch
10
0
20
0
30
0
210
0
220
0
230
1
2
ANSI31
70
0
71
0
91
1
92
5
93
3
72
1
10
39.4648791987518
20
19.3516485952885
11
42.7101584815524
21
17.962234263552
72
1
10
42.7101584815524
20
17.962234263552
11
42.2399740192104
21
17.1696352493581
72
1
10
42.2399740192104
20
17.1696352493581
11
39.4648791987518
21
19.3516485952885
97
0
75
0
76
1
52
0
41
0.0062
77
0
78
1
53
45
43
0
44
0
45
-0.0139193969876572
46
0.0139193969876572
79
0
47
0
98
1
10
0
20
0
0
DIMENSION
5
F0
100
AcDbEntity
8
SK2
62
256
6
ByLayer
370
18
48
1
60
0
100
AcDbDimension
2
_U0
10
29
20
-51.708511
30
0
11
2.5
21
-51.708511
31
0
70
32
71
1
72
1
41
1
210
0
220
0
230
1
3
Standard
100
AcDbAlignedDimension
13
-24
23
-1.15
33
0
14
29
24
0
34
0
50
0
100
AcDbRotatedDimension
1001
ACAD
1000
DSTYLE
1002
{
1070
   371
1070
    13
1070
   372
1070
    13
1070
     3
1000

1070
   170
1070
     0
1070
   144
1040
1.0
1070
   277
1070
     2
1070
   284
1070
     8
1070
   278
1070
    46
1070
   146
1040
1.166667
1070
   345
1005
16
1070
   347
1005
16
1070
   346
1005
16
1070
   344
1005
0
1070
   343
1005
0
1070
   172
1070
     1
1070
    76
1070
     0
1070
    75
1070
     0
1070
   282
1070
     0
1070
   281
1070
     0
1070
    71
1070
     0
1070
    74
1070
     0
1070
   279
1070
     0
1070
   173
1070
     1
1070
   340
1005
CF
1070
   271
1070
     2
1070
   272
1070
     3
1070
    77
1070
     1
1070
    73
1070
     1
1070
   171
1070
     3
1070
   274
1070
     4
1070
   177
1070
     2
1070
   176
1070
     2
1070
   178
1070
     2
1070
    78
1070
     8
1070
    48
1040
-0.1
1070
    41
1040
3.5
1070
   147
1040
1.5
1070
    42
1040
1.5875
1070
    44
1040
2.0
1070
   140
1040
3.0
1002
}
1001
ACAD_DSTYLE_DIM_LINETYPE
1070
   380
1005
16
1001
ACAD_DSTYLE_DIM_EXT1_LINETYPE
1070
   381
1005
16
1001
ACAD_DSTYLE_DIM_EXT2_LINETYPE
1070
   382
1005
16
0
DIMENSION
5
109
100
AcDbEntity
8
2
62
256
6
ByLayer
370
18
48
1
60
0
100
AcDbDimension
2
_U1
10
2
20
-41.708511
30
0
11
15.5
21
-41.708511
31
0
70
32
71
1
72
1
41
1
210
0
220
0
230
1
3
Standard
100
AcDbAlignedDimension
13
29
23
0
33
0
14
2
24
-1.15
34
0
50
0
100
AcDbRotatedDimension
1001
ACAD
1000
DSTYLE
1002
{
1070
   371
1070
    13
1070
   372
1070
    13
1070
     3
1000

1070
   170
1070
     0
1070
   144
1040
1.0
1070
   277
1070
     2
1070
   284
1070
     8
1070
   278
1070
    46
1070
   146
1040
1.166667
1070
   345
1005
16
1070
   347
1005
16
1070
   346
1005
16
1070
   344
1005
0
1070
   343
1005
0
1070
   172
1070
     1
1070
    76
1070
     0
1070
    75
1070
     0
1070
   282
1070
     0
1070
   281
1070
     0
1070
    71
1070
     0
1070
    74
1070
     0
1070
   279
1070
     0
1070
   173
1070
     1
1070
   340
1005
CF
1070
   271
1070
     2
1070
   272
1070
     3
1070
    77
1070
     1
1070
    73
1070
     1
1070
   171
1070
     3
1070
   274
1070
     4
1070
   177
1070
     2
1070
   176
1070
     2
1070
   178
1070
     2
1070
    78
1070
     8
1070
    48
1040
-0.1
1070
    41
1040
3.5
1070
   147
1040
1.5
1070
    42
1040
1.5875
1070
    44
1040
2.0
1070
   140
1040
3.0
1002
}
1001
ACAD_DSTYLE_DIM_LINETYPE
1070
   380
1005
16
1001
ACAD_DSTYLE_DIM_EXT1_LINETYPE
1070
   381
1005
16
1001
ACAD_DSTYLE_DIM_EXT2_LINETYPE
1070
   382
1005
16
0
DIMENSION
5
121
100
AcDbEntity
8
SK2
62
256
6
ByLayer
370
18
48
1
60
0
100
AcDbDimension
2
_U2
10
0
20
-36.708511
30
0
11
-12
21
-36.708511
31
0
70
32
71
1
72
1
41
1
210
0
220
0
230
1
3
Standard
100
AcDbAlignedDimension
13
-24
23
-1.15
33
0
14
0
24
-1.15
34
0
50
0
100
AcDbRotatedDimension
1001
ACAD
1000
DSTYLE
1002
{
1070
   371
1070
    13
1070
   372
1070
    13
1070
     3
1000

1070
   170
1070
     0
1070
   144
1040
1.0
1070
   277
1070
     2
1070
   284
1070
     8
1070
   278
1070
    46
1070
   146
1040
1.166667
1070
   345
1005
16
1070
   347
1005
16
1070
   346
1005
16
1070
   344
1005
0
1070
   343
1005
0
1070
   172
1070
     1
1070
    76
1070
     0
1070
    75
1070
     0
1070
   282
1070
     0
1070
   281
1070
     0
1070
    71
1070
     0
1070
    74
1070
     0
1070
   279
1070
     0
1070
   173
1070
     1
1070
   340
1005
CF
1070
   271
1070
     2
1070
   272
1070
     3
1070
    77
1070
     1
1070
    73
1070
     1
1070
   171
1070
     3
1070
   274
1070
     4
1070
   177
1070
     2
1070
   176
1070
     2
1070
   178
1070
     2
1070
    78
1070
     8
1070
    48
1040
-0.1
1070
    41
1040
3.5
1070
   147
1040
1.5
1070
    42
1040
1.5875
1070
    44
1040
2.0
1070
   140
1040
3.0
1002
}
1001
ACAD_DSTYLE_DIM_LINETYPE
1070
   380
1005
16
1001
ACAD_DSTYLE_DIM_EXT1_LINETYPE
1070
   381
1005
16
1001
ACAD_DSTYLE_DIM_EXT2_LINETYPE
1070
   382
1005
16
0
DIMENSION
5
139
100
AcDbEntity
8
2
62
256
6
ByLayer
370
18
48
1
60
0
100
AcDbDimension
2
_U3
10
8.75
20
-34.708511
30
0
11
18.875
21
-34.708511
31
0
70
32
71
1
72
1
41
1
210
0
220
0
230
1
3
Standard
100
AcDbAlignedDimension
13
29
23
0
33
0
14
8.75
24
-1.15
34
0
50
0
100
AcDbRotatedDimension
1001
ACAD
1000
DSTYLE
1002
{
1070
   371
1070
    13
1070
   372
1070
    13
1070
     3
1000

1070
   170
1070
     0
1070
   144
1040
1.0
1070
   277
1070
     2
1070
   284
1070
     8
1070
   278
1070
    46
1070
   146
1040
1.166667
1070
   345
1005
16
1070
   347
1005
16
1070
   346
1005
16
1070
   344
1005
0
1070
   343
1005
0
1070
   172
1070
     1
1070
    76
1070
     0
1070
    75
1070
     0
1070
   282
1070
     0
1070
   281
1070
     0
1070
    71
1070
     0
1070
    74
1070
     0
1070
   279
1070
     0
1070
   173
1070
     1
1070
   340
1005
CF
1070
   271
1070
     2
1070
   272
1070
     3
1070
    77
1070
     1
1070
    73
1070
     1
1070
   171
1070
     3
1070
   274
1070
     4
1070
   177
1070
     2
1070
   176
1070
     2
1070
   178
1070
     2
1070
    78
1070
     8
1070
    48
1040
-0.1
1070
    41
1040
3.5
1070
   147
1040
1.5
1070
    42
1040
1.5875
1070
    44
1040
2.0
1070
   140
1040
3.0
1002
}
1001
ACAD_DSTYLE_DIM_LINETYPE
1070
   380
1005
16
1001
ACAD_DSTYLE_DIM_EXT1_LINETYPE
1070
   381
1005
16
1001
ACAD_DSTYLE_DIM_EXT2_LINETYPE
1070
   382
1005
16
0
ENDSEC
0
SECTION
2
OBJECTS
0
DICTIONARY
5
1c3
330
0
100
AcDbDictionary
280
0
281
1
3
ACAD_GROUP
350
1c4
3
ACAD_MLINESTYLE
350
1c5
0
DICTIONARY
5
1c4
330
0
100
AcDbDictionary
280
0
281
1
0
DICTIONARY
5
1c5
330
0
100
AcDbDictionary
280
0
281
1
3
Standard
350
18
0
MLINESTYLE
5
18
330
1c5
100
AcDbMlineStyle
2
Standard
70
0
3

62
256
51
90
52
90
71
2
49
-0.5
62
256
6
ByLayer
49
0.5
62
256
6
ByLayer
0
RASTERVARIABLES
5
1af
330

100
AcDbRasterVariables
90
0
70
1
71
1
72
1
0
ENDSEC
0
EOF
