0
SECTION
2
HEADER
9
$ACADVER
1
AC1015
9
$DWGCODEPAGE
3
ANSI_1252
9
$HANDSEED
5
1ce
9
$ANGBASE
50
0
9
$ANGDIR
70
0
9
$ATTMODE
70
1
9
$AUNITS
70
0
9
$AUPREC
70
0
9
$CECOLOR
62
256
9
$CELTSCALE
40
1
9
$CELTYPE
6
ByLayer
9
$CELWEIGHT
370
18
9
$CLAYER
8
0
9
$CMLJUST
70
0
9
$CMLSCALE
40
1
9
$CMLSTYLE
2
Standard
9
$DIMSTYLE
2
Standard
9
$TEXTSIZE
40
0.2
9
$TEXTSTYLE
7
Standard
9
$LUNITS
70
2
9
$LUPREC
70
4
9
$EXTNAMES
290
1
9
$INSUNITS
70
4
9
$LTSCALE
40
1
9
$LWDISPLAY
290
1
9
$PDMODE
70
0
9
$PDSIZE
40
0
9
$PLINEGEN
70
0
0
ENDSEC
0
SECTION
2
CLASSES
0
CLASS
1
RASTERVARIABLES
2
AcDbRasterVariables
3
ISM
90
0
280
0
281
0
0
ENDSEC
0
SECTION
2
TABLES
0
TABLE
2
VPORT
5
1c4
100
AcDbSymbolTable
0
VPORT
5
1
100
AcDbSymbolTableRecord
100
AcDbViewportTableRecord
2
*Active
70
0
10
0
20
0
11
1
21
1
12
-1
22
1
13
0
23
0
14
0.5
24
0.5
15
10
25
10
16
0
26
0
36
1
17
0
27
0
37
0
0
ENDTAB
0
TABLE
2
LTYPE
5
1c5
100
AcDbSymbolTable
0
LTYPE
5
14
100
AcDbSymbolTableRecord
100
AcDbLinetypeTableRecord
70
0
2
ByBlock
3

72
65
73
0
40
0
0
LTYPE
5
15
100
AcDbSymbolTableRecord
100
AcDbLinetypeTableRecord
70
0
2
ByLayer
3

72
65
73
0
40
0
0
LTYPE
5
16
100
AcDbSymbolTableRecord
100
AcDbLinetypeTableRecord
70
0
2
Continuous
3
Solid line
72
65
73
0
40
0
0
LTYPE
5
6E
100
AcDbSymbolTableRecord
100
AcDbLinetypeTableRecord
70
0
2
CENTER
3
____ _ ____ _ ____ _ ____
72
65
73
4
40
47.5
49
22
74
0
49
-8.5
74
0
49
8.5
74
0
49
-8.5
74
0
0
LTYPE
5
6F
100
AcDbSymbolTableRecord
100
AcDbLinetypeTableRecord
70
0
2
DASHED
3
__ __ __ __ __ __ __ __ __
72
65
73
2
40
25.72
49
12.86
74
0
49
-12.86
74
0
0
ENDTAB
0
TABLE
2
LAYER
5
1c6
100
AcDbSymbolTable
0
LAYER
5
10
100
AcDbSymbolTableRecord
100
AcDbLayerTableRecord
2
0
70
0
62
7
6
Continuous
290
1
370
-3
390
0
0
LAYER
5
71
100
AcDbSymbolTableRecord
100
AcDbLayerTableRecord
2
81
70
0
62
-3
6
Continuous
290
1
370
-3
390
0
0
LAYER
5
73
100
AcDbSymbolTableRecord
100
AcDbLayerTableRecord
2
80
70
0
62
-6
6
Continuous
290
1
370
-3
390
0
0
LAYER
5
75
100
AcDbSymbolTableRecord
100
AcDbLayerTableRecord
2
1
70
0
62
4
6
Continuous
290
1
370
-3
390
0
0
LAYER
5
7F
100
AcDbSymbolTableRecord
100
AcDbLayerTableRecord
2
4
70
0
62
-2
6
CENTER
290
1
370
-3
390
0
0
LAYER
5
A8
100
AcDbSymbolTableRecord
100
AcDbLayerTableRecord
2
2
70
0
62
7
6
Continuous
290
1
370
-3
390
0
0
LAYER
5
F1
100
AcDbSymbolTableRecord
100
AcDbLayerTableRecord
2
Defpoints
70
0
62
7
6
Continuous
290
0
370
-3
390
0
0
LAYER
5
1ae
100
AcDbSymbolTableRecord
100
AcDbLayerTableRecord
2
SK4
70
0
62
2
6
CENTER
290
1
370
-3
390
0
0
LAYER
5
1af
100
AcDbSymbolTableRecord
100
AcDbLayerTableRecord
2
SK1
70
0
62
4
6
Continuous
290
1
370
-3
390
0
0
LAYER
5
1b0
100
AcDbSymbolTableRecord
100
AcDbLayerTableRecord
2
SK2
70
0
62
7
6
Continuous
290
1
370
-3
390
0
0
LAYER
5
1b1
100
AcDbSymbolTableRecord
100
AcDbLayerTableRecord
2
CUT
70
0
62
-1
6
Continuous
290
1
370
-3
390
0
0
LAYER
5
1b2
100
AcDbSymbolTableRecord
100
AcDbLayerTableRecord
2
NOCUT
70
0
62
-7
6
Continuous
290
1
370
-3
390
0
0
LAYER
5
1b3
100
AcDbSymbolTableRecord
100
AcDbLayerTableRecord
2
SK6
70
0
62
5
6
Continuous
290
1
370
-3
390
0
0
ENDTAB
0
TABLE
2
STYLE
5
1c7
100
AcDbSymbolTable
0
STYLE
5
11
100
AcDbSymbolTableRecord
100
AcDbTextStyleTableRecord
2
Standard
3
txt
70
0
71
0
40
0
41
1
42
0
50
0
0
STYLE
5
CD
100
AcDbSymbolTableRecord
100
AcDbTextStyleTableRecord
2
iso_b_vert
3
simplex.shx
70
0
71
0
40
0
41
1
42
0
50
0
0
STYLE
5
CE
100
AcDbSymbolTableRecord
100
AcDbTextStyleTableRecord
2
DWGDirectTextStyle
3
simplex
70
0
71
0
40
0
41
1
42
0
50
0
0
ENDTAB
0
TABLE
2
DIMSTYLE
5
1c8
100
AcDbSymbolTable
100
AcDbDimStyleTable
0
DIMSTYLE
105
27
100
AcDbSymbolTableRecord
100
AcDbDimStyleTableRecord
2
Standard
70
0
3
<>
41
0.18
42
0.0625
44
0.18
140
0.18
147
0.09
73
0
74
0
77
1
271
2
275
0
278
52
280
0
340
11
0
ENDTAB
0
TABLE
2
VIEW
5
1c9
100
AcDbSymbolTable
0
ENDTAB
0
TABLE
2
UCS
5
1ca
100
AcDbSymbolTable
0
ENDTAB
0
TABLE
2
APPID
5
1cb
100
AcDbSymbolTable
0
APPID
5
12
100
AcDbSymbolTableRecord
100
AcDbRegAppTableRecord
2
ACAD
70
0
0
APPID
5
ED
100
AcDbSymbolTableRecord
100
AcDbRegAppTableRecord
2
ACAD_DSTYLE_DIMBREAK
70
0
0
APPID
5
16D
100
AcDbSymbolTableRecord
100
AcDbRegAppTableRecord
2
ACAD_DSTYLE_DIM_LINETYPE
70
0
0
APPID
5
16E
100
AcDbSymbolTableRecord
100
AcDbRegAppTableRecord
2
ACAD_DSTYLE_DIM_EXT1_LINETYPE
70
0
0
APPID
5
16F
100
AcDbSymbolTableRecord
100
AcDbRegAppTableRecord
2
ACAD_DSTYLE_DIM_EXT2_LINETYPE
70
0
0
APPID
5
1AA
100
AcDbSymbolTableRecord
100
AcDbRegAppTableRecord
2
ACAD_MLEADERVER
70
0
0
ENDTAB
0
TABLE
2
BLOCK_RECORD
5
1cc
100
AcDbSymbolTable
0
BLOCK_RECORD
5
1F
100
AcDbSymbolTableRecord
100
AcDbBlockTableRecord
2
*Model_Space
340
0
70
0
0
BLOCK_RECORD
5
1B
100
AcDbSymbolTableRecord
100
AcDbBlockTableRecord
2
*Paper_Space
340
0
70
0
0
BLOCK_RECORD
5
23
100
AcDbSymbolTableRecord
100
AcDbBlockTableRecord
2
*Paper_Space0
340
0
70
0
0
BLOCK_RECORD
5
F2
100
AcDbSymbolTableRecord
100
AcDbBlockTableRecord
2
*D1
340
0
70
0
0
BLOCK_RECORD
5
FE
100
AcDbSymbolTableRecord
100
AcDbBlockTableRecord
2
_U0
340
0
70
0
0
BLOCK_RECORD
5
10A
100
AcDbSymbolTableRecord
100
AcDbBlockTableRecord
2
*D3
340
0
70
0
0
BLOCK_RECORD
5
116
100
AcDbSymbolTableRecord
100
AcDbBlockTableRecord
2
_U1
340
0
70
0
0
BLOCK_RECORD
5
122
100
AcDbSymbolTableRecord
100
AcDbBlockTableRecord
2
*D5
340
0
70
0
0
BLOCK_RECORD
5
12E
100
AcDbSymbolTableRecord
100
AcDbBlockTableRecord
2
_U2
340
0
70
0
0
BLOCK_RECORD
5
13A
100
AcDbSymbolTableRecord
100
AcDbBlockTableRecord
2
*D7
340
0
70
0
0
BLOCK_RECORD
5
146
100
AcDbSymbolTableRecord
100
AcDbBlockTableRecord
2
_U3
340
0
70
0
0
ENDTAB
0
ENDSEC
0
SECTION
2
BLOCKS
0
BLOCK
5
20
100
AcDbEntity
8
0
100
AcDbBlockBegin
2
*Model_Space
70
0
10
0
20
0
30
0
3
*Model_Space
0
ENDBLK
5
21
100
AcDbEntity
8
0
100
AcDbBlockEnd
0
BLOCK
5
1C
100
AcDbEntity
8
0
100
AcDbBlockBegin
2
*Paper_Space
70
0
10
0
20
0
30
0
3
*Paper_Space
0
ENDBLK
5
1D
100
AcDbEntity
8
0
100
AcDbBlockEnd
0
BLOCK
5
24
100
AcDbEntity
8
0
100
AcDbBlockBegin
2
*Paper_Space0
70
0
10
0
20
0
30
0
3
*Paper_Space0
0
ENDBLK
5
25
100
AcDbEntity
8
0
100
AcDbBlockEnd
0
BLOCK
5
F3
100
AcDbEntity
8
0
100
AcDbBlockBegin
2
*D1
70
1
10
0
20
0
30
0
3
*D1
0
LINE
5
F5
100
AcDbEntity
8
0
62
256
6
ByLayer
370
-2
48
1
60
0
100
AcDbLine
10
-24
20
-2.6875
30
0
11
-24
21
-50.715508
31
0
39
0
210
0
220
0
230
1
0
LINE
5
F6
100
AcDbEntity
8
0
62
256
6
ByLayer
370
-2
48
1
60
0
100
AcDbLine
10
29
20
-1.5875
30
0
11
29
21
-50.715508
31
0
39
0
210
0
220
0
230
1
0
LINE
5
F7
100
AcDbEntity
8
0
62
256
6
ByLayer
370
-2
48
1
60
0
100
AcDbLine
10
-20.5
20
-48.715508
30
0
11
25.5
21
-48.715508
31
0
39
0
210
0
220
0
230
1
0
SOLID
5
F8
100
AcDbEntity
8
0
62
256
6
ByLayer
370
-1
48
1
60
0
100
AcDbTrace
10
-20.5
20
-48.132175
30
0
11
-20.5
21
-49.298842
31
0
12
-24
22
-48.715508
32
0
13
-24
23
-48.715508
33
0
39
0
210
0
220
0
230
1
0
SOLID
5
F9
100
AcDbEntity
8
0
62
256
6
ByLayer
370
-1
48
1
60
0
100
AcDbTrace
10
25.5
20
-49.298842
30
0
11
25.5
21
-48.132175
31
0
12
29
22
-48.715508
32
0
13
29
23
-48.715508
33
0
39
0
210
0
220
0
230
1
0
MTEXT
5
FA
100
AcDbEntity
8
0
62
256
6
ByLayer
370
18
48
1
60
0
100
AcDbMText
10
2.5
20
-42.715508
30
0
210
0
220
0
230
1
1
\A1;53
40
3
41
0
44
1
50
0
71
5
72
5
7
iso_b_vert
0
POINT
5
FB
100
AcDbEntity
8
Defpoints
62
0
6
ByLayer
370
-1
48
1
60
0
100
AcDbPoint
10
-24
20
-1.1
30
0
39
0
210
0
220
0
230
1
50
360
0
POINT
5
FC
100
AcDbEntity
8
Defpoints
62
0
6
ByLayer
370
-1
48
1
60
0
100
AcDbPoint
10
29
20
0
30
0
39
0
210
0
220
0
230
1
50
360
0
POINT
5
FD
100
AcDbEntity
8
Defpoints
62
0
6
ByLayer
370
-1
48
1
60
0
100
AcDbPoint
10
29
20
-48.715508
30
0
39
0
210
0
220
0
230
1
50
360
0
ENDBLK
5
F4
100
AcDbEntity
8
0
100
AcDbBlockEnd
0
BLOCK
5
105
100
AcDbEntity
8
0
100
AcDbBlockBegin
2
_U0
70
0
10
0
20
0
30
0
3
_U0
0
MTEXT
5
FF
100
AcDbEntity
8
SK2
62
256
6
ByLayer
370
18
48
1
60
0
100
AcDbMText
10
-1.98237
20
-47.830394
30
0
210
0
220
0
230
1
1
\W0.7468;53.00
40
3
41
0
44
1.084337
50
0
71
7
72
5
7
iso_b_vert
0
LINE
5
100
100
AcDbEntity
8
SK2
62
256
6
ByLayer
370
13
48
1
60
0
100
AcDbLine
10
-24
20
-2.6875
30
0
11
-24
21
-50.715508
31
0
39
0
210
0
220
0
230
1
0
LINE
5
101
100
AcDbEntity
8
SK2
62
256
6
ByLayer
370
13
48
1
60
0
100
AcDbLine
10
29
20
-1.5875
30
0
11
29
21
-50.715508
31
0
39
0
210
0
220
0
230
1
0
LINE
5
102
100
AcDbEntity
8
SK2
62
256
6
ByLayer
370
13
48
1
60
0
100
AcDbLine
10
-24
20
-48.715508
30
0
11
29
21
-48.715508
31
0
39
0
210
0
220
0
230
1
0
SOLID
5
103
100
AcDbEntity
8
SK2
62
256
6
ByLayer
370
18
48
1
60
0
100
AcDbTrace
10
-24
20
-48.715508
30
0
11
-20.500002
21
-48.254725
31
0
12
-20.499998
22
-49.176292
32
0
13
-20.499998
23
-49.176292
33
0
39
0
210
0
220
0
230
1
0
SOLID
5
104
100
AcDbEntity
8
SK2
62
256
6
ByLayer
370
18
48
1
60
0
100
AcDbTrace
10
29
20
-48.715508
30
0
11
25.500002
21
-49.176292
31
0
12
25.499998
22
-48.254725
32
0
13
25.499998
23
-48.254725
33
0
39
0
210
0
220
0
230
1
0
ENDBLK
5
106
100
AcDbEntity
8
0
100
AcDbBlockEnd
0
BLOCK
5
10B
100
AcDbEntity
8
0
100
AcDbBlockBegin
2
*D3
70
1
10
0
20
0
30
0
3
*D3
0
LINE
5
10D
100
AcDbEntity
8
0
62
256
6
ByLayer
370
-2
48
1
60
0
100
AcDbLine
10
29
20
-1.5875
30
0
11
29
21
-40.715508
31
0
39
0
210
0
220
0
230
1
0
LINE
5
10E
100
AcDbEntity
8
0
62
256
6
ByLayer
370
-2
48
1
60
0
100
AcDbLine
10
2
20
-2.6875
30
0
11
2
21
-40.715508
31
0
39
0
210
0
220
0
230
1
0
LINE
5
10F
100
AcDbEntity
8
0
62
256
6
ByLayer
370
-2
48
1
60
0
100
AcDbLine
10
25.5
20
-38.715508
30
0
11
5.5
21
-38.715508
31
0
39
0
210
0
220
0
230
1
0
SOLID
5
110
100
AcDbEntity
8
0
62
256
6
ByLayer
370
-1
48
1
60
0
100
AcDbTrace
10
25.5
20
-39.298842
30
0
11
25.5
21
-38.132175
31
0
12
29
22
-38.715508
32
0
13
29
23
-38.715508
33
0
39
0
210
0
220
0
230
1
0
SOLID
5
111
100
AcDbEntity
8
0
62
256
6
ByLayer
370
-1
48
1
60
0
100
AcDbTrace
10
5.5
20
-38.132175
30
0
11
5.5
21
-39.298842
31
0
12
2
22
-38.715508
32
0
13
2
23
-38.715508
33
0
39
0
210
0
220
0
230
1
0
MTEXT
5
112
100
AcDbEntity
8
0
62
256
6
ByLayer
370
18
48
1
60
0
100
AcDbMText
10
15.5
20
-32.715508
30
0
210
0
220
0
230
1
1
\A1;27
40
3
41
0
44
1
50
0
71
5
72
5
7
iso_b_vert
0
POINT
5
113
100
AcDbEntity
8
Defpoints
62
0
6
ByLayer
370
-1
48
1
60
0
100
AcDbPoint
10
29
20
0
30
0
39
0
210
0
220
0
230
1
50
360
0
POINT
5
114
100
AcDbEntity
8
Defpoints
62
0
6
ByLayer
370
-1
48
1
60
0
100
AcDbPoint
10
2
20
-1.1
30
0
39
0
210
0
220
0
230
1
50
360
0
POINT
5
115
100
AcDbEntity
8
Defpoints
62
0
6
ByLayer
370
-1
48
1
60
0
100
AcDbPoint
10
2
20
-38.715508
30
0
39
0
210
0
220
0
230
1
50
360
0
ENDBLK
5
10C
100
AcDbEntity
8
0
100
AcDbBlockEnd
0
BLOCK
5
11D
100
AcDbEntity
8
0
100
AcDbBlockBegin
2
_U1
70
0
10
0
20
0
30
0
3
_U1
0
MTEXT
5
117
100
AcDbEntity
8
2
62
256
6
ByLayer
370
18
48
1
60
0
100
AcDbMText
10
11.01763
20
-37.830394
30
0
210
0
220
0
230
1
1
\W0.7468;27.00
40
3
41
0
44
1.084337
50
0
71
7
72
5
7
iso_b_vert
0
LINE
5
118
100
AcDbEntity
8
2
62
256
6
ByLayer
370
13
48
1
60
0
100
AcDbLine
10
29
20
-1.5875
30
0
11
29
21
-40.715508
31
0
39
0
210
0
220
0
230
1
0
LINE
5
119
100
AcDbEntity
8
2
62
256
6
ByLayer
370
13
48
1
60
0
100
AcDbLine
10
2
20
-2.6875
30
0
11
2
21
-40.715508
31
0
39
0
210
0
220
0
230
1
0
LINE
5
11A
100
AcDbEntity
8
2
62
256
6
ByLayer
370
13
48
1
60
0
100
AcDbLine
10
29
20
-38.715508
30
0
11
2
21
-38.715508
31
0
39
0
210
0
220
0
230
1
0
SOLID
5
11B
100
AcDbEntity
8
2
62
256
6
ByLayer
370
18
48
1
60
0
100
AcDbTrace
10
29
20
-38.715508
30
0
11
25.500002
21
-39.176292
31
0
12
25.499998
22
-38.254725
32
0
13
25.499998
23
-38.254725
33
0
39
0
210
0
220
0
230
1
0
SOLID
5
11C
100
AcDbEntity
8
2
62
256
6
ByLayer
370
18
48
1
60
0
100
AcDbTrace
10
2
20
-38.715508
30
0
11
5.499998
21
-38.254725
31
0
12
5.500002
22
-39.176292
32
0
13
5.500002
23
-39.176292
33
0
39
0
210
0
220
0
230
1
0
ENDBLK
5
11E
100
AcDbEntity
8
0
100
AcDbBlockEnd
0
BLOCK
5
123
100
AcDbEntity
8
0
100
AcDbBlockBegin
2
*D5
70
1
10
0
20
0
30
0
3
*D5
0
LINE
5
125
100
AcDbEntity
8
0
62
256
6
ByLayer
370
-2
48
1
60
0
100
AcDbLine
10
-24
20
-2.6875
30
0
11
-24
21
-35.715508
31
0
39
0
210
0
220
0
230
1
0
LINE
5
126
100
AcDbEntity
8
0
62
256
6
ByLayer
370
-2
48
1
60
0
100
AcDbLine
10
0
20
-2.6875
30
0
11
0
21
-35.715508
31
0
39
0
210
0
220
0
230
1
0
LINE
5
127
100
AcDbEntity
8
0
62
256
6
ByLayer
370
-2
48
1
60
0
100
AcDbLine
10
-20.5
20
-33.715508
30
0
11
-3.5
21
-33.715508
31
0
39
0
210
0
220
0
230
1
0
SOLID
5
128
100
AcDbEntity
8
0
62
256
6
ByLayer
370
-1
48
1
60
0
100
AcDbTrace
10
-20.5
20
-33.132175
30
0
11
-20.5
21
-34.298842
31
0
12
-24
22
-33.715508
32
0
13
-24
23
-33.715508
33
0
39
0
210
0
220
0
230
1
0
SOLID
5
129
100
AcDbEntity
8
0
62
256
6
ByLayer
370
-1
48
1
60
0
100
AcDbTrace
10
-3.5
20
-34.298842
30
0
11
-3.5
21
-33.132175
31
0
12
0
22
-33.715508
32
0
13
0
23
-33.715508
33
0
39
0
210
0
220
0
230
1
0
MTEXT
5
12A
100
AcDbEntity
8
0
62
256
6
ByLayer
370
18
48
1
60
0
100
AcDbMText
10
-12
20
-27.715508
30
0
210
0
220
0
230
1
1
\A1;24
40
3
41
0
44
1
50
0
71
5
72
5
7
iso_b_vert
0
POINT
5
12B
100
AcDbEntity
8
Defpoints
62
0
6
ByLayer
370
-1
48
1
60
0
100
AcDbPoint
10
-24
20
-1.1
30
0
39
0
210
0
220
0
230
1
50
360
0
POINT
5
12C
100
AcDbEntity
8
Defpoints
62
0
6
ByLayer
370
-1
48
1
60
0
100
AcDbPoint
10
0
20
-1.1
30
0
39
0
210
0
220
0
230
1
50
360
0
POINT
5
12D
100
AcDbEntity
8
Defpoints
62
0
6
ByLayer
370
-1
48
1
60
0
100
AcDbPoint
10
0
20
-33.715508
30
0
39
0
210
0
220
0
230
1
50
360
0
ENDBLK
5
124
100
AcDbEntity
8
0
100
AcDbBlockEnd
0
BLOCK
5
135
100
AcDbEntity
8
0
100
AcDbBlockBegin
2
_U2
70
0
10
0
20
0
30
0
3
_U2
0
MTEXT
5
12F
100
AcDbEntity
8
SK2
62
256
6
ByLayer
370
18
48
1
60
0
100
AcDbMText
10
-16.640313
20
-32.830394
30
0
210
0
220
0
230
1
1
\W0.7694;24.00
40
3
41
0
44
1.084337
50
0
71
7
72
5
7
iso_b_vert
0
LINE
5
130
100
AcDbEntity
8
SK2
62
256
6
ByLayer
370
13
48
1
60
0
100
AcDbLine
10
-24
20
-2.6875
30
0
11
-24
21
-35.715508
31
0
39
0
210
0
220
0
230
1
0
LINE
5
131
100
AcDbEntity
8
SK2
62
256
6
ByLayer
370
13
48
1
60
0
100
AcDbLine
10
0
20
-2.6875
30
0
11
0
21
-35.715508
31
0
39
0
210
0
220
0
230
1
0
LINE
5
132
100
AcDbEntity
8
SK2
62
256
6
ByLayer
370
13
48
1
60
0
100
AcDbLine
10
-24
20
-33.715508
30
0
11
0
21
-33.715508
31
0
39
0
210
0
220
0
230
1
0
SOLID
5
133
100
AcDbEntity
8
SK2
62
256
6
ByLayer
370
18
48
1
60
0
100
AcDbTrace
10
-24
20
-33.715508
30
0
11
-20.500002
21
-33.254725
31
0
12
-20.499998
22
-34.176292
32
0
13
-20.499998
23
-34.176292
33
0
39
0
210
0
220
0
230
1
0
SOLID
5
134
100
AcDbEntity
8
SK2
62
256
6
ByLayer
370
18
48
1
60
0
100
AcDbTrace
10
0
20
-33.715508
30
0
11
-3.499998
21
-34.176292
31
0
12
-3.500002
22
-33.254725
32
0
13
-3.500002
23
-33.254725
33
0
39
0
210
0
220
0
230
1
0
ENDBLK
5
136
100
AcDbEntity
8
0
100
AcDbBlockEnd
0
BLOCK
5
13B
100
AcDbEntity
8
0
100
AcDbBlockBegin
2
*D7
70
1
10
0
20
0
30
0
3
*D7
0
LINE
5
13D
100
AcDbEntity
8
0
62
256
6
ByLayer
370
-2
48
1
60
0
100
AcDbLine
10
29
20
-1.5875
30
0
11
29
21
-33.715508
31
0
39
0
210
0
220
0
230
1
0
LINE
5
13E
100
AcDbEntity
8
0
62
256
6
ByLayer
370
-2
48
1
60
0
100
AcDbLine
10
8.75
20
-2.6875
30
0
11
8.75
21
-33.715508
31
0
39
0
210
0
220
0
230
1
0
LINE
5
13F
100
AcDbEntity
8
0
62
256
6
ByLayer
370
-2
48
1
60
0
100
AcDbLine
10
25.5
20
-31.715508
30
0
11
12.25
21
-31.715508
31
0
39
0
210
0
220
0
230
1
0
SOLID
5
140
100
AcDbEntity
8
0
62
256
6
ByLayer
370
-1
48
1
60
0
100
AcDbTrace
10
25.5
20
-32.298842
30
0
11
25.5
21
-31.132175
31
0
12
29
22
-31.715508
32
0
13
29
23
-31.715508
33
0
39
0
210
0
220
0
230
1
0
SOLID
5
141
100
AcDbEntity
8
0
62
256
6
ByLayer
370
-1
48
1
60
0
100
AcDbTrace
10
12.25
20
-31.132175
30
0
11
12.25
21
-32.298842
31
0
12
8.75
22
-31.715508
32
0
13
8.75
23
-31.715508
33
0
39
0
210
0
220
0
230
1
0
MTEXT
5
142
100
AcDbEntity
8
0
62
256
6
ByLayer
370
18
48
1
60
0
100
AcDbMText
10
18.875
20
-25.715508
30
0
210
0
220
0
230
1
1
\A1;20.25
40
3
41
0
44
1
50
0
71
5
72
5
7
iso_b_vert
0
POINT
5
143
100
AcDbEntity
8
Defpoints
62
0
6
ByLayer
370
-1
48
1
60
0
100
AcDbPoint
10
29
20
0
30
0
39
0
210
0
220
0
230
1
50
360
0
POINT
5
144
100
AcDbEntity
8
Defpoints
62
0
6
ByLayer
370
-1
48
1
60
0
100
AcDbPoint
10
8.75
20
-1.1
30
0
39
0
210
0
220
0
230
1
50
360
0
POINT
5
145
100
AcDbEntity
8
Defpoints
62
0
6
ByLayer
370
-1
48
1
60
0
100
AcDbPoint
10
8.75
20
-31.715508
30
0
39
0
210
0
220
0
230
1
50
360
0
ENDBLK
5
13C
100
AcDbEntity
8
0
100
AcDbBlockEnd
0
BLOCK
5
14D
100
AcDbEntity
8
0
100
AcDbBlockBegin
2
_U3
70
0
10
0
20
0
30
0
3
_U3
0
MTEXT
5
147
100
AcDbEntity
8
2
62
256
6
ByLayer
370
18
48
1
60
0
100
AcDbMText
10
14.39263
20
-30.830394
30
0
210
0
220
0
230
1
1
\W0.7468;20.25
40
3
41
0
44
1.084337
50
0
71
7
72
5
7
iso_b_vert
0
LINE
5
148
100
AcDbEntity
8
2
62
256
6
ByLayer
370
13
48
1
60
0
100
AcDbLine
10
29
20
-1.5875
30
0
11
29
21
-33.715508
31
0
39
0
210
0
220
0
230
1
0
LINE
5
149
100
AcDbEntity
8
2
62
256
6
ByLayer
370
13
48
1
60
0
100
AcDbLine
10
8.75
20
-2.6875
30
0
11
8.75
21
-33.715508
31
0
39
0
210
0
220
0
230
1
0
LINE
5
14A
100
AcDbEntity
8
2
62
256
6
ByLayer
370
13
48
1
60
0
100
AcDbLine
10
29
20
-31.715508
30
0
11
8.75
21
-31.715508
31
0
39
0
210
0
220
0
230
1
0
SOLID
5
14B
100
AcDbEntity
8
2
62
256
6
ByLayer
370
18
48
1
60
0
100
AcDbTrace
10
29
20
-31.715508
30
0
11
25.500002
21
-32.176292
31
0
12
25.499998
22
-31.254725
32
0
13
25.499998
23
-31.254725
33
0
39
0
210
0
220
0
230
1
0
SOLID
5
14C
100
AcDbEntity
8
2
62
256
6
ByLayer
370
18
48
1
60
0
100
AcDbTrace
10
8.75
20
-31.715508
30
0
11
12.249998
21
-31.254725
31
0
12
12.250002
22
-32.176292
32
0
13
12.250002
23
-32.176292
33
0
39
0
210
0
220
0
230
1
0
ENDBLK
5
14E
100
AcDbEntity
8
0
100
AcDbBlockEnd
0
ENDSEC
0
SECTION
2
ENTITIES
0
ARC
5
B9
100
AcDbEntity
8
2
62
256
6
ByLayer
370
13
48
1
60
0
100
AcDbCircle
39
0
10
29
20
0
30
0
40
22
210
0
220
0
230
1
100
AcDbArc
50
7.83748
51
61.596605
0
ARC
5
BA
100
AcDbEntity
8
2
62
256
6
ByLayer
370
13
48
1
60
0
100
AcDbCircle
39
0
10
29
20
0
30
0
40
22
210
0
220
0
230
1
100
AcDbArc
50
298.403395
51
352.16252
0
POINT
5
70
100
AcDbEntity
8
81
62
256
6
ByLayer
370
18
48
1
60
0
100
AcDbPoint
10
29
20
0
30
0
39
0
210
0
220
0
230
1
50
360
0
POINT
5
72
100
AcDbEntity
8
80
62
256
6
ByLayer
370
18
48
1
60
0
100
AcDbPoint
10
0
20
0
30
0
39
0
210
0
220
0
230
1
50
360
0
POINT
5
74
100
AcDbEntity
8
1
62
256
6
ByLayer
370
18
48
1
60
1
100
AcDbPoint
10
-24
20
-1.1
30
0
39
0
210
0
220
0
230
1
50
360
0
POINT
5
76
100
AcDbEntity
8
1
62
256
6
ByLayer
370
18
48
1
60
1
100
AcDbPoint
10
29
20
0
30
0
39
0
210
0
220
0
230
1
50
360
0
POINT
5
77
100
AcDbEntity
8
1
62
256
6
ByLayer
370
18
48
1
60
1
100
AcDbPoint
10
29
20
0
30
0
39
0
210
0
220
0
230
1
50
360
0
POINT
5
78
100
AcDbEntity
8
1
62
256
6
ByLayer
370
18
48
1
60
1
100
AcDbPoint
10
2
20
-1.1
30
0
39
0
210
0
220
0
230
1
50
360
0
POINT
5
79
100
AcDbEntity
8
1
62
256
6
ByLayer
370
18
48
1
60
1
100
AcDbPoint
10
-24
20
-1.1
30
0
39
0
210
0
220
0
230
1
50
360
0
POINT
5
7A
100
AcDbEntity
8
1
62
256
6
ByLayer
370
18
48
1
60
1
100
AcDbPoint
10
0
20
-1.1
30
0
39
0
210
0
220
0
230
1
50
360
0
POINT
5
7B
100
AcDbEntity
8
1
62
256
6
ByLayer
370
18
48
1
60
1
100
AcDbPoint
10
29
20
0
30
0
39
0
210
0
220
0
230
1
50
360
0
POINT
5
7C
100
AcDbEntity
8
1
62
256
6
ByLayer
370
18
48
1
60
1
100
AcDbPoint
10
8.75
20
-1.1
30
0
39
0
210
0
220
0
230
1
50
360
0
SPLINE
5
BB
100
AcDbEntity
8
CUT
62
256
6
ByLayer
370
18
48
1
60
0
100
AcDbSpline
70
2053
71
3
72
17
73
13
40
0
40
0
40
0
40
0
40
0.479309020853234
40
0.479309020853234
40
0.479309020853234
40
0.505171099336575
40
0.505171099336575
40
0.505171099336575
40
0.970400254836521
40
0.970400254836521
40
0.970400254836521
40
1
40
1
40
1
40
1
41
1
10
29
20
0
30
0
41
1
10
22.25
20
0
30
0
41
1
10
15.5
20
0
30
0
41
1
10
8.75
20
0
30
0
41
1
10
8.75
20
0.36420977318565
30
0
41
1
10
8.75
20
0.728419546371271
30
0
41
1
10
8.74999999999991
20
1.09262931955692
30
0
41
1
10
15.3017159957112
20
1.09508621305565
30
0
41
1
10
21.8534319914226
20
1.09754310655441
30
0
41
1
10
28.4051479871339
20
1.10000000005317
30
0
41
1
10
28.6034319914226
20
0.73333333336879
30
0
41
1
10
28.8017159957113
20
0.366666666684381
30
0
41
1
10
29
20
0
30
0
0
SPLINE
5
BD
100
AcDbEntity
8
NOCUT
62
256
6
ByLayer
370
18
48
1
60
0
100
AcDbSpline
70
2053
71
3
72
26
73
22
40
0
40
0
40
0
40
0
40
0.485059746946012
40
0.485059746946012
40
0.485059746946012
40
0.501242663013874
40
0.501242663013874
40
0.501242663013874
40
0.62935768915422
40
0.62935768915422
40
0.62935768915422
40
0.630847107728788
40
0.630847107728788
40
0.630847107728788
40
0.981867443685184
40
0.981867443685184
40
0.981867443685184
40
0.988151212289823
40
0.988151212289823
40
0.988151212289823
40
1
40
1
40
1
40
1
41
1
10
-24
20
0
30
0
41
1
10
-13.0833333333333
20
0
30
0
41
1
10
-2.16666666666666
20
0
30
0
41
1
10
8.75
20
0
30
0
41
1
10
8.75
20
0.36420977318565
30
0
41
1
10
8.75
20
0.728419546371271
30
0
41
1
10
8.75
20
1.09262931955692
30
0
41
1
10
5.86666666666653
20
1.09154806955675
30
0
41
1
10
2.98333333333304
20
1.09046681955661
30
0
41
1
10
0.0999999999577312
20
1.0893855695609
30
0
41
1
10
0.0666666666106153
20
1.09292371304357
30
0
41
1
10
0.0333333333053076
20
1.09646185652178
30
0
41
1
10
0
20
1.09999999999999
30
0
41
1
10
-7.90000000000001
20
1.09999999999999
30
0
41
1
10
-15.8
20
1.09999999999999
30
0
41
1
10
-23.7
20
1.09999999999999
30
0
41
1
10
-23.8
20
1
30
0
41
1
10
-23.9
20
0.900000000000006
30
0
41
1
10
-24
20
0.800000000000011
30
0
41
1
10
-24
20
0.533333333333331
30
0
41
1
10
-24
20
0.26666666666668
30
0
41
1
10
-24
20
0
30
0
0
SPLINE
5
BF
100
AcDbEntity
8
1
62
256
6
ByLayer
370
18
48
1
60
0
100
AcDbSpline
70
4
71
3
72
57
73
53
40
0
40
0
40
0
40
0
40
0.124999999999984
40
0.124999999999984
40
0.187499999999979
40
0.187499999999979
40
0.249999999999973
40
0.249999999999973
40
0.28124999999997
40
0.28124999999997
40
0.312499999999967
40
0.312499999999967
40
0.374999999999961
40
0.374999999999961
40
0.437499999999955
40
0.437499999999955
40
0.468749999999952
40
0.468749999999952
40
0.476562499999952
40
0.476562499999952
40
0.484374999999952
40
0.484374999999952
40
0.492187499999952
40
0.492187499999952
40
0.499999999999952
40
0.499999999999952
40
0.507812499999952
40
0.507812499999952
40
0.515624999999952
40
0.515624999999952
40
0.523437499999953
40
0.523437499999953
40
0.531249999999953
40
0.531249999999953
40
0.546874999999956
40
0.546874999999956
40
0.562499999999959
40
0.562499999999959
40
0.593749999999962
40
0.593749999999962
40
0.624999999999965
40
0.624999999999965
40
0.687499999999971
40
0.687499999999971
40
0.749999999999977
40
0.749999999999977
40
0.781249999999978
40
0.781249999999978
40
0.812499999999978
40
0.874999999999984
40
0.874999999999984
40
1
40
1
40
1
40
1
41
1
10
28.4051479871339
20
1.0647845629972
30
0
41
1
10
28.450008404545
20
0.981566746661855
30
0
41
1
10
28.4946374675484
20
0.898038581868207
30
0
41
1
10
28.5610047212458
20
0.772276438965463
30
0
41
1
10
28.5830279416173
20
0.730274033830227
30
0
41
1
10
28.626770035795
20
0.646064410774244
30
0
41
1
10
28.6484892070209
20
0.603869472380239
30
0
41
1
10
28.6806610570503
20
0.540349704243113
30
0
41
1
10
28.6913101127265
20
0.519133588634475
30
0
41
1
10
28.7125120912094
20
0.476672052039561
30
0
41
1
10
28.7230732759003
20
0.455430106237742
30
0
41
1
10
28.7546677240449
20
0.391732928216356
30
0
41
1
10
28.7755804246148
20
0.349354805640814
30
0
41
1
10
28.8166537542834
20
0.264540229684315
30
0
41
1
10
28.8368688373873
20
0.222141318289687
30
0
41
1
10
28.8653999103328
20
0.158170074594011
30
0
41
1
10
28.874600555526
20
0.136770256237043
30
0
41
1
10
28.8853560447126
20
0.10989768682029
30
0
41
1
10
28.887470018559
20
0.10451680880729
30
0
41
1
10
28.8915867048301
20
0.0937157305191363
30
0
41
1
10
28.8935942262758
20
0.0882997116748072
30
0
41
1
10
28.8973605421132
20
0.0773115212891753
30
0
41
1
10
28.8991243793918
20
0.0716953782484211
30
0
41
1
10
28.9020347755766
20
0.0602912635621919
30
0
41
1
10
28.9031795219765
20
0.0545104188053358
30
0
41
1
10
28.9046588864799
20
0.0427456987419816
30
0
41
1
10
28.9049771543248
20
0.0367833455084678
30
0
41
1
10
28.9046670577241
20
0.0252762317744271
30
0
41
1
10
28.904031787515
20
0.0195847422888278
30
0
41
1
10
28.9019221752453
20
0.0089174642853038
30
0
41
1
10
28.9004582344753
20
0.0039405373177033
30
0
41
1
10
28.8969863969928
20
-0.0055284330804
30
0
41
1
10
28.8950206896599
20
-0.0099526708374924
30
0
41
1
10
28.8888581023359
20
-0.0228947134357327
30
0
41
1
10
28.884412291763
20
-0.0311929899810934
30
0
41
1
10
28.8752316655724
20
-0.0476687566249439
30
0
41
1
10
28.8704689429229
20
-0.0557875727969588
30
0
41
1
10
28.8558046475291
20
-0.0797831373530471
30
0
41
1
10
28.8455334801151
20
-0.0952900648872799
30
0
41
1
10
28.8246155085166
20
-0.12521797559728
30
0
41
1
10
28.8139436224335
20
-0.139677584290553
30
0
41
1
10
28.7815986264136
20
-0.181712930167123
30
0
41
1
10
28.759609709362
20
-0.207951366537571
30
0
41
1
10
28.7153311983183
20
-0.257170113776624
30
0
41
1
10
28.6930229091929
20
-0.28014272347059
30
0
41
1
10
28.6593896093789
20
-0.312182482795379
30
0
41
1
10
28.6481262421395
20
-0.322476765317219
30
0
41
1
10
28.6256556966875
20
-0.342147589558863
30
0
41
1
10
28.5920641968641
20
-0.370255564386781
30
0
41
1
10
28.5587898676937
20
-0.394255202479627
30
0
41
1
10
28.4925558929052
20
-0.436875975949135
30
0
41
1
10
28.4488222851438
20
-0.458145178510591
30
0
41
1
10
28.4051479871339
20
-0.472121072933533
30
0
0
SPLINE
5
C0
100
AcDbEntity
8
1
62
256
6
ByLayer
370
18
48
1
60
0
100
AcDbSpline
70
4
71
5
72
106
73
100
40
0
40
0
40
0
40
0
40
0
40
0
40
0.0283417745755824
40
0.0639491604582365
40
0.099142672591778
40
0.133862423095115
40
0.168037462286948
40
0.201582933287576
40
0.234396356855971
40
0.266352758870466
40
0.297298271104173
40
0.327041759002088
40
0.355344004995163
40
0.381904112919164
40
0.406343314979922
40
0.428187556407686
40
0.446851714525294
40
0.45153399015921
40
0.455222059758691
40
0.458910129358171
40
0.461613024073109
40
0.462018458280349
40
0.463572622741437
40
0.465126787202526
40
0.466361637473382
40
0.467596487744238
40
0.468831338015095
40
0.470066188285951
40
0.470993067554235
40
0.471645912951896
40
0.471919946822519
40
0.473773705359086
40
0.477771692772847
40
0.477991926922535
40
0.479324923091698
40
0.480718409146715
40
0.482111895201732
40
0.48329123044593
40
0.483554698957932
40
0.484997502714131
40
0.486409860860958
40
0.487822219007784
40
0.488885367966104
40
0.490480091403584
40
0.493045635979098
40
0.49408872236223
40
0.495711301180434
40
0.498549957386103
40
0.499662656235809
40
0.501458147561473
40
0.504273322946442
40
0.50525430413961
40
0.506896877300263
40
0.508170743323274
40
0.509444609346285
40
0.510510537689689
40
0.510903916006897
40
0.511633569337203
40
0.511998396002355
40
0.512363222667508
40
0.51291580202235
40
0.513468381377193
40
0.514573540086879
40
0.51678385750625
40
0.519774772300989
40
0.520978433133018
40
0.522027077039711
40
0.523075720946403
40
0.524124364853094
40
0.525173008759786
40
0.52703421265587
40
0.528895416551953
40
0.530756620448037
40
0.532617824344121
40
0.536340232136287
40
0.540062639928454
40
0.547100921527812
40
0.550180169727531
40
0.587267357603024
40
0.620138236715813
40
0.648801763338763
40
0.675706661165729
40
0.701094464257794
40
0.725261315559583
40
0.748734393783942
40
0.771846707864739
40
0.793229761264572
40
0.811334687435865
40
0.831120383753751
40
0.853012294494606
40
0.875081816991215
40
0.897084709634059
40
0.919011258421347
40
0.940855699319924
40
0.962612224301808
40
0.984274888125145
40
1
40
1
40
1
40
1
40
1
40
1
41
1
10
4.77316093228941
20
-0.972988997669631
30
0
41
1
10
4.77316093228941
20
-0.962781440232106
30
0
41
1
10
4.77316093228941
20
-0.939718734784805
30
0
41
1
10
4.77316093228941
20
-0.903856283624833
30
0
41
1
10
4.77316093228944
20
-0.855210999269929
30
0
41
1
10
4.77316093228939
20
-0.793770133871931
30
0
41
1
10
4.77316093228939
20
-0.730024589350478
30
0
41
1
10
4.77316093228941
20
-0.666919933924277
30
0
41
1
10
4.77316093228941
20
-0.60464260632429
30
0
41
1
10
4.77316093228941
20
-0.543417353952719
30
0
41
1
10
4.77316093228939
20
-0.483517887000346
30
0
41
1
10
4.77316093228941
20
-0.425280898101221
30
0
41
1
10
4.77316093228944
20
-0.369123799963802
30
0
41
1
10
4.77316093228939
20
-0.315567550569796
30
0
41
1
10
4.77316093228941
20
-0.265263158104091
30
0
41
1
10
4.77316093228941
20
-0.219021277328238
30
0
41
1
10
4.77316093228941
20
-0.181751989285914
30
0
41
1
10
4.77316093228941
20
-0.153268218370925
30
0
41
1
10
4.77316093228941
20
-0.13281299909886
30
0
41
1
10
4.77316093228941
20
-0.119789544632539
30
0
41
1
10
4.77316093228941
20
-0.113875863635855
30
0
41
1
10
4.77316093228941
20
-0.109178557116934
30
0
41
1
10
4.77316093228941
20
-0.10531097486907
30
0
41
1
10
4.77316093228941
20
-0.102399352700445
30
0
41
1
10
4.77316093228941
20
-0.100059975884676
30
0
41
1
10
4.77316093228941
20
-0.0973941184972205
30
0
41
1
10
4.77316093228941
20
-0.0948508661140011
30
0
41
1
10
4.77316093228941
20
-0.0925509908407776
30
0
41
1
10
4.77316093228941
20
-0.0904770584279788
30
0
41
1
10
4.77316093228941
20
-0.0887784418565616
30
0
41
1
10
4.77316093228941
20
-0.0868349911576729
30
0
41
1
10
4.77316093228941
20
-0.0838017485192495
30
0
41
1
10
4.77316093228941
20
-0.0810409073135929
30
0
41
1
10
4.77316093228944
20
-0.0780053087579518
30
0
41
1
10
4.77316093228944
20
-0.0745179638775255
30
0
41
1
10
4.77316093228944
20
-0.0712048991085794
30
0
41
1
10
4.77316093228944
20
-0.0690084714520367
30
0
41
1
10
4.77316093228944
20
-0.0667910167485104
30
0
41
1
10
4.77316093228944
20
-0.0645271005977577
30
0
41
1
10
4.77316093228944
20
-0.0622533376024137
30
0
41
1
10
4.77316093228944
20
-0.0599702154942179
30
0
41
1
10
4.77316093228944
20
-0.0577323163823849
30
0
41
1
10
4.77316093228944
20
-0.0549617564046798
30
0
41
1
10
4.77316093228941
20
-0.0517440323220342
30
0
41
1
10
4.77316093228941
20
-0.0486789711465292
30
0
41
1
10
4.77316093228939
20
-0.045538545800099
30
0
41
1
10
4.77316093228939
20
-0.0417080904249474
30
0
41
1
10
4.77316093228936
20
-0.0380936668126139
30
0
41
1
10
4.77316093228933
20
-0.0348059734322703
30
0
41
1
10
4.77316093228927
20
-0.0308640426370062
30
0
41
1
10
4.77316093228921
20
-0.027219196706028
30
0
41
1
10
4.77316093228919
20
-0.0240693022937819
30
0
41
1
10
4.77316093228913
20
-0.0209054723618465
30
0
41
1
10
4.7731609322891
20
-0.0179805436943639
30
0
41
1
10
4.77316093228907
20
-0.0157249786617228
30
0
41
1
10
4.77316093228907
20
-0.0137099557851457
30
0
41
1
10
4.77316093228904
20
-0.0120392315820936
30
0
41
1
10
4.77316093228904
20
-0.0107024718692514
30
0
41
1
10
4.77316093228904
20
-0.0096907814836982
30
0
41
1
10
4.77316093228904
20
-0.0088615998685384
30
0
41
1
10
4.77316093228904
20
-0.0079828201958208
30
0
41
1
10
4.77316093228904
20
-0.0069808655100303
30
0
41
1
10
4.77316093228904
20
-0.00536235661761
30
0
41
1
10
4.77316093228904
20
-0.0028876956773729
30
0
41
1
10
4.77316093228904
20
-0.0002453587846958
30
0
41
1
10
4.7731609322891
20
0.0025107612877662
30
0
41
1
10
4.77316093228913
20
0.0052105820909389
30
0
41
1
10
4.77316093228919
20
0.0075195309009928
30
0
41
1
10
4.77316093228921
20
0.0092082186476148
30
0
41
1
10
4.77316093228924
20
0.0110942851441109
30
0
41
1
10
4.7731609322893
20
0.013224306645327
30
0
41
1
10
4.77316093228933
20
0.0155973704182202
30
0
41
1
10
4.77316093228936
20
0.0182137703937713
30
0
41
1
10
4.77316093228939
20
0.0216472044695877
30
0
41
1
10
4.77316093228941
20
0.0256476959993961
30
0
41
1
10
4.77316093228944
20
0.0312356870315114
30
0
41
1
10
4.77316093228947
20
0.037202547629505
30
0
41
1
10
4.77316093228947
20
0.0540121407636036
30
0
41
1
10
4.77316093228941
20
0.0798684246349239
30
0
41
1
10
4.77316093228944
20
0.113435365987726
30
0
41
1
10
4.77316093228936
20
0.153107246038786
30
0
41
1
10
4.77316093228941
20
0.199646827432531
30
0
41
1
10
4.77316093228944
20
0.242211609236307
30
0
41
1
10
4.77316093228939
20
0.281847723481974
30
0
41
1
10
4.77316093228944
20
0.319892356252296
30
0
41
1
10
4.77316093228944
20
0.355977902384012
30
0
41
1
10
4.77316093228941
20
0.388861206250255
30
0
41
1
10
4.77316093228939
20
0.41966064671945
30
0
41
1
10
4.77316093228941
20
0.449230177258528
30
0
41
1
10
4.77316093228941
20
0.477599177839494
30
0
41
1
10
4.77316093228941
20
0.505140062672041
30
0
41
1
10
4.77316093228944
20
0.532635119388004
30
0
41
1
10
4.77316093228941
20
0.559539136535534
30
0
41
1
10
4.77316093228944
20
0.585290854957293
30
0
41
1
10
4.77316093228941
20
0.609819652673735
30
0
41
1
10
4.77316093228941
20
0.631866539372311
30
0
41
1
10
4.77316093228941
20
0.648416771821417
30
0
41
1
10
4.77316093228941
20
0.660069530972152
30
0
41
1
10
4.77316093228941
20
0.667260121659382
30
0
41
1
10
4.77316093228939
20
0.670253212263248
30
0
0
SPLINE
5
C1
100
AcDbEntity
8
1
62
256
6
ByLayer
370
18
48
1
60
0
100
AcDbSpline
70
4
71
3
72
55
73
51
40
0
40
0
40
0
40
0
40
0.023066987107453
40
0.023066987107453
40
0.046133974214906
40
0.046133974214906
40
0.092267948429812
40
0.092267948429812
40
0.138401922644718
40
0.138401922644718
40
0.184535896859624
40
0.184535896859624
40
0.207602883967077
40
0.207602883967077
40
0.23066987107453
40
0.23066987107453
40
0.276803845289436
40
0.276803845289436
40
0.322937819504342
40
0.322937819504342
40
0.369071793719248
40
0.369071793719248
40
0.415205767934154
40
0.415205767934154
40
0.438272755041605
40
0.438272755041605
40
0.461339742149056
40
0.461339742149056
40
0.55360769057886
40
0.55360769057886
40
0.59974166479376
40
0.59974166479376
40
0.62280865190121
40
0.62280865190121
40
0.645875639008661
40
0.645875639008661
40
0.692009613223565
40
0.692009613223565
40
0.738143587438469
40
0.738143587438469
40
0.784277561653373
40
0.784277561653373
40
0.830411535868277
40
0.830411535868277
40
0.853478522975729
40
0.853478522975729
40
0.876545510083181
40
0.922679484298089
40
0.922679484298089
40
1
40
1
40
1
40
1
41
1
10
28.4051479871343
20
-0.47212107293376
30
0
41
1
10
28.3741725036125
20
-0.456478628990453
30
0
41
1
10
28.3432973154747
20
-0.44061727988273
30
0
41
1
10
28.2816223399051
20
-0.408678887713705
30
0
41
1
10
28.2508028138636
20
-0.392637124619654
30
0
41
1
10
28.1583860476387
20
-0.344319183889553
30
0
41
1
10
28.0968617032736
20
-0.311795069700736
30
0
41
1
10
27.9739684389358
20
-0.246164933771922
30
0
41
1
10
27.9125794148736
20
-0.21309506994487
30
0
41
1
10
27.7898696412014
20
-0.146535808845812
30
0
41
1
10
27.7285622743704
20
-0.113022494624687
30
0
41
1
10
27.6367635942011
20
-0.0622311649000551
30
0
41
1
10
27.6061926949007
20
-0.0452107318213848
30
0
41
1
10
27.5450930439581
20
-0.0110161026224205
30
0
41
1
10
27.5145718914997
20
0.0061723062348733
30
0
41
1
10
27.4228585286664
20
0.0575753855928554
30
0
41
1
10
27.3614879906795
20
0.091573828722602
30
0
41
1
10
27.2384051040523
20
0.159237867826676
30
0
41
1
10
27.176682331233
20
0.192884601083506
30
0
41
1
10
27.0527622900113
20
0.259598388861292
30
0
41
1
10
26.9904540161329
20
0.292711600880381
30
0
41
1
10
26.8666271531516
20
0.357911475696937
30
0
41
1
10
26.8050035942288
20
0.390100796842035
30
0
41
1
10
26.7129852371
20
0.437707006164885
30
0
41
1
10
26.6823760602025
20
0.453450917205885
30
0
41
1
10
26.6211213891045
20
0.484414291387992
30
0
41
1
10
26.5904856413817
20
0.499651734120817
30
0
41
1
10
26.437308828212
20
0.574716210893314
30
0
41
1
10
26.31481615237
20
0.631255819686714
30
0
41
1
10
26.1307955617394
20
0.710382024883074
30
0
41
1
10
26.0694384660715
20
0.735853539194352
30
0
41
1
10
25.9774534360431
20
0.772764480238067
30
0
41
1
10
25.9468013588655
20
0.784852533944616
30
0
41
1
10
25.8854790696614
20
0.80853595855433
30
0
41
1
10
25.8547957815483
20
0.820113514667014
30
0
41
1
10
25.7624772786538
20
0.853799474378889
30
0
41
1
10
25.7006412632206
20
0.874952954005977
30
0
41
1
10
25.57645490711
20
0.914740966082292
30
0
41
1
10
25.5144840398419
20
0.933223703969531
30
0
41
1
10
25.3908940259638
20
0.967290697386971
30
0
41
1
10
25.3292444847863
20
0.982896585760244
30
0
41
1
10
25.2063592003909
20
1.01136726750909
30
0
41
1
10
25.1451570069223
20
1.02424942355452
30
0
41
1
10
25.0535703593871
20
1.04137623108736
30
0
41
1
10
25.0230451041122
20
1.04669863913296
30
0
41
1
10
24.9619207838315
20
1.05653778435243
30
0
41
1
10
24.8701592540268
20
1.07011183269037
30
0
41
1
10
24.778263108637
20
1.08022054399174
30
0
41
1
10
24.61404070742
20
1.09412781237799
30
0
41
1
10
24.5108327533992
20
1.09855238575833
30
0
41
1
10
24.4074620165209
20
1.09850628062219
30
0
0
SPLINE
5
C2
100
AcDbEntity
8
1
62
256
6
ByLayer
370
18
48
1
60
0
100
AcDbSpline
70
4
71
3
72
110
73
106
40
0
40
0
40
0
40
0
40
0.0010168147093754
40
0.0010168147093754
40
0.0241275158545103
40
0.0241275158545103
40
0.0472382169996453
40
0.0472382169996453
40
0.0587935675722117
40
0.0587935675722117
40
0.0703489181447783
40
0.0703489181447783
40
0.0934596192899112
40
0.0934596192899112
40
0.116570320435044
40
0.116570320435044
40
0.139681021580177
40
0.139681021580177
40
0.151236372152745
40
0.151236372152745
40
0.162791722725312
40
0.162791722725312
40
0.17434707329788
40
0.17434707329788
40
0.185902423870447
40
0.185902423870447
40
0.232123826160715
40
0.232123826160715
40
0.255234527305849
40
0.255234527305849
40
0.266789877878417
40
0.266789877878417
40
0.278345228450985
40
0.278345228450985
40
0.301455929596119
40
0.301455929596119
40
0.324566630741253
40
0.324566630741253
40
0.347677331886387
40
0.347677331886387
40
0.370788033031521
40
0.370788033031521
40
0.382343383604088
40
0.382343383604088
40
0.393898734176655
40
0.393898734176655
40
0.417009435321786
40
0.417009435321786
40
0.463230837612053
40
0.463230837612053
40
0.486341538757184
40
0.486341538757184
40
0.509452239902316
40
0.509452239902316
40
0.532562941047448
40
0.532562941047448
40
0.555673642192581
40
0.555673642192581
40
0.567228992765146
40
0.567228992765146
40
0.578784343337712
40
0.578784343337712
40
0.601895044482842
40
0.601895044482842
40
0.625005745627972
40
0.625005745627972
40
0.648116446773102
40
0.648116446773102
40
0.671227147918232
40
0.671227147918232
40
0.682782498490797
40
0.682782498490797
40
0.694337849063362
40
0.694337849063362
40
0.74055925135362
40
0.74055925135362
40
0.763669952498748
40
0.763669952498748
40
0.775225303071313
40
0.775225303071313
40
0.786780653643877
40
0.786780653643877
40
0.809891354789008
40
0.809891354789008
40
0.833002055934137
40
0.833002055934137
40
0.856112757079267
40
0.856112757079267
40
0.867668107651831
40
0.867668107651831
40
0.879223458224395
40
0.879223458224395
40
0.890778808796959
40
0.890778808796959
40
0.902334159369523
40
0.902334159369523
40
0.925444860514651
40
0.925444860514651
40
0.948555561659779
40
0.948555561659779
40
0.971666262804907
40
0.971666262804907
40
0.994776963950035
40
0.994776963950035
40
1
40
1
40
1
40
1
41
1
10
19.9257013919733
20
-0.696963812384524
30
0
41
1
10
19.9229787574432
20
-0.698121317921476
30
0
41
1
10
19.9202564239268
20
-0.699276598801703
30
0
41
1
10
19.855666522092
20
-0.726636903550684
30
0
41
1
10
19.7939446428819
20
-0.751683806853947
30
0
41
1
10
19.6707170837724
20
-0.799420594726286
30
0
41
1
10
19.6092213646599
20
-0.82212836569397
30
0
41
1
10
19.5172489400363
20
-0.854552630116359
30
0
41
1
10
19.486637562247
20
-0.865087577239791
30
0
41
1
10
19.425503217157
20
-0.885594762976808
30
0
41
1
10
19.3949878211972
20
-0.895574044061703
30
0
41
1
10
19.3034139664346
20
-0.924482178458362
30
0
41
1
10
19.2422272212516
20
-0.942285893809895
30
0
41
1
10
19.1196498266085
20
-0.975102654187737
30
0
41
1
10
19.0582630745725
20
-0.990114914993313
30
0
41
1
10
18.9351869971071
20
-1.01727330300645
30
0
41
1
10
18.873487934526
20
-1.02941681804833
30
0
41
1
10
18.7807584218344
20
-1.04548984444486
30
0
41
1
10
18.7498209034573
20
-1.05049103969657
30
0
41
1
10
18.6878987622142
20
-1.05976833191474
30
0
41
1
10
18.6568857102973
20
-1.06404932667729
30
0
41
1
10
18.594947976996
20
-1.07183906287884
30
0
41
1
10
18.564076576136
20
-1.07534402554623
30
0
41
1
10
18.5023734108862
20
-1.08151894537122
30
0
41
1
10
18.4715340369594
20
-1.08418898945379
30
0
41
1
10
18.3174332295502
20
-1.09552263475061
30
0
41
1
10
18.1945417173337
20
-1.09817803053957
30
0
41
1
10
18.0104044176451
20
-1.09293706758993
30
0
41
1
10
17.9490814775303
20
-1.08965046152369
30
0
41
1
10
17.8572668969331
20
-1.0823429309404
30
0
41
1
10
17.826691917946
20
-1.07950864857602
30
0
41
1
10
17.7655779909306
20
-1.07303255295352
30
0
41
1
10
17.7350402654714
20
-1.06938823187036
30
0
41
1
10
17.6432341343354
20
-1.05733611599101
30
0
41
1
10
17.5818131432032
20
-1.04780650851689
30
0
41
1
10
17.4586343967015
20
-1.02575904727982
30
0
41
1
10
17.3968623554187
20
-1.01324399349156
30
0
41
1
10
17.2728448786239
20
-0.985295600360985
30
0
41
1
10
17.2104902736807
20
-0.96983364628241
30
0
41
1
10
17.0865928324377
20
-0.936155449611221
30
0
41
1
10
17.0249499239321
20
-0.917889404957464
30
0
41
1
10
16.9328819040936
20
-0.888377005258263
30
0
41
1
10
16.9022376067224
20
-0.878208770517091
30
0
41
1
10
16.8409103685352
20
-0.857364131096801
30
0
41
1
10
16.8102412899964
20
-0.846673364458724
30
0
41
1
10
16.7182454459233
20
-0.813779740011313
30
0
41
1
10
16.6569383725083
20
-0.790744968725278
30
0
41
1
10
16.4729664934885
20
-0.718536293588357
30
0
41
1
10
16.3501308216339
20
-0.666476643305913
30
0
41
1
10
16.1661039240945
20
-0.581556187605401
30
0
41
1
10
16.1048435254926
20
-0.552011102352509
30
0
41
1
10
15.9816234495807
20
-0.491805980667181
30
0
41
1
10
15.9197402294159
20
-0.461036221924843
30
0
41
1
10
15.7954634693646
20
-0.398105670050967
30
0
41
1
10
15.7334113212027
20
-0.36615958377314
30
0
41
1
10
15.6097062935787
20
-0.30163526576672
30
0
41
1
10
15.5480107959582
20
-0.269015821007997
30
0
41
1
10
15.4557963788053
20
-0.219379733060436
30
0
41
1
10
15.4251136170675
20
-0.202715431701705
30
0
41
1
10
15.363859194905
20
-0.169147772619851
30
0
41
1
10
15.3332941574942
20
-0.152232168898735
30
0
41
1
10
15.2416271924528
20
-0.101381109442485
30
0
41
1
10
15.180432918432
20
-0.0675638693249709
30
0
41
1
10
15.0579125588788
20
-3.79430458679E-05
30
0
41
1
10
14.9965986291274
20
0.0336934080349636
30
0
41
1
10
14.87376297387
20
0.100905654120339
30
0
41
1
10
14.8122293937531
20
0.134364305263631
30
0
41
1
10
14.6890047623809
20
0.201125833874329
30
0
41
1
10
14.6273333467147
20
0.234465371532338
30
0
41
1
10
14.5347529129191
20
0.284447026692931
30
0
41
1
10
14.5038854076397
20
0.301112211426869
30
0
41
1
10
14.4419934184872
20
0.334185706518895
30
0
41
1
10
14.4109592005603
20
0.350563056192982
30
0
41
1
10
14.2561287571868
20
0.431302947881051
30
0
41
1
10
14.1328344047388
20
0.492790023035695
30
0
41
1
10
13.9483381402868
20
0.579989803959677
30
0
41
1
10
13.8869336033832
20
0.608250179467603
30
0
41
1
10
13.7950561467349
20
0.649545177334261
30
0
41
1
10
13.764470224599
20
0.663129041892006
30
0
41
1
10
13.7033583989285
20
0.689895272219928
30
0
41
1
10
13.6728374634164
20
0.703083572065196
30
0
41
1
10
13.5811293161505
20
0.741706256271357
30
0
41
1
10
13.5198146307304
20
0.766232853626434
30
0
41
1
10
13.3969393508947
20
0.813027838990138
30
0
41
1
10
13.3353662084858
20
0.83527617907373
30
0
41
1
10
13.2118431150985
20
0.877344083623257
30
0
41
1
10
13.1498908865233
20
0.897165095878137
30
0
41
1
10
13.0567537859058
20
0.925126603884763
30
0
41
1
10
13.0256485097581
20
0.934158227794853
30
0
41
1
10
12.9636777612883
20
0.951540953266857
30
0
41
1
10
12.932781917197
20
0.959903910844815
30
0
41
1
10
12.8711393398659
20
0.975935404275333
30
0
41
1
10
12.8403830726341
20
0.983593656083684
30
0
41
1
10
12.7788546224255
20
0.99808552015952
30
0
41
1
10
12.7480956146109
20
1.00493223437999
30
0
41
1
10
12.6558606948299
20
1.02432301351894
30
0
41
1
10
12.594437849355
20
1.03572480668438
30
0
41
1
10
12.4716460622693
20
1.05550055303564
30
0
41
1
10
12.4102576872031
20
1.06386654254518
30
0
41
1
10
12.2875172484617
20
1.07759229307143
30
0
41
1
10
12.2261820586465
20
1.08296064451719
30
0
41
1
10
12.1036774668065
20
1.09063981289472
30
0
41
1
10
12.0425597385945
20
1.09293450152813
30
0
41
1
10
11.9672697850797
20
1.09376350380029
30
0
41
1
10
11.9533790053011
20
1.09383511065201
30
0
41
1
10
11.939476677061
20
1.09382563577407
30
0
0
SPLINE
5
C3
100
AcDbEntity
8
1
62
256
6
ByLayer
370
18
48
1
60
0
100
AcDbSpline
70
4
71
3
72
44
73
40
40
0
40
0
40
0
40
0
40
0.0008269742204663
40
0.0008269742204663
40
0.0352812164887233
40
0.0352812164887233
40
0.104189701025242
40
0.104189701025242
40
0.173098185561762
40
0.173098185561762
40
0.242006670098281
40
0.242006670098281
40
0.3109151546348
40
0.3109151546348
40
0.379823639171319
40
0.379823639171319
40
0.414277881439579
40
0.414277881439579
40
0.448732123707839
40
0.448732123707839
40
0.517640608244362
40
0.517640608244362
40
0.552094850512622
40
0.552094850512622
40
0.586549092780881
40
0.586549092780881
40
0.655457577317404
40
0.655457577317404
40
0.689911819585663
40
0.689911819585663
40
0.724366061853923
40
0.724366061853923
40
0.793274546390442
40
0.793274546390442
40
0.862183030926961
40
0.862183030926961
40
0.931091515463481
40
0.931091515463481
40
1
40
1
40
1
40
1
41
1
10
7.45665458958337
20
-0.693407585905589
30
0
41
1
10
7.45590791184165
20
-0.693722573755366
30
0
41
1
10
7.45516120629304
20
-0.694037437151763
30
0
41
1
10
7.42330331062985
20
-0.707465154676441
30
0
41
1
10
7.39218633206085
20
-0.720346607429121
30
0
41
1
10
7.29915843016801
20
-0.758192157728843
30
0
41
1
10
7.23748455652861
20
-0.782462167065376
30
0
41
1
10
7.11458024210447
20
-0.828693254234594
30
0
41
1
10
7.05315912602771
20
-0.850415700485343
30
0
41
1
10
6.93033739549239
20
-0.891143751800712
30
0
41
1
10
6.86896299142356
20
-0.910177182387031
30
0
41
1
10
6.74619029227637
20
-0.945531614730783
30
0
41
1
10
6.68477738693559
20
-0.961842225391536
30
0
41
1
10
6.56196290619118
20
-0.991789968823923
30
0
41
1
10
6.50058031232527
20
-1.00544276854703
30
0
41
1
10
6.40858034405696
20
-1.02388407952918
30
0
41
1
10
6.37793108354123
20
-1.0296925288819
30
0
41
1
10
6.31654814444948
20
-1.04054427793125
30
0
41
1
10
6.28579316196124
20
-1.04557611497373
30
0
41
1
10
6.19331714095927
20
-1.0594921578502
30
0
41
1
10
6.13142138973762
20
-1.06721874262468
30
0
41
1
10
6.03820365181073
20
-1.07648082551339
30
0
41
1
10
6.00706145401287
20
-1.07917763974379
30
0
41
1
10
5.9449246898989
20
-1.08376611741088
30
0
41
1
10
5.9138933804322
20
-1.08566212103946
30
0
41
1
10
5.82091507828065
20
-1.09017111678631
30
0
41
1
10
5.75908682281619
20
-1.09161149056519
30
0
41
1
10
5.66667169532835
20
-1.0914126562752
30
0
41
1
10
5.6359227294646
20
-1.09095142685308
30
0
41
1
10
5.57452367833795
20
-1.08922617100077
30
0
41
1
10
5.54388126207363
20
-1.08795934204798
30
0
41
1
10
5.45188636290868
20
-1.08297838938734
30
0
41
1
10
5.39045041118899
20
-1.07810204886221
30
0
41
1
10
5.26749493478115
20
-1.06528678410604
30
0
41
1
10
5.20595367087958
20
-1.05734759021564
30
0
41
1
10
5.08259915455318
20
-1.03849791548532
30
0
41
1
10
5.0207912874115
20
-1.02759224580015
30
0
41
1
10
4.89702807701002
20
-1.00270038294192
30
0
41
1
10
4.83507446153533
20
-0.988717658708339
30
0
41
1
10
4.77316093228941
20
-0.972988997629585
30
0
0
SPLINE
5
C4
100
AcDbEntity
8
1
62
256
6
ByLayer
370
18
48
1
60
0
100
AcDbSpline
70
4
71
3
72
100
73
96
40
0
40
0
40
0
40
0
40
0.125000000000018
40
0.125000000000018
40
0.187500000000027
40
0.187500000000027
40
0.250000000000037
40
0.250000000000037
40
0.265625000000039
40
0.265625000000039
40
0.28125000000004
40
0.28125000000004
40
0.312500000000044
40
0.312500000000044
40
0.343750000000047
40
0.343750000000047
40
0.37500000000005
40
0.37500000000005
40
0.406250000000054
40
0.406250000000054
40
0.421875000000055
40
0.421875000000055
40
0.437500000000057
40
0.437500000000057
40
0.453125000000059
40
0.453125000000059
40
0.460937500000059
40
0.460937500000059
40
0.468750000000059
40
0.468750000000059
40
0.48437500000006
40
0.48437500000006
40
0.49218750000006
40
0.49218750000006
40
0.50000000000006
40
0.507812500000061
40
0.507812500000061
40
0.515625000000061
40
0.515625000000061
40
0.523437500000061
40
0.527343750000062
40
0.527343750000062
40
0.531250000000062
40
0.531250000000062
40
0.546875000000062
40
0.546875000000062
40
0.562500000000063
40
0.562500000000063
40
0.570312500000063
40
0.570312500000063
40
0.578125000000063
40
0.578125000000063
40
0.593750000000063
40
0.593750000000063
40
0.609375000000062
40
0.609375000000062
40
0.625000000000062
40
0.625000000000062
40
0.640625000000062
40
0.640625000000062
40
0.656250000000062
40
0.656250000000062
40
0.68750000000006
40
0.68750000000006
40
0.695312500000059
40
0.695312500000059
40
0.703125000000057
40
0.703125000000057
40
0.707031250000057
40
0.707031250000057
40
0.710937500000056
40
0.710937500000056
40
0.714843750000055
40
0.714843750000055
40
0.718750000000055
40
0.718750000000055
40
0.726562500000053
40
0.726562500000053
40
0.730468750000053
40
0.730468750000053
40
0.734375000000052
40
0.734375000000052
40
0.750000000000049
40
0.750000000000049
40
0.812500000000036
40
0.812500000000036
40
0.828125000000033
40
0.828125000000033
40
0.84375000000003
40
0.84375000000003
40
0.875000000000023
40
0.875000000000023
40
0.937500000000012
40
0.937500000000012
40
1
40
1
40
1
40
1
41
1
10
4.77316093228941
20
-0.972988997629585
30
0
41
1
10
4.51778852874307
20
-0.930760039667859
30
0
41
1
10
4.26585956575434
20
-0.875780634812486
30
0
41
1
10
3.89211182962177
20
-0.771106121935787
30
0
41
1
10
3.76821996414927
20
-0.732512025414508
30
0
41
1
10
3.52168512541479
20
-0.647105254384115
30
0
41
1
10
3.39904003993914
20
-0.600311241922014
30
0
41
1
10
3.24648153740728
20
-0.535790879030088
30
0
41
1
10
3.21600754381231
20
-0.522582900353569
30
0
41
1
10
3.1551357689232
20
-0.495523774757089
30
0
41
1
10
3.12472128781951
20
-0.48166415943993
30
0
41
1
10
3.03397242091384
20
-0.439236919137215
30
0
41
1
10
2.97401688949458
20
-0.409776250309278
30
0
41
1
10
2.85531587175816
20
-0.348210631233826
30
0
41
1
10
2.79656877764379
20
-0.316109099554268
30
0
41
1
10
2.68048919159469
20
-0.248796760208847
30
0
41
1
10
2.62315306630595
20
-0.213593652678497
30
0
41
1
10
2.5102558334053
20
-0.139283859921136
30
0
41
1
10
2.4546847970995
20
-0.100198150717546
30
0
41
1
10
2.37318190081982
20
-0.0375131941309803
30
0
41
1
10
2.34645421038556
20
-0.0160275033185826
30
0
41
1
10
2.29435707526369
20
0.0281073243393166
30
0
41
1
10
2.26894252456896
20
0.050787811676571
30
0
41
1
10
2.21968101861611
20
0.0976672608233002
30
0
41
1
10
2.19583022431905
20
0.12186246031402
30
0
41
1
10
2.16158389372066
20
0.159640208693361
30
0
41
1
10
2.15042510039314
20
0.172481922271231
30
0
41
1
10
2.12871100408356
20
0.198751828137603
30
0
41
1
10
2.1181337554265
20
0.212212764791474
30
0
41
1
10
2.08785092497681
20
0.253144931652514
30
0
41
1
10
2.06946152307586
20
0.281268760518714
30
0
41
1
10
2.04560687541971
20
0.325211045897021
30
0
41
1
10
2.03826471166704
20
0.340214339933851
30
0
41
1
10
2.02536285930196
20
0.370293276486819
30
0
41
1
10
2.01416747818803
20
0.40056338678437
30
0
41
1
10
2.00681533743259
20
0.431280410809791
30
0
41
1
10
2.00166884949005
20
0.462263618152036
30
0
41
1
10
2.00021255986928
20
0.478006293578744
30
0
41
1
10
1.99983105184674
20
0.508720493083814
30
0
41
1
10
2.0013927540821
20
0.531328096373329
30
0
41
1
10
2.00572544379912
20
0.553309443426144
30
0
41
1
10
2.00923171029368
20
0.56782580218956
30
0
41
1
10
2.01130328432322
20
0.575039249508222
30
0
41
1
10
2.02303060376397
20
0.610268146841008
30
0
41
1
10
2.03678902244678
20
0.636076754762939
30
0
41
1
10
2.07125747365626
20
0.68402650703888
30
0
41
1
10
2.09137315974314
20
0.705383027226787
30
0
41
1
10
2.12450872301531
20
0.734667510042954
30
0
41
1
10
2.13606038369571
20
0.743966840245037
30
0
41
1
10
2.16003973045119
20
0.761775454644635
30
0
41
1
10
2.17250736566237
20
0.770308564252758
30
0
41
1
10
2.21072782990939
20
0.794668235291681
30
0
41
1
10
2.23726149741788
20
0.809275472609869
30
0
41
1
10
2.29187525847789
20
0.836151604497275
30
0
41
1
10
2.31996052733297
20
0.848411829996536
30
0
41
1
10
2.37734774334086
20
0.871136620693449
30
0
41
1
10
2.40665192483317
20
0.881597453894869
30
0
41
1
10
2.46625615313746
20
0.901085613129339
30
0
41
1
10
2.49657579502232
20
0.910113786064443
30
0
41
1
10
2.55766793420168
20
0.926896014434135
30
0
41
1
10
2.58849139910674
20
0.93466655069048
30
0
41
1
10
2.681664035979
20
0.956453427357161
30
0
41
1
10
2.74471622298083
20
0.968954104561078
30
0
41
1
10
2.82440933961951
20
0.982791440494907
30
0
41
1
10
2.84039013849306
20
0.985470932845743
30
0
41
1
10
2.87239938477021
20
0.990692176548009
30
0
41
1
10
2.88839678138979
20
0.993264506004948
30
0
41
1
10
2.91250619554773
20
0.996891483762141
30
0
41
1
10
2.92057082437716
20
0.998048279759814
30
0
41
1
10
2.93691525097862
20
1.00004033293661
30
0
41
1
10
2.94520087754228
20
1.00086792471279
30
0
41
1
10
2.96206200430845
20
1.00211147449815
30
0
41
1
10
2.97063165817917
20
1.00253584012702
30
0
41
1
10
2.98803196850531
20
1.00302148697878
30
0
41
1
10
2.99680683780309
20
1.00307952399416
30
0
41
1
10
3.02273821645827
20
1.00275736306955
30
0
41
1
10
3.03973760743312
20
1.00186233823425
30
0
41
1
10
3.064925009229
20
0.999750565991803
30
0
41
1
10
3.07327559123758
20
0.998933897291039
30
0
41
1
10
3.0899510564017
20
0.997226123141132
30
0
41
1
10
3.09827678996416
20
0.996337245719644
30
0
41
1
10
3.1399093118628
20
0.991871299337987
30
0
41
1
10
3.17324045094773
20
0.988246000216861
30
0
41
1
10
3.3399677871634
20
0.969789710971327
30
0
41
1
10
3.47337089271454
20
0.953623668267028
30
0
41
1
10
3.64014521773126
20
0.931676715779531
30
0
41
1
10
3.67350823707886
20
0.927211514096371
30
0
41
1
10
3.74022659066844
20
0.918101015634761
30
0
41
1
10
3.77357639135167
20
0.913456839321896
30
0
41
1
10
3.87334747082144
20
0.898845522692881
30
0
41
1
10
3.93940278549442
20
0.888056792076043
30
0
41
1
10
4.13613624772145
20
0.852006713055232
30
0
41
1
10
4.26545962554633
20
0.823178828626368
30
0
41
1
10
4.52120106064194
20
0.7547937040151
30
0
41
1
10
4.64762200808536
20
0.715224550182569
30
0
41
1
10
4.77316093228941
20
0.67025321226302
30
0
0
SPLINE
5
C5
100
AcDbEntity
8
1
62
256
6
ByLayer
370
18
48
1
60
0
100
AcDbSpline
70
4
71
3
72
60
73
56
40
0
40
0
40
0
40
0
40
0.0417501705075994
40
0.0417501705075994
40
0.0835003410151988
40
0.0835003410151988
40
0.167000682030398
40
0.167000682030398
40
0.208750852537997
40
0.208750852537997
40
0.250501023045597
40
0.250501023045597
40
0.292251193553196
40
0.292251193553196
40
0.334001364060795
40
0.334001364060795
40
0.354876449314594
40
0.354876449314594
40
0.375751534568393
40
0.375751534568393
40
0.41750170507599
40
0.41750170507599
40
0.459251875583588
40
0.459251875583588
40
0.501002046091186
40
0.501002046091186
40
0.542752216598783
40
0.542752216598783
40
0.563627301852583
40
0.563627301852583
40
0.584502387106381
40
0.584502387106381
40
0.626252557613984
40
0.626252557613984
40
0.668002728121587
40
0.668002728121587
40
0.70975289862919
40
0.70975289862919
40
0.751503069136793
40
0.751503069136793
40
0.793253239644396
40
0.793253239644396
40
0.835003410151999
40
0.835003410151999
40
0.876753580659602
40
0.876753580659602
40
0.897628665913405
40
0.897628665913405
40
0.918503751167209
40
0.918503751167209
40
0.939378836421012
40
0.939378836421012
40
0.960253921674815
40
0.960253921674815
40
1
40
1
40
1
40
1
41
1
10
4.77316093228941
20
0.67025321226302
30
0
41
1
10
4.83486367833356
20
0.642542204475774
30
0
41
1
10
4.89669749231052
20
0.614479451300582
30
0
41
1
10
5.02039594230885
20
0.55740218194461
30
0
41
1
10
5.0822577525241
20
0.528383252074178
30
0
41
1
10
5.26738763217799
20
0.439124270308469
30
0
41
1
10
5.39009592194466
20
0.37650241218941
30
0
41
1
10
5.57329607815836
20
0.278046918003014
30
0
41
1
10
5.63423681732795
20
0.244493846907517
30
0
41
1
10
5.75701773861436
20
0.178032976362459
30
0
41
1
10
5.81876041520172
20
0.144959855397417
30
0
41
1
10
5.94258757833251
20
0.0784931865630654
30
0
41
1
10
6.00464570277316
20
0.0450487164763445
30
0
41
1
10
6.1288409544768
20
-0.0227072851980097
30
0
41
1
10
6.19110566858416
20
-0.0569889997524058
30
0
41
1
10
6.28378672168131
20
-0.108341888120265
30
0
41
1
10
6.31458839312626
20
-0.125479438573819
30
0
41
1
10
6.37602292192997
20
-0.159759275078045
30
0
41
1
10
6.40666856735135
20
-0.176876448626217
30
0
41
1
10
6.49864953934573
20
-0.22768032465919
30
0
41
1
10
6.560133906206
20
-0.260630811345095
30
0
41
1
10
6.68329737831999
20
-0.32504051197759
30
0
41
1
10
6.74494604301054
20
-0.356556638165983
30
0
41
1
10
6.86798712250257
20
-0.418907556683081
30
0
41
1
10
6.92937702664605
20
-0.449741519154259
30
0
41
1
10
7.05200306948322
20
-0.510495397880106
30
0
41
1
10
7.11322410875616
20
-0.540440768507835
30
0
41
1
10
7.20498986164603
20
-0.584542832278231
30
0
41
1
10
7.23559140031296
20
-0.599068232912401
30
0
41
1
10
7.29698629188519
20
-0.627508048908055
30
0
41
1
10
7.32779303531819
20
-0.64140243953247
30
0
41
1
10
7.42052807183342
20
-0.682146634429131
30
0
41
1
10
7.4827873117404
20
-0.7081058941653
30
0
41
1
10
7.60759032674198
20
-0.758109021552571
30
0
41
1
10
7.66971361941509
20
-0.782052061215069
30
0
41
1
10
7.79332836275984
20
-0.827881412647059
30
0
41
1
10
7.85485485481561
20
-0.84971973399638
30
0
41
1
10
7.97736665096105
20
-0.891127030825658
30
0
41
1
10
8.0382528965574
20
-0.910777147188298
30
0
41
1
10
8.16050859404282
20
-0.946716372993365
30
0
41
1
10
8.22191500237787
20
-0.96300983728878
30
0
41
1
10
8.34494234745111
20
-0.992747155899536
30
0
41
1
10
8.40655370216371
20
-1.00619879694838
30
0
41
1
10
8.52962268505237
20
-1.03048910624281
30
0
41
1
10
8.59111059361089
20
-1.04129611932549
30
0
41
1
10
8.68335690870896
20
-1.05534189405336
30
0
41
1
10
8.71410673012801
20
-1.05966392101988
30
0
41
1
10
8.77560236050377
20
-1.06756679392404
30
0
41
1
10
8.80633613742026
20
-1.07115070657144
30
0
41
1
10
8.86792743806137
20
-1.07750488483961
30
0
41
1
10
8.89879053065479
20
-1.08027311021542
30
0
41
1
10
8.96079997595569
20
-1.08496341206731
30
0
41
1
10
8.99187826477916
20
-1.08688580379149
30
0
41
1
10
9.08203487656382
20
-1.09129493806787
30
0
41
1
10
9.14112695717941
20
-1.09273830113611
30
0
41
1
10
9.20004192298779
20
-1.0927973938683
30
0
0
SPLINE
5
C6
100
AcDbEntity
8
1
62
256
6
ByLayer
370
18
48
1
60
0
100
AcDbSpline
70
4
71
3
72
118
73
114
40
0
40
0
40
0
40
0
40
0.0169342854122891
40
0.0169342854122891
40
0.0400685097486401
40
0.0400685097486401
40
0.0632027340849912
40
0.0632027340849912
40
0.0863369584213422
40
0.0863369584213422
40
0.0979040705895169
40
0.0979040705895169
40
0.109471182757691
40
0.109471182757691
40
0.121038294925866
40
0.121038294925866
40
0.132605407094041
40
0.132605407094041
40
0.15573963143039
40
0.15573963143039
40
0.178873855766739
40
0.178873855766739
40
0.202008080103088
40
0.202008080103088
40
0.213575192271262
40
0.213575192271262
40
0.225142304439437
40
0.225142304439437
40
0.248276528775788
40
0.248276528775788
40
0.271410753112139
40
0.271410753112139
40
0.29454497744849
40
0.29454497744849
40
0.317679201784841
40
0.317679201784841
40
0.340813426121192
40
0.340813426121192
40
0.363947650457543
40
0.363947650457543
40
0.387081874793894
40
0.387081874793894
40
0.398648986962069
40
0.398648986962069
40
0.410216099130243
40
0.410216099130243
40
0.421783211298418
40
0.421783211298418
40
0.433350323466592
40
0.433350323466592
40
0.456484547802941
40
0.456484547802941
40
0.47961877213929
40
0.47961877213929
40
0.502752996475639
40
0.502752996475639
40
0.525887220811988
40
0.525887220811988
40
0.549021445148337
40
0.549021445148337
40
0.572155669484687
40
0.572155669484687
40
0.595289893821036
40
0.595289893821036
40
0.60685700598921
40
0.60685700598921
40
0.618424118157385
40
0.618424118157385
40
0.629991230325559
40
0.629991230325559
40
0.641558342493734
40
0.641558342493734
40
0.664692566830083
40
0.664692566830083
40
0.687826791166433
40
0.687826791166433
40
0.710961015502782
40
0.710961015502782
40
0.722528127670955
40
0.722528127670955
40
0.734095239839129
40
0.734095239839129
40
0.757229464175476
40
0.757229464175476
40
0.780363688511823
40
0.780363688511823
40
0.80349791284817
40
0.80349791284817
40
0.815065025016344
40
0.815065025016344
40
0.826632137184517
40
0.826632137184517
40
0.849766361520864
40
0.849766361520864
40
0.872900585857212
40
0.872900585857212
40
0.896034810193559
40
0.896034810193559
40
0.907601922361734
40
0.907601922361734
40
0.919169034529908
40
0.919169034529908
40
0.930736146698083
40
0.930736146698083
40
0.942303258866258
40
0.942303258866258
40
0.965437483202607
40
0.965437483202607
40
0.977004595370781
40
0.977004595370781
40
0.988571707538956
40
0.988571707538956
40
1
40
1
40
1
40
1
41
1
10
13.6901140516241
20
0.697615323619772
30
0
41
1
10
13.7347493299624
20
0.717032270107723
30
0
41
1
10
13.7793336850915
20
0.735915954299003
30
0
41
1
10
13.8852835324524
20
0.778557735111661
30
0
41
1
10
13.9467337717693
20
0.801712640511511
30
0
41
1
10
14.0698345779756
20
0.845664650296897
30
0
41
1
10
14.1314634523163
20
0.866486403526523
30
0
41
1
10
14.2546241700463
20
0.906052890669912
30
0
41
1
10
14.3161964407563
20
0.924746311683066
30
0
41
1
10
14.4086163686201
20
0.950979545770025
30
0
41
1
10
14.4394295133264
20
0.959426450141933
30
0
41
1
10
14.5010692394458
20
0.975702499908607
30
0
41
1
10
14.5319263615412
20
0.983527953607648
30
0
41
1
10
14.5937430136308
20
0.998360145915399
30
0
41
1
10
14.6246420827924
20
1.00534322690521
30
0
41
1
10
14.6864996199856
20
1.01842852970375
30
0
41
1
10
14.7174446795653
20
1.02454249131105
30
0
41
1
10
14.8102683451111
20
1.04169373731977
30
0
41
1
10
14.8721371032801
20
1.05155057924321
30
0
41
1
10
14.9954656789996
20
1.06838784333991
30
0
41
1
10
15.0569113910106
20
1.0753606149965
30
0
41
1
10
15.1794633912468
20
1.08627470175904
30
0
41
1
10
15.2405669868949
20
1.09021898955535
30
0
41
1
10
15.3319874466729
20
1.09374774583932
30
0
41
1
10
15.3624414134721
20
1.09452070462058
30
0
41
1
10
15.423478583709
20
1.09525251712006
30
0
41
1
10
15.4540754306183
20
1.09521298758943
30
0
41
1
10
15.5461320412134
20
1.09392759397611
30
0
41
1
10
15.6078247759115
20
1.09152749295782
30
0
41
1
10
15.7314847128553
20
1.08368776185966
30
0
41
1
10
15.7934168413937
20
1.07823369105691
30
0
41
1
10
15.9173761392725
20
1.0640708272218
30
0
41
1
10
15.9795677448774
20
1.0553458067381
30
0
41
1
10
16.1030144257956
20
1.03468483566564
30
0
41
1
10
16.1642654966133
20
1.02264897746642
30
0
41
1
10
16.2869661553553
20
0.995955181252612
30
0
41
1
10
16.3485028679451
20
0.981397926534157
30
0
41
1
10
16.4716480647172
20
0.949836610763015
30
0
41
1
10
16.5332460344356
20
0.932823925701086
30
0
41
1
10
16.6561224339951
20
0.895977132675569
30
0
41
1
10
16.717424034291
20
0.876155695383289
30
0
41
1
10
16.8092519598954
20
0.844334394033524
30
0
41
1
10
16.8398401626051
20
0.833378884274111
30
0
41
1
10
16.9009669081907
20
0.810744128107501
30
0
41
1
10
16.9314920746629
20
0.799046856564502
30
0
41
1
10
16.9925906210454
20
0.775034139406216
30
0
41
1
10
17.0231722206001
20
0.762728903157381
30
0
41
1
10
17.084560448676
20
0.737749716332758
30
0
41
1
10
17.1153674013552
20
0.725078711500856
30
0
41
1
10
17.2080616669219
20
0.686464968534523
30
0
41
1
10
17.2702233192126
20
0.659932310419208
30
0
41
1
10
17.3949027747355
20
0.604734799555672
30
0
41
1
10
17.4570279923794
20
0.576156071979796
30
0
41
1
10
17.5805533287205
20
0.517170807184243
30
0
41
1
10
17.6420294234919
20
0.486787279936578
30
0
41
1
10
17.7643965006787
20
0.424190631015705
30
0
41
1
10
17.8252501599923
20
0.391904346822116
30
0
41
1
10
17.9475845031824
20
0.327603277439664
30
0
41
1
10
18.0089988558821
20
0.295484602060014
30
0
41
1
10
18.1319677163951
20
0.230732436036476
30
0
41
1
10
18.1935034552851
20
0.198064758400392
30
0
41
1
10
18.3163960477229
20
0.131618515372224
30
0
41
1
10
18.3777920865302
20
0.0979091967789145
30
0
41
1
10
18.4698834314597
20
0.0467199212262699
30
0
41
1
10
18.5005773413642
20
0.0295474654591601
30
0
41
1
10
18.561953018011
20
-0.0050343233834838
30
0
41
1
10
18.5926369120265
20
-0.0224403304031
30
0
41
1
10
18.6541706708878
20
-0.0571527580713678
30
0
41
1
10
18.6850283293962
20
-0.0744438851297389
30
0
41
1
10
18.7470205410227
20
-0.108704523189232
30
0
41
1
10
18.7781332648447
20
-0.125697711179527
30
0
41
1
10
18.8713117035846
20
-0.176153940607918
30
0
41
1
10
18.9333764609889
20
-0.209181837480543
30
0
41
1
10
19.0570242270634
20
-0.274763853230411
30
0
41
1
10
19.1185861652663
20
-0.307350677704932
30
0
41
1
10
19.2412775766259
20
-0.371909941219656
30
0
41
1
10
19.302412048682
20
-0.403874706317851
30
0
41
1
10
19.3937992702444
20
-0.451299712298777
30
0
41
1
10
19.4242252004657
20
-0.466992560157223
30
0
41
1
10
19.4851756009167
20
-0.497861181370496
30
0
41
1
10
19.5157127844916
20
-0.513016627695691
30
0
41
1
10
19.6075744652281
20
-0.557563399271857
30
0
41
1
10
19.6691067591911
20
-0.586110622484995
30
0
41
1
10
19.7923852970126
20
-0.641541868206076
30
0
41
1
10
19.8540988564837
20
-0.668474089974893
30
0
41
1
10
19.9775273473648
20
-0.720939273336938
30
0
41
1
10
20.0392819510798
20
-0.746411267616395
30
0
41
1
10
20.1320257442649
20
-0.783337311545893
30
0
41
1
10
20.1629776074543
20
-0.795459059639711
30
0
41
1
10
20.2246524701845
20
-0.819096538652133
30
0
41
1
10
20.2554192170644
20
-0.830604613323914
30
0
41
1
10
20.347759005865
20
-0.863906052944145
30
0
41
1
10
20.4094474539743
20
-0.884403610096797
30
0
41
1
10
20.5328292400064
20
-0.92254504158052
30
0
41
1
10
20.5945083016854
20
-0.940205902188325
30
0
41
1
10
20.7174666072184
20
-0.973089783899184
30
0
41
1
10
20.7787629161617
20
-0.988284671737063
30
0
41
1
10
20.8705135368567
20
-1.00905916164572
30
0
41
1
10
20.9010651977474
20
-1.01564760450768
30
0
41
1
10
20.9620972632331
20
-1.02813905686691
30
0
41
1
10
20.9925648107039
20
-1.03404923609014
30
0
41
1
10
21.0535081133322
20
-1.04511426027918
30
0
41
1
10
21.083994596389
20
-1.05026193050978
30
0
41
1
10
21.1451605086713
20
-1.05971216714528
30
0
41
1
10
21.1758469380311
20
-1.06401384681376
30
0
41
1
10
21.2681585984413
20
-1.07571920188408
30
0
41
1
10
21.3300344894117
20
-1.08193429599052
30
0
41
1
10
21.4230677125568
20
-1.08900945086279
30
0
41
1
10
21.454112630993
20
-1.09099130967277
30
0
41
1
10
21.5162399793066
20
-1.09419032519261
30
0
41
1
10
21.5473655084828
20
-1.09540661496172
30
0
41
1
10
21.6090564122369
20
-1.09703023780756
30
0
41
1
10
21.6396348286019
20
-1.09744914708287
30
0
41
1
10
21.6701322092063
20
-1.09747460841683
30
0
0
SPLINE
5
C7
100
AcDbEntity
8
1
62
256
6
ByLayer
370
18
48
1
60
0
100
AcDbSpline
70
4
71
3
72
38
73
34
40
0
40
0
40
0
40
0
40
0.0151016192449967
40
0.0151016192449967
40
0.0971764843079137
40
0.0971764843079137
40
0.179251349370831
40
0.179251349370831
40
0.220288781902289
40
0.220288781902289
40
0.261326214433747
40
0.261326214433747
40
0.302363646965205
40
0.302363646965205
40
0.343401079496662
40
0.343401079496662
40
0.425475944559581
40
0.425475944559581
40
0.507550809622498
40
0.507550809622498
40
0.589625674685415
40
0.589625674685415
40
0.671700539748332
40
0.671700539748332
40
0.753775404811249
40
0.753775404811249
40
0.835850269874166
40
0.835850269874166
40
0.917925134937083
40
0.917925134937083
40
0.95896256746854
40
0.95896256746854
40
1
40
1
40
1
40
1
41
1
10
26.1569178494097
20
0.701061335098757
30
0
41
1
10
26.1682403348757
20
0.705825333591463
30
0
41
1
10
26.1795641371282
20
0.710548773470691
30
0
41
1
10
26.2524326569297
20
0.740695946309103
30
0
41
1
10
26.3139732829177
20
0.765037765309557
30
0
41
1
10
26.4367141807541
20
0.811908349589061
30
0
41
1
10
26.4979477784337
20
0.834385526356527
30
0
41
1
10
26.5896689379707
20
0.866499406067732
30
0
41
1
10
26.6202192937658
20
0.876939307341019
30
0
41
1
10
26.681265914659
20
0.897280949135137
30
0
41
1
10
26.7117517384104
20
0.907192285969813
30
0
41
1
10
26.772810186875
20
0.926313775084878
30
0
41
1
10
26.8033876077971
20
0.935519153518612
30
0
41
1
10
26.8647818959878
20
0.953094083473019
30
0
41
1
10
26.8955869901584
20
0.961477020048676
30
0
41
1
10
26.9882600648625
20
0.985502351669339
30
0
41
1
10
27.0503865436157
20
1.00002915569922
30
0
41
1
10
27.1749519687675
20
1.02641467594734
30
0
41
1
10
27.2370185026867
20
1.03821290292464
30
0
41
1
10
27.360473244634
20
1.05885023468386
30
0
41
1
10
27.4219301797756
20
1.06769078339272
30
0
41
1
10
27.5442731437556
20
1.08231008860176
30
0
41
1
10
27.6051989947056
20
1.08803809527495
30
0
41
1
10
27.7277592914702
20
1.09611252328
30
0
41
1
10
27.7892891189629
20
1.09852587234585
30
0
41
1
10
27.9124831397893
20
1.10031473055307
30
0
41
1
10
27.9741209284594
20
1.09968749669403
30
0
41
1
10
28.0972572509975
20
1.09529046342371
30
0
41
1
10
28.1587971170657
20
1.0915176190137
30
0
41
1
10
28.2511258738923
20
1.08337911033485
30
0
41
1
10
28.2818989481482
20
1.08025080043726
30
0
41
1
10
28.3434543836588
20
1.07313816669611
30
0
41
1
10
28.3742494258751
20
1.06915624677231
30
0
41
1
10
28.4051479871344
20
1.06478456299715
30
0
0
SPLINE
5
C8
100
AcDbEntity
8
1
62
256
6
ByLayer
370
18
48
1
60
0
100
AcDbSpline
70
4
71
3
72
111
73
107
40
0
40
0
40
0
40
0
40
0.01876767736834
40
0.01876767736834
40
0.030324095223794
40
0.030324095223794
40
0.0418805130792479
40
0.0418805130792479
40
0.0649933487901558
40
0.0649933487901558
40
0.0881061845010637
40
0.0881061845010637
40
0.111219020211972
40
0.111219020211972
40
0.134331855922879
40
0.134331855922879
40
0.145888273778334
40
0.145888273778334
40
0.157444691633789
40
0.180557527344701
40
0.180557527344701
40
0.226783198766527
40
0.226783198766527
40
0.238339616621982
40
0.238339616621982
40
0.249896034477437
40
0.249896034477437
40
0.273008870188349
40
0.273008870188349
40
0.296121705899261
40
0.296121705899261
40
0.319234541610173
40
0.319234541610173
40
0.330790959465628
40
0.330790959465628
40
0.342347377321085
40
0.342347377321085
40
0.365460213031994
40
0.365460213031994
40
0.388573048742904
40
0.388573048742904
40
0.411685884453814
40
0.411685884453814
40
0.423242302309268
40
0.423242302309268
40
0.434798720164722
40
0.434798720164722
40
0.446355138020176
40
0.446355138020176
40
0.45791155587563
40
0.45791155587563
40
0.504137227297444
40
0.504137227297444
40
0.527250063008352
40
0.527250063008352
40
0.538806480863806
40
0.538806480863806
40
0.55036289871926
40
0.55036289871926
40
0.573475734430165
40
0.573475734430165
40
0.585032152285619
40
0.585032152285619
40
0.596588570141073
40
0.596588570141073
40
0.619701405851983
40
0.619701405851983
40
0.642814241562893
40
0.642814241562893
40
0.654370659418348
40
0.654370659418348
40
0.665927077273803
40
0.665927077273803
40
0.689039912984713
40
0.689039912984713
40
0.735265584406532
40
0.735265584406532
40
0.758378420117441
40
0.758378420117441
40
0.769934837972896
40
0.769934837972896
40
0.78149125582835
40
0.78149125582835
40
0.804604091539259
40
0.804604091539259
40
0.827716927250168
40
0.827716927250168
40
0.839273345105623
40
0.839273345105623
40
0.850829762961079
40
0.850829762961079
40
0.873942598671992
40
0.873942598671992
40
0.897055434382904
40
0.897055434382904
40
0.920168270093817
40
0.920168270093817
40
0.931724687949274
40
0.931724687949274
40
0.94328110580473
40
0.94328110580473
40
0.954837523660187
40
0.954837523660187
40
0.966393941515643
40
0.966393941515643
40
1
40
1
40
1
40
1
41
1
10
26.1575388683694
20
-0.698786587210748
30
0
41
1
10
26.1077267771256
20
-0.719928649311498
30
0
41
1
10
26.0579098209608
20
-0.74047965215928
30
0
41
1
10
25.9774534360431
20
-0.772764480238067
30
0
41
1
10
25.9468013588655
20
-0.784852533944616
30
0
41
1
10
25.8854790696614
20
-0.80853595855433
30
0
41
1
10
25.8547957815483
20
-0.820113514667014
30
0
41
1
10
25.7624772786538
20
-0.853799474378889
30
0
41
1
10
25.7006412632206
20
-0.874952954005977
30
0
41
1
10
25.57645490711
20
-0.914740966082292
30
0
41
1
10
25.5144840398419
20
-0.933223703969531
30
0
41
1
10
25.3908940259638
20
-0.967290697386943
30
0
41
1
10
25.3292444847863
20
-0.982896585760244
30
0
41
1
10
25.2063592003909
20
-1.01136726750909
30
0
41
1
10
25.1451570069223
20
-1.02424942355452
30
0
41
1
10
25.0535703593871
20
-1.04137623108736
30
0
41
1
10
25.0230451041122
20
-1.04669863913296
30
0
41
1
10
24.9619207838315
20
-1.05653778435243
30
0
41
1
10
24.8701592540267
20
-1.07011183269034
30
0
41
1
10
24.778263108637
20
-1.08022054399174
30
0
41
1
10
24.5941572402714
20
-1.09581165521573
30
0
41
1
10
24.4709156460319
20
-1.10010292078036
30
0
41
1
10
24.3166397579147
20
-1.09744548668476
30
0
41
1
10
24.2857765909215
20
-1.09650522812322
30
0
41
1
10
24.2239311520454
20
-1.09379822562332
30
0
41
1
10
24.1929501429576
20
-1.09203601589448
30
0
41
1
10
24.100175551053
20
-1.08558566817118
30
0
41
1
10
24.0384470218261
20
-1.07972199750804
30
0
41
1
10
23.9152263803734
20
-1.06498002695207
30
0
41
1
10
23.8537141768269
20
-1.05610802852507
30
0
41
1
10
23.7308228103579
20
-1.03545590041065
30
0
41
1
10
23.6694556074691
20
-1.02367361517807
30
0
41
1
10
23.5776157653969
20
-1.00372816930582
30
0
41
1
10
23.5470388766375
20
-0.996698659574889
30
0
41
1
10
23.485949031696
20
-0.981869829374546
30
0
41
1
10
23.4554441597859
20
-0.974062345918981
30
0
41
1
10
23.363841875508
20
-0.949626628589584
30
0
41
1
10
23.3025867514862
20
-0.93205883994824
30
0
41
1
10
23.1798039244811
20
-0.894341459990017
30
0
41
1
10
23.1182722913285
20
-0.874190515593625
30
0
41
1
10
22.9948220299243
20
-0.831424937483746
30
0
41
1
10
22.932895870644
20
-0.808824956653837
30
0
41
1
10
22.8397705478267
20
-0.772966878218398
30
0
41
1
10
22.8086853102806
20
-0.760680890212683
30
0
41
1
10
22.7467599639958
20
-0.735548173334763
30
0
41
1
10
22.7158840659006
20
-0.722682611055575
30
0
41
1
10
22.6542869069578
20
-0.696376189833558
30
0
41
1
10
22.6235710515139
20
-0.682926487065572
30
0
41
1
10
22.5621366521777
20
-0.655686332080563
30
0
41
1
10
22.5314204972979
20
-0.641893475041968
30
0
41
1
10
22.3778862958981
20
-0.572024153669474
30
0
41
1
10
22.2552710435186
20
-0.513143306704052
30
0
41
1
10
22.0712837875172
20
-0.421097873227183
30
0
41
1
10
22.0099709309403
20
-0.38975014815955
30
0
41
1
10
21.9181073547996
20
-0.341562898324554
30
0
41
1
10
21.8875049620504
20
-0.325303389010571
30
0
41
1
10
21.8263100742887
20
-0.292431048239933
30
0
41
1
10
21.7957120400348
20
-0.275827326383194
30
0
41
1
10
21.7036837823908
20
-0.225934147584525
30
0
41
1
10
21.6420766646622
20
-0.192464165382546
30
0
41
1
10
21.5493471451942
20
-0.141839812552803
30
0
41
1
10
21.5183805624466
20
-0.124901353715899
30
0
41
1
10
21.4563205075592
20
-0.0909216447040535
30
0
41
1
10
21.4251985764918
20
-0.0738684900389615
30
0
41
1
10
21.3320685032526
20
-0.0228274101042132
30
0
41
1
10
21.2701683552874
20
0.0111061205895169
30
0
41
1
10
21.1468581203402
20
0.0790171526527956
30
0
41
1
10
21.0854758740198
20
0.113045338022488
30
0
41
1
10
20.9937137698343
20
0.163995817887212
30
0
41
1
10
20.9631510723053
20
0.180913393847675
30
0
41
1
10
20.9019668857318
20
0.214422188035456
30
0
41
1
10
20.8713590405455
20
0.231038801220507
30
0
41
1
10
20.779517267329
20
0.280533488439374
30
0
41
1
10
20.7182698196327
20
0.313064594813227
30
0
41
1
10
20.5343371218937
20
0.409046586492792
30
0
41
1
10
20.4113551169208
20
0.470724421034163
30
0
41
1
10
20.226847331596
20
0.560523774248196
30
0
41
1
10
20.1653644531876
20
0.590033483484149
30
0
41
1
10
20.0725357721323
20
0.632617051959642
30
0
41
1
10
20.0414720761869
20
0.64658070918901
30
0
41
1
10
19.9794407013342
20
0.673934980347894
30
0
41
1
10
19.948468321123
20
0.687326029395223
30
0
41
1
10
19.855666522092
20
0.726636903550684
30
0
41
1
10
19.7939446428819
20
0.751683806853919
30
0
41
1
10
19.6707170837724
20
0.799420594726286
30
0
41
1
10
19.6092213646599
20
0.82212836569397
30
0
41
1
10
19.5172489400363
20
0.854552630116359
30
0
41
1
10
19.486637562247
20
0.865087577239763
30
0
41
1
10
19.425503217157
20
0.885594762976808
30
0
41
1
10
19.3949878211972
20
0.895574044061703
30
0
41
1
10
19.3034139664346
20
0.924482178458334
30
0
41
1
10
19.2422272212517
20
0.942285893809867
30
0
41
1
10
19.1196498266086
20
0.975102654187708
30
0
41
1
10
19.0582630745725
20
0.990114914993313
30
0
41
1
10
18.9351869971071
20
1.01727330300645
30
0
41
1
10
18.873487934526
20
1.02941681804833
30
0
41
1
10
18.7807584218344
20
1.04548984444486
30
0
41
1
10
18.7498209034573
20
1.05049103969657
30
0
41
1
10
18.6878987622142
20
1.05976833191474
30
0
41
1
10
18.6568857102973
20
1.06404932667729
30
0
41
1
10
18.594947976996
20
1.07183906287881
30
0
41
1
10
18.564076576136
20
1.07534402554623
30
0
41
1
10
18.5023734108862
20
1.08151894537122
30
0
41
1
10
18.4715340369595
20
1.08418898945379
30
0
41
1
10
18.3510888582611
20
1.09304736570783
30
0
41
1
10
18.2616695094389
20
1.09625033934699
30
0
41
1
10
18.1723575321313
20
1.09616536781172
30
0
0
SPLINE
5
C9
100
AcDbEntity
8
1
62
256
6
ByLayer
370
18
48
1
60
0
100
AcDbSpline
70
4
71
3
72
116
73
112
40
0
40
0
40
0
40
0
40
0.0059703157045848
40
0.0059703157045848
40
0.0291109633677021
40
0.0291109633677021
40
0.0522516110308197
40
0.0522516110308197
40
0.075392258693937
40
0.075392258693937
40
0.0869625825254948
40
0.0869625825254948
40
0.0985329063570523
40
0.0985329063570523
40
0.11010323018861
40
0.11010323018861
40
0.121673554020168
40
0.121673554020168
40
0.144814201683281
40
0.144814201683281
40
0.167954849346395
40
0.167954849346395
40
0.191095497009508
40
0.191095497009508
40
0.214236144672622
40
0.214236144672622
40
0.237376792335735
40
0.237376792335735
40
0.248947116167293
40
0.248947116167293
40
0.260517439998851
40
0.260517439998851
40
0.283658087661968
40
0.283658087661968
40
0.295228411493528
40
0.295228411493528
40
0.306798735325088
40
0.306798735325088
40
0.329939382988207
40
0.329939382988207
40
0.353080030651326
40
0.353080030651326
40
0.376220678314446
40
0.376220678314446
40
0.399361325977565
40
0.399361325977565
40
0.410931649809125
40
0.410931649809125
40
0.422501973640684
40
0.422501973640684
40
0.434072297472244
40
0.434072297472244
40
0.445642621303804
40
0.445642621303804
40
0.468783268966923
40
0.468783268966923
40
0.491923916630043
40
0.491923916630043
40
0.503494240461602
40
0.503494240461602
40
0.515064564293162
40
0.515064564293162
40
0.538205211956281
40
0.538205211956281
40
0.561345859619401
40
0.561345859619401
40
0.58448650728252
40
0.58448650728252
40
0.60762715494564
40
0.60762715494564
40
0.6191974787772
40
0.6191974787772
40
0.630767802608761
40
0.630767802608761
40
0.653908450271884
40
0.653908450271884
40
0.677049097935008
40
0.677049097935008
40
0.700189745598131
40
0.700189745598131
40
0.723330393261254
40
0.723330393261254
40
0.746471040924378
40
0.746471040924378
40
0.769611688587501
40
0.769611688587501
40
0.781182012419062
40
0.781182012419062
40
0.792752336250622
40
0.792752336250622
40
0.815892983913746
40
0.815892983913746
40
0.83903363157687
40
0.83903363157687
40
0.862174279239993
40
0.862174279239993
40
0.885314926903117
40
0.885314926903117
40
0.908455574566241
40
0.908455574566241
40
0.920025898397802
40
0.920025898397802
40
0.931596222229364
40
0.931596222229364
40
0.954736869892487
40
0.954736869892487
40
0.966307193724049
40
0.966307193724049
40
0.97787751755561
40
0.97787751755561
40
1
40
1
40
1
40
1
41
1
10
13.6895624751801
20
-0.695793911353547
30
0
41
1
10
13.6738029354148
20
-0.702587908807885
30
0
41
1
10
13.6580419579066
20
-0.709314666619065
30
0
41
1
10
13.5811293161504
20
-0.741706256271385
30
0
41
1
10
13.5198146307304
20
-0.766232853626434
30
0
41
1
10
13.3969393508947
20
-0.813027838990138
30
0
41
1
10
13.3353662084857
20
-0.835276179073759
30
0
41
1
10
13.2118431150984
20
-0.877344083623285
30
0
41
1
10
13.1498908865233
20
-0.897165095878137
30
0
41
1
10
13.0567537859058
20
-0.925126603884792
30
0
41
1
10
13.025648509758
20
-0.934158227794882
30
0
41
1
10
12.9636777612883
20
-0.951540953266885
30
0
41
1
10
12.932781917197
20
-0.959903910844815
30
0
41
1
10
12.8711393398658
20
-0.975935404275333
30
0
41
1
10
12.8403830726341
20
-0.983593656083684
30
0
41
1
10
12.7788546224255
20
-0.99808552015952
30
0
41
1
10
12.7480956146109
20
-1.00493223437999
30
0
41
1
10
12.6558606948299
20
-1.02432301351894
30
0
41
1
10
12.5944378493549
20
-1.03572480668438
30
0
41
1
10
12.4716460622693
20
-1.05550055303564
30
0
41
1
10
12.4102576872031
20
-1.06386654254518
30
0
41
1
10
12.2875172484617
20
-1.07759229307143
30
0
41
1
10
12.2261820586465
20
-1.08296064451719
30
0
41
1
10
12.1036774668065
20
-1.09063981289472
30
0
41
1
10
12.0425597385945
20
-1.09293450152813
30
0
41
1
10
11.9197377047109
20
-1.09428686981113
30
0
41
1
10
11.8580948151534
20
-1.09337305606883
30
0
41
1
10
11.7653209725677
20
-1.08963417298807
30
0
41
1
10
11.7343414036993
20
-1.08799241355589
30
0
41
1
10
11.6722573664013
20
-1.08391814043978
30
0
41
1
10
11.6411131049683
20
-1.08148230627279
30
0
41
1
10
11.547858625472
20
-1.07302057608194
30
0
41
1
10
11.4858910721368
20
-1.06584925822705
30
0
41
1
10
11.3933341617301
20
-1.05276819306073
30
0
41
1
10
11.3625479843602
20
-1.04801891557247
30
0
41
1
10
11.3011112547461
20
-1.03773108257971
30
0
41
1
10
11.2704664016971
20
-1.03218803163878
30
0
41
1
10
11.1786126213564
20
-1.01443721743769
30
0
41
1
10
11.1173497612078
20
-1.00120218623201
30
0
41
1
10
10.9947649445364
20
-0.972040151772973
30
0
41
1
10
10.9334626923107
20
-0.956094726435907
30
0
41
1
10
10.8107373157474
20
-0.921603014015346
30
0
41
1
10
10.7493007989808
20
-0.903073688192165
30
0
41
1
10
10.6263493728074
20
-0.8633663111776
30
0
41
1
10
10.564853674202
20
-0.842166799960182
30
0
41
1
10
10.4726083280693
20
-0.808219630342791
30
0
41
1
10
10.4418647235946
20
-0.796536839431155
30
0
41
1
10
10.3802590919958
20
-0.772590768779367
30
0
41
1
10
10.3493781355334
20
-0.760354448944184
30
0
41
1
10
10.2874565789396
20
-0.735368044299776
30
0
41
1
10
10.2563899832425
20
-0.722598821055243
30
0
41
1
10
10.1942613885325
20
-0.696579502814444
30
0
41
1
10
10.1632428842198
20
-0.683350822453235
30
0
41
1
10
10.0703076004877
20
-0.643041397336219
30
0
41
1
10
10.0084993759212
20
-0.61535592876632
30
0
41
1
10
9.88513242077647
20
-0.558463747260646
30
0
41
1
10
9.82358743309382
20
-0.529236645298766
30
0
41
1
10
9.73156720221718
20
-0.484068715942044
30
0
41
1
10
9.70094505256409
20
-0.46878805824943
30
0
41
1
10
9.6397863848934
20
-0.43780054731522
30
0
41
1
10
9.6092566101176
20
-0.422081532040295
30
0
41
1
10
9.51757055995083
20
-0.374668013093867
30
0
41
1
10
9.45631299076661
20
-0.342730278298944
30
0
41
1
10
9.33364137312952
20
-0.278033802547725
30
0
41
1
10
9.27221567631133
20
-0.245293596184183
30
0
41
1
10
9.14907592976229
20
-0.179232544322588
30
0
41
1
10
9.08735827378308
20
-0.145920638134413
30
0
41
1
10
8.96373032481293
20
-0.0785198169792807
30
0
41
1
10
8.90183929502538
20
-0.0443927915042934
30
0
41
1
10
8.8088480761526
20
0.0074133797618288
30
0
41
1
10
8.77792232667895
20
0.0247067242291905
30
0
41
1
10
8.71609463732739
20
0.0590192739604447
30
0
41
1
10
8.68519783894277
20
0.0760650277663899
30
0
41
1
10
8.59258329700288
20
0.126929704555863
30
0
41
1
10
8.53095403931854
20
0.160500027940884
30
0
41
1
10
8.40784833987496
20
0.226852151365478
30
0
41
1
10
8.34635240662774
20
0.259598624779102
30
0
41
1
10
8.22348653167984
20
0.324268941689297
30
0
41
1
10
8.16213319209717
20
0.356223390995694
30
0
41
1
10
8.03968708838991
20
0.41952132134324
30
0
41
1
10
7.97865339711782
20
0.450957967175668
30
0
41
1
10
7.85610988508225
20
0.511937820930882
30
0
41
1
10
7.79464973474845
20
0.541573234901193
30
0
41
1
10
7.67141191508705
20
0.599246967986375
30
0
41
1
10
7.60961648726445
20
0.627255087455609
30
0
41
1
10
7.51658866532824
20
0.66791036172333
30
0
41
1
10
7.48552563540073
20
0.681239197708493
30
0
41
1
10
7.42330331062985
20
0.707465154676441
30
0
41
1
10
7.39218633206082
20
0.720346607429121
30
0
41
1
10
7.29915843016801
20
0.758192157728843
30
0
41
1
10
7.23748455652861
20
0.782462167065404
30
0
41
1
10
7.11458024210444
20
0.828693254234594
30
0
41
1
10
7.05315912602774
20
0.850415700485343
30
0
41
1
10
6.93033739549239
20
0.891143751800712
30
0
41
1
10
6.86896299142353
20
0.910177182387031
30
0
41
1
10
6.74619029227634
20
0.945531614730783
30
0
41
1
10
6.68477738693556
20
0.961842225391536
30
0
41
1
10
6.56196290619118
20
0.991789968823923
30
0
41
1
10
6.50058031232527
20
1.00544276854706
30
0
41
1
10
6.40858034405693
20
1.02388407952918
30
0
41
1
10
6.3779310835412
20
1.0296925288819
30
0
41
1
10
6.31654814444948
20
1.04054427793125
30
0
41
1
10
6.28579316196124
20
1.04557611497376
30
0
41
1
10
6.19331714095924
20
1.0594921578502
30
0
41
1
10
6.13142138973762
20
1.06721874262468
30
0
41
1
10
6.0382036518107
20
1.07648082551339
30
0
41
1
10
6.00706145401287
20
1.07917763974379
30
0
41
1
10
5.94492468989887
20
1.08376611741088
30
0
41
1
10
5.91389338043217
20
1.08566212103946
30
0
41
1
10
5.82364237945578
20
1.09003885593498
30
0
41
1
10
5.764527889383
20
1.09148170966228
30
0
41
1
10
5.7056103450019
20
1.09148729685216
30
0
0
SPLINE
5
CA
100
AcDbEntity
8
1
62
256
6
ByLayer
370
18
48
1
60
0
100
AcDbSpline
70
4
71
3
72
114
73
110
40
0
40
0
40
0
40
0
40
0.0109249636401353
40
0.0109249636401353
40
0.0340709680934583
40
0.0340709680934583
40
0.0572169725467814
40
0.0572169725467814
40
0.0803629770001043
40
0.0803629770001043
40
0.103508981453427
40
0.103508981453427
40
0.12665498590675
40
0.12665498590675
40
0.149800990360073
40
0.149800990360073
40
0.161373992586736
40
0.161373992586736
40
0.172946994813398
40
0.172946994813398
40
0.184519997040061
40
0.184519997040061
40
0.196092999266723
40
0.196092999266723
40
0.219239003720049
40
0.219239003720049
40
0.265531012626696
40
0.265531012626696
40
0.288677017080022
40
0.288677017080022
40
0.311823021533347
40
0.311823021533347
40
0.334969025986671
40
0.334969025986671
40
0.358115030439996
40
0.358115030439996
40
0.369688032666659
40
0.369688032666659
40
0.381261034893321
40
0.381261034893321
40
0.392834037119984
40
0.392834037119984
40
0.404407039346647
40
0.404407039346647
40
0.427553043799971
40
0.427553043799971
40
0.450699048253296
40
0.450699048253296
40
0.473845052706621
40
0.473845052706621
40
0.485418054933284
40
0.485418054933284
40
0.496991057159947
40
0.496991057159947
40
0.520137061613269
40
0.520137061613269
40
0.531710063839932
40
0.531710063839932
40
0.543283066066594
40
0.543283066066594
40
0.566429070519918
40
0.566429070519918
40
0.589575074973241
40
0.589575074973241
40
0.612721079426564
40
0.612721079426564
40
0.635867083879887
40
0.635867083879887
40
0.65901308833321
40
0.65901308833321
40
0.670586090559872
40
0.670586090559872
40
0.682159092786535
40
0.682159092786535
40
0.693732095013197
40
0.693732095013197
40
0.70530509723986
40
0.70530509723986
40
0.716878099466522
40
0.716878099466522
40
0.728451101693185
40
0.728451101693185
40
0.774743110599833
40
0.774743110599833
40
0.797889115053156
40
0.797889115053156
40
0.821035119506479
40
0.821035119506479
40
0.844181123959802
40
0.844181123959802
40
0.867327128413125
40
0.867327128413125
40
0.878900130639785
40
0.878900130639785
40
0.890473132866446
40
0.890473132866446
40
0.902046135093107
40
0.902046135093107
40
0.913619137319767
40
0.913619137319767
40
0.936765141773086
40
0.936765141773086
40
0.959911146226405
40
0.959911146226405
40
0.983057150679724
40
0.983057150679724
40
0.994630152906384
40
0.994630152906384
40
1
40
1
40
1
40
1
41
1
10
7.45695384483685
20
0.697039147760989
30
0
41
1
10
7.48631322428221
20
0.709292513423009
30
0
41
1
10
7.51573517414619
20
0.721306666286011
30
0
41
1
10
7.60759032674198
20
0.758109021552571
30
0
41
1
10
7.66971361941512
20
0.782052061215069
30
0
41
1
10
7.79332836275984
20
0.827881412647059
30
0
41
1
10
7.85485485481561
20
0.84971973399638
30
0
41
1
10
7.97736665096105
20
0.891127030825658
30
0
41
1
10
8.0382528965574
20
0.910777147188298
30
0
41
1
10
8.16050859404282
20
0.946716372993365
30
0
41
1
10
8.22191500237787
20
0.96300983728878
30
0
41
1
10
8.34494234745114
20
0.992747155899536
30
0
41
1
10
8.40655370216373
20
1.00619879694838
30
0
41
1
10
8.52962268505237
20
1.03048910624281
30
0
41
1
10
8.59111059361086
20
1.04129611932549
30
0
41
1
10
8.68335690870899
20
1.05534189405336
30
0
41
1
10
8.71410673012801
20
1.05966392101988
30
0
41
1
10
8.7756023605038
20
1.06756679392404
30
0
41
1
10
8.80633613742026
20
1.07115070657144
30
0
41
1
10
8.86792743806137
20
1.07750488483961
30
0
41
1
10
8.89879053065479
20
1.08027311021542
30
0
41
1
10
8.96079997595567
20
1.08496341206731
30
0
41
1
10
8.99187826477919
20
1.08688580379149
30
0
41
1
10
9.08501538947723
20
1.09144070088425
30
0
41
1
10
9.14708603695561
20
1.09288017668317
30
0
41
1
10
9.33268528085802
20
1.09262699438031
30
0
41
1
10
9.45547249256555
20
1.08633343076431
30
0
41
1
10
9.63849695648213
20
1.06709361380203
30
0
41
1
10
9.69931118256744
20
1.05900750499615
30
0
41
1
10
9.82177352378119
20
1.04012458878586
30
0
41
1
10
9.88332715752443
20
1.02932313247183
30
0
41
1
10
10.0067173773338
20
1.00492822842949
30
0
41
1
10
10.0685298963966
20
0.991315137898852
30
0
41
1
10
10.1921571472736
20
0.960970150071091
30
0
41
1
10
10.2540129622714
20
0.944264825297608
30
0
41
1
10
10.3469310883746
20
0.916826456709543
30
0
41
1
10
10.3779254833003
20
0.907275059801236
30
0
41
1
10
10.4396379206233
20
0.887452529755336
30
0
41
1
10
10.4704063422829
20
0.877180679929836
30
0
41
1
10
10.5319389047208
20
0.856118998462506
30
0
41
1
10
10.5627151313223
20
0.845344514887074
30
0
41
1
10
10.6243430093251
20
0.823400931492444
30
0
41
1
10
10.6551828999307
20
0.812218223081373
30
0
41
1
10
10.7477184940907
20
0.777987667401987
30
0
41
1
10
10.8094313295023
20
0.754265526023005
30
0
41
1
10
10.9325174076631
20
0.704527884187371
30
0
41
1
10
10.9938830502427
20
0.678493407430381
30
0
41
1
10
11.116365825287
20
0.624175259458241
30
0
41
1
10
11.1774733557262
20
0.595878153656571
30
0
41
1
10
11.2689850499216
20
0.551729438233252
30
0
41
1
10
11.299486430979
20
0.536763435494777
30
0
41
1
10
11.3606525065873
20
0.506608773715101
30
0
41
1
10
11.3913310895305
20
0.491444419349421
30
0
41
1
10
11.4836597469264
20
0.445729982840561
30
0
41
1
10
11.545577081264
20
0.414923185911675
30
0
41
1
10
11.6387206261434
20
0.367763206688579
30
0
41
1
10
11.6698122178576
20
0.351881784105814
30
0
41
1
10
11.732038206276
20
0.319703669551387
30
0
41
1
10
11.7632052447185
20
0.303396003620321
30
0
41
1
10
11.8563675949306
20
0.254119045418776
30
0
41
1
10
11.9181478849824
20
0.220757539941275
30
0
41
1
10
12.0410774185788
20
0.153066490282327
30
0
41
1
10
12.1021210594874
20
0.118541496662374
30
0
41
1
10
12.2245477362511
20
0.0503347630999826
30
0
41
1
10
12.2859896778834
20
0.0167597135288418
30
0
41
1
10
12.4090045826831
20
-0.0499538407865145
30
0
41
1
10
12.4705682091437
20
-0.0831096192609095
30
0
41
1
10
12.5934501176784
20
-0.14967672467202
30
0
41
1
10
12.6547958062251
20
-0.183036840425359
30
0
41
1
10
12.7467559200287
20
-0.233029998426019
30
0
41
1
10
12.777398615438
20
-0.249688280543353
30
0
41
1
10
12.838656111685
20
-0.283002993182038
30
0
41
1
10
12.869257751253
20
-0.299683254970717
30
0
41
1
10
12.9305484172664
20
-0.332830773100142
30
0
41
1
10
12.9612439511334
20
-0.349286191502671
30
0
41
1
10
13.0228930735462
20
-0.38167579849457
30
0
41
1
10
13.0538408462563
20
-0.397620713040027
30
0
41
1
10
13.1159386367673
20
-0.429092346362239
30
0
41
1
10
13.1471270653544
20
-0.44463771221092
30
0
41
1
10
13.2094287915092
20
-0.475281207481828
30
0
41
1
10
13.2405427041044
20
-0.490380780216526
30
0
41
1
10
13.3958086839642
20
-0.564991563467032
30
0
41
1
10
13.5189108041618
20
-0.622092168570617
30
0
41
1
10
13.7021290483527
20
-0.703089450103164
30
0
41
1
10
13.7629396992215
20
-0.72931784425424
30
0
41
1
10
13.8852835324524
20
-0.778557735111661
30
0
41
1
10
13.9467337717693
20
-0.801712640511511
30
0
41
1
10
14.0698345779756
20
-0.845664650296925
30
0
41
1
10
14.1314634523163
20
-0.866486403526551
30
0
41
1
10
14.2546241700463
20
-0.906052890669912
30
0
41
1
10
14.3161964407563
20
-0.924746311683066
30
0
41
1
10
14.4086163686201
20
-0.950979545770025
30
0
41
1
10
14.4394295133264
20
-0.959426450141933
30
0
41
1
10
14.5010692394458
20
-0.975702499908607
30
0
41
1
10
14.5319263615412
20
-0.983527953607648
30
0
41
1
10
14.5937430136308
20
-0.998360145915399
30
0
41
1
10
14.6246420827925
20
-1.00534322690521
30
0
41
1
10
14.6864996199856
20
-1.01842852970375
30
0
41
1
10
14.7174446795653
20
-1.02454249131105
30
0
41
1
10
14.8102683451111
20
-1.04169373731977
30
0
41
1
10
14.8721371032801
20
-1.05155057924321
30
0
41
1
10
14.9954656789996
20
-1.06838784333991
30
0
41
1
10
15.0569113910106
20
-1.07536061499653
30
0
41
1
10
15.1794633912468
20
-1.08627470175904
30
0
41
1
10
15.2405669868949
20
-1.09021898955535
30
0
41
1
10
15.3319874466729
20
-1.09374774583932
30
0
41
1
10
15.3624414134721
20
-1.09452070462058
30
0
41
1
10
15.4071205536816
20
-1.09505639055004
30
0
41
1
10
15.4212979580604
20
-1.09513888237134
30
0
41
1
10
15.4354932534578
20
-1.09513573469368
30
0
0
SPLINE
5
CB
100
AcDbEntity
8
1
62
256
6
ByLayer
370
18
48
1
60
0
100
AcDbSpline
70
4
71
3
72
118
73
114
40
0
40
0
40
0
40
0
40
0.021844792015176
40
0.021844792015176
40
0.0334151165622623
40
0.0334151165622623
40
0.0449854411093486
40
0.0449854411093486
40
0.0681260902035212
40
0.0681260902035212
40
0.0912667392976942
40
0.0912667392976942
40
0.114407388391867
40
0.114407388391867
40
0.125977712938953
40
0.125977712938953
40
0.137548037486039
40
0.137548037486039
40
0.149118362033126
40
0.149118362033126
40
0.160688686580212
40
0.160688686580212
40
0.183829335674385
40
0.183829335674385
40
0.195399660221471
40
0.195399660221471
40
0.206969984768557
40
0.206969984768557
40
0.23011063386273
40
0.23011063386273
40
0.253251282956903
40
0.253251282956903
40
0.276391932051076
40
0.276391932051076
40
0.299532581145249
40
0.299532581145249
40
0.322673230239422
40
0.322673230239422
40
0.334243554786508
40
0.334243554786508
40
0.345813879333594
40
0.345813879333594
40
0.35738420388068
40
0.35738420388068
40
0.368954528427767
40
0.368954528427767
40
0.380524852974853
40
0.380524852974853
40
0.392095177521939
40
0.392095177521939
40
0.415235826616114
40
0.415235826616114
40
0.438376475710289
40
0.438376475710289
40
0.449946800257375
40
0.449946800257375
40
0.461517124804461
40
0.461517124804461
40
0.484657773898636
40
0.484657773898636
40
0.507798422992811
40
0.507798422992811
40
0.530939072086985
40
0.530939072086985
40
0.542509396634074
40
0.542509396634074
40
0.554079721181162
40
0.554079721181162
40
0.577220370275337
40
0.577220370275337
40
0.600361019369511
40
0.600361019369511
40
0.623501668463686
40
0.623501668463686
40
0.646642317557861
40
0.646642317557861
40
0.65821264210495
40
0.65821264210495
40
0.669782966652038
40
0.669782966652038
40
0.692923615746215
40
0.692923615746215
40
0.716064264840392
40
0.716064264840392
40
0.739204913934569
40
0.739204913934569
40
0.762345563028745
40
0.762345563028745
40
0.785486212122922
40
0.785486212122922
40
0.808626861217099
40
0.808626861217099
40
0.831767510311276
40
0.831767510311276
40
0.843337834858363
40
0.843337834858363
40
0.85490815940545
40
0.85490815940545
40
0.866478483952537
40
0.866478483952537
40
0.878048808499625
40
0.878048808499625
40
0.901189457593798
40
0.901189457593798
40
0.92433010668797
40
0.92433010668797
40
0.947470755782143
40
0.947470755782143
40
0.970611404876316
40
0.970611404876316
40
0.993752053970489
40
0.993752053970489
40
1
40
1
40
1
40
1
41
1
10
19.9261813266725
20
0.699106519522388
30
0
41
1
10
19.9844439940419
20
0.723789414227696
30
0
41
1
10
20.0427443345374
20
0.747789819423105
30
0
41
1
10
20.1320257442649
20
0.783337311545893
30
0
41
1
10
20.1629776074543
20
0.795459059639711
30
0
41
1
10
20.2246524701845
20
0.819096538652133
30
0
41
1
10
20.2554192170644
20
0.830604613323914
30
0
41
1
10
20.3477590058649
20
0.863906052944145
30
0
41
1
10
20.4094474539743
20
0.884403610096797
30
0
41
1
10
20.5328292400064
20
0.92254504158052
30
0
41
1
10
20.5945083016853
20
0.940205902188325
30
0
41
1
10
20.7174666072184
20
0.973089783899184
30
0
41
1
10
20.7787629161617
20
0.988284671737063
30
0
41
1
10
20.8705135368567
20
1.00905916164572
30
0
41
1
10
20.9010651977474
20
1.01564760450768
30
0
41
1
10
20.9620972632331
20
1.02813905686691
30
0
41
1
10
20.9925648107039
20
1.03404923609014
30
0
41
1
10
21.0535081133323
20
1.04511426027918
30
0
41
1
10
21.083994596389
20
1.05026193050978
30
0
41
1
10
21.1451605086713
20
1.05971216714528
30
0
41
1
10
21.1758469380312
20
1.06401384681376
30
0
41
1
10
21.2681585984413
20
1.07571920188408
30
0
41
1
10
21.3300344894117
20
1.08193429599052
30
0
41
1
10
21.4230677125568
20
1.08900945086279
30
0
41
1
10
21.454112630993
20
1.09099130967277
30
0
41
1
10
21.5162399793067
20
1.09419032519261
30
0
41
1
10
21.5473655084828
20
1.09540661496172
30
0
41
1
10
21.6404604918049
20
1.09785675157113
30
0
41
1
10
21.7021926068001
20
1.09790023702365
30
0
41
1
10
21.8249909470654
20
1.09471697044276
30
0
41
1
10
21.8859920881394
20
1.09144763155305
30
0
41
1
10
22.0084828643458
20
1.08187610073338
30
0
41
1
10
22.0699347017657
20
1.07561016251469
30
0
41
1
10
22.1929058115686
20
1.06020093793717
30
0
41
1
10
22.2544096681185
20
1.05104935811491
30
0
41
1
10
22.3771490545224
20
1.02964829619825
30
0
41
1
10
22.4384215984363
20
1.01740992783732
30
0
41
1
10
22.5302612365609
20
0.996691274303402
30
0
41
1
10
22.5608605527463
20
0.989389913829228
30
0
41
1
10
22.6220249364548
20
0.973966935185132
30
0
41
1
10
22.6525847848447
20
0.965838326607013
30
0
41
1
10
22.7138340724919
20
0.94888838517636
30
0
41
1
10
22.7445289818233
20
0.940072794844639
30
0
41
1
10
22.8061812908335
20
0.921903314184988
30
0
41
1
10
22.8371241214606
20
0.912537126599176
30
0
41
1
10
22.8991983641649
20
0.893217559867054
30
0
41
1
10
22.930366433912
20
0.883252088657798
30
0
41
1
10
22.9926503316088
20
0.862750999123477
30
0
41
1
10
23.0237482740862
20
0.852221854128516
30
0
41
1
10
23.1168379860788
20
0.819715844543452
30
0
41
1
10
23.1785997045064
20
0.79678665275074
30
0
41
1
10
23.3016010481807
20
0.748464719810983
30
0
41
1
10
23.3628537166657
20
0.723091090409838
30
0
41
1
10
23.4543426456118
20
0.683134562152219
30
0
41
1
10
23.4847840947152
20
0.669512467506081
30
0
41
1
10
23.5457292803128
20
0.641914644241666
30
0
41
1
10
23.5762437549765
20
0.62795567547056
30
0
41
1
10
23.6680158151328
20
0.585782316795218
30
0
41
1
10
23.7294513736768
20
0.557203029206676
30
0
41
1
10
23.8524681745533
20
0.498622042552427
30
0
41
1
10
23.9140197606704
20
0.468569584860944
30
0
41
1
10
24.0370271457196
20
0.406577819494402
30
0
41
1
10
24.0985235925012
20
0.374704493798333
30
0
41
1
10
24.1908152402927
20
0.325604236104453
30
0
41
1
10
24.2215781831688
20
0.309006121957509
30
0
41
1
10
24.2831363373764
20
0.27539290481522
30
0
41
1
10
24.3139615503125
20
0.258394592520233
30
0
41
1
10
24.4066829445051
20
0.207387074174108
30
0
41
1
10
24.4685697691751
20
0.173739769901374
30
0
41
1
10
24.5923093063211
20
0.106778646481132
30
0
41
1
10
24.6541398970148
20
0.0734224366449041
30
0
41
1
10
24.7773404313628
20
0.0062339010164862
30
0
41
1
10
24.8387184194835
20
-0.027581574763019
30
0
41
1
10
24.9611318573097
20
-0.0954522141911127
30
0
41
1
10
25.0221396746041
20
-0.129558357163205
30
0
41
1
10
25.1134681768351
20
-0.180748352147134
30
0
41
1
10
25.1439068907482
20
-0.197768258940641
30
0
41
1
10
25.2049402482718
20
-0.231423611706902
30
0
41
1
10
25.2355464224162
20
-0.248038437049274
30
0
41
1
10
25.3275961017656
20
-0.297318168311961
30
0
41
1
10
25.3892614570727
20
-0.329436604136561
30
0
41
1
10
25.5128170644873
20
-0.392882995331604
30
0
41
1
10
25.5746690169604
20
-0.424278240051223
30
0
41
1
10
25.6984806325212
20
-0.486464396486696
30
0
41
1
10
25.7606044717509
20
-0.517258779036638
30
0
41
1
10
25.8839008999797
20
-0.577453061182041
30
0
41
1
10
25.9450879185219
20
-0.607028969993422
30
0
41
1
10
26.0678069918868
20
-0.663173775399457
30
0
41
1
10
26.1293437435441
20
-0.689771586154222
30
0
41
1
10
26.2524326569297
20
-0.740695946309103
30
0
41
1
10
26.3139732829178
20
-0.765037765309557
30
0
41
1
10
26.4367141807541
20
-0.811908349589061
30
0
41
1
10
26.4979477784337
20
-0.834385526356527
30
0
41
1
10
26.5896689379707
20
-0.866499406067732
30
0
41
1
10
26.6202192937658
20
-0.876939307341019
30
0
41
1
10
26.681265914659
20
-0.897280949135137
30
0
41
1
10
26.7117517384104
20
-0.907192285969842
30
0
41
1
10
26.772810186875
20
-0.926313775084878
30
0
41
1
10
26.803387607797
20
-0.935519153518641
30
0
41
1
10
26.8647818959878
20
-0.953094083473019
30
0
41
1
10
26.8955869901584
20
-0.961477020048676
30
0
41
1
10
26.9882600648625
20
-0.985502351669368
30
0
41
1
10
27.0503865436157
20
-1.00002915569922
30
0
41
1
10
27.1749519687676
20
-1.02641467594734
30
0
41
1
10
27.2370185026867
20
-1.03821290292464
30
0
41
1
10
27.360473244634
20
-1.05885023468386
30
0
41
1
10
27.4219301797756
20
-1.06769078339272
30
0
41
1
10
27.5442731437556
20
-1.08231008860176
30
0
41
1
10
27.6051989947057
20
-1.08803809527495
30
0
41
1
10
27.7277592914702
20
-1.09611252328
30
0
41
1
10
27.7892891189629
20
-1.09852587234585
30
0
41
1
10
27.8675172443925
20
-1.0996617961778
30
0
41
1
10
27.8841513321161
20
-1.09979236271394
30
0
41
1
10
27.9007862194628
20
-1.09981102440477
30
0
0
LINE
5
7D
100
AcDbEntity
8
80
62
256
6
ByLayer
370
18
48
1
60
0
100
AcDbLine
10
0
20
0
30
0
11
-5
21
0
31
0
39
0
210
0
220
0
230
1
0
LINE
5
7E
100
AcDbEntity
8
4
62
256
6
ByLayer
370
18
48
0.05
60
0
100
AcDbLine
10
-5
20
0
30
0
11
34
21
0
31
0
39
0
210
0
220
0
230
1
0
LINE
5
80
100
AcDbEntity
8
81
62
256
6
ByLayer
370
18
48
1
60
0
100
AcDbLine
10
29
20
0
30
0
11
34
21
0
31
0
39
0
210
0
220
0
230
1
0
LINE
5
81
100
AcDbEntity
8
SK4
62
256
6
ByLayer
370
18
48
0.05
60
0
100
AcDbLine
10
-29
20
0
30
0
11
34
21
0
31
0
39
0
210
0
220
0
230
1
0
LINE
5
83
100
AcDbEntity
8
1
62
256
6
ByLayer
370
18
48
1
60
0
100
AcDbLine
10
0
20
1.1
30
0
11
0
21
-1.1
31
0
39
0
210
0
220
0
230
1
0
LINE
5
84
100
AcDbEntity
8
1
62
256
6
ByLayer
370
18
48
1
60
0
100
AcDbLine
10
28.405148
20
-1.1
30
0
11
28.405148
21
-0.472121
31
0
39
0
210
0
220
0
230
1
0
LINE
5
85
100
AcDbEntity
8
1
62
256
6
ByLayer
370
18
48
1
60
0
100
AcDbLine
10
28.405148
20
1.1
30
0
11
28.405148
21
1.064785
31
0
39
0
210
0
220
0
230
1
0
LINE
5
86
100
AcDbEntity
8
1
62
256
6
ByLayer
370
18
48
1
60
0
100
AcDbLine
10
0.1
20
-1.089386
30
0
11
0.1
21
1.089386
31
0
39
0
210
0
220
0
230
1
0
LINE
5
87
100
AcDbEntity
8
SK1
62
256
6
ByLayer
370
18
48
1
60
0
100
AcDbLine
10
-24
20
-0.8
30
0
11
-24
21
0.8
31
0
39
0
210
0
220
0
230
1
0
LINE
5
89
100
AcDbEntity
8
SK1
62
256
6
ByLayer
370
18
48
1
60
0
100
AcDbLine
10
0
20
1.1
30
0
11
0
21
-1.1
31
0
39
0
210
0
220
0
230
1
0
LINE
5
8A
100
AcDbEntity
8
SK1
62
256
6
ByLayer
370
18
48
1
60
0
100
AcDbLine
10
-23.7
20
-1.1
30
0
11
-23.7
21
1.1
31
0
39
0
210
0
220
0
230
1
0
LINE
5
8B
100
AcDbEntity
8
1
62
256
6
ByLayer
370
18
48
1
60
0
100
AcDbLine
10
29
20
0
30
0
11
28.405148
21
1.1
31
0
39
0
210
0
220
0
230
1
0
LINE
5
8C
100
AcDbEntity
8
1
62
256
6
ByLayer
370
18
48
1
60
0
100
AcDbLine
10
28.405148
20
-1.1
30
0
11
29
21
0
31
0
39
0
210
0
220
0
230
1
0
LINE
5
8D
100
AcDbEntity
8
1
62
256
6
ByLayer
370
18
48
1
60
0
100
AcDbLine
10
0.1
20
1.089386
30
0
11
0
21
1.1
31
0
39
0
210
0
220
0
230
1
0
LINE
5
8E
100
AcDbEntity
8
1
62
256
6
ByLayer
370
18
48
1
60
0
100
AcDbLine
10
0
20
-1.1
30
0
11
0.1
21
-1.089386
31
0
39
0
210
0
220
0
230
1
0
LINE
5
8F
100
AcDbEntity
8
1
62
256
6
ByLayer
370
18
48
1
60
0
100
AcDbLine
10
0.1
20
-1.089386
30
0
11
5.705896
21
-1.091488
31
0
39
0
210
0
220
0
230
1
0
LINE
5
90
100
AcDbEntity
8
1
62
256
6
ByLayer
370
18
48
1
60
0
100
AcDbLine
10
9.199682
20
-1.092798
30
0
11
11.939122
21
-1.093825
31
0
39
0
210
0
220
0
230
1
0
LINE
5
91
100
AcDbEntity
8
1
62
256
6
ByLayer
370
18
48
1
60
0
100
AcDbLine
10
15.436695
20
-1.095137
30
0
11
18.172348
21
-1.096163
31
0
39
0
210
0
220
0
230
1
0
LINE
5
92
100
AcDbEntity
8
1
62
256
6
ByLayer
370
18
48
1
60
0
100
AcDbLine
10
21.670717
20
-1.097475
30
0
11
24.408242
21
-1.098501
31
0
39
0
210
0
220
0
230
1
0
LINE
5
93
100
AcDbEntity
8
1
62
256
6
ByLayer
370
18
48
1
60
0
100
AcDbLine
10
27.900583
20
-1.099811
30
0
11
28.405148
21
-1.1
31
0
39
0
210
0
220
0
230
1
0
LINE
5
94
100
AcDbEntity
8
1
62
256
6
ByLayer
370
18
48
1
60
0
100
AcDbLine
10
28.405148
20
1.1
30
0
11
27.900583
21
1.099811
31
0
39
0
210
0
220
0
230
1
0
LINE
5
95
100
AcDbEntity
8
1
62
256
6
ByLayer
370
18
48
1
60
0
100
AcDbLine
10
24.408242
20
1.098501
30
0
11
21.670717
21
1.097475
31
0
39
0
210
0
220
0
230
1
0
LINE
5
96
100
AcDbEntity
8
1
62
256
6
ByLayer
370
18
48
1
60
0
100
AcDbLine
10
18.172348
20
1.096163
30
0
11
15.436695
21
1.095137
31
0
39
0
210
0
220
0
230
1
0
LINE
5
97
100
AcDbEntity
8
1
62
256
6
ByLayer
370
18
48
1
60
0
100
AcDbLine
10
11.939122
20
1.093825
30
0
11
9.199682
21
1.092798
31
0
39
0
210
0
220
0
230
1
0
LINE
5
98
100
AcDbEntity
8
1
62
256
6
ByLayer
370
18
48
1
60
0
100
AcDbLine
10
5.705896
20
1.091488
30
0
11
0.1
21
1.089386
31
0
39
0
210
0
220
0
230
1
0
LINE
5
99
100
AcDbEntity
8
SK1
62
256
6
ByLayer
370
18
48
1
60
0
100
AcDbLine
10
-24
20
-0.8
30
0
11
-23.7
21
-1.1
31
0
39
0
210
0
220
0
230
1
0
LINE
5
9A
100
AcDbEntity
8
SK1
62
256
6
ByLayer
370
18
48
1
60
0
100
AcDbLine
10
-23.7
20
1.1
30
0
11
-24
21
0.8
31
0
39
0
210
0
220
0
230
1
0
LINE
5
9B
100
AcDbEntity
8
SK1
62
256
6
ByLayer
370
18
48
1
60
0
100
AcDbLine
10
-23.7
20
-1.1
30
0
11
0
21
-1.1
31
0
39
0
210
0
220
0
230
1
0
LINE
5
9C
100
AcDbEntity
8
SK1
62
256
6
ByLayer
370
18
48
1
60
0
100
AcDbLine
10
0
20
1.1
30
0
11
-23.7
21
1.1
31
0
39
0
210
0
220
0
230
1
0
LINE
5
9D
100
AcDbEntity
8
SK2
62
256
6
ByLayer
370
13
48
1
60
0
100
AcDbLine
10
-30.5
20
27.882741
30
0
11
-30.5
21
-8.6
31
0
39
0
210
0
220
0
230
1
0
LINE
5
9F
100
AcDbEntity
8
SK2
62
256
6
ByLayer
370
13
48
1
60
0
100
AcDbLine
10
-25.5875
20
1.1
30
0
11
-32.5
21
1.1
31
0
39
0
210
0
220
0
230
1
0
LINE
5
A0
100
AcDbEntity
8
SK2
62
256
6
ByLayer
370
13
48
1
60
0
100
AcDbLine
10
-25.5875
20
-1.1
30
0
11
-32.5
21
-1.1
31
0
39
0
210
0
220
0
230
1
0
LINE
5
A1
100
AcDbEntity
8
1
62
256
6
ByLayer
370
18
48
1
60
1
100
AcDbLine
10
-30.5
20
1.1
30
0
11
-30.960784
21
4.599998
31
0
39
0
210
0
220
0
230
1
0
LINE
5
A2
100
AcDbEntity
8
1
62
256
6
ByLayer
370
18
48
1
60
1
100
AcDbLine
10
-30.960784
20
4.599998
30
0
11
-30.039216
21
4.600002
31
0
39
0
210
0
220
0
230
1
0
LINE
5
A3
100
AcDbEntity
8
1
62
256
6
ByLayer
370
18
48
1
60
1
100
AcDbLine
10
-30.039216
20
4.600002
30
0
11
-30.5
21
1.1
31
0
39
0
210
0
220
0
230
1
0
LINE
5
A4
100
AcDbEntity
8
1
62
256
6
ByLayer
370
18
48
1
60
1
100
AcDbLine
10
-30.5
20
-1.1
30
0
11
-30.039216
21
-4.599998
31
0
39
0
210
0
220
0
230
1
0
LINE
5
A5
100
AcDbEntity
8
1
62
256
6
ByLayer
370
18
48
1
60
1
100
AcDbLine
10
-30.039216
20
-4.599998
30
0
11
-30.960784
21
-4.600002
31
0
39
0
210
0
220
0
230
1
0
LINE
5
A6
100
AcDbEntity
8
1
62
256
6
ByLayer
370
18
48
1
60
1
100
AcDbLine
10
-30.960784
20
-4.600002
30
0
11
-30.5
21
-1.1
31
0
39
0
210
0
220
0
230
1
0
LINE
5
A7
100
AcDbEntity
8
2
62
256
6
ByLayer
370
13
48
1
60
0
100
AcDbLine
10
37.905148
20
27.882741
30
0
11
37.905148
21
-8.6
31
0
39
0
210
0
220
0
230
1
0
LINE
5
A9
100
AcDbEntity
8
2
62
256
6
ByLayer
370
13
48
1
60
0
100
AcDbLine
10
29.992648
20
1.1
30
0
11
39.905148
21
1.1
31
0
39
0
210
0
220
0
230
1
0
LINE
5
AA
100
AcDbEntity
8
2
62
256
6
ByLayer
370
13
48
1
60
0
100
AcDbLine
10
29.992648
20
-1.1
30
0
11
39.905148
21
-1.1
31
0
39
0
210
0
220
0
230
1
0
LINE
5
AB
100
AcDbEntity
8
1
62
256
6
ByLayer
370
18
48
1
60
1
100
AcDbLine
10
37.905148
20
1.1
30
0
11
37.444364
21
4.599998
31
0
39
0
210
0
220
0
230
1
0
LINE
5
AC
100
AcDbEntity
8
1
62
256
6
ByLayer
370
18
48
1
60
1
100
AcDbLine
10
37.444364
20
4.599998
30
0
11
38.365932
21
4.600002
31
0
39
0
210
0
220
0
230
1
0
LINE
5
AD
100
AcDbEntity
8
1
62
256
6
ByLayer
370
18
48
1
60
1
100
AcDbLine
10
38.365932
20
4.600002
30
0
11
37.905148
21
1.1
31
0
39
0
210
0
220
0
230
1
0
LINE
5
AE
100
AcDbEntity
8
1
62
256
6
ByLayer
370
18
48
1
60
1
100
AcDbLine
10
37.905148
20
-1.1
30
0
11
38.365932
21
-4.599998
31
0
39
0
210
0
220
0
230
1
0
LINE
5
AF
100
AcDbEntity
8
1
62
256
6
ByLayer
370
18
48
1
60
1
100
AcDbLine
10
38.365932
20
-4.599998
30
0
11
37.444364
21
-4.600002
31
0
39
0
210
0
220
0
230
1
0
LINE
5
B0
100
AcDbEntity
8
1
62
256
6
ByLayer
370
18
48
1
60
1
100
AcDbLine
10
37.444364
20
-4.600002
30
0
11
37.905148
21
-1.1
31
0
39
0
210
0
220
0
230
1
0
LINE
5
B1
100
AcDbEntity
8
2
62
256
6
ByLayer
370
13
48
1
60
0
100
AcDbLine
10
29.755136
20
-1.396397
30
0
11
40.416232
21
-21.110889
31
0
39
0
210
0
220
0
230
1
0
LINE
5
B2
100
AcDbEntity
8
2
62
256
6
ByLayer
370
13
48
1
60
0
100
AcDbLine
10
29.755136
20
1.396397
30
0
11
40.416232
21
21.110889
31
0
39
0
210
0
220
0
230
1
0
LINE
5
B3
100
AcDbEntity
8
1
62
256
6
ByLayer
370
18
48
1
60
1
100
AcDbLine
10
39.464879
20
-19.351649
30
0
11
42.239971
21
-17.169637
31
0
39
0
210
0
220
0
230
1
0
LINE
5
B4
100
AcDbEntity
8
1
62
256
6
ByLayer
370
18
48
1
60
1
100
AcDbLine
10
42.239971
20
-17.169637
30
0
11
42.710161
21
-17.962233
31
0
39
0
210
0
220
0
230
1
0
LINE
5
B5
100
AcDbEntity
8
1
62
256
6
ByLayer
370
18
48
1
60
1
100
AcDbLine
10
42.710161
20
-17.962233
30
0
11
39.464879
21
-19.351649
31
0
39
0
210
0
220
0
230
1
0
LINE
5
B6
100
AcDbEntity
8
1
62
256
6
ByLayer
370
18
48
1
60
1
100
AcDbLine
10
39.464879
20
19.351649
30
0
11
42.710158
21
17.962234
31
0
39
0
210
0
220
0
230
1
0
LINE
5
B7
100
AcDbEntity
8
1
62
256
6
ByLayer
370
18
48
1
60
1
100
AcDbLine
10
42.710158
20
17.962234
30
0
11
42.239974
21
17.169635
31
0
39
0
210
0
220
0
230
1
0
LINE
5
B8
100
AcDbEntity
8
1
62
256
6
ByLayer
370
18
48
1
60
1
100
AcDbLine
10
42.239974
20
17.169635
30
0
11
39.464879
21
19.351649
31
0
39
0
210
0
220
0
230
1
0
LINE
5
D0
100
AcDbEntity
8
1
62
256
6
ByLayer
370
18
48
1
60
1
100
AcDbLine
10
-30.5
20
1.1
30
0
11
-30.960784
21
4.599998
31
0
39
0
210
0
220
0
230
1
0
LINE
5
D1
100
AcDbEntity
8
1
62
256
6
ByLayer
370
18
48
1
60
1
100
AcDbLine
10
-30.960784
20
4.599998
30
0
11
-30.039216
21
4.600002
31
0
39
0
210
0
220
0
230
1
0
LINE
5
D2
100
AcDbEntity
8
1
62
256
6
ByLayer
370
18
48
1
60
1
100
AcDbLine
10
-30.039216
20
4.600002
30
0
11
-30.5
21
1.1
31
0
39
0
210
0
220
0
230
1
0
LINE
5
D4
100
AcDbEntity
8
1
62
256
6
ByLayer
370
18
48
1
60
1
100
AcDbLine
10
-30.5
20
-1.1
30
0
11
-30.039216
21
-4.599998
31
0
39
0
210
0
220
0
230
1
0
LINE
5
D5
100
AcDbEntity
8
1
62
256
6
ByLayer
370
18
48
1
60
1
100
AcDbLine
10
-30.039216
20
-4.599998
30
0
11
-30.960784
21
-4.600002
31
0
39
0
210
0
220
0
230
1
0
LINE
5
D6
100
AcDbEntity
8
1
62
256
6
ByLayer
370
18
48
1
60
1
100
AcDbLine
10
-30.960784
20
-4.600002
30
0
11
-30.5
21
-1.1
31
0
39
0
210
0
220
0
230
1
0
LINE
5
DA
100
AcDbEntity
8
1
62
256
6
ByLayer
370
18
48
1
60
1
100
AcDbLine
10
37.905148
20
1.1
30
0
11
37.444364
21
4.599998
31
0
39
0
210
0
220
0
230
1
0
LINE
5
DB
100
AcDbEntity
8
1
62
256
6
ByLayer
370
18
48
1
60
1
100
AcDbLine
10
37.444364
20
4.599998
30
0
11
38.365932
21
4.600002
31
0
39
0
210
0
220
0
230
1
0
LINE
5
DC
100
AcDbEntity
8
1
62
256
6
ByLayer
370
18
48
1
60
1
100
AcDbLine
10
38.365932
20
4.600002
30
0
11
37.905148
21
1.1
31
0
39
0
210
0
220
0
230
1
0
LINE
5
DE
100
AcDbEntity
8
1
62
256
6
ByLayer
370
18
48
1
60
1
100
AcDbLine
10
37.905148
20
-1.1
30
0
11
38.365932
21
-4.599998
31
0
39
0
210
0
220
0
230
1
0
LINE
5
DF
100
AcDbEntity
8
1
62
256
6
ByLayer
370
18
48
1
60
1
100
AcDbLine
10
38.365932
20
-4.599998
30
0
11
37.444364
21
-4.600002
31
0
39
0
210
0
220
0
230
1
0
LINE
5
E0
100
AcDbEntity
8
1
62
256
6
ByLayer
370
18
48
1
60
1
100
AcDbLine
10
37.444364
20
-4.600002
30
0
11
37.905148
21
-1.1
31
0
39
0
210
0
220
0
230
1
0
LINE
5
E3
100
AcDbEntity
8
1
62
256
6
ByLayer
370
18
48
1
60
1
100
AcDbLine
10
39.464879
20
-19.351649
30
0
11
42.239971
21
-17.169637
31
0
39
0
210
0
220
0
230
1
0
LINE
5
E4
100
AcDbEntity
8
1
62
256
6
ByLayer
370
18
48
1
60
1
100
AcDbLine
10
42.239971
20
-17.169637
30
0
11
42.710161
21
-17.962233
31
0
39
0
210
0
220
0
230
1
0
LINE
5
E5
100
AcDbEntity
8
1
62
256
6
ByLayer
370
18
48
1
60
1
100
AcDbLine
10
42.710161
20
-17.962233
30
0
11
39.464879
21
-19.351649
31
0
39
0
210
0
220
0
230
1
0
LINE
5
E7
100
AcDbEntity
8
1
62
256
6
ByLayer
370
18
48
1
60
1
100
AcDbLine
10
39.464879
20
19.351649
30
0
11
42.710158
21
17.962234
31
0
39
0
210
0
220
0
230
1
0
LINE
5
E8
100
AcDbEntity
8
1
62
256
6
ByLayer
370
18
48
1
60
1
100
AcDbLine
10
42.710158
20
17.962234
30
0
11
42.239974
21
17.169635
31
0
39
0
210
0
220
0
230
1
0
LINE
5
E9
100
AcDbEntity
8
1
62
256
6
ByLayer
370
18
48
1
60
1
100
AcDbLine
10
42.239974
20
17.169635
30
0
11
39.464879
21
19.351649
31
0
39
0
210
0
220
0
230
1
0
MTEXT
5
CC
100
AcDbEntity
8
SK2
62
256
6
ByLayer
370
18
48
1
60
0
100
AcDbMText
10
-31.841114
20
12.758437
30
0
210
0
220
0
230
1
1
%%c
40
3
41
0
44
1.084337
50
90
71
7
72
5
7
iso_b_vert
0
MTEXT
5
CF
100
AcDbEntity
8
SK2
62
256
6
ByLayer
370
18
48
1
60
0
100
AcDbMText
10
-31.841114
20
18.735
30
0
210
0
220
0
230
1
1
\W0.7468;2.200
40
3
41
0
44
1.084337
50
90
71
7
72
5
7
iso_b_vert
0
MTEXT
5
D8
100
AcDbEntity
8
2
62
256
6
ByLayer
370
18
48
1
60
0
100
AcDbMText
10
36.564034
20
12.758437
30
0
210
0
220
0
230
1
1
%%c
40
3
41
0
44
1.084337
50
90
71
7
72
5
7
iso_b_vert
0
MTEXT
5
D9
100
AcDbEntity
8
2
62
256
6
ByLayer
370
18
48
1
60
0
100
AcDbMText
10
36.564034
20
18.735
30
0
210
0
220
0
230
1
1
\W0.7468;2.200
40
3
41
0
44
1.084337
50
90
71
7
72
5
7
iso_b_vert
0
MTEXT
5
E2
100
AcDbEntity
8
2
62
256
6
ByLayer
370
18
48
1
60
0
100
AcDbMText
10
48.092229
20
-2.114886
30
0
210
0
220
0
230
1
1
\W0.6008;118%%d
40
3
41
0
44
1.084337
50
0
71
7
72
5
7
iso_b_vert
0
MTEXT
5
EB
100
AcDbEntity
8
SK6
62
256
6
ByLayer
370
18
48
1
60
0
100
AcDbMText
10
-4.382141
20
-67.114886
30
0
210
0
220
0
230
1
1
\W0.7690;R0032.2
40
3
41
0
44
1.084337
50
0
71
7
72
5
7
iso_b_vert
0
HATCH
5
D3
100
AcDbEntity
8
SK2
62
256
6
ByLayer
370
13
48
1
60
0
100
AcDbHatch
10
0
20
0
30
0
210
0
220
0
230
1
2
ANSI31
70
0
71
0
91
1
92
5
93
3
72
1
10
-30.5
20
1.09999999999999
11
-30.9607837415528
21
4.59999830744681
72
1
10
-30.9607837415528
20
4.59999830744681
11
-30.0392162584472
21
4.60000169255318
72
1
10
-30.0392162584472
20
4.60000169255318
11
-30.5
21
1.09999999999999
97
0
75
0
76
1
52
0
41
0.0062
77
0
78
1
53
45
43
0
44
0
45
-0.0139193969876572
46
0.0139193969876572
79
0
47
0
98
1
10
0
20
0
0
HATCH
5
D7
100
AcDbEntity
8
SK2
62
256
6
ByLayer
370
13
48
1
60
0
100
AcDbHatch
10
0
20
0
30
0
210
0
220
0
230
1
2
ANSI31
70
0
71
0
91
1
92
5
93
3
72
1
10
-30.5
20
-1.09999999999999
11
-30.0392162584472
21
-4.59999830744681
72
1
10
-30.0392162584472
20
-4.59999830744681
11
-30.9607837415528
21
-4.60000169255318
72
1
10
-30.9607837415528
20
-4.60000169255318
11
-30.5
21
-1.09999999999999
97
0
75
0
76
1
52
0
41
0.0062
77
0
78
1
53
45
43
0
44
0
45
-0.0139193969876572
46
0.0139193969876572
79
0
47
0
98
1
10
0
20
0
0
HATCH
5
DD
100
AcDbEntity
8
2
62
256
6
ByLayer
370
13
48
1
60
0
100
AcDbHatch
10
0
20
0
30
0
210
0
220
0
230
1
2
ANSI31
70
0
71
0
91
1
92
5
93
3
72
1
10
37.9051479871627
20
1.09999999999999
11
37.4443642456099
21
4.59999830744681
72
1
10
37.4443642456099
20
4.59999830744681
11
38.3659317287155
21
4.60000169255318
72
1
10
38.3659317287155
20
4.60000169255318
11
37.9051479871627
21
1.09999999999999
97
0
75
0
76
1
52
0
41
0.0062
77
0
78
1
53
45
43
0
44
0
45
-0.0139193969876572
46
0.0139193969876572
79
0
47
0
98
1
10
0
20
0
0
HATCH
5
E1
100
AcDbEntity
8
2
62
256
6
ByLayer
370
13
48
1
60
0
100
AcDbHatch
10
0
20
0
30
0
210
0
220
0
230
1
2
ANSI31
70
0
71
0
91
1
92
5
93
3
72
1
10
37.9051479871627
20
-1.09999999999999
11
38.3659317287155
21
-4.59999830744681
72
1
10
38.3659317287155
20
-4.59999830744681
11
37.4443642456099
21
-4.60000169255318
72
1
10
37.4443642456099
20
-4.60000169255318
11
37.9051479871627
21
-1.09999999999999
97
0
75
0
76
1
52
0
41
0.0062
77
0
78
1
53
45
43
0
44
0
45
-0.0139193969876572
46
0.0139193969876572
79
0
47
0
98
1
10
0
20
0
0
HATCH
5
E6
100
AcDbEntity
8
2
62
256
6
ByLayer
370
13
48
1
60
0
100
AcDbHatch
10
0
20
0
30
0
210
0
220
0
230
1
2
ANSI31
70
0
71
0
91
1
92
5
93
3
72
1
10
39.4648791987521
20
-19.3516485952883
11
42.2399711078383
21
-17.1696369764526
72
1
10
42.2399711078383
20
-17.1696369764526
11
42.7101613929251
21
-17.9622325364571
72
1
10
42.7101613929251
20
-17.9622325364571
11
39.4648791987521
21
-19.3516485952883
97
0
75
0
76
1
52
0
41
0.0062
77
0
78
1
53
45
43
0
44
0
45
-0.0139193969876572
46
0.0139193969876572
79
0
47
0
98
1
10
0
20
0
0
HATCH
5
EA
100
AcDbEntity
8
2
62
256
6
ByLayer
370
13
48
1
60
0
100
AcDbHatch
10
0
20
0
30
0
210
0
220
0
230
1
2
ANSI31
70
0
71
0
91
1
92
5
93
3
72
1
10
39.4648791987521
20
19.3516485952883
11
42.7101584815527
21
17.9622342635518
72
1
10
42.7101584815527
20
17.9622342635518
11
42.2399740192107
21
17.1696352493579
72
1
10
42.2399740192107
20
17.1696352493579
11
39.4648791987521
21
19.3516485952883
97
0
75
0
76
1
52
0
41
0.0062
77
0
78
1
53
45
43
0
44
0
45
-0.0139193969876572
46
0.0139193969876572
79
0
47
0
98
1
10
0
20
0
0
DIMENSION
5
EE
100
AcDbEntity
8
SK2
62
256
6
ByLayer
370
18
48
1
60
0
100
AcDbDimension
2
_U0
10
29
20
-48.715508
30
0
11
2.5
21
-48.715508
31
0
70
32
71
1
72
1
41
1
210
0
220
0
230
1
3
Standard
100
AcDbAlignedDimension
13
-24
23
-1.1
33
0
14
29
24
0
34
0
50
0
100
AcDbRotatedDimension
1001
ACAD
1000
DSTYLE
1002
{
1070
   371
1070
    13
1070
   372
1070
    13
1070
     3
1000

1070
   170
1070
     0
1070
   144
1040
1.0
1070
   277
1070
     2
1070
   284
1070
     8
1070
   278
1070
    46
1070
   146
1040
1.166667
1070
   345
1005
16
1070
   347
1005
16
1070
   346
1005
16
1070
   344
1005
0
1070
   343
1005
0
1070
   172
1070
     1
1070
    76
1070
     0
1070
    75
1070
     0
1070
   282
1070
     0
1070
   281
1070
     0
1070
    71
1070
     0
1070
    74
1070
     0
1070
   279
1070
     0
1070
   173
1070
     1
1070
   340
1005
CD
1070
   271
1070
     2
1070
   272
1070
     3
1070
    77
1070
     1
1070
    73
1070
     1
1070
   171
1070
     3
1070
   274
1070
     4
1070
   177
1070
     2
1070
   176
1070
     2
1070
   178
1070
     2
1070
    78
1070
     8
1070
    48
1040
-0.1
1070
    41
1040
3.5
1070
   147
1040
1.5
1070
    42
1040
1.5875
1070
    44
1040
2.0
1070
   140
1040
3.0
1002
}
1001
ACAD_DSTYLE_DIM_LINETYPE
1070
   380
1005
16
1001
ACAD_DSTYLE_DIM_EXT1_LINETYPE
1070
   381
1005
16
1001
ACAD_DSTYLE_DIM_EXT2_LINETYPE
1070
   382
1005
16
0
DIMENSION
5
107
100
AcDbEntity
8
2
62
256
6
ByLayer
370
18
48
1
60
0
100
AcDbDimension
2
_U1
10
2
20
-38.715508
30
0
11
15.5
21
-38.715508
31
0
70
32
71
1
72
1
41
1
210
0
220
0
230
1
3
Standard
100
AcDbAlignedDimension
13
29
23
0
33
0
14
2
24
-1.1
34
0
50
0
100
AcDbRotatedDimension
1001
ACAD
1000
DSTYLE
1002
{
1070
   371
1070
    13
1070
   372
1070
    13
1070
     3
1000

1070
   170
1070
     0
1070
   144
1040
1.0
1070
   277
1070
     2
1070
   284
1070
     8
1070
   278
1070
    46
1070
   146
1040
1.166667
1070
   345
1005
16
1070
   347
1005
16
1070
   346
1005
16
1070
   344
1005
0
1070
   343
1005
0
1070
   172
1070
     1
1070
    76
1070
     0
1070
    75
1070
     0
1070
   282
1070
     0
1070
   281
1070
     0
1070
    71
1070
     0
1070
    74
1070
     0
1070
   279
1070
     0
1070
   173
1070
     1
1070
   340
1005
CD
1070
   271
1070
     2
1070
   272
1070
     3
1070
    77
1070
     1
1070
    73
1070
     1
1070
   171
1070
     3
1070
   274
1070
     4
1070
   177
1070
     2
1070
   176
1070
     2
1070
   178
1070
     2
1070
    78
1070
     8
1070
    48
1040
-0.1
1070
    41
1040
3.5
1070
   147
1040
1.5
1070
    42
1040
1.5875
1070
    44
1040
2.0
1070
   140
1040
3.0
1002
}
1001
ACAD_DSTYLE_DIM_LINETYPE
1070
   380
1005
16
1001
ACAD_DSTYLE_DIM_EXT1_LINETYPE
1070
   381
1005
16
1001
ACAD_DSTYLE_DIM_EXT2_LINETYPE
1070
   382
1005
16
0
DIMENSION
5
11F
100
AcDbEntity
8
SK2
62
256
6
ByLayer
370
18
48
1
60
0
100
AcDbDimension
2
_U2
10
0
20
-33.715508
30
0
11
-12
21
-33.715508
31
0
70
32
71
1
72
1
41
1
210
0
220
0
230
1
3
Standard
100
AcDbAlignedDimension
13
-24
23
-1.1
33
0
14
0
24
-1.1
34
0
50
0
100
AcDbRotatedDimension
1001
ACAD
1000
DSTYLE
1002
{
1070
   371
1070
    13
1070
   372
1070
    13
1070
     3
1000

1070
   170
1070
     0
1070
   144
1040
1.0
1070
   277
1070
     2
1070
   284
1070
     8
1070
   278
1070
    46
1070
   146
1040
1.166667
1070
   345
1005
16
1070
   347
1005
16
1070
   346
1005
16
1070
   344
1005
0
1070
   343
1005
0
1070
   172
1070
     1
1070
    76
1070
     0
1070
    75
1070
     0
1070
   282
1070
     0
1070
   281
1070
     0
1070
    71
1070
     0
1070
    74
1070
     0
1070
   279
1070
     0
1070
   173
1070
     1
1070
   340
1005
CD
1070
   271
1070
     2
1070
   272
1070
     3
1070
    77
1070
     1
1070
    73
1070
     1
1070
   171
1070
     3
1070
   274
1070
     4
1070
   177
1070
     2
1070
   176
1070
     2
1070
   178
1070
     2
1070
    78
1070
     8
1070
    48
1040
-0.1
1070
    41
1040
3.5
1070
   147
1040
1.5
1070
    42
1040
1.5875
1070
    44
1040
2.0
1070
   140
1040
3.0
1002
}
1001
ACAD_DSTYLE_DIM_LINETYPE
1070
   380
1005
16
1001
ACAD_DSTYLE_DIM_EXT1_LINETYPE
1070
   381
1005
16
1001
ACAD_DSTYLE_DIM_EXT2_LINETYPE
1070
   382
1005
16
0
DIMENSION
5
137
100
AcDbEntity
8
2
62
256
6
ByLayer
370
18
48
1
60
0
100
AcDbDimension
2
_U3
10
8.75
20
-31.715508
30
0
11
18.875
21
-31.715508
31
0
70
32
71
1
72
1
41
1
210
0
220
0
230
1
3
Standard
100
AcDbAlignedDimension
13
29
23
0
33
0
14
8.75
24
-1.1
34
0
50
0
100
AcDbRotatedDimension
1001
ACAD
1000
DSTYLE
1002
{
1070
   371
1070
    13
1070
   372
1070
    13
1070
     3
1000

1070
   170
1070
     0
1070
   144
1040
1.0
1070
   277
1070
     2
1070
   284
1070
     8
1070
   278
1070
    46
1070
   146
1040
1.166667
1070
   345
1005
16
1070
   347
1005
16
1070
   346
1005
16
1070
   344
1005
0
1070
   343
1005
0
1070
   172
1070
     1
1070
    76
1070
     0
1070
    75
1070
     0
1070
   282
1070
     0
1070
   281
1070
     0
1070
    71
1070
     0
1070
    74
1070
     0
1070
   279
1070
     0
1070
   173
1070
     1
1070
   340
1005
CD
1070
   271
1070
     2
1070
   272
1070
     3
1070
    77
1070
     1
1070
    73
1070
     1
1070
   171
1070
     3
1070
   274
1070
     4
1070
   177
1070
     2
1070
   176
1070
     2
1070
   178
1070
     2
1070
    78
1070
     8
1070
    48
1040
-0.1
1070
    41
1040
3.5
1070
   147
1040
1.5
1070
    42
1040
1.5875
1070
    44
1040
2.0
1070
   140
1040
3.0
1002
}
1001
ACAD_DSTYLE_DIM_LINETYPE
1070
   380
1005
16
1001
ACAD_DSTYLE_DIM_EXT1_LINETYPE
1070
   381
1005
16
1001
ACAD_DSTYLE_DIM_EXT2_LINETYPE
1070
   382
1005
16
0
ENDSEC
0
SECTION
2
OBJECTS
0
DICTIONARY
5
1c1
330
0
100
AcDbDictionary
280
0
281
1
3
ACAD_GROUP
350
1c2
3
ACAD_MLINESTYLE
350
1c3
0
DICTIONARY
5
1c2
330
0
100
AcDbDictionary
280
0
281
1
0
DICTIONARY
5
1c3
330
0
100
AcDbDictionary
280
0
281
1
3
Standard
350
18
0
MLINESTYLE
5
18
330
1c3
100
AcDbMlineStyle
2
Standard
70
0
3

62
256
51
90
52
90
71
2
49
-0.5
62
256
6
ByLayer
49
0.5
62
256
6
ByLayer
0
RASTERVARIABLES
5
1ad
330

100
AcDbRasterVariables
90
0
70
1
71
1
72
1
0
ENDSEC
0
EOF
