0
SECTION
2
HEADER
9
$ACADVER
1
AC1015
9
$DWGCODEPAGE
3
ANSI_1252
9
$HANDSEED
5
1d0
9
$ANGBASE
50
0
9
$ANGDIR
70
0
9
$ATTMODE
70
1
9
$AUNITS
70
0
9
$AUPREC
70
0
9
$CECOLOR
62
256
9
$CELTSCALE
40
1
9
$CELTYPE
6
ByLayer
9
$CELWEIGHT
370
18
9
$CLAYER
8
0
9
$CMLJUST
70
0
9
$CMLSCALE
40
1
9
$CMLSTYLE
2
Standard
9
$DIMSTYLE
2
Standard
9
$TEXTSIZE
40
0.2
9
$TEXTSTYLE
7
Standard
9
$LUNITS
70
2
9
$LUPREC
70
4
9
$EXTNAMES
290
1
9
$INSUNITS
70
4
9
$LTSCALE
40
1
9
$LWDISPLAY
290
1
9
$PDMODE
70
0
9
$PDSIZE
40
0
9
$PLINEGEN
70
0
0
ENDSEC
0
SECTION
2
CLASSES
0
CLASS
1
RASTERVARIABLES
2
AcDbRasterVariables
3
ISM
90
0
280
0
281
0
0
ENDSEC
0
SECTION
2
TABLES
0
TABLE
2
VPORT
5
1c6
100
AcDbSymbolTable
0
VPORT
5
1
100
AcDbSymbolTableRecord
100
AcDbViewportTableRecord
2
*Active
70
0
10
0
20
0
11
1
21
1
12
-1
22
1
13
0
23
0
14
0.5
24
0.5
15
10
25
10
16
0
26
0
36
1
17
0
27
0
37
0
0
ENDTAB
0
TABLE
2
LTYPE
5
1c7
100
AcDbSymbolTable
0
LTYPE
5
14
100
AcDbSymbolTableRecord
100
AcDbLinetypeTableRecord
70
0
2
ByBlock
3

72
65
73
0
40
0
0
LTYPE
5
15
100
AcDbSymbolTableRecord
100
AcDbLinetypeTableRecord
70
0
2
ByLayer
3

72
65
73
0
40
0
0
LTYPE
5
16
100
AcDbSymbolTableRecord
100
AcDbLinetypeTableRecord
70
0
2
Continuous
3
Solid line
72
65
73
0
40
0
0
LTYPE
5
6E
100
AcDbSymbolTableRecord
100
AcDbLinetypeTableRecord
70
0
2
CENTER
3
____ _ ____ _ ____ _ ____
72
65
73
4
40
47.5
49
22
74
0
49
-8.5
74
0
49
8.5
74
0
49
-8.5
74
0
0
LTYPE
5
6F
100
AcDbSymbolTableRecord
100
AcDbLinetypeTableRecord
70
0
2
DASHED
3
__ __ __ __ __ __ __ __ __
72
65
73
2
40
25.72
49
12.86
74
0
49
-12.86
74
0
0
ENDTAB
0
TABLE
2
LAYER
5
1c8
100
AcDbSymbolTable
0
LAYER
5
10
100
AcDbSymbolTableRecord
100
AcDbLayerTableRecord
2
0
70
0
62
7
6
Continuous
290
1
370
-3
390
0
0
LAYER
5
71
100
AcDbSymbolTableRecord
100
AcDbLayerTableRecord
2
81
70
0
62
-3
6
Continuous
290
1
370
-3
390
0
0
LAYER
5
73
100
AcDbSymbolTableRecord
100
AcDbLayerTableRecord
2
80
70
0
62
-6
6
Continuous
290
1
370
-3
390
0
0
LAYER
5
75
100
AcDbSymbolTableRecord
100
AcDbLayerTableRecord
2
1
70
0
62
4
6
Continuous
290
1
370
-3
390
0
0
LAYER
5
7F
100
AcDbSymbolTableRecord
100
AcDbLayerTableRecord
2
4
70
0
62
-2
6
CENTER
290
1
370
-3
390
0
0
LAYER
5
A8
100
AcDbSymbolTableRecord
100
AcDbLayerTableRecord
2
2
70
0
62
7
6
Continuous
290
1
370
-3
390
0
0
LAYER
5
F3
100
AcDbSymbolTableRecord
100
AcDbLayerTableRecord
2
Defpoints
70
0
62
7
6
Continuous
290
0
370
-3
390
0
0
LAYER
5
1b0
100
AcDbSymbolTableRecord
100
AcDbLayerTableRecord
2
SK4
70
0
62
2
6
CENTER
290
1
370
-3
390
0
0
LAYER
5
1b1
100
AcDbSymbolTableRecord
100
AcDbLayerTableRecord
2
SK1
70
0
62
4
6
Continuous
290
1
370
-3
390
0
0
LAYER
5
1b2
100
AcDbSymbolTableRecord
100
AcDbLayerTableRecord
2
SK2
70
0
62
7
6
Continuous
290
1
370
-3
390
0
0
LAYER
5
1b3
100
AcDbSymbolTableRecord
100
AcDbLayerTableRecord
2
CUT
70
0
62
-1
6
Continuous
290
1
370
-3
390
0
0
LAYER
5
1b4
100
AcDbSymbolTableRecord
100
AcDbLayerTableRecord
2
NOCUT
70
0
62
-7
6
Continuous
290
1
370
-3
390
0
0
LAYER
5
1b5
100
AcDbSymbolTableRecord
100
AcDbLayerTableRecord
2
SK6
70
0
62
5
6
Continuous
290
1
370
-3
390
0
0
ENDTAB
0
TABLE
2
STYLE
5
1c9
100
AcDbSymbolTable
0
STYLE
5
11
100
AcDbSymbolTableRecord
100
AcDbTextStyleTableRecord
2
Standard
3
txt
70
0
71
0
40
0
41
1
42
0
50
0
0
STYLE
5
CF
100
AcDbSymbolTableRecord
100
AcDbTextStyleTableRecord
2
iso_b_vert
3
simplex.shx
70
0
71
0
40
0
41
1
42
0
50
0
0
STYLE
5
D0
100
AcDbSymbolTableRecord
100
AcDbTextStyleTableRecord
2
DWGDirectTextStyle
3
simplex
70
0
71
0
40
0
41
1
42
0
50
0
0
ENDTAB
0
TABLE
2
DIMSTYLE
5
1ca
100
AcDbSymbolTable
100
AcDbDimStyleTable
0
DIMSTYLE
105
27
100
AcDbSymbolTableRecord
100
AcDbDimStyleTableRecord
2
Standard
70
0
3
<>
41
0.18
42
0.0625
44
0.18
140
0.18
147
0.09
73
0
74
0
77
1
271
2
275
0
278
52
280
0
340
11
0
ENDTAB
0
TABLE
2
VIEW
5
1cb
100
AcDbSymbolTable
0
ENDTAB
0
TABLE
2
UCS
5
1cc
100
AcDbSymbolTable
0
ENDTAB
0
TABLE
2
APPID
5
1cd
100
AcDbSymbolTable
0
APPID
5
12
100
AcDbSymbolTableRecord
100
AcDbRegAppTableRecord
2
ACAD
70
0
0
APPID
5
EF
100
AcDbSymbolTableRecord
100
AcDbRegAppTableRecord
2
ACAD_DSTYLE_DIMBREAK
70
0
0
APPID
5
16F
100
AcDbSymbolTableRecord
100
AcDbRegAppTableRecord
2
ACAD_DSTYLE_DIM_LINETYPE
70
0
0
APPID
5
170
100
AcDbSymbolTableRecord
100
AcDbRegAppTableRecord
2
ACAD_DSTYLE_DIM_EXT1_LINETYPE
70
0
0
APPID
5
171
100
AcDbSymbolTableRecord
100
AcDbRegAppTableRecord
2
ACAD_DSTYLE_DIM_EXT2_LINETYPE
70
0
0
APPID
5
1AC
100
AcDbSymbolTableRecord
100
AcDbRegAppTableRecord
2
ACAD_MLEADERVER
70
0
0
ENDTAB
0
TABLE
2
BLOCK_RECORD
5
1ce
100
AcDbSymbolTable
0
BLOCK_RECORD
5
1F
100
AcDbSymbolTableRecord
100
AcDbBlockTableRecord
2
*Model_Space
340
0
70
0
0
BLOCK_RECORD
5
1B
100
AcDbSymbolTableRecord
100
AcDbBlockTableRecord
2
*Paper_Space
340
0
70
0
0
BLOCK_RECORD
5
23
100
AcDbSymbolTableRecord
100
AcDbBlockTableRecord
2
*Paper_Space0
340
0
70
0
0
BLOCK_RECORD
5
F4
100
AcDbSymbolTableRecord
100
AcDbBlockTableRecord
2
*D1
340
0
70
0
0
BLOCK_RECORD
5
100
100
AcDbSymbolTableRecord
100
AcDbBlockTableRecord
2
_U0
340
0
70
0
0
BLOCK_RECORD
5
10C
100
AcDbSymbolTableRecord
100
AcDbBlockTableRecord
2
*D3
340
0
70
0
0
BLOCK_RECORD
5
118
100
AcDbSymbolTableRecord
100
AcDbBlockTableRecord
2
_U1
340
0
70
0
0
BLOCK_RECORD
5
124
100
AcDbSymbolTableRecord
100
AcDbBlockTableRecord
2
*D5
340
0
70
0
0
BLOCK_RECORD
5
130
100
AcDbSymbolTableRecord
100
AcDbBlockTableRecord
2
_U2
340
0
70
0
0
BLOCK_RECORD
5
13C
100
AcDbSymbolTableRecord
100
AcDbBlockTableRecord
2
*D7
340
0
70
0
0
BLOCK_RECORD
5
148
100
AcDbSymbolTableRecord
100
AcDbBlockTableRecord
2
_U3
340
0
70
0
0
ENDTAB
0
ENDSEC
0
SECTION
2
BLOCKS
0
BLOCK
5
20
100
AcDbEntity
8
0
100
AcDbBlockBegin
2
*Model_Space
70
0
10
0
20
0
30
0
3
*Model_Space
0
ENDBLK
5
21
100
AcDbEntity
8
0
100
AcDbBlockEnd
0
BLOCK
5
1C
100
AcDbEntity
8
0
100
AcDbBlockBegin
2
*Paper_Space
70
0
10
0
20
0
30
0
3
*Paper_Space
0
ENDBLK
5
1D
100
AcDbEntity
8
0
100
AcDbBlockEnd
0
BLOCK
5
24
100
AcDbEntity
8
0
100
AcDbBlockBegin
2
*Paper_Space0
70
0
10
0
20
0
30
0
3
*Paper_Space0
0
ENDBLK
5
25
100
AcDbEntity
8
0
100
AcDbBlockEnd
0
BLOCK
5
F5
100
AcDbEntity
8
0
100
AcDbBlockBegin
2
*D1
70
1
10
0
20
0
30
0
3
*D1
0
LINE
5
F7
100
AcDbEntity
8
0
62
256
6
ByLayer
370
-2
48
1
60
0
100
AcDbLine
10
-23
20
-2.5875
30
0
11
-23
21
-53.689034
31
0
39
0
210
0
220
0
230
1
0
LINE
5
F8
100
AcDbEntity
8
0
62
256
6
ByLayer
370
-2
48
1
60
0
100
AcDbLine
10
26
20
-1.5875
30
0
11
26
21
-53.689034
31
0
39
0
210
0
220
0
230
1
0
LINE
5
F9
100
AcDbEntity
8
0
62
256
6
ByLayer
370
-2
48
1
60
0
100
AcDbLine
10
-19.5
20
-51.689034
30
0
11
22.5
21
-51.689034
31
0
39
0
210
0
220
0
230
1
0
SOLID
5
FA
100
AcDbEntity
8
0
62
256
6
ByLayer
370
-1
48
1
60
0
100
AcDbTrace
10
-19.5
20
-51.105701
30
0
11
-19.5
21
-52.272368
31
0
12
-23
22
-51.689034
32
0
13
-23
23
-51.689034
33
0
39
0
210
0
220
0
230
1
0
SOLID
5
FB
100
AcDbEntity
8
0
62
256
6
ByLayer
370
-1
48
1
60
0
100
AcDbTrace
10
22.5
20
-52.272368
30
0
11
22.5
21
-51.105701
31
0
12
26
22
-51.689034
32
0
13
26
23
-51.689034
33
0
39
0
210
0
220
0
230
1
0
MTEXT
5
FC
100
AcDbEntity
8
0
62
256
6
ByLayer
370
18
48
1
60
0
100
AcDbMText
10
1.5
20
-45.689034
30
0
210
0
220
0
230
1
1
\A1;49
40
3
41
0
44
1
50
0
71
5
72
5
7
iso_b_vert
0
POINT
5
FD
100
AcDbEntity
8
Defpoints
62
0
6
ByLayer
370
-1
48
1
60
0
100
AcDbPoint
10
-23
20
-1
30
0
39
0
210
0
220
0
230
1
50
360
0
POINT
5
FE
100
AcDbEntity
8
Defpoints
62
0
6
ByLayer
370
-1
48
1
60
0
100
AcDbPoint
10
26
20
0
30
0
39
0
210
0
220
0
230
1
50
360
0
POINT
5
FF
100
AcDbEntity
8
Defpoints
62
0
6
ByLayer
370
-1
48
1
60
0
100
AcDbPoint
10
26
20
-51.689034
30
0
39
0
210
0
220
0
230
1
50
360
0
ENDBLK
5
F6
100
AcDbEntity
8
0
100
AcDbBlockEnd
0
BLOCK
5
107
100
AcDbEntity
8
0
100
AcDbBlockBegin
2
_U0
70
0
10
0
20
0
30
0
3
_U0
0
MTEXT
5
101
100
AcDbEntity
8
SK2
62
256
6
ByLayer
370
18
48
1
60
0
100
AcDbMText
10
-3.140313
20
-50.80392
30
0
210
0
220
0
230
1
1
\W0.7694;49.00
40
3
41
0
44
1.084337
50
0
71
7
72
5
7
iso_b_vert
0
LINE
5
102
100
AcDbEntity
8
SK2
62
256
6
ByLayer
370
13
48
1
60
0
100
AcDbLine
10
-23
20
-2.5875
30
0
11
-23
21
-53.689034
31
0
39
0
210
0
220
0
230
1
0
LINE
5
103
100
AcDbEntity
8
SK2
62
256
6
ByLayer
370
13
48
1
60
0
100
AcDbLine
10
26
20
-1.5875
30
0
11
26
21
-53.689034
31
0
39
0
210
0
220
0
230
1
0
LINE
5
104
100
AcDbEntity
8
SK2
62
256
6
ByLayer
370
13
48
1
60
0
100
AcDbLine
10
-23
20
-51.689034
30
0
11
26
21
-51.689034
31
0
39
0
210
0
220
0
230
1
0
SOLID
5
105
100
AcDbEntity
8
SK2
62
256
6
ByLayer
370
18
48
1
60
0
100
AcDbTrace
10
-23
20
-51.689034
30
0
11
-19.500002
21
-51.22825
31
0
12
-19.499998
22
-52.149818
32
0
13
-19.499998
23
-52.149818
33
0
39
0
210
0
220
0
230
1
0
SOLID
5
106
100
AcDbEntity
8
SK2
62
256
6
ByLayer
370
18
48
1
60
0
100
AcDbTrace
10
26
20
-51.689034
30
0
11
22.500002
21
-52.149818
31
0
12
22.499998
22
-51.22825
32
0
13
22.499998
23
-51.22825
33
0
39
0
210
0
220
0
230
1
0
ENDBLK
5
108
100
AcDbEntity
8
0
100
AcDbBlockEnd
0
BLOCK
5
10D
100
AcDbEntity
8
0
100
AcDbBlockBegin
2
*D3
70
1
10
0
20
0
30
0
3
*D3
0
LINE
5
10F
100
AcDbEntity
8
0
62
256
6
ByLayer
370
-2
48
1
60
0
100
AcDbLine
10
26
20
-1.5875
30
0
11
26
21
-43.689034
31
0
39
0
210
0
220
0
230
1
0
LINE
5
110
100
AcDbEntity
8
0
62
256
6
ByLayer
370
-2
48
1
60
0
100
AcDbLine
10
2
20
-2.5875
30
0
11
2
21
-43.689034
31
0
39
0
210
0
220
0
230
1
0
LINE
5
111
100
AcDbEntity
8
0
62
256
6
ByLayer
370
-2
48
1
60
0
100
AcDbLine
10
22.5
20
-41.689034
30
0
11
5.5
21
-41.689034
31
0
39
0
210
0
220
0
230
1
0
SOLID
5
112
100
AcDbEntity
8
0
62
256
6
ByLayer
370
-1
48
1
60
0
100
AcDbTrace
10
22.5
20
-42.272368
30
0
11
22.5
21
-41.105701
31
0
12
26
22
-41.689034
32
0
13
26
23
-41.689034
33
0
39
0
210
0
220
0
230
1
0
SOLID
5
113
100
AcDbEntity
8
0
62
256
6
ByLayer
370
-1
48
1
60
0
100
AcDbTrace
10
5.5
20
-41.105701
30
0
11
5.5
21
-42.272368
31
0
12
2
22
-41.689034
32
0
13
2
23
-41.689034
33
0
39
0
210
0
220
0
230
1
0
MTEXT
5
114
100
AcDbEntity
8
0
62
256
6
ByLayer
370
18
48
1
60
0
100
AcDbMText
10
14
20
-35.689034
30
0
210
0
220
0
230
1
1
\A1;24
40
3
41
0
44
1
50
0
71
5
72
5
7
iso_b_vert
0
POINT
5
115
100
AcDbEntity
8
Defpoints
62
0
6
ByLayer
370
-1
48
1
60
0
100
AcDbPoint
10
26
20
0
30
0
39
0
210
0
220
0
230
1
50
360
0
POINT
5
116
100
AcDbEntity
8
Defpoints
62
0
6
ByLayer
370
-1
48
1
60
0
100
AcDbPoint
10
2
20
-1
30
0
39
0
210
0
220
0
230
1
50
360
0
POINT
5
117
100
AcDbEntity
8
Defpoints
62
0
6
ByLayer
370
-1
48
1
60
0
100
AcDbPoint
10
2
20
-41.689034
30
0
39
0
210
0
220
0
230
1
50
360
0
ENDBLK
5
10E
100
AcDbEntity
8
0
100
AcDbBlockEnd
0
BLOCK
5
11F
100
AcDbEntity
8
0
100
AcDbBlockBegin
2
_U1
70
0
10
0
20
0
30
0
3
_U1
0
MTEXT
5
119
100
AcDbEntity
8
2
62
256
6
ByLayer
370
18
48
1
60
0
100
AcDbMText
10
9.359687
20
-40.80392
30
0
210
0
220
0
230
1
1
\W0.7694;24.00
40
3
41
0
44
1.084337
50
0
71
7
72
5
7
iso_b_vert
0
LINE
5
11A
100
AcDbEntity
8
2
62
256
6
ByLayer
370
13
48
1
60
0
100
AcDbLine
10
26
20
-1.5875
30
0
11
26
21
-43.689034
31
0
39
0
210
0
220
0
230
1
0
LINE
5
11B
100
AcDbEntity
8
2
62
256
6
ByLayer
370
13
48
1
60
0
100
AcDbLine
10
2
20
-2.5875
30
0
11
2
21
-43.689034
31
0
39
0
210
0
220
0
230
1
0
LINE
5
11C
100
AcDbEntity
8
2
62
256
6
ByLayer
370
13
48
1
60
0
100
AcDbLine
10
26
20
-41.689034
30
0
11
2
21
-41.689034
31
0
39
0
210
0
220
0
230
1
0
SOLID
5
11D
100
AcDbEntity
8
2
62
256
6
ByLayer
370
18
48
1
60
0
100
AcDbTrace
10
26
20
-41.689034
30
0
11
22.500002
21
-42.149818
31
0
12
22.499998
22
-41.22825
32
0
13
22.499998
23
-41.22825
33
0
39
0
210
0
220
0
230
1
0
SOLID
5
11E
100
AcDbEntity
8
2
62
256
6
ByLayer
370
18
48
1
60
0
100
AcDbTrace
10
2
20
-41.689034
30
0
11
5.499998
21
-41.22825
31
0
12
5.500002
22
-42.149818
32
0
13
5.500002
23
-42.149818
33
0
39
0
210
0
220
0
230
1
0
ENDBLK
5
120
100
AcDbEntity
8
0
100
AcDbBlockEnd
0
BLOCK
5
125
100
AcDbEntity
8
0
100
AcDbBlockBegin
2
*D5
70
1
10
0
20
0
30
0
3
*D5
0
LINE
5
127
100
AcDbEntity
8
0
62
256
6
ByLayer
370
-2
48
1
60
0
100
AcDbLine
10
-23
20
-2.5875
30
0
11
-23
21
-38.689034
31
0
39
0
210
0
220
0
230
1
0
LINE
5
128
100
AcDbEntity
8
0
62
256
6
ByLayer
370
-2
48
1
60
0
100
AcDbLine
10
0
20
-2.5875
30
0
11
0
21
-38.689034
31
0
39
0
210
0
220
0
230
1
0
LINE
5
129
100
AcDbEntity
8
0
62
256
6
ByLayer
370
-2
48
1
60
0
100
AcDbLine
10
-19.5
20
-36.689034
30
0
11
-3.5
21
-36.689034
31
0
39
0
210
0
220
0
230
1
0
SOLID
5
12A
100
AcDbEntity
8
0
62
256
6
ByLayer
370
-1
48
1
60
0
100
AcDbTrace
10
-19.5
20
-36.105701
30
0
11
-19.5
21
-37.272368
31
0
12
-23
22
-36.689034
32
0
13
-23
23
-36.689034
33
0
39
0
210
0
220
0
230
1
0
SOLID
5
12B
100
AcDbEntity
8
0
62
256
6
ByLayer
370
-1
48
1
60
0
100
AcDbTrace
10
-3.5
20
-37.272368
30
0
11
-3.5
21
-36.105701
31
0
12
0
22
-36.689034
32
0
13
0
23
-36.689034
33
0
39
0
210
0
220
0
230
1
0
MTEXT
5
12C
100
AcDbEntity
8
0
62
256
6
ByLayer
370
18
48
1
60
0
100
AcDbMText
10
-11.5
20
-30.689034
30
0
210
0
220
0
230
1
1
\A1;23
40
3
41
0
44
1
50
0
71
5
72
5
7
iso_b_vert
0
POINT
5
12D
100
AcDbEntity
8
Defpoints
62
0
6
ByLayer
370
-1
48
1
60
0
100
AcDbPoint
10
-23
20
-1
30
0
39
0
210
0
220
0
230
1
50
360
0
POINT
5
12E
100
AcDbEntity
8
Defpoints
62
0
6
ByLayer
370
-1
48
1
60
0
100
AcDbPoint
10
0
20
-1
30
0
39
0
210
0
220
0
230
1
50
360
0
POINT
5
12F
100
AcDbEntity
8
Defpoints
62
0
6
ByLayer
370
-1
48
1
60
0
100
AcDbPoint
10
0
20
-36.689034
30
0
39
0
210
0
220
0
230
1
50
360
0
ENDBLK
5
126
100
AcDbEntity
8
0
100
AcDbBlockEnd
0
BLOCK
5
137
100
AcDbEntity
8
0
100
AcDbBlockBegin
2
_U2
70
0
10
0
20
0
30
0
3
_U2
0
MTEXT
5
131
100
AcDbEntity
8
SK2
62
256
6
ByLayer
370
18
48
1
60
0
100
AcDbMText
10
-15.98237
20
-35.80392
30
0
210
0
220
0
230
1
1
\W0.7468;23.00
40
3
41
0
44
1.084337
50
0
71
7
72
5
7
iso_b_vert
0
LINE
5
132
100
AcDbEntity
8
SK2
62
256
6
ByLayer
370
13
48
1
60
0
100
AcDbLine
10
-23
20
-2.5875
30
0
11
-23
21
-38.689034
31
0
39
0
210
0
220
0
230
1
0
LINE
5
133
100
AcDbEntity
8
SK2
62
256
6
ByLayer
370
13
48
1
60
0
100
AcDbLine
10
0
20
-2.5875
30
0
11
0
21
-38.689034
31
0
39
0
210
0
220
0
230
1
0
LINE
5
134
100
AcDbEntity
8
SK2
62
256
6
ByLayer
370
13
48
1
60
0
100
AcDbLine
10
-23
20
-36.689034
30
0
11
0
21
-36.689034
31
0
39
0
210
0
220
0
230
1
0
SOLID
5
135
100
AcDbEntity
8
SK2
62
256
6
ByLayer
370
18
48
1
60
0
100
AcDbTrace
10
-23
20
-36.689034
30
0
11
-19.500002
21
-36.22825
31
0
12
-19.499998
22
-37.149818
32
0
13
-19.499998
23
-37.149818
33
0
39
0
210
0
220
0
230
1
0
SOLID
5
136
100
AcDbEntity
8
SK2
62
256
6
ByLayer
370
18
48
1
60
0
100
AcDbTrace
10
0
20
-36.689034
30
0
11
-3.499998
21
-37.149818
31
0
12
-3.500002
22
-36.22825
32
0
13
-3.500002
23
-36.22825
33
0
39
0
210
0
220
0
230
1
0
ENDBLK
5
138
100
AcDbEntity
8
0
100
AcDbBlockEnd
0
BLOCK
5
13D
100
AcDbEntity
8
0
100
AcDbBlockBegin
2
*D7
70
1
10
0
20
0
30
0
3
*D7
0
LINE
5
13F
100
AcDbEntity
8
0
62
256
6
ByLayer
370
-2
48
1
60
0
100
AcDbLine
10
26
20
-1.5875
30
0
11
26
21
-36.689034
31
0
39
0
210
0
220
0
230
1
0
LINE
5
140
100
AcDbEntity
8
0
62
256
6
ByLayer
370
-2
48
1
60
0
100
AcDbLine
10
8
20
-2.5875
30
0
11
8
21
-36.689034
31
0
39
0
210
0
220
0
230
1
0
LINE
5
141
100
AcDbEntity
8
0
62
256
6
ByLayer
370
-2
48
1
60
0
100
AcDbLine
10
22.5
20
-34.689034
30
0
11
11.5
21
-34.689034
31
0
39
0
210
0
220
0
230
1
0
SOLID
5
142
100
AcDbEntity
8
0
62
256
6
ByLayer
370
-1
48
1
60
0
100
AcDbTrace
10
22.5
20
-35.272368
30
0
11
22.5
21
-34.105701
31
0
12
26
22
-34.689034
32
0
13
26
23
-34.689034
33
0
39
0
210
0
220
0
230
1
0
SOLID
5
143
100
AcDbEntity
8
0
62
256
6
ByLayer
370
-1
48
1
60
0
100
AcDbTrace
10
11.5
20
-34.105701
30
0
11
11.5
21
-35.272368
31
0
12
8
22
-34.689034
32
0
13
8
23
-34.689034
33
0
39
0
210
0
220
0
230
1
0
MTEXT
5
144
100
AcDbEntity
8
0
62
256
6
ByLayer
370
18
48
1
60
0
100
AcDbMText
10
17
20
-28.689034
30
0
210
0
220
0
230
1
1
\A1;18
40
3
41
0
44
1
50
0
71
5
72
5
7
iso_b_vert
0
POINT
5
145
100
AcDbEntity
8
Defpoints
62
0
6
ByLayer
370
-1
48
1
60
0
100
AcDbPoint
10
26
20
0
30
0
39
0
210
0
220
0
230
1
50
360
0
POINT
5
146
100
AcDbEntity
8
Defpoints
62
0
6
ByLayer
370
-1
48
1
60
0
100
AcDbPoint
10
8
20
-1
30
0
39
0
210
0
220
0
230
1
50
360
0
POINT
5
147
100
AcDbEntity
8
Defpoints
62
0
6
ByLayer
370
-1
48
1
60
0
100
AcDbPoint
10
8
20
-34.689034
30
0
39
0
210
0
220
0
230
1
50
360
0
ENDBLK
5
13E
100
AcDbEntity
8
0
100
AcDbBlockEnd
0
BLOCK
5
14F
100
AcDbEntity
8
0
100
AcDbBlockBegin
2
_U3
70
0
10
0
20
0
30
0
3
_U3
0
MTEXT
5
149
100
AcDbEntity
8
2
62
256
6
ByLayer
370
18
48
1
60
0
100
AcDbMText
10
12.892572
20
-33.80392
30
0
210
0
220
0
230
1
1
\W0.6864;18.00
40
3
41
0
44
1.084337
50
0
71
7
72
5
7
iso_b_vert
0
LINE
5
14A
100
AcDbEntity
8
2
62
256
6
ByLayer
370
13
48
1
60
0
100
AcDbLine
10
26
20
-1.5875
30
0
11
26
21
-36.689034
31
0
39
0
210
0
220
0
230
1
0
LINE
5
14B
100
AcDbEntity
8
2
62
256
6
ByLayer
370
13
48
1
60
0
100
AcDbLine
10
8
20
-2.5875
30
0
11
8
21
-36.689034
31
0
39
0
210
0
220
0
230
1
0
LINE
5
14C
100
AcDbEntity
8
2
62
256
6
ByLayer
370
13
48
1
60
0
100
AcDbLine
10
26
20
-34.689034
30
0
11
8
21
-34.689034
31
0
39
0
210
0
220
0
230
1
0
SOLID
5
14D
100
AcDbEntity
8
2
62
256
6
ByLayer
370
18
48
1
60
0
100
AcDbTrace
10
26
20
-34.689034
30
0
11
22.500002
21
-35.149818
31
0
12
22.499998
22
-34.22825
32
0
13
22.499998
23
-34.22825
33
0
39
0
210
0
220
0
230
1
0
SOLID
5
14E
100
AcDbEntity
8
2
62
256
6
ByLayer
370
18
48
1
60
0
100
AcDbTrace
10
8
20
-34.689034
30
0
11
11.499998
21
-34.22825
31
0
12
11.500002
22
-35.149818
32
0
13
11.500002
23
-35.149818
33
0
39
0
210
0
220
0
230
1
0
ENDBLK
5
150
100
AcDbEntity
8
0
100
AcDbBlockEnd
0
ENDSEC
0
SECTION
2
ENTITIES
0
ARC
5
B9
100
AcDbEntity
8
2
62
256
6
ByLayer
370
13
48
1
60
0
100
AcDbCircle
39
0
10
26
20
0
30
0
40
22
210
0
220
0
230
1
100
AcDbArc
50
7.83748
51
61.596605
0
ARC
5
BA
100
AcDbEntity
8
2
62
256
6
ByLayer
370
13
48
1
60
0
100
AcDbCircle
39
0
10
26
20
0
30
0
40
22
210
0
220
0
230
1
100
AcDbArc
50
298.403395
51
352.16252
0
POINT
5
70
100
AcDbEntity
8
81
62
256
6
ByLayer
370
18
48
1
60
0
100
AcDbPoint
10
26
20
0
30
0
39
0
210
0
220
0
230
1
50
360
0
POINT
5
72
100
AcDbEntity
8
80
62
256
6
ByLayer
370
18
48
1
60
0
100
AcDbPoint
10
0
20
0
30
0
39
0
210
0
220
0
230
1
50
360
0
POINT
5
74
100
AcDbEntity
8
1
62
256
6
ByLayer
370
18
48
1
60
1
100
AcDbPoint
10
-23
20
-1
30
0
39
0
210
0
220
0
230
1
50
360
0
POINT
5
76
100
AcDbEntity
8
1
62
256
6
ByLayer
370
18
48
1
60
1
100
AcDbPoint
10
26
20
0
30
0
39
0
210
0
220
0
230
1
50
360
0
POINT
5
77
100
AcDbEntity
8
1
62
256
6
ByLayer
370
18
48
1
60
1
100
AcDbPoint
10
26
20
0
30
0
39
0
210
0
220
0
230
1
50
360
0
POINT
5
78
100
AcDbEntity
8
1
62
256
6
ByLayer
370
18
48
1
60
1
100
AcDbPoint
10
2
20
-1
30
0
39
0
210
0
220
0
230
1
50
360
0
POINT
5
79
100
AcDbEntity
8
1
62
256
6
ByLayer
370
18
48
1
60
1
100
AcDbPoint
10
-23
20
-1
30
0
39
0
210
0
220
0
230
1
50
360
0
POINT
5
7A
100
AcDbEntity
8
1
62
256
6
ByLayer
370
18
48
1
60
1
100
AcDbPoint
10
0
20
-1
30
0
39
0
210
0
220
0
230
1
50
360
0
POINT
5
7B
100
AcDbEntity
8
1
62
256
6
ByLayer
370
18
48
1
60
1
100
AcDbPoint
10
26
20
0
30
0
39
0
210
0
220
0
230
1
50
360
0
POINT
5
7C
100
AcDbEntity
8
1
62
256
6
ByLayer
370
18
48
1
60
1
100
AcDbPoint
10
8
20
-1
30
0
39
0
210
0
220
0
230
1
50
360
0
SPLINE
5
BB
100
AcDbEntity
8
CUT
62
256
6
ByLayer
370
18
48
1
60
0
100
AcDbSpline
70
2053
71
3
72
17
73
13
40
0
40
0
40
0
40
0
40
0.478856700808585
40
0.478856700808585
40
0.478856700808585
40
0.505285674456802
40
0.505285674456802
40
0.505285674456802
40
0.969756101237746
40
0.969756101237746
40
0.969756101237746
40
1
40
1
40
1
40
1
41
1
10
26
20
0
30
0
41
1
10
20
20
0
30
0
41
1
10
14
20
0
30
0
41
1
10
8
20
0
30
0
41
1
10
8
20
0.33115093017156
30
0
41
1
10
8
20
0.662301860343121
30
0
41
1
10
8.00000000000003
20
0.993452790514709
30
0
41
1
10
13.8197418142815
20
0.995635193695364
30
0
41
1
10
19.639483628563
20
0.997817596876047
30
0
41
1
10
25.4592254428445
20
1.00000000005673
30
0
41
1
10
25.639483628563
20
0.666666666704486
30
0
41
1
10
25.8197418142815
20
0.333333333352243
30
0
41
1
10
26
20
0
30
0
0
SPLINE
5
BD
100
AcDbEntity
8
NOCUT
62
256
6
ByLayer
370
18
48
1
60
0
100
AcDbSpline
70
2053
71
3
72
26
73
22
40
0
40
0
40
0
40
0
40
0.355698079539512
40
0.355698079539512
40
0.355698079539512
40
0.36234609339215
40
0.36234609339215
40
0.36234609339215
40
0.373314756636343
40
0.373314756636343
40
0.373314756636343
40
0.859069843234292
40
0.859069843234292
40
0.859069843234292
40
0.874636770533657
40
0.874636770533657
40
0.874636770533657
40
0.998425978724372
40
0.998425978724372
40
0.998425978724372
40
1
40
1
40
1
40
1
41
1
10
0
20
1
30
0
41
1
10
-7.56666666666666
20
1
30
0
41
1
10
-15.1333333333333
20
1
30
0
41
1
10
-22.7
20
1
30
0
41
1
10
-22.8
20
0.900000000000006
30
0
41
1
10
-22.9
20
0.800000000000011
30
0
41
1
10
-23
20
0.699999999999989
30
0
41
1
10
-23
20
0.466666666666669
30
0
41
1
10
-23
20
0.23333333333332
30
0
41
1
10
-23
20
0
30
0
41
1
10
-12.6666666666667
20
0
30
0
41
1
10
-2.33333333333329
20
0
30
0
41
1
10
8.00000000000003
20
0
30
0
41
1
10
8
20
0.33115093017156
30
0
41
1
10
8
20
0.662301860343121
30
0
41
1
10
8
20
0.993452790514709
30
0
41
1
10
5.36666666666665
20
0.992465290514559
30
0
41
1
10
2.73333333333329
20
0.991477790514409
30
0
41
1
10
0.100000000002552
20
0.990490290514032
30
0
41
1
10
0.0666666666701303
20
0.993660193675851
30
0
41
1
10
0.0333333333350652
20
0.996830096837925
30
0
41
1
10
0
20
1
30
0
0
SPLINE
5
BF
100
AcDbEntity
8
1
62
256
6
ByLayer
370
18
48
1
60
0
100
AcDbSpline
70
4
71
3
72
56
73
52
40
0
40
0
40
0
40
0
40
0.124999999999996
40
0.124999999999996
40
0.187499999999996
40
0.187499999999996
40
0.249999999999997
40
0.249999999999997
40
0.281249999999997
40
0.281249999999997
40
0.312499999999997
40
0.312499999999997
40
0.374999999999993
40
0.374999999999993
40
0.437499999999989
40
0.437499999999989
40
0.45312499999999
40
0.45312499999999
40
0.468749999999991
40
0.468749999999991
40
0.476562499999991
40
0.476562499999991
40
0.484374999999992
40
0.484374999999992
40
0.492187499999992
40
0.492187499999992
40
0.499999999999993
40
0.499999999999993
40
0.507812499999993
40
0.507812499999993
40
0.515624999999994
40
0.515624999999994
40
0.531249999999995
40
0.531249999999995
40
0.562499999999997
40
0.562499999999997
40
0.593749999999999
40
0.593749999999999
40
0.625000000000001
40
0.625000000000001
40
0.687500000000004
40
0.687500000000004
40
0.718750000000006
40
0.718750000000006
40
0.750000000000008
40
0.750000000000008
40
0.875000000000007
40
0.875000000000007
40
0.937500000000003
40
0.937500000000003
40
1
40
1
40
1
40
1
41
1
10
25.4592254428445
20
0.968580937603178
30
0
41
1
10
25.5006856543737
20
0.892638292124474
30
0
41
1
10
25.541887972316
20
0.816162307670737
30
0
41
1
10
25.6031434375179
20
0.700817905405358
30
0
41
1
10
25.6234690052106
20
0.662264736830025
30
0
41
1
10
25.6638458352091
20
0.584933863507189
30
0
41
1
10
25.6838961379632
20
0.546172219577755
30
0
41
1
10
25.7135996977518
20
0.487825935366885
30
0
41
1
10
25.7234319956769
20
0.468336828370411
30
0
41
1
10
25.7429527250729
20
0.429286693390168
30
0
41
1
10
25.7526448834265
20
0.409728949026402
30
0
41
1
10
25.7816082429633
20
0.351043415373283
30
0
41
1
10
25.8007861133588
20
0.311952625768441
30
0
41
1
10
25.8383665755878
20
0.233734900326311
30
0
41
1
10
25.8568466110023
20
0.194584470382836
30
0
41
1
10
25.8783856229133
20
0.145306123988462
30
0
41
1
10
25.8826107563753
20
0.13542821719966
30
0
41
1
10
25.8908318186606
20
0.115620341099685
30
0
41
1
10
25.8948348389734
20
0.105704112631429
30
0
41
1
10
25.9005529794698
20
0.0907384639481279
30
0
41
1
10
25.9024118833458
20
0.0857350797824949
30
0
41
1
10
25.9059188859766
20
0.0756045883207435
30
0
41
1
10
25.9075688571879
20
0.070456743018525
30
0
41
1
10
25.9103601232874
20
0.0600281584738696
30
0
41
1
10
25.9114969591523
20
0.0547344813070367
30
0
41
1
10
25.9130049060643
20
0.043912926847355
30
0
41
1
10
25.9133505256892
20
0.0384761033214716
30
0
41
1
10
25.9131875352552
20
0.0279998867481481
30
0
41
1
10
25.9126840281935
20
0.022880800024808
30
0
41
1
10
25.9110504072547
20
0.0128726697439561
30
0
41
1
10
25.9099552247068
20
0.0080898174837785
30
0
41
1
10
25.906247207289
20
-0.006022270424296
30
0
41
1
10
25.9032392939901
20
-0.0151508897096164
30
0
41
1
10
25.893372900346
20
-0.0422876623724164
30
0
41
1
10
25.8855520569553
20
-0.0599397556794941
30
0
41
1
10
25.8688288084836
20
-0.0940153938913681
30
0
41
1
10
25.8598983050626
20
-0.110502044749381
30
0
41
1
10
25.8414675929948
20
-0.142618125169918
30
0
41
1
10
25.8319596437595
20
-0.158247662802324
30
0
41
1
10
25.8029490789479
20
-0.204044886185443
30
0
41
1
10
25.7829768968204
20
-0.233126724761917
30
0
41
1
10
25.7526118541924
20
-0.274807712190665
30
0
41
1
10
25.7423923194034
20
-0.288401744418763
30
0
41
1
10
25.7219837552916
20
-0.314747489504242
30
0
41
1
10
25.7117865091306
20
-0.327511757149352
30
0
41
1
10
25.6608656839363
20
-0.389350818790632
30
0
41
1
10
25.6203770927526
20
-0.432521926174758
30
0
41
1
10
25.559816434055
20
-0.488134601565889
30
0
41
1
10
25.5396504226274
20
-0.50515439745962
30
0
41
1
10
25.4992777762295
20
-0.536199666326638
30
0
41
1
10
25.4791890925176
20
-0.550124328161615
30
0
41
1
10
25.4592254428445
20
-0.562419429167107
30
0
0
SPLINE
5
C0
100
AcDbEntity
8
1
62
256
6
ByLayer
370
18
48
1
60
0
100
AcDbSpline
70
4
71
3
72
56
73
52
40
0
40
0
40
0
40
0
40
0.0811359078262712
40
0.0811359078262712
40
0.121703861739407
40
0.121703861739407
40
0.162271815652542
40
0.162271815652542
40
0.24340772347881
40
0.24340772347881
40
0.283975677391943
40
0.283975677391943
40
0.324543631305077
40
0.324543631305077
40
0.36511158521821
40
0.36511158521821
40
0.405679539131344
40
0.405679539131344
40
0.446247493044477
40
0.446247493044477
40
0.486815446957611
40
0.486815446957611
40
0.527383400870744
40
0.527383400870744
40
0.547667377827309
40
0.547667377827309
40
0.567951354783874
40
0.567951354783874
40
0.608519308697003
40
0.608519308697003
40
0.649087262610132
40
0.649087262610132
40
0.689655216523262
40
0.689655216523262
40
0.709939193479827
40
0.709939193479827
40
0.730223170436391
40
0.730223170436391
40
0.770791124349525
40
0.770791124349525
40
0.811359078262658
40
0.811359078262658
40
0.892494986088925
40
0.892494986088925
40
0.91277896304549
40
0.91277896304549
40
0.933062940002055
40
0.933062940002055
40
0.97363089391518
40
0.97363089391518
40
1
40
1
40
1
40
1
41
1
10
25.4592254428446
20
-0.562419429167164
30
0
41
1
10
25.3525212528854
20
-0.513419097086029
30
0
41
1
10
25.2463928899217
20
-0.462120516650799
30
0
41
1
10
25.0877788449124
20
-0.382294306038432
30
0
41
1
10
25.0350004616337
20
-0.35521124241734
30
0
41
1
10
24.9296727619904
20
-0.300018495605713
30
0
41
1
10
24.8771621190381
20
-0.271838981491157
30
0
41
1
10
24.7196532085971
20
-0.186304930152119
30
0
41
1
10
24.6142487541106
20
-0.128738711498613
30
0
41
1
10
24.4556243392997
20
-0.0414722836693215
30
0
41
1
10
24.402639835353
20
-0.0122720858346099
30
0
41
1
10
24.2964274426199
20
0.0463148661609694
30
0
41
1
10
24.2431818359426
20
0.0757352898054364
30
0
41
1
10
24.1365977844088
20
0.13479819342848
30
0
41
1
10
24.0836126514666
20
0.164303195785436
30
0
41
1
10
23.9776511575286
20
0.222132350132284
30
0
41
1
10
23.9247313601413
20
0.250570610144422
30
0
41
1
10
23.8190508881931
20
0.306598135125938
30
0
41
1
10
23.766284533845
20
0.334175756348657
30
0
41
1
10
23.6608273398581
20
0.388345322179845
30
0
41
1
10
23.6081323455828
20
0.414931325587077
30
0
41
1
10
23.5028432483921
20
0.467156566048999
30
0
41
1
10
23.4502639361331
20
0.492819099434087
30
0
41
1
10
23.3714406935802
20
0.530527509540889
30
0
41
1
10
23.3451599598286
20
0.54294345649825
30
0
41
1
10
23.2924935332306
20
0.567325943666816
30
0
41
1
10
23.2661174029497
20
0.579307905335099
30
0
41
1
10
23.1868800140261
20
0.614660145690493
30
0
41
1
10
23.1339170690529
20
0.637448056506457
30
0
41
1
10
23.0276911576436
20
0.681423405454098
30
0
41
1
10
22.974390940159
20
0.702611506228749
30
0
41
1
10
22.8675431397134
20
0.743218529857671
30
0
41
1
10
22.8143196994744
20
0.762528922847451
30
0
41
1
10
22.7348150120915
20
0.790043178609324
30
0
41
1
10
22.7083696546911
20
0.798973129965702
30
0
41
1
10
22.655576901126
20
0.816328298443523
30
0
41
1
10
22.6292297568818
20
0.824752485691732
30
0
41
1
10
22.5501608831458
20
0.849086955360775
30
0
41
1
10
22.4974356673274
20
0.864093692761315
30
0
41
1
10
22.3920360789821
20
0.891821781232238
30
0
41
1
10
22.3393571357497
20
0.904535544506501
30
0
41
1
10
22.1812930835282
20
0.939182028817839
30
0
41
1
10
22.0758371561743
20
0.957628963564815
30
0
41
1
10
21.9440116651238
20
0.974693716996939
30
0
41
1
10
21.9176495278043
20
0.977804374812621
30
0
41
1
10
21.8648299606148
20
0.983374822283906
30
0
41
1
10
21.8383627143601
20
0.985832461249856
30
0
41
1
10
21.7587960849033
20
0.992234484365611
30
0
41
1
10
21.705515635088
20
0.995214910305776
30
0
41
1
10
21.6173777341447
20
0.997993791984101
30
0
41
1
10
21.5827303964941
20
0.99853605705448
30
0
41
1
10
21.5481464350931
20
0.998533303419947
30
0
0
SPLINE
5
C1
100
AcDbEntity
8
1
62
256
6
ByLayer
370
18
48
1
60
0
100
AcDbSpline
70
4
71
3
72
112
73
108
40
0
40
0
40
0
40
0
40
0.0111674755800352
40
0.0111674755800352
40
0.0326432944750343
40
0.0326432944750343
40
0.0433812039225337
40
0.0433812039225337
40
0.0541191133700331
40
0.0541191133700331
40
0.0970707511600311
40
0.0970707511600311
40
0.11854657005503
40
0.11854657005503
40
0.140022388950029
40
0.140022388950029
40
0.161498207845028
40
0.161498207845028
40
0.182974026740027
40
0.182974026740027
40
0.204449845635026
40
0.204449845635026
40
0.215187755082525
40
0.215187755082525
40
0.225925664530023
40
0.225925664530023
40
0.268877302320019
40
0.268877302320019
40
0.290353121215017
40
0.290353121215017
40
0.301091030662515
40
0.301091030662515
40
0.311828940110013
40
0.311828940110013
40
0.333304759005011
40
0.333304759005011
40
0.354780577900009
40
0.354780577900009
40
0.376256396795007
40
0.376256396795007
40
0.386994306242506
40
0.386994306242506
40
0.397732215690005
40
0.397732215690005
40
0.419208034585002
40
0.419208034585002
40
0.440683853480001
40
0.440683853480001
40
0.462159672374998
40
0.462159672374998
40
0.483635491269996
40
0.483635491269996
40
0.505111310164994
40
0.505111310164994
40
0.526587129059992
40
0.526587129059992
40
0.54806294795499
40
0.54806294795499
40
0.558800857402489
40
0.558800857402489
40
0.569538766849988
40
0.569538766849988
40
0.591014585744986
40
0.591014585744986
40
0.612490404639984
40
0.612490404639984
40
0.633966223534982
40
0.633966223534982
40
0.65544204242998
40
0.65544204242998
40
0.698393680219976
40
0.698393680219976
40
0.709131589667473
40
0.709131589667473
40
0.71986949911497
40
0.71986949911497
40
0.730607408562468
40
0.730607408562468
40
0.741345318009965
40
0.741345318009965
40
0.762821136904962
40
0.762821136904962
40
0.784296955799959
40
0.784296955799959
40
0.795034865247456
40
0.795034865247456
40
0.805772774694953
40
0.805772774694953
40
0.827248593589948
40
0.827248593589948
40
0.870200231379939
40
0.870200231379939
40
0.891676050274936
40
0.891676050274936
40
0.902413959722433
40
0.902413959722433
40
0.913151869169931
40
0.913151869169931
40
0.934627688064927
40
0.934627688064927
40
0.956103506959923
40
0.956103506959923
40
0.977579325854919
40
0.977579325854919
40
0.999055144749915
40
0.999055144749915
40
1
40
1
40
1
40
1
41
1
10
17.6053462427235
20
-0.574409482626692
30
0
41
1
10
17.5779402054827
20
-0.586860619246579
30
0
41
1
10
17.5505306730654
20
-0.599147119039486
30
0
41
1
10
17.4703559286173
20
-0.634504074210469
30
0
41
1
10
17.4174099337474
20
-0.656869284491933
30
0
41
1
10
17.3376915965462
20
-0.68908541832775
30
0
41
1
10
17.3110723028418
20
-0.699606711884712
30
0
41
1
10
17.2577381854423
20
-0.720209751320226
30
0
41
1
10
17.2309922813319
20
-0.73030266653646
30
0
41
1
10
17.0975194419959
20
-0.7794470086736
30
0
41
1
10
16.9913594542883
20
-0.814548488553442
30
0
41
1
10
16.8331331976334
20
-0.861034253710301
30
0
41
1
10
16.7806040159106
20
-0.875521251272687
30
0
41
1
10
16.6753641271467
20
-0.901941271522304
30
0
41
1
10
16.6226962767823
20
-0.913926898105075
30
0
41
1
10
16.5173184988878
20
-0.93553876190802
30
0
41
1
10
16.4646029448444
20
-0.945158021542284
30
0
41
1
10
16.3590494667252
20
-0.961983713716677
30
0
41
1
10
16.3062056296141
20
-0.969189418828847
30
0
41
1
10
16.2004094691499
20
-0.981162016782633
30
0
41
1
10
16.147469141985
20
-0.985932047104825
30
0
41
1
10
16.0679597555324
20
-0.991173598771269
30
0
41
1
10
16.041432069225
20
-0.992598309815719
30
0
41
1
10
15.9882212545818
20
-0.994781993156181
30
0
41
1
10
15.9615145567834
20
-0.995544085594815
30
0
41
1
10
15.8281421497946
20
-0.997710292581417
30
0
41
1
10
15.7220190502091
20
-0.994217086416796
30
0
41
1
10
15.5633866953323
20
-0.981492537277916
30
0
41
1
10
15.5106044373082
20
-0.976001391140045
30
0
41
1
10
15.4316059046224
20
-0.965861416438941
30
0
41
1
10
15.405303452443
20
-0.962162818904261
30
0
41
1
10
15.3527475268597
20
-0.954125353052035
30
0
41
1
10
15.3264985022128
20
-0.949782891888475
30
0
41
1
10
15.2476654882253
20
-0.935879483277887
30
0
41
1
10
15.1949914419506
20
-0.925454874589946
30
0
41
1
10
15.0894927010046
20
-0.902290103968795
30
0
41
1
10
15.0366641658542
20
-0.889549120318804
30
0
41
1
10
14.9307934050403
20
-0.861789017687073
30
0
41
1
10
14.8777411786463
20
-0.846780368814535
30
0
41
1
10
14.7979841555553
20
-0.822547112979379
30
0
41
1
10
14.7713704435544
20
-0.814180402238691
30
0
41
1
10
14.7180897180653
20
-0.796853599902789
30
0
41
1
10
14.6913922121905
20
-0.78788079321194
30
0
41
1
10
14.6114786166144
20
-0.76014832486797
30
0
41
1
10
14.5584669223551
20
-0.740588218481179
30
0
41
1
10
14.452434341993
20
-0.700051020590536
30
0
41
1
10
14.3994879060529
20
-0.678984275842851
30
0
41
1
10
14.2937494161527
20
-0.635271489637432
30
0
41
1
10
14.2409518918513
20
-0.612631788224462
30
0
41
1
10
14.1354294093366
20
-0.565902830846369
30
0
41
1
10
14.0827040749602
20
-0.541815698099043
30
0
41
1
10
13.9773654341565
20
-0.492121701785265
30
0
41
1
10
13.924779315523
20
-0.466468758545204
30
0
41
1
10
13.8195916573035
20
-0.413806348915955
30
0
41
1
10
13.7668561592402
20
-0.387022261923789
30
0
41
1
10
13.6610695852693
20
-0.332629642609504
30
0
41
1
10
13.6080411221944
20
-0.30498139575252
30
0
41
1
10
13.5282669274424
20
-0.262876720653679
30
0
41
1
10
13.5016357928818
20
-0.248738387277143
30
0
41
1
10
13.4482843639089
20
-0.220270377518318
30
0
41
1
10
13.4215334770101
20
-0.205924299989988
30
0
41
1
10
13.3413933347763
20
-0.162727026012959
30
0
41
1
10
13.2881707259131
20
-0.133737951464383
30
0
41
1
10
13.1821698386838
20
-0.0753103981328991
30
0
41
1
10
13.129434808737
20
-0.0457924282281965
30
0
41
1
10
13.0238980203117
20
0.0127286626254772
30
0
41
1
10
12.9711284560978
20
0.0417948516929698
30
0
41
1
10
12.8656436143554
20
0.0996541266002566
30
0
41
1
10
12.8129231049695
20
0.12843701566689
30
0
41
1
10
12.6547273423102
20
0.214165290844733
30
0
41
1
10
12.5492072498696
20
0.270477295985273
30
0
41
1
10
12.4172992695803
20
0.339885861571417
30
0
41
1
10
12.3909106491141
20
0.353706056113282
30
0
41
1
10
12.3380052195268
20
0.381021103509568
30
0
41
1
10
12.3114948783734
20
0.394527641798391
30
0
41
1
10
12.2583715785329
20
0.421261784900452
30
0
41
1
10
12.2317598823429
20
0.43449158280248
30
0
41
1
10
12.1784391118918
20
0.460681216753244
30
0
41
1
10
12.1517003521373
20
0.473654313463669
30
0
41
1
10
12.0715539674454
20
0.512043130025148
30
0
41
1
10
12.0182923086878
20
0.536886783226265
30
0
41
1
10
11.912042407446
20
0.58501104740472
30
0
41
1
10
11.8590592665096
20
0.608301842486583
30
0
41
1
10
11.7798288269731
20
0.64212445040755
30
0
41
1
10
11.7534606468798
20
0.653214194497764
30
0
41
1
10
11.700798198106
20
0.675005107509719
30
0
41
1
10
11.674509299545
20
0.685712701438405
30
0
41
1
10
11.5956042550793
20
0.71704890667317
30
0
41
1
10
11.5429303927905
20
0.736873004406078
30
0
41
1
10
11.3848250672509
20
0.793387678775503
30
0
41
1
10
11.2792871601015
20
0.827093613127005
30
0
41
1
10
11.1205120438504
20
0.871362859891065
30
0
41
1
10
11.0675275194602
20
0.885087329254958
30
0
41
1
10
10.9879672434822
20
0.904072862954251
30
0
41
1
10
10.9614377286527
20
0.910136838107661
30
0
41
1
10
10.9082776303478
20
0.921661642989278
30
0
41
1
10
10.8816074532039
20
0.927116643558577
30
0
41
1
10
10.8015560758443
20
0.942503822784516
30
0
41
1
10
10.7483076529371
20
0.951452005828173
30
0
41
1
10
10.6420642471795
20
0.966828429442785
30
0
41
1
10
10.5890635675234
20
0.973250866219985
30
0
41
1
10
10.4832301701723
20
0.983576688762923
30
0
41
1
10
10.4303964237131
20
0.987482717798969
30
0
41
1
10
10.3249339400272
20
0.992783611125958
30
0
41
1
10
10.2723297343251
20
0.994177408298697
30
0
41
1
10
10.2174626990152
20
0.994281336012875
30
0
41
1
10
10.2151503026641
20
0.994283229668099
30
0
41
1
10
10.2128377242013
20
0.994282638585673
30
0
0
SPLINE
5
C2
100
AcDbEntity
8
1
62
256
6
ByLayer
370
18
48
1
60
0
100
AcDbSpline
70
4
71
3
72
20
73
16
40
0
40
0
40
0
40
0
40
0.165275220852255
40
0.165275220852255
40
0.304396017376881
40
0.304396017376881
40
0.443516813901504
40
0.443516813901504
40
0.58263761042613
40
0.58263761042613
40
0.721758406950753
40
0.721758406950753
40
0.860879203475379
40
0.860879203475379
40
1
40
1
40
1
40
1
41
1
10
6.27332794000176
20
-0.571140640149764
30
0
41
1
10
6.21013767919237
20
-0.599447290065598
30
0
41
1
10
6.14713159424878
20
-0.626582762980121
30
0
41
1
10
6.03134797937341
20
-0.674339910251206
30
0
41
1
10
5.97854459127325
20
-0.695332671242454
30
0
41
1
10
5.87318566380378
20
-0.735650883400524
30
0
41
1
10
5.82067139499927
20
-0.755017815777478
30
0
41
1
10
5.71543111680234
20
-0.791498524039838
30
0
41
1
10
5.66271939573784
20
-0.808641840401265
30
0
41
1
10
5.55718123714956
20
-0.840840509903757
30
0
41
1
10
5.50433986489699
20
-0.855877196177431
30
0
41
1
10
5.39843183749525
20
-0.883745839304055
30
0
41
1
10
5.34536594536897
20
-0.896581254302788
30
0
41
1
10
5.23904993583554
20
-0.920046689231839
30
0
41
1
10
5.18580070078437
20
-0.930680045127218
30
0
41
1
10
5.1325225995281
20
-0.940191180298115
30
0
0
SPLINE
5
C3
100
AcDbEntity
8
1
62
256
6
ByLayer
370
18
48
1
60
0
100
AcDbSpline
70
4
71
3
72
46
73
42
40
0
40
0
40
0
40
0
40
0.0553709822964013
40
0.0553709822964013
40
0.110741964592803
40
0.110741964592803
40
0.221483929185603
40
0.221483929185603
40
0.276854911482002
40
0.276854911482002
40
0.332225893778402
40
0.332225893778402
40
0.387596876074802
40
0.387596876074802
40
0.442967858371202
40
0.442967858371202
40
0.498338840667602
40
0.498338840667602
40
0.526024331815803
40
0.526024331815803
40
0.553709822964005
40
0.553709822964005
40
0.609080805260407
40
0.609080805260407
40
0.63676629640861
40
0.63676629640861
40
0.664451787556813
40
0.664451787556813
40
0.719822769853218
40
0.719822769853218
40
0.747508261001422
40
0.747508261001422
40
0.775193752149626
40
0.775193752149626
40
0.830564734446034
40
0.830564734446034
40
0.885935716742442
40
0.885935716742442
40
0.996677681335258
40
0.996677681335258
40
1
40
1
40
1
40
1
41
1
10
5.1325225995281
20
0.021282363053615
30
0
41
1
10
5.1855498222921
20
-0.0089143476562867
30
0
41
1
10
5.23868689895994
20
-0.038430806702678
30
0
41
1
10
5.34499422361711
20
-0.0965617184187408
30
0
41
1
10
5.3981624718669
20
-0.125180043146969
30
0
41
1
10
5.55733104608714
20
-0.210456991816272
30
0
41
1
10
5.6628767279812
20
-0.266755652853135
30
0
41
1
10
5.82042558612915
20
-0.350080730618771
30
0
41
1
10
5.87276942324684
20
-0.37773656157168
30
0
41
1
10
5.97799813882776
20
-0.431282076817581
30
0
41
1
10
6.03092853877962
20
-0.457104489041541
30
0
41
1
10
6.13713439908105
20
-0.50737733430384
30
0
41
1
10
6.19040597806452
20
-0.531834171164292
30
0
41
1
10
6.29701515135548
20
-0.579812642248584
30
0
41
1
10
6.35042463265918
20
-0.603335932921169
30
0
41
1
10
6.45715232045239
20
-0.649109978729086
30
0
41
1
10
6.51029164871966
20
-0.671325057028753
30
0
41
1
10
6.58975987621915
20
-0.703448035324101
30
0
41
1
10
6.61623090312648
20
-0.7139261723826
30
0
41
1
10
6.66927367121582
20
-0.734256809551283
30
0
41
1
10
6.69585676579118
20
-0.744096652331081
30
0
41
1
10
6.77577588958309
20
-0.772691088096764
30
0
41
1
10
6.82926211388673
20
-0.790550812228958
30
0
41
1
10
6.90957626487179
20
-0.815837546678608
30
0
41
1
10
6.93636190184992
20
-0.82401439864455
30
0
41
1
10
6.989924659303
20
-0.839896167371137
30
0
41
1
10
7.016721589447
20
-0.847604927374817
30
0
41
1
10
7.09686151609964
20
-0.869920631589878
30
0
41
1
10
7.15001836503376
20
-0.883733329909461
30
0
41
1
10
7.22937063220081
20
-0.902785384771306
30
0
41
1
10
7.25575098022659
20
-0.908863000094584
30
0
41
1
10
7.30839863166176
20
-0.920437939807556
30
0
41
1
10
7.33467715408764
20
-0.925925575319354
30
0
41
1
10
7.41357811451203
20
-0.941364059372688
30
0
41
1
10
7.46634820619235
20
-0.950250585739809
30
0
41
1
10
7.57208519491627
20
-0.965494131656726
30
0
41
1
10
7.62502979911798
20
-0.971865095862682
30
0
41
1
10
7.78366806704042
20
-0.987427121366693
30
0
41
1
10
7.88913780393602
20
-0.993064351123309
30
0
41
1
10
7.99762826758919
20
-0.993446314337632
30
0
41
1
10
8.00078823308681
20
-0.99345258491411
30
0
41
1
10
8.00394829411835
20
-0.993454015216798
30
0
0
SPLINE
5
C4
100
AcDbEntity
8
1
62
256
6
ByLayer
370
18
48
1
60
0
100
AcDbSpline
70
4
71
3
72
123
73
119
40
0
40
0
40
0
40
0
40
0.0041178966928758
40
0.0041178966928758
40
0.0255651590106894
40
0.0255651590106894
40
0.0470124213285029
40
0.0470124213285029
40
0.0577360524874107
40
0.0577360524874107
40
0.0684596836463185
40
0.0684596836463185
40
0.0791833148052264
40
0.0791833148052264
40
0.0899069459641342
40
0.0899069459641342
40
0.111354208281948
40
0.111354208281948
40
0.154248732917573
40
0.154248732917573
40
0.175695995235384
40
0.175695995235384
40
0.197143257553196
40
0.218590519871007
40
0.218590519871007
40
0.240037782188818
40
0.240037782188818
40
0.26148504450663
40
0.26148504450663
40
0.272208675665535
40
0.272208675665535
40
0.282932306824439
40
0.282932306824439
40
0.304379569142248
40
0.304379569142248
40
0.325826831460058
40
0.325826831460058
40
0.347274093777867
40
0.347274093777867
40
0.357997724936773
40
0.357997724936773
40
0.368721356095678
40
0.368721356095678
40
0.39016861841349
40
0.39016861841349
40
0.411615880731301
40
0.411615880731301
40
0.433063143049113
40
0.433063143049113
40
0.443786774208017
40
0.443786774208017
40
0.454510405366922
40
0.454510405366922
40
0.475957667684731
40
0.475957667684731
40
0.49740493000254
40
0.49740493000254
40
0.51885219232035
40
0.51885219232035
40
0.540299454638159
40
0.540299454638159
40
0.551023085797064
40
0.551023085797064
40
0.561746716955968
40
0.561746716955968
40
0.572470348114873
40
0.572470348114873
40
0.583193979273777
40
0.583193979273777
40
0.604641241591587
40
0.604641241591587
40
0.615364872750492
40
0.615364872750492
40
0.626088503909398
40
0.626088503909398
40
0.647535766227209
40
0.647535766227209
40
0.668983028545021
40
0.668983028545021
40
0.690430290862832
40
0.690430290862832
40
0.711877553180644
40
0.711877553180644
40
0.754772077816269
40
0.754772077816269
40
0.765495708975175
40
0.765495708975175
40
0.776219340134081
40
0.776219340134081
40
0.786942971292987
40
0.786942971292987
40
0.797666602451893
40
0.797666602451893
40
0.819113864769704
40
0.819113864769704
40
0.840561127087514
40
0.840561127087514
40
0.851284758246418
40
0.851284758246418
40
0.862008389405322
40
0.862008389405322
40
0.872732020564226
40
0.872732020564226
40
0.88345565172313
40
0.88345565172313
40
0.904902914040938
40
0.904902914040938
40
0.926350176358746
40
0.926350176358746
40
0.947797438676554
40
0.947797438676554
40
0.958521069835459
40
0.958521069835459
40
0.969244700994364
40
0.969244700994364
40
0.990691963312175
40
0.990691963312175
40
1
40
1
40
1
40
1
41
1
10
11.938232897369
20
0.570816846365403
30
0
41
1
10
11.9483830662275
20
0.575330721325884
30
0
41
1
10
11.9585346033554
20
0.579813862717941
30
0
41
1
10
12.0215606180048
20
0.60746747176168
30
0
41
1
10
12.0744344400994
20
0.629897334884333
30
0
41
1
10
12.1799745415756
20
0.673488480517392
30
0
41
1
10
12.2326670600639
20
0.694608780734711
30
0
41
1
10
12.3116362563072
20
0.725159382039152
30
0
41
1
10
12.3379464373525
20
0.735156263487852
30
0
41
1
10
12.3905379340884
20
0.754768217790229
30
0
41
1
10
12.4168116780024
20
0.7643914845886
30
0
41
1
10
12.4694478567673
20
0.783103879709131
30
0
41
1
10
12.4958128974002
20
0.792190008336576
30
0
41
1
10
12.5487544787666
20
0.80969683404976
30
0
41
1
10
12.5753234554161
20
0.818127533697407
30
0
41
1
10
12.6552660344064
20
0.842536456071571
30
0
41
1
10
12.7089865853918
20
0.857666102407222
30
0
41
1
10
12.8693559339797
20
0.899653311269276
30
0
41
1
10
12.9753377450183
20
0.923319141777569
30
0
41
1
10
13.1330338388159
20
0.951839484236558
30
0
41
1
10
13.1853172960003
20
0.960193397775328
30
0
41
1
10
13.2903078280723
20
0.974115400996453
30
0
41
1
10
13.395779320869
20
0.985295454649162
30
0
41
1
10
13.5016285521892
20
0.991529726846551
30
0
41
1
10
13.6073912040234
20
0.995318853769817
30
0
41
1
10
13.6602413489214
20
0.99598090402381
30
0
41
1
10
13.7659499379353
20
0.994712857013781
30
0
41
1
10
13.8187909196019
20
0.992781138929473
30
0
41
1
10
13.8981201872224
20
0.98782121259984
30
0
41
1
10
13.9245945980198
20
0.985826654767692
30
0
41
1
10
13.9777372946891
20
0.981192915552469
30
0
41
1
10
14.0043950833538
20
0.978560204083806
30
0
41
1
10
14.0843109483194
20
0.969793003485989
30
0
41
1
10
14.1376093447929
20
0.962779915197075
30
0
41
1
10
14.2439763383205
20
0.946416646309558
30
0
41
1
10
14.2970240012041
20
0.937050526294058
30
0
41
1
10
14.4027279389156
20
0.915841020020594
30
0
41
1
10
14.455409577788
20
0.904011402824267
30
0
41
1
10
14.534203054794
20
0.884390198137851
30
0
41
1
10
14.5604248420878
20
0.877532893828032
30
0
41
1
10
14.6127967035165
20
0.863182046254309
30
0
41
1
10
14.6389568409894
20
0.855696125362641
30
0
41
1
10
14.7175626166221
20
0.832500938240315
30
0
41
1
10
14.7702216531772
20
0.816150066477945
30
0
41
1
10
14.8759642482326
20
0.781738247740634
30
0
41
1
10
14.9290154245632
20
0.763645738508473
30
0
41
1
10
15.0351983546084
20
0.725356168550917
30
0
41
1
10
15.0883124553305
20
0.705129306532314
30
0
41
1
10
15.1680605087925
20
0.673132609900904
30
0
41
1
10
15.1946574306551
20
0.662192771221754
30
0
41
1
10
15.2478851099427
20
0.639753510547621
30
0
41
1
10
15.2745047423521
20
0.628256374116773
30
0
41
1
10
15.3540217362131
20
0.593062762811172
30
0
41
1
10
15.4067227663021
20
0.568632838481619
30
0
41
1
10
15.5124963744739
20
0.519433869005582
30
0
41
1
10
15.5654960756193
20
0.49456157211668
30
0
41
1
10
15.6714365606223
20
0.443868269207684
30
0
41
1
10
15.7243699135785
20
0.418034191607831
30
0
41
1
10
15.8299382153391
20
0.365006211864085
30
0
41
1
10
15.8825981392616
20
0.337852258702014
30
0
41
1
10
15.9614458978238
20
0.296212674570541
30
0
41
1
10
15.987703754252
20
0.282179539604726
30
0
41
1
10
16.0401660575748
20
0.253793819625912
30
0
41
1
10
16.0663609132458
20
0.239423520354166
30
0
41
1
10
16.1187990981764
20
0.21054190755109
30
0
41
1
10
16.1450460550348
20
0.196037151424292
30
0
41
1
10
16.1977191993269
20
0.167131287464713
30
0
41
1
10
16.2241426192263
20
0.152725852147483
30
0
41
1
10
16.3036155942478
20
0.109556286284686
30
0
41
1
10
16.3568652892748
20
0.0808366778954053
30
0
41
1
10
16.4369311368584
20
0.0374549064172527
30
0
41
1
10
16.4636502523891
20
0.0229405398686424
30
0
41
1
10
16.5171256456248
20
-0.0062474958927226
30
0
41
1
10
16.5438696002587
20
-0.0209067730401671
30
0
41
1
10
16.6238069679857
20
-0.0648783052057809
30
0
41
1
10
16.6768312724475
20
-0.0942375418343602
30
0
41
1
10
16.7823562809627
20
-0.152998528304977
30
0
41
1
10
16.834779159811
20
-0.182537144656578
30
0
41
1
10
16.9399074885693
20
-0.240164637386329
30
0
41
1
10
16.9926690154463
20
-0.268163605286446
30
0
41
1
10
17.0983137136012
20
-0.323087912151124
30
0
41
1
10
17.1511948576272
20
-0.350016703398069
30
0
41
1
10
17.3095901035787
20
-0.429937485012573
30
0
41
1
10
17.4148927130728
20
-0.481995191744801
30
0
41
1
10
17.5464025426041
20
-0.544900970909907
30
0
41
1
10
17.5727164462339
20
-0.557344217596722
30
0
41
1
10
17.6255011533942
20
-0.581745786802173
30
0
41
1
10
17.6519824679345
20
-0.593688257281059
30
0
41
1
10
17.7051411768922
20
-0.617036831825629
30
0
41
1
10
17.7318107423536
20
-0.628455223477886
30
0
41
1
10
17.7852913215227
20
-0.650844133387807
30
0
41
1
10
17.81209145181
20
-0.661808820797404
30
0
41
1
10
17.8922820379064
20
-0.693961840046171
30
0
41
1
10
17.9455659355641
20
-0.714491090937173
30
0
41
1
10
18.051640156752
20
-0.753907602750957
30
0
41
1
10
18.1044566784056
20
-0.772756613273259
30
0
41
1
10
18.1833817578608
20
-0.799651787101737
30
0
41
1
10
18.2096371835998
20
-0.808390349450463
30
0
41
1
10
18.2620453143825
20
-0.825397887436736
30
0
41
1
10
18.2882056657951
20
-0.833657102149402
30
0
41
1
10
18.3405772507082
20
-0.849546451216412
30
0
41
1
10
18.3667950754533
20
-0.857170892262644
30
0
41
1
10
18.419364612439
20
-0.871736412914686
30
0
41
1
10
18.4457046579942
20
-0.878689497291674
30
0
41
1
10
18.5248328964461
20
-0.89863885522422
30
0
41
1
10
18.5777293184574
20
-0.910731365128242
30
0
41
1
10
18.6835290434411
20
-0.932742788693815
30
0
41
1
10
18.7364107925885
20
-0.94266987883131
30
0
41
1
10
18.8421751683092
20
-0.960241360062014
30
0
41
1
10
18.8950695342241
20
-0.967880337610609
30
0
41
1
10
18.9744325696845
20
-0.977507219732445
30
0
41
1
10
19.0008839261246
20
-0.980411278905166
30
0
41
1
10
19.0539164566665
20
-0.985546564835431
30
0
41
1
10
19.0805037999778
20
-0.987776688380535
30
0
41
1
10
19.1603530978791
20
-0.993415904003314
30
0
41
1
10
19.2137582821129
20
-0.995810356121979
30
0
41
1
10
19.2903714160978
20
-0.997436233325089
30
0
41
1
10
19.3135612021979
20
-0.997690557414245
30
0
41
1
10
19.3367438550044
20
-0.997705579450638
30
0
0
SPLINE
5
C5
100
AcDbEntity
8
1
62
256
6
ByLayer
370
18
48
1
60
0
100
AcDbSpline
70
4
71
3
72
38
73
34
40
0
40
0
40
0
40
0
40
0.0183247259323766
40
0.0183247259323766
40
0.054683069416359
40
0.054683069416359
40
0.0910414129003423
40
0.0910414129003423
40
0.127399756384325
40
0.127399756384325
40
0.200116443352298
40
0.200116443352298
40
0.272833130320272
40
0.272833130320272
40
0.345549817288245
40
0.345549817288245
40
0.418266504256217
40
0.418266504256217
40
0.49098319122419
40
0.49098319122419
40
0.563699878192163
40
0.563699878192163
40
0.636416565160136
40
0.636416565160136
40
0.709133252128109
40
0.709133252128109
40
0.781849939096082
40
0.781849939096082
40
0.854566626064055
40
0.854566626064055
40
0.927283313032028
40
0.927283313032028
40
1
40
1
40
1
40
1
41
1
10
23.2733817545047
20
0.572684225431374
30
0
41
1
10
23.2866950319764
20
0.578787958177941
30
0
41
1
10
23.3000086605043
20
0.584860279987026
30
0
41
1
10
23.3397385982678
20
0.602886339522058
30
0
41
1
10
23.3661450762799
20
0.614762584497612
30
0
41
1
10
23.4190339767286
20
0.638144563580255
30
0
41
1
10
23.4455260358667
20
0.649639735948284
30
0
41
1
10
23.4987180446141
20
0.672049187816697
30
0
41
1
10
23.5253311118963
20
0.682916588490173
30
0
41
1
10
23.6051781141572
20
0.714617640992572
30
0
41
1
10
23.6584150554602
20
0.734563981139701
30
0
41
1
10
23.7646301371026
20
0.772542985424423
30
0
41
1
10
23.8175832801217
20
0.790601056929233
30
0
41
1
10
23.9231126238025
20
0.824888218170628
30
0
41
1
10
23.9757110573953
20
0.841090770865293
30
0
41
1
10
24.0805997982187
20
0.871503503462009
30
0
41
1
10
24.1328018065948
20
0.885777850964104
30
0
41
1
10
24.2375841841655
20
0.911678696768377
30
0
41
1
10
24.2902665622075
20
0.923248353877511
30
0
41
1
10
24.3960023831314
20
0.943934366646147
30
0
41
1
10
24.4490423062406
20
0.953061474981496
30
0
41
1
10
24.5551851433288
20
0.969036234299892
30
0
41
1
10
24.6082816857336
20
0.975879164976391
30
0
41
1
10
24.7145957885558
20
0.987118960749598
30
0
41
1
10
24.7678936027357
20
0.991517736090429
30
0
41
1
10
24.8738529999665
20
0.997655782083683
30
0
41
1
10
24.9266737890425
20
0.999367365931363
30
0
41
1
10
25.032885901446
20
1.00012494895228
30
0
41
1
10
25.0861784504746
20
0.999204889012589
30
0
41
1
10
25.1928359964218
20
0.994869875018139
30
0
41
1
10
25.2461865073445
20
0.99144971695091
30
0
41
1
10
25.3527509926498
20
0.981998175643128
30
0
41
1
10
25.4059931577936
20
0.975969089193512
30
0
41
1
10
25.4592254428447
20
0.968580937603178
30
0
0
SPLINE
5
C6
100
AcDbEntity
8
1
62
256
6
ByLayer
370
18
48
1
60
0
100
AcDbSpline
70
4
71
3
72
110
73
106
40
0
40
0
40
0
40
0
40
0.0044261377526411
40
0.0044261377526411
40
0.0259121086356462
40
0.0259121086356462
40
0.0473980795186513
40
0.0473980795186513
40
0.0688840504016564
40
0.0688840504016564
40
0.079627035843159
40
0.079627035843159
40
0.0903700212846615
40
0.0903700212846615
40
0.111855992167667
40
0.111855992167667
40
0.133341963050672
40
0.133341963050672
40
0.176313904816682
40
0.176313904816682
40
0.187056890258184
40
0.187056890258184
40
0.197799875699685
40
0.197799875699685
40
0.219285846582686
40
0.219285846582686
40
0.240771817465686
40
0.240771817465686
40
0.262257788348687
40
0.262257788348687
40
0.283743759231688
40
0.283743759231688
40
0.305229730114689
40
0.305229730114689
40
0.34820167188069
40
0.34820167188069
40
0.369687642763692
40
0.369687642763692
40
0.391173613646694
40
0.391173613646694
40
0.412659584529696
40
0.412659584529696
40
0.434145555412698
40
0.434145555412698
40
0.4556315262957
40
0.4556315262957
40
0.477117497178702
40
0.477117497178702
40
0.487860482620203
40
0.487860482620203
40
0.498603468061704
40
0.498603468061704
40
0.520089438944703
40
0.520089438944703
40
0.541575409827703
40
0.541575409827703
40
0.563061380710703
40
0.563061380710703
40
0.573804366152203
40
0.573804366152203
40
0.584547351593703
40
0.584547351593703
40
0.606033322476702
40
0.606033322476702
40
0.627519293359702
40
0.627519293359702
40
0.638262278801201
40
0.638262278801201
40
0.6490052642427
40
0.6490052642427
40
0.670491235125699
40
0.670491235125699
40
0.681234220567198
40
0.681234220567198
40
0.691977206008697
40
0.691977206008697
40
0.734949147774696
40
0.734949147774696
40
0.756435118657696
40
0.756435118657696
40
0.777921089540696
40
0.777921089540696
40
0.799407060423696
40
0.799407060423696
40
0.810150045865196
40
0.810150045865196
40
0.820893031306695
40
0.820893031306695
40
0.863864973072699
40
0.863864973072699
40
0.885350943955701
40
0.885350943955701
40
0.906836914838703
40
0.906836914838703
40
0.928322885721705
40
0.928322885721705
40
0.949808856604707
40
0.949808856604707
40
0.971294827487709
40
0.971294827487709
40
0.982037812929209
40
0.982037812929209
40
0.992780798370708
40
0.992780798370708
40
1
40
1
40
1
40
1
41
1
10
23.2723319864137
20
-0.57642520493178
30
0
41
1
10
23.2614627785868
20
-0.581348252928876
30
0
41
1
10
23.250586942948
20
-0.586236914004729
30
0
41
1
10
23.1868800140261
20
-0.614660145690493
30
0
41
1
10
23.1339170690529
20
-0.637448056506457
30
0
41
1
10
23.0276911576437
20
-0.681423405454098
30
0
41
1
10
22.9743909401591
20
-0.70261150622872
30
0
41
1
10
22.8675431397134
20
-0.743218529857671
30
0
41
1
10
22.8143196994744
20
-0.762528922847451
30
0
41
1
10
22.7348150120915
20
-0.790043178609324
30
0
41
1
10
22.7083696546911
20
-0.798973129965702
30
0
41
1
10
22.655576901126
20
-0.816328298443523
30
0
41
1
10
22.6292297568818
20
-0.824752485691732
30
0
41
1
10
22.5501608831458
20
-0.849086955360775
30
0
41
1
10
22.4974356673274
20
-0.864093692761315
30
0
41
1
10
22.3920360789821
20
-0.89182178123221
30
0
41
1
10
22.3393571357497
20
-0.904535544506501
30
0
41
1
10
22.1812930835282
20
-0.939182028817839
30
0
41
1
10
22.0758371561743
20
-0.957628963564815
30
0
41
1
10
21.9440116651237
20
-0.97469371699691
30
0
41
1
10
21.9176495278043
20
-0.977804374812621
30
0
41
1
10
21.8648299606148
20
-0.983374822283906
30
0
41
1
10
21.8383627143601
20
-0.985832461249856
30
0
41
1
10
21.7587960849033
20
-0.992234484365611
30
0
41
1
10
21.705515635088
20
-0.995214910305776
30
0
41
1
10
21.5986817136825
20
-0.998583254952507
30
0
41
1
10
21.5454389611383
20
-0.998959860495916
30
0
41
1
10
21.4392273968848
20
-0.997152016375338
30
0
41
1
10
21.3862596235396
20
-0.994970426161672
30
0
41
1
10
21.2806407703584
20
-0.988047478659041
30
0
41
1
10
21.2280235209926
20
-0.983291176996033
30
0
41
1
10
21.1229338490782
20
-0.971220374958023
30
0
41
1
10
21.0703331318314
20
-0.963961303492852
30
0
41
1
10
20.9123881713485
20
-0.938613833870818
30
0
41
1
10
20.8069570104427
20
-0.916930800202465
30
0
41
1
10
20.6483132743995
20
-0.877410105194514
30
0
41
1
10
20.5953623086805
20
-0.863058600582264
30
0
41
1
10
20.4893488319325
20
-0.831884684564244
30
0
41
1
10
20.436307437542
20
-0.815003502925777
30
0
41
1
10
20.3296403542355
20
-0.779293755701133
30
0
41
1
10
20.2763137347661
20
-0.760517022745262
30
0
41
1
10
20.1697261571595
20
-0.721107046572058
30
0
41
1
10
20.1164595066772
20
-0.700478371147653
30
0
41
1
10
20.0099087741416
20
-0.657477153434883
30
0
41
1
10
19.9566190254702
20
-0.635114060273992
30
0
41
1
10
19.8500420106589
20
-0.588600334510488
30
0
41
1
10
19.7967172539545
20
-0.56440165759102
30
0
41
1
10
19.7168765234492
20
-0.526835466041234
30
0
41
1
10
19.6903169011591
20
-0.514143216709982
30
0
41
1
10
19.6372095040994
20
-0.488580791095416
30
0
41
1
10
19.6106711125469
20
-0.475695337590082
30
0
41
1
10
19.5311192794745
20
-0.436702334807222
30
0
41
1
10
19.4781763992907
20
-0.410246070866208
30
0
41
1
10
19.3724459727161
20
-0.356472906454201
30
0
41
1
10
19.319651145708
20
-0.329168383447041
30
0
41
1
10
19.2141492422606
20
-0.273821429582597
30
0
41
1
10
19.1614488053522
20
-0.245767864721358
30
0
41
1
10
19.0825056919868
20
-0.203054076918306
30
0
41
1
10
19.0562103721638
20
-0.188708332012538
30
0
41
1
10
19.0036442713754
20
-0.159823337745678
30
0
41
1
10
18.9773759457234
20
-0.145279293317145
30
0
41
1
10
18.8984393531911
20
-0.101664273630149
30
0
41
1
10
18.845653334096
20
-0.0725873306164999
30
0
41
1
10
18.7398415309157
20
-0.0142869897915716
30
0
41
1
10
18.6868114923453
20
0.0149292975991671
30
0
41
1
10
18.6070364379255
20
0.0587736824814158
30
0
41
1
10
18.5804051640246
20
0.073389428090735
30
0
41
1
10
18.5270583738479
20
0.102614365418276
30
0
41
1
10
18.5003117980428
20
0.117240510639959
30
0
41
1
10
18.4202577181435
20
0.160958926317505
30
0
41
1
10
18.3671128663652
20
0.189918712769128
30
0
41
1
10
18.2877339654524
20
0.233074523836251
30
0
41
1
10
18.2613351003984
20
0.247419721891589
30
0
41
1
10
18.2085568513525
20
0.275843384716438
30
0
41
1
10
18.1821677358316
20
0.289904847782935
30
0
41
1
10
18.0502331843804
20
0.359497405333656
30
0
41
1
10
17.9448230125718
20
0.413075032196474
30
0
41
1
10
17.7866834208232
20
0.489992337149488
30
0
41
1
10
17.7339585138542
20
0.515043122127253
30
0
41
1
10
17.6285259734338
20
0.564015604784856
30
0
41
1
10
17.5758488526257
20
0.587981835683848
30
0
41
1
10
17.4703559286173
20
0.634504074210469
30
0
41
1
10
17.4174099337474
20
0.656869284491933
30
0
41
1
10
17.3376915965462
20
0.68908541832775
30
0
41
1
10
17.3110723028418
20
0.699606711884712
30
0
41
1
10
17.2577381854424
20
0.720209751320198
30
0
41
1
10
17.2309922813319
20
0.730302666536431
30
0
41
1
10
17.0975194419959
20
0.779447008673628
30
0
41
1
10
16.9913594542883
20
0.814548488553442
30
0
41
1
10
16.8331331976335
20
0.861034253710301
30
0
41
1
10
16.7806040159107
20
0.875521251272687
30
0
41
1
10
16.6753641271467
20
0.901941271522304
30
0
41
1
10
16.6226962767823
20
0.913926898105075
30
0
41
1
10
16.5173184988879
20
0.935538761907992
30
0
41
1
10
16.4646029448444
20
0.945158021542284
30
0
41
1
10
16.3590494667252
20
0.961983713716677
30
0
41
1
10
16.3062056296141
20
0.969189418828847
30
0
41
1
10
16.2004094691499
20
0.981162016782633
30
0
41
1
10
16.147469141985
20
0.985932047104825
30
0
41
1
10
16.0679597555324
20
0.991173598771269
30
0
41
1
10
16.041432069225
20
0.992598309815719
30
0
41
1
10
15.9882212545818
20
0.994781993156181
30
0
41
1
10
15.9615145567834
20
0.995544085594815
30
0
41
1
10
15.9169150339141
20
0.9962684617999
30
0
41
1
10
15.8990062159515
20
0.99641209659265
30
0
41
1
10
15.8811126417705
20
0.996409351992725
30
0
0
SPLINE
5
C7
100
AcDbEntity
8
1
62
256
6
ByLayer
370
18
48
1
60
0
100
AcDbSpline
70
4
71
3
72
96
73
92
40
0
40
0
40
0
40
0
40
0.0194247352639659
40
0.0194247352639659
40
0.0310982503203468
40
0.0310982503203468
40
0.0427717653767278
40
0.0427717653767278
40
0.06611879548949
40
0.06611879548949
40
0.112812855715017
40
0.112812855715017
40
0.13615988582778
40
0.13615988582778
40
0.147833400884163
40
0.147833400884163
40
0.159506915940546
40
0.159506915940546
40
0.182853946053309
40
0.182853946053309
40
0.206200976166072
40
0.206200976166072
40
0.229548006278836
40
0.229548006278836
40
0.252895036391599
40
0.252895036391599
40
0.299589096617123
40
0.299589096617123
40
0.322936126729885
40
0.322936126729885
40
0.346283156842647
40
0.346283156842647
40
0.36963018695541
40
0.36963018695541
40
0.392977217068172
40
0.392977217068172
40
0.416324247180934
40
0.416324247180934
40
0.427997762237314
40
0.427997762237314
40
0.439671277293694
40
0.439671277293694
40
0.463018307406454
40
0.463018307406454
40
0.474691822462835
40
0.474691822462835
40
0.486365337519216
40
0.486365337519216
40
0.533059397744738
40
0.533059397744738
40
0.5564064278575
40
0.5564064278575
40
0.568079942913881
40
0.568079942913881
40
0.579753457970262
40
0.579753457970262
40
0.603100488083025
40
0.603100488083025
40
0.614774003139407
40
0.614774003139407
40
0.626447518195788
40
0.626447518195788
40
0.673141578421315
40
0.673141578421315
40
0.696488608534078
40
0.696488608534078
40
0.719835638646841
40
0.719835638646841
40
0.743182668759605
40
0.743182668759605
40
0.766529698872368
40
0.766529698872368
40
0.789876728985131
40
0.789876728985131
40
0.801550244041513
40
0.801550244041513
40
0.813223759097894
40
0.813223759097894
40
0.859917819323421
40
0.859917819323421
40
0.883264849436184
40
0.883264849436184
40
0.906611879548947
40
0.906611879548947
40
0.929958909661711
40
0.929958909661711
40
0.953305939774474
40
0.953305939774474
40
0.976652969887237
40
0.976652969887237
40
1
40
1
40
1
40
1
41
1
10
11.9384045323732
20
-0.57301103750342
30
0
41
1
10
11.8942446964826
20
-0.592815789018431
30
0
41
1
10
11.8501854713313
20
-0.612089968576015
30
0
41
1
10
11.7798288269731
20
-0.64212445040755
30
0
41
1
10
11.7534606468798
20
-0.653214194497764
30
0
41
1
10
11.700798198106
20
-0.675005107509719
30
0
41
1
10
11.674509299545
20
-0.685712701438405
30
0
41
1
10
11.5956042550793
20
-0.71704890667317
30
0
41
1
10
11.5429303927905
20
-0.736873004406078
30
0
41
1
10
11.3848250672509
20
-0.793387678775503
30
0
41
1
10
11.2792871601015
20
-0.827093613127005
30
0
41
1
10
11.1205120438504
20
-0.871362859891065
30
0
41
1
10
11.0675275194602
20
-0.885087329254958
30
0
41
1
10
10.9879672434822
20
-0.904072862954251
30
0
41
1
10
10.9614377286527
20
-0.910136838107661
30
0
41
1
10
10.9082776303478
20
-0.921661642989278
30
0
41
1
10
10.8816074532039
20
-0.927116643558577
30
0
41
1
10
10.8015560758442
20
-0.942503822784516
30
0
41
1
10
10.7483076529371
20
-0.951452005828173
30
0
41
1
10
10.6420642471795
20
-0.966828429442785
30
0
41
1
10
10.5890635675234
20
-0.973250866219985
30
0
41
1
10
10.4832301701722
20
-0.983576688762923
30
0
41
1
10
10.4303964237131
20
-0.987482717798969
30
0
41
1
10
10.3249339400272
20
-0.992783611125958
30
0
41
1
10
10.2723297343251
20
-0.994177408298697
30
0
41
1
10
10.1146652716964
20
-0.994476052231533
30
0
41
1
10
10.0091797029741
20
-0.989537738116752
30
0
41
1
10
9.85036009190139
20
-0.974613488201925
30
0
41
1
10
9.79730931460659
20
-0.968382058621813
30
0
41
1
10
9.69094415794049
20
-0.953388776001759
30
0
41
1
10
9.63760372995819
20
-0.944618696764536
30
0
41
1
10
9.53084862973995
20
-0.924447801531215
30
0
41
1
10
9.47770233225754
20
-0.913042933231765
30
0
41
1
10
9.37125728379218
20
-0.888036340519875
30
0
41
1
10
9.31798324517158
20
-0.87443163318855
30
0
41
1
10
9.21139617582165
20
-0.845016110249304
30
0
41
1
10
9.15807741087517
20
-0.829207340488665
30
0
41
1
10
9.07800865725415
20
-0.803897583540589
30
0
41
1
10
9.05130329075388
20
-0.795195601623419
30
0
41
1
10
8.99785946619718
20
-0.77726034179679
30
0
41
1
10
8.9710983335504
20
-0.768018533376932
30
0
41
1
10
8.89096487442345
20
-0.739542199334807
30
0
41
1
10
8.83778072501696
20
-0.719560223041071
30
0
41
1
10
8.7583376535095
20
-0.688111702713314
30
0
41
1
10
8.73190588500006
20
-0.677390545182078
30
0
41
1
10
8.67903079984126
20
-0.655628362397209
30
0
41
1
10
8.65259497015649
20
-0.644577713680093
30
0
41
1
10
8.52045350094238
20
-0.588452533289825
30
0
41
1
10
8.41492473816777
20
-0.540677017210527
30
0
41
1
10
8.25662792595153
20
-0.465211428371646
30
0
41
1
10
8.20386292233042
20
-0.43941998948452
30
0
41
1
10
8.12474741511977
20
-0.399708521987748
30
0
41
1
10
8.09838210883154
20
-0.386298175549086
30
0
41
1
10
8.04565394899788
20
-0.359142947149195
30
0
41
1
10
8.01929654901915
20
-0.345387895396442
30
0
41
1
10
7.94007890129069
20
-0.303877826367852
30
0
41
1
10
7.88705265124412
20
-0.275919731928525
30
0
41
1
10
7.80725645665822
20
-0.233449561863694
30
0
41
1
10
7.78061342308877
20
-0.21920621436044
30
0
41
1
10
7.72723436652973
20
-0.190552878905123
30
0
41
1
10
7.70046682859208
20
-0.176125735697752
30
0
41
1
10
7.56685472746173
20
-0.103877137450439
30
0
41
1
10
7.46060246116258
20
-0.0457937651951852
30
0
41
1
10
7.30229200760098
20
0.0419754577298477
30
0
41
1
10
7.2496934290898
20
0.071322803663179
30
0
41
1
10
7.1442923255882
20
0.129187559079213
30
0
41
1
10
7.09156396416435
20
0.157844896045987
30
0
41
1
10
6.98607519643122
20
0.214660045331385
30
0
41
1
10
6.93330935167114
20
0.242807500395145
30
0
41
1
10
6.82766441303707
20
0.298455086970876
30
0
41
1
10
6.77478423263804
20
0.325953801109506
30
0
41
1
10
6.66894461226005
20
0.380356668399941
30
0
41
1
10
6.61601023748435
20
0.407304078878099
30
0
41
1
10
6.53645935410344
20
0.44710694597299
30
0
41
1
10
6.5098937337718
20
0.46023029523073
30
0
41
1
10
6.45661690855727
20
0.48610595732049
30
0
41
1
10
6.42988255929478
20
0.498886149636235
30
0
41
1
10
6.29633301666019
20
0.561789807816012
30
0
41
1
10
6.19010079944744
20
0.608859299578114
30
0
41
1
10
6.03134797937344
20
0.674339910251206
30
0
41
1
10
5.97854459127325
20
0.695332671242454
30
0
41
1
10
5.87318566380378
20
0.735650883400524
30
0
41
1
10
5.82067139499924
20
0.755017815777478
30
0
41
1
10
5.71543111680234
20
0.791498524039838
30
0
41
1
10
5.66271939573784
20
0.808641840401265
30
0
41
1
10
5.55718123714956
20
0.840840509903757
30
0
41
1
10
5.50433986489696
20
0.855877196177431
30
0
41
1
10
5.39843183749525
20
0.883745839304055
30
0
41
1
10
5.34536594536897
20
0.896581254302788
30
0
41
1
10
5.23904993583557
20
0.920046689231839
30
0
41
1
10
5.18580070078437
20
0.930680045127218
30
0
41
1
10
5.1325225995281
20
0.940191180298115
30
0
0
SPLINE
5
C8
100
AcDbEntity
8
1
62
256
6
ByLayer
370
18
48
1
60
0
100
AcDbSpline
70
4
71
3
72
12
73
8
40
0
40
0
40
0
40
0
40
0.41911153842638
40
0.41911153842638
40
0.838223076852759
40
0.838223076852759
40
1
40
1
40
1
40
1
41
1
10
5.1325225995281
20
0.940191180298115
30
0
41
1
10
4.9891715980315
20
0.952590926585941
30
0
41
1
10
4.84676973700331
20
0.963614376551902
30
0
41
1
10
4.56366175639496
20
0.980941053875029
30
0
41
1
10
4.42295499569312
20
0.987245541960874
30
0
41
1
10
4.22891979869741
20
0.991302454387522
30
0
41
1
10
4.1749868665928
20
0.991930182349847
30
0
41
1
10
4.1211503669528
20
0.991991720352985
30
0
0
SPLINE
5
C9
100
AcDbEntity
8
1
62
256
6
ByLayer
370
18
48
1
60
0
100
AcDbSpline
70
4
71
3
72
116
73
112
40
0
40
0
40
0
40
0
40
0.0174903198147849
40
0.0174903198147849
40
0.0389772125348305
40
0.0389772125348305
40
0.0497206588948538
40
0.0497206588948538
40
0.0604641052548771
40
0.0604641052548771
40
0.0819509979749238
40
0.0819509979749238
40
0.0926944443349466
40
0.0926944443349466
40
0.103437890694969
40
0.103437890694969
40
0.124924783415016
40
0.124924783415016
40
0.135668229775039
40
0.135668229775039
40
0.146411676135063
40
0.146411676135063
40
0.167898568855109
40
0.167898568855109
40
0.189385461575156
40
0.189385461575156
40
0.232359247015249
40
0.232359247015249
40
0.253846139735296
40
0.253846139735296
40
0.264589586095319
40
0.264589586095319
40
0.275333032455344
40
0.275333032455344
40
0.296819925175395
40
0.296819925175395
40
0.318306817895446
40
0.318306817895446
40
0.329050264255471
40
0.329050264255471
40
0.339793710615497
40
0.339793710615497
40
0.350537156975522
40
0.350537156975522
40
0.361280603335548
40
0.361280603335548
40
0.382767496055599
40
0.382767496055599
40
0.40425438877565
40
0.40425438877565
40
0.425741281495701
40
0.425741281495701
40
0.447228174215752
40
0.447228174215752
40
0.468715066935803
40
0.490201959655854
40
0.490201959655854
40
0.511688852375905
40
0.511688852375905
40
0.52243229873593
40
0.52243229873593
40
0.533175745095956
40
0.533175745095956
40
0.543919191455981
40
0.543919191455981
40
0.554662637816007
40
0.554662637816007
40
0.576149530536058
40
0.576149530536058
40
0.597636423256109
40
0.597636423256109
40
0.61912331597616
40
0.61912331597616
40
0.629866762336185
40
0.629866762336185
40
0.640610208696211
40
0.640610208696211
40
0.66209710141626
40
0.66209710141626
40
0.683583994136308
40
0.683583994136308
40
0.705070886856357
40
0.705070886856357
40
0.726557779576406
40
0.726557779576406
40
0.748044672296455
40
0.748044672296455
40
0.769531565016504
40
0.769531565016504
40
0.791018457736553
40
0.791018457736553
40
0.812505350456602
40
0.812505350456602
40
0.823248796816626
40
0.823248796816626
40
0.833992243176651
40
0.833992243176651
40
0.844735689536675
40
0.844735689536675
40
0.855479135896699
40
0.855479135896699
40
0.87696602861675
40
0.87696602861675
40
0.919939814056852
40
0.919939814056852
40
0.941426706776903
40
0.941426706776903
40
0.962913599496954
40
0.984400492217005
40
0.984400492217005
40
1
40
1
40
1
40
1
41
1
10
6.27346452308336
20
0.569159980749788
30
0
41
1
10
6.31688195350574
20
0.588541317716476
30
0
41
1
10
6.3603503345937
20
0.607592930748268
30
0
41
1
10
6.45715232045239
20
0.649109978729086
30
0
41
1
10
6.51029164871966
20
0.671325057028753
30
0
41
1
10
6.58975987621915
20
0.703448035324101
30
0
41
1
10
6.61623090312651
20
0.7139261723826
30
0
41
1
10
6.66927367121582
20
0.734256809551283
30
0
41
1
10
6.69585676579118
20
0.744096652331081
30
0
41
1
10
6.77577588958309
20
0.772691088096764
30
0
41
1
10
6.82926211388673
20
0.790550812228958
30
0
41
1
10
6.90957626487179
20
0.815837546678608
30
0
41
1
10
6.93636190184992
20
0.82401439864455
30
0
41
1
10
6.989924659303
20
0.839896167371137
30
0
41
1
10
7.01672158944703
20
0.847604927374817
30
0
41
1
10
7.09686151609964
20
0.869920631589878
30
0
41
1
10
7.15001836503376
20
0.883733329909461
30
0
41
1
10
7.22937063220084
20
0.902785384771306
30
0
41
1
10
7.25575098022657
20
0.908863000094584
30
0
41
1
10
7.30839863166173
20
0.920437939807556
30
0
41
1
10
7.33467715408764
20
0.925925575319354
30
0
41
1
10
7.41357811451206
20
0.941364059372717
30
0
41
1
10
7.46634820619235
20
0.950250585739809
30
0
41
1
10
7.57208519491627
20
0.965494131656726
30
0
41
1
10
7.62502979911801
20
0.971865095862682
30
0
41
1
10
7.78366806704042
20
0.987427121366693
30
0
41
1
10
7.88913780393602
20
0.993064351123309
30
0
41
1
10
8.0471335420595
20
0.993620607940272
30
0
41
1
10
8.09979710116033
20
0.992457530959399
30
0
41
1
10
8.17949547642948
20
0.988790764008513
30
0
41
1
10
8.20615800965913
20
0.987251681733085
30
0
41
1
10
8.2596363566675
20
0.983549305439851
30
0
41
1
10
8.28646222533618
20
0.981384437735812
30
0
41
1
10
8.366845282497
20
0.973972705193603
30
0
41
1
10
8.42038138903058
20
0.967805177774665
30
0
41
1
10
8.52713466338724
20
0.952903500545432
30
0
41
1
10
8.58037950089002
20
0.94417553890375
30
0
41
1
10
8.66009219429623
20
0.929119125408164
30
0
41
1
10
8.68663584200326
20
0.923771956676973
30
0
41
1
10
8.73966447122538
20
0.912400827827582
30
0
41
1
10
8.76614418629111
20
0.906371266822788
30
0
41
1
10
8.81917661052631
20
0.893721504740682
30
0
41
1
10
8.84573213102763
20
0.887103855368423
30
0
41
1
10
8.89903440881659
20
0.873395147171806
30
0
41
1
10
8.92576528207979
20
0.866297913396807
30
0
41
1
10
9.00586482399291
20
0.844333488360462
30
0
41
1
10
9.05923795037648
20
0.828773471415332
30
0
41
1
10
9.16566101728529
20
0.79560016040395
30
0
41
1
10
9.2186849948244
20
0.777952766243203
30
0
41
1
10
9.3243595497301
20
0.740496746822657
30
0
41
1
10
9.37702590153876
20
0.720707289975735
30
0
41
1
10
9.48201850772995
20
0.678939506028826
30
0
41
1
10
9.53428706301588
20
0.656866439370788
30
0
41
1
10
9.63938525706848
20
0.611761936295181
30
0
41
1
10
9.74505649426413
20
0.56576467851545
30
0
41
1
10
9.85126910696619
20
0.517285903154033
30
0
41
1
10
9.957483818855
20
0.467109089170833
30
0
41
1
10
10.01060826026
20
0.441192131474622
30
0
41
1
10
10.0903758660494
20
0.401096195294514
30
0
41
1
10
10.1169789405762
20
0.387528130271022
30
0
41
1
10
10.1702110189848
20
0.359967583809379
30
0
41
1
10
10.1967657359253
20
0.345991611671309
30
0
41
1
10
10.2497312588473
20
0.317822472825128
30
0
41
1
10
10.2761661988337
20
0.303639631752418
30
0
41
1
10
10.3290705264023
20
0.27531677784134
30
0
41
1
10
10.3555499590486
20
0.261195282476734
30
0
41
1
10
10.4350459378851
20
0.218907771449977
30
0
41
1
10
10.4881070067302
20
0.190794784710704
30
0
41
1
10
10.594080272506
20
0.134220530826496
30
0
41
1
10
10.6469696538025
20
0.10571702322008
30
0
41
1
10
10.7524551792632
20
0.048093162758903
30
0
41
1
10
10.8050758668764
20
0.0190180941356459
30
0
41
1
10
10.8838503895495
20
-0.0249423475676167
30
0
41
1
10
10.9100763670484
20
-0.0396651503399426
30
0
41
1
10
10.9624898709602
20
-0.0692018077065768
30
0
41
1
10
10.9886886281818
20
-0.0839948576112874
30
0
41
1
10
11.0674632423368
20
-0.128072143092822
30
0
41
1
10
11.1203011635053
20
-0.156898485474699
30
0
41
1
10
11.2264780701143
20
-0.213693393107178
30
0
41
1
10
11.2797922235678
20
-0.24170811814713
30
0
41
1
10
11.3865925662116
20
-0.297494133979143
30
0
41
1
10
11.44017968003
20
-0.325347828950015
30
0
41
1
10
11.5466700399483
20
-0.38026992828074
30
0
41
1
10
11.5996479154536
20
-0.407363142175598
30
0
41
1
10
11.7050514194693
20
-0.460790142521148
30
0
41
1
10
11.7575251317594
20
-0.48702545441742
30
0
41
1
10
11.8629477398364
20
-0.537086965158323
30
0
41
1
10
11.9158123636352
20
-0.561068839392732
30
0
41
1
10
12.0215606180049
20
-0.60746747176168
30
0
41
1
10
12.0744344400994
20
-0.629897334884333
30
0
41
1
10
12.1799745415756
20
-0.673488480517392
30
0
41
1
10
12.2326670600639
20
-0.694608780734711
30
0
41
1
10
12.3116362563072
20
-0.725159382039152
30
0
41
1
10
12.3379464373525
20
-0.735156263487852
30
0
41
1
10
12.3905379340885
20
-0.754768217790257
30
0
41
1
10
12.4168116780024
20
-0.764391484588629
30
0
41
1
10
12.4694478567673
20
-0.783103879709131
30
0
41
1
10
12.4958128974002
20
-0.792190008336576
30
0
41
1
10
12.5487544787666
20
-0.80969683404976
30
0
41
1
10
12.5753234554162
20
-0.818127533697407
30
0
41
1
10
12.6552660344065
20
-0.842536456071571
30
0
41
1
10
12.7089865853918
20
-0.857666102407222
30
0
41
1
10
12.8693559339797
20
-0.899653311269304
30
0
41
1
10
12.9753377450183
20
-0.923319141777569
30
0
41
1
10
13.133033838816
20
-0.951839484236558
30
0
41
1
10
13.1853172960003
20
-0.960193397775356
30
0
41
1
10
13.2903078280723
20
-0.974115400996453
30
0
41
1
10
13.395779336271
20
-0.985296079539751
30
0
41
1
10
13.5016285521893
20
-0.991529726846551
30
0
41
1
10
13.592901778972
20
-0.994799745468242
30
0
41
1
10
13.6312772450209
20
-0.995525570525558
30
0
41
1
10
13.6696497958331
20
-0.995577443468335
30
0
0
SPLINE
5
CA
100
AcDbEntity
8
1
62
256
6
ByLayer
370
18
48
1
60
0
100
AcDbSpline
70
4
71
3
72
120
73
116
40
0
40
0
40
0
40
0
40
0.0098691691620116
40
0.0098691691620116
40
0.020596481229115
40
0.020596481229115
40
0.0313237932962183
40
0.0313237932962183
40
0.0527784174304229
40
0.0527784174304229
40
0.0742330415646272
40
0.0742330415646272
40
0.0849603536317297
40
0.0849603536317297
40
0.0956876656988318
40
0.0956876656988318
40
0.106414977765934
40
0.106414977765934
40
0.117142289833036
40
0.117142289833036
40
0.138596913967239
40
0.138596913967239
40
0.160051538101441
40
0.160051538101441
40
0.181506162235643
40
0.181506162235643
40
0.192233474302746
40
0.192233474302746
40
0.202960786369848
40
0.202960786369848
40
0.22441541050405
40
0.22441541050405
40
0.245870034638252
40
0.245870034638252
40
0.267324658772455
40
0.267324658772455
40
0.278051970839556
40
0.278051970839556
40
0.288779282906657
40
0.288779282906657
40
0.299506594973759
40
0.299506594973759
40
0.31023390704086
40
0.31023390704086
40
0.331688531175062
40
0.331688531175062
40
0.374597779443467
40
0.374597779443467
40
0.396052403577671
40
0.396052403577671
40
0.417507027711874
40
0.417507027711874
40
0.438961651846078
40
0.438961651846078
40
0.460416275980281
40
0.460416275980281
40
0.481870900114485
40
0.481870900114485
40
0.492598212181587
40
0.492598212181587
40
0.503325524248688
40
0.503325524248688
40
0.52478014838289
40
0.52478014838289
40
0.546234772517091
40
0.546234772517091
40
0.567689396651292
40
0.567689396651292
40
0.578416708718393
40
0.578416708718393
40
0.589144020785494
40
0.589144020785494
40
0.599871332852595
40
0.599871332852595
40
0.610598644919695
40
0.610598644919695
40
0.632053269053899
40
0.632053269053899
40
0.674962517322308
40
0.674962517322308
40
0.696417141456512
40
0.696417141456512
40
0.717871765590715
40
0.717871765590715
40
0.739326389724919
40
0.739326389724919
40
0.760781013859122
40
0.760781013859122
40
0.771508325926225
40
0.771508325926225
40
0.782235637993328
40
0.782235637993328
40
0.792962950060431
40
0.792962950060431
40
0.803690262127534
40
0.803690262127534
40
0.825144886261742
40
0.825144886261742
40
0.846599510395949
40
0.846599510395949
40
0.868054134530157
40
0.868054134530157
40
0.889508758664365
40
0.889508758664365
40
0.910963382798573
40
0.910963382798573
40
0.932418006932781
40
0.932418006932781
40
0.953872631066988
40
0.953872631066988
40
0.975327255201196
40
0.975327255201196
40
0.996781879335404
40
0.996781879335404
40
1
40
1
40
1
40
1
41
1
10
17.6054443667619
20
0.57246808279416
30
0
41
1
10
17.6297385834557
20
0.583654772225003
30
0
41
1
10
17.6541087120789
20
0.594622154489599
30
0
41
1
10
17.7051411768922
20
0.617036831825629
30
0
41
1
10
17.7318107423536
20
0.628455223477886
30
0
41
1
10
17.7852913215227
20
0.650844133387807
30
0
41
1
10
17.81209145181
20
0.661808820797404
30
0
41
1
10
17.8922820379064
20
0.693961840046171
30
0
41
1
10
17.9455659355641
20
0.714491090937173
30
0
41
1
10
18.051640156752
20
0.753907602750957
30
0
41
1
10
18.1044566784056
20
0.772756613273259
30
0
41
1
10
18.1833817578608
20
0.799651787101737
30
0
41
1
10
18.2096371835999
20
0.808390349450463
30
0
41
1
10
18.2620453143825
20
0.825397887436736
30
0
41
1
10
18.2882056657951
20
0.833657102149431
30
0
41
1
10
18.3405772507082
20
0.849546451216412
30
0
41
1
10
18.3667950754533
20
0.857170892262644
30
0
41
1
10
18.419364612439
20
0.871736412914686
30
0
41
1
10
18.4457046579942
20
0.878689497291674
30
0
41
1
10
18.5248328964461
20
0.89863885522422
30
0
41
1
10
18.5777293184574
20
0.910731365128242
30
0
41
1
10
18.6835290434411
20
0.932742788693815
30
0
41
1
10
18.7364107925885
20
0.94266987883131
30
0
41
1
10
18.8421751683092
20
0.960241360062042
30
0
41
1
10
18.8950695342241
20
0.967880337610609
30
0
41
1
10
18.9744325696845
20
0.977507219732445
30
0
41
1
10
19.0008839261246
20
0.980411278905166
30
0
41
1
10
19.0539164566665
20
0.985546564835431
30
0
41
1
10
19.0805037999778
20
0.987776688380535
30
0
41
1
10
19.1603530978791
20
0.993415904003314
30
0
41
1
10
19.2137582821129
20
0.995810356121979
30
0
41
1
10
19.3206108918868
20
0.998077972825371
30
0
41
1
10
19.3740528960338
20
0.997949551135889
30
0
41
1
10
19.4807214289267
20
0.995130146272629
30
0
41
1
10
19.5339726310162
20
0.992433245695764
30
0
41
1
10
19.6137757772561
20
0.986378488778485
30
0
41
1
10
19.6403636774538
20
0.984025119525143
30
0
41
1
10
19.69350991688
20
0.978627323432647
30
0
41
1
10
19.7200339921367
20
0.975579442658074
30
0
41
1
10
19.7729681664073
20
0.968841660405332
30
0
41
1
10
19.7994021011029
20
0.965151731914631
30
0
41
1
10
19.8523317010514
20
0.957214019890614
30
0
41
1
10
19.8788259736566
20
0.952967597695306
30
0
41
1
10
19.958344291971
20
0.939408503755118
30
0
41
1
10
20.0114020340742
20
0.929281395053891
30
0
41
1
10
20.170297053409
20
0.89548692472934
30
0
41
1
10
20.2757008627169
20
0.868284146781463
30
0
41
1
10
20.4331191780709
20
0.820104142925317
30
0
41
1
10
20.4853984111614
20
0.802708807413154
30
0
41
1
10
20.5904904644119
20
0.76622150272749
30
0
41
1
10
20.6433761988286
20
0.747241339703891
30
0
41
1
10
20.74956410451
20
0.707619339149517
30
0
41
1
10
20.8028608999193
20
0.686971328556155
30
0
41
1
10
20.9095834714949
20
0.643584823792679
30
0
41
1
10
20.9631010913471
20
0.620800710265371
30
0
41
1
10
21.0693916213264
20
0.573559766577802
30
0
41
1
10
21.1222565971577
20
0.549054202940113
30
0
41
1
10
21.2011681691603
20
0.511000807418696
30
0
41
1
10
21.2274245724064
20
0.498126877037066
30
0
41
1
10
21.2799779700068
20
0.472222919875008
30
0
41
1
10
21.3062854640923
20
0.459210554641686
30
0
41
1
10
21.3853390096996
20
0.420071657102994
30
0
41
1
10
21.4381810681534
20
0.393788766299849
30
0
41
1
10
21.5438581213126
20
0.340399371291511
30
0
41
1
10
21.5966765639319
20
0.313263301437075
30
0
41
1
10
21.7021164480689
20
0.257816486719747
30
0
41
1
10
21.7547646466406
20
0.229551238612544
30
0
41
1
10
21.8336669254029
20
0.186378705836518
30
0
41
1
10
21.8599539965921
20
0.171855036273286
30
0
41
1
10
21.9124996186554
20
0.142533067748019
30
0
41
1
10
21.9387627093349
20
0.127742488870723
30
0
41
1
10
21.9914080295555
20
0.0981581039648347
30
0
41
1
10
22.0177953332117
20
0.0833740659550131
30
0
41
1
10
22.0707803429456
20
0.0539826852755141
30
0
41
1
10
22.0973661075191
20
0.0393531909380727
30
0
41
1
10
22.1773441423874
20
-0.0044411715190336
30
0
41
1
10
22.2310339943395
20
-0.0335536321424001
30
0
41
1
10
22.3911311788648
20
-0.120542512183277
30
0
41
1
10
22.4969088365702
20
-0.178468911354855
30
0
41
1
10
22.6543073849245
20
-0.264793528639188
30
0
41
1
10
22.7065278417552
20
-0.29352469222826
30
0
41
1
10
22.8115162291774
20
-0.349082147795997
30
0
41
1
10
22.8642422359997
20
-0.375994676462966
30
0
41
1
10
22.9698596463302
20
-0.428653281062026
30
0
41
1
10
23.0227483512099
20
-0.454403441748156
30
0
41
1
10
23.1284333898103
20
-0.505149233778496
30
0
41
1
10
23.1812508478542
20
-0.530107460476017
30
0
41
1
10
23.2604909578458
20
-0.566805595363149
30
0
41
1
10
23.2869063509481
20
-0.578915568633278
30
0
41
1
10
23.3397385982678
20
-0.602886339522058
30
0
41
1
10
23.3661450762799
20
-0.614762584497612
30
0
41
1
10
23.4190339767286
20
-0.638144563580255
30
0
41
1
10
23.4455260358667
20
-0.649639735948284
30
0
41
1
10
23.4987180446141
20
-0.672049187816668
30
0
41
1
10
23.5253311118962
20
-0.682916588490173
30
0
41
1
10
23.6051781141572
20
-0.714617640992572
30
0
41
1
10
23.6584150554602
20
-0.734563981139701
30
0
41
1
10
23.7646301371026
20
-0.772542985424423
30
0
41
1
10
23.8175832801217
20
-0.790601056929233
30
0
41
1
10
23.9231126238025
20
-0.824888218170628
30
0
41
1
10
23.9757110573953
20
-0.841090770865293
30
0
41
1
10
24.0805997982187
20
-0.871503503462037
30
0
41
1
10
24.1328018065948
20
-0.885777850964104
30
0
41
1
10
24.2375841841654
20
-0.911678696768377
30
0
41
1
10
24.2902665622075
20
-0.923248353877511
30
0
41
1
10
24.3960023831315
20
-0.943934366646147
30
0
41
1
10
24.4490423062406
20
-0.953061474981496
30
0
41
1
10
24.5551851433287
20
-0.969036234299892
30
0
41
1
10
24.6082816857336
20
-0.975879164976362
30
0
41
1
10
24.7145957885558
20
-0.987118960749598
30
0
41
1
10
24.7678936027356
20
-0.991517736090429
30
0
41
1
10
24.8738529999665
20
-0.997655782083683
30
0
41
1
10
24.9266737890425
20
-0.999367365931363
30
0
41
1
10
24.9877455730896
20
-0.999802974880311
30
0
41
1
10
24.9957154968333
20
-0.999830569486193
30
0
41
1
10
25.0036891093524
20
-0.999829114737452
30
0
0
SPLINE
5
CB
100
AcDbEntity
8
1
62
256
6
ByLayer
370
18
48
1
60
0
100
AcDbSpline
70
4
71
5
72
80
73
74
40
0
40
0
40
0
40
0
40
0
40
0
40
0.0031183902402418
40
0.0707626887190217
40
0.135429201709414
40
0.196021587429639
40
0.261755403456646
40
0.330383612807322
40
0.399270454010386
40
0.467808102399053
40
0.535714897500221
40
0.604776997813117
40
0.674615228203726
40
0.720482319374462
40
0.732937335394105
40
0.734027011138647
40
0.737386844684322
40
0.741836353974539
40
0.746285863264756
40
0.750735372554973
40
0.753515290806014
40
0.756295209057056
40
0.759075127308097
40
0.761855045559139
40
0.763504715989939
40
0.763612303191947
40
0.765369560824756
40
0.768884076090373
40
0.774266705620514
40
0.77625488612433
40
0.776702226737689
40
0.779137747854864
40
0.781404097090737
40
0.783670446326608
40
0.785725596249626
40
0.786061130930935
40
0.787780746172644
40
0.78972371275027
40
0.791666679327895
40
0.793717434140992
40
0.794763737617062
40
0.79576818895409
40
0.798019004795948
40
0.800269820637806
40
0.80266350372
40
0.803860345261098
40
0.804715232076168
40
0.805057186802195
40
0.806373858022718
40
0.807690529243241
40
0.809007200463764
40
0.810323871684288
40
0.817921407476413
40
0.819457971543035
40
0.821685989439637
40
0.825450571402862
40
0.827332862384474
40
0.829215153366086
40
0.831097444347699
40
0.832979735329311
40
0.836462675397593
40
0.839945615465876
40
0.843428555534158
40
0.846911495602441
40
0.853877375739005
40
0.86084325587557
40
0.871148336846923
40
0.879545069490249
40
0.946216882910793
40
0.994927048854752
40
1
40
1
40
1
40
1
40
1
40
1
41
1
10
5.1325225995281
20
-0.940191180257699
30
0
41
1
10
5.1325225995281
20
-0.939502110976235
30
0
41
1
10
5.1325225995281
20
-0.923866793259123
30
0
41
1
10
5.1325225995281
20
-0.893990114626035
30
0
41
1
10
5.1325225995281
20
-0.850876991257991
30
0
41
1
10
5.13252259952813
20
-0.793569147912081
30
0
41
1
10
5.13252259952807
20
-0.722270651977794
30
0
41
1
10
5.1325225995281
20
-0.651438462120922
30
0
41
1
10
5.13252259952807
20
-0.580511115012854
30
0
41
1
10
5.1325225995281
20
-0.508768681470798
30
0
41
1
10
5.1325225995281
20
-0.437113520571216
30
0
41
1
10
5.1325225995281
20
-0.365930349788243
30
0
41
1
10
5.13252259952807
20
-0.300341331573634
30
0
41
1
10
5.1325225995281
20
-0.246809289994758
30
0
41
1
10
5.1325225995281
20
-0.207195841327348
30
0
41
1
10
5.1325225995281
20
-0.180812232849917
30
0
41
1
10
5.1325225995281
20
-0.167432483358937
30
0
41
1
10
5.1325225995281
20
-0.162296587952341
30
0
41
1
10
5.1325225995281
20
-0.1587543748592
30
0
41
1
10
5.1325225995281
20
-0.154877218924071
30
0
41
1
10
5.1325225995281
20
-0.151119615473846
30
0
41
1
10
5.1325225995281
20
-0.147701420877354
30
0
41
1
10
5.1325225995281
20
-0.144624771825761
30
0
41
1
10
5.1325225995281
20
-0.142112779573807
30
0
41
1
10
5.1325225995281
20
-0.140138075376626
30
0
41
1
10
5.1325225995281
20
-0.138373455988415
30
0
41
1
10
5.13252259952813
20
-0.13647697549888
30
0
41
1
10
5.13252259952813
20
-0.134094725356277
30
0
41
1
10
5.13252259952813
20
-0.131679719966314
30
0
41
1
10
5.13252259952813
20
-0.129250887913031
30
0
41
1
10
5.13252259952813
20
-0.126755030569058
30
0
41
1
10
5.1325225995281
20
-0.124540315293189
30
0
41
1
10
5.1325225995281
20
-0.122907510071116
30
0
41
1
10
5.1325225995281
20
-0.121297291454994
30
0
41
1
10
5.13252259952807
20
-0.119750426913186
30
0
41
1
10
5.13252259952807
20
-0.118355325970128
30
0
41
1
10
5.13252259952804
20
-0.11704324265105
30
0
41
1
10
5.13252259952804
20
-0.115811183389724
30
0
41
1
10
5.13252259952802
20
-0.114609100608959
30
0
41
1
10
5.13252259952799
20
-0.113342716890116
30
0
41
1
10
5.13252259952796
20
-0.112217225405118
30
0
41
1
10
5.13252259952793
20
-0.111082180345789
30
0
41
1
10
5.1325225995279
20
-0.109942399173804
30
0
41
1
10
5.13252259952787
20
-0.108797767266935
30
0
41
1
10
5.13252259952785
20
-0.107684142754834
30
0
41
1
10
5.13252259952782
20
-0.10663966562467
30
0
41
1
10
5.13252259952779
20
-0.105850947768403
30
0
41
1
10
5.13252259952779
20
-0.105187136838396
30
0
41
1
10
5.13252259952776
20
-0.104653273257782
30
0
41
1
10
5.13252259952776
20
-0.104120088873117
30
0
41
1
10
5.13252259952776
20
-0.103555207426098
30
0
41
1
10
5.13252259952773
20
-0.102303613319407
30
0
41
1
10
5.13252259952776
20
-0.101125601735731
30
0
41
1
10
5.13252259952779
20
-0.0999553498800481
30
0
41
1
10
5.13252259952785
20
-0.0986757386659463
30
0
41
1
10
5.1325225995279
20
-0.0974448392288139
30
0
41
1
10
5.13252259952793
20
-0.0966587523317628
30
0
41
1
10
5.13252259952796
20
-0.0958743403981259
30
0
41
1
10
5.13252259952799
20
-0.0951310347028027
30
0
41
1
10
5.13252259952802
20
-0.0944170781273499
30
0
41
1
10
5.13252259952804
20
-0.0936106562776615
30
0
41
1
10
5.13252259952807
20
-0.0927120813628619
30
0
41
1
10
5.1325225995281
20
-0.0917197303006105
30
0
41
1
10
5.1325225995281
20
-0.0904123137688089
30
0
41
1
10
5.13252259952813
20
-0.0888873601556668
30
0
41
1
10
5.13252259952813
20
-0.0869295461238266
30
0
41
1
10
5.13252259952813
20
-0.0846504897188254
30
0
41
1
10
5.13252259952813
20
-0.0783452966069831
30
0
41
1
10
5.1325225995281
20
-0.0692871807953566
30
0
41
1
10
5.1325225995281
20
-0.0603551558220659
30
0
41
1
10
5.13252259952804
20
-0.0521104976387505
30
0
41
1
10
5.13252259952807
20
-0.0444018690708674
30
0
41
1
10
5.13252259952804
20
-0.040959841408295
30
0
41
1
10
5.13252259952804
20
-0.0406351802573965
30
0
0
SPLINE
5
CC
100
AcDbEntity
8
1
62
256
6
ByLayer
370
18
48
1
60
0
100
AcDbSpline
70
4
71
5
72
19
73
13
40
0
40
0
40
0
40
0
40
0
40
0
40
0.104301193772185
40
0.246287957473151
40
0.385812665756161
40
0.507765872194169
40
0.62149635163307
40
0.751697318175412
40
0.885800106890089
40
1
40
1
40
1
40
1
40
1
40
1
41
1
10
5.1325225995281
20
0.0187653861666206
30
0
41
1
10
5.13252259952813
20
0.0199800174931113
30
0
41
1
10
5.1325225995281
20
0.0227451369215999
30
0
41
1
10
5.1325225995281
20
0.0266955261492114
30
0
41
1
10
5.1325225995281
20
0.0310881782249623
30
0
41
1
10
5.1325225995281
20
0.0351695838207604
30
0
41
1
10
5.1325225995281
20
0.0379826339825797
30
0
41
1
10
5.1325225995281
20
0.0393355233304362
30
0
41
1
10
5.13252259952807
20
0.0392466890036758
30
0
41
1
10
5.13252259952804
20
0.0380815079920751
30
0
41
1
10
5.13252259952807
20
0.0365331633966832
30
0
41
1
10
5.13252259952813
20
0.0352346380189488
30
0
41
1
10
5.13252259952813
20
0.0345773630516248
30
0
0
SPLINE
5
CD
100
AcDbEntity
8
1
62
256
6
ByLayer
370
18
48
1
60
0
100
AcDbSpline
70
4
71
3
72
116
73
112
40
0
40
0
40
0
40
0
40
0.0625000000000006
40
0.0625000000000006
40
0.125000000000001
40
0.125000000000001
40
0.187500000000002
40
0.187500000000002
40
0.218750000000003
40
0.218750000000003
40
0.250000000000004
40
0.250000000000004
40
0.312500000000007
40
0.312500000000007
40
0.343750000000009
40
0.343750000000009
40
0.375000000000012
40
0.375000000000012
40
0.390625000000013
40
0.390625000000013
40
0.406250000000015
40
0.406250000000015
40
0.421875000000017
40
0.421875000000017
40
0.437500000000019
40
0.437500000000019
40
0.453125000000021
40
0.453125000000021
40
0.468750000000022
40
0.468750000000022
40
0.476562500000023
40
0.476562500000023
40
0.484375000000024
40
0.484375000000024
40
0.492187500000025
40
0.492187500000025
40
0.496093750000026
40
0.496093750000026
40
0.500000000000026
40
0.500000000000026
40
0.507812500000027
40
0.507812500000027
40
0.511718750000027
40
0.511718750000027
40
0.515625000000028
40
0.515625000000028
40
0.523437500000029
40
0.523437500000029
40
0.527343750000029
40
0.527343750000029
40
0.53125000000003
40
0.53125000000003
40
0.539062500000031
40
0.539062500000031
40
0.542968750000032
40
0.542968750000032
40
0.546875000000032
40
0.546875000000032
40
0.562500000000031
40
0.562500000000031
40
0.570312500000031
40
0.570312500000031
40
0.578125000000031
40
0.578125000000031
40
0.593750000000029
40
0.593750000000029
40
0.609375000000028
40
0.609375000000028
40
0.625000000000027
40
0.625000000000027
40
0.640625000000025
40
0.640625000000025
40
0.656250000000024
40
0.656250000000024
40
0.687500000000021
40
0.687500000000021
40
0.718750000000018
40
0.718750000000018
40
0.734375000000017
40
0.734375000000017
40
0.750000000000015
40
0.750000000000015
40
0.753906250000015
40
0.753906250000015
40
0.757812500000015
40
0.757812500000015
40
0.761718750000014
40
0.761718750000014
40
0.765625000000014
40
0.765625000000014
40
0.769531250000014
40
0.769531250000014
40
0.773437500000014
40
0.773437500000014
40
0.777343750000013
40
0.777343750000013
40
0.781250000000013
40
0.781250000000013
40
0.796875000000012
40
0.796875000000012
40
0.81250000000001
40
0.81250000000001
40
0.843750000000006
40
0.843750000000006
40
0.859375000000004
40
0.859375000000004
40
0.875000000000003
40
0.875000000000003
40
0.937500000000002
40
0.937500000000002
40
1
40
1
40
1
40
1
41
1
10
5.1325225995281
20
-0.940191180298115
30
0
41
1
10
4.98917159803148
20
-0.95259092658597
30
0
41
1
10
4.84676973700326
20
-0.963614376551931
30
0
41
1
10
4.56366175639479
20
-0.980941053875057
30
0
41
1
10
4.42295499569292
20
-0.987245541960874
30
0
41
1
10
4.14296186344347
20
-0.99309967376368
30
0
41
1
10
4.00367470520385
20
-0.992656720509302
30
0
41
1
10
3.7955664018267
20
-0.985266192111652
30
0
41
1
10
3.72641608432292
20
-0.981679045999073
30
0
41
1
10
3.58905172563974
20
-0.972009393925646
30
0
41
1
10
3.52076356239056
20
-0.965925452763884
30
0
41
1
10
3.31708211798204
20
-0.943475113670644
30
0
41
1
10
3.1828560560966
20
-0.922975522609192
30
0
41
1
10
2.98405318074151
20
-0.881356620486287
30
0
41
1
10
2.91821107974204
20
-0.86566083181367
30
0
41
1
10
2.78748259194882
20
-0.82989563031461
30
0
41
1
10
2.72259347621957
20
-0.809837904908193
30
0
41
1
10
2.62613437299137
20
-0.775589912654397
30
0
41
1
10
2.59410757148836
20
-0.763467560150389
30
0
41
1
10
2.53048139921174
20
-0.73762549009885
30
0
41
1
10
2.49902443396456
20
-0.723965046524143
30
0
41
1
10
2.43694021760666
20
-0.69492352953057
30
0
41
1
10
2.40631190329498
20
-0.679544465592414
30
0
41
1
10
2.34606024832419
20
-0.646714613731547
30
0
41
1
10
2.31643464606748
20
-0.629268079406017
30
0
41
1
10
2.2584689504697
20
-0.591753373628137
30
0
41
1
10
2.23031650848713
20
-0.571807092087965
30
0
41
1
10
2.17640792954262
20
-0.529003887076129
30
0
41
1
10
2.15060842276077
20
-0.506141543705013
30
0
41
1
10
2.11438733051858
20
-0.468764457642123
30
0
41
1
10
2.10273082925033
20
-0.455786585630932
30
0
41
1
10
2.08046743016945
20
-0.428537530753658
30
0
41
1
10
2.06998449909804
20
-0.414414664701923
30
0
41
1
10
2.0506422375191
20
-0.385034823200726
30
0
41
1
10
2.04177302191488
20
-0.369770530340162
30
0
41
1
10
2.02998609508208
20
-0.34579870571855
30
0
41
1
10
2.02630009309144
20
-0.337596521020544
30
0
41
1
10
2.01959819130431
20
-0.321017316170554
30
0
41
1
10
2.01657316640515
20
-0.312627135389363
30
0
41
1
10
2.0085474547829
20
-0.287135219130562
30
0
41
1
10
2.00459081212179
20
-0.269713563431907
30
0
41
1
10
2.00111323774792
20
-0.24283996686998
30
0
41
1
10
2.00036481516963
20
-0.23375825290384
30
0
41
1
10
1.99976898287727
20
-0.215325363334245
30
0
41
1
10
1.99992993903175
20
-0.206049550765812
30
0
41
1
10
2.00177519279001
20
-0.178537465119206
30
0
41
1
10
2.00481171585434
20
-0.160419141481611
30
0
41
1
10
2.01196590981803
20
-0.133570349705792
30
0
41
1
10
2.01478426926764
20
-0.124675577527967
30
0
41
1
10
2.0212741318654
20
-0.106995168569569
30
0
41
1
10
2.02491157888534
20
-0.0983075747171824
30
0
41
1
10
2.03679628307668
20
-0.0728760718081389
30
0
41
1
10
2.04604717987996
20
-0.0566602127292413
30
0
41
1
10
2.06156106780384
20
-0.033249364635509
30
0
41
1
10
2.06700670607791
20
-0.0255986853937884
30
0
41
1
10
2.07840144171914
20
-0.0105783208831838
30
0
41
1
10
2.08435223635362
20
-0.0032100473250978
30
0
41
1
10
2.11486838778205
20
0.0325459113421971
30
0
41
1
10
2.14195758880911
20
0.0581586305318069
30
0
41
1
10
2.18517660884422
20
0.0936959718562207
30
0
41
1
10
2.20002582578405
20
0.105047957995652
30
0
41
1
10
2.23047070183213
20
0.126920856308885
30
0
41
1
10
2.24600177192326
20
0.137392588428696
30
0
41
1
10
2.29304940820097
20
0.167450280442608
30
0
41
1
10
2.32515458096267
20
0.185795344156219
30
0
41
1
10
2.39043575644118
20
0.220061182410916
30
0
41
1
10
2.42361591883818
20
0.235972135940102
30
0
41
1
10
2.49081414849601
20
0.265916726086829
30
0
41
1
10
2.52483366893421
20
0.279946853086841
30
0
41
1
10
2.59355627535939
20
0.306491580848217
30
0
41
1
10
2.62826040225889
20
0.319003802244396
30
0
41
1
10
2.69824525267538
20
0.342763673135806
30
0
41
1
10
2.73355165151884
20
0.354017023385467
30
0
41
1
10
2.8397623917453
20
0.386027170859279
30
0
41
1
10
2.91110008890999
20
0.405102409877088
30
0
41
1
10
3.0545968276785
20
0.439887638448511
30
0
41
1
10
3.12675884317196
20
0.455584218755291
30
0
41
1
10
3.23551426893388
20
0.477113394342211
30
0
41
1
10
3.27185483962518
20
0.483941572208124
30
0
41
1
10
3.34469705845532
20
0.496977620444
30
0
41
1
10
3.38120453817771
20
0.503182243963948
30
0
41
1
10
3.42685925765559
20
0.510783760811478
30
0
41
1
10
3.43599048803873
20
0.512299312644842
30
0
41
1
10
3.45426215231436
20
0.515252737332474
30
0
41
1
10
3.46340152551824
20
0.516698884349864
30
0
41
1
10
3.48173384238231
20
0.51916407675867
30
0
41
1
10
3.49092971996998
20
0.520160041937999
30
0
41
1
10
3.50943477449528
20
0.52125734050469
30
0
41
1
10
3.51874352363842
20
0.521362261770264
30
0
41
1
10
3.53748551936241
20
0.520590071201525
30
0
41
1
10
3.5469778485035
20
0.519700376948038
30
0
41
1
10
3.56566378381299
20
0.517072483535713
30
0
41
1
10
3.57488583088559
20
0.515350790554209
30
0
41
1
10
3.59322716645195
20
0.511554070059503
30
0
41
1
10
3.60235085146127
20
0.509493851139581
30
0
41
1
10
3.62059467197301
20
0.505352891258951
30
0
41
1
10
3.62971208446007
20
0.503263101472555
30
0
41
1
10
3.67531637581905
20
0.492852056535554
30
0
41
1
10
3.71184101492244
20
0.484598539787839
30
0
41
1
10
3.78489209571509
20
0.467973480211555
30
0
41
1
10
3.82142041706521
20
0.459607748710596
30
0
41
1
10
3.9310065329397
20
0.434326847722986
30
0
41
1
10
4.00406783887161
20
0.417235301428036
30
0
41
1
10
4.1137050964642
20
0.391387360048213
30
0
41
1
10
4.15026952099427
20
0.38275365589709
30
0
41
1
10
4.22313266084007
20
0.364776925805103
30
0
41
1
10
4.25941654572694
20
0.355384597621935
30
0
41
1
10
4.43984046381817
20
0.305706278589696
30
0
41
1
10
4.58126815478005
20
0.2579597757219
30
0
41
1
10
4.85968715095009
20
0.148774525079006
30
0
41
1
10
4.99666787867136
20
0.0872944937539728
30
0
41
1
10
5.13252259952807
20
0.021282363053615
30
0
0
LINE
5
7D
100
AcDbEntity
8
80
62
256
6
ByLayer
370
18
48
1
60
0
100
AcDbLine
10
0
20
0
30
0
11
-5
21
0
31
0
39
0
210
0
220
0
230
1
0
LINE
5
7E
100
AcDbEntity
8
4
62
256
6
ByLayer
370
18
48
0.05
60
0
100
AcDbLine
10
-5
20
0
30
0
11
31
21
0
31
0
39
0
210
0
220
0
230
1
0
LINE
5
80
100
AcDbEntity
8
81
62
256
6
ByLayer
370
18
48
1
60
0
100
AcDbLine
10
26
20
0
30
0
11
31
21
0
31
0
39
0
210
0
220
0
230
1
0
LINE
5
81
100
AcDbEntity
8
SK4
62
256
6
ByLayer
370
18
48
0.05
60
0
100
AcDbLine
10
-28
20
0
30
0
11
31
21
0
31
0
39
0
210
0
220
0
230
1
0
LINE
5
83
100
AcDbEntity
8
1
62
256
6
ByLayer
370
18
48
1
60
0
100
AcDbLine
10
0
20
1
30
0
11
0
21
-1
31
0
39
0
210
0
220
0
230
1
0
LINE
5
84
100
AcDbEntity
8
1
62
256
6
ByLayer
370
18
48
1
60
0
100
AcDbLine
10
25.459225
20
-1
30
0
11
25.459225
21
-0.562419
31
0
39
0
210
0
220
0
230
1
0
LINE
5
85
100
AcDbEntity
8
1
62
256
6
ByLayer
370
18
48
1
60
0
100
AcDbLine
10
25.459225
20
1
30
0
11
25.459225
21
0.968581
31
0
39
0
210
0
220
0
230
1
0
LINE
5
86
100
AcDbEntity
8
1
62
256
6
ByLayer
370
18
48
1
60
0
100
AcDbLine
10
0.1
20
-0.99049
30
0
11
0.1
21
0.99049
31
0
39
0
210
0
220
0
230
1
0
LINE
5
87
100
AcDbEntity
8
SK1
62
256
6
ByLayer
370
18
48
1
60
0
100
AcDbLine
10
-23
20
-0.7
30
0
11
-23
21
0.7
31
0
39
0
210
0
220
0
230
1
0
LINE
5
89
100
AcDbEntity
8
SK1
62
256
6
ByLayer
370
18
48
1
60
0
100
AcDbLine
10
0
20
1
30
0
11
0
21
-1
31
0
39
0
210
0
220
0
230
1
0
LINE
5
8A
100
AcDbEntity
8
SK1
62
256
6
ByLayer
370
18
48
1
60
0
100
AcDbLine
10
-22.7
20
-1
30
0
11
-22.7
21
1
31
0
39
0
210
0
220
0
230
1
0
LINE
5
8B
100
AcDbEntity
8
1
62
256
6
ByLayer
370
18
48
1
60
0
100
AcDbLine
10
26
20
0
30
0
11
25.459225
21
1
31
0
39
0
210
0
220
0
230
1
0
LINE
5
8C
100
AcDbEntity
8
1
62
256
6
ByLayer
370
18
48
1
60
0
100
AcDbLine
10
25.459225
20
-1
30
0
11
26
21
0
31
0
39
0
210
0
220
0
230
1
0
LINE
5
8D
100
AcDbEntity
8
1
62
256
6
ByLayer
370
18
48
1
60
0
100
AcDbLine
10
0.1
20
0.99049
30
0
11
0
21
1
31
0
39
0
210
0
220
0
230
1
0
LINE
5
8E
100
AcDbEntity
8
1
62
256
6
ByLayer
370
18
48
1
60
0
100
AcDbLine
10
0
20
-1
30
0
11
0.1
21
-0.99049
31
0
39
0
210
0
220
0
230
1
0
LINE
5
8F
100
AcDbEntity
8
1
62
256
6
ByLayer
370
18
48
1
60
0
100
AcDbLine
10
0.1
20
-0.99049
30
0
11
4.122735
21
-0.991999
31
0
39
0
210
0
220
0
230
1
0
LINE
5
90
100
AcDbEntity
8
1
62
256
6
ByLayer
370
18
48
1
60
0
100
AcDbLine
10
8.003253
20
-0.993454
30
0
11
10.212436
21
-0.994282
31
0
39
0
210
0
220
0
230
1
0
LINE
5
91
100
AcDbEntity
8
1
62
256
6
ByLayer
370
18
48
1
60
0
100
AcDbLine
10
13.668564
20
-0.995579
30
0
11
15.88096
21
-0.996408
31
0
39
0
210
0
220
0
230
1
0
LINE
5
92
100
AcDbEntity
8
1
62
256
6
ByLayer
370
18
48
1
60
0
100
AcDbLine
10
19.336683
20
-0.997704
30
0
11
21.548304
21
-0.998533
31
0
39
0
210
0
220
0
230
1
0
LINE
5
93
100
AcDbEntity
8
1
62
256
6
ByLayer
370
18
48
1
60
0
100
AcDbLine
10
25.005158
20
-0.99983
30
0
11
25.459225
21
-1
31
0
39
0
210
0
220
0
230
1
0
LINE
5
94
100
AcDbEntity
8
1
62
256
6
ByLayer
370
18
48
1
60
0
100
AcDbLine
10
25.459225
20
1
30
0
11
25.005158
21
0.99983
31
0
39
0
210
0
220
0
230
1
0
LINE
5
95
100
AcDbEntity
8
1
62
256
6
ByLayer
370
18
48
1
60
0
100
AcDbLine
10
21.548304
20
0.998533
30
0
11
19.336683
21
0.997704
31
0
39
0
210
0
220
0
230
1
0
LINE
5
96
100
AcDbEntity
8
1
62
256
6
ByLayer
370
18
48
1
60
0
100
AcDbLine
10
15.88096
20
0.996408
30
0
11
13.668564
21
0.995579
31
0
39
0
210
0
220
0
230
1
0
LINE
5
97
100
AcDbEntity
8
1
62
256
6
ByLayer
370
18
48
1
60
0
100
AcDbLine
10
10.212436
20
0.994282
30
0
11
8.003253
21
0.993454
31
0
39
0
210
0
220
0
230
1
0
LINE
5
98
100
AcDbEntity
8
1
62
256
6
ByLayer
370
18
48
1
60
0
100
AcDbLine
10
4.122735
20
0.991999
30
0
11
0.1
21
0.99049
31
0
39
0
210
0
220
0
230
1
0
LINE
5
99
100
AcDbEntity
8
SK1
62
256
6
ByLayer
370
18
48
1
60
0
100
AcDbLine
10
-23
20
-0.7
30
0
11
-22.7
21
-1
31
0
39
0
210
0
220
0
230
1
0
LINE
5
9A
100
AcDbEntity
8
SK1
62
256
6
ByLayer
370
18
48
1
60
0
100
AcDbLine
10
-22.7
20
1
30
0
11
-23
21
0.7
31
0
39
0
210
0
220
0
230
1
0
LINE
5
9B
100
AcDbEntity
8
SK1
62
256
6
ByLayer
370
18
48
1
60
0
100
AcDbLine
10
-22.7
20
-1
30
0
11
0
21
-1
31
0
39
0
210
0
220
0
230
1
0
LINE
5
9C
100
AcDbEntity
8
SK1
62
256
6
ByLayer
370
18
48
1
60
0
100
AcDbLine
10
0
20
1
30
0
11
-22.7
21
1
31
0
39
0
210
0
220
0
230
1
0
LINE
5
9D
100
AcDbEntity
8
SK2
62
256
6
ByLayer
370
13
48
1
60
0
100
AcDbLine
10
-29.5
20
27.782741
30
0
11
-29.5
21
-8.5
31
0
39
0
210
0
220
0
230
1
0
LINE
5
9F
100
AcDbEntity
8
SK2
62
256
6
ByLayer
370
13
48
1
60
0
100
AcDbLine
10
-24.5875
20
1
30
0
11
-31.5
21
1
31
0
39
0
210
0
220
0
230
1
0
LINE
5
A0
100
AcDbEntity
8
SK2
62
256
6
ByLayer
370
13
48
1
60
0
100
AcDbLine
10
-24.5875
20
-1
30
0
11
-31.5
21
-1
31
0
39
0
210
0
220
0
230
1
0
LINE
5
A1
100
AcDbEntity
8
1
62
256
6
ByLayer
370
18
48
1
60
1
100
AcDbLine
10
-29.5
20
1
30
0
11
-29.960784
21
4.499998
31
0
39
0
210
0
220
0
230
1
0
LINE
5
A2
100
AcDbEntity
8
1
62
256
6
ByLayer
370
18
48
1
60
1
100
AcDbLine
10
-29.960784
20
4.499998
30
0
11
-29.039216
21
4.500002
31
0
39
0
210
0
220
0
230
1
0
LINE
5
A3
100
AcDbEntity
8
1
62
256
6
ByLayer
370
18
48
1
60
1
100
AcDbLine
10
-29.039216
20
4.500002
30
0
11
-29.5
21
1
31
0
39
0
210
0
220
0
230
1
0
LINE
5
A4
100
AcDbEntity
8
1
62
256
6
ByLayer
370
18
48
1
60
1
100
AcDbLine
10
-29.5
20
-1
30
0
11
-29.039216
21
-4.499998
31
0
39
0
210
0
220
0
230
1
0
LINE
5
A5
100
AcDbEntity
8
1
62
256
6
ByLayer
370
18
48
1
60
1
100
AcDbLine
10
-29.039216
20
-4.499998
30
0
11
-29.960784
21
-4.500002
31
0
39
0
210
0
220
0
230
1
0
LINE
5
A6
100
AcDbEntity
8
1
62
256
6
ByLayer
370
18
48
1
60
1
100
AcDbLine
10
-29.960784
20
-4.500002
30
0
11
-29.5
21
-1
31
0
39
0
210
0
220
0
230
1
0
LINE
5
A7
100
AcDbEntity
8
2
62
256
6
ByLayer
370
13
48
1
60
0
100
AcDbLine
10
34.959225
20
27.782741
30
0
11
34.959225
21
-8.5
31
0
39
0
210
0
220
0
230
1
0
LINE
5
A9
100
AcDbEntity
8
2
62
256
6
ByLayer
370
13
48
1
60
0
100
AcDbLine
10
27.046725
20
1
30
0
11
36.959225
21
1
31
0
39
0
210
0
220
0
230
1
0
LINE
5
AA
100
AcDbEntity
8
2
62
256
6
ByLayer
370
13
48
1
60
0
100
AcDbLine
10
27.046725
20
-1
30
0
11
36.959225
21
-1
31
0
39
0
210
0
220
0
230
1
0
LINE
5
AB
100
AcDbEntity
8
1
62
256
6
ByLayer
370
18
48
1
60
1
100
AcDbLine
10
34.959225
20
1
30
0
11
34.498442
21
4.499998
31
0
39
0
210
0
220
0
230
1
0
LINE
5
AC
100
AcDbEntity
8
1
62
256
6
ByLayer
370
18
48
1
60
1
100
AcDbLine
10
34.498442
20
4.499998
30
0
11
35.420009
21
4.500002
31
0
39
0
210
0
220
0
230
1
0
LINE
5
AD
100
AcDbEntity
8
1
62
256
6
ByLayer
370
18
48
1
60
1
100
AcDbLine
10
35.420009
20
4.500002
30
0
11
34.959225
21
1
31
0
39
0
210
0
220
0
230
1
0
LINE
5
AE
100
AcDbEntity
8
1
62
256
6
ByLayer
370
18
48
1
60
1
100
AcDbLine
10
34.959225
20
-1
30
0
11
35.420009
21
-4.499998
31
0
39
0
210
0
220
0
230
1
0
LINE
5
AF
100
AcDbEntity
8
1
62
256
6
ByLayer
370
18
48
1
60
1
100
AcDbLine
10
35.420009
20
-4.499998
30
0
11
34.498442
21
-4.500002
31
0
39
0
210
0
220
0
230
1
0
LINE
5
B0
100
AcDbEntity
8
1
62
256
6
ByLayer
370
18
48
1
60
1
100
AcDbLine
10
34.498442
20
-4.500002
30
0
11
34.959225
21
-1
31
0
39
0
210
0
220
0
230
1
0
LINE
5
B1
100
AcDbEntity
8
2
62
256
6
ByLayer
370
13
48
1
60
0
100
AcDbLine
10
26.755136
20
-1.396397
30
0
11
37.416232
21
-21.110889
31
0
39
0
210
0
220
0
230
1
0
LINE
5
B2
100
AcDbEntity
8
2
62
256
6
ByLayer
370
13
48
1
60
0
100
AcDbLine
10
26.755136
20
1.396397
30
0
11
37.416232
21
21.110889
31
0
39
0
210
0
220
0
230
1
0
LINE
5
B3
100
AcDbEntity
8
1
62
256
6
ByLayer
370
18
48
1
60
1
100
AcDbLine
10
36.464879
20
-19.351649
30
0
11
39.239971
21
-17.169637
31
0
39
0
210
0
220
0
230
1
0
LINE
5
B4
100
AcDbEntity
8
1
62
256
6
ByLayer
370
18
48
1
60
1
100
AcDbLine
10
39.239971
20
-17.169637
30
0
11
39.710161
21
-17.962233
31
0
39
0
210
0
220
0
230
1
0
LINE
5
B5
100
AcDbEntity
8
1
62
256
6
ByLayer
370
18
48
1
60
1
100
AcDbLine
10
39.710161
20
-17.962233
30
0
11
36.464879
21
-19.351649
31
0
39
0
210
0
220
0
230
1
0
LINE
5
B6
100
AcDbEntity
8
1
62
256
6
ByLayer
370
18
48
1
60
1
100
AcDbLine
10
36.464879
20
19.351649
30
0
11
39.710158
21
17.962234
31
0
39
0
210
0
220
0
230
1
0
LINE
5
B7
100
AcDbEntity
8
1
62
256
6
ByLayer
370
18
48
1
60
1
100
AcDbLine
10
39.710158
20
17.962234
30
0
11
39.239974
21
17.169635
31
0
39
0
210
0
220
0
230
1
0
LINE
5
B8
100
AcDbEntity
8
1
62
256
6
ByLayer
370
18
48
1
60
1
100
AcDbLine
10
39.239974
20
17.169635
30
0
11
36.464879
21
19.351649
31
0
39
0
210
0
220
0
230
1
0
LINE
5
D2
100
AcDbEntity
8
1
62
256
6
ByLayer
370
18
48
1
60
1
100
AcDbLine
10
-29.5
20
1
30
0
11
-29.960784
21
4.499998
31
0
39
0
210
0
220
0
230
1
0
LINE
5
D3
100
AcDbEntity
8
1
62
256
6
ByLayer
370
18
48
1
60
1
100
AcDbLine
10
-29.960784
20
4.499998
30
0
11
-29.039216
21
4.500002
31
0
39
0
210
0
220
0
230
1
0
LINE
5
D4
100
AcDbEntity
8
1
62
256
6
ByLayer
370
18
48
1
60
1
100
AcDbLine
10
-29.039216
20
4.500002
30
0
11
-29.5
21
1
31
0
39
0
210
0
220
0
230
1
0
LINE
5
D6
100
AcDbEntity
8
1
62
256
6
ByLayer
370
18
48
1
60
1
100
AcDbLine
10
-29.5
20
-1
30
0
11
-29.039216
21
-4.499998
31
0
39
0
210
0
220
0
230
1
0
LINE
5
D7
100
AcDbEntity
8
1
62
256
6
ByLayer
370
18
48
1
60
1
100
AcDbLine
10
-29.039216
20
-4.499998
30
0
11
-29.960784
21
-4.500002
31
0
39
0
210
0
220
0
230
1
0
LINE
5
D8
100
AcDbEntity
8
1
62
256
6
ByLayer
370
18
48
1
60
1
100
AcDbLine
10
-29.960784
20
-4.500002
30
0
11
-29.5
21
-1
31
0
39
0
210
0
220
0
230
1
0
LINE
5
DC
100
AcDbEntity
8
1
62
256
6
ByLayer
370
18
48
1
60
1
100
AcDbLine
10
34.959225
20
1
30
0
11
34.498442
21
4.499998
31
0
39
0
210
0
220
0
230
1
0
LINE
5
DD
100
AcDbEntity
8
1
62
256
6
ByLayer
370
18
48
1
60
1
100
AcDbLine
10
34.498442
20
4.499998
30
0
11
35.420009
21
4.500002
31
0
39
0
210
0
220
0
230
1
0
LINE
5
DE
100
AcDbEntity
8
1
62
256
6
ByLayer
370
18
48
1
60
1
100
AcDbLine
10
35.420009
20
4.500002
30
0
11
34.959225
21
1
31
0
39
0
210
0
220
0
230
1
0
LINE
5
E0
100
AcDbEntity
8
1
62
256
6
ByLayer
370
18
48
1
60
1
100
AcDbLine
10
34.959225
20
-1
30
0
11
35.420009
21
-4.499998
31
0
39
0
210
0
220
0
230
1
0
LINE
5
E1
100
AcDbEntity
8
1
62
256
6
ByLayer
370
18
48
1
60
1
100
AcDbLine
10
35.420009
20
-4.499998
30
0
11
34.498442
21
-4.500002
31
0
39
0
210
0
220
0
230
1
0
LINE
5
E2
100
AcDbEntity
8
1
62
256
6
ByLayer
370
18
48
1
60
1
100
AcDbLine
10
34.498442
20
-4.500002
30
0
11
34.959225
21
-1
31
0
39
0
210
0
220
0
230
1
0
LINE
5
E5
100
AcDbEntity
8
1
62
256
6
ByLayer
370
18
48
1
60
1
100
AcDbLine
10
36.464879
20
-19.351649
30
0
11
39.239971
21
-17.169637
31
0
39
0
210
0
220
0
230
1
0
LINE
5
E6
100
AcDbEntity
8
1
62
256
6
ByLayer
370
18
48
1
60
1
100
AcDbLine
10
39.239971
20
-17.169637
30
0
11
39.710161
21
-17.962233
31
0
39
0
210
0
220
0
230
1
0
LINE
5
E7
100
AcDbEntity
8
1
62
256
6
ByLayer
370
18
48
1
60
1
100
AcDbLine
10
39.710161
20
-17.962233
30
0
11
36.464879
21
-19.351649
31
0
39
0
210
0
220
0
230
1
0
LINE
5
E9
100
AcDbEntity
8
1
62
256
6
ByLayer
370
18
48
1
60
1
100
AcDbLine
10
36.464879
20
19.351649
30
0
11
39.710158
21
17.962234
31
0
39
0
210
0
220
0
230
1
0
LINE
5
EA
100
AcDbEntity
8
1
62
256
6
ByLayer
370
18
48
1
60
1
100
AcDbLine
10
39.710158
20
17.962234
30
0
11
39.239974
21
17.169635
31
0
39
0
210
0
220
0
230
1
0
LINE
5
EB
100
AcDbEntity
8
1
62
256
6
ByLayer
370
18
48
1
60
1
100
AcDbLine
10
39.239974
20
17.169635
30
0
11
36.464879
21
19.351649
31
0
39
0
210
0
220
0
230
1
0
MTEXT
5
CE
100
AcDbEntity
8
SK2
62
256
6
ByLayer
370
18
48
1
60
0
100
AcDbMText
10
-30.841114
20
12.658437
30
0
210
0
220
0
230
1
1
%%c
40
3
41
0
44
1.084337
50
90
71
7
72
5
7
iso_b_vert
0
MTEXT
5
D1
100
AcDbEntity
8
SK2
62
256
6
ByLayer
370
18
48
1
60
0
100
AcDbMText
10
-30.841114
20
18.635
30
0
210
0
220
0
230
1
1
\W0.7468;2.000
40
3
41
0
44
1.084337
50
90
71
7
72
5
7
iso_b_vert
0
MTEXT
5
DA
100
AcDbEntity
8
2
62
256
6
ByLayer
370
18
48
1
60
0
100
AcDbMText
10
33.618111
20
12.658437
30
0
210
0
220
0
230
1
1
%%c
40
3
41
0
44
1.084337
50
90
71
7
72
5
7
iso_b_vert
0
MTEXT
5
DB
100
AcDbEntity
8
2
62
256
6
ByLayer
370
18
48
1
60
0
100
AcDbMText
10
33.618111
20
18.635
30
0
210
0
220
0
230
1
1
\W0.7468;2.000
40
3
41
0
44
1.084337
50
90
71
7
72
5
7
iso_b_vert
0
MTEXT
5
E4
100
AcDbEntity
8
2
62
256
6
ByLayer
370
18
48
1
60
0
100
AcDbMText
10
45.092229
20
-2.114886
30
0
210
0
220
0
230
1
1
\W0.6008;118%%d
40
3
41
0
44
1.084337
50
0
71
7
72
5
7
iso_b_vert
0
MTEXT
5
ED
100
AcDbEntity
8
SK6
62
256
6
ByLayer
370
18
48
1
60
0
100
AcDbMText
10
-5.382141
20
-67.114886
30
0
210
0
220
0
230
1
1
\W0.7690;R0032.0
40
3
41
0
44
1.084337
50
0
71
7
72
5
7
iso_b_vert
0
HATCH
5
D5
100
AcDbEntity
8
SK2
62
256
6
ByLayer
370
13
48
1
60
0
100
AcDbHatch
10
0
20
0
30
0
210
0
220
0
230
1
2
ANSI31
70
0
71
0
91
1
92
5
93
3
72
1
10
-29.5
20
1
11
-29.9607837415528
21
4.49999830744682
72
1
10
-29.9607837415528
20
4.49999830744682
11
-29.0392162584472
21
4.50000169255318
72
1
10
-29.0392162584472
20
4.50000169255318
11
-29.5
21
1
97
0
75
0
76
1
52
0
41
0.0062
77
0
78
1
53
45
43
0
44
0
45
-0.0139193969876572
46
0.0139193969876572
79
0
47
0
98
1
10
0
20
0
0
HATCH
5
D9
100
AcDbEntity
8
SK2
62
256
6
ByLayer
370
13
48
1
60
0
100
AcDbHatch
10
0
20
0
30
0
210
0
220
0
230
1
2
ANSI31
70
0
71
0
91
1
92
5
93
3
72
1
10
-29.5
20
-1
11
-29.0392162584472
21
-4.49999830744682
72
1
10
-29.0392162584472
20
-4.49999830744682
11
-29.9607837415528
21
-4.50000169255318
72
1
10
-29.9607837415528
20
-4.50000169255318
11
-29.5
21
-1
97
0
75
0
76
1
52
0
41
0.0062
77
0
78
1
53
45
43
0
44
0
45
-0.0139193969876572
46
0.0139193969876572
79
0
47
0
98
1
10
0
20
0
0
HATCH
5
DF
100
AcDbEntity
8
2
62
256
6
ByLayer
370
13
48
1
60
0
100
AcDbHatch
10
0
20
0
30
0
210
0
220
0
230
1
2
ANSI31
70
0
71
0
91
1
92
5
93
3
72
1
10
34.9592254428752
20
1
11
34.4984417013224
21
4.49999830744682
72
1
10
34.4984417013224
20
4.49999830744682
11
35.420009184428
21
4.50000169255318
72
1
10
35.420009184428
20
4.50000169255318
11
34.9592254428752
21
1
97
0
75
0
76
1
52
0
41
0.0062
77
0
78
1
53
45
43
0
44
0
45
-0.0139193969876572
46
0.0139193969876572
79
0
47
0
98
1
10
0
20
0
0
HATCH
5
E3
100
AcDbEntity
8
2
62
256
6
ByLayer
370
13
48
1
60
0
100
AcDbHatch
10
0
20
0
30
0
210
0
220
0
230
1
2
ANSI31
70
0
71
0
91
1
92
5
93
3
72
1
10
34.9592254428752
20
-1
11
35.420009184428
21
-4.49999830744682
72
1
10
35.420009184428
20
-4.49999830744682
11
34.4984417013224
21
-4.50000169255318
72
1
10
34.4984417013224
20
-4.50000169255318
11
34.9592254428752
21
-1
97
0
75
0
76
1
52
0
41
0.0062
77
0
78
1
53
45
43
0
44
0
45
-0.0139193969876572
46
0.0139193969876572
79
0
47
0
98
1
10
0
20
0
0
HATCH
5
E8
100
AcDbEntity
8
2
62
256
6
ByLayer
370
13
48
1
60
0
100
AcDbHatch
10
0
20
0
30
0
210
0
220
0
230
1
2
ANSI31
70
0
71
0
91
1
92
5
93
3
72
1
10
36.4648791987518
20
-19.3516485952885
11
39.239971107838
21
-17.1696369764528
72
1
10
39.239971107838
20
-17.1696369764528
11
39.7101613929248
21
-17.9622325364574
72
1
10
39.7101613929248
20
-17.9622325364574
11
36.4648791987518
21
-19.3516485952885
97
0
75
0
76
1
52
0
41
0.0062
77
0
78
1
53
45
43
0
44
0
45
-0.0139193969876572
46
0.0139193969876572
79
0
47
0
98
1
10
0
20
0
0
HATCH
5
EC
100
AcDbEntity
8
2
62
256
6
ByLayer
370
13
48
1
60
0
100
AcDbHatch
10
0
20
0
30
0
210
0
220
0
230
1
2
ANSI31
70
0
71
0
91
1
92
5
93
3
72
1
10
36.4648791987518
20
19.3516485952885
11
39.7101584815524
21
17.962234263552
72
1
10
39.7101584815524
20
17.962234263552
11
39.2399740192104
21
17.1696352493582
72
1
10
39.2399740192104
20
17.1696352493582
11
36.4648791987518
21
19.3516485952885
97
0
75
0
76
1
52
0
41
0.0062
77
0
78
1
53
45
43
0
44
0
45
-0.0139193969876572
46
0.0139193969876572
79
0
47
0
98
1
10
0
20
0
0
DIMENSION
5
F0
100
AcDbEntity
8
SK2
62
256
6
ByLayer
370
18
48
1
60
0
100
AcDbDimension
2
_U0
10
26
20
-51.689034
30
0
11
1.5
21
-51.689034
31
0
70
32
71
1
72
1
41
1
210
0
220
0
230
1
3
Standard
100
AcDbAlignedDimension
13
-23
23
-1
33
0
14
26
24
0
34
0
50
0
100
AcDbRotatedDimension
1001
ACAD
1000
DSTYLE
1002
{
1070
   371
1070
    13
1070
   372
1070
    13
1070
     3
1000

1070
   170
1070
     0
1070
   144
1040
1.0
1070
   277
1070
     2
1070
   284
1070
     8
1070
   278
1070
    46
1070
   146
1040
1.166667
1070
   345
1005
16
1070
   347
1005
16
1070
   346
1005
16
1070
   344
1005
0
1070
   343
1005
0
1070
   172
1070
     1
1070
    76
1070
     0
1070
    75
1070
     0
1070
   282
1070
     0
1070
   281
1070
     0
1070
    71
1070
     0
1070
    74
1070
     0
1070
   279
1070
     0
1070
   173
1070
     1
1070
   340
1005
CF
1070
   271
1070
     2
1070
   272
1070
     3
1070
    77
1070
     1
1070
    73
1070
     1
1070
   171
1070
     3
1070
   274
1070
     4
1070
   177
1070
     2
1070
   176
1070
     2
1070
   178
1070
     2
1070
    78
1070
     8
1070
    48
1040
-0.1
1070
    41
1040
3.5
1070
   147
1040
1.5
1070
    42
1040
1.5875
1070
    44
1040
2.0
1070
   140
1040
3.0
1002
}
1001
ACAD_DSTYLE_DIM_LINETYPE
1070
   380
1005
16
1001
ACAD_DSTYLE_DIM_EXT1_LINETYPE
1070
   381
1005
16
1001
ACAD_DSTYLE_DIM_EXT2_LINETYPE
1070
   382
1005
16
0
DIMENSION
5
109
100
AcDbEntity
8
2
62
256
6
ByLayer
370
18
48
1
60
0
100
AcDbDimension
2
_U1
10
2
20
-41.689034
30
0
11
14
21
-41.689034
31
0
70
32
71
1
72
1
41
1
210
0
220
0
230
1
3
Standard
100
AcDbAlignedDimension
13
26
23
0
33
0
14
2
24
-1
34
0
50
0
100
AcDbRotatedDimension
1001
ACAD
1000
DSTYLE
1002
{
1070
   371
1070
    13
1070
   372
1070
    13
1070
     3
1000

1070
   170
1070
     0
1070
   144
1040
1.0
1070
   277
1070
     2
1070
   284
1070
     8
1070
   278
1070
    46
1070
   146
1040
1.166667
1070
   345
1005
16
1070
   347
1005
16
1070
   346
1005
16
1070
   344
1005
0
1070
   343
1005
0
1070
   172
1070
     1
1070
    76
1070
     0
1070
    75
1070
     0
1070
   282
1070
     0
1070
   281
1070
     0
1070
    71
1070
     0
1070
    74
1070
     0
1070
   279
1070
     0
1070
   173
1070
     1
1070
   340
1005
CF
1070
   271
1070
     2
1070
   272
1070
     3
1070
    77
1070
     1
1070
    73
1070
     1
1070
   171
1070
     3
1070
   274
1070
     4
1070
   177
1070
     2
1070
   176
1070
     2
1070
   178
1070
     2
1070
    78
1070
     8
1070
    48
1040
-0.1
1070
    41
1040
3.5
1070
   147
1040
1.5
1070
    42
1040
1.5875
1070
    44
1040
2.0
1070
   140
1040
3.0
1002
}
1001
ACAD_DSTYLE_DIM_LINETYPE
1070
   380
1005
16
1001
ACAD_DSTYLE_DIM_EXT1_LINETYPE
1070
   381
1005
16
1001
ACAD_DSTYLE_DIM_EXT2_LINETYPE
1070
   382
1005
16
0
DIMENSION
5
121
100
AcDbEntity
8
SK2
62
256
6
ByLayer
370
18
48
1
60
0
100
AcDbDimension
2
_U2
10
0
20
-36.689034
30
0
11
-11.5
21
-36.689034
31
0
70
32
71
1
72
1
41
1
210
0
220
0
230
1
3
Standard
100
AcDbAlignedDimension
13
-23
23
-1
33
0
14
0
24
-1
34
0
50
0
100
AcDbRotatedDimension
1001
ACAD
1000
DSTYLE
1002
{
1070
   371
1070
    13
1070
   372
1070
    13
1070
     3
1000

1070
   170
1070
     0
1070
   144
1040
1.0
1070
   277
1070
     2
1070
   284
1070
     8
1070
   278
1070
    46
1070
   146
1040
1.166667
1070
   345
1005
16
1070
   347
1005
16
1070
   346
1005
16
1070
   344
1005
0
1070
   343
1005
0
1070
   172
1070
     1
1070
    76
1070
     0
1070
    75
1070
     0
1070
   282
1070
     0
1070
   281
1070
     0
1070
    71
1070
     0
1070
    74
1070
     0
1070
   279
1070
     0
1070
   173
1070
     1
1070
   340
1005
CF
1070
   271
1070
     2
1070
   272
1070
     3
1070
    77
1070
     1
1070
    73
1070
     1
1070
   171
1070
     3
1070
   274
1070
     4
1070
   177
1070
     2
1070
   176
1070
     2
1070
   178
1070
     2
1070
    78
1070
     8
1070
    48
1040
-0.1
1070
    41
1040
3.5
1070
   147
1040
1.5
1070
    42
1040
1.5875
1070
    44
1040
2.0
1070
   140
1040
3.0
1002
}
1001
ACAD_DSTYLE_DIM_LINETYPE
1070
   380
1005
16
1001
ACAD_DSTYLE_DIM_EXT1_LINETYPE
1070
   381
1005
16
1001
ACAD_DSTYLE_DIM_EXT2_LINETYPE
1070
   382
1005
16
0
DIMENSION
5
139
100
AcDbEntity
8
2
62
256
6
ByLayer
370
18
48
1
60
0
100
AcDbDimension
2
_U3
10
8
20
-34.689034
30
0
11
17
21
-34.689034
31
0
70
32
71
1
72
1
41
1
210
0
220
0
230
1
3
Standard
100
AcDbAlignedDimension
13
26
23
0
33
0
14
8
24
-1
34
0
50
0
100
AcDbRotatedDimension
1001
ACAD
1000
DSTYLE
1002
{
1070
   371
1070
    13
1070
   372
1070
    13
1070
     3
1000

1070
   170
1070
     0
1070
   144
1040
1.0
1070
   277
1070
     2
1070
   284
1070
     8
1070
   278
1070
    46
1070
   146
1040
1.166667
1070
   345
1005
16
1070
   347
1005
16
1070
   346
1005
16
1070
   344
1005
0
1070
   343
1005
0
1070
   172
1070
     1
1070
    76
1070
     0
1070
    75
1070
     0
1070
   282
1070
     0
1070
   281
1070
     0
1070
    71
1070
     0
1070
    74
1070
     0
1070
   279
1070
     0
1070
   173
1070
     1
1070
   340
1005
CF
1070
   271
1070
     2
1070
   272
1070
     3
1070
    77
1070
     1
1070
    73
1070
     1
1070
   171
1070
     3
1070
   274
1070
     4
1070
   177
1070
     2
1070
   176
1070
     2
1070
   178
1070
     2
1070
    78
1070
     8
1070
    48
1040
-0.1
1070
    41
1040
3.5
1070
   147
1040
1.5
1070
    42
1040
1.5875
1070
    44
1040
2.0
1070
   140
1040
3.0
1002
}
1001
ACAD_DSTYLE_DIM_LINETYPE
1070
   380
1005
16
1001
ACAD_DSTYLE_DIM_EXT1_LINETYPE
1070
   381
1005
16
1001
ACAD_DSTYLE_DIM_EXT2_LINETYPE
1070
   382
1005
16
0
ENDSEC
0
SECTION
2
OBJECTS
0
DICTIONARY
5
1c3
330
0
100
AcDbDictionary
280
0
281
1
3
ACAD_GROUP
350
1c4
3
ACAD_MLINESTYLE
350
1c5
0
DICTIONARY
5
1c4
330
0
100
AcDbDictionary
280
0
281
1
0
DICTIONARY
5
1c5
330
0
100
AcDbDictionary
280
0
281
1
3
Standard
350
18
0
MLINESTYLE
5
18
330
1c5
100
AcDbMlineStyle
2
Standard
70
0
3

62
256
51
90
52
90
71
2
49
-0.5
62
256
6
ByLayer
49
0.5
62
256
6
ByLayer
0
RASTERVARIABLES
5
1af
330

100
AcDbRasterVariables
90
0
70
1
71
1
72
1
0
ENDSEC
0
EOF
