0
SECTION
2
HEADER
9
$ACADVER
1
AC1015
9
$DWGCODEPAGE
3
ANSI_1252
9
$HANDSEED
5
1d1
9
$ANGBASE
50
0
9
$ANGDIR
70
0
9
$ATTMODE
70
1
9
$AUNITS
70
0
9
$AUPREC
70
0
9
$CECOLOR
62
256
9
$CELTSCALE
40
1
9
$CELTYPE
6
ByLayer
9
$CELWEIGHT
370
18
9
$CLAYER
8
0
9
$CMLJUST
70
0
9
$CMLSCALE
40
1
9
$CMLSTYLE
2
Standard
9
$DIMSTYLE
2
Standard
9
$TEXTSIZE
40
0.2
9
$TEXTSTYLE
7
Standard
9
$LUNITS
70
2
9
$LUPREC
70
4
9
$EXTNAMES
290
1
9
$INSUNITS
70
4
9
$LTSCALE
40
1
9
$LWDISPLAY
290
1
9
$PDMODE
70
0
9
$PDSIZE
40
0
9
$PLINEGEN
70
0
0
ENDSEC
0
SECTION
2
CLASSES
0
CLASS
1
RASTERVARIABLES
2
AcDbRasterVariables
3
ISM
90
0
280
0
281
0
0
ENDSEC
0
SECTION
2
TABLES
0
TABLE
2
VPORT
5
1c7
100
AcDbSymbolTable
0
VPORT
5
1
100
AcDbSymbolTableRecord
100
AcDbViewportTableRecord
2
*Active
70
0
10
0
20
0
11
1
21
1
12
-1
22
1
13
0
23
0
14
0.5
24
0.5
15
10
25
10
16
0
26
0
36
1
17
0
27
0
37
0
0
ENDTAB
0
TABLE
2
LTYPE
5
1c8
100
AcDbSymbolTable
0
LTYPE
5
14
100
AcDbSymbolTableRecord
100
AcDbLinetypeTableRecord
70
0
2
ByBlock
3

72
65
73
0
40
0
0
LTYPE
5
15
100
AcDbSymbolTableRecord
100
AcDbLinetypeTableRecord
70
0
2
ByLayer
3

72
65
73
0
40
0
0
LTYPE
5
16
100
AcDbSymbolTableRecord
100
AcDbLinetypeTableRecord
70
0
2
Continuous
3
Solid line
72
65
73
0
40
0
0
LTYPE
5
6E
100
AcDbSymbolTableRecord
100
AcDbLinetypeTableRecord
70
0
2
CENTER
3
____ _ ____ _ ____ _ ____
72
65
73
4
40
47.5
49
22
74
0
49
-8.5
74
0
49
8.5
74
0
49
-8.5
74
0
0
LTYPE
5
6F
100
AcDbSymbolTableRecord
100
AcDbLinetypeTableRecord
70
0
2
DASHED
3
__ __ __ __ __ __ __ __ __
72
65
73
2
40
25.72
49
12.86
74
0
49
-12.86
74
0
0
ENDTAB
0
TABLE
2
LAYER
5
1c9
100
AcDbSymbolTable
0
LAYER
5
10
100
AcDbSymbolTableRecord
100
AcDbLayerTableRecord
2
0
70
0
62
7
6
Continuous
290
1
370
-3
390
0
0
LAYER
5
71
100
AcDbSymbolTableRecord
100
AcDbLayerTableRecord
2
81
70
0
62
-3
6
Continuous
290
1
370
-3
390
0
0
LAYER
5
73
100
AcDbSymbolTableRecord
100
AcDbLayerTableRecord
2
80
70
0
62
-6
6
Continuous
290
1
370
-3
390
0
0
LAYER
5
75
100
AcDbSymbolTableRecord
100
AcDbLayerTableRecord
2
1
70
0
62
4
6
Continuous
290
1
370
-3
390
0
0
LAYER
5
7E
100
AcDbSymbolTableRecord
100
AcDbLayerTableRecord
2
4
70
0
62
-2
6
CENTER
290
1
370
-3
390
0
0
LAYER
5
A6
100
AcDbSymbolTableRecord
100
AcDbLayerTableRecord
2
2
70
0
62
7
6
Continuous
290
1
370
-3
390
0
0
LAYER
5
F4
100
AcDbSymbolTableRecord
100
AcDbLayerTableRecord
2
Defpoints
70
0
62
7
6
Continuous
290
0
370
-3
390
0
0
LAYER
5
1b1
100
AcDbSymbolTableRecord
100
AcDbLayerTableRecord
2
SK4
70
0
62
2
6
CENTER
290
1
370
-3
390
0
0
LAYER
5
1b2
100
AcDbSymbolTableRecord
100
AcDbLayerTableRecord
2
SK1
70
0
62
4
6
Continuous
290
1
370
-3
390
0
0
LAYER
5
1b3
100
AcDbSymbolTableRecord
100
AcDbLayerTableRecord
2
SK2
70
0
62
7
6
Continuous
290
1
370
-3
390
0
0
LAYER
5
1b4
100
AcDbSymbolTableRecord
100
AcDbLayerTableRecord
2
NOCUT
70
0
62
-7
6
Continuous
290
1
370
-3
390
0
0
LAYER
5
1b5
100
AcDbSymbolTableRecord
100
AcDbLayerTableRecord
2
CUT
70
0
62
-1
6
Continuous
290
1
370
-3
390
0
0
LAYER
5
1b6
100
AcDbSymbolTableRecord
100
AcDbLayerTableRecord
2
SK6
70
0
62
5
6
Continuous
290
1
370
-3
390
0
0
ENDTAB
0
TABLE
2
STYLE
5
1ca
100
AcDbSymbolTable
0
STYLE
5
11
100
AcDbSymbolTableRecord
100
AcDbTextStyleTableRecord
2
Standard
3
txt
70
0
71
0
40
0
41
1
42
0
50
0
0
STYLE
5
D0
100
AcDbSymbolTableRecord
100
AcDbTextStyleTableRecord
2
iso_b_vert
3
simplex.shx
70
0
71
0
40
0
41
1
42
0
50
0
0
STYLE
5
D1
100
AcDbSymbolTableRecord
100
AcDbTextStyleTableRecord
2
DWGDirectTextStyle
3
simplex
70
0
71
0
40
0
41
1
42
0
50
0
0
ENDTAB
0
TABLE
2
DIMSTYLE
5
1cb
100
AcDbSymbolTable
100
AcDbDimStyleTable
0
DIMSTYLE
105
27
100
AcDbSymbolTableRecord
100
AcDbDimStyleTableRecord
2
Standard
70
0
3
<>
41
0.18
42
0.0625
44
0.18
140
0.18
147
0.09
73
0
74
0
77
1
271
2
275
0
278
52
280
0
340
11
0
ENDTAB
0
TABLE
2
VIEW
5
1cc
100
AcDbSymbolTable
0
ENDTAB
0
TABLE
2
UCS
5
1cd
100
AcDbSymbolTable
0
ENDTAB
0
TABLE
2
APPID
5
1ce
100
AcDbSymbolTable
0
APPID
5
12
100
AcDbSymbolTableRecord
100
AcDbRegAppTableRecord
2
ACAD
70
0
0
APPID
5
F0
100
AcDbSymbolTableRecord
100
AcDbRegAppTableRecord
2
ACAD_DSTYLE_DIMBREAK
70
0
0
APPID
5
170
100
AcDbSymbolTableRecord
100
AcDbRegAppTableRecord
2
ACAD_DSTYLE_DIM_LINETYPE
70
0
0
APPID
5
171
100
AcDbSymbolTableRecord
100
AcDbRegAppTableRecord
2
ACAD_DSTYLE_DIM_EXT1_LINETYPE
70
0
0
APPID
5
172
100
AcDbSymbolTableRecord
100
AcDbRegAppTableRecord
2
ACAD_DSTYLE_DIM_EXT2_LINETYPE
70
0
0
APPID
5
1AD
100
AcDbSymbolTableRecord
100
AcDbRegAppTableRecord
2
ACAD_MLEADERVER
70
0
0
ENDTAB
0
TABLE
2
BLOCK_RECORD
5
1cf
100
AcDbSymbolTable
0
BLOCK_RECORD
5
1F
100
AcDbSymbolTableRecord
100
AcDbBlockTableRecord
2
*Model_Space
340
0
70
0
0
BLOCK_RECORD
5
1B
100
AcDbSymbolTableRecord
100
AcDbBlockTableRecord
2
*Paper_Space
340
0
70
0
0
BLOCK_RECORD
5
23
100
AcDbSymbolTableRecord
100
AcDbBlockTableRecord
2
*Paper_Space0
340
0
70
0
0
BLOCK_RECORD
5
F5
100
AcDbSymbolTableRecord
100
AcDbBlockTableRecord
2
*D1
340
0
70
0
0
BLOCK_RECORD
5
101
100
AcDbSymbolTableRecord
100
AcDbBlockTableRecord
2
_U0
340
0
70
0
0
BLOCK_RECORD
5
10D
100
AcDbSymbolTableRecord
100
AcDbBlockTableRecord
2
*D3
340
0
70
0
0
BLOCK_RECORD
5
119
100
AcDbSymbolTableRecord
100
AcDbBlockTableRecord
2
_U1
340
0
70
0
0
BLOCK_RECORD
5
125
100
AcDbSymbolTableRecord
100
AcDbBlockTableRecord
2
*D5
340
0
70
0
0
BLOCK_RECORD
5
131
100
AcDbSymbolTableRecord
100
AcDbBlockTableRecord
2
_U2
340
0
70
0
0
BLOCK_RECORD
5
13D
100
AcDbSymbolTableRecord
100
AcDbBlockTableRecord
2
*D7
340
0
70
0
0
BLOCK_RECORD
5
149
100
AcDbSymbolTableRecord
100
AcDbBlockTableRecord
2
_U3
340
0
70
0
0
ENDTAB
0
ENDSEC
0
SECTION
2
BLOCKS
0
BLOCK
5
20
100
AcDbEntity
8
0
100
AcDbBlockBegin
2
*Model_Space
70
0
10
0
20
0
30
0
3
*Model_Space
0
ENDBLK
5
21
100
AcDbEntity
8
0
100
AcDbBlockEnd
0
BLOCK
5
1C
100
AcDbEntity
8
0
100
AcDbBlockBegin
2
*Paper_Space
70
0
10
0
20
0
30
0
3
*Paper_Space
0
ENDBLK
5
1D
100
AcDbEntity
8
0
100
AcDbBlockEnd
0
BLOCK
5
24
100
AcDbEntity
8
0
100
AcDbBlockBegin
2
*Paper_Space0
70
0
10
0
20
0
30
0
3
*Paper_Space0
0
ENDBLK
5
25
100
AcDbEntity
8
0
100
AcDbBlockEnd
0
BLOCK
5
F6
100
AcDbEntity
8
0
100
AcDbBlockBegin
2
*D1
70
1
10
0
20
0
30
0
3
*D1
0
LINE
5
F8
100
AcDbEntity
8
0
62
256
6
ByLayer
370
-2
48
1
60
0
100
AcDbLine
10
-46
20
-7.342
30
0
11
-46
21
-49.332638
31
0
39
0
210
0
220
0
230
1
0
LINE
5
F9
100
AcDbEntity
8
0
62
256
6
ByLayer
370
-2
48
1
60
0
100
AcDbLine
10
96
20
-1.5875
30
0
11
96
21
-49.332638
31
0
39
0
210
0
220
0
230
1
0
LINE
5
FA
100
AcDbEntity
8
0
62
256
6
ByLayer
370
-2
48
1
60
0
100
AcDbLine
10
-42.5
20
-47.332638
30
0
11
92.5
21
-47.332638
31
0
39
0
210
0
220
0
230
1
0
SOLID
5
FB
100
AcDbEntity
8
0
62
256
6
ByLayer
370
-1
48
1
60
0
100
AcDbTrace
10
-42.5
20
-46.749305
30
0
11
-42.5
21
-47.915971
31
0
12
-46
22
-47.332638
32
0
13
-46
23
-47.332638
33
0
39
0
210
0
220
0
230
1
0
SOLID
5
FC
100
AcDbEntity
8
0
62
256
6
ByLayer
370
-1
48
1
60
0
100
AcDbTrace
10
92.5
20
-47.915971
30
0
11
92.5
21
-46.749305
31
0
12
96
22
-47.332638
32
0
13
96
23
-47.332638
33
0
39
0
210
0
220
0
230
1
0
MTEXT
5
FD
100
AcDbEntity
8
0
62
256
6
ByLayer
370
18
48
1
60
0
100
AcDbMText
10
25
20
-41.332638
30
0
210
0
220
0
230
1
1
\A1;142
40
3
41
0
44
1
50
0
71
5
72
5
7
iso_b_vert
0
POINT
5
FE
100
AcDbEntity
8
Defpoints
62
0
6
ByLayer
370
-1
48
1
60
0
100
AcDbPoint
10
-46
20
-5.7545
30
0
39
0
210
0
220
0
230
1
50
360
0
POINT
5
FF
100
AcDbEntity
8
Defpoints
62
0
6
ByLayer
370
-1
48
1
60
0
100
AcDbPoint
10
96
20
0
30
0
39
0
210
0
220
0
230
1
50
360
0
POINT
5
100
100
AcDbEntity
8
Defpoints
62
0
6
ByLayer
370
-1
48
1
60
0
100
AcDbPoint
10
96
20
-47.332638
30
0
39
0
210
0
220
0
230
1
50
360
0
ENDBLK
5
F7
100
AcDbEntity
8
0
100
AcDbBlockEnd
0
BLOCK
5
108
100
AcDbEntity
8
0
100
AcDbBlockBegin
2
_U0
70
0
10
0
20
0
30
0
3
_U0
0
MTEXT
5
102
100
AcDbEntity
8
SK2
62
256
6
ByLayer
370
18
48
1
60
0
100
AcDbMText
10
19.613715
20
-46.447523
30
0
210
0
220
0
230
1
1
\W0.7237;142.00
40
3
41
0
44
1.084337
50
0
71
7
72
5
7
iso_b_vert
0
LINE
5
103
100
AcDbEntity
8
SK2
62
256
6
ByLayer
370
13
48
1
60
0
100
AcDbLine
10
-46
20
-7.342
30
0
11
-46
21
-49.332638
31
0
39
0
210
0
220
0
230
1
0
LINE
5
104
100
AcDbEntity
8
SK2
62
256
6
ByLayer
370
13
48
1
60
0
100
AcDbLine
10
96
20
-1.5875
30
0
11
96
21
-49.332638
31
0
39
0
210
0
220
0
230
1
0
LINE
5
105
100
AcDbEntity
8
SK2
62
256
6
ByLayer
370
13
48
1
60
0
100
AcDbLine
10
-46
20
-47.332638
30
0
11
96
21
-47.332638
31
0
39
0
210
0
220
0
230
1
0
SOLID
5
106
100
AcDbEntity
8
SK2
62
256
6
ByLayer
370
18
48
1
60
0
100
AcDbTrace
10
-46
20
-47.332638
30
0
11
-42.500002
21
-46.871854
31
0
12
-42.499998
22
-47.793422
32
0
13
-42.499998
23
-47.793422
33
0
39
0
210
0
220
0
230
1
0
SOLID
5
107
100
AcDbEntity
8
SK2
62
256
6
ByLayer
370
18
48
1
60
0
100
AcDbTrace
10
96
20
-47.332638
30
0
11
92.500002
21
-47.793422
31
0
12
92.499998
22
-46.871854
32
0
13
92.499998
23
-46.871854
33
0
39
0
210
0
220
0
230
1
0
ENDBLK
5
109
100
AcDbEntity
8
0
100
AcDbBlockEnd
0
BLOCK
5
10E
100
AcDbEntity
8
0
100
AcDbBlockBegin
2
*D3
70
1
10
0
20
0
30
0
3
*D3
0
LINE
5
110
100
AcDbEntity
8
0
62
256
6
ByLayer
370
-2
48
1
60
0
100
AcDbLine
10
96
20
-1.5875
30
0
11
96
21
-39.332638
31
0
39
0
210
0
220
0
230
1
0
LINE
5
111
100
AcDbEntity
8
0
62
256
6
ByLayer
370
-2
48
1
60
0
100
AcDbLine
10
2
20
-7.342
30
0
11
2
21
-39.332638
31
0
39
0
210
0
220
0
230
1
0
LINE
5
112
100
AcDbEntity
8
0
62
256
6
ByLayer
370
-2
48
1
60
0
100
AcDbLine
10
92.5
20
-37.332638
30
0
11
5.5
21
-37.332638
31
0
39
0
210
0
220
0
230
1
0
SOLID
5
113
100
AcDbEntity
8
0
62
256
6
ByLayer
370
-1
48
1
60
0
100
AcDbTrace
10
92.5
20
-37.915971
30
0
11
92.5
21
-36.749305
31
0
12
96
22
-37.332638
32
0
13
96
23
-37.332638
33
0
39
0
210
0
220
0
230
1
0
SOLID
5
114
100
AcDbEntity
8
0
62
256
6
ByLayer
370
-1
48
1
60
0
100
AcDbTrace
10
5.5
20
-36.749305
30
0
11
5.5
21
-37.915971
31
0
12
2
22
-37.332638
32
0
13
2
23
-37.332638
33
0
39
0
210
0
220
0
230
1
0
MTEXT
5
115
100
AcDbEntity
8
0
62
256
6
ByLayer
370
18
48
1
60
0
100
AcDbMText
10
49
20
-31.332638
30
0
210
0
220
0
230
1
1
\A1;94
40
3
41
0
44
1
50
0
71
5
72
5
7
iso_b_vert
0
POINT
5
116
100
AcDbEntity
8
Defpoints
62
0
6
ByLayer
370
-1
48
1
60
0
100
AcDbPoint
10
96
20
0
30
0
39
0
210
0
220
0
230
1
50
360
0
POINT
5
117
100
AcDbEntity
8
Defpoints
62
0
6
ByLayer
370
-1
48
1
60
0
100
AcDbPoint
10
2
20
-5.7545
30
0
39
0
210
0
220
0
230
1
50
360
0
POINT
5
118
100
AcDbEntity
8
Defpoints
62
0
6
ByLayer
370
-1
48
1
60
0
100
AcDbPoint
10
2
20
-37.332638
30
0
39
0
210
0
220
0
230
1
50
360
0
ENDBLK
5
10F
100
AcDbEntity
8
0
100
AcDbBlockEnd
0
BLOCK
5
120
100
AcDbEntity
8
0
100
AcDbBlockBegin
2
_U1
70
0
10
0
20
0
30
0
3
_U1
0
MTEXT
5
11A
100
AcDbEntity
8
2
62
256
6
ByLayer
370
18
48
1
60
0
100
AcDbMText
10
44.359687
20
-36.447523
30
0
210
0
220
0
230
1
1
\W0.7694;94.00
40
3
41
0
44
1.084337
50
0
71
7
72
5
7
iso_b_vert
0
LINE
5
11B
100
AcDbEntity
8
2
62
256
6
ByLayer
370
13
48
1
60
0
100
AcDbLine
10
96
20
-1.5875
30
0
11
96
21
-39.332638
31
0
39
0
210
0
220
0
230
1
0
LINE
5
11C
100
AcDbEntity
8
2
62
256
6
ByLayer
370
13
48
1
60
0
100
AcDbLine
10
2
20
-7.342
30
0
11
2
21
-39.332638
31
0
39
0
210
0
220
0
230
1
0
LINE
5
11D
100
AcDbEntity
8
2
62
256
6
ByLayer
370
13
48
1
60
0
100
AcDbLine
10
96
20
-37.332638
30
0
11
2
21
-37.332638
31
0
39
0
210
0
220
0
230
1
0
SOLID
5
11E
100
AcDbEntity
8
2
62
256
6
ByLayer
370
18
48
1
60
0
100
AcDbTrace
10
96
20
-37.332638
30
0
11
92.500002
21
-37.793422
31
0
12
92.499998
22
-36.871854
32
0
13
92.499998
23
-36.871854
33
0
39
0
210
0
220
0
230
1
0
SOLID
5
11F
100
AcDbEntity
8
2
62
256
6
ByLayer
370
18
48
1
60
0
100
AcDbTrace
10
2
20
-37.332638
30
0
11
5.499998
21
-36.871854
31
0
12
5.500002
22
-37.793422
32
0
13
5.500002
23
-37.793422
33
0
39
0
210
0
220
0
230
1
0
ENDBLK
5
121
100
AcDbEntity
8
0
100
AcDbBlockEnd
0
BLOCK
5
126
100
AcDbEntity
8
0
100
AcDbBlockBegin
2
*D5
70
1
10
0
20
0
30
0
3
*D5
0
LINE
5
128
100
AcDbEntity
8
0
62
256
6
ByLayer
370
-2
48
1
60
0
100
AcDbLine
10
-46
20
-7.342
30
0
11
-46
21
-34.332638
31
0
39
0
210
0
220
0
230
1
0
LINE
5
129
100
AcDbEntity
8
0
62
256
6
ByLayer
370
-2
48
1
60
0
100
AcDbLine
10
0
20
-7.342
30
0
11
0
21
-34.332638
31
0
39
0
210
0
220
0
230
1
0
LINE
5
12A
100
AcDbEntity
8
0
62
256
6
ByLayer
370
-2
48
1
60
0
100
AcDbLine
10
-42.5
20
-32.332638
30
0
11
-3.5
21
-32.332638
31
0
39
0
210
0
220
0
230
1
0
SOLID
5
12B
100
AcDbEntity
8
0
62
256
6
ByLayer
370
-1
48
1
60
0
100
AcDbTrace
10
-42.5
20
-31.749305
30
0
11
-42.5
21
-32.915971
31
0
12
-46
22
-32.332638
32
0
13
-46
23
-32.332638
33
0
39
0
210
0
220
0
230
1
0
SOLID
5
12C
100
AcDbEntity
8
0
62
256
6
ByLayer
370
-1
48
1
60
0
100
AcDbTrace
10
-3.5
20
-32.915971
30
0
11
-3.5
21
-31.749305
31
0
12
0
22
-32.332638
32
0
13
0
23
-32.332638
33
0
39
0
210
0
220
0
230
1
0
MTEXT
5
12D
100
AcDbEntity
8
0
62
256
6
ByLayer
370
18
48
1
60
0
100
AcDbMText
10
-23
20
-26.332638
30
0
210
0
220
0
230
1
1
\A1;46
40
3
41
0
44
1
50
0
71
5
72
5
7
iso_b_vert
0
POINT
5
12E
100
AcDbEntity
8
Defpoints
62
0
6
ByLayer
370
-1
48
1
60
0
100
AcDbPoint
10
-46
20
-5.7545
30
0
39
0
210
0
220
0
230
1
50
360
0
POINT
5
12F
100
AcDbEntity
8
Defpoints
62
0
6
ByLayer
370
-1
48
1
60
0
100
AcDbPoint
10
0
20
-5.7545
30
0
39
0
210
0
220
0
230
1
50
360
0
POINT
5
130
100
AcDbEntity
8
Defpoints
62
0
6
ByLayer
370
-1
48
1
60
0
100
AcDbPoint
10
0
20
-32.332638
30
0
39
0
210
0
220
0
230
1
50
360
0
ENDBLK
5
127
100
AcDbEntity
8
0
100
AcDbBlockEnd
0
BLOCK
5
138
100
AcDbEntity
8
0
100
AcDbBlockBegin
2
_U2
70
0
10
0
20
0
30
0
3
_U2
0
MTEXT
5
132
100
AcDbEntity
8
SK2
62
256
6
ByLayer
370
18
48
1
60
0
100
AcDbMText
10
-27.640313
20
-31.447523
30
0
210
0
220
0
230
1
1
\W0.7694;46.00
40
3
41
0
44
1.084337
50
0
71
7
72
5
7
iso_b_vert
0
LINE
5
133
100
AcDbEntity
8
SK2
62
256
6
ByLayer
370
13
48
1
60
0
100
AcDbLine
10
-46
20
-7.342
30
0
11
-46
21
-34.332638
31
0
39
0
210
0
220
0
230
1
0
LINE
5
134
100
AcDbEntity
8
SK2
62
256
6
ByLayer
370
13
48
1
60
0
100
AcDbLine
10
0
20
-7.342
30
0
11
0
21
-34.332638
31
0
39
0
210
0
220
0
230
1
0
LINE
5
135
100
AcDbEntity
8
SK2
62
256
6
ByLayer
370
13
48
1
60
0
100
AcDbLine
10
-46
20
-32.332638
30
0
11
0
21
-32.332638
31
0
39
0
210
0
220
0
230
1
0
SOLID
5
136
100
AcDbEntity
8
SK2
62
256
6
ByLayer
370
18
48
1
60
0
100
AcDbTrace
10
-46
20
-32.332638
30
0
11
-42.500002
21
-31.871854
31
0
12
-42.499998
22
-32.793422
32
0
13
-42.499998
23
-32.793422
33
0
39
0
210
0
220
0
230
1
0
SOLID
5
137
100
AcDbEntity
8
SK2
62
256
6
ByLayer
370
18
48
1
60
0
100
AcDbTrace
10
0
20
-32.332638
30
0
11
-3.499998
21
-32.793422
31
0
12
-3.500002
22
-31.871854
32
0
13
-3.500002
23
-31.871854
33
0
39
0
210
0
220
0
230
1
0
ENDBLK
5
139
100
AcDbEntity
8
0
100
AcDbBlockEnd
0
BLOCK
5
13E
100
AcDbEntity
8
0
100
AcDbBlockBegin
2
*D7
70
1
10
0
20
0
30
0
3
*D7
0
LINE
5
140
100
AcDbEntity
8
0
62
256
6
ByLayer
370
-2
48
1
60
0
100
AcDbLine
10
96
20
-1.5875
30
0
11
96
21
-32.332638
31
0
39
0
210
0
220
0
230
1
0
LINE
5
141
100
AcDbEntity
8
0
62
256
6
ByLayer
370
-2
48
1
60
0
100
AcDbLine
10
25.5
20
-7.342
30
0
11
25.5
21
-32.332638
31
0
39
0
210
0
220
0
230
1
0
LINE
5
142
100
AcDbEntity
8
0
62
256
6
ByLayer
370
-2
48
1
60
0
100
AcDbLine
10
92.5
20
-30.332638
30
0
11
29
21
-30.332638
31
0
39
0
210
0
220
0
230
1
0
SOLID
5
143
100
AcDbEntity
8
0
62
256
6
ByLayer
370
-1
48
1
60
0
100
AcDbTrace
10
92.5
20
-30.915971
30
0
11
92.5
21
-29.749305
31
0
12
96
22
-30.332638
32
0
13
96
23
-30.332638
33
0
39
0
210
0
220
0
230
1
0
SOLID
5
144
100
AcDbEntity
8
0
62
256
6
ByLayer
370
-1
48
1
60
0
100
AcDbTrace
10
29
20
-29.749305
30
0
11
29
21
-30.915971
31
0
12
25.5
22
-30.332638
32
0
13
25.5
23
-30.332638
33
0
39
0
210
0
220
0
230
1
0
MTEXT
5
145
100
AcDbEntity
8
0
62
256
6
ByLayer
370
18
48
1
60
0
100
AcDbMText
10
60.75
20
-24.332638
30
0
210
0
220
0
230
1
1
\A1;70.5
40
3
41
0
44
1
50
0
71
5
72
5
7
iso_b_vert
0
POINT
5
146
100
AcDbEntity
8
Defpoints
62
0
6
ByLayer
370
-1
48
1
60
0
100
AcDbPoint
10
96
20
0
30
0
39
0
210
0
220
0
230
1
50
360
0
POINT
5
147
100
AcDbEntity
8
Defpoints
62
0
6
ByLayer
370
-1
48
1
60
0
100
AcDbPoint
10
25.5
20
-5.7545
30
0
39
0
210
0
220
0
230
1
50
360
0
POINT
5
148
100
AcDbEntity
8
Defpoints
62
0
6
ByLayer
370
-1
48
1
60
0
100
AcDbPoint
10
25.5
20
-30.332638
30
0
39
0
210
0
220
0
230
1
50
360
0
ENDBLK
5
13F
100
AcDbEntity
8
0
100
AcDbBlockEnd
0
BLOCK
5
150
100
AcDbEntity
8
0
100
AcDbBlockBegin
2
_U3
70
0
10
0
20
0
30
0
3
_U3
0
MTEXT
5
14A
100
AcDbEntity
8
2
62
256
6
ByLayer
370
18
48
1
60
0
100
AcDbMText
10
56.26763
20
-29.447523
30
0
210
0
220
0
230
1
1
\W0.7468;70.50
40
3
41
0
44
1.084337
50
0
71
7
72
5
7
iso_b_vert
0
LINE
5
14B
100
AcDbEntity
8
2
62
256
6
ByLayer
370
13
48
1
60
0
100
AcDbLine
10
96
20
-1.5875
30
0
11
96
21
-32.332638
31
0
39
0
210
0
220
0
230
1
0
LINE
5
14C
100
AcDbEntity
8
2
62
256
6
ByLayer
370
13
48
1
60
0
100
AcDbLine
10
25.5
20
-7.342
30
0
11
25.5
21
-32.332638
31
0
39
0
210
0
220
0
230
1
0
LINE
5
14D
100
AcDbEntity
8
2
62
256
6
ByLayer
370
13
48
1
60
0
100
AcDbLine
10
96
20
-30.332638
30
0
11
25.5
21
-30.332638
31
0
39
0
210
0
220
0
230
1
0
SOLID
5
14E
100
AcDbEntity
8
2
62
256
6
ByLayer
370
18
48
1
60
0
100
AcDbTrace
10
96
20
-30.332638
30
0
11
92.500002
21
-30.793422
31
0
12
92.499998
22
-29.871854
32
0
13
92.499998
23
-29.871854
33
0
39
0
210
0
220
0
230
1
0
SOLID
5
14F
100
AcDbEntity
8
2
62
256
6
ByLayer
370
18
48
1
60
0
100
AcDbTrace
10
25.5
20
-30.332638
30
0
11
28.999998
21
-29.871854
31
0
12
29.000002
22
-30.793422
32
0
13
29.000002
23
-30.793422
33
0
39
0
210
0
220
0
230
1
0
ENDBLK
5
151
100
AcDbEntity
8
0
100
AcDbBlockEnd
0
ENDSEC
0
SECTION
2
ENTITIES
0
ARC
5
B7
100
AcDbEntity
8
2
62
256
6
ByLayer
370
13
48
1
60
0
100
AcDbCircle
39
0
10
96
20
0
30
0
40
22.0000000000001
210
0
220
0
230
1
100
AcDbArc
50
7.83748
51
61.596605
0
ARC
5
B8
100
AcDbEntity
8
2
62
256
6
ByLayer
370
13
48
1
60
0
100
AcDbCircle
39
0
10
96
20
0
30
0
40
22.0000000000001
210
0
220
0
230
1
100
AcDbArc
50
298.403395
51
352.16252
0
POINT
5
70
100
AcDbEntity
8
81
62
256
6
ByLayer
370
18
48
1
60
0
100
AcDbPoint
10
96
20
0
30
0
39
0
210
0
220
0
230
1
50
360
0
POINT
5
72
100
AcDbEntity
8
80
62
256
6
ByLayer
370
18
48
1
60
0
100
AcDbPoint
10
0
20
0
30
0
39
0
210
0
220
0
230
1
50
360
0
POINT
5
74
100
AcDbEntity
8
1
62
256
6
ByLayer
370
18
48
1
60
1
100
AcDbPoint
10
-46
20
-5.7545
30
0
39
0
210
0
220
0
230
1
50
360
0
POINT
5
76
100
AcDbEntity
8
1
62
256
6
ByLayer
370
18
48
1
60
1
100
AcDbPoint
10
96
20
0
30
0
39
0
210
0
220
0
230
1
50
360
0
POINT
5
77
100
AcDbEntity
8
1
62
256
6
ByLayer
370
18
48
1
60
1
100
AcDbPoint
10
96
20
0
30
0
39
0
210
0
220
0
230
1
50
360
0
POINT
5
78
100
AcDbEntity
8
1
62
256
6
ByLayer
370
18
48
1
60
1
100
AcDbPoint
10
2
20
-5.7545
30
0
39
0
210
0
220
0
230
1
50
360
0
POINT
5
79
100
AcDbEntity
8
1
62
256
6
ByLayer
370
18
48
1
60
1
100
AcDbPoint
10
-46
20
-5.7545
30
0
39
0
210
0
220
0
230
1
50
360
0
POINT
5
7A
100
AcDbEntity
8
1
62
256
6
ByLayer
370
18
48
1
60
1
100
AcDbPoint
10
0
20
-5.7545
30
0
39
0
210
0
220
0
230
1
50
360
0
POINT
5
7B
100
AcDbEntity
8
1
62
256
6
ByLayer
370
18
48
1
60
1
100
AcDbPoint
10
96
20
0
30
0
39
0
210
0
220
0
230
1
50
360
0
POINT
5
7C
100
AcDbEntity
8
1
62
256
6
ByLayer
370
18
48
1
60
1
100
AcDbPoint
10
25.5
20
-5.7545
30
0
39
0
210
0
220
0
230
1
50
360
0
SPLINE
5
B9
100
AcDbEntity
8
NOCUT
62
256
6
ByLayer
370
18
48
1
60
0
100
AcDbSpline
70
2053
71
3
72
26
73
22
40
0
40
0
40
0
40
0
40
0.29240140650998
40
0.29240140650998
40
0.29240140650998
40
0.301585999474484
40
0.301585999474484
40
0.301585999474484
40
0.332482738131292
40
0.332482738131292
40
0.332482738131292
40
0.797070921938902
40
0.797070921938902
40
0.797070921938902
40
0.83429794723084
40
0.83429794723084
40
0.83429794723084
40
0.997391153293673
40
0.997391153293673
40
0.997391153293673
40
1
40
1
40
1
40
1
41
1
10
0
20
5.75450000000001
30
0
41
1
10
-15.0001666666667
20
5.75450000000001
30
0
41
1
10
-30.0003333333333
20
5.75450000000001
30
0
41
1
10
-45.0005
20
5.75450000000001
30
0
41
1
10
-45.3336666666667
20
5.42133333333334
30
0
41
1
10
-45.6668333333333
20
5.08816666666667
30
0
41
1
10
-46
20
4.75499999999999
30
0
41
1
10
-46
20
3.16999999999999
30
0
41
1
10
-46
20
1.58500000000001
30
0
41
1
10
-46
20
0
30
0
41
1
10
-22.1666666666669
20
0
30
0
41
1
10
1.6666666666662
20
0
30
0
41
1
10
25.4999999999997
20
0
30
0
41
1
10
25.5000000000001
20
1.90974315258274
30
0
41
1
10
25.5000000000001
20
3.8194863051655
30
0
41
1
10
25.5000000000001
20
5.72922945774823
30
0
41
1
10
17.1333333333331
20
5.72609195774842
30
0
41
1
10
8.76666666666617
20
5.72295445774861
30
0
41
1
10
0.399999999911557
20
5.71981695775645
30
0
41
1
10
0.26666666654927
20
5.73137797184273
30
0
41
1
10
0.133333333274635
20
5.74293898592137
30
0
41
1
10
0
20
5.75450000000001
30
0
0
SPLINE
5
BB
100
AcDbEntity
8
CUT
62
256
6
ByLayer
370
18
48
1
60
0
100
AcDbSpline
70
2053
71
3
72
17
73
13
40
0
40
0
40
0
40
0
40
0.469501159356334
40
0.469501159356334
40
0.469501159356334
40
0.513068380300034
40
0.513068380300034
40
0.513068380300034
40
0.961845675565781
40
0.961845675565781
40
0.961845675565781
40
1
40
1
40
1
40
1
41
1
10
25.5000000000001
20
0
30
0
41
1
10
49.0000000000001
20
0
30
0
41
1
10
72.5000000000001
20
0
30
0
41
1
10
96.0000000000001
20
0
30
0
41
1
10
94.9627042703327
20
1.91816666668362
30
0
41
1
10
93.9254085406653
20
3.83633333336721
30
0
41
1
10
92.8881128109979
20
5.7545000000508
30
0
41
1
10
70.4254085406648
20
5.74607648594994
30
0
41
1
10
47.9627042703318
20
5.73765297184909
30
0
41
1
10
25.4999999999994
20
5.72922945774823
30
0
41
1
10
25.5000000000001
20
3.8194863051655
30
0
41
1
10
25.5000000000001
20
1.90974315258274
30
0
41
1
10
25.5000000000001
20
0
30
0
0
SPLINE
5
BD
100
AcDbEntity
8
1
62
256
6
ByLayer
370
18
48
1
60
0
100
AcDbSpline
70
4
71
3
72
127
73
123
40
0
40
0
40
0
40
0
40
0.0156249999999962
40
0.0156249999999962
40
0.0312499999999925
40
0.0312499999999925
40
0.0624999999999847
40
0.0624999999999847
40
0.093749999999977
40
0.093749999999977
40
0.124999999999969
40
0.124999999999969
40
0.156249999999962
40
0.156249999999962
40
0.187499999999954
40
0.187499999999954
40
0.218749999999946
40
0.218749999999946
40
0.249999999999939
40
0.249999999999939
40
0.265624999999936
40
0.265624999999936
40
0.273437499999937
40
0.273437499999937
40
0.281249999999937
40
0.281249999999937
40
0.296874999999941
40
0.296874999999941
40
0.312499999999944
40
0.312499999999944
40
0.320312499999945
40
0.328124999999945
40
0.328124999999945
40
0.335937499999945
40
0.335937499999945
40
0.343749999999945
40
0.343749999999945
40
0.351562499999946
40
0.351562499999946
40
0.359374999999946
40
0.359374999999946
40
0.367187499999946
40
0.367187499999946
40
0.374999999999946
40
0.374999999999946
40
0.382812499999947
40
0.382812499999947
40
0.390624999999947
40
0.390624999999947
40
0.406249999999947
40
0.406249999999947
40
0.421874999999948
40
0.421874999999948
40
0.437499999999948
40
0.437499999999948
40
0.453124999999949
40
0.453124999999949
40
0.460937499999949
40
0.460937499999949
40
0.468749999999949
40
0.468749999999949
40
0.484374999999947
40
0.484374999999947
40
0.492187499999946
40
0.492187499999946
40
0.496093749999945
40
0.496093749999945
40
0.499999999999945
40
0.499999999999945
40
0.515624999999942
40
0.515624999999942
40
0.52343749999994
40
0.52343749999994
40
0.531249999999939
40
0.531249999999939
40
0.546874999999936
40
0.546874999999936
40
0.554687499999935
40
0.554687499999935
40
0.562499999999935
40
0.562499999999935
40
0.578124999999934
40
0.578124999999934
40
0.593749999999934
40
0.593749999999934
40
0.609374999999933
40
0.609374999999933
40
0.617187499999934
40
0.617187499999934
40
0.624999999999936
40
0.624999999999936
40
0.640624999999938
40
0.640624999999938
40
0.64843749999994
40
0.64843749999994
40
0.656249999999941
40
0.656249999999941
40
0.664062499999942
40
0.664062499999942
40
0.671874999999943
40
0.671874999999943
40
0.687499999999946
40
0.687499999999946
40
0.703124999999948
40
0.703124999999948
40
0.718749999999951
40
0.718749999999951
40
0.749999999999956
40
0.749999999999956
40
0.812499999999966
40
0.812499999999966
40
0.874999999999976
40
0.874999999999976
40
0.937499999999987
40
0.937499999999987
40
0.95312499999999
40
0.95312499999999
40
0.968749999999993
40
0.968749999999993
40
0.984374999999997
40
0.984374999999997
40
1
40
1
40
1
40
1
41
1
10
92.8881128109979
20
5.57159688651825
30
0
41
1
10
92.9177723244169
20
5.51533799451138
30
0
41
1
10
92.9474475158438
20
5.45910365655155
30
0
41
1
10
93.0067975968284
20
5.3466514433122
30
0
41
1
10
93.036471941914
20
5.29043307141401
30
0
41
1
10
93.1254713799839
20
5.12178035060052
30
0
41
1
10
93.1847735950591
20
5.00934860013589
30
0
41
1
10
93.3031810737916
20
4.7843716073246
30
0
41
1
10
93.3622904720641
20
4.67183072783945
30
0
41
1
10
93.4802714983537
20
4.44661625782121
30
0
41
1
10
93.5391387181059
20
4.33393868434092
30
0
41
1
10
93.6565989002665
20
4.10843985318041
30
0
41
1
10
93.7151953404595
20
3.99562173850029
30
0
41
1
10
93.8320969720386
20
3.76985068600061
30
0
41
1
10
93.8904065117634
20
3.65690110217813
30
0
41
1
10
94.0066280477807
20
3.43080423953433
30
0
41
1
10
94.0645390452356
20
3.31765613458671
30
0
41
1
10
94.1798486161641
20
3.09110563561961
30
0
41
1
10
94.2372469452867
20
2.97770249991717
30
0
41
1
10
94.3227857156688
20
2.80730632164159
30
0
41
1
10
94.351199782732
20
2.75044783491615
30
0
41
1
10
94.3936700501454
20
2.66510927991524
30
0
41
1
10
94.407803346205
20
2.63666061918582
30
0
41
1
10
94.4360333499874
20
2.5797987370498
30
0
41
1
10
94.4501270784378
20
2.55137656660091
30
0
41
1
10
94.4924028822422
20
2.46631727950364
30
0
41
1
10
94.5205884081498
20
2.40992799183928
30
0
41
1
10
94.5774827155805
20
2.29907541035988
30
0
41
1
10
94.6061979686634
20
2.24461901212695
30
0
41
1
10
94.6499925260807
20
2.16499740125528
30
0
41
1
10
94.6794142549657
20
2.11256102187844
30
0
41
1
10
94.7092150835625
20
2.06116308667444
30
0
41
1
10
94.7390887244157
20
2.0099657389093
30
0
41
1
10
94.7540622378449
20
1.98446839380429
30
0
41
1
10
94.7839651102404
20
1.93337309509124
30
0
41
1
10
94.7988858159532
20
1.90775320457462
30
0
41
1
10
94.8286094889924
20
1.85623651446207
30
0
41
1
10
94.8434137596597
20
1.83034326169553
30
0
41
1
10
94.8729009207424
20
1.7782883745999
30
0
41
1
10
94.8875864247881
20
1.7521335303945
30
0
41
1
10
94.9168667968335
20
1.6996495070546
30
0
41
1
10
94.9314650608783
20
1.67332851399661
30
0
41
1
10
94.9605911783231
20
1.62057589888107
30
0
41
1
10
94.9751137486609
20
1.59413289540271
30
0
41
1
10
95.0040107768119
20
1.54108156313936
30
0
41
1
10
95.0183846503164
20
1.51446470044726
30
0
41
1
10
95.0469418323297
20
1.46100590650039
30
0
41
1
10
95.0611297741928
20
1.43417098506006
30
0
41
1
10
95.1034183746929
20
1.35337718894934
30
0
41
1
10
95.1312647075041
20
1.29915477773491
30
0
41
1
10
95.1859703635374
20
1.18979432518853
30
0
41
1
10
95.2128263822878
20
1.13464819178679
30
0
41
1
10
95.2650066845829
20
1.0230589685186
30
0
41
1
10
95.2903317692796
20
0.966617116897851
30
0
41
1
10
95.3388793375469
20
0.852229519936088
30
0
41
1
10
95.3620929379251
20
0.794268190057892
30
0
41
1
10
95.3945407162913
20
0.705798530471924
30
0
41
1
10
95.4049623637777
20
0.676033316333104
30
0
41
1
10
95.42468258189
20
0.616369682671575
30
0
41
1
10
95.4340036851465
20
0.586419770903007
30
0
41
1
10
95.4600234593041
20
0.496139405629208
30
0
41
1
10
95.4747815211586
20
0.435379901920754
30
0
41
1
10
95.4911666992564
20
0.342961784032354
30
0
41
1
10
95.4956697281677
20
0.31194234512742
30
0
41
1
10
95.5006780696154
20
0.265026749040629
30
0
41
1
10
95.5020492539643
20
0.249370049554528
30
0
41
1
10
95.5041505692187
20
0.218227732804507
30
0
41
1
10
95.5048847568485
20
0.20271171608718
30
0
41
1
10
95.5069524499688
20
0.125412867261986
30
0
41
1
10
95.5033608426101
20
0.0645011868471101
30
0
41
1
10
95.491025928481
20
-0.0256539849800674
30
0
41
1
10
95.4857628520683
20
-0.0555306217422924
30
0
41
1
10
95.4731831618278
20
-0.114789118615533
30
0
41
1
10
95.4659324262519
20
-0.14382300760289
30
0
41
1
10
95.4416986313708
20
-0.229211147507868
30
0
41
1
10
95.4222736497813
20
-0.283877590827444
30
0
41
1
10
95.3897804162182
20
-0.363031220287013
30
0
41
1
10
95.3783831901295
20
-0.388938086575479
30
0
41
1
10
95.3546441587167
20
-0.439859974168627
30
0
41
1
10
95.3422862153483
20
-0.464906394623767
30
0
41
1
10
95.3041205681821
20
-0.538581122830038
30
0
41
1
10
95.2775306570424
20
-0.585165742850421
30
0
41
1
10
95.2229350931156
20
-0.673992857540867
30
0
41
1
10
95.1949305064799
20
-0.716274796339604
30
0
41
1
10
95.1379523041567
20
-0.796916744973487
30
0
41
1
10
95.1089648460946
20
-0.835217706661865
30
0
41
1
10
95.0649982993248
20
-0.890291354231294
30
0
41
1
10
95.0502607904289
20
-0.908254813991221
30
0
41
1
10
95.020629831377
20
-0.94336964359556
30
0
41
1
10
95.0058086141311
20
-0.960433910560312
30
0
41
1
10
94.9614429827708
20
-1.0100463974982
30
0
41
1
10
94.9319534076523
20
-1.04107705434001
30
0
41
1
10
94.8878523823365
20
-1.08492070649677
30
0
41
1
10
94.873173790361
20
-1.09908619157662
30
0
41
1
10
94.8438526703868
20
-1.12666783473554
30
0
41
1
10
94.8292097874188
20
-1.14009204614055
30
0
41
1
10
94.7999721535463
20
-1.16590392071697
30
0
41
1
10
94.7853782074912
20
-1.17827387876747
30
0
41
1
10
94.7562337820164
20
-1.2019918344059
30
0
41
1
10
94.7416846855913
20
-1.21330669499821
30
0
41
1
10
94.6980707971563
20
-1.24626533876335
30
0
41
1
10
94.6690280332619
20
-1.26715045491372
30
0
41
1
10
94.6109015806829
20
-1.30912631187334
30
0
41
1
10
94.5818225141739
20
-1.33014123726986
30
0
41
1
10
94.5236276785354
20
-1.37255687365916
30
0
41
1
10
94.4945137238693
20
-1.39391318573834
30
0
41
1
10
94.4071333550672
20
-1.45838215964363
30
0
41
1
10
94.3488286172338
20
-1.50190270502821
30
0
41
1
10
94.1738136688696
20
-1.63403997716614
30
0
41
1
10
94.0570062675143
20
-1.72420812469474
30
0
41
1
10
93.8232625364808
20
-1.90881817527779
30
0
41
1
10
93.7063142843938
20
-2.00329087828575
30
0
41
1
10
93.4724688411351
20
-2.19706083681081
30
0
41
1
10
93.3555562192051
20
-2.29635534469119
30
0
41
1
10
93.2094602415881
20
-2.42823964902638
30
0
41
1
10
93.180243131572
20
-2.4550119334757
30
0
41
1
10
93.1218128233213
20
-2.50949488162706
30
0
41
1
10
93.0925995791309
20
-2.53720070625485
30
0
41
1
10
93.0341748888273
20
-2.59346376383812
30
0
41
1
10
93.0049634720099
20
-2.6220381029394
30
0
41
1
10
92.9465394959886
20
-2.6797377157659
30
0
41
1
10
92.9173268424585
20
-2.708832579074
30
0
41
1
10
92.8881128109979
20
-2.73808999507781
30
0
0
SPLINE
5
BE
100
AcDbEntity
8
1
62
256
6
ByLayer
370
18
48
1
60
0
100
AcDbSpline
70
4
71
3
72
16
73
12
40
0
40
0
40
0
40
0
40
0.0411604829154035
40
0.178432200607918
40
0.315703918300432
40
0.452975635992946
40
0.59024735368546
40
0.727519071377974
40
0.864790789070488
40
0.933426647916746
40
1
40
1
40
1
40
1
41
1
10
20.3595476031697
20
5.15498182756869
30
0
41
1
10
20.3438487861287
20
5.10655328314655
30
0
41
1
10
20.2743729019035
20
4.89723414268698
30
0
41
1
10
20.1361861123798
20
4.5337358555156
30
0
41
1
10
19.9128643792046
20
4.07836658348259
30
0
41
1
10
19.6516734064524
20
3.65604014178379
30
0
41
1
10
19.352547505825
20
3.26419557116506
30
0
41
1
10
19.0138983592712
20
2.90190754013349
30
0
41
1
10
18.7059857817503
20
2.62901938721583
30
0
41
1
10
18.4473333966487
20
2.43207842223714
30
0
41
1
10
18.316139330025
20
2.33788684410402
30
0
41
1
10
18.2527151668068
20
2.28974411304242
30
0
0
SPLINE
5
BF
100
AcDbEntity
8
1
62
256
6
ByLayer
370
18
48
1
60
0
100
AcDbSpline
70
4
71
3
72
86
73
82
40
0
40
0
40
0
40
0
40
0.0304766544239741
40
0.0304766544239741
40
0.0609533088479483
40
0.0609533088479483
40
0.0914299632719224
40
0.0914299632719224
40
0.121906617695897
40
0.121906617695897
40
0.152383272119871
40
0.152383272119871
40
0.182859926543845
40
0.182859926543845
40
0.213336580967819
40
0.213336580967819
40
0.243813235391793
40
0.243813235391793
40
0.274289889815767
40
0.274289889815767
40
0.304766544239741
40
0.304766544239741
40
0.320004871451728
40
0.320004871451728
40
0.335243198663715
40
0.335243198663715
40
0.342862362269709
40
0.342862362269709
40
0.350481525875703
40
0.350481525875703
40
0.365719853087687
40
0.365719853087687
40
0.396196507511655
40
0.396196507511655
40
0.426673161935623
40
0.426673161935623
40
0.441911489147607
40
0.441911489147607
40
0.457149816359591
40
0.457149816359591
40
0.487626470783563
40
0.487626470783563
40
0.518103125207534
40
0.518103125207534
40
0.548579779631505
40
0.548579779631505
40
0.563818106843492
40
0.563818106843492
40
0.579056434055479
40
0.579056434055479
40
0.609533088479456
40
0.609533088479456
40
0.640009742903433
40
0.640009742903433
40
0.670486397327411
40
0.670486397327411
40
0.685724724539399
40
0.685724724539399
40
0.700963051751388
40
0.700963051751388
40
0.731439706175365
40
0.731439706175365
40
0.761916360599342
40
0.761916360599342
40
0.792393015023319
40
0.792393015023319
40
0.807631342235308
40
0.807631342235308
40
0.822869669447296
40
0.822869669447296
40
0.853346323871275
40
0.853346323871275
40
0.883822978295254
40
0.883822978295254
40
0.914299632719232
40
0.914299632719232
40
0.944776287143211
40
0.944776287143211
40
0.975252941567189
40
0.975252941567189
40
1
40
1
40
1
40
1
41
1
10
92.8881128109975
20
-2.73808999507767
30
0
41
1
10
92.6680542497107
20
-2.63085136832476
30
0
41
1
10
92.4484674339175
20
-2.52220271421376
30
0
41
1
10
92.0104449123818
20
-2.30174009127768
30
0
41
1
10
91.7920275413165
20
-2.18989180757546
30
0
41
1
10
91.3558267873367
20
-1.96393908483478
30
0
41
1
10
91.1379714930989
20
-1.84996264038585
30
0
41
1
10
90.7026435672286
20
-1.62021817410036
30
0
41
1
10
90.4852265312142
20
-1.50435181060061
30
0
41
1
10
90.050982040911
20
-1.27045899824014
30
0
41
1
10
89.8341093253083
20
-1.15251180303073
30
0
41
1
10
89.4002407180038
20
-0.915742558461801
30
0
41
1
10
89.1832120257862
20
-0.796982140406897
30
0
41
1
10
88.749124522305
20
-0.558426969554176
30
0
41
1
10
88.5321285930723
20
-0.438516110964685
30
0
41
1
10
88.0980004974444
20
-0.19784267884566
30
0
41
1
10
87.8808171871109
20
-0.0771736097322844
30
0
41
1
10
87.4456630630194
20
0.163810576647563
30
0
41
1
10
87.2277416283691
20
0.284215518911225
30
0
41
1
10
86.7914139653048
20
0.525241808124576
30
0
41
1
10
86.5730497690653
20
0.645944312904476
30
0
41
1
10
86.2448070550248
20
0.826548594671891
30
0
41
1
10
86.1352732500727
20
0.886668320511632
30
0
41
1
10
85.9158835578531
20
1.00658718952641
30
0
41
1
10
85.8060322405645
20
1.06639489428019
30
0
41
1
10
85.641033654087
20
1.15590459828883
30
0
41
1
10
85.5859880207049
20
1.18571236808677
30
0
41
1
10
85.476010967337
20
1.24516624066371
30
0
41
1
10
85.4210572541322
20
1.27482454426487
30
0
41
1
10
85.2563059881099
20
1.36360502738552
30
0
41
1
10
85.1466237030242
20
1.42254301936171
30
0
41
1
10
84.8180207479091
20
1.59859088229149
30
0
41
1
10
84.5995276662204
20
1.71489940227042
30
0
41
1
10
84.1630834392461
20
1.94433621441488
30
0
41
1
10
83.9450815482032
20
2.0573813032116
30
0
41
1
10
83.6184988203186
20
2.22464310014806
30
0
41
1
10
83.5097106914826
20
2.28001694699131
30
0
41
1
10
83.2923116063839
20
2.39005824594153
30
0
41
1
10
83.1836976969848
20
2.44472017628581
30
0
41
1
10
82.8580157280865
20
2.60746414041338
30
0
41
1
10
82.641103724881
20
2.71429492860946
30
0
41
1
10
82.2071050847236
20
2.92368776377759
30
0
41
1
10
81.9900605781037
20
3.02632559700629
30
0
41
1
10
81.5560807085176
20
3.22780583461338
30
0
41
1
10
81.339199401956
20
3.3267250658127
30
0
41
1
10
81.0136867104363
20
3.47181006581965
30
0
41
1
10
80.9051469247584
20
3.51961755512312
30
0
41
1
10
80.6879112511349
20
3.61400042324868
30
0
41
1
10
80.5792138387369
20
3.6605741137835
30
0
41
1
10
80.2529097715133
20
3.79848315414193
30
0
41
1
10
80.035092074502
20
3.88801087628008
30
0
41
1
10
79.5990902000337
20
4.06246829581966
30
0
41
1
10
79.3808769611799
20
4.14735003536265
30
0
41
1
10
78.9434319364092
20
4.31157902008312
30
0
41
1
10
78.724135182966
20
4.39084917508703
30
0
41
1
10
78.3943707673012
20
4.50552204992542
30
0
41
1
10
78.2842351538869
20
4.54307214107777
30
0
41
1
10
78.064405732445
20
4.61657165083068
30
0
41
1
10
77.9546593093997
20
4.65254474044175
30
0
41
1
10
77.6258303744987
20
4.75803252514319
30
0
41
1
10
77.4071615445255
20
4.8251126134677
30
0
41
1
10
76.970295772628
20
4.95223918288013
30
0
41
1
10
76.752127218865
20
5.01232982546961
30
0
41
1
10
76.3165016033628
20
5.12582249138913
30
0
41
1
10
76.0991062899927
20
5.17926730180895
30
0
41
1
10
75.7733187083688
20
5.2542131507123
30
0
41
1
10
75.6647688570631
20
5.27832164876781
30
0
41
1
10
75.4476762340493
20
5.3247376310315
30
0
41
1
10
75.3391277665429
20
5.34704194263801
30
0
41
1
10
75.0134947004454
20
5.4112739825286
30
0
41
1
10
74.7964214069905
20
5.450526367538
30
0
41
1
10
74.3625280330737
20
5.52201127934481
30
0
41
1
10
74.1456928660156
20
5.55422102325767
30
0
41
1
10
73.7116770794454
20
5.61125963187556
30
0
41
1
10
73.4944253913894
20
5.6360676907523
30
0
41
1
10
73.0594344123896
20
5.67828371993684
30
0
41
1
10
72.8417529957148
20
5.69571095353569
30
0
41
1
10
72.4060198219409
20
5.72309982024896
30
0
41
1
10
72.1879212040143
20
5.73303891738959
30
0
41
1
10
71.7917241211844
20
5.74410370472415
30
0
41
1
10
71.6138172613534
20
5.74654593176794
30
0
41
1
10
71.4355940241554
20
5.74645568273777
30
0
0
SPLINE
5
C0
100
AcDbEntity
8
1
62
256
6
ByLayer
370
18
48
1
60
0
100
AcDbSpline
70
4
71
3
72
143
73
139
40
0
40
0
40
0
40
0
40
0.0124200709971803
40
0.0124200709971803
40
0.0291587138616357
40
0.0291587138616357
40
0.0458973567260914
40
0.0458973567260914
40
0.062635999590547
40
0.062635999590547
40
0.0793746424550024
40
0.0793746424550024
40
0.0961132853194581
40
0.0961132853194581
40
0.112851928183914
40
0.112851928183914
40
0.129590571048369
40
0.129590571048369
40
0.146329213912825
40
0.146329213912825
40
0.16306785677728
40
0.16306785677728
40
0.167252517493394
40
0.167252517493394
40
0.171437178209507
40
0.179806499641734
40
0.179806499641734
40
0.196545142506189
40
0.196545142506189
40
0.213283785370643
40
0.213283785370643
40
0.230022428235098
40
0.230022428235098
40
0.246761071099553
40
0.246761071099553
40
0.263499713964007
40
0.263499713964007
40
0.280238356828462
40
0.280238356828462
40
0.296976999692916
40
0.296976999692916
40
0.313715642557371
40
0.313715642557371
40
0.330454285421826
40
0.330454285421826
40
0.338823606854054
40
0.338823606854054
40
0.347192928286282
40
0.347192928286282
40
0.355562249718509
40
0.355562249718509
40
0.363931571150737
40
0.363931571150737
40
0.380670214015193
40
0.380670214015193
40
0.397408856879648
40
0.397408856879648
40
0.414147499744104
40
0.414147499744104
40
0.430886142608559
40
0.430886142608559
40
0.447624785473015
40
0.447624785473015
40
0.46436342833747
40
0.46436342833747
40
0.472732749769698
40
0.472732749769698
40
0.481102071201926
40
0.481102071201926
40
0.497840714066382
40
0.497840714066382
40
0.514579356930837
40
0.514579356930837
40
0.531317999795293
40
0.531317999795293
40
0.53968732122752
40
0.53968732122752
40
0.548056642659747
40
0.548056642659747
40
0.564795285524202
40
0.564795285524202
40
0.581533928388657
40
0.581533928388657
40
0.598272571253112
40
0.598272571253112
40
0.606641892685339
40
0.606641892685339
40
0.615011214117567
40
0.615011214117567
40
0.631749856982021
40
0.631749856982021
40
0.648488499846474
40
0.648488499846474
40
0.665227142710928
40
0.665227142710928
40
0.681965785575382
40
0.681965785575382
40
0.698704428439836
40
0.698704428439836
40
0.71544307130429
40
0.71544307130429
40
0.723812392736517
40
0.723812392736517
40
0.732181714168744
40
0.732181714168744
40
0.740551035600971
40
0.740551035600971
40
0.748920357033198
40
0.748920357033198
40
0.765658999897652
40
0.765658999897652
40
0.782397642762106
40
0.782397642762106
40
0.79913628562656
40
0.79913628562656
40
0.815874928491014
40
0.815874928491014
40
0.832613571355468
40
0.832613571355468
40
0.849352214219921
40
0.849352214219921
40
0.866090857084374
40
0.866090857084374
40
0.882829499948828
40
0.882829499948828
40
0.899568142813281
40
0.899568142813281
40
0.907937464245508
40
0.907937464245508
40
0.916306785677734
40
0.916306785677734
40
0.933045428542188
40
0.933045428542188
40
0.949784071406641
40
0.949784071406641
40
0.966522714271094
40
0.966522714271094
40
1
40
1
40
1
40
1
41
1
10
48.2412872158756
20
-3.53684646887777
30
0
41
1
10
48.0788889814104
20
-3.60749738560651
30
0
41
1
10
47.916782916582
20
-3.67683151123575
30
0
41
1
10
47.5366934388765
20
-3.83623448939324
30
0
41
1
10
47.318817517861
20
-3.92504168325655
30
0
41
1
10
46.8833168321602
20
-4.09683130624441
30
0
41
1
10
46.6657453211303
20
-4.17989442434546
30
0
41
1
10
46.2311828463857
20
-4.34065994581132
30
0
41
1
10
46.0141800481998
20
-4.41833525218522
30
0
41
1
10
45.5801658712997
20
-4.56759236988808
30
0
41
1
10
45.3630827897685
20
-4.63910040835489
30
0
41
1
10
44.928754227878
20
-4.77591081365765
30
0
41
1
10
44.7115661014913
20
-4.84127426927401
30
0
41
1
10
44.277161534528
20
-4.9658791285265
30
0
41
1
10
44.0598986198549
20
-5.02506543418855
30
0
41
1
10
43.6246136722279
20
-5.13660406695135
30
0
41
1
10
43.4065900296912
20
-5.1889679227838
30
0
41
1
10
42.9699532092029
20
-5.28700250398114
30
0
41
1
10
42.7514045379045
20
-5.33271495095019
30
0
41
1
10
42.313511386928
20
-5.41717106613893
30
0
41
1
10
42.0941091054744
20
-5.45587346792027
30
0
41
1
10
41.818997334338
20
-5.49963808456056
30
0
41
1
10
41.7639176422462
20
-5.50816536875502
30
0
41
1
10
41.6538570486485
20
-5.52473793195057
30
0
41
1
10
41.4888630851127
20
-5.5488820922551
30
0
41
1
10
41.324172939691
20
-5.57089953425282
30
0
41
1
10
40.9952454629812
20
-5.61213139540473
30
0
41
1
10
40.7765683976458
20
-5.63587366978592
30
0
41
1
10
40.3398674843394
20
-5.67571235890833
30
0
41
1
10
40.1217708636027
20
-5.69179599344523
30
0
41
1
10
39.6860051688386
20
-5.71640166863799
30
0
41
1
10
39.4683924784739
20
-5.7249373259929
30
0
41
1
10
39.033779467044
20
-5.73448088713391
30
0
41
1
10
38.8167337609252
20
-5.73547184169882
30
0
41
1
10
38.3825406490986
20
-5.72991731597241
30
0
41
1
10
38.1653703290605
20
-5.72338803752757
30
0
41
1
10
37.7310489975118
20
-5.702850591214
30
0
41
1
10
37.5139621310946
20
-5.6888240775088
30
0
41
1
10
37.0796706492906
20
-5.65323783907618
30
0
41
1
10
36.8624131126667
20
-5.63168738370243
30
0
41
1
10
36.4271478669662
20
-5.58125720396421
30
0
41
1
10
36.2091920381845
20
-5.55237184363759
30
0
41
1
10
35.7728430960802
20
-5.48710572734078
30
0
41
1
10
35.5544844548048
20
-5.45069252809486
30
0
41
1
10
35.2262679911772
20
-5.39053899115831
30
0
41
1
10
35.1167455244734
20
-5.36956912800861
30
0
41
1
10
34.8973886488833
20
-5.32584023529972
30
0
41
1
10
34.7875602189506
20
-5.30307806328463
30
0
41
1
10
34.567621016516
20
-5.25573902326215
30
0
41
1
10
34.4574172639816
20
-5.23114058101467
30
0
41
1
10
34.2373607226226
20
-5.18023471995414
30
0
41
1
10
34.1274925777532
20
-5.15391858143644
30
0
41
1
10
33.7983436313754
20
-5.07240594042054
30
0
41
1
10
33.579504728857
20
-5.01465043076618
30
0
41
1
10
33.1423936690445
20
-4.89294992919403
30
0
41
1
10
32.924078871215
20
-4.82905709258708
30
0
41
1
10
32.488067675607
20
-4.69513367194261
30
0
41
1
10
32.2704340541829
20
-4.62503227362802
30
0
41
1
10
31.835706682293
20
-4.47876591653176
30
0
41
1
10
31.6185629348184
20
-4.40265255323638
30
0
41
1
10
31.1841497756597
20
-4.2451803839507
30
0
41
1
10
30.9669268380683
20
-4.16377573810561
30
0
41
1
10
30.5326536173842
20
-3.99537971153569
30
0
41
1
10
30.3156513528011
20
-3.90831624102631
30
0
41
1
10
29.9899741223083
20
-3.77389412870389
30
0
41
1
10
29.8813827646961
20
-3.72845415010727
30
0
41
1
10
29.6640503728078
20
-3.63643104012454
30
0
41
1
10
29.5553113941971
20
-3.58984570542333
30
0
41
1
10
29.2289037575245
20
-3.44833198800609
30
0
41
1
10
29.011048934393
20
-3.35164340330579
30
0
41
1
10
28.5750189377719
20
-3.15323920641168
30
0
41
1
10
28.3568087458087
20
-3.05156674099143
30
0
41
1
10
27.9194020477951
20
-2.84416951440215
30
0
41
1
10
27.7001463502269
20
-2.73855185686568
30
0
41
1
10
27.3704999089616
20
-2.57711169002781
30
0
41
1
10
27.2604938445729
20
-2.52278979195836
30
0
41
1
10
27.0402641730101
20
-2.41306010618709
30
0
41
1
10
26.9303066182341
20
-2.35778400415296
30
0
41
1
10
26.6008816034447
20
-2.19093363791799
30
0
41
1
10
26.3818291584107
20
-2.0783208727041
30
0
41
1
10
25.9442367680282
20
-1.85145342505339
30
0
41
1
10
25.7257336992416
20
-1.73713396658553
30
0
41
1
10
25.289502472901
20
-1.50639152545381
30
0
41
1
10
25.0718310674244
20
-1.3898646832638
30
0
41
1
10
24.7456461810245
20
-1.21396543968268
30
0
41
1
10
24.6369675212322
20
-1.15515499763271
30
0
41
1
10
24.4196243551586
20
-1.0373355050483
30
0
41
1
10
24.3109572539133
20
-0.978331281472947
30
0
41
1
10
23.9849949715991
20
-0.800990083382345
30
0
41
1
10
23.7677382142113
20
-0.682326234757113
30
0
41
1
10
23.3335370671755
20
-0.443739480871812
30
0
41
1
10
23.1165669314826
20
-0.323862580208612
30
0
41
1
10
22.6823058915177
20
-0.0840133243238199
30
0
41
1
10
22.4649469595829
20
0.0358319696988474
30
0
41
1
10
22.0298171161765
20
0.275444663482517
30
0
41
1
10
21.8121050759728
20
0.395321836199116
30
0
41
1
10
21.3763408902851
20
0.635141774173491
30
0
41
1
10
21.1582419054897
20
0.754997893299162
30
0
41
1
10
20.7209779228908
20
0.993418808451395
30
0
41
1
10
20.5018324048809
20
1.11201878019833
30
0
41
1
10
20.1724756538693
20
1.28925703645641
30
0
41
1
10
20.0625913102019
20
1.34824084940365
30
0
41
1
10
19.8426083007768
20
1.46598760516443
30
0
41
1
10
19.7324681639705
20
1.52475778125185
30
0
41
1
10
19.5126385918248
20
1.64152992748436
30
0
41
1
10
19.4028586457754
20
1.69957925018872
30
0
41
1
10
19.1834824590551
20
1.81485528272089
30
0
41
1
10
19.0738796129417
20
1.87207038458084
30
0
41
1
10
18.7453380805318
20
2.04248698564626
30
0
41
1
10
18.526666198162
20
2.15446353428518
30
0
41
1
10
18.090251026781
20
2.37556476219513
30
0
41
1
10
17.872495589042
20
2.4846591078371
30
0
41
1
10
17.4373207174202
20
2.69898778585812
30
0
41
1
10
17.2198297121575
20
2.80410923119621
30
0
41
1
10
16.785034452303
20
3.01031102216737
30
0
41
1
10
16.5677879448635
20
3.11148387708931
30
0
41
1
10
16.1336092335481
20
3.30997112426155
30
0
41
1
10
15.9166308494365
20
3.40720749023725
30
0
41
1
10
15.4822589585315
20
3.5967194454208
30
0
41
1
10
15.2648664340112
20
3.68900556897049
30
0
41
1
10
14.829844996092
20
3.86889484293141
30
0
41
1
10
14.612280902726
20
3.95658300592095
30
0
41
1
10
14.1767149621197
20
4.12693495755056
30
0
41
1
10
13.9586562374213
20
4.20952147146139
30
0
41
1
10
13.5215257458692
20
4.36890959898898
30
0
41
1
10
13.3025076156171
20
4.44578694283865
30
0
41
1
10
12.9734615604882
20
4.55702877528012
30
0
41
1
10
12.8636945625863
20
4.5934306148732
30
0
41
1
10
12.6439239302719
20
4.66478580385811
30
0
41
1
10
12.5338598398291
20
4.69975899311342
30
0
41
1
10
12.2036568754368
20
4.80221899532111
30
0
41
1
10
11.9836534314742
20
4.86711701466396
30
0
41
1
10
11.5438284639103
20
4.99011067042122
30
0
41
1
10
11.3240676942592
20
5.04826528474842
30
0
41
1
10
10.884916386257
20
5.15792234456652
30
0
41
1
10
10.6654787880734
20
5.20937346788688
30
0
41
1
10
10.0066063440406
20
5.35285742862447
30
0
41
1
10
9.56655393043911
20
5.43411533817672
30
0
41
1
10
9.12637920028087
20
5.50115829166677
30
0
0
SPLINE
5
C1
100
AcDbEntity
8
1
62
256
6
ByLayer
370
18
48
1
60
0
100
AcDbSpline
70
4
71
3
72
21
73
17
40
0
40
0
40
0
40
0
40
0.183234079560918
40
0.183234079560918
40
0.366468159121835
40
0.366468159121835
40
0.549702238682753
40
0.549702238682753
40
0.73293631824367
40
0.73293631824367
40
0.778744838133896
40
0.778744838133896
40
0.824553358024122
40
0.916170397804581
40
0.916170397804581
40
1
40
1
40
1
40
1
41
1
10
20.3595415086764
20
5.15498285807746
30
0
41
1
10
20.0768086514946
20
5.08188125111525
30
0
41
1
10
19.7944261151189
20
5.00246866451732
30
0
41
1
10
19.2298160635827
20
4.83173176112933
30
0
41
1
10
18.9475902339221
20
4.74039762661215
30
0
41
1
10
18.3823613350809
20
4.5469411632883
30
0
41
1
10
18.0993532075647
20
4.44481662835372
30
0
41
1
10
17.5312695408896
20
4.23154579456468
30
0
41
1
10
17.2461915926062
20
4.12039768264128
30
0
41
1
10
16.8876357566493
20
3.97732090528439
30
0
41
1
10
16.8158043495448
20
3.94849644720213
30
0
41
1
10
16.6721195425456
20
3.89057467669673
30
0
41
1
10
16.4564778960893
20
3.80325066831139
30
0
41
1
10
16.2403862457303
20
3.71484141794843
30
0
41
1
10
15.9639384034346
20
3.60148799464025
30
0
41
1
10
15.8315975404258
20
3.54711824890364
30
0
41
1
10
15.6989389675666
20
3.49271045606633
30
0
0
SPLINE
5
C2
100
AcDbEntity
8
1
62
256
6
ByLayer
370
18
48
1
60
0
100
AcDbSpline
70
4
71
3
72
18
73
14
40
0
40
0
40
0
40
0
40
0.0906335850274498
40
0.0906335850274498
40
0.39375572335163
40
0.39375572335163
40
0.54531679251372
40
0.54531679251372
40
0.621097327094768
40
0.621097327094768
40
0.696877861675816
40
0.696877861675816
40
1
40
1
40
1
40
1
41
1
10
6.37682525963197
20
5.72206477314936
30
0
41
1
10
6.45689880202463
20
5.72208424057939
30
0
41
1
10
6.53729084414323
20
5.72138569877669
30
0
41
1
10
6.88787539239951
20
5.71541339542816
30
0
41
1
10
7.1611787576872
20
5.70323710365386
30
0
41
1
10
7.57571351442476
20
5.67523544422477
30
0
41
1
10
7.71465662772511
20
5.66427263117509
30
0
41
1
10
7.9241641498347
20
5.64554302154698
30
0
41
1
10
7.99418222616447
20
5.63891864764165
30
0
41
1
10
8.13457492967692
20
5.62493093513297
30
0
41
1
10
8.20496304018664
20
5.61756593497364
30
0
41
1
10
8.55736277766596
20
5.57899485037868
30
0
41
1
10
8.84104470562141
20
5.54253961411152
30
0
41
1
10
9.12635935872629
20
5.50115614785895
30
0
0
SPLINE
5
C3
100
AcDbEntity
8
1
62
256
6
ByLayer
370
18
48
1
60
0
100
AcDbSpline
70
4
71
3
72
152
73
148
40
0
40
0
40
0
40
0
40
0.0303979082568505
40
0.0303979082568505
40
0.0455968623852762
40
0.0455968623852762
40
0.0607958165137019
40
0.0607958165137019
40
0.0759947706421276
40
0.0759947706421276
40
0.0911937247705533
40
0.0911937247705533
40
0.106392678898979
40
0.106392678898979
40
0.121591633027405
40
0.121591633027405
40
0.13679058715583
40
0.13679058715583
40
0.151989541284256
40
0.151989541284256
40
0.167188495412682
40
0.167188495412682
40
0.182387449541107
40
0.182387449541107
40
0.18998692660532
40
0.18998692660532
40
0.197586403669533
40
0.197586403669533
40
0.212785357797959
40
0.212785357797959
40
0.227984311926384
40
0.227984311926384
40
0.24318326605481
40
0.24318326605481
40
0.258382220183236
40
0.258382220183236
40
0.273581174311662
40
0.273581174311662
40
0.288780128440087
40
0.288780128440087
40
0.303979082568513
40
0.303979082568513
40
0.319178036696939
40
0.319178036696939
40
0.334376990825364
40
0.334376990825364
40
0.341976467889578
40
0.341976467889578
40
0.349575944953791
40
0.349575944953791
40
0.364774899082217
40
0.364774899082217
40
0.379973853210644
40
0.379973853210644
40
0.387573330274857
40
0.387573330274857
40
0.395172807339071
40
0.395172807339071
40
0.410371761467497
40
0.410371761467497
40
0.425570715595924
40
0.425570715595924
40
0.44076966972435
40
0.44076966972435
40
0.455968623852776
40
0.455968623852776
40
0.471167577981203
40
0.471167577981203
40
0.486366532109629
40
0.486366532109629
40
0.501565486238056
40
0.501565486238056
40
0.516764440366483
40
0.516764440366483
40
0.531963394494909
40
0.531963394494909
40
0.547162348623336
40
0.547162348623336
40
0.562361302751762
40
0.562361302751762
40
0.577560256880189
40
0.577560256880189
40
0.585159733944402
40
0.585159733944402
40
0.592759211008615
40
0.592759211008615
40
0.607958165137041
40
0.607958165137041
40
0.623157119265467
40
0.623157119265467
40
0.638356073393892
40
0.638356073393892
40
0.653555027522318
40
0.653555027522318
40
0.668753981650744
40
0.668753981650744
40
0.68395293577917
40
0.68395293577917
40
0.699151889907595
40
0.699151889907595
40
0.714350844036021
40
0.714350844036021
40
0.729549798164447
40
0.729549798164447
40
0.744748752292872
40
0.744748752292872
40
0.759947706421298
40
0.759947706421298
40
0.767547183485511
40
0.767547183485511
40
0.775146660549724
40
0.775146660549724
40
0.782746137613938
40
0.782746137613938
40
0.790345614678151
40
0.790345614678151
40
0.805544568806579
40
0.805544568806579
40
0.813144045870792
40
0.813144045870792
40
0.820743522935006
40
0.820743522935006
40
0.835942477063433
40
0.835942477063433
40
0.851141431191861
40
0.851141431191861
40
0.866340385320288
40
0.866340385320288
40
0.881539339448716
40
0.881539339448716
40
0.896738293577143
40
0.896738293577143
40
0.911937247705571
40
0.911937247705571
40
0.927136201833998
40
0.927136201833998
40
0.942335155962425
40
0.942335155962425
40
0.957534110090853
40
0.957534110090853
40
0.97273306421928
40
0.97273306421928
40
0.980332541283494
40
0.980332541283494
40
0.987932018347708
40
0.987932018347708
40
1
40
1
40
1
40
1
41
1
10
20.3595476031487
20
5.154981827504
30
0
41
1
10
20.7405489265259
20
5.24726959165201
30
0
41
1
10
21.1208588785193
20
5.32784982718852
30
0
41
1
10
21.6890579305775
20
5.43278291372627
30
0
41
1
10
21.8780181015083
20
5.46511365193865
30
0
41
1
10
22.2554726649793
20
5.52423382299591
30
0
41
1
10
22.4440076460724
20
5.55100253595651
30
0
41
1
10
22.8210712804143
20
5.59886510642946
30
0
41
1
10
23.0095531361025
20
5.61999023161061
30
0
41
1
10
23.3861255596808
20
5.6567595673051
30
0
41
1
10
23.5741806205186
20
5.6724053055006
30
0
41
1
10
23.950136975937
20
5.69808632809918
30
0
41
1
10
24.1380870259917
20
5.70810839626901
30
0
41
1
10
24.5143703449135
20
5.72248266897554
30
0
41
1
10
24.7026903600271
20
5.72684934473247
30
0
41
1
10
25.0793588258924
20
5.72997061335914
30
0
41
1
10
25.2676816414921
20
5.72871742641487
30
0
41
1
10
25.6444871992164
20
5.72050304172035
30
0
41
1
10
25.8330309815703
20
5.71354164068254
30
0
41
1
10
26.210855871185
20
5.69396645011003
30
0
41
1
10
26.4001596982234
20
5.68137030656402
30
0
41
1
10
26.7792261010863
20
5.65046730604215
30
0
41
1
10
26.9689666916127
20
5.63214726307038
30
0
41
1
10
27.2539529576321
20
5.60028968414852
30
0
41
1
10
27.3490246660656
20
5.588945517333
30
0
41
1
10
27.5393933922945
20
5.5648283422565
30
0
41
1
10
27.6347588806225
20
5.55204472286914
30
0
41
1
10
27.9206068611216
20
5.51167884554548
30
0
41
1
10
28.1109312697784
20
5.48211336070827
30
0
41
1
10
28.4908254742712
20
5.41761706364551
30
0
41
1
10
28.6803690297865
20
5.38266621518707
30
0
41
1
10
29.0586438428783
20
5.30735049063637
30
0
41
1
10
29.2474372040938
20
5.26702082797806
30
0
41
1
10
29.6248393686444
20
5.18143372881565
30
0
41
1
10
29.8134942047518
20
5.13622197459566
30
0
41
1
10
30.1905078411189
20
5.04086228447076
30
0
41
1
10
30.3788305811431
20
4.99068169418149
30
0
41
1
10
30.755018827033
20
4.8852074384618
30
0
41
1
10
30.9429339960506
20
4.82995186381399
30
0
41
1
10
31.318940358154
20
4.71493610541961
30
0
41
1
10
31.5070757406272
20
4.65522977606054
30
0
41
1
10
31.8835235039994
20
4.53137093321834
30
0
41
1
10
32.0717845676912
20
4.46716250411831
30
0
41
1
10
32.4482322331596
20
4.33396411437238
30
0
41
1
10
32.6364414044966
20
4.26499115983327
30
0
41
1
10
32.9191497798644
20
4.158459939556
30
0
41
1
10
33.0134485927755
20
4.12243489207521
30
0
41
1
10
33.2022233064076
20
4.04942583416539
30
0
41
1
10
33.2967003110537
20
4.01244396926722
30
0
41
1
10
33.580333412186
20
3.89997893998077
30
0
41
1
10
33.7696752052794
20
3.8229567964361
30
0
41
1
10
34.1486917386898
20
3.66450142181844
30
0
41
1
10
34.3383562588047
20
3.58304218238422
30
0
41
1
10
34.6235201175012
20
3.4580945451024
30
0
41
1
10
34.7186836874878
20
3.415983494638
30
0
41
1
10
34.9092815933788
20
3.33091918899905
30
0
41
1
10
35.0046980145032
20
3.28798676455875
30
0
41
1
10
35.2904868082063
20
3.15826149049639
30
0
41
1
10
35.4806501602444
20
3.0703834021952
30
0
41
1
10
35.8600519414934
20
2.89152260428105
30
0
41
1
10
36.0492617137457
20
2.80048923833934
30
0
41
1
10
36.4272398827523
20
2.6161173850351
30
0
41
1
10
36.6160337828507
20
2.52282293432793
30
0
41
1
10
36.993483452754
20
2.33446999093394
30
0
41
1
10
37.1820681329503
20
2.23929294463861
30
0
41
1
10
37.5587195927541
20
2.0465334934834
30
0
41
1
10
37.7467478739261
20
1.94888142510612
30
0
41
1
10
38.1226837324296
20
1.75184996361813
30
0
41
1
10
38.3106219919634
20
1.65252492584324
30
0
41
1
10
38.6867893602314
20
1.45289205713041
30
0
41
1
10
38.8749588983811
20
1.35248099881557
30
0
41
1
10
39.2511921974728
20
1.14996944616985
30
0
41
1
10
39.4392190027742
20
1.04779935315068
30
0
41
1
10
39.8154562342861
20
0.842273030430761
30
0
41
1
10
40.0037084394404
20
0.738993137483419
30
0
41
1
10
40.3808927884709
20
0.532168275287717
30
0
41
1
10
40.5697924325974
20
0.428566159552617
30
0
41
1
10
40.947898594556
20
0.220396515517677
30
0
41
1
10
41.137074354819
20
0.11576832452397
30
0
41
1
10
41.5159287924893
20
-0.0941156737392248
30
0
41
1
10
41.7056627957808
20
-0.199266442836176
30
0
41
1
10
41.9910613192978
20
-0.356658623499413
30
0
41
1
10
42.0863283558399
20
-0.409063988962515
30
0
41
1
10
42.2770874633041
20
-0.513842529992218
30
0
41
1
10
42.3724552455801
20
-0.566151227562841
30
0
41
1
10
42.6580885773856
20
-0.722726975041098
30
0
41
1
10
42.848013655103
20
-0.826789431560144
30
0
41
1
10
43.2270243589118
20
-1.03397601588924
30
0
41
1
10
43.4161721969872
20
-1.13698009065604
30
0
41
1
10
43.7942187391479
20
-1.3409758632435
30
0
41
1
10
43.9831454946719
20
-1.44192152110614
30
0
41
1
10
44.3604898854475
20
-1.64231642934999
30
0
41
1
10
44.5488854444636
20
-1.74180276289874
30
0
41
1
10
44.9251717014333
20
-1.93925268508082
30
0
41
1
10
45.1131277667264
20
-2.03709805687771
30
0
41
1
10
45.4891580428146
20
-2.23018968017993
30
0
41
1
10
45.6772763127594
20
-2.32536554392257
30
0
41
1
10
46.0534643196119
20
-2.51343065284297
30
0
41
1
10
46.2415045151196
20
-2.60636795802836
30
0
41
1
10
46.6174258231696
20
-2.79011018422219
30
0
41
1
10
46.8053638633628
20
-2.88081811812685
30
0
41
1
10
47.1817100160903
20
-3.05907289845317
30
0
41
1
10
47.3701633848316
20
-3.14655247985769
30
0
41
1
10
47.7474870592049
20
-3.31845140210643
30
0
41
1
10
47.936313328085
20
-3.40293879427861
30
0
41
1
10
48.3141748398533
20
-3.569131352706
30
0
41
1
10
48.5032477382548
20
-3.65077489453034
30
0
41
1
10
48.78748375496
20
-3.77042971252246
30
0
41
1
10
48.8823308005042
20
-3.80985089122453
30
0
41
1
10
49.0722782146223
20
-3.8876942370843
30
0
41
1
10
49.1673746094073
20
-3.9261224730088
30
0
41
1
10
49.3577685698599
20
-4.00205381390271
30
0
41
1
10
49.4530737691329
20
-4.03956320454162
30
0
41
1
10
49.6438161824682
20
-4.1136787453201
30
0
41
1
10
49.7390627104161
20
-4.15020827713306
30
0
41
1
10
50.024403785867
20
-4.25824603269828
30
0
41
1
10
50.2141066194259
20
-4.32818593712528
30
0
41
1
10
50.4982967616367
20
-4.42946012394879
30
0
41
1
10
50.5929632685438
20
-4.46261727084703
30
0
41
1
10
50.7822222750054
20
-4.52767987964199
30
0
41
1
10
50.8768178587827
20
-4.55958246416895
30
0
41
1
10
51.1604396102624
20
-4.65349597421763
30
0
41
1
10
51.3492838340347
20
-4.7137348896868
30
0
41
1
10
51.7263118174463
20
-4.82967718940279
30
0
41
1
10
51.9144773333105
20
-4.88538778012645
30
0
41
1
10
52.290676924951
20
-4.99172537076549
30
0
41
1
10
52.478736584005
20
-5.04233390445881
30
0
41
1
10
52.8549760037678
20
-5.13832222381936
30
0
41
1
10
53.0430823535312
20
-5.1837710630723
30
0
41
1
10
53.4190454388536
20
-5.26974104665263
30
0
41
1
10
53.606867155139
20
-5.31027784932752
30
0
41
1
10
53.9826968160583
20
-5.38604911871766
30
0
41
1
10
54.1707315697538
20
-5.4212685689927
30
0
41
1
10
54.5473478678184
20
-5.48622073717499
30
0
41
1
10
54.7358635854835
20
-5.5160003773635
30
0
41
1
10
55.1130509988679
20
-5.5702666998846
30
0
41
1
10
55.3016840841788
20
-5.59476164410839
30
0
41
1
10
55.6794482947726
20
-5.63820435940877
30
0
41
1
10
55.8686166182468
20
-5.6571377740031
30
0
41
1
10
56.2479173965102
20
-5.6892968532884
30
0
41
1
10
56.4380016938239
20
-5.70254800773102
30
0
41
1
10
56.7235652560403
20
-5.71818831772239
30
0
41
1
10
56.8188804632213
20
-5.72269549325173
30
0
41
1
10
57.0094176744035
20
-5.73026738557138
30
0
41
1
10
57.1045511594785
20
-5.73332773868344
30
0
41
1
10
57.3505022231027
20
-5.73936476787927
30
0
41
1
10
57.5011767870876
20
-5.74123157995334
30
0
41
1
10
57.6517192822978
20
-5.74128593266522
30
0
0
SPLINE
5
C4
100
AcDbEntity
8
1
62
256
6
ByLayer
370
18
48
1
60
0
100
AcDbSpline
70
4
71
3
72
46
73
42
40
0
40
0
40
0
40
0
40
0.059531659167147
40
0.059531659167147
40
0.106555076208788
40
0.106555076208788
40
0.15357849325043
40
0.15357849325043
40
0.200601910292072
40
0.200601910292072
40
0.247625327333713
40
0.247625327333713
40
0.294648744375355
40
0.294648744375355
40
0.341672161416996
40
0.341672161416996
40
0.388695578458638
40
0.388695578458638
40
0.435718995500279
40
0.435718995500279
40
0.482742412541921
40
0.482742412541921
40
0.529765829583562
40
0.529765829583562
40
0.576789246625204
40
0.576789246625204
40
0.623812663666846
40
0.623812663666846
40
0.717859497750135
40
0.717859497750135
40
0.764882914791779
40
0.764882914791779
40
0.811906331833423
40
0.811906331833423
40
0.858929748875067
40
0.858929748875067
40
0.905953165916711
40
0.905953165916711
40
0.952976582958356
40
0.952976582958356
40
1
40
1
40
1
40
1
41
1
10
80.843040067647
20
3.54014493131001
30
0
41
1
10
81.0816838050342
20
3.64413228706943
30
0
41
1
10
81.3201039560629
20
3.74509148354645
30
0
41
1
10
81.746087158842
20
3.9209414979623
30
0
41
1
10
81.9338634643941
20
3.99675842974423
30
0
41
1
10
82.3095315395734
20
4.14409973525392
30
0
41
1
10
82.4974633529124
20
4.21557887904973
30
0
41
1
10
82.8734964181211
20
4.35422958481567
30
0
41
1
10
83.061539182962
20
4.42147476129102
30
0
41
1
10
83.4375110243035
20
4.55196230568615
30
0
41
1
10
83.6254438949987
20
4.61519125368037
30
0
41
1
10
84.0017753927779
20
4.73694766535624
30
0
41
1
10
84.1902038979201
20
4.79544840343573
30
0
41
1
10
84.5676990872838
20
4.90759805428863
30
0
41
1
10
84.7566944561034
20
4.96132279226106
30
0
41
1
10
85.1349895672911
20
5.0641984276709
30
0
41
1
10
85.3242657963759
20
5.11336152790327
30
0
41
1
10
85.7036325764502
20
5.20657221688333
30
0
41
1
10
85.8937485896455
20
5.25060241141418
30
0
41
1
10
86.2750654025766
20
5.33332880253636
30
0
41
1
10
86.4654216475633
20
5.37191942915766
30
0
41
1
10
86.8451777668018
20
5.44372628741854
30
0
41
1
10
87.0345625674797
20
5.47695764378918
30
0
41
1
10
87.4128584761015
20
5.5377814530369
30
0
41
1
10
87.6017981029231
20
5.56536211955012
30
0
41
1
10
87.9795784592481
20
5.61480919669353
30
0
41
1
10
88.1683518875344
20
5.63671483098227
30
0
41
1
10
88.7339316452164
20
5.69415565372142
30
0
41
1
10
89.1098210690583
20
5.72135932269586
30
0
41
1
10
89.6746599737841
20
5.74496063025879
30
0
41
1
10
89.8630465490255
20
5.74999776994679
30
0
41
1
10
90.2397360214626
20
5.75443293061048
30
0
41
1
10
90.4280039489452
20
5.7538222387839
30
0
41
1
10
90.8046956382165
20
5.7468728559754
30
0
41
1
10
90.9931687588253
20
5.7405349024001
30
0
41
1
10
91.3708120786854
20
5.72219970619793
30
0
41
1
10
91.5599682720101
20
5.71021336086346
30
0
41
1
10
91.9386234470144
20
5.68050726440927
30
0
41
1
10
92.1280960913672
20
5.66277153006075
30
0
41
1
10
92.5075311411088
20
5.62148049187493
30
0
41
1
10
92.6975543397822
20
5.59794299684859
30
0
41
1
10
92.8881128109975
20
5.57159688651834
30
0
0
SPLINE
5
C5
100
AcDbEntity
8
1
62
256
6
ByLayer
370
18
48
1
60
0
100
AcDbSpline
70
4
71
3
72
161
73
157
40
0
40
0
40
0
40
0
40
0.0011212435751031
40
0.0011212435751031
40
0.0089077075281301
40
0.0089077075281301
40
0.0244806354341827
40
0.0244806354341827
40
0.0400535633402351
40
0.0400535633402351
40
0.0556264912462877
40
0.0556264912462877
40
0.0634129551993139
40
0.0634129551993139
40
0.0711994191523401
40
0.0711994191523401
40
0.0867723470583927
40
0.0867723470583927
40
0.102345274964445
40
0.102345274964445
40
0.117918202870498
40
0.117918202870498
40
0.125704666823524
40
0.125704666823524
40
0.13349113077655
40
0.13349113077655
40
0.149064058682603
40
0.149064058682603
40
0.164636986588657
40
0.164636986588657
40
0.18020991449471
40
0.18020991449471
40
0.195782842400763
40
0.195782842400763
40
0.211355770306816
40
0.211355770306816
40
0.22692869821287
40
0.22692869821287
40
0.234715162165896
40
0.234715162165896
40
0.242501626118923
40
0.242501626118923
40
0.258074554024976
40
0.258074554024976
40
0.273647481931029
40
0.273647481931029
40
0.289220409837083
40
0.289220409837083
40
0.304793337743136
40
0.304793337743136
40
0.320366265649189
40
0.320366265649189
40
0.335939193555242
40
0.335939193555242
40
0.351512121461296
40
0.351512121461296
40
0.367085049367349
40
0.367085049367349
40
0.382657977273402
40
0.382657977273402
40
0.398230905179455
40
0.398230905179455
40
0.406017369132481
40
0.406017369132481
40
0.409910601108995
40
0.409910601108995
40
0.413803833085508
40
0.413803833085508
40
0.429376760991561
40
0.429376760991561
40
0.444949688897614
40
0.444949688897614
40
0.460522616803667
40
0.460522616803667
40
0.47609554470972
40
0.47609554470972
40
0.491668472615774
40
0.491668472615774
40
0.507241400521827
40
0.507241400521827
40
0.52281432842788
40
0.52281432842788
40
0.538387256333933
40
0.538387256333933
40
0.54617372028696
40
0.54617372028696
40
0.553960184239987
40
0.553960184239987
40
0.56953311214604
40
0.56953311214604
40
0.577319576099066
40
0.577319576099066
40
0.585106040052093
40
0.585106040052093
40
0.600678967958145
40
0.600678967958145
40
0.608465431911171
40
0.608465431911171
40
0.616251895864197
40
0.616251895864197
40
0.631824823770249
40
0.631824823770249
40
0.647397751676301
40
0.647397751676301
40
0.662970679582352
40
0.662970679582352
40
0.670757143535378
40
0.670757143535378
40
0.678543607488404
40
0.678543607488404
40
0.694116535394456
40
0.694116535394456
40
0.709689463300507
40
0.709689463300507
40
0.725262391206559
40
0.725262391206559
40
0.740835319112611
40
0.740835319112611
40
0.748621783065636
40
0.748621783065636
40
0.756408247018662
40
0.756408247018662
40
0.771981174924714
40
0.771981174924714
40
0.787554102830766
40
0.787554102830766
40
0.803127030736817
40
0.803127030736817
40
0.818699958642869
40
0.818699958642869
40
0.834272886548921
40
0.834272886548921
40
0.849845814454972
40
0.849845814454972
40
0.865418742361024
40
0.865418742361024
40
0.880991670267076
40
0.880991670267076
40
0.896564598173127
40
0.896564598173127
40
0.912137526079179
40
0.912137526079179
40
0.927710453985231
40
0.927710453985231
40
0.931603685961744
40
0.931603685961744
40
0.935496917938258
40
0.943283381891285
40
0.943283381891285
40
0.958856309797339
40
0.958856309797339
40
0.974429237703393
40
0.974429237703393
40
0.990002165609446
40
0.990002165609446
40
1
40
1
40
1
40
1
41
1
10
80.8434469622577
20
-3.54638428289545
30
0
41
1
10
80.827809204675
20
-3.55320516950704
30
0
41
1
10
80.8121699555346
20
-3.56001346652479
30
0
41
1
10
80.687911251135
20
-3.61400042324868
30
0
41
1
10
80.5792138387369
20
-3.6605741137835
30
0
41
1
10
80.2529097715133
20
-3.79848315414193
30
0
41
1
10
80.0350920745019
20
-3.88801087628008
30
0
41
1
10
79.5990902000337
20
-4.06246829581966
30
0
41
1
10
79.38087696118
20
-4.14735003536259
30
0
41
1
10
78.9434319364093
20
-4.31157902008309
30
0
41
1
10
78.724135182966
20
-4.39084917508703
30
0
41
1
10
78.3943707673012
20
-4.50552204992542
30
0
41
1
10
78.2842351538868
20
-4.54307214107774
30
0
41
1
10
78.0644057324449
20
-4.61657165083065
30
0
41
1
10
77.9546593093997
20
-4.65254474044175
30
0
41
1
10
77.6258303744987
20
-4.75803252514319
30
0
41
1
10
77.4071615445255
20
-4.82511261346767
30
0
41
1
10
76.970295772628
20
-4.95223918288013
30
0
41
1
10
76.752127218865
20
-5.01232982546958
30
0
41
1
10
76.3165016033629
20
-5.12582249138913
30
0
41
1
10
76.0991062899927
20
-5.17926730180895
30
0
41
1
10
75.7733187083688
20
-5.2542131507123
30
0
41
1
10
75.6647688570631
20
-5.27832164876781
30
0
41
1
10
75.4476762340493
20
-5.3247376310315
30
0
41
1
10
75.3391277665428
20
-5.34704194263801
30
0
41
1
10
75.0134947004454
20
-5.4112739825286
30
0
41
1
10
74.7964214069905
20
-5.450526367538
30
0
41
1
10
74.3625280330737
20
-5.52201127934481
30
0
41
1
10
74.1456928660156
20
-5.55422102325767
30
0
41
1
10
73.7116770794453
20
-5.61125963187556
30
0
41
1
10
73.4944253913894
20
-5.6360676907523
30
0
41
1
10
73.0594344123895
20
-5.67828371993684
30
0
41
1
10
72.8417529957148
20
-5.69571095353569
30
0
41
1
10
72.406019821941
20
-5.72309982024896
30
0
41
1
10
72.1879212040142
20
-5.73303891738959
30
0
41
1
10
71.7506176996843
20
-5.74525170361585
30
0
41
1
10
71.5314176317286
20
-5.7475419338169
30
0
41
1
10
71.2019215581229
20
-5.74520734203645
30
0
41
1
10
71.0919312870695
20
-5.74346446427126
30
0
41
1
10
70.8719386071364
20
-5.73803348876314
30
0
41
1
10
70.7621067494603
20
-5.73435057759255
30
0
41
1
10
70.4330044836536
20
-5.72042416118072
30
0
41
1
10
70.214093483053
20
-5.70730511717653
30
0
41
1
10
69.7768094757579
20
-5.67363384625742
30
0
41
1
10
69.558488987223
20
-5.65308013685188
30
0
41
1
10
69.122712351893
20
-5.60451813755057
30
0
41
1
10
68.9052590785218
20
-5.57649416591855
30
0
41
1
10
68.4706603434767
20
-5.51322406377085
30
0
41
1
10
68.2534420410171
20
-5.47802257435481
30
0
41
1
10
67.8191057790759
20
-5.40060509721172
30
0
41
1
10
67.602043968689
20
-5.35835789188405
30
0
41
1
10
67.1681994978333
20
-5.26670852850512
30
0
41
1
10
66.9513710239812
20
-5.21732622274232
30
0
41
1
10
66.5172773812781
20
-5.11191947044321
30
0
41
1
10
66.2999914899428
20
-5.05592592749898
30
0
41
1
10
65.8651095022308
20
-4.93721986797087
30
0
41
1
10
65.6475775504528
20
-4.87444071005194
30
0
41
1
10
65.2120545893712
20
-4.74219639146307
30
0
41
1
10
64.9940096498768
20
-4.67278185766196
30
0
41
1
10
64.5568324703577
20
-4.52790903973005
30
0
41
1
10
64.3377529343443
20
-4.45240475140787
30
0
41
1
10
64.0085498996498
20
-4.33429270504638
30
0
41
1
10
63.8987240066044
20
-4.29410318719815
30
0
41
1
10
63.7338007055218
20
-4.23263452663269
30
0
41
1
10
63.6787782974506
20
-4.21194122742307
30
0
41
1
10
63.5688412287622
20
-4.17023759512517
30
0
41
1
10
63.5139082434263
20
-4.14922063437587
30
0
41
1
10
63.2393952886804
20
-4.04334716049073
30
0
41
1
10
63.0202111935202
20
-3.95620691252231
30
0
41
1
10
62.5825411155021
20
-3.77733429896489
30
0
41
1
10
62.3641107089654
20
-3.68552568599725
30
0
41
1
10
61.9281732714556
20
-3.49701392818008
30
0
41
1
10
61.7106226601292
20
-3.40036811964606
30
0
41
1
10
61.2757387475324
20
-3.20325094121088
30
0
41
1
10
61.0583655851242
20
-3.10284722123367
30
0
41
1
10
60.6239038157701
20
-2.89815773100912
30
0
41
1
10
60.4068777197442
20
-2.79377015243537
30
0
41
1
10
59.9730280114846
20
-2.58122166668179
30
0
41
1
10
59.7561544332357
20
-2.4731391016816
30
0
41
1
10
59.3219460436191
20
-2.2543079980376
30
0
41
1
10
59.1046581451851
20
-2.14348726324576
30
0
41
1
10
58.6699195076988
20
-1.9186751378902
30
0
41
1
10
58.4525163701134
20
-1.8045948159033
30
0
41
1
10
58.1259818274057
20
-1.63159879031545
30
0
41
1
10
58.0170620087461
20
-1.57362723485247
30
0
41
1
10
57.7989872585546
20
-1.45722509356111
30
0
41
1
10
57.6898347109047
20
-1.39879064921016
30
0
41
1
10
57.362058658043
20
-1.22273672682471
30
0
41
1
10
57.143122576867
20
-1.10435863365112
30
0
41
1
10
56.814213996691
20
-0.925001365106596
30
0
41
1
10
56.704482479444
20
-0.864937559580824
30
0
41
1
10
56.4847613693093
20
-0.744374084607443
30
0
41
1
10
56.3746840408899
20
-0.683826140815313
30
0
41
1
10
56.0449165728336
20
-0.50230457098894
30
0
41
1
10
55.8254690649853
20
-0.381452376984214
30
0
41
1
10
55.4969610579571
20
-0.200260240731382
30
0
41
1
10
55.3875720906542
20
-0.139871399847948
30
0
41
1
10
55.1690537659509
20
-0.0190483733613576
30
0
41
1
10
55.0599232778017
20
0.0413834319296882
30
0
41
1
10
54.7328206476265
20
0.222556033150511
30
0
41
1
10
54.515136166057
20
0.343170312001376
30
0
41
1
10
54.0799279507863
20
0.582948402852054
30
0
41
1
10
53.8624428521106
20
0.702187709113105
30
0
41
1
10
53.4279055380042
20
0.939738396435331
30
0
41
1
10
53.210909839559
20
1.05815052131686
30
0
41
1
10
52.8854823113118
20
1.23459298817463
30
0
41
1
10
52.777013419009
20
1.2932040253182
30
0
41
1
10
52.5600047649467
20
1.4098686362926
30
0
41
1
10
52.4514621032635
20
1.46791723111099
30
0
41
1
10
52.1257449113444
20
1.64126061263636
30
0
41
1
10
51.9084805714057
20
1.75575333948501
30
0
41
1
10
51.4739222600968
20
1.98295776085618
30
0
41
1
10
51.2566031114684
20
2.0956217521283
30
0
41
1
10
50.8213007540875
20
2.31804223883986
30
0
41
1
10
50.603249591503
20
2.42768415245348
30
0
41
1
10
50.1663878373203
20
2.64389886769158
30
0
41
1
10
49.9476366722044
20
2.75057233394949
30
0
41
1
10
49.6189860665906
20
2.90833325810365
30
0
41
1
10
49.5093359096205
20
2.96052391273227
30
0
41
1
10
49.289760375202
20
3.0639838042747
30
0
41
1
10
49.1797882718075
20
3.11526974938732
30
0
41
1
10
48.8496252499212
20
3.26740986376578
30
0
41
1
10
48.6299518790756
20
3.36624456643415
30
0
41
1
10
48.1916456452573
20
3.55910744964541
30
0
41
1
10
47.9730763365612
20
3.65322302080989
30
0
41
1
10
47.5366934388765
20
3.83623448939321
30
0
41
1
10
47.3188175178609
20
3.92504168325652
30
0
41
1
10
46.8833168321602
20
4.09683130624441
30
0
41
1
10
46.6657453211303
20
4.17989442434543
30
0
41
1
10
46.2311828463857
20
4.34065994581132
30
0
41
1
10
46.0141800481998
20
4.41833525218522
30
0
41
1
10
45.5801658712996
20
4.56759236988805
30
0
41
1
10
45.3630827897685
20
4.63910040835489
30
0
41
1
10
44.928754227878
20
4.77591081365765
30
0
41
1
10
44.7115661014913
20
4.84127426927401
30
0
41
1
10
44.2771615345281
20
4.9658791285265
30
0
41
1
10
44.0598986198549
20
5.02506543418852
30
0
41
1
10
43.624613672228
20
5.13660406695132
30
0
41
1
10
43.4065900296912
20
5.1889679227838
30
0
41
1
10
42.9699532092029
20
5.28700250398114
30
0
41
1
10
42.7514045379045
20
5.33271495095019
30
0
41
1
10
42.313511386928
20
5.41717106613893
30
0
41
1
10
42.0941091054744
20
5.45587346792027
30
0
41
1
10
41.818997334338
20
5.49963808456056
30
0
41
1
10
41.7639176422462
20
5.50816536875502
30
0
41
1
10
41.6538570486485
20
5.52473793195057
30
0
41
1
10
41.4888630851127
20
5.5488820922551
30
0
41
1
10
41.324172939691
20
5.57089953425282
30
0
41
1
10
40.9952454629811
20
5.61213139540473
30
0
41
1
10
40.7765683976458
20
5.63587366978589
30
0
41
1
10
40.3398674843394
20
5.67571235890833
30
0
41
1
10
40.1217708636026
20
5.69179599344523
30
0
41
1
10
39.6860051688386
20
5.71640166863799
30
0
41
1
10
39.4683924784739
20
5.7249373259929
30
0
41
1
10
39.1115749913151
20
5.73277259418626
30
0
41
1
10
38.9721715023915
20
5.73427775686474
30
0
41
1
10
38.8327930403018
20
5.7342279309602
30
0
0
SPLINE
5
C6
100
AcDbEntity
8
1
62
256
6
ByLayer
370
18
48
1
60
0
100
AcDbSpline
70
4
71
3
72
26
73
22
40
0
40
0
40
0
40
0
40
0.099819913368793
40
0.099819913368793
40
0.199839922994481
40
0.199839922994481
40
0.299859932620169
40
0.299859932620169
40
0.399879942245857
40
0.399879942245857
40
0.449889947058703
40
0.449889947058703
40
0.499899951871548
40
0.499899951871548
40
0.599919961497239
40
0.599919961497239
40
0.699939971122931
40
0.699939971122931
40
0.799959980748622
40
0.799959980748622
40
1
40
1
40
1
40
1
41
1
10
15.6981414194842
20
-3.5025321338743
30
0
41
1
10
15.4813891434964
20
-3.59708868432207
30
0
41
1
10
15.2644312902749
20
-3.68918550881708
30
0
41
1
10
14.829844996092
20
-3.86889484293141
30
0
41
1
10
14.6122809027261
20
-3.95658300592095
30
0
41
1
10
14.1767149621197
20
-4.12693495755056
30
0
41
1
10
13.9586562374213
20
-4.20952147146136
30
0
41
1
10
13.5215257458692
20
-4.36890959898898
30
0
41
1
10
13.3025076156171
20
-4.44578694283865
30
0
41
1
10
12.9734615604882
20
-4.55702877528012
30
0
41
1
10
12.8636945625863
20
-4.5934306148732
30
0
41
1
10
12.6439239302718
20
-4.66478580385808
30
0
41
1
10
12.5338598398291
20
-4.69975899311342
30
0
41
1
10
12.2036568754368
20
-4.80221899532111
30
0
41
1
10
11.9836534314743
20
-4.86711701466396
30
0
41
1
10
11.5438284639103
20
-4.99011067042122
30
0
41
1
10
11.3240676942593
20
-5.0482652847484
30
0
41
1
10
10.884916386257
20
-5.15792234456652
30
0
41
1
10
10.6654787880734
20
-5.20937346788685
30
0
41
1
10
10.0066063440406
20
-5.35285742862447
30
0
41
1
10
9.56655393043917
20
-5.4341153381767
30
0
41
1
10
9.12637920028089
20
-5.50115829166674
30
0
0
SPLINE
5
C7
100
AcDbEntity
8
1
62
256
6
ByLayer
370
18
48
1
60
0
100
AcDbSpline
70
4
71
3
72
22
73
18
40
0
40
0
40
0
40
0
40
0.242013548460556
40
0.242013548460556
40
0.363020322690837
40
0.363020322690837
40
0.484027096921118
40
0.484027096921118
40
0.6050338711514
40
0.6050338711514
40
0.726040645381681
40
0.726040645381681
40
0.847047419611962
40
0.847047419611962
40
0.968054193842243
40
0.968054193842243
40
1
40
1
40
1
40
1
41
1
10
20.3595476031487
20
-5.154981827504
30
0
41
1
10
20.7405489265259
20
-5.24726959165204
30
0
41
1
10
21.1208588785194
20
-5.32784982718852
30
0
41
1
10
21.6890579305775
20
-5.43278291372627
30
0
41
1
10
21.8780181015084
20
-5.46511365193865
30
0
41
1
10
22.2554726649793
20
-5.52423382299591
30
0
41
1
10
22.4440076460724
20
-5.55100253595651
30
0
41
1
10
22.8210712804143
20
-5.59886510642946
30
0
41
1
10
23.0095531361026
20
-5.61999023161064
30
0
41
1
10
23.3861255596808
20
-5.6567595673051
30
0
41
1
10
23.5741806205186
20
-5.6724053055006
30
0
41
1
10
23.950136975937
20
-5.69808632809918
30
0
41
1
10
24.1380870259917
20
-5.70810839626904
30
0
41
1
10
24.5143703449135
20
-5.72248266897554
30
0
41
1
10
24.7026903600273
20
-5.72684934473247
30
0
41
1
10
24.9407448580971
20
-5.72882198673361
30
0
41
1
10
24.9904643274911
20
-5.72903788211698
30
0
41
1
10
25.0401846825241
20
-5.72905692581668
30
0
0
SPLINE
5
C8
100
AcDbEntity
8
1
62
256
6
ByLayer
370
18
48
1
60
0
100
AcDbSpline
70
4
71
3
72
168
73
164
40
0
40
0
40
0
40
0
40
0.0107318184984871
40
0.0107318184984871
40
0.0174729067458611
40
0.0174729067458611
40
0.0242139949932352
40
0.0242139949932352
40
0.0309550832406093
40
0.0309550832406093
40
0.0376961714879832
40
0.0376961714879832
40
0.0511783479827306
40
0.0511783479827306
40
0.0579194362301038
40
0.0579194362301038
40
0.0646605244774771
40
0.0646605244774771
40
0.0781427009722236
40
0.0781427009722236
40
0.0916248774669701
40
0.0916248774669701
40
0.105107053961717
40
0.105107053961717
40
0.118589230456463
40
0.118589230456463
40
0.13207140695121
40
0.13207140695121
40
0.145553583445956
40
0.145553583445956
40
0.159035759940703
40
0.159035759940703
40
0.172517936435449
40
0.172517936435449
40
0.186000112930196
40
0.186000112930196
40
0.199482289424943
40
0.199482289424943
40
0.206223377672315
40
0.206223377672315
40
0.212964465919688
40
0.212964465919688
40
0.226446642414434
40
0.226446642414434
40
0.23992881890918
40
0.23992881890918
40
0.253410995403926
40
0.253410995403926
40
0.266893171898671
40
0.266893171898671
40
0.280375348393417
40
0.280375348393417
40
0.293857524888163
40
0.293857524888163
40
0.307339701382909
40
0.307339701382909
40
0.320821877877654
40
0.320821877877654
40
0.3343040543724
40
0.3343040543724
40
0.347786230867146
40
0.347786230867146
40
0.361268407361892
40
0.361268407361892
40
0.374750583856638
40
0.374750583856638
40
0.38149167210401
40
0.38149167210401
40
0.388232760351383
40
0.388232760351383
40
0.401714936846129
40
0.401714936846129
40
0.415197113340875
40
0.415197113340875
40
0.42867928983562
40
0.42867928983562
40
0.435420378082993
40
0.435420378082993
40
0.442161466330366
40
0.442161466330366
40
0.455643642825112
40
0.455643642825112
40
0.469125819319858
40
0.469125819319858
40
0.482607995814604
40
0.482607995814604
40
0.496090172309349
40
0.496090172309349
40
0.509572348804095
40
0.509572348804095
40
0.523054525298841
40
0.523054525298841
40
0.536536701793587
40
0.536536701793587
40
0.550018878288332
40
0.550018878288332
40
0.556759966535705
40
0.556759966535705
40
0.563501054783078
40
0.563501054783078
40
0.576983231277822
40
0.576983231277822
40
0.590465407772567
40
0.590465407772567
40
0.603947584267313
40
0.603947584267313
40
0.617429760762057
40
0.617429760762057
40
0.630911937256803
40
0.630911937256803
40
0.644394113751548
40
0.644394113751548
40
0.657876290246292
40
0.657876290246292
40
0.671358466741038
40
0.671358466741038
40
0.684840643235783
40
0.684840643235783
40
0.698322819730527
40
0.698322819730527
40
0.711804996225272
40
0.711804996225272
40
0.725287172720018
40
0.725287172720018
40
0.73202826096739
40
0.73202826096739
40
0.738769349214763
40
0.738769349214763
40
0.752251525709508
40
0.752251525709508
40
0.765733702204253
40
0.765733702204253
40
0.792698055193745
40
0.792698055193745
40
0.806180231688491
40
0.806180231688491
40
0.819662408183236
40
0.819662408183236
40
0.833144584677982
40
0.833144584677982
40
0.846626761172728
40
0.846626761172728
40
0.860108937667474
40
0.860108937667474
40
0.873591114162219
40
0.873591114162219
40
0.887073290656965
40
0.887073290656965
40
0.900555467151711
40
0.900555467151711
40
0.914037643646457
40
0.914037643646457
40
0.927519820141202
40
0.927519820141202
40
0.941001996635948
40
0.941001996635948
40
0.954484173130694
40
0.954484173130694
40
0.981448526120184
40
0.981448526120184
40
0.994930702614929
40
0.994930702614929
40
1
40
1
40
1
40
1
41
1
10
48.2408895401458
20
3.53670494120922
30
0
41
1
10
48.3913338001027
20
3.60236387097183
30
0
41
1
10
48.5419037520755
20
3.66704791422583
30
0
41
1
10
48.78748375496
20
3.77042971252246
30
0
41
1
10
48.8823308005042
20
3.80985089122456
30
0
41
1
10
49.0722782146224
20
3.8876942370843
30
0
41
1
10
49.1673746094073
20
3.9261224730088
30
0
41
1
10
49.3577685698598
20
4.00205381390273
30
0
41
1
10
49.4530737691329
20
4.03956320454162
30
0
41
1
10
49.6438161824682
20
4.1136787453201
30
0
41
1
10
49.7390627104161
20
4.15020827713306
30
0
41
1
10
50.024403785867
20
4.25824603269831
30
0
41
1
10
50.2141066194258
20
4.32818593712528
30
0
41
1
10
50.4982967616366
20
4.42946012394879
30
0
41
1
10
50.5929632685437
20
4.46261727084703
30
0
41
1
10
50.7822222750054
20
4.52767987964199
30
0
41
1
10
50.8768178587827
20
4.55958246416895
30
0
41
1
10
51.1604396102624
20
4.65349597421763
30
0
41
1
10
51.3492838340347
20
4.7137348896868
30
0
41
1
10
51.7263118174463
20
4.82967718940279
30
0
41
1
10
51.9144773333105
20
4.88538778012645
30
0
41
1
10
52.2906769249511
20
4.99172537076549
30
0
41
1
10
52.478736584005
20
5.04233390445881
30
0
41
1
10
52.8549760037678
20
5.13832222381936
30
0
41
1
10
53.0430823535312
20
5.1837710630723
30
0
41
1
10
53.4190454388536
20
5.26974104665263
30
0
41
1
10
53.606867155139
20
5.31027784932752
30
0
41
1
10
53.9826968160583
20
5.38604911871766
30
0
41
1
10
54.1707315697539
20
5.4212685689927
30
0
41
1
10
54.5473478678184
20
5.48622073717499
30
0
41
1
10
54.7358635854835
20
5.5160003773635
30
0
41
1
10
55.1130509988679
20
5.5702666998846
30
0
41
1
10
55.3016840841788
20
5.59476164410839
30
0
41
1
10
55.6794482947726
20
5.63820435940877
30
0
41
1
10
55.8686166182468
20
5.6571377740031
30
0
41
1
10
56.2479173965102
20
5.6892968532884
30
0
41
1
10
56.438001693824
20
5.70254800773102
30
0
41
1
10
56.7235652560403
20
5.71818831772239
30
0
41
1
10
56.8188804632213
20
5.72269549325173
30
0
41
1
10
57.0094176744035
20
5.73026738557138
30
0
41
1
10
57.1045511594785
20
5.73332773868344
30
0
41
1
10
57.3896565450608
20
5.74032583623699
30
0
41
1
10
57.5793439390988
20
5.74207656244224
30
0
41
1
10
57.9583897146576
20
5.73984879115108
30
0
41
1
10
58.1477263328169
20
5.73588263990638
30
0
41
1
10
58.5257148194108
20
5.72228471270529
30
0
41
1
10
58.7143373648696
20
5.7126401655139
30
0
41
1
10
59.0910556710643
20
5.68767642315601
30
0
41
1
10
59.2792097573614
20
5.67236652840867
30
0
41
1
10
59.6555649155403
20
5.63627961102196
30
0
41
1
10
59.8437818634394
20
5.6155205164722
30
0
41
1
10
60.2199608380208
20
5.56848785497365
30
0
41
1
10
60.4079016556046
20
5.54219848923986
30
0
41
1
10
60.7835781384993
20
5.48406238465674
30
0
41
1
10
60.9713788334565
20
5.45224308565869
30
0
41
1
10
61.3473797492666
20
5.3833871772456
30
0
41
1
10
61.5356191782344
20
5.34638688929107
30
0
41
1
10
61.9122893619142
20
5.26707105393143
30
0
41
1
10
62.1006949483963
20
5.22473333814239
30
0
41
1
10
62.4776343801283
20
5.13459939164576
30
0
41
1
10
62.6662304741118
20
5.08684470811204
30
0
41
1
10
63.0441868281457
20
4.98636990657255
30
0
41
1
10
63.2335929785253
20
4.93370344230041
30
0
41
1
10
63.6130700085707
20
4.82332499345821
30
0
41
1
10
63.8031025402739
20
4.76557256879687
30
0
41
1
10
64.0885350861516
20
4.67494344445592
30
0
41
1
10
64.1838244427706
20
4.6440534037371
30
0
41
1
10
64.3742081215142
20
4.58117076844056
30
0
41
1
10
64.4693000543059
20
4.54918237339257
30
0
41
1
10
64.7543599875332
20
4.45168689313888
30
0
41
1
10
64.9441670103303
20
4.38471850711011
30
0
41
1
10
65.3232248353716
20
4.24679651530607
30
0
41
1
10
65.5124266963887
20
4.17578152159916
30
0
41
1
10
65.890035836141
20
4.02946084860761
30
0
41
1
10
66.078471793333
20
3.95418625360651
30
0
41
1
10
66.3609901770889
20
3.83867747772226
30
0
41
1
10
66.4551373660262
20
3.79973844518761
30
0
41
1
10
66.6434336329342
20
3.72106896373003
30
0
41
1
10
66.7375816353048
20
3.68133746252909
30
0
41
1
10
67.0199582698091
20
3.5608654604751
30
0
41
1
10
67.2081036724111
20
3.47882637836369
30
0
41
1
10
67.5840077657592
20
3.31102876052432
30
0
41
1
10
67.7717594665448
20
3.22525292182374
30
0
41
1
10
68.147428231658
20
3.05079446889863
30
0
41
1
10
68.3353720819788
20
2.96215710997302
30
0
41
1
10
68.7116291949006
20
2.78233226646941
30
0
41
1
10
68.8998702534926
20
2.69103254297281
30
0
41
1
10
69.2763688585787
20
2.50529113951393
30
0
41
1
10
69.4645953816205
20
2.41079100626098
30
0
41
1
10
69.8415419150143
20
2.21940132749089
30
0
41
1
10
70.0302874537873
20
2.12255800757407
30
0
41
1
10
70.4085956411406
20
1.9270602442844
30
0
41
1
10
70.5980871370483
20
1.8282847876095
30
0
41
1
10
70.9775071903613
20
1.62821052862367
30
0
41
1
10
71.1673986382077
20
1.52683661352472
30
0
41
1
10
71.452859359519
20
1.37337452409187
30
0
41
1
10
71.5481677030517
20
1.32197284330732
30
0
41
1
10
71.7385128760033
20
1.21911561151933
30
0
41
1
10
71.833613231248
20
1.16763640512917
30
0
41
1
10
72.118731942165
20
1.01310898396829
30
0
41
1
10
72.3085290941153
20
0.909896373247989
30
0
41
1
10
72.687292659141
20
0.702571480675488
30
0
41
1
10
72.8762203755905
20
0.59838754682923
30
0
41
1
10
73.2535479223381
20
0.38969218634324
30
0
41
1
10
73.4419883269337
20
0.285256839602709
30
0
41
1
10
73.8188394811325
20
0.0769796525573554
30
0
41
1
10
74.0072129226936
20
-0.0269330461417212
30
0
41
1
10
74.3835494917178
20
-0.234878431075231
30
0
41
1
10
74.5714810040853
20
-0.338968548092453
30
0
41
1
10
74.9471297060518
20
-0.546900312587923
30
0
41
1
10
75.1349005502282
20
-0.650642928638376
30
0
41
1
10
75.5107761145335
20
-0.856878029215778
30
0
41
1
10
75.698884267632
20
-0.959365699058452
30
0
41
1
10
76.0751068188221
20
-1.16369212574244
30
0
41
1
10
76.2631982417774
20
-1.26557174418863
30
0
41
1
10
76.6394768421668
20
-1.46850900878138
30
0
41
1
10
76.8277283404697
20
-1.56944987643095
30
0
41
1
10
77.2049281260735
20
-1.76942562705256
30
0
41
1
10
77.3939096290183
20
-1.86840246223258
30
0
41
1
10
77.7723276252549
20
-2.06488407330622
30
0
41
1
10
77.9617414003505
20
-2.16242867901701
30
0
41
1
10
78.3410143952247
20
-2.35604779845977
30
0
41
1
10
78.5309383975871
20
-2.45200669620917
30
0
41
1
10
78.8166272190674
20
-2.59400936726073
30
0
41
1
10
78.9119502196163
20
-2.64099204878346
30
0
41
1
10
79.1023193441031
20
-2.73403178249882
30
0
41
1
10
79.1974250580201
20
-2.78013161681378
30
0
41
1
10
79.4824409302182
20
-2.91729297397893
30
0
41
1
10
79.6720354639561
20
-3.00724111699429
30
0
41
1
10
80.0503459760545
20
-3.18422683116063
30
0
41
1
10
80.2391193617333
20
-3.27116515028766
30
0
41
1
10
80.805078868246
20
-3.52615243013793
30
0
41
1
10
81.1821200581729
20
-3.68813038678297
30
0
41
1
10
81.7460871588419
20
-3.9209414979623
30
0
41
1
10
81.9338634643939
20
-3.99675842974426
30
0
41
1
10
82.3095315395734
20
-4.14409973525392
30
0
41
1
10
82.4974633529124
20
-4.21557887904973
30
0
41
1
10
82.8734964181211
20
-4.35422958481567
30
0
41
1
10
83.0615391829619
20
-4.42147476129102
30
0
41
1
10
83.4375110243034
20
-4.55196230568615
30
0
41
1
10
83.6254438949987
20
-4.61519125368037
30
0
41
1
10
84.0017753927779
20
-4.73694766535627
30
0
41
1
10
84.19020389792
20
-4.79544840343573
30
0
41
1
10
84.5676990872836
20
-4.90759805428863
30
0
41
1
10
84.7566944561034
20
-4.96132279226106
30
0
41
1
10
85.1349895672911
20
-5.06419842767093
30
0
41
1
10
85.3242657963759
20
-5.11336152790329
30
0
41
1
10
85.7036325764503
20
-5.20657221688333
30
0
41
1
10
85.8937485896456
20
-5.25060241141415
30
0
41
1
10
86.2750654025767
20
-5.33332880253636
30
0
41
1
10
86.4654216475633
20
-5.37191942915766
30
0
41
1
10
86.8451777668018
20
-5.44372628741854
30
0
41
1
10
87.0345625674797
20
-5.47695764378918
30
0
41
1
10
87.4128584761015
20
-5.5377814530369
30
0
41
1
10
87.6017981029231
20
-5.56536211955012
30
0
41
1
10
87.9795784592481
20
-5.61480919669356
30
0
41
1
10
88.1683518875344
20
-5.63671483098227
30
0
41
1
10
88.7339316452163
20
-5.69415565372142
30
0
41
1
10
89.1098210690582
20
-5.72135932269586
30
0
41
1
10
89.6746599737841
20
-5.74496063025879
30
0
41
1
10
89.8630465490255
20
-5.74999776994679
30
0
41
1
10
90.1222088924143
20
-5.75304916032272
30
0
41
1
10
90.1930156406768
20
-5.75348312071625
30
0
41
1
10
90.2638197548492
20
-5.75351533228448
30
0
0
SPLINE
5
C9
100
AcDbEntity
8
1
62
256
6
ByLayer
370
18
48
1
60
0
100
AcDbSpline
70
4
71
3
72
167
73
163
40
0
40
0
40
0
40
0
40
0.0312499999999985
40
0.0312499999999985
40
0.0624999999999969
40
0.0624999999999969
40
0.0937499999999954
40
0.0937499999999954
40
0.124999999999994
40
0.124999999999994
40
0.132812499999994
40
0.132812499999994
40
0.140624999999995
40
0.156249999999998
40
0.156249999999998
40
0.187500000000003
40
0.187500000000003
40
0.218750000000009
40
0.218750000000009
40
0.250000000000015
40
0.250000000000015
40
0.265625000000018
40
0.265625000000018
40
0.28125000000002
40
0.28125000000002
40
0.289062500000022
40
0.289062500000022
40
0.296875000000023
40
0.296875000000023
40
0.312500000000025
40
0.312500000000025
40
0.320312500000026
40
0.320312500000026
40
0.328125000000026
40
0.328125000000026
40
0.335937500000027
40
0.335937500000027
40
0.339843750000027
40
0.339843750000027
40
0.343750000000028
40
0.343750000000028
40
0.347656250000028
40
0.347656250000028
40
0.351562500000028
40
0.351562500000028
40
0.359375000000029
40
0.359375000000029
40
0.36718750000003
40
0.36718750000003
40
0.37500000000003
40
0.37500000000003
40
0.390625000000032
40
0.390625000000032
40
0.406250000000033
40
0.406250000000033
40
0.421875000000035
40
0.421875000000035
40
0.437500000000036
40
0.437500000000036
40
0.445312500000037
40
0.445312500000037
40
0.453125000000037
40
0.453125000000037
40
0.468750000000038
40
0.468750000000038
40
0.484375000000038
40
0.484375000000038
40
0.500000000000039
40
0.500000000000039
40
0.51562500000004
40
0.51562500000004
40
0.53125000000004
40
0.53125000000004
40
0.546875000000041
40
0.546875000000041
40
0.554687500000041
40
0.554687500000041
40
0.562500000000042
40
0.562500000000042
40
0.578125000000043
40
0.578125000000043
40
0.593750000000045
40
0.593750000000045
40
0.601562500000045
40
0.601562500000045
40
0.605468750000045
40
0.605468750000045
40
0.609375000000045
40
0.609375000000045
40
0.617187500000044
40
0.617187500000044
40
0.621093750000043
40
0.621093750000043
40
0.625000000000043
40
0.625000000000043
40
0.628906250000042
40
0.628906250000042
40
0.632812500000041
40
0.632812500000041
40
0.634765625000041
40
0.634765625000041
40
0.636718750000041
40
0.636718750000041
40
0.64062500000004
40
0.64062500000004
40
0.64453125000004
40
0.64453125000004
40
0.648437500000039
40
0.648437500000039
40
0.652343750000038
40
0.652343750000038
40
0.656250000000038
40
0.656250000000038
40
0.671875000000035
40
0.671875000000035
40
0.675781250000034
40
0.675781250000034
40
0.679687500000034
40
0.679687500000034
40
0.687500000000032
40
0.687500000000032
40
0.70312500000003
40
0.70312500000003
40
0.707031250000029
40
0.707031250000029
40
0.710937500000028
40
0.718750000000027
40
0.718750000000027
40
0.734375000000023
40
0.734375000000023
40
0.75000000000002
40
0.75000000000002
40
0.753906250000019
40
0.753906250000019
40
0.757812500000018
40
0.765625000000018
40
0.765625000000018
40
0.781250000000016
40
0.781250000000016
40
0.796875000000015
40
0.796875000000015
40
0.812500000000013
40
0.812500000000013
40
0.820312500000013
40
0.820312500000013
40
0.828125000000012
40
0.828125000000012
40
0.843750000000011
40
0.843750000000011
40
0.875000000000009
40
0.875000000000009
40
0.906250000000006
40
0.906250000000006
40
0.937500000000004
40
0.937500000000004
40
0.953125000000003
40
0.953125000000003
40
0.960937500000002
40
0.960937500000002
40
0.968750000000002
40
0.968750000000002
40
1
40
1
40
1
40
1
41
1
10
20.3595415086764
20
-5.15498285807746
30
0
41
1
10
20.0768086514948
20
-5.08188125111531
30
0
41
1
10
19.7944261151193
20
-5.00246866451747
30
0
41
1
10
19.2298160635837
20
-4.83173176112967
30
0
41
1
10
18.9475902339235
20
-4.74039762661261
30
0
41
1
10
18.3823613350832
20
-4.54694116328909
30
0
41
1
10
18.0993532075676
20
-4.44481662835477
30
0
41
1
10
17.5312695408937
20
-4.23154579456627
30
0
41
1
10
17.246191592611
20
-4.12039768264316
30
0
41
1
10
16.887635756655
20
-3.97732090528669
30
0
41
1
10
16.8158043495504
20
-3.94849644720441
30
0
41
1
10
16.6721195425509
20
-3.89057467669889
30
0
41
1
10
16.4564778960941
20
-3.80325066831335
30
0
41
1
10
16.2403862457346
20
-3.7148414179502
30
0
41
1
10
15.8073087126515
20
-3.53726426442583
30
0
41
1
10
15.5173854322199
20
-3.41788235899978
30
0
41
1
10
14.9337607453025
20
-3.18068868698978
30
0
41
1
10
14.6400720775981
20
-3.06285173702528
30
0
41
1
10
14.0474461556154
20
-2.83280416095974
30
0
41
1
10
13.7485115050949
20
-2.72059748148229
30
0
41
1
10
13.2955125779048
20
-2.55883668636503
30
0
41
1
10
13.1437421180959
20
-2.50601782513536
30
0
41
1
10
12.8384687412144
20
-2.40314963496002
30
0
41
1
10
12.6849502355796
20
-2.3531337829653
30
0
41
1
10
12.4533059301743
20
-2.28046083892954
30
0
41
1
10
12.375865374341
20
-2.25662442080241
30
0
41
1
10
12.2206473576565
20
-2.20950060395032
30
0
41
1
10
12.1428673012604
20
-2.18621922746922
30
0
41
1
10
11.9094605350998
20
-2.11626832317711
30
0
41
1
10
11.7537547706321
20
-2.06953768613843
30
0
41
1
10
11.5230414820321
20
-1.9926399074144
30
0
41
1
10
11.4466301412719
20
-1.96582790631445
30
0
41
1
10
11.2951358509024
20
-1.90902779951404
30
0
41
1
10
11.2200803661052
20
-1.87897640755614
30
0
41
1
10
11.0708721990566
20
-1.81656629065384
30
0
41
1
10
10.9966851202567
20
-1.78428041460577
30
0
41
1
10
10.8849251127124
20
-1.7366981514883
30
0
41
1
10
10.8475877863002
20
-1.72098875068443
30
0
41
1
10
10.7725985502776
20
-1.69021053825514
30
0
41
1
10
10.7349462128084
20
-1.67514286936614
30
0
41
1
10
10.6592739421607
20
-1.64577855749835
30
0
41
1
10
10.6212236755523
20
-1.63146783314821
30
0
41
1
10
10.5449536006738
20
-1.60363975800146
30
0
41
1
10
10.5067430183663
20
-1.59012125483838
30
0
41
1
10
10.3919228072687
20
-1.55055192124632
30
0
41
1
10
10.3151349209187
20
-1.52543223009309
30
0
41
1
10
10.1611921330113
20
-1.47711112777466
30
0
41
1
10
10.0840304294687
20
-1.45394617406353
30
0
41
1
10
9.9292699383293
20
-1.40993517852814
30
0
41
1
10
9.85166476259016
20
-1.38912409825406
30
0
41
1
10
9.61815542686207
20
-1.33040846065396
30
0
41
1
10
9.4615839436062
20
-1.29607947588951
30
0
41
1
10
9.1470510521504
20
-1.23493793118328
30
0
41
1
10
8.98906566367779
20
-1.20825516125768
30
0
41
1
10
8.67163083411111
20
-1.162891766825
30
0
41
1
10
8.51218549074696
20
-1.14418895678833
30
0
41
1
10
8.19201351405877
20
-1.11383291447265
30
0
41
1
10
8.03129089389216
20
-1.10215711797426
30
0
41
1
10
7.78930681794316
20
-1.08961694976603
30
0
41
1
10
7.70849467346707
20
-1.08626986581288
30
0
41
1
10
7.54657701699747
20
-1.08119836713425
30
0
41
1
10
7.4654103667483
20
-1.079472498781
30
0
41
1
10
7.22191869511971
20
-1.07665242543138
30
0
41
1
10
7.0599678678698
20
-1.07789936640685
30
0
41
1
10
6.73677082155416
20
-1.08623571331182
30
0
41
1
10
6.57552283486947
20
-1.09331047983332
30
0
41
1
10
6.25375173735966
20
-1.11345513592991
30
0
41
1
10
6.09323335090596
20
-1.12656442468526
30
0
41
1
10
5.77302364362734
20
-1.15959340261094
30
0
41
1
10
5.61333595797421
20
-1.17954291178339
30
0
41
1
10
5.29476696222136
20
-1.22603132678242
30
0
41
1
10
5.13587492548106
20
-1.2524818675862
30
0
41
1
10
4.81889817763857
20
-1.31191599602019
30
0
41
1
10
4.66081847934657
20
-1.34494172994195
30
0
41
1
10
4.42442943804249
20
-1.40033946981794
30
0
41
1
10
4.34575514928983
20
-1.41978412902117
30
0
41
1
10
4.18867569081502
20
-1.46082011843998
30
0
41
1
10
4.11044817313697
20
-1.48236685270067
30
0
41
1
10
3.87731687187096
20
-1.55021552864659
30
0
41
1
10
3.72372728235697
20
-1.59971344678962
30
0
41
1
10
3.42126568704353
20
-1.70952665640243
30
0
41
1
10
3.27239487693498
20
-1.76985087202212
30
0
41
1
10
3.05411376595251
20
-1.87168427009982
30
0
41
1
10
2.9821923732764
20
-1.90752165803366
30
0
41
1
10
2.87589404183066
20
-1.96482267306496
30
0
41
1
10
2.840697927192
20
-1.9845389768636
30
0
41
1
10
2.77138500597312
20
-2.02505913568993
30
0
41
1
10
2.73721680939437
20
-2.04589074379018
30
0
41
1
10
2.63634178590692
20
-2.11028071602448
30
0
41
1
10
2.5712573180742
20
-2.15572721396831
30
0
41
1
10
2.47747286782942
20
-2.22828232474353
30
0
41
1
10
2.44685063945525
20
-2.2531965416988
30
0
41
1
10
2.38713113159341
20
-2.30475907813181
30
0
41
1
10
2.35825708863649
20
-2.33122852175492
30
0
41
1
10
2.30301142265176
20
-2.38573402844759
30
0
41
1
10
2.27663509431125
20
-2.41379314825667
30
0
41
1
10
2.22671006866514
20
-2.47172243582466
30
0
41
1
10
2.20314644142334
20
-2.5015816688298
30
0
41
1
10
2.16999461887099
20
-2.54774268460756
30
0
41
1
10
2.15930939464113
20
-2.56335820238129
30
0
41
1
10
2.13873801282074
20
-2.59508782629703
30
0
41
1
10
2.12887710337043
20
-2.6111669857041
30
0
41
1
10
2.10106898540835
20
-2.65965565947894
30
0
41
1
10
2.08483440169061
20
-2.69250218966511
30
0
41
1
10
2.05823341035835
20
-2.75956109801714
30
0
41
1
10
2.04794116695385
20
-2.79379379732131
30
0
41
1
10
2.03174622290831
20
-2.8631371824026
30
0
41
1
10
2.02567474218046
20
-2.89832965446303
30
0
41
1
10
2.01586483304973
20
-2.96798599876888
30
0
41
1
10
2.01211134394506
20
-3.00255847223241
30
0
41
1
10
2.00610677653529
20
-3.07120035059142
30
0
41
1
10
2.00387687955938
20
-3.10526958925649
30
0
41
1
10
1.99629546481466
20
-3.27436357105557
30
0
41
1
10
2.00191531668591
20
-3.40563628225152
30
0
41
1
10
2.02402807374207
20
-3.56472124867983
30
0
41
1
10
2.02920229992475
20
-3.59628755467094
30
0
41
1
10
2.04105862030681
20
-3.65891711884686
30
0
41
1
10
2.04770387920686
20
-3.68978580997037
30
0
41
1
10
2.06971050773734
20
-3.78106810912837
30
0
41
1
10
2.0871431573637
20
-3.84017297631425
30
0
41
1
10
2.14719831109002
20
-4.01255561238588
30
0
41
1
10
2.19754243262514
20
-4.12091762731816
30
0
41
1
10
2.27212906669283
20
-4.24895255008377
30
0
41
1
10
2.28765360309339
20
-4.27421779154667
30
0
41
1
10
2.31963369257207
20
-4.32369617701301
30
0
41
1
10
2.36905911730798
20
-4.39644475066356
30
0
41
1
10
2.42263914232336
20
-4.46500542693133
30
0
41
1
10
2.53485866280454
20
-4.59703399005858
30
0
41
1
10
2.61640108887846
20
-4.67828254703753
30
0
41
1
10
2.79090571962553
20
-4.82924756670604
30
0
41
1
10
2.88387236045548
20
-4.89895705995852
30
0
41
1
10
3.00626225630424
20
-4.97977653394614
30
0
41
1
10
3.03102976179304
20
-4.99560866763494
30
0
41
1
10
3.08094502860539
20
-5.02652869340051
30
0
41
1
10
3.15646372146142
20
-5.07184156957535
30
0
41
1
10
3.233820201382
20
-5.11410447149993
30
0
41
1
10
3.39077153328259
20
-5.19489857916906
30
0
41
1
10
3.49837605484936
20
-5.24380033443623
30
0
41
1
10
3.71880090437878
20
-5.33300646924138
30
0
41
1
10
3.83162875682638
20
-5.37330303601996
30
0
41
1
10
4.06214486373264
20
-5.44623166145695
30
0
41
1
10
4.17983877018531
20
-5.47885955121396
30
0
41
1
10
4.35987046036286
20
-5.52260962086714
30
0
41
1
10
4.42046346746508
20
-5.53632654172506
30
0
41
1
10
4.5427905931987
20
-5.56211011198391
30
0
41
1
10
4.60457082129599
20
-5.5741849739955
30
0
41
1
10
4.79128007607298
20
-5.60799450368063
30
0
41
1
10
4.91704243084965
20
-5.62722902989142
30
0
41
1
10
5.29788876176067
20
-5.67626155748076
30
0
41
1
10
5.55651247922907
20
-5.69745399063493
30
0
41
1
10
6.08161770086571
20
-5.72164318062369
30
0
41
1
10
6.34809942660965
20
-5.72460862614798
30
0
41
1
10
6.88787539240886
20
-5.71541339542785
30
0
41
1
10
7.16117875769532
20
-5.70323710365338
30
0
41
1
10
7.57571351443039
20
-5.67523544422431
30
0
41
1
10
7.7146566277298
20
-5.6642726311747
30
0
41
1
10
7.92416414983785
20
-5.6455430215467
30
0
41
1
10
7.99418222616706
20
-5.63891864764139
30
0
41
1
10
8.13457492967837
20
-5.62493093513282
30
0
41
1
10
8.20496304018786
20
-5.61756593497353
30
0
41
1
10
8.55736277766692
20
-5.57899485037854
30
0
41
1
10
8.84104470562195
20
-5.54253961411143
30
0
41
1
10
9.12635935872629
20
-5.50115614785892
30
0
0
SPLINE
5
CA
100
AcDbEntity
8
1
62
256
6
ByLayer
370
18
48
1
60
0
100
AcDbSpline
70
4
71
3
72
19
73
15
40
0
40
0
40
0
40
0
40
0.0115684436285183
40
0.0409835412132086
40
0.0703986387978989
40
0.0998137363825896
40
0.15864393155197
40
0.276304321890732
40
0.393964712229494
40
0.629285492907017
40
0.86460627358454
40
0.923436468753921
40
0.982266663923302
40
1
40
1
40
1
40
1
41
1
10
11.8076587939197
20
-2.07244883441757
30
0
41
1
10
11.7963429603646
20
-2.08473305635476
30
0
41
1
10
11.7567185447746
20
-2.12872495528285
30
0
41
1
10
11.6915304860531
20
-2.20714253045838
30
0
41
1
10
11.6120047697736
20
-2.30753723239437
30
0
41
1
10
11.5067522519689
20
-2.442059914829
30
0
41
1
10
11.3228028976163
20
-2.6774704839867
30
0
41
1
10
11.0608935377055
20
-3.01459213466362
30
0
41
1
10
10.643712637996
20
-3.55569095151574
30
0
41
1
10
10.1254022088725
20
-4.2344949327682
30
0
41
1
10
9.65923516543094
20
-4.84618517380099
30
0
41
1
10
9.33770714574763
20
-5.24412784491759
30
0
41
1
10
9.21313188844888
20
-5.3956168361976
30
0
41
1
10
9.14269032523379
20
-5.48131234548489
30
0
41
1
10
9.12637544209349
20
-5.50116286429954
30
0
0
SPLINE
5
CB
100
AcDbEntity
8
1
62
256
6
ByLayer
370
18
48
1
60
0
100
AcDbSpline
70
4
71
3
72
18
73
14
40
0
40
0
40
0
40
0
40
0.003861493024024
40
0.0304132501259427
40
0.0851799212500043
40
0.158346386275566
40
0.226824592390279
40
0.342500738169848
40
0.432548296105085
40
0.535047777282273
40
0.668620028469383
40
0.8339274098114
40
1
40
1
40
1
40
1
41
1
10
88.3085803852421
20
0.167295619377654
30
0
41
1
10
88.3086511649622
20
0.167854423066643
30
0
41
1
10
88.3059833048607
20
0.173133064188619
30
0
41
1
10
88.2493806969748
20
0.200651420499867
30
0
41
1
10
88.091250626417
20
0.259003949402825
30
0
41
1
10
87.8609297113758
20
0.339457215676674
30
0
41
1
10
87.5515766715598
20
0.449109392265569
30
0
41
1
10
87.2013336507363
20
0.57561422375403
30
0
41
1
10
86.7406119048791
20
0.752594164468661
30
0
41
1
10
86.226694783595
20
0.964191471304872
30
0
41
1
10
85.596737704935
20
1.24436105910073
30
0
41
1
10
84.8595058816044
20
1.5937455442517
30
0
41
1
10
84.3316648137675
20
1.85931020436033
30
0
41
1
10
84.0662370089921
20
1.99681346597595
30
0
0
SPLINE
5
CC
100
AcDbEntity
8
1
62
256
6
ByLayer
370
18
48
1
60
0
100
AcDbSpline
70
4
71
3
72
18
73
14
40
0
40
0
40
0
40
0
40
0.0029483834389233
40
0.0549586403319939
40
0.11103581981664
40
0.177745764781072
40
0.262672492681703
40
0.349064368972185
40
0.436941359801301
40
0.534504433486318
40
0.667558793790995
40
0.839121257703567
40
1
40
1
40
1
40
1
41
1
10
23.1336905664741
20
0.176724611826188
30
0
41
1
10
23.1337666533305
20
0.177052514942204
30
0
41
1
10
23.1340415472501
20
0.183331351834738
30
0
41
1
10
23.0930406745069
20
0.201869663893291
30
0
41
1
10
22.9136429630727
20
0.257070802654454
30
0
41
1
10
22.6186898735083
20
0.350536518001434
30
0
41
1
10
22.2657865379411
20
0.470405045417692
30
0
41
1
10
21.8891278621613
20
0.607336455175556
30
0
41
1
10
21.4963176324063
20
0.759388097621923
30
0
41
1
10
21.0329105548817
20
0.950089051386698
30
0
41
1
10
20.4179099807026
20
1.22207918322121
30
0
41
1
10
19.6966703924572
20
1.56140405280763
30
0
41
1
10
19.1767002631823
20
1.82282724370123
30
0
41
1
10
18.9237305560819
20
1.95380999119283
30
0
0
SPLINE
5
CD
100
AcDbEntity
8
1
62
256
6
ByLayer
370
18
48
1
60
0
100
AcDbSpline
70
4
71
3
72
13
73
9
40
0
40
0
40
0
40
0
40
0.0740761028589864
40
0.164078209703349
40
0.272354936124949
40
0.567999565452139
40
0.989537781432047
40
1
40
1
40
1
40
1
41
1
10
41.4962688349302
20
-0.258085734699819
30
0
41
1
10
41.4958113387346
20
-0.259980698890843
30
0
41
1
10
41.5027695797306
20
-0.26647741083957
30
0
41
1
10
41.5401275975877
20
-0.282605879108729
30
0
41
1
10
41.6383089954026
20
-0.314913957344885
30
0
41
1
10
41.8428480859741
20
-0.368124220463898
30
0
41
1
10
42.0308289271714
20
-0.413640499909547
30
0
41
1
10
42.1431817475662
20
-0.441052524329052
30
0
41
1
10
42.1459031207147
20
-0.441716601853784
30
0
0
SPLINE
5
CE
100
AcDbEntity
8
1
62
256
6
ByLayer
370
18
48
1
60
0
100
AcDbSpline
70
4
71
3
72
18
73
14
40
0
40
0
40
0
40
0
40
0.0025297359592681
40
0.0226765587557665
40
0.0736178724910733
40
0.134497246438692
40
0.302549773935589
40
0.415590247607303
40
0.517773271638649
40
0.609184198260614
40
0.716679370757981
40
0.859792381543749
40
1
40
1
40
1
40
1
41
1
10
56.0704058373898
20
0.0839208007867285
30
0
41
1
10
56.0704186369908
20
0.0841604052664309
30
0
41
1
10
56.0677618714336
20
0.0869874049093937
30
0
41
1
10
56.0063343706741
20
0.108697884672296
30
0
41
1
10
55.8506610107541
20
0.156543078078243
30
0
41
1
10
55.4948470948905
20
0.265396238452098
30
0
41
1
10
54.9861005042161
20
0.429439665826379
30
0
41
1
10
54.3737273077657
20
0.655191901836957
30
0
41
1
10
53.8857916031633
20
0.850590177930712
30
0
41
1
10
53.4004252275891
20
1.05828199956002
30
0
41
1
10
52.8397371269091
20
1.31216369260491
30
0
41
1
10
52.192455539947
20
1.6193024688186
30
0
41
1
10
51.7211132444965
20
1.85744147130688
30
0
41
1
10
51.4870730534516
20
1.97895614058402
30
0
0
LINE
5
7D
100
AcDbEntity
8
4
62
256
6
ByLayer
370
18
48
0.05
60
0
100
AcDbLine
10
-5
20
0
30
0
11
101
21
0
31
0
39
0
210
0
220
0
230
1
0
LINE
5
7F
100
AcDbEntity
8
81
62
256
6
ByLayer
370
18
48
1
60
0
100
AcDbLine
10
96
20
0
30
0
11
101
21
0
31
0
39
0
210
0
220
0
230
1
0
LINE
5
80
100
AcDbEntity
8
SK4
62
256
6
ByLayer
370
18
48
0.05
60
0
100
AcDbLine
10
-51
20
0
30
0
11
101
21
0
31
0
39
0
210
0
220
0
230
1
0
LINE
5
82
100
AcDbEntity
8
80
62
256
6
ByLayer
370
18
48
1
60
0
100
AcDbLine
10
0
20
0
30
0
11
-5
21
0
31
0
39
0
210
0
220
0
230
1
0
LINE
5
83
100
AcDbEntity
8
1
62
256
6
ByLayer
370
18
48
1
60
0
100
AcDbLine
10
0
20
5.7545
30
0
11
0
21
-5.7545
31
0
39
0
210
0
220
0
230
1
0
LINE
5
84
100
AcDbEntity
8
1
62
256
6
ByLayer
370
18
48
1
60
0
100
AcDbLine
10
92.888113
20
-5.7545
30
0
11
92.888113
21
-2.73809
31
0
39
0
210
0
220
0
230
1
0
LINE
5
85
100
AcDbEntity
8
1
62
256
6
ByLayer
370
18
48
1
60
0
100
AcDbLine
10
92.888113
20
5.7545
30
0
11
92.888113
21
5.571597
31
0
39
0
210
0
220
0
230
1
0
LINE
5
86
100
AcDbEntity
8
1
62
256
6
ByLayer
370
18
48
1
60
0
100
AcDbLine
10
0.4
20
-5.719817
30
0
11
0.4
21
5.719817
31
0
39
0
210
0
220
0
230
1
0
LINE
5
87
100
AcDbEntity
8
SK1
62
256
6
ByLayer
370
18
48
1
60
0
100
AcDbLine
10
0
20
5.7545
30
0
11
0
21
-5.7545
31
0
39
0
210
0
220
0
230
1
0
LINE
5
89
100
AcDbEntity
8
SK1
62
256
6
ByLayer
370
18
48
1
60
0
100
AcDbLine
10
-46
20
-4.755
30
0
11
-46
21
4.755
31
0
39
0
210
0
220
0
230
1
0
LINE
5
8A
100
AcDbEntity
8
SK1
62
256
6
ByLayer
370
18
48
1
60
0
100
AcDbLine
10
-45.0005
20
-5.7545
30
0
11
-45.0005
21
5.7545
31
0
39
0
210
0
220
0
230
1
0
LINE
5
8B
100
AcDbEntity
8
1
62
256
6
ByLayer
370
18
48
1
60
0
100
AcDbLine
10
96
20
0
30
0
11
92.888113
21
5.7545
31
0
39
0
210
0
220
0
230
1
0
LINE
5
8C
100
AcDbEntity
8
1
62
256
6
ByLayer
370
18
48
1
60
0
100
AcDbLine
10
92.888113
20
-5.7545
30
0
11
96
21
0
31
0
39
0
210
0
220
0
230
1
0
LINE
5
8D
100
AcDbEntity
8
1
62
256
6
ByLayer
370
18
48
1
60
0
100
AcDbLine
10
0.4
20
5.719817
30
0
11
0
21
5.7545
31
0
39
0
210
0
220
0
230
1
0
LINE
5
8E
100
AcDbEntity
8
1
62
256
6
ByLayer
370
18
48
1
60
0
100
AcDbLine
10
0
20
-5.7545
30
0
11
0.4
21
-5.719817
31
0
39
0
210
0
220
0
230
1
0
LINE
5
8F
100
AcDbEntity
8
1
62
256
6
ByLayer
370
18
48
1
60
0
100
AcDbLine
10
0.4
20
-5.719817
30
0
11
6.377487
21
-5.722059
31
0
39
0
210
0
220
0
230
1
0
LINE
5
90
100
AcDbEntity
8
1
62
256
6
ByLayer
370
18
48
1
60
0
100
AcDbLine
10
25.039366
20
-5.729057
30
0
11
38.832134
21
-5.734229
31
0
39
0
210
0
220
0
230
1
0
LINE
5
91
100
AcDbEntity
8
1
62
256
6
ByLayer
370
18
48
1
60
0
100
AcDbLine
10
57.652671
20
-5.741287
30
0
11
71.437013
21
-5.746456
31
0
39
0
210
0
220
0
230
1
0
LINE
5
92
100
AcDbEntity
8
1
62
256
6
ByLayer
370
18
48
1
60
0
100
AcDbLine
10
90.26373
20
-5.753516
30
0
11
92.888113
21
-5.7545
31
0
39
0
210
0
220
0
230
1
0
LINE
5
93
100
AcDbEntity
8
1
62
256
6
ByLayer
370
18
48
1
60
0
100
AcDbLine
10
92.888113
20
5.7545
30
0
11
90.26373
21
5.753516
31
0
39
0
210
0
220
0
230
1
0
LINE
5
94
100
AcDbEntity
8
1
62
256
6
ByLayer
370
18
48
1
60
0
100
AcDbLine
10
71.437013
20
5.746456
30
0
11
57.652671
21
5.741287
31
0
39
0
210
0
220
0
230
1
0
LINE
5
95
100
AcDbEntity
8
1
62
256
6
ByLayer
370
18
48
1
60
0
100
AcDbLine
10
38.832134
20
5.734229
30
0
11
25.039366
21
5.729057
31
0
39
0
210
0
220
0
230
1
0
LINE
5
96
100
AcDbEntity
8
1
62
256
6
ByLayer
370
18
48
1
60
0
100
AcDbLine
10
6.377487
20
5.722059
30
0
11
0.4
21
5.719817
31
0
39
0
210
0
220
0
230
1
0
LINE
5
97
100
AcDbEntity
8
SK1
62
256
6
ByLayer
370
18
48
1
60
0
100
AcDbLine
10
-45.0005
20
-5.7545
30
0
11
0
21
-5.7545
31
0
39
0
210
0
220
0
230
1
0
LINE
5
98
100
AcDbEntity
8
SK1
62
256
6
ByLayer
370
18
48
1
60
0
100
AcDbLine
10
0
20
5.7545
30
0
11
-45.0005
21
5.7545
31
0
39
0
210
0
220
0
230
1
0
LINE
5
99
100
AcDbEntity
8
SK1
62
256
6
ByLayer
370
18
48
1
60
0
100
AcDbLine
10
-46
20
-4.755
30
0
11
-45.0005
21
-5.7545
31
0
39
0
210
0
220
0
230
1
0
LINE
5
9A
100
AcDbEntity
8
SK1
62
256
6
ByLayer
370
18
48
1
60
0
100
AcDbLine
10
-45.0005
20
5.7545
30
0
11
-46
21
4.755
31
0
39
0
210
0
220
0
230
1
0
LINE
5
9B
100
AcDbEntity
8
SK2
62
256
6
ByLayer
370
13
48
1
60
0
100
AcDbLine
10
-52.5
20
-5.7545
30
0
11
-52.5
21
33.279298
31
0
39
0
210
0
220
0
230
1
0
LINE
5
9D
100
AcDbEntity
8
SK2
62
256
6
ByLayer
370
13
48
1
60
0
100
AcDbLine
10
-47.5875
20
5.7545
30
0
11
-54.5
21
5.7545
31
0
39
0
210
0
220
0
230
1
0
LINE
5
9E
100
AcDbEntity
8
SK2
62
256
6
ByLayer
370
13
48
1
60
0
100
AcDbLine
10
-47.5875
20
-5.7545
30
0
11
-54.5
21
-5.7545
31
0
39
0
210
0
220
0
230
1
0
LINE
5
9F
100
AcDbEntity
8
1
62
256
6
ByLayer
370
18
48
1
60
1
100
AcDbLine
10
-52.5
20
5.7545
30
0
11
-52.039216
21
2.254502
31
0
39
0
210
0
220
0
230
1
0
LINE
5
A0
100
AcDbEntity
8
1
62
256
6
ByLayer
370
18
48
1
60
1
100
AcDbLine
10
-52.039216
20
2.254502
30
0
11
-52.960784
21
2.254498
31
0
39
0
210
0
220
0
230
1
0
LINE
5
A1
100
AcDbEntity
8
1
62
256
6
ByLayer
370
18
48
1
60
1
100
AcDbLine
10
-52.960784
20
2.254498
30
0
11
-52.5
21
5.7545
31
0
39
0
210
0
220
0
230
1
0
LINE
5
A2
100
AcDbEntity
8
1
62
256
6
ByLayer
370
18
48
1
60
1
100
AcDbLine
10
-52.5
20
-5.7545
30
0
11
-52.960784
21
-2.254502
31
0
39
0
210
0
220
0
230
1
0
LINE
5
A3
100
AcDbEntity
8
1
62
256
6
ByLayer
370
18
48
1
60
1
100
AcDbLine
10
-52.960784
20
-2.254502
30
0
11
-52.039216
21
-2.254498
31
0
39
0
210
0
220
0
230
1
0
LINE
5
A4
100
AcDbEntity
8
1
62
256
6
ByLayer
370
18
48
1
60
1
100
AcDbLine
10
-52.039216
20
-2.254498
30
0
11
-52.5
21
-5.7545
31
0
39
0
210
0
220
0
230
1
0
LINE
5
A5
100
AcDbEntity
8
2
62
256
6
ByLayer
370
13
48
1
60
0
100
AcDbLine
10
102.388113
20
-5.7545
30
0
11
102.388113
21
33.279298
31
0
39
0
210
0
220
0
230
1
0
LINE
5
A7
100
AcDbEntity
8
2
62
256
6
ByLayer
370
13
48
1
60
0
100
AcDbLine
10
94.475613
20
5.7545
30
0
11
104.388113
21
5.7545
31
0
39
0
210
0
220
0
230
1
0
LINE
5
A8
100
AcDbEntity
8
2
62
256
6
ByLayer
370
13
48
1
60
0
100
AcDbLine
10
94.475613
20
-5.7545
30
0
11
104.388113
21
-5.7545
31
0
39
0
210
0
220
0
230
1
0
LINE
5
A9
100
AcDbEntity
8
1
62
256
6
ByLayer
370
18
48
1
60
1
100
AcDbLine
10
102.388113
20
5.7545
30
0
11
102.848897
21
2.254502
31
0
39
0
210
0
220
0
230
1
0
LINE
5
AA
100
AcDbEntity
8
1
62
256
6
ByLayer
370
18
48
1
60
1
100
AcDbLine
10
102.848897
20
2.254502
30
0
11
101.927329
21
2.254498
31
0
39
0
210
0
220
0
230
1
0
LINE
5
AB
100
AcDbEntity
8
1
62
256
6
ByLayer
370
18
48
1
60
1
100
AcDbLine
10
101.927329
20
2.254498
30
0
11
102.388113
21
5.7545
31
0
39
0
210
0
220
0
230
1
0
LINE
5
AC
100
AcDbEntity
8
1
62
256
6
ByLayer
370
18
48
1
60
1
100
AcDbLine
10
102.388113
20
-5.7545
30
0
11
101.927329
21
-2.254502
31
0
39
0
210
0
220
0
230
1
0
LINE
5
AD
100
AcDbEntity
8
1
62
256
6
ByLayer
370
18
48
1
60
1
100
AcDbLine
10
101.927329
20
-2.254502
30
0
11
102.848897
21
-2.254498
31
0
39
0
210
0
220
0
230
1
0
LINE
5
AE
100
AcDbEntity
8
1
62
256
6
ByLayer
370
18
48
1
60
1
100
AcDbLine
10
102.848897
20
-2.254498
30
0
11
102.388113
21
-5.7545
31
0
39
0
210
0
220
0
230
1
0
LINE
5
AF
100
AcDbEntity
8
2
62
256
6
ByLayer
370
13
48
1
60
0
100
AcDbLine
10
96.755136
20
-1.396397
30
0
11
107.416232
21
-21.110889
31
0
39
0
210
0
220
0
230
1
0
LINE
5
B0
100
AcDbEntity
8
2
62
256
6
ByLayer
370
13
48
1
60
0
100
AcDbLine
10
96.755136
20
1.396397
30
0
11
107.416232
21
21.110889
31
0
39
0
210
0
220
0
230
1
0
LINE
5
B1
100
AcDbEntity
8
1
62
256
6
ByLayer
370
18
48
1
60
1
100
AcDbLine
10
106.464879
20
-19.351649
30
0
11
109.239971
21
-17.169637
31
0
39
0
210
0
220
0
230
1
0
LINE
5
B2
100
AcDbEntity
8
1
62
256
6
ByLayer
370
18
48
1
60
1
100
AcDbLine
10
109.239971
20
-17.169637
30
0
11
109.710161
21
-17.962233
31
0
39
0
210
0
220
0
230
1
0
LINE
5
B3
100
AcDbEntity
8
1
62
256
6
ByLayer
370
18
48
1
60
1
100
AcDbLine
10
109.710161
20
-17.962233
30
0
11
106.464879
21
-19.351649
31
0
39
0
210
0
220
0
230
1
0
LINE
5
B4
100
AcDbEntity
8
1
62
256
6
ByLayer
370
18
48
1
60
1
100
AcDbLine
10
106.464879
20
19.351649
30
0
11
109.710158
21
17.962234
31
0
39
0
210
0
220
0
230
1
0
LINE
5
B5
100
AcDbEntity
8
1
62
256
6
ByLayer
370
18
48
1
60
1
100
AcDbLine
10
109.710158
20
17.962234
30
0
11
109.239974
21
17.169635
31
0
39
0
210
0
220
0
230
1
0
LINE
5
B6
100
AcDbEntity
8
1
62
256
6
ByLayer
370
18
48
1
60
1
100
AcDbLine
10
109.239974
20
17.169635
30
0
11
106.464879
21
19.351649
31
0
39
0
210
0
220
0
230
1
0
LINE
5
D3
100
AcDbEntity
8
1
62
256
6
ByLayer
370
18
48
1
60
1
100
AcDbLine
10
-52.5
20
5.7545
30
0
11
-52.039216
21
2.254502
31
0
39
0
210
0
220
0
230
1
0
LINE
5
D4
100
AcDbEntity
8
1
62
256
6
ByLayer
370
18
48
1
60
1
100
AcDbLine
10
-52.039216
20
2.254502
30
0
11
-52.960784
21
2.254498
31
0
39
0
210
0
220
0
230
1
0
LINE
5
D5
100
AcDbEntity
8
1
62
256
6
ByLayer
370
18
48
1
60
1
100
AcDbLine
10
-52.960784
20
2.254498
30
0
11
-52.5
21
5.7545
31
0
39
0
210
0
220
0
230
1
0
LINE
5
D7
100
AcDbEntity
8
1
62
256
6
ByLayer
370
18
48
1
60
1
100
AcDbLine
10
-52.5
20
-5.7545
30
0
11
-52.960784
21
-2.254502
31
0
39
0
210
0
220
0
230
1
0
LINE
5
D8
100
AcDbEntity
8
1
62
256
6
ByLayer
370
18
48
1
60
1
100
AcDbLine
10
-52.960784
20
-2.254502
30
0
11
-52.039216
21
-2.254498
31
0
39
0
210
0
220
0
230
1
0
LINE
5
D9
100
AcDbEntity
8
1
62
256
6
ByLayer
370
18
48
1
60
1
100
AcDbLine
10
-52.039216
20
-2.254498
30
0
11
-52.5
21
-5.7545
31
0
39
0
210
0
220
0
230
1
0
LINE
5
DD
100
AcDbEntity
8
1
62
256
6
ByLayer
370
18
48
1
60
1
100
AcDbLine
10
102.388113
20
5.7545
30
0
11
102.848897
21
2.254502
31
0
39
0
210
0
220
0
230
1
0
LINE
5
DE
100
AcDbEntity
8
1
62
256
6
ByLayer
370
18
48
1
60
1
100
AcDbLine
10
102.848897
20
2.254502
30
0
11
101.927329
21
2.254498
31
0
39
0
210
0
220
0
230
1
0
LINE
5
DF
100
AcDbEntity
8
1
62
256
6
ByLayer
370
18
48
1
60
1
100
AcDbLine
10
101.927329
20
2.254498
30
0
11
102.388113
21
5.7545
31
0
39
0
210
0
220
0
230
1
0
LINE
5
E1
100
AcDbEntity
8
1
62
256
6
ByLayer
370
18
48
1
60
1
100
AcDbLine
10
102.388113
20
-5.7545
30
0
11
101.927329
21
-2.254502
31
0
39
0
210
0
220
0
230
1
0
LINE
5
E2
100
AcDbEntity
8
1
62
256
6
ByLayer
370
18
48
1
60
1
100
AcDbLine
10
101.927329
20
-2.254502
30
0
11
102.848897
21
-2.254498
31
0
39
0
210
0
220
0
230
1
0
LINE
5
E3
100
AcDbEntity
8
1
62
256
6
ByLayer
370
18
48
1
60
1
100
AcDbLine
10
102.848897
20
-2.254498
30
0
11
102.388113
21
-5.7545
31
0
39
0
210
0
220
0
230
1
0
LINE
5
E6
100
AcDbEntity
8
1
62
256
6
ByLayer
370
18
48
1
60
1
100
AcDbLine
10
106.464879
20
-19.351649
30
0
11
109.239971
21
-17.169637
31
0
39
0
210
0
220
0
230
1
0
LINE
5
E7
100
AcDbEntity
8
1
62
256
6
ByLayer
370
18
48
1
60
1
100
AcDbLine
10
109.239971
20
-17.169637
30
0
11
109.710161
21
-17.962233
31
0
39
0
210
0
220
0
230
1
0
LINE
5
E8
100
AcDbEntity
8
1
62
256
6
ByLayer
370
18
48
1
60
1
100
AcDbLine
10
109.710161
20
-17.962233
30
0
11
106.464879
21
-19.351649
31
0
39
0
210
0
220
0
230
1
0
LINE
5
EA
100
AcDbEntity
8
1
62
256
6
ByLayer
370
18
48
1
60
1
100
AcDbLine
10
106.464879
20
19.351649
30
0
11
109.710158
21
17.962234
31
0
39
0
210
0
220
0
230
1
0
LINE
5
EB
100
AcDbEntity
8
1
62
256
6
ByLayer
370
18
48
1
60
1
100
AcDbLine
10
109.710158
20
17.962234
30
0
11
109.239974
21
17.169635
31
0
39
0
210
0
220
0
230
1
0
LINE
5
EC
100
AcDbEntity
8
1
62
256
6
ByLayer
370
18
48
1
60
1
100
AcDbLine
10
109.239974
20
17.169635
30
0
11
106.464879
21
19.351649
31
0
39
0
210
0
220
0
230
1
0
MTEXT
5
CF
100
AcDbEntity
8
SK2
62
256
6
ByLayer
370
18
48
1
60
0
100
AcDbMText
10
-53.841114
20
17.412938
30
0
210
0
220
0
230
1
1
%%c
40
3
41
0
44
1.084337
50
90
71
7
72
5
7
iso_b_vert
0
MTEXT
5
D2
100
AcDbEntity
8
SK2
62
256
6
ByLayer
370
18
48
1
60
0
100
AcDbMText
10
-53.841114
20
23.3895
30
0
210
0
220
0
230
1
1
\W0.6593;11.509
40
3
41
0
44
1.084337
50
90
71
7
72
5
7
iso_b_vert
0
MTEXT
5
DB
100
AcDbEntity
8
2
62
256
6
ByLayer
370
18
48
1
60
0
100
AcDbMText
10
101.046998
20
17.412938
30
0
210
0
220
0
230
1
1
%%c
40
3
41
0
44
1.084337
50
90
71
7
72
5
7
iso_b_vert
0
MTEXT
5
DC
100
AcDbEntity
8
2
62
256
6
ByLayer
370
18
48
1
60
0
100
AcDbMText
10
101.046998
20
23.3895
30
0
210
0
220
0
230
1
1
\W0.6593;11.509
40
3
41
0
44
1.084337
50
90
71
7
72
5
7
iso_b_vert
0
MTEXT
5
E5
100
AcDbEntity
8
2
62
256
6
ByLayer
370
18
48
1
60
0
100
AcDbMText
10
115.092229
20
-2.114886
30
0
210
0
220
0
230
1
1
\W0.6008;118%%d
40
3
41
0
44
1.084337
50
0
71
7
72
5
7
iso_b_vert
0
MTEXT
5
EE
100
AcDbEntity
8
SK6
62
256
6
ByLayer
370
18
48
1
60
0
100
AcDbMText
10
16.712705
20
-67.114886
30
0
210
0
220
0
230
1
1
\W0.7958;R00329/64
40
3
41
0
44
1.084337
50
0
71
7
72
5
7
iso_b_vert
0
HATCH
5
D6
100
AcDbEntity
8
SK2
62
256
6
ByLayer
370
13
48
1
60
0
100
AcDbHatch
10
0
20
0
30
0
210
0
220
0
230
1
2
ANSI31
70
0
71
0
91
1
92
5
93
3
72
1
10
-52.5
20
5.75450000000001
11
-52.0392162584472
21
2.25450169255319
72
1
10
-52.0392162584472
20
2.25450169255319
11
-52.9607837415528
21
2.25449830744682
72
1
10
-52.9607837415528
20
2.25449830744682
11
-52.5
21
5.75450000000001
97
0
75
0
76
1
52
0
41
0.0062
77
0
78
1
53
45
43
0
44
0
45
-0.0139193969876572
46
0.0139193969876572
79
0
47
0
98
1
10
0
20
0
0
HATCH
5
DA
100
AcDbEntity
8
SK2
62
256
6
ByLayer
370
13
48
1
60
0
100
AcDbHatch
10
0
20
0
30
0
210
0
220
0
230
1
2
ANSI31
70
0
71
0
91
1
92
5
93
3
72
1
10
-52.5
20
-5.75449999999998
11
-52.9607837415528
21
-2.25450169255316
72
1
10
-52.9607837415528
20
-2.25450169255316
11
-52.0392162584472
21
-2.2544983074468
72
1
10
-52.0392162584472
20
-2.2544983074468
11
-52.5
21
-5.75449999999998
97
0
75
0
76
1
52
0
41
0.0062
77
0
78
1
53
45
43
0
44
0
45
-0.0139193969876572
46
0.0139193969876572
79
0
47
0
98
1
10
0
20
0
0
HATCH
5
E0
100
AcDbEntity
8
2
62
256
6
ByLayer
370
13
48
1
60
0
100
AcDbHatch
10
0
20
0
30
0
210
0
220
0
230
1
2
ANSI31
70
0
71
0
91
1
92
5
93
3
72
1
10
102.388112811025
20
5.75450000000001
11
102.848896552578
21
2.25450169255319
72
1
10
102.848896552578
20
2.25450169255319
11
101.927329069473
21
2.25449830744682
72
1
10
101.927329069473
20
2.25449830744682
11
102.388112811025
21
5.75450000000001
97
0
75
0
76
1
52
0
41
0.0062
77
0
78
1
53
45
43
0
44
0
45
-0.0139193969876572
46
0.0139193969876572
79
0
47
0
98
1
10
0
20
0
0
HATCH
5
E4
100
AcDbEntity
8
2
62
256
6
ByLayer
370
13
48
1
60
0
100
AcDbHatch
10
0
20
0
30
0
210
0
220
0
230
1
2
ANSI31
70
0
71
0
91
1
92
5
93
3
72
1
10
102.388112811025
20
-5.75449999999998
11
101.927329069473
21
-2.25450169255316
72
1
10
101.927329069473
20
-2.25450169255316
11
102.848896552578
21
-2.2544983074468
72
1
10
102.848896552578
20
-2.2544983074468
11
102.388112811025
21
-5.75449999999998
97
0
75
0
76
1
52
0
41
0.0062
77
0
78
1
53
45
43
0
44
0
45
-0.0139193969876572
46
0.0139193969876572
79
0
47
0
98
1
10
0
20
0
0
HATCH
5
E9
100
AcDbEntity
8
2
62
256
6
ByLayer
370
13
48
1
60
0
100
AcDbHatch
10
0
20
0
30
0
210
0
220
0
230
1
2
ANSI31
70
0
71
0
91
1
92
5
93
3
72
1
10
106.464879198752
20
-19.3516485952886
11
109.239971107838
21
-17.1696369764528
72
1
10
109.239971107838
20
-17.1696369764528
11
109.710161392925
21
-17.9622325364574
72
1
10
109.710161392925
20
-17.9622325364574
11
106.464879198752
21
-19.3516485952886
97
0
75
0
76
1
52
0
41
0.0062
77
0
78
1
53
45
43
0
44
0
45
-0.0139193969876572
46
0.0139193969876572
79
0
47
0
98
1
10
0
20
0
0
HATCH
5
ED
100
AcDbEntity
8
2
62
256
6
ByLayer
370
13
48
1
60
0
100
AcDbHatch
10
0
20
0
30
0
210
0
220
0
230
1
2
ANSI31
70
0
71
0
91
1
92
5
93
3
72
1
10
106.464879198752
20
19.3516485952886
11
109.710158481552
21
17.962234263552
72
1
10
109.710158481552
20
17.962234263552
11
109.239974019211
21
17.1696352493582
72
1
10
109.239974019211
20
17.1696352493582
11
106.464879198752
21
19.3516485952886
97
0
75
0
76
1
52
0
41
0.0062
77
0
78
1
53
45
43
0
44
0
45
-0.0139193969876572
46
0.0139193969876572
79
0
47
0
98
1
10
0
20
0
0
DIMENSION
5
F1
100
AcDbEntity
8
SK2
62
256
6
ByLayer
370
18
48
1
60
0
100
AcDbDimension
2
_U0
10
96
20
-47.332638
30
0
11
25
21
-47.332638
31
0
70
32
71
1
72
1
41
1
210
0
220
0
230
1
3
Standard
100
AcDbAlignedDimension
13
-46
23
-5.7545
33
0
14
96
24
0
34
0
50
0
100
AcDbRotatedDimension
1001
ACAD
1000
DSTYLE
1002
{
1070
   371
1070
    13
1070
   372
1070
    13
1070
     3
1000

1070
   170
1070
     0
1070
   144
1040
1.0
1070
   277
1070
     2
1070
   284
1070
     8
1070
   278
1070
    46
1070
   146
1040
1.166667
1070
   345
1005
16
1070
   347
1005
16
1070
   346
1005
16
1070
   344
1005
0
1070
   343
1005
0
1070
   172
1070
     1
1070
    76
1070
     0
1070
    75
1070
     0
1070
   282
1070
     0
1070
   281
1070
     0
1070
    71
1070
     0
1070
    74
1070
     0
1070
   279
1070
     0
1070
   173
1070
     1
1070
   340
1005
D0
1070
   271
1070
     2
1070
   272
1070
     3
1070
    77
1070
     1
1070
    73
1070
     1
1070
   171
1070
     3
1070
   274
1070
     4
1070
   177
1070
     2
1070
   176
1070
     2
1070
   178
1070
     2
1070
    78
1070
     8
1070
    48
1040
-0.1
1070
    41
1040
3.5
1070
   147
1040
1.5
1070
    42
1040
1.5875
1070
    44
1040
2.0
1070
   140
1040
3.0
1002
}
1001
ACAD_DSTYLE_DIM_LINETYPE
1070
   380
1005
16
1001
ACAD_DSTYLE_DIM_EXT1_LINETYPE
1070
   381
1005
16
1001
ACAD_DSTYLE_DIM_EXT2_LINETYPE
1070
   382
1005
16
0
DIMENSION
5
10A
100
AcDbEntity
8
2
62
256
6
ByLayer
370
18
48
1
60
0
100
AcDbDimension
2
_U1
10
2
20
-37.332638
30
0
11
49
21
-37.332638
31
0
70
32
71
1
72
1
41
1
210
0
220
0
230
1
3
Standard
100
AcDbAlignedDimension
13
96
23
0
33
0
14
2
24
-5.7545
34
0
50
0
100
AcDbRotatedDimension
1001
ACAD
1000
DSTYLE
1002
{
1070
   371
1070
    13
1070
   372
1070
    13
1070
     3
1000

1070
   170
1070
     0
1070
   144
1040
1.0
1070
   277
1070
     2
1070
   284
1070
     8
1070
   278
1070
    46
1070
   146
1040
1.166667
1070
   345
1005
16
1070
   347
1005
16
1070
   346
1005
16
1070
   344
1005
0
1070
   343
1005
0
1070
   172
1070
     1
1070
    76
1070
     0
1070
    75
1070
     0
1070
   282
1070
     0
1070
   281
1070
     0
1070
    71
1070
     0
1070
    74
1070
     0
1070
   279
1070
     0
1070
   173
1070
     1
1070
   340
1005
D0
1070
   271
1070
     2
1070
   272
1070
     3
1070
    77
1070
     1
1070
    73
1070
     1
1070
   171
1070
     3
1070
   274
1070
     4
1070
   177
1070
     2
1070
   176
1070
     2
1070
   178
1070
     2
1070
    78
1070
     8
1070
    48
1040
-0.1
1070
    41
1040
3.5
1070
   147
1040
1.5
1070
    42
1040
1.5875
1070
    44
1040
2.0
1070
   140
1040
3.0
1002
}
1001
ACAD_DSTYLE_DIM_LINETYPE
1070
   380
1005
16
1001
ACAD_DSTYLE_DIM_EXT1_LINETYPE
1070
   381
1005
16
1001
ACAD_DSTYLE_DIM_EXT2_LINETYPE
1070
   382
1005
16
0
DIMENSION
5
122
100
AcDbEntity
8
SK2
62
256
6
ByLayer
370
18
48
1
60
0
100
AcDbDimension
2
_U2
10
0
20
-32.332638
30
0
11
-23
21
-32.332638
31
0
70
32
71
1
72
1
41
1
210
0
220
0
230
1
3
Standard
100
AcDbAlignedDimension
13
-46
23
-5.7545
33
0
14
0
24
-5.7545
34
0
50
0
100
AcDbRotatedDimension
1001
ACAD
1000
DSTYLE
1002
{
1070
   371
1070
    13
1070
   372
1070
    13
1070
     3
1000

1070
   170
1070
     0
1070
   144
1040
1.0
1070
   277
1070
     2
1070
   284
1070
     8
1070
   278
1070
    46
1070
   146
1040
1.166667
1070
   345
1005
16
1070
   347
1005
16
1070
   346
1005
16
1070
   344
1005
0
1070
   343
1005
0
1070
   172
1070
     1
1070
    76
1070
     0
1070
    75
1070
     0
1070
   282
1070
     0
1070
   281
1070
     0
1070
    71
1070
     0
1070
    74
1070
     0
1070
   279
1070
     0
1070
   173
1070
     1
1070
   340
1005
D0
1070
   271
1070
     2
1070
   272
1070
     3
1070
    77
1070
     1
1070
    73
1070
     1
1070
   171
1070
     3
1070
   274
1070
     4
1070
   177
1070
     2
1070
   176
1070
     2
1070
   178
1070
     2
1070
    78
1070
     8
1070
    48
1040
-0.1
1070
    41
1040
3.5
1070
   147
1040
1.5
1070
    42
1040
1.5875
1070
    44
1040
2.0
1070
   140
1040
3.0
1002
}
1001
ACAD_DSTYLE_DIM_LINETYPE
1070
   380
1005
16
1001
ACAD_DSTYLE_DIM_EXT1_LINETYPE
1070
   381
1005
16
1001
ACAD_DSTYLE_DIM_EXT2_LINETYPE
1070
   382
1005
16
0
DIMENSION
5
13A
100
AcDbEntity
8
2
62
256
6
ByLayer
370
18
48
1
60
0
100
AcDbDimension
2
_U3
10
25.5
20
-30.332638
30
0
11
60.75
21
-30.332638
31
0
70
32
71
1
72
1
41
1
210
0
220
0
230
1
3
Standard
100
AcDbAlignedDimension
13
96
23
0
33
0
14
25.5
24
-5.7545
34
0
50
0
100
AcDbRotatedDimension
1001
ACAD
1000
DSTYLE
1002
{
1070
   371
1070
    13
1070
   372
1070
    13
1070
     3
1000

1070
   170
1070
     0
1070
   144
1040
1.0
1070
   277
1070
     2
1070
   284
1070
     8
1070
   278
1070
    46
1070
   146
1040
1.166667
1070
   345
1005
16
1070
   347
1005
16
1070
   346
1005
16
1070
   344
1005
0
1070
   343
1005
0
1070
   172
1070
     1
1070
    76
1070
     0
1070
    75
1070
     0
1070
   282
1070
     0
1070
   281
1070
     0
1070
    71
1070
     0
1070
    74
1070
     0
1070
   279
1070
     0
1070
   173
1070
     1
1070
   340
1005
D0
1070
   271
1070
     2
1070
   272
1070
     3
1070
    77
1070
     1
1070
    73
1070
     1
1070
   171
1070
     3
1070
   274
1070
     4
1070
   177
1070
     2
1070
   176
1070
     2
1070
   178
1070
     2
1070
    78
1070
     8
1070
    48
1040
-0.1
1070
    41
1040
3.5
1070
   147
1040
1.5
1070
    42
1040
1.5875
1070
    44
1040
2.0
1070
   140
1040
3.0
1002
}
1001
ACAD_DSTYLE_DIM_LINETYPE
1070
   380
1005
16
1001
ACAD_DSTYLE_DIM_EXT1_LINETYPE
1070
   381
1005
16
1001
ACAD_DSTYLE_DIM_EXT2_LINETYPE
1070
   382
1005
16
0
ENDSEC
0
SECTION
2
OBJECTS
0
DICTIONARY
5
1c4
330
0
100
AcDbDictionary
280
0
281
1
3
ACAD_GROUP
350
1c5
3
ACAD_MLINESTYLE
350
1c6
0
DICTIONARY
5
1c5
330
0
100
AcDbDictionary
280
0
281
1
0
DICTIONARY
5
1c6
330
0
100
AcDbDictionary
280
0
281
1
3
Standard
350
18
0
MLINESTYLE
5
18
330
1c6
100
AcDbMlineStyle
2
Standard
70
0
3

62
256
51
90
52
90
71
2
49
-0.5
62
256
6
ByLayer
49
0.5
62
256
6
ByLayer
0
RASTERVARIABLES
5
1b0
330

100
AcDbRasterVariables
90
0
70
1
71
1
72
1
0
ENDSEC
0
EOF
