0
SECTION
2
HEADER
9
$ACADVER
1
AC1015
9
$DWGCODEPAGE
3
ANSI_1252
9
$HANDSEED
5
1cd
9
$ANGBASE
50
0
9
$ANGDIR
70
0
9
$ATTMODE
70
1
9
$AUNITS
70
0
9
$AUPREC
70
0
9
$CECOLOR
62
256
9
$CELTSCALE
40
1
9
$CELTYPE
6
ByLayer
9
$CELWEIGHT
370
18
9
$CLAYER
8
0
9
$CMLJUST
70
0
9
$CMLSCALE
40
1
9
$CMLSTYLE
2
Standard
9
$DIMSTYLE
2
Standard
9
$TEXTSIZE
40
0.2
9
$TEXTSTYLE
7
Standard
9
$LUNITS
70
2
9
$LUPREC
70
4
9
$EXTNAMES
290
1
9
$INSUNITS
70
4
9
$LTSCALE
40
1
9
$LWDISPLAY
290
1
9
$PDMODE
70
0
9
$PDSIZE
40
0
9
$PLINEGEN
70
0
0
ENDSEC
0
SECTION
2
CLASSES
0
CLASS
1
RASTERVARIABLES
2
AcDbRasterVariables
3
ISM
90
0
280
0
281
0
0
ENDSEC
0
SECTION
2
TABLES
0
TABLE
2
VPORT
5
1c3
100
AcDbSymbolTable
0
VPORT
5
1
100
AcDbSymbolTableRecord
100
AcDbViewportTableRecord
2
*Active
70
0
10
0
20
0
11
1
21
1
12
-1
22
1
13
0
23
0
14
0.5
24
0.5
15
10
25
10
16
0
26
0
36
1
17
0
27
0
37
0
0
ENDTAB
0
TABLE
2
LTYPE
5
1c4
100
AcDbSymbolTable
0
LTYPE
5
14
100
AcDbSymbolTableRecord
100
AcDbLinetypeTableRecord
70
0
2
ByBlock
3

72
65
73
0
40
0
0
LTYPE
5
15
100
AcDbSymbolTableRecord
100
AcDbLinetypeTableRecord
70
0
2
ByLayer
3

72
65
73
0
40
0
0
LTYPE
5
16
100
AcDbSymbolTableRecord
100
AcDbLinetypeTableRecord
70
0
2
Continuous
3
Solid line
72
65
73
0
40
0
0
LTYPE
5
6E
100
AcDbSymbolTableRecord
100
AcDbLinetypeTableRecord
70
0
2
CENTER
3
____ _ ____ _ ____ _ ____
72
65
73
4
40
47.5
49
22
74
0
49
-8.5
74
0
49
8.5
74
0
49
-8.5
74
0
0
LTYPE
5
6F
100
AcDbSymbolTableRecord
100
AcDbLinetypeTableRecord
70
0
2
DASHED
3
__ __ __ __ __ __ __ __ __
72
65
73
2
40
25.72
49
12.86
74
0
49
-12.86
74
0
0
ENDTAB
0
TABLE
2
LAYER
5
1c5
100
AcDbSymbolTable
0
LAYER
5
10
100
AcDbSymbolTableRecord
100
AcDbLayerTableRecord
2
0
70
0
62
7
6
Continuous
290
1
370
-3
390
0
0
LAYER
5
71
100
AcDbSymbolTableRecord
100
AcDbLayerTableRecord
2
81
70
0
62
-3
6
Continuous
290
1
370
-3
390
0
0
LAYER
5
73
100
AcDbSymbolTableRecord
100
AcDbLayerTableRecord
2
80
70
0
62
-6
6
Continuous
290
1
370
-3
390
0
0
LAYER
5
75
100
AcDbSymbolTableRecord
100
AcDbLayerTableRecord
2
1
70
0
62
4
6
Continuous
290
1
370
-3
390
0
0
LAYER
5
7F
100
AcDbSymbolTableRecord
100
AcDbLayerTableRecord
2
4
70
0
62
-2
6
CENTER
290
1
370
-3
390
0
0
LAYER
5
A6
100
AcDbSymbolTableRecord
100
AcDbLayerTableRecord
2
2
70
0
62
7
6
Continuous
290
1
370
-3
390
0
0
LAYER
5
F0
100
AcDbSymbolTableRecord
100
AcDbLayerTableRecord
2
Defpoints
70
0
62
7
6
Continuous
290
0
370
-3
390
0
0
LAYER
5
1ad
100
AcDbSymbolTableRecord
100
AcDbLayerTableRecord
2
SK4
70
0
62
2
6
CENTER
290
1
370
-3
390
0
0
LAYER
5
1ae
100
AcDbSymbolTableRecord
100
AcDbLayerTableRecord
2
SK1
70
0
62
4
6
Continuous
290
1
370
-3
390
0
0
LAYER
5
1af
100
AcDbSymbolTableRecord
100
AcDbLayerTableRecord
2
SK2
70
0
62
7
6
Continuous
290
1
370
-3
390
0
0
LAYER
5
1b0
100
AcDbSymbolTableRecord
100
AcDbLayerTableRecord
2
CUT
70
0
62
-1
6
Continuous
290
1
370
-3
390
0
0
LAYER
5
1b1
100
AcDbSymbolTableRecord
100
AcDbLayerTableRecord
2
NOCUT
70
0
62
-7
6
Continuous
290
1
370
-3
390
0
0
LAYER
5
1b2
100
AcDbSymbolTableRecord
100
AcDbLayerTableRecord
2
SK6
70
0
62
5
6
Continuous
290
1
370
-3
390
0
0
ENDTAB
0
TABLE
2
STYLE
5
1c6
100
AcDbSymbolTable
0
STYLE
5
11
100
AcDbSymbolTableRecord
100
AcDbTextStyleTableRecord
2
Standard
3
txt
70
0
71
0
40
0
41
1
42
0
50
0
0
STYLE
5
CC
100
AcDbSymbolTableRecord
100
AcDbTextStyleTableRecord
2
iso_b_vert
3
simplex.shx
70
0
71
0
40
0
41
1
42
0
50
0
0
STYLE
5
CD
100
AcDbSymbolTableRecord
100
AcDbTextStyleTableRecord
2
DWGDirectTextStyle
3
simplex
70
0
71
0
40
0
41
1
42
0
50
0
0
ENDTAB
0
TABLE
2
DIMSTYLE
5
1c7
100
AcDbSymbolTable
100
AcDbDimStyleTable
0
DIMSTYLE
105
27
100
AcDbSymbolTableRecord
100
AcDbDimStyleTableRecord
2
Standard
70
0
3
<>
41
0.18
42
0.0625
44
0.18
140
0.18
147
0.09
73
0
74
0
77
1
271
2
275
0
278
52
280
0
340
11
0
ENDTAB
0
TABLE
2
VIEW
5
1c8
100
AcDbSymbolTable
0
ENDTAB
0
TABLE
2
UCS
5
1c9
100
AcDbSymbolTable
0
ENDTAB
0
TABLE
2
APPID
5
1ca
100
AcDbSymbolTable
0
APPID
5
12
100
AcDbSymbolTableRecord
100
AcDbRegAppTableRecord
2
ACAD
70
0
0
APPID
5
EC
100
AcDbSymbolTableRecord
100
AcDbRegAppTableRecord
2
ACAD_DSTYLE_DIMBREAK
70
0
0
APPID
5
16C
100
AcDbSymbolTableRecord
100
AcDbRegAppTableRecord
2
ACAD_DSTYLE_DIM_LINETYPE
70
0
0
APPID
5
16D
100
AcDbSymbolTableRecord
100
AcDbRegAppTableRecord
2
ACAD_DSTYLE_DIM_EXT1_LINETYPE
70
0
0
APPID
5
16E
100
AcDbSymbolTableRecord
100
AcDbRegAppTableRecord
2
ACAD_DSTYLE_DIM_EXT2_LINETYPE
70
0
0
APPID
5
1A9
100
AcDbSymbolTableRecord
100
AcDbRegAppTableRecord
2
ACAD_MLEADERVER
70
0
0
ENDTAB
0
TABLE
2
BLOCK_RECORD
5
1cb
100
AcDbSymbolTable
0
BLOCK_RECORD
5
1F
100
AcDbSymbolTableRecord
100
AcDbBlockTableRecord
2
*Model_Space
340
0
70
0
0
BLOCK_RECORD
5
1B
100
AcDbSymbolTableRecord
100
AcDbBlockTableRecord
2
*Paper_Space
340
0
70
0
0
BLOCK_RECORD
5
23
100
AcDbSymbolTableRecord
100
AcDbBlockTableRecord
2
*Paper_Space0
340
0
70
0
0
BLOCK_RECORD
5
F1
100
AcDbSymbolTableRecord
100
AcDbBlockTableRecord
2
*D1
340
0
70
0
0
BLOCK_RECORD
5
FD
100
AcDbSymbolTableRecord
100
AcDbBlockTableRecord
2
_U0
340
0
70
0
0
BLOCK_RECORD
5
109
100
AcDbSymbolTableRecord
100
AcDbBlockTableRecord
2
*D3
340
0
70
0
0
BLOCK_RECORD
5
115
100
AcDbSymbolTableRecord
100
AcDbBlockTableRecord
2
_U1
340
0
70
0
0
BLOCK_RECORD
5
121
100
AcDbSymbolTableRecord
100
AcDbBlockTableRecord
2
*D5
340
0
70
0
0
BLOCK_RECORD
5
12D
100
AcDbSymbolTableRecord
100
AcDbBlockTableRecord
2
_U2
340
0
70
0
0
BLOCK_RECORD
5
139
100
AcDbSymbolTableRecord
100
AcDbBlockTableRecord
2
*D7
340
0
70
0
0
BLOCK_RECORD
5
145
100
AcDbSymbolTableRecord
100
AcDbBlockTableRecord
2
_U3
340
0
70
0
0
ENDTAB
0
ENDSEC
0
SECTION
2
BLOCKS
0
BLOCK
5
20
100
AcDbEntity
8
0
100
AcDbBlockBegin
2
*Model_Space
70
0
10
0
20
0
30
0
3
*Model_Space
0
ENDBLK
5
21
100
AcDbEntity
8
0
100
AcDbBlockEnd
0
BLOCK
5
1C
100
AcDbEntity
8
0
100
AcDbBlockBegin
2
*Paper_Space
70
0
10
0
20
0
30
0
3
*Paper_Space
0
ENDBLK
5
1D
100
AcDbEntity
8
0
100
AcDbBlockEnd
0
BLOCK
5
24
100
AcDbEntity
8
0
100
AcDbBlockBegin
2
*Paper_Space0
70
0
10
0
20
0
30
0
3
*Paper_Space0
0
ENDBLK
5
25
100
AcDbEntity
8
0
100
AcDbBlockEnd
0
BLOCK
5
F2
100
AcDbEntity
8
0
100
AcDbBlockBegin
2
*D1
70
1
10
0
20
0
30
0
3
*D1
0
LINE
5
F4
100
AcDbEntity
8
0
62
256
6
ByLayer
370
-2
48
1
60
0
100
AcDbLine
10
-42
20
-6.1515
30
0
11
-42
21
-53.624559
31
0
39
0
210
0
220
0
230
1
0
LINE
5
F5
100
AcDbEntity
8
0
62
256
6
ByLayer
370
-2
48
1
60
0
100
AcDbLine
10
83
20
-1.5875
30
0
11
83
21
-53.624559
31
0
39
0
210
0
220
0
230
1
0
LINE
5
F6
100
AcDbEntity
8
0
62
256
6
ByLayer
370
-2
48
1
60
0
100
AcDbLine
10
-38.5
20
-51.624559
30
0
11
79.5
21
-51.624559
31
0
39
0
210
0
220
0
230
1
0
SOLID
5
F7
100
AcDbEntity
8
0
62
256
6
ByLayer
370
-1
48
1
60
0
100
AcDbTrace
10
-38.5
20
-51.041225
30
0
11
-38.5
21
-52.207892
31
0
12
-42
22
-51.624559
32
0
13
-42
23
-51.624559
33
0
39
0
210
0
220
0
230
1
0
SOLID
5
F8
100
AcDbEntity
8
0
62
256
6
ByLayer
370
-1
48
1
60
0
100
AcDbTrace
10
79.5
20
-52.207892
30
0
11
79.5
21
-51.041225
31
0
12
83
22
-51.624559
32
0
13
83
23
-51.624559
33
0
39
0
210
0
220
0
230
1
0
MTEXT
5
F9
100
AcDbEntity
8
0
62
256
6
ByLayer
370
18
48
1
60
0
100
AcDbMText
10
20.5
20
-45.624559
30
0
210
0
220
0
230
1
1
\A1;125
40
3
41
0
44
1
50
0
71
5
72
5
7
iso_b_vert
0
POINT
5
FA
100
AcDbEntity
8
Defpoints
62
0
6
ByLayer
370
-1
48
1
60
0
100
AcDbPoint
10
-42
20
-4.564
30
0
39
0
210
0
220
0
230
1
50
360
0
POINT
5
FB
100
AcDbEntity
8
Defpoints
62
0
6
ByLayer
370
-1
48
1
60
0
100
AcDbPoint
10
83
20
0
30
0
39
0
210
0
220
0
230
1
50
360
0
POINT
5
FC
100
AcDbEntity
8
Defpoints
62
0
6
ByLayer
370
-1
48
1
60
0
100
AcDbPoint
10
83
20
-51.624559
30
0
39
0
210
0
220
0
230
1
50
360
0
ENDBLK
5
F3
100
AcDbEntity
8
0
100
AcDbBlockEnd
0
BLOCK
5
104
100
AcDbEntity
8
0
100
AcDbBlockBegin
2
_U0
70
0
10
0
20
0
30
0
3
_U0
0
MTEXT
5
FE
100
AcDbEntity
8
SK2
62
256
6
ByLayer
370
18
48
1
60
0
100
AcDbMText
10
15.271658
20
-50.739444
30
0
210
0
220
0
230
1
1
\W0.7022;125.00
40
3
41
0
44
1.084337
50
0
71
7
72
5
7
iso_b_vert
0
LINE
5
FF
100
AcDbEntity
8
SK2
62
256
6
ByLayer
370
13
48
1
60
0
100
AcDbLine
10
-42
20
-6.1515
30
0
11
-42
21
-53.624559
31
0
39
0
210
0
220
0
230
1
0
LINE
5
100
100
AcDbEntity
8
SK2
62
256
6
ByLayer
370
13
48
1
60
0
100
AcDbLine
10
83
20
-1.5875
30
0
11
83
21
-53.624559
31
0
39
0
210
0
220
0
230
1
0
LINE
5
101
100
AcDbEntity
8
SK2
62
256
6
ByLayer
370
13
48
1
60
0
100
AcDbLine
10
-42
20
-51.624559
30
0
11
83
21
-51.624559
31
0
39
0
210
0
220
0
230
1
0
SOLID
5
102
100
AcDbEntity
8
SK2
62
256
6
ByLayer
370
18
48
1
60
0
100
AcDbTrace
10
-42
20
-51.624559
30
0
11
-38.500002
21
-51.163775
31
0
12
-38.499998
22
-52.085343
32
0
13
-38.499998
23
-52.085343
33
0
39
0
210
0
220
0
230
1
0
SOLID
5
103
100
AcDbEntity
8
SK2
62
256
6
ByLayer
370
18
48
1
60
0
100
AcDbTrace
10
83
20
-51.624559
30
0
11
79.500002
21
-52.085343
31
0
12
79.499998
22
-51.163775
32
0
13
79.499998
23
-51.163775
33
0
39
0
210
0
220
0
230
1
0
ENDBLK
5
105
100
AcDbEntity
8
0
100
AcDbBlockEnd
0
BLOCK
5
10A
100
AcDbEntity
8
0
100
AcDbBlockBegin
2
*D3
70
1
10
0
20
0
30
0
3
*D3
0
LINE
5
10C
100
AcDbEntity
8
0
62
256
6
ByLayer
370
-2
48
1
60
0
100
AcDbLine
10
83
20
-1.5875
30
0
11
83
21
-43.624559
31
0
39
0
210
0
220
0
230
1
0
LINE
5
10D
100
AcDbEntity
8
0
62
256
6
ByLayer
370
-2
48
1
60
0
100
AcDbLine
10
2
20
-6.1515
30
0
11
2
21
-43.624559
31
0
39
0
210
0
220
0
230
1
0
LINE
5
10E
100
AcDbEntity
8
0
62
256
6
ByLayer
370
-2
48
1
60
0
100
AcDbLine
10
79.5
20
-41.624559
30
0
11
5.5
21
-41.624559
31
0
39
0
210
0
220
0
230
1
0
SOLID
5
10F
100
AcDbEntity
8
0
62
256
6
ByLayer
370
-1
48
1
60
0
100
AcDbTrace
10
79.5
20
-42.207892
30
0
11
79.5
21
-41.041225
31
0
12
83
22
-41.624559
32
0
13
83
23
-41.624559
33
0
39
0
210
0
220
0
230
1
0
SOLID
5
110
100
AcDbEntity
8
0
62
256
6
ByLayer
370
-1
48
1
60
0
100
AcDbTrace
10
5.5
20
-41.041225
30
0
11
5.5
21
-42.207892
31
0
12
2
22
-41.624559
32
0
13
2
23
-41.624559
33
0
39
0
210
0
220
0
230
1
0
MTEXT
5
111
100
AcDbEntity
8
0
62
256
6
ByLayer
370
18
48
1
60
0
100
AcDbMText
10
42.5
20
-35.624559
30
0
210
0
220
0
230
1
1
\A1;81
40
3
41
0
44
1
50
0
71
5
72
5
7
iso_b_vert
0
POINT
5
112
100
AcDbEntity
8
Defpoints
62
0
6
ByLayer
370
-1
48
1
60
0
100
AcDbPoint
10
83
20
0
30
0
39
0
210
0
220
0
230
1
50
360
0
POINT
5
113
100
AcDbEntity
8
Defpoints
62
0
6
ByLayer
370
-1
48
1
60
0
100
AcDbPoint
10
2
20
-4.564
30
0
39
0
210
0
220
0
230
1
50
360
0
POINT
5
114
100
AcDbEntity
8
Defpoints
62
0
6
ByLayer
370
-1
48
1
60
0
100
AcDbPoint
10
2
20
-41.624559
30
0
39
0
210
0
220
0
230
1
50
360
0
ENDBLK
5
10B
100
AcDbEntity
8
0
100
AcDbBlockEnd
0
BLOCK
5
11C
100
AcDbEntity
8
0
100
AcDbBlockBegin
2
_U1
70
0
10
0
20
0
30
0
3
_U1
0
MTEXT
5
116
100
AcDbEntity
8
2
62
256
6
ByLayer
370
18
48
1
60
0
100
AcDbMText
10
38.392572
20
-40.739444
30
0
210
0
220
0
230
1
1
\W0.6864;81.00
40
3
41
0
44
1.084337
50
0
71
7
72
5
7
iso_b_vert
0
LINE
5
117
100
AcDbEntity
8
2
62
256
6
ByLayer
370
13
48
1
60
0
100
AcDbLine
10
83
20
-1.5875
30
0
11
83
21
-43.624559
31
0
39
0
210
0
220
0
230
1
0
LINE
5
118
100
AcDbEntity
8
2
62
256
6
ByLayer
370
13
48
1
60
0
100
AcDbLine
10
2
20
-6.1515
30
0
11
2
21
-43.624559
31
0
39
0
210
0
220
0
230
1
0
LINE
5
119
100
AcDbEntity
8
2
62
256
6
ByLayer
370
13
48
1
60
0
100
AcDbLine
10
83
20
-41.624559
30
0
11
2
21
-41.624559
31
0
39
0
210
0
220
0
230
1
0
SOLID
5
11A
100
AcDbEntity
8
2
62
256
6
ByLayer
370
18
48
1
60
0
100
AcDbTrace
10
83
20
-41.624559
30
0
11
79.500002
21
-42.085343
31
0
12
79.499998
22
-41.163775
32
0
13
79.499998
23
-41.163775
33
0
39
0
210
0
220
0
230
1
0
SOLID
5
11B
100
AcDbEntity
8
2
62
256
6
ByLayer
370
18
48
1
60
0
100
AcDbTrace
10
2
20
-41.624559
30
0
11
5.499998
21
-41.163775
31
0
12
5.500002
22
-42.085343
32
0
13
5.500002
23
-42.085343
33
0
39
0
210
0
220
0
230
1
0
ENDBLK
5
11D
100
AcDbEntity
8
0
100
AcDbBlockEnd
0
BLOCK
5
122
100
AcDbEntity
8
0
100
AcDbBlockBegin
2
*D5
70
1
10
0
20
0
30
0
3
*D5
0
LINE
5
124
100
AcDbEntity
8
0
62
256
6
ByLayer
370
-2
48
1
60
0
100
AcDbLine
10
-42
20
-6.1515
30
0
11
-42
21
-38.624559
31
0
39
0
210
0
220
0
230
1
0
LINE
5
125
100
AcDbEntity
8
0
62
256
6
ByLayer
370
-2
48
1
60
0
100
AcDbLine
10
0
20
-6.1515
30
0
11
0
21
-38.624559
31
0
39
0
210
0
220
0
230
1
0
LINE
5
126
100
AcDbEntity
8
0
62
256
6
ByLayer
370
-2
48
1
60
0
100
AcDbLine
10
-38.5
20
-36.624559
30
0
11
-3.5
21
-36.624559
31
0
39
0
210
0
220
0
230
1
0
SOLID
5
127
100
AcDbEntity
8
0
62
256
6
ByLayer
370
-1
48
1
60
0
100
AcDbTrace
10
-38.5
20
-36.041225
30
0
11
-38.5
21
-37.207892
31
0
12
-42
22
-36.624559
32
0
13
-42
23
-36.624559
33
0
39
0
210
0
220
0
230
1
0
SOLID
5
128
100
AcDbEntity
8
0
62
256
6
ByLayer
370
-1
48
1
60
0
100
AcDbTrace
10
-3.5
20
-37.207892
30
0
11
-3.5
21
-36.041225
31
0
12
0
22
-36.624559
32
0
13
0
23
-36.624559
33
0
39
0
210
0
220
0
230
1
0
MTEXT
5
129
100
AcDbEntity
8
0
62
256
6
ByLayer
370
18
48
1
60
0
100
AcDbMText
10
-21
20
-30.624559
30
0
210
0
220
0
230
1
1
\A1;42
40
3
41
0
44
1
50
0
71
5
72
5
7
iso_b_vert
0
POINT
5
12A
100
AcDbEntity
8
Defpoints
62
0
6
ByLayer
370
-1
48
1
60
0
100
AcDbPoint
10
-42
20
-4.564
30
0
39
0
210
0
220
0
230
1
50
360
0
POINT
5
12B
100
AcDbEntity
8
Defpoints
62
0
6
ByLayer
370
-1
48
1
60
0
100
AcDbPoint
10
0
20
-4.564
30
0
39
0
210
0
220
0
230
1
50
360
0
POINT
5
12C
100
AcDbEntity
8
Defpoints
62
0
6
ByLayer
370
-1
48
1
60
0
100
AcDbPoint
10
0
20
-36.624559
30
0
39
0
210
0
220
0
230
1
50
360
0
ENDBLK
5
123
100
AcDbEntity
8
0
100
AcDbBlockEnd
0
BLOCK
5
134
100
AcDbEntity
8
0
100
AcDbBlockBegin
2
_U2
70
0
10
0
20
0
30
0
3
_U2
0
MTEXT
5
12E
100
AcDbEntity
8
SK2
62
256
6
ByLayer
370
18
48
1
60
0
100
AcDbMText
10
-25.640313
20
-35.739444
30
0
210
0
220
0
230
1
1
\W0.7694;42.00
40
3
41
0
44
1.084337
50
0
71
7
72
5
7
iso_b_vert
0
LINE
5
12F
100
AcDbEntity
8
SK2
62
256
6
ByLayer
370
13
48
1
60
0
100
AcDbLine
10
-42
20
-6.1515
30
0
11
-42
21
-38.624559
31
0
39
0
210
0
220
0
230
1
0
LINE
5
130
100
AcDbEntity
8
SK2
62
256
6
ByLayer
370
13
48
1
60
0
100
AcDbLine
10
0
20
-6.1515
30
0
11
0
21
-38.624559
31
0
39
0
210
0
220
0
230
1
0
LINE
5
131
100
AcDbEntity
8
SK2
62
256
6
ByLayer
370
13
48
1
60
0
100
AcDbLine
10
-42
20
-36.624559
30
0
11
0
21
-36.624559
31
0
39
0
210
0
220
0
230
1
0
SOLID
5
132
100
AcDbEntity
8
SK2
62
256
6
ByLayer
370
18
48
1
60
0
100
AcDbTrace
10
-42
20
-36.624559
30
0
11
-38.500002
21
-36.163775
31
0
12
-38.499998
22
-37.085343
32
0
13
-38.499998
23
-37.085343
33
0
39
0
210
0
220
0
230
1
0
SOLID
5
133
100
AcDbEntity
8
SK2
62
256
6
ByLayer
370
18
48
1
60
0
100
AcDbTrace
10
0
20
-36.624559
30
0
11
-3.499998
21
-37.085343
31
0
12
-3.500002
22
-36.163775
32
0
13
-3.500002
23
-36.163775
33
0
39
0
210
0
220
0
230
1
0
ENDBLK
5
135
100
AcDbEntity
8
0
100
AcDbBlockEnd
0
BLOCK
5
13A
100
AcDbEntity
8
0
100
AcDbBlockBegin
2
*D7
70
1
10
0
20
0
30
0
3
*D7
0
LINE
5
13C
100
AcDbEntity
8
0
62
256
6
ByLayer
370
-2
48
1
60
0
100
AcDbLine
10
83
20
-1.5875
30
0
11
83
21
-36.624559
31
0
39
0
210
0
220
0
230
1
0
LINE
5
13D
100
AcDbEntity
8
0
62
256
6
ByLayer
370
-2
48
1
60
0
100
AcDbLine
10
22.25
20
-6.1515
30
0
11
22.25
21
-36.624559
31
0
39
0
210
0
220
0
230
1
0
LINE
5
13E
100
AcDbEntity
8
0
62
256
6
ByLayer
370
-2
48
1
60
0
100
AcDbLine
10
79.5
20
-34.624559
30
0
11
25.75
21
-34.624559
31
0
39
0
210
0
220
0
230
1
0
SOLID
5
13F
100
AcDbEntity
8
0
62
256
6
ByLayer
370
-1
48
1
60
0
100
AcDbTrace
10
79.5
20
-35.207892
30
0
11
79.5
21
-34.041225
31
0
12
83
22
-34.624559
32
0
13
83
23
-34.624559
33
0
39
0
210
0
220
0
230
1
0
SOLID
5
140
100
AcDbEntity
8
0
62
256
6
ByLayer
370
-1
48
1
60
0
100
AcDbTrace
10
25.75
20
-34.041225
30
0
11
25.75
21
-35.207892
31
0
12
22.25
22
-34.624559
32
0
13
22.25
23
-34.624559
33
0
39
0
210
0
220
0
230
1
0
MTEXT
5
141
100
AcDbEntity
8
0
62
256
6
ByLayer
370
18
48
1
60
0
100
AcDbMText
10
52.625
20
-28.624559
30
0
210
0
220
0
230
1
1
\A1;60.75
40
3
41
0
44
1
50
0
71
5
72
5
7
iso_b_vert
0
POINT
5
142
100
AcDbEntity
8
Defpoints
62
0
6
ByLayer
370
-1
48
1
60
0
100
AcDbPoint
10
83
20
0
30
0
39
0
210
0
220
0
230
1
50
360
0
POINT
5
143
100
AcDbEntity
8
Defpoints
62
0
6
ByLayer
370
-1
48
1
60
0
100
AcDbPoint
10
22.25
20
-4.564
30
0
39
0
210
0
220
0
230
1
50
360
0
POINT
5
144
100
AcDbEntity
8
Defpoints
62
0
6
ByLayer
370
-1
48
1
60
0
100
AcDbPoint
10
22.25
20
-34.624559
30
0
39
0
210
0
220
0
230
1
50
360
0
ENDBLK
5
13B
100
AcDbEntity
8
0
100
AcDbBlockEnd
0
BLOCK
5
14C
100
AcDbEntity
8
0
100
AcDbBlockBegin
2
_U3
70
0
10
0
20
0
30
0
3
_U3
0
MTEXT
5
146
100
AcDbEntity
8
2
62
256
6
ByLayer
370
18
48
1
60
0
100
AcDbMText
10
48.14263
20
-33.739444
30
0
210
0
220
0
230
1
1
\W0.7468;60.75
40
3
41
0
44
1.084337
50
0
71
7
72
5
7
iso_b_vert
0
LINE
5
147
100
AcDbEntity
8
2
62
256
6
ByLayer
370
13
48
1
60
0
100
AcDbLine
10
83
20
-1.5875
30
0
11
83
21
-36.624559
31
0
39
0
210
0
220
0
230
1
0
LINE
5
148
100
AcDbEntity
8
2
62
256
6
ByLayer
370
13
48
1
60
0
100
AcDbLine
10
22.25
20
-6.1515
30
0
11
22.25
21
-36.624559
31
0
39
0
210
0
220
0
230
1
0
LINE
5
149
100
AcDbEntity
8
2
62
256
6
ByLayer
370
13
48
1
60
0
100
AcDbLine
10
83
20
-34.624559
30
0
11
22.25
21
-34.624559
31
0
39
0
210
0
220
0
230
1
0
SOLID
5
14A
100
AcDbEntity
8
2
62
256
6
ByLayer
370
18
48
1
60
0
100
AcDbTrace
10
83
20
-34.624559
30
0
11
79.500002
21
-35.085343
31
0
12
79.499998
22
-34.163775
32
0
13
79.499998
23
-34.163775
33
0
39
0
210
0
220
0
230
1
0
SOLID
5
14B
100
AcDbEntity
8
2
62
256
6
ByLayer
370
18
48
1
60
0
100
AcDbTrace
10
22.25
20
-34.624559
30
0
11
25.749998
21
-34.163775
31
0
12
25.750002
22
-35.085343
32
0
13
25.750002
23
-35.085343
33
0
39
0
210
0
220
0
230
1
0
ENDBLK
5
14D
100
AcDbEntity
8
0
100
AcDbBlockEnd
0
ENDSEC
0
SECTION
2
ENTITIES
0
ARC
5
B7
100
AcDbEntity
8
2
62
256
6
ByLayer
370
13
48
1
60
0
100
AcDbCircle
39
0
10
83
20
0
30
0
40
22.0000000000001
210
0
220
0
230
1
100
AcDbArc
50
7.83748
51
61.596605
0
ARC
5
B8
100
AcDbEntity
8
2
62
256
6
ByLayer
370
13
48
1
60
0
100
AcDbCircle
39
0
10
83
20
0
30
0
40
22.0000000000001
210
0
220
0
230
1
100
AcDbArc
50
298.403395
51
352.16252
0
POINT
5
70
100
AcDbEntity
8
81
62
256
6
ByLayer
370
18
48
1
60
0
100
AcDbPoint
10
83
20
0
30
0
39
0
210
0
220
0
230
1
50
360
0
POINT
5
72
100
AcDbEntity
8
80
62
256
6
ByLayer
370
18
48
1
60
0
100
AcDbPoint
10
0
20
0
30
0
39
0
210
0
220
0
230
1
50
360
0
POINT
5
74
100
AcDbEntity
8
1
62
256
6
ByLayer
370
18
48
1
60
1
100
AcDbPoint
10
-42
20
-4.564
30
0
39
0
210
0
220
0
230
1
50
360
0
POINT
5
76
100
AcDbEntity
8
1
62
256
6
ByLayer
370
18
48
1
60
1
100
AcDbPoint
10
83
20
0
30
0
39
0
210
0
220
0
230
1
50
360
0
POINT
5
77
100
AcDbEntity
8
1
62
256
6
ByLayer
370
18
48
1
60
1
100
AcDbPoint
10
83
20
0
30
0
39
0
210
0
220
0
230
1
50
360
0
POINT
5
78
100
AcDbEntity
8
1
62
256
6
ByLayer
370
18
48
1
60
1
100
AcDbPoint
10
2
20
-4.564
30
0
39
0
210
0
220
0
230
1
50
360
0
POINT
5
79
100
AcDbEntity
8
1
62
256
6
ByLayer
370
18
48
1
60
1
100
AcDbPoint
10
-42
20
-4.564
30
0
39
0
210
0
220
0
230
1
50
360
0
POINT
5
7A
100
AcDbEntity
8
1
62
256
6
ByLayer
370
18
48
1
60
1
100
AcDbPoint
10
0
20
-4.564
30
0
39
0
210
0
220
0
230
1
50
360
0
POINT
5
7B
100
AcDbEntity
8
1
62
256
6
ByLayer
370
18
48
1
60
1
100
AcDbPoint
10
83
20
0
30
0
39
0
210
0
220
0
230
1
50
360
0
POINT
5
7C
100
AcDbEntity
8
1
62
256
6
ByLayer
370
18
48
1
60
1
100
AcDbPoint
10
22.25
20
-4.564
30
0
39
0
210
0
220
0
230
1
50
360
0
SPLINE
5
B9
100
AcDbEntity
8
CUT
62
256
6
ByLayer
370
18
48
1
60
0
100
AcDbSpline
70
2053
71
3
72
17
73
13
40
0
40
0
40
0
40
0
40
0.471798285921078
40
0.471798285921078
40
0.471798285921078
40
0.512094145450735
40
0.512094145450735
40
0.512094145450735
40
0.964724676734884
40
0.964724676734884
40
0.964724676734884
40
1
40
1
40
1
40
1
41
1
10
22.25
20
0
30
0
41
1
10
42.5
20
0
30
0
41
1
10
62.75
20
0
30
0
41
1
10
83
20
0
30
0
41
1
10
82.1773016404217
20
1.52133333334396
30
0
41
1
10
81.3546032808434
20
3.04266666668789
30
0
41
1
10
80.5319049212652
20
4.56400000003185
30
0
41
1
10
61.1046032808429
20
4.55671476191714
30
0
41
1
10
41.6773016404206
20
4.54942952380244
30
0
41
1
10
22.2499999999992
20
4.54214428568773
30
0
41
1
10
22.25
20
3.02809619045848
30
0
41
1
10
22.25
20
1.51404809522924
30
0
41
1
10
22.25
20
0
30
0
0
SPLINE
5
BB
100
AcDbEntity
8
NOCUT
62
256
6
ByLayer
370
18
48
1
60
0
100
AcDbSpline
70
2053
71
3
72
26
73
22
40
0
40
0
40
0
40
0
40
0.468401937362363
40
0.468401937362363
40
0.468401937362363
40
0.501515543325907
40
0.501515543325907
40
0.501515543325907
40
0.660808664742085
40
0.660808664742085
40
0.660808664742085
40
0.663733002831497
40
0.663733002831497
40
0.663733002831497
40
0.964465272374191
40
0.964465272374191
40
0.964465272374191
40
0.972187495860026
40
0.972187495860026
40
0.972187495860026
40
1
40
1
40
1
40
1
41
1
10
-42
20
0
30
0
41
1
10
-20.5833333333334
20
0
30
0
41
1
10
0.833333333333172
20
0
30
0
41
1
10
22.2499999999999
20
0
30
0
41
1
10
22.25
20
1.51404809522924
30
0
41
1
10
22.25
20
3.02809619045848
30
0
41
1
10
22.25
20
4.54214428568773
30
0
41
1
10
14.9666666666664
20
4.53941303568789
30
0
41
1
10
7.68333333333268
20
4.53668178568807
30
0
41
1
10
0.399999999821432
20
4.53395053570159
30
0
41
1
10
0.266666666429245
20
4.54396702380998
30
0
41
1
10
0.133333333214608
20
4.55398351190499
30
0
41
1
10
0
20
4.56399999999999
30
0
41
1
10
-13.7503333333333
20
4.56399999999999
30
0
41
1
10
-27.5006666666667
20
4.56399999999999
30
0
41
1
10
-41.251
20
4.56399999999999
30
0
41
1
10
-41.5006666666667
20
4.31433333333334
30
0
41
1
10
-41.7503333333333
20
4.06466666666665
30
0
41
1
10
-42
20
3.815
30
0
41
1
10
-42
20
2.54333333333332
30
0
41
1
10
-42
20
1.27166666666667
30
0
41
1
10
-42
20
0
30
0
0
SPLINE
5
BD
100
AcDbEntity
8
1
62
256
6
ByLayer
370
18
48
1
60
0
100
AcDbSpline
70
4
71
3
72
130
73
126
40
0
40
0
40
0
40
0
40
0.0312499999999936
40
0.0312499999999936
40
0.0624999999999872
40
0.0624999999999872
40
0.0937499999999808
40
0.0937499999999808
40
0.124999999999975
40
0.124999999999975
40
0.156249999999968
40
0.156249999999968
40
0.187499999999962
40
0.187499999999962
40
0.203124999999959
40
0.203124999999959
40
0.218749999999955
40
0.234374999999952
40
0.234374999999952
40
0.249999999999949
40
0.249999999999949
40
0.265624999999946
40
0.265624999999946
40
0.281249999999942
40
0.281249999999942
40
0.296874999999939
40
0.296874999999939
40
0.304687499999939
40
0.304687499999939
40
0.312499999999938
40
0.312499999999938
40
0.328124999999939
40
0.328124999999939
40
0.335937499999939
40
0.335937499999939
40
0.34374999999994
40
0.34374999999994
40
0.35156249999994
40
0.35156249999994
40
0.35937499999994
40
0.35937499999994
40
0.367187499999941
40
0.367187499999941
40
0.374999999999941
40
0.374999999999941
40
0.390624999999942
40
0.390624999999942
40
0.398437499999943
40
0.398437499999943
40
0.406249999999943
40
0.406249999999943
40
0.421874999999946
40
0.421874999999946
40
0.437499999999948
40
0.437499999999948
40
0.453124999999951
40
0.453124999999951
40
0.468749999999953
40
0.468749999999953
40
0.476562499999955
40
0.476562499999955
40
0.484374999999956
40
0.484374999999956
40
0.488281249999957
40
0.488281249999957
40
0.492187499999958
40
0.492187499999958
40
0.49999999999996
40
0.507812499999962
40
0.507812499999962
40
0.515624999999964
40
0.515624999999964
40
0.523437499999965
40
0.523437499999965
40
0.531249999999967
40
0.531249999999967
40
0.54687499999997
40
0.54687499999997
40
0.562499999999972
40
0.562499999999972
40
0.578124999999974
40
0.578124999999974
40
0.593749999999977
40
0.593749999999977
40
0.609374999999979
40
0.609374999999979
40
0.61718749999998
40
0.61718749999998
40
0.624999999999982
40
0.624999999999982
40
0.656249999999982
40
0.656249999999982
40
0.687499999999983
40
0.687499999999983
40
0.703124999999983
40
0.703124999999983
40
0.718749999999984
40
0.718749999999984
40
0.734374999999984
40
0.734374999999984
40
0.749999999999985
40
0.749999999999985
40
0.765624999999985
40
0.765624999999985
40
0.781249999999985
40
0.781249999999985
40
0.812499999999988
40
0.812499999999988
40
0.82812499999999
40
0.82812499999999
40
0.843749999999991
40
0.843749999999991
40
0.874999999999994
40
0.874999999999994
40
0.890624999999995
40
0.890624999999995
40
0.906249999999997
40
0.906249999999997
40
0.937499999999997
40
0.937499999999997
40
0.953124999999998
40
0.953124999999998
40
0.968749999999998
40
0.968749999999998
40
1
40
1
40
1
40
1
41
1
10
80.5319049212652
20
4.41908623728563
30
0
41
1
10
80.5798465021433
20
4.32998646488844
30
0
41
1
10
80.6277652231871
20
4.2408749146621
30
0
41
1
10
80.7234819974831
20
4.06253199733729
30
0
41
1
10
80.7712787971547
20
3.97329883556875
30
0
41
1
10
80.8666831956037
20
3.79464075204427
30
0
41
1
10
80.9142959064736
20
3.70522334927838
30
0
41
1
10
81.0093263027157
20
3.52622122983195
30
0
41
1
10
81.0567431414445
20
3.43663508733559
30
0
41
1
10
81.1513311804684
20
3.25726668071326
30
0
41
1
10
81.1984973756476
20
3.16747861497913
30
0
41
1
10
81.2925834395702
20
2.98774968442436
30
0
41
1
10
81.3395141941253
20
2.89782122254346
30
0
41
1
10
81.4096827377625
20
2.76279596004167
30
0
41
1
10
81.4330281518688
20
2.71775839532702
30
0
41
1
10
81.4796123021675
20
2.62761216533593
30
0
41
1
10
81.526094953095
20
2.53740098270939
30
0
41
1
10
81.5723940664377
20
2.44709774084828
30
0
41
1
10
81.6186070697967
20
2.35676192635415
30
0
41
1
10
81.6416673217494
20
2.31157374576171
30
0
41
1
10
81.6875831193262
20
2.22105092337426
30
0
41
1
10
81.7104341163158
20
2.17571715633497
30
0
41
1
10
81.755945141874
20
2.08491370483873
30
0
41
1
10
81.7785925669613
20
2.03938722261543
30
0
41
1
10
81.8239971953778
20
1.94917089831586
30
0
41
1
10
81.8467545460205
20
1.90448076863794
30
0
41
1
10
81.881365338223
20
1.83906895825035
30
0
41
1
10
81.8929860253658
20
1.81754592723365
30
0
41
1
10
81.9164107235285
20
1.7750660104328
30
0
41
1
10
81.9282124146858
20
1.75410190942083
30
0
41
1
10
81.9638158618506
20
1.69179794107657
30
0
41
1
10
81.9877913841934
20
1.65096887710831
30
0
41
1
10
82.0235411186729
20
1.58914265757974
30
0
41
1
10
82.035422156043
20
1.56843898958792
30
0
41
1
10
82.0590915526381
20
1.52679312310954
30
0
41
1
10
82.0708777312965
20
1.50584522180358
30
0
41
1
10
82.0943710514754
20
1.46376448384211
30
0
41
1
10
82.1060782398864
20
1.44263199083198
30
0
41
1
10
82.1294437629413
20
1.40027678470582
30
0
41
1
10
82.1411065983858
20
1.37906538563919
30
0
41
1
10
82.1643698587351
20
1.336528026438
30
0
41
1
10
82.1759696831742
20
1.31520032487916
30
0
41
1
10
82.1990707073672
20
1.27235766880898
30
0
41
1
10
82.2105559442006
20
1.25086388843317
30
0
41
1
10
82.2447920990897
20
1.18617958043794
30
0
41
1
10
82.2673263394727
20
1.1427770189232
30
0
41
1
10
82.3006480060069
20
1.0772793750279
30
0
41
1
10
82.3116771303415
20
1.05538346087823
30
0
41
1
10
82.3335687364577
20
1.01146800045583
30
0
41
1
10
82.344429014602
20
0.989445815708564
30
0
41
1
10
82.3766655845606
20
0.923119333683132
30
0
41
1
10
82.3976843418323
20
0.878537654531812
30
0
41
1
10
82.438348966204
20
0.788423112904269
30
0
41
1
10
82.4580080300145
20
0.742902608576287
30
0
41
1
10
82.4954181477506
20
0.650693471508703
30
0
41
1
10
82.5131725088559
20
0.603954680996594
30
0
41
1
10
82.5455366606471
20
0.508813714879778
30
0
41
1
10
82.5599373552324
20
0.460962521412142
30
0
41
1
10
82.5779794232108
20
0.388545614646262
30
0
41
1
10
82.5834043283226
20
0.364299828301739
30
0
41
1
10
82.5928608631357
20
0.315551970987798
30
0
41
1
10
82.5968834529322
20
0.291049402896675
30
0
41
1
10
82.6016171684872
20
0.254064738293266
30
0
41
1
10
82.6029781887017
20
0.241698025029621
30
0
41
1
10
82.6052253691241
20
0.216881335408118
30
0
41
1
10
82.6061091191837
20
0.204435180648858
30
0
41
1
10
82.6079808479932
20
0.167366300047632
30
0
41
1
10
82.6084229098219
20
0.118400961786818
30
0
41
1
10
82.6047783599321
20
0.0703701882897576
30
0
41
1
10
82.599193914918
20
0.0228016171944887
30
0
41
1
10
82.5954296872589
20
-0.0007499121397245
30
0
41
1
10
82.5862022362728
20
-0.0474452550569708
30
0
41
1
10
82.5807197037262
20
-0.0706762112179149
30
0
41
1
10
82.5684612797002
20
-0.116115064905841
30
0
41
1
10
82.5616848756854
20
-0.138385476555356
30
0
41
1
10
82.5397279636447
20
-0.203938474320097
30
0
41
1
10
82.5229026460024
20
-0.245914677447956
30
0
41
1
10
82.4862781019385
20
-0.326924246468792
30
0
41
1
10
82.4664797556342
20
-0.365966678579838
30
0
41
1
10
82.4247500278386
20
-0.441360425772785
30
0
41
1
10
82.4031302220636
20
-0.477151472590236
30
0
41
1
10
82.3589523805655
20
-0.545077756250492
30
0
41
1
10
82.3363847495392
20
-0.577230928211833
30
0
41
1
10
82.290622765467
20
-0.63836206402803
30
0
41
1
10
82.267427682441
20
-0.667354190215917
30
0
41
1
10
82.2322883326926
20
-0.708697329229778
30
0
41
1
10
82.2205163350876
20
-0.722118949397299
30
0
41
1
10
82.1968647069901
20
-0.748258072874108
30
0
41
1
10
82.1849647010391
20
-0.760993261241822
30
0
41
1
10
82.125648766372
20
-0.822464387029413
30
0
41
1
10
82.0785403615625
20
-0.865034952373549
30
0
41
1
10
81.98493117392
20
-0.937621604569131
30
0
41
1
10
81.9384199789761
20
-0.967657641972892
30
0
41
1
10
81.8688263919276
20
-1.00387955910173
30
0
41
1
10
81.8455834540257
20
-1.01446015461261
30
0
41
1
10
81.7996981192599
20
-1.03241199080202
30
0
41
1
10
81.777003917381
20
-1.03983196660835
30
0
41
1
10
81.732009434042
20
-1.05185734856369
30
0
41
1
10
81.7096994968999
20
-1.05652077898171
30
0
41
1
10
81.6654805382526
20
-1.06272449644075
30
0
41
1
10
81.6435959823901
20
-1.06411102027422
30
0
41
1
10
81.6000250024128
20
-1.06464196593464
30
0
41
1
10
81.5783249584538
20
-1.06386138567498
30
0
41
1
10
81.5347739225355
20
-1.06217749910093
30
0
41
1
10
81.5129161374306
20
-1.06133189219824
30
0
41
1
10
81.4470052818243
20
-1.05965465490391
30
0
41
1
10
81.4026777232042
20
-1.05930599502514
30
0
41
1
10
81.335833141608
20
-1.05921940511016
30
0
41
1
10
81.313495724754
20
-1.05923226472171
30
0
41
1
10
81.2687030391821
20
-1.05949822187066
30
0
41
1
10
81.2462432898618
20
-1.05978411672433
30
0
41
1
10
81.1786074697183
20
-1.06185247049683
30
0
41
1
10
81.1331980657467
20
-1.06492551135577
30
0
41
1
10
81.0647964624837
20
-1.07190492978177
30
0
41
1
10
81.0419467157188
20
-1.07459170049526
30
0
41
1
10
80.9961799815683
20
-1.08041439636071
30
0
41
1
10
80.9732619146688
20
-1.08356098972581
30
0
41
1
10
80.904394102925
20
-1.09402180178563
30
0
41
1
10
80.8583377557238
20
-1.10223782599857
30
0
41
1
10
80.7889194169287
20
-1.11903776452658
30
0
41
1
10
80.7657253492853
20
-1.12537356944617
30
0
41
1
10
80.7192207834523
20
-1.13976960715482
30
0
41
1
10
80.6959078771851
20
-1.1478693664848
30
0
41
1
10
80.6258209232785
20
-1.17448443427819
30
0
41
1
10
80.5788998732166
20
-1.19531009876815
30
0
41
1
10
80.5319049212652
20
-1.21734677590874
30
0
0
SPLINE
5
BE
100
AcDbEntity
8
1
62
256
6
ByLayer
370
18
48
1
60
0
100
AcDbSpline
70
4
71
3
72
76
73
72
40
0
40
0
40
0
40
0
40
0.0369467230060588
40
0.0369467230060588
40
0.0738934460121175
40
0.0738934460121175
40
0.110840169018176
40
0.110840169018176
40
0.129313530521206
40
0.129313530521206
40
0.147786892024235
40
0.147786892024235
40
0.184733615030294
40
0.184733615030294
40
0.221680338036353
40
0.221680338036353
40
0.258627061042411
40
0.258627061042411
40
0.277100422545441
40
0.277100422545441
40
0.29557378404847
40
0.29557378404847
40
0.332520507054531
40
0.332520507054531
40
0.369467230060592
40
0.369467230060592
40
0.387940591563621
40
0.387940591563621
40
0.406413953066651
40
0.406413953066651
40
0.443360676072707
40
0.443360676072707
40
0.461834037575736
40
0.461834037575736
40
0.480307399078764
40
0.480307399078764
40
0.517254122084821
40
0.517254122084821
40
0.554200845090878
40
0.554200845090878
40
0.591147568096934
40
0.591147568096934
40
0.609620929599962
40
0.609620929599962
40
0.628094291102989
40
0.628094291102989
40
0.665041014109041
40
0.665041014109041
40
0.701987737115094
40
0.701987737115094
40
0.738934460121147
40
0.738934460121147
40
0.757407821624172
40
0.757407821624172
40
0.775881183127197
40
0.775881183127197
40
0.812827906133247
40
0.812827906133247
40
0.849774629139298
40
0.849774629139298
40
0.886721352145348
40
0.886721352145348
40
0.923668075151398
40
0.923668075151398
40
0.942141436654425
40
0.942141436654425
40
0.960614798157451
40
0.960614798157451
40
0.997561521163501
40
0.997561521163501
40
1
40
1
40
1
40
1
41
1
10
80.5319049212654
20
-1.21734677590888
30
0
41
1
10
80.343444286418
20
-1.11674593216216
30
0
41
1
10
80.1554009463961
20
-1.01566054797365
30
0
41
1
10
79.7804066329633
20
-0.812027279085129
30
0
41
1
10
79.5934665648759
20
-0.709460479121731
30
0
41
1
10
79.2201042058364
20
-0.503939451615423
30
0
41
1
10
79.0336016595158
20
-0.401134045681061
30
0
41
1
10
78.7541095741111
20
-0.246862623688344
30
0
41
1
10
78.6609963753033
20
-0.19541490952173
30
0
41
1
10
78.4749111923198
20
-0.0923983202077352
30
0
41
1
10
78.3819449901483
20
-0.0408188222813237
30
0
41
1
10
78.1031829309011
20
0.113961237532266
30
0
41
1
10
77.9175254461418
20
0.217206077929518
30
0
41
1
10
77.5459135894623
20
0.422591596775334
30
0
41
1
10
77.3599913812948
20
0.524792850225339
30
0
41
1
10
76.9881493041057
20
0.728643334115986
30
0
41
1
10
76.8022913411344
20
0.830404453895056
30
0
41
1
10
76.5232258024342
20
0.982114822326707
30
0
41
1
10
76.4301523360601
20
1.03252037128263
30
0
41
1
10
76.2438124211959
20
1.13283968227779
30
0
41
1
10
76.1505500918528
20
1.18276100161174
30
0
41
1
10
75.8705168883602
20
1.33186601093283
30
0
41
1
10
75.6835145325468
20
1.43041786232064
30
0
41
1
10
75.3090459535368
20
1.62610250163428
30
0
41
1
10
75.1215330299949
20
1.72314989781194
30
0
41
1
10
74.8393389147888
20
1.86661530018196
30
0
41
1
10
74.74503988078
20
1.91411385986495
30
0
41
1
10
74.5567627700335
20
2.00811443700766
30
0
41
1
10
74.4627321137458
20
2.05464213541077
30
0
41
1
10
74.1810105131525
20
2.19290378572262
30
0
41
1
10
73.9937568735095
20
2.28342666190127
30
0
41
1
10
73.713460534964
20
2.41631857018604
30
0
41
1
10
73.6201178356371
20
2.46012104169304
30
0
41
1
10
73.433519779466
20
2.54660030995771
30
0
41
1
10
73.3402568494485
20
2.58926597146399
30
0
41
1
10
73.0605880392813
20
2.71557849234185
30
0
41
1
10
72.874303268539
20
2.79754839772929
30
0
41
1
10
72.5023188091199
20
2.95741009739217
30
0
41
1
10
72.3165976504026
20
3.03525799111054
30
0
41
1
10
71.9450749917558
20
3.18592201792382
30
0
41
1
10
71.7592017392286
20
3.25865189242387
30
0
41
1
10
71.4802936855103
20
3.36396478993012
30
0
41
1
10
71.3873129250678
20
3.39844444534236
30
0
41
1
10
71.2013686509536
20
3.4661973777495
30
0
41
1
10
71.1084034934509
20
3.49946787072548
30
0
41
1
10
70.8294282562297
20
3.59732791566674
30
0
41
1
10
70.6433306448882
20
3.65995200451709
30
0
41
1
10
70.2703000376468
20
3.77928207987105
30
0
41
1
10
70.0834153108297
20
3.83605335533622
30
0
41
1
10
69.7091560382007
20
3.94401705133501
30
0
41
1
10
69.5218205215502
20
3.99523540057984
30
0
41
1
10
69.2400731077155
20
4.06743038975296
30
0
41
1
10
69.146026273156
20
4.09071813169533
30
0
41
1
10
68.9576008044661
20
4.13567588144366
30
0
41
1
10
68.8634032505427
20
4.1573116489547
30
0
41
1
10
68.5812682481555
20
4.21965415673176
30
0
41
1
10
68.3936606107781
20
4.25786531616748
30
0
41
1
10
68.0194626916171
20
4.32766339427411
30
0
41
1
10
67.8328217844854
20
4.35920170838722
30
0
41
1
10
67.4597752694062
20
4.41526469215702
30
0
41
1
10
67.2733845960969
20
4.43981625582563
30
0
41
1
10
66.901086673712
20
4.48213097792393
30
0
41
1
10
66.7152497379928
20
4.49990691025909
30
0
41
1
10
66.436626000167
20
4.52136623272082
30
0
41
1
10
66.3437675424641
20
4.52765104306707
30
0
41
1
10
66.1579902695389
20
4.53847132439142
30
0
41
1
10
66.0650702596886
20
4.54300773141748
30
0
41
1
10
65.7862466825313
20
4.55401489498138
30
0
41
1
10
65.6002844814234
20
4.55789098100612
30
0
41
1
10
65.4020812739162
20
4.55831077050573
30
0
41
1
10
65.3898097668205
20
4.55832151233233
30
0
41
1
10
65.3775381302537
20
4.55831700385562
30
0
0
SPLINE
5
BF
100
AcDbEntity
8
1
62
256
6
ByLayer
370
18
48
1
60
0
100
AcDbSpline
70
4
71
3
72
156
73
152
40
0
40
0
40
0
40
0
40
0.0074048563398508
40
0.0074048563398508
40
0.0247058944895627
40
0.0247058944895627
40
0.0420069326392747
40
0.0420069326392747
40
0.0593079707889869
40
0.0593079707889869
40
0.0679584898638429
40
0.0679584898638429
40
0.0766090089386989
40
0.0766090089386989
40
0.0939100470884109
40
0.0939100470884109
40
0.111211085238123
40
0.111211085238123
40
0.128512123387835
40
0.128512123387835
40
0.137162642462691
40
0.137162642462691
40
0.145813161537547
40
0.145813161537547
40
0.163114199687258
40
0.163114199687258
40
0.180415237836969
40
0.180415237836969
40
0.189065756911825
40
0.189065756911825
40
0.197716275986681
40
0.197716275986681
40
0.215017314136393
40
0.215017314136393
40
0.223667833211249
40
0.223667833211249
40
0.232318352286105
40
0.232318352286105
40
0.249619390435816
40
0.249619390435816
40
0.266920428585527
40
0.266920428585527
40
0.284221466735238
40
0.284221466735238
40
0.292871985810094
40
0.292871985810094
40
0.30152250488495
40
0.30152250488495
40
0.318823543034662
40
0.318823543034662
40
0.336124581184373
40
0.336124581184373
40
0.353425619334086
40
0.353425619334086
40
0.362076138408941
40
0.362076138408941
40
0.370726657483798
40
0.370726657483798
40
0.379377176558653
40
0.379377176558653
40
0.388027695633509
40
0.388027695633509
40
0.405328733783222
40
0.405328733783222
40
0.422629771932935
40
0.422629771932935
40
0.439930810082648
40
0.439930810082648
40
0.448581329157505
40
0.448581329157505
40
0.457231848232362
40
0.457231848232362
40
0.474532886382075
40
0.474532886382075
40
0.491833924531788
40
0.491833924531788
40
0.509134962681501
40
0.509134962681501
40
0.526436000831214
40
0.526436000831214
40
0.53508651990607
40
0.53508651990607
40
0.543737038980926
40
0.543737038980926
40
0.552387558055782
40
0.552387558055782
40
0.561038077130638
40
0.561038077130638
40
0.578339115280351
40
0.578339115280351
40
0.595640153430064
40
0.595640153430064
40
0.604290672504921
40
0.604290672504921
40
0.612941191579777
40
0.612941191579777
40
0.63024222972949
40
0.63024222972949
40
0.647543267879203
40
0.647543267879203
40
0.664844306028916
40
0.664844306028916
40
0.682145344178629
40
0.682145344178629
40
0.699446382328342
40
0.699446382328342
40
0.716747420478055
40
0.716747420478055
40
0.721072680015483
40
0.721072680015483
40
0.725397939552912
40
0.725397939552912
40
0.73404845862777
40
0.73404845862777
40
0.751349496777487
40
0.751349496777487
40
0.760000015852346
40
0.760000015852346
40
0.768650534927204
40
0.768650534927204
40
0.785951573076922
40
0.785951573076922
40
0.80325261122664
40
0.80325261122664
40
0.820553649376358
40
0.820553649376358
40
0.837854687526076
40
0.837854687526076
40
0.855155725675794
40
0.855155725675794
40
0.872456763825512
40
0.872456763825512
40
0.88975780197523
40
0.88975780197523
40
0.898408321050089
40
0.898408321050089
40
0.907058840124948
40
0.907058840124948
40
0.915709359199807
40
0.915709359199807
40
0.924359878274666
40
0.924359878274666
40
0.941660916424385
40
0.941660916424385
40
0.958961954574104
40
0.958961954574104
40
0.976262992723823
40
0.976262992723823
40
0.993564030873542
40
0.993564030873542
40
1
40
1
40
1
40
1
41
1
10
46.0477259493792
20
-3.19221313509752
30
0
41
1
10
45.9672014508119
20
-3.22394686165347
30
0
41
1
10
45.8865468908381
20
-3.25522961081731
30
0
41
1
10
45.6173050293819
20
-3.35798417176019
30
0
41
1
10
45.4291908752178
20
-3.42705755347387
30
0
41
1
10
45.0540802196518
20
-3.55984763391194
30
0
41
1
10
44.8670701607293
20
-3.62352933101837
30
0
41
1
10
44.4935248568847
20
-3.74480103507304
30
0
41
1
10
44.3069155297824
20
-3.8023227796734
30
0
41
1
10
44.027299536228
20
-3.88407294775246
30
0
41
1
10
43.9341492108604
20
-3.91057217339494
30
0
41
1
10
43.7479991710299
20
-3.96210620479388
30
0
41
1
10
43.6549989430013
20
-3.98713948875866
30
0
41
1
10
43.3761219322087
20
-4.05993991639647
30
0
41
1
10
43.1903632107113
20
-4.10539620795734
30
0
41
1
10
42.8185438291962
20
-4.18969972013608
30
0
41
1
10
42.6325295498622
20
-4.22859880612211
30
0
41
1
10
42.2605438716841
20
-4.30006502984958
30
0
41
1
10
42.0746172744925
20
-4.33264576358812
30
0
41
1
10
41.7954125943214
20
-4.37649110451977
30
0
41
1
10
41.7022857300205
20
-4.390266533849
30
0
41
1
10
41.5158387110544
20
-4.41610343644533
30
0
41
1
10
41.4225262770446
20
-4.42816949974932
30
0
41
1
10
41.142353701728
20
-4.46182444178055
30
0
41
1
10
40.955286913216
20
-4.48088599992943
30
0
41
1
10
40.5806719793848
20
-4.51216720824073
30
0
41
1
10
40.393072737741
20
-4.52435580838647
30
0
41
1
10
40.1107200889734
20
-4.53728638797574
30
0
41
1
10
40.0163612419283
20
-4.54070965771632
30
0
41
1
10
39.8279160948565
20
-4.54576394602938
30
0
41
1
10
39.733806806647
20
-4.54739797000019
30
0
41
1
10
39.4518703130599
20
-4.5496424106725
30
0
41
1
10
39.2644973082163
20
-4.54758924145645
30
0
41
1
10
38.9839940019427
20
-4.53921785183931
30
0
41
1
10
38.890579309429
20
-4.53554663727741
30
0
41
1
10
38.7038300342324
20
-4.52647056539195
30
0
41
1
10
38.6104931376707
20
-4.52106725652439
30
0
41
1
10
38.3306238115098
20
-4.50228136356085
30
0
41
1
10
38.1442365025498
20
-4.48632864267853
30
0
41
1
10
37.7720714176669
20
-4.44750500613642
30
0
41
1
10
37.5862559870694
20
-4.42462966768292
30
0
41
1
10
37.2145146447383
20
-4.37223118922739
30
0
41
1
10
37.0285341640916
20
-4.3427497746033
30
0
41
1
10
36.749517906566
20
-4.29357857909505
30
0
41
1
10
36.6565099006916
20
-4.27635918212761
30
0
41
1
10
36.470518815264
20
-4.24023327667095
30
0
41
1
10
36.377529060821
20
-4.22133012725138
30
0
41
1
10
36.0984759543387
20
-4.1621530711314
30
0
41
1
10
35.9123054089857
20
-4.11942294191812
30
0
41
1
10
35.5391625926187
20
-4.0278233592602
30
0
41
1
10
35.352245189348
20
-3.97892486448634
30
0
41
1
10
34.9779850944188
20
-3.87461265587365
30
0
41
1
10
34.7906507379559
20
-3.81917251956423
30
0
41
1
10
34.508886741246
20
-3.73145914587045
30
0
41
1
10
34.4148286333805
20
-3.70147501667611
30
0
41
1
10
34.2263947309906
20
-3.64006137198288
30
0
41
1
10
34.1320180577997
20
-3.60861967906004
30
0
41
1
10
33.9436772809528
20
-3.54448338489684
30
0
41
1
10
33.8496270045189
20
-3.51176035972208
30
0
41
1
10
33.6618051947688
20
-3.44496146240939
30
0
41
1
10
33.5680382888128
20
-3.41087918232373
30
0
41
1
10
33.2870738580012
20
-3.30670614340173
30
0
41
1
10
33.100212911628
20
-3.23468436851283
30
0
41
1
10
32.7267359771816
20
-3.08641800340831
30
0
41
1
10
32.54015682397
20
-3.01013395777664
30
0
41
1
10
32.1675550023261
20
-2.85296800390827
30
0
41
1
10
31.9815889755707
20
-2.77199654043866
30
0
41
1
10
31.7027487469787
20
-2.64752143633925
30
0
41
1
10
31.6098147318881
20
-2.60553542972647
30
0
41
1
10
31.4238861905994
20
-2.52071042108216
30
0
41
1
10
31.3308977714259
20
-2.47786269620198
30
0
41
1
10
31.0518915431227
20
-2.34797208607097
30
0
41
1
10
30.8658517686951
20
-2.25955495640551
30
0
41
1
10
30.4938514596515
20
-2.07879964347705
30
0
41
1
10
30.307843454958
20
-1.98652946474644
30
0
41
1
10
29.9351443504071
20
-1.79930007137321
30
0
41
1
10
29.7484332060498
20
-1.70438497267244
30
0
41
1
10
29.3744888961782
20
-1.51159429810136
30
0
41
1
10
29.1873302550558
20
-1.41358037070134
30
0
41
1
10
28.9060391070553
20
-1.26456311009232
30
0
41
1
10
28.8121753790936
20
-1.21457240560517
30
0
41
1
10
28.6241559369095
20
-1.11412136817819
30
0
41
1
10
28.5299932515597
20
-1.0636747832678
30
0
41
1
10
28.3413725207201
20
-0.962317760427283
30
0
41
1
10
28.2470924727946
20
-0.911501704028211
30
0
41
1
10
28.0588645142594
20
-0.809668868845222
30
0
41
1
10
27.9648815883107
20
-0.758624336623939
30
0
41
1
10
27.6833578543064
20
-0.605044870011
30
0
41
1
10
27.496223265495
20
-0.502101508873693
30
0
41
1
10
27.1224194844691
20
-0.29628728986944
30
0
41
1
10
26.935684500953
20
-0.193538490841945
30
0
41
1
10
26.6559198998604
20
-0.0394765241723007
30
0
41
1
10
26.5627262235988
20
0.0118762480367991
30
0
41
1
10
26.3764983157943
20
0.114648183922157
30
0
41
1
10
26.2834594017608
20
0.166058478821554
30
0
41
1
10
26.0044665798259
20
0.320173417075239
30
0
41
1
10
25.8186216443486
20
0.422733574976121
30
0
41
1
10
25.4466548179276
20
0.626429998273068
30
0
41
1
10
25.26058509545
20
0.727664455860946
30
0
41
1
10
24.8885372322955
20
0.929387887753933
30
0
41
1
10
24.7025868598661
20
1.02992513494246
30
0
41
1
10
24.3302553514955
20
1.22929371446634
30
0
41
1
10
24.1437936204524
20
1.32798100045878
30
0
41
1
10
23.7702165551626
20
1.52325299332239
30
0
41
1
10
23.5831732834427
20
1.61996686546846
30
0
41
1
10
23.2086071027999
20
1.81158559364926
30
0
41
1
10
23.021030381378
20
1.90639303469777
30
0
41
1
10
22.7857670027615
20
2.02289463718552
30
0
41
1
10
22.7386765909218
20
2.04609797688147
30
0
41
1
10
22.6444227176015
20
2.09231487209397
30
0
41
1
10
22.5972375763266
20
2.1153389229523
30
0
41
1
10
22.4557759547516
20
2.18403611008429
30
0
41
1
10
22.3615868757192
20
2.22933680771894
30
0
41
1
10
22.0794296127606
20
2.36385220103415
30
0
41
1
10
21.8919281679803
20
2.45176879367028
30
0
41
1
10
21.6112213188971
20
2.58043532293033
30
0
41
1
10
21.5177377768966
20
2.62278142518434
30
0
41
1
10
21.3308496306244
20
2.70625834706164
30
0
41
1
10
21.2374481247421
20
2.74739482543248
30
0
41
1
10
20.957400524106
20
2.86906141269225
30
0
41
1
10
20.7709231702975
20
2.94787076711742
30
0
41
1
10
20.3985956862176
20
3.10115226114084
30
0
41
1
10
20.2127011901982
20
3.17554947368617
30
0
41
1
10
19.8407900097647
20
3.3189905777208
30
0
41
1
10
19.6547365255286
20
3.38800004120361
30
0
41
1
10
19.2826237524796
20
3.52086942045489
30
0
41
1
10
19.096639521674
20
3.5848120615311
30
0
41
1
10
18.7245186398156
20
3.70730722672528
30
0
41
1
10
18.5383118904968
20
3.76577924851037
30
0
41
1
10
18.1651377319539
20
3.87668750226911
30
0
41
1
10
17.9782277962139
20
3.9291939007019
30
0
41
1
10
17.6040290565714
20
4.02850254865845
30
0
41
1
10
17.4167289315661
20
4.07527987732641
30
0
41
1
10
17.1350116373649
20
4.14066108875073
30
0
41
1
10
17.0409668824536
20
4.16165002968648
30
0
41
1
10
16.852573944937
20
4.20199695703528
30
0
41
1
10
16.75815064441
20
4.22137462616129
30
0
41
1
10
16.5696356718349
20
4.25840258352702
30
0
41
1
10
16.4755046137231
20
4.27606375282272
30
0
41
1
10
16.2875346223652
20
4.30971315035694
30
0
41
1
10
16.1936952501462
20
4.3256998620281
30
0
41
1
10
15.9125137002689
20
4.37109033045212
30
0
41
1
10
15.7255013849627
20
4.39791339586026
30
0
41
1
10
15.3517447040528
20
4.44450598047368
30
0
41
1
10
15.1650465914951
20
4.46431412438471
30
0
41
1
10
14.7922622342448
20
4.49710190849356
30
0
41
1
10
14.6062173815745
20
4.51007648485913
30
0
41
1
10
14.2342591610062
20
4.5290402183947
30
0
41
1
10
14.0482641500319
20
4.53502487365228
30
0
41
1
10
13.7929817542218
20
4.53848324175337
30
0
41
1
10
13.7237651414536
20
4.53894260591235
30
0
41
1
10
13.6545506119031
20
4.53892191903691
30
0
0
SPLINE
5
C0
100
AcDbEntity
8
1
62
256
6
ByLayer
370
18
48
1
60
0
100
AcDbSpline
70
4
71
3
72
164
73
160
40
0
40
0
40
0
40
0
40
0.0136526244682565
40
0.0136526244682565
40
0.0290618946846319
40
0.0290618946846319
40
0.036766529792819
40
0.036766529792819
40
0.0444711649010062
40
0.0444711649010062
40
0.0598804351173816
40
0.0598804351173816
40
0.075289705333757
40
0.075289705333757
40
0.0906989755501324
40
0.0906989755501324
40
0.106108245766508
40
0.106108245766508
40
0.121517515982883
40
0.121517515982883
40
0.136926786199258
40
0.136926786199258
40
0.152336056415634
40
0.152336056415634
40
0.167745326632009
40
0.167745326632009
40
0.183154596848385
40
0.183154596848385
40
0.190859231956573
40
0.190859231956573
40
0.198563867064761
40
0.198563867064761
40
0.206268502172949
40
0.206268502172949
40
0.213973137281137
40
0.213973137281137
40
0.229382407497514
40
0.229382407497514
40
0.24479167771389
40
0.24479167771389
40
0.260200947930266
40
0.260200947930266
40
0.275610218146643
40
0.275610218146643
40
0.291019488363019
40
0.291019488363019
40
0.306428758579396
40
0.306428758579396
40
0.321838028795772
40
0.321838028795772
40
0.337247299012148
40
0.337247299012148
40
0.352656569228525
40
0.352656569228525
40
0.368065839444901
40
0.368065839444901
40
0.383475109661277
40
0.383475109661277
40
0.391179744769465
40
0.391179744769465
40
0.398884379877654
40
0.398884379877654
40
0.414293650094029
40
0.414293650094029
40
0.429702920310405
40
0.429702920310405
40
0.437407555418592
40
0.437407555418592
40
0.44511219052678
40
0.44511219052678
40
0.460521460743155
40
0.460521460743155
40
0.47593073095953
40
0.47593073095953
40
0.491340001175906
40
0.491340001175906
40
0.506749271392281
40
0.506749271392281
40
0.522158541608656
40
0.522158541608656
40
0.537567811825032
40
0.537567811825032
40
0.552977082041407
40
0.552977082041407
40
0.568386352257782
40
0.568386352257782
40
0.57609098736597
40
0.57609098736597
40
0.583795622474158
40
0.583795622474158
40
0.591500257582345
40
0.591500257582345
40
0.599204892690533
40
0.599204892690533
40
0.614614162906909
40
0.614614162906909
40
0.630023433123286
40
0.630023433123286
40
0.637728068231473
40
0.637728068231473
40
0.645432703339661
40
0.645432703339661
40
0.660841973556035
40
0.660841973556035
40
0.67625124377241
40
0.67625124377241
40
0.691660513988784
40
0.691660513988784
40
0.707069784205158
40
0.707069784205158
40
0.722479054421533
40
0.722479054421533
40
0.737888324637907
40
0.737888324637907
40
0.745592959746094
40
0.745592959746094
40
0.75329759485428
40
0.75329759485428
40
0.768706865070653
40
0.768706865070653
40
0.784116135287025
40
0.784116135287025
40
0.791820770395211
40
0.791820770395211
40
0.799525405503397
40
0.799525405503397
40
0.814934675719769
40
0.814934675719769
40
0.83034394593614
40
0.83034394593614
40
0.838048581044326
40
0.838048581044326
40
0.845753216152512
40
0.845753216152512
40
0.861162486368883
40
0.861162486368883
40
0.876571756585254
40
0.876571756585254
40
0.88427639169344
40
0.88427639169344
40
0.891981026801626
40
0.891981026801626
40
0.907390297017997
40
0.907390297017997
40
0.922799567234369
40
0.922799567234369
40
0.930504202342554
40
0.930504202342554
40
0.938208837450739
40
0.938208837450739
40
0.953618107667109
40
0.953618107667109
40
0.969027377883478
40
0.969027377883478
40
0.984436648099847
40
0.984436648099847
40
0.999845918316217
40
0.999845918316217
40
1
40
1
40
1
40
1
41
1
10
20.178514152361
20
3.18020898177829
30
0
41
1
10
20.3265107771697
20
3.23835571137971
30
0
41
1
10
20.4746276006505
20
3.29504628740585
30
0
41
1
10
20.7900508832917
20
3.41274128061949
30
0
41
1
10
20.9574099490003
20
3.47330821775583
30
0
41
1
10
21.2090746958081
20
3.5608146498374
30
0
41
1
10
21.2931285730138
20
3.58944934782477
30
0
41
1
10
21.4611170866217
20
3.64544199900001
30
0
41
1
10
21.5450397823257
20
3.67280919262498
30
0
41
1
10
21.7965218769962
20
3.75312677698687
30
0
41
1
10
21.9637749988955
20
3.80431756344848
30
0
41
1
10
22.2973975654295
20
3.90207602644523
30
0
41
1
10
22.4638281635366
20
3.94856978605461
30
0
41
1
10
22.7964942820973
20
4.03630797454619
30
0
41
1
10
22.9627784510554
20
4.07752378679672
30
0
41
1
10
23.2950009746085
20
4.15494143225308
30
0
41
1
10
23.4608957685295
20
4.1911727301692
30
0
41
1
10
23.7922636014376
20
4.25862966541132
30
0
41
1
10
23.9578080831132
20
4.28979749623255
30
0
41
1
10
24.2891457285223
20
4.34671314089306
30
0
41
1
10
24.4549761150926
20
4.37245469276354
30
0
41
1
10
24.7866344346748
20
4.41870554423832
30
0
41
1
10
24.9524269707032
20
4.43922370568905
30
0
41
1
10
25.2840526465856
20
4.47491431245487
30
0
41
1
10
25.4499585348215
20
4.49005328904485
30
0
41
1
10
25.7824647168396
20
4.51476736184273
30
0
41
1
10
25.9490789236453
20
4.52435482416561
30
0
41
1
10
26.1992760851344
20
4.53461856722458
30
0
41
1
10
26.2827247053136
20
4.53735111980481
30
0
41
1
10
26.4497041390022
20
4.54142444327263
30
0
41
1
10
26.5332334724886
20
4.54276438858844
30
0
41
1
10
26.7004531433807
20
4.5440307827657
30
0
41
1
10
26.7841450089529
20
4.54395731038596
30
0
41
1
10
26.9517604691103
20
4.54239106403566
30
0
41
1
10
27.0357224931854
20
4.54089729761077
30
0
41
1
10
27.2877726242865
20
4.53429993859643
30
0
41
1
10
27.4555234129155
20
4.52710402463055
30
0
41
1
10
27.7901379647565
20
4.50714665802028
30
0
41
1
10
27.956961208095
20
4.49436323220846
30
0
41
1
10
28.2900170518118
20
4.46328581546547
30
0
41
1
10
28.4563043964759
20
4.44500912177804
30
0
41
1
10
28.7888105598984
20
4.40323688513033
30
0
41
1
10
28.9549671683471
20
4.37972694910124
30
0
41
1
10
29.2867922363839
20
4.32733819398078
30
0
41
1
10
29.4524197252292
20
4.29842397134212
30
0
41
1
10
29.7835856460773
20
4.23540624027109
30
0
41
1
10
29.9491694961157
20
4.20133463274104
30
0
41
1
10
30.2806536285724
20
4.12834673281557
30
0
41
1
10
30.4464777110645
20
4.0893838446751
30
0
41
1
10
30.7780281872946
20
4.00628213767507
30
0
41
1
10
30.9437188967123
20
3.96209896971749
30
0
41
1
10
31.2754971570464
20
3.86891243133769
30
0
41
1
10
31.4416246334069
20
3.81995287314868
30
0
41
1
10
31.7745733254653
20
3.71754739753754
30
0
41
1
10
31.9413128009971
20
3.6640233323489
30
0
41
1
10
32.2751029152316
20
3.55200655830922
30
0
41
1
10
32.4421369203193
20
3.49347916155415
30
0
41
1
10
32.6933559788161
20
3.40239927292717
30
0
41
1
10
32.7772048069965
20
3.37149018941724
30
0
41
1
10
32.9451770150523
20
3.30864658945782
30
0
41
1
10
33.0292152644974
20
3.27674995902515
30
0
41
1
10
33.2809093462146
20
3.17974635489642
30
0
41
1
10
33.4483306024319
20
3.11322653668989
30
0
41
1
10
33.7822401940522
20
2.97623765338503
30
0
41
1
10
33.9487495082344
20
2.90579129001904
30
0
41
1
10
34.1983023416676
20
2.79787157031973
30
0
41
1
10
34.2814490494532
20
2.76152068561152
30
0
41
1
10
34.4477184909122
20
2.68814717558831
30
0
41
1
10
34.5308353455382
20
2.65111614512369
30
0
41
1
10
34.7800585240861
20
2.53888524305839
30
0
41
1
10
34.9460189424726
20
2.46252032741811
30
0
41
1
10
35.2774343660286
20
2.30648682425931
30
0
41
1
10
35.4429396680276
20
2.22689178032249
30
0
41
1
10
35.7741194131299
20
2.06547329215593
30
0
41
1
10
35.9398427621923
20
1.98373593703195
30
0
41
1
10
36.2713738868239
20
1.817926665453
30
0
41
1
10
36.4371301483997
20
1.73376710916602
30
0
41
1
10
36.768572063457
20
1.56281267624161
30
0
41
1
10
36.934323983856
20
1.47612734705495
30
0
41
1
10
37.2664439922233
20
1.30130788570733
30
0
41
1
10
37.4328578952143
20
1.21326256658395
30
0
41
1
10
37.7661176105616
20
1.03540342101402
30
0
41
1
10
37.9329228018753
20
0.945512332994241
30
0
41
1
10
38.2669384378867
20
0.763849666476091
30
0
41
1
10
38.4342218698279
20
0.672211532876162
30
0
41
1
10
38.6859510051163
20
0.534277730629839
30
0
41
1
10
38.7700368660455
20
0.48821054107799
30
0
41
1
10
38.9379162882323
20
0.396167611351473
30
0
41
1
10
39.0217683601977
20
0.350151226796641
30
0
41
1
10
39.1892568455095
20
0.258048318642579
30
0
41
1
10
39.2728954275921
20
0.211966044189808
30
0
41
1
10
39.4399429550571
20
0.119704718696511
30
0
41
1
10
39.5233472862314
20
0.0735170454526042
30
0
41
1
10
39.7733186297953
20
-0.0649937973698798
30
0
41
1
10
39.939659794155
20
-0.15723364310702
30
0
41
1
10
40.2722287506813
20
-0.340591251014899
30
0
41
1
10
40.4384475529422
20
-0.431729699286734
30
0
41
1
10
40.6874153183273
20
-0.568123942834234
30
0
41
1
10
40.7703485105417
20
-0.613528565490128
30
0
41
1
10
40.9360863160323
20
-0.70424630129699
30
0
41
1
10
41.0188945518476
20
-0.749552549380297
30
0
41
1
10
41.2672581820192
20
-0.885090871040859
30
0
41
1
10
41.4327667464239
20
-0.974915747469112
30
0
41
1
10
41.7640981001822
20
-1.152700508717
30
0
41
1
10
41.9298766813432
20
-1.24074317245325
30
0
41
1
10
42.26133785336
20
-1.41570155681595
30
0
41
1
10
42.4269796934662
20
-1.50268621833652
30
0
41
1
10
42.7584973998835
20
-1.67492470422093
30
0
41
1
10
42.9244252782794
20
-1.76008790651886
30
0
41
1
10
43.2570050650037
20
-1.92784131937924
30
0
41
1
10
43.4235894221565
20
-2.01055056855401
30
0
41
1
10
43.7570646862926
20
-2.17410041939533
30
0
41
1
10
43.9239165530272
20
-2.25500328689051
30
0
41
1
10
44.1747530482279
20
-2.3743797954566
30
0
41
1
10
44.2584628851812
20
-2.41383510786869
30
0
41
1
10
44.4261344698414
20
-2.49197786368038
30
0
41
1
10
44.5101709845424
20
-2.53068370201234
30
0
41
1
10
44.7621131530322
20
-2.64538775189675
30
0
41
1
10
44.9297236356929
20
-2.7200014059718
30
0
41
1
10
45.2640062681469
20
-2.86592456439203
30
0
41
1
10
45.4306500211515
20
-2.93726343119684
30
0
41
1
10
45.6803172885503
20
-3.04119366438309
30
0
41
1
10
45.7634893536877
20
-3.07532649318702
30
0
41
1
10
45.929790798207
20
-3.14250184539407
30
0
41
1
10
46.0129266947236
20
-3.175536180954
30
0
41
1
10
46.2622302037789
20
-3.27307712523955
30
0
41
1
10
46.4282698762545
20
-3.33605662388814
30
0
41
1
10
46.7598174880395
20
-3.45817459283873
30
0
41
1
10
46.9253231556794
20
-3.51730344166327
30
0
41
1
10
47.1736387723291
20
-3.60255176487357
30
0
41
1
10
47.2564170303193
20
-3.6303988072508
30
0
41
1
10
47.4220425452825
20
-3.6848998605536
30
0
41
1
10
47.5048894443248
20
-3.71155505873625
30
0
41
1
10
47.753457999179
20
-3.78982308015242
30
0
41
1
10
47.9191902356937
20
-3.83975921026385
30
0
41
1
10
48.2505206236334
20
-3.93526881428488
30
0
41
1
10
48.4161492769781
20
-3.98080113070802
30
0
41
1
10
48.6649889216353
20
-4.0453304057109
30
0
41
1
10
48.7479995997325
20
-4.06621523734538
30
0
41
1
10
48.9141956905528
20
-4.10670048593724
30
0
41
1
10
48.9973743318753
20
-4.126307241364
30
0
41
1
10
49.2470777526383
20
-4.18327904034072
30
0
41
1
10
49.4137503977013
20
-4.218812797993
30
0
41
1
10
49.7474015509343
20
-4.28496318716103
30
0
41
1
10
49.9144361145219
20
-4.31553045916314
30
0
41
1
10
50.1657296803685
20
-4.35730852189494
30
0
41
1
10
50.2496227117706
20
-4.37055686686048
30
0
41
1
10
50.4176643509557
20
-4.39568703116936
30
0
41
1
10
50.5016046035834
20
-4.40754351349793
30
0
41
1
10
50.753112585415
20
-4.44104202581144
30
0
41
1
10
50.92034510639
20
-4.46062365199217
30
0
41
1
10
51.2539287482723
20
-4.49428523428369
30
0
41
1
10
51.4203501797188
20
-4.5083302273471
30
0
41
1
10
51.752995695985
20
-4.53077286533465
30
0
41
1
10
51.9192596364345
20
-4.53917800166249
30
0
41
1
10
52.2513548350815
20
-4.55048985198667
30
0
41
1
10
52.4171500813743
20
-4.55339257829729
30
0
41
1
10
52.5843992766125
20
-4.55351923641848
30
0
41
1
10
52.5860550790456
20
-4.55352021192726
30
0
41
1
10
52.587710868773
20
-4.55352090903023
30
0
0
SPLINE
5
C1
100
AcDbEntity
8
1
62
256
6
ByLayer
370
18
48
1
60
0
100
AcDbSpline
70
4
71
3
72
48
73
44
40
0
40
0
40
0
40
0
40
0.0134632915283146
40
0.0134632915283146
40
0.0714948626148893
40
0.0714948626148893
40
0.129526433701465
40
0.129526433701465
40
0.187558004788039
40
0.187558004788039
40
0.245589575874615
40
0.245589575874615
40
0.303621146961189
40
0.303621146961189
40
0.332636932504475
40
0.332636932504475
40
0.36165271804776
40
0.36165271804776
40
0.419684289134331
40
0.419684289134331
40
0.477715860220902
40
0.477715860220902
40
0.506731645764186
40
0.506731645764186
40
0.535747431307469
40
0.535747431307469
40
0.593779002394037
40
0.593779002394037
40
0.651810573480604
40
0.651810573480604
40
0.709842144567171
40
0.709842144567171
40
0.767873715653739
40
0.767873715653739
40
0.825905286740307
40
0.825905286740307
40
0.854921072283591
40
0.854921072283591
40
0.883936857826874
40
0.883936857826874
40
0.941968428913438
40
0.941968428913438
40
1
40
1
40
1
40
1
41
1
10
71.9198961566069
20
3.19908441716626
30
0
41
1
10
71.9584056022655
20
3.21429024299158
30
0
41
1
10
71.9969313179154
20
3.22938620845022
30
0
41
1
10
72.2016138718158
20
3.3089537215711
30
0
41
1
10
72.3680164881147
20
3.3715545762268
30
0
41
1
10
72.701090329639
20
3.49308239588299
30
0
41
1
10
72.8677266955056
20
3.55204345576951
30
0
41
1
10
73.2017618396328
20
3.66561377741959
30
0
41
1
10
73.3692010363628
20
3.72017944065314
30
0
41
1
10
73.7051335406317
20
3.82462753668625
30
0
41
1
10
73.8728199099534
20
3.87437792161711
30
0
41
1
10
74.2071177664894
20
3.96910257636375
30
0
41
1
10
74.373762525688
20
4.01409110301657
30
0
41
1
10
74.6234363188687
20
4.07761064470674
30
0
41
1
10
74.7066097418914
20
4.09812719128505
30
0
41
1
10
74.8729124277975
20
4.13781375621213
30
0
41
1
10
74.956044737258
20
4.15698230074074
30
0
41
1
10
75.2053129480866
20
4.21253933901571
30
0
41
1
10
75.3713019954909
20
4.24699636355956
30
0
41
1
10
75.7027125393645
20
4.31086343868643
30
0
41
1
10
75.8681527932982
20
4.34024705641286
30
0
41
1
10
76.1163683843322
20
4.38023539432496
30
0
41
1
10
76.1991133155803
20
4.39288695468392
30
0
41
1
10
76.3646679704271
20
4.41681861438164
30
0
41
1
10
76.4474726736173
20
4.4281020312113
30
0
41
1
10
76.6958945317809
20
4.45994702058491
30
0
41
1
10
76.8615014019755
20
4.47851362258507
30
0
41
1
10
77.1925586161458
20
4.51030643627001
30
0
41
1
10
77.3580553790216
20
4.5235046976531
30
0
41
1
10
77.6895721369298
20
4.54432702841433
30
0
41
1
10
77.8556411053049
20
4.55195447998966
30
0
41
1
10
78.1882406262302
20
4.56168649697656
30
0
41
1
10
78.3547168147045
20
4.56379483039427
30
0
41
1
10
78.6879647779944
20
4.56238236575348
30
0
41
1
10
78.854801006313
20
4.55885057030099
30
0
41
1
10
79.1057902534972
20
4.54930581088811
30
0
41
1
10
79.1895794803779
20
4.54541908372877
30
0
41
1
10
79.3574106396031
20
4.53623641781385
30
0
41
1
10
79.4414427894051
20
4.53093897407774
30
0
41
1
10
79.6933268769902
20
4.51294146520797
30
0
41
1
10
79.8611055531803
20
4.49812107441534
30
0
41
1
10
80.1964274065604
20
4.46278688815065
30
0
41
1
10
80.3640482030621
20
4.44229071641391
30
0
41
1
10
80.5319049212654
20
4.4190862372856
30
0
0
SPLINE
5
C2
100
AcDbEntity
8
1
62
256
6
ByLayer
370
18
48
1
60
0
100
AcDbSpline
70
4
71
3
72
161
73
157
40
0
40
0
40
0
40
0
40
0.0107195885853739
40
0.0107195885853739
40
0.0193644241337612
40
0.0193644241337612
40
0.0280092596821485
40
0.0280092596821485
40
0.045298930778923
40
0.045298930778923
40
0.0625886018756975
40
0.0625886018756975
40
0.0798782729724721
40
0.0798782729724721
40
0.0885231085208593
40
0.0885231085208593
40
0.0971679440692466
40
0.0971679440692466
40
0.114457615166021
40
0.114457615166021
40
0.131747286262796
40
0.131747286262796
40
0.14903695735957
40
0.14903695735957
40
0.166326628456345
40
0.166326628456345
40
0.174971464004732
40
0.174971464004732
40
0.183616299553119
40
0.183616299553119
40
0.200905970649894
40
0.200905970649894
40
0.218195641746668
40
0.218195641746668
40
0.235485312843443
40
0.235485312843443
40
0.24413014839183
40
0.24413014839183
40
0.252774983940218
40
0.252774983940218
40
0.261419819488605
40
0.261419819488605
40
0.265742237262798
40
0.265742237262798
40
0.270064655036992
40
0.270064655036992
40
0.287354326133765
40
0.287354326133765
40
0.304643997230537
40
0.304643997230537
40
0.32193366832731
40
0.32193366832731
40
0.330578503875697
40
0.330578503875697
40
0.339223339424083
40
0.339223339424083
40
0.356513010520858
40
0.356513010520858
40
0.373802681617633
40
0.373802681617633
40
0.391092352714407
40
0.391092352714407
40
0.399737188262794
40
0.399737188262794
40
0.408382023811181
40
0.408382023811181
40
0.425671694907954
40
0.425671694907954
40
0.442961366004728
40
0.442961366004728
40
0.451606201553114
40
0.451606201553114
40
0.460251037101501
40
0.460251037101501
40
0.477540708198273
40
0.477540708198273
40
0.48618554374666
40
0.48618554374666
40
0.494830379295047
40
0.494830379295047
40
0.512120050391819
40
0.512120050391819
40
0.529409721488592
40
0.529409721488592
40
0.546699392585365
40
0.546699392585365
40
0.555344228133752
40
0.555344228133752
40
0.563989063682138
40
0.563989063682138
40
0.581278734778911
40
0.581278734778911
40
0.598568405875684
40
0.598568405875684
40
0.615858076972456
40
0.615858076972456
40
0.624502912520842
40
0.624502912520842
40
0.628825330295035
40
0.628825330295035
40
0.633147748069228
40
0.641792583617613
40
0.641792583617613
40
0.650437419165998
40
0.650437419165998
40
0.667727090262769
40
0.667727090262769
40
0.68501676135954
40
0.68501676135954
40
0.70230643245631
40
0.70230643245631
40
0.710951268004696
40
0.710951268004696
40
0.719596103553081
40
0.719596103553081
40
0.736885774649852
40
0.736885774649852
40
0.754175445746622
40
0.754175445746622
40
0.771465116843393
40
0.771465116843393
40
0.788754787940163
40
0.788754787940163
40
0.797399623488548
40
0.797399623488548
40
0.806044459036933
40
0.806044459036933
40
0.823334130133702
40
0.823334130133702
40
0.840623801230472
40
0.840623801230472
40
0.857913472327242
40
0.857913472327242
40
0.866558307875626
40
0.866558307875626
40
0.875203143424011
40
0.875203143424011
40
0.892492814520782
40
0.892492814520782
40
0.909782485617553
40
0.909782485617553
40
0.927072156714323
40
0.927072156714323
40
0.935716992262709
40
0.935716992262709
40
0.944361827811095
40
0.944361827811095
40
0.961651498907867
40
0.961651498907867
40
0.978941170004638
40
0.978941170004638
40
0.987586005553023
40
0.987586005553023
40
0.996230841101409
40
0.996230841101409
40
1
40
1
40
1
40
1
41
1
10
71.9190222289287
20
-3.19534578573376
30
0
41
1
10
71.8038017076979
20
-3.24083271248838
30
0
41
1
10
71.6885449516869
20
-3.28533119022572
30
0
41
1
10
71.4802936855103
20
-3.36396478993012
30
0
41
1
10
71.3873129250678
20
-3.39844444534234
30
0
41
1
10
71.2013686509536
20
-3.46619737774947
30
0
41
1
10
71.1084034934509
20
-3.49946787072548
30
0
41
1
10
70.8294282562298
20
-3.59732791566671
30
0
41
1
10
70.6433306448881
20
-3.65995200451709
30
0
41
1
10
70.2703000376468
20
-3.77928207987105
30
0
41
1
10
70.0834153108297
20
-3.83605335533622
30
0
41
1
10
69.7091560382007
20
-3.94401705133501
30
0
41
1
10
69.5218205215502
20
-3.99523540057984
30
0
41
1
10
69.2400731077155
20
-4.06743038975296
30
0
41
1
10
69.146026273156
20
-4.09071813169533
30
0
41
1
10
68.9576008044661
20
-4.13567588144366
30
0
41
1
10
68.8634032505426
20
-4.1573116489547
30
0
41
1
10
68.5812682481555
20
-4.21965415673176
30
0
41
1
10
68.3936606107781
20
-4.25786531616748
30
0
41
1
10
68.019462691617
20
-4.32766339427411
30
0
41
1
10
67.8328217844854
20
-4.35920170838719
30
0
41
1
10
67.4597752694063
20
-4.41526469215702
30
0
41
1
10
67.2733845960969
20
-4.43981625582563
30
0
41
1
10
66.9010866737119
20
-4.48213097792393
30
0
41
1
10
66.7152497379928
20
-4.49990691025909
30
0
41
1
10
66.4366260001671
20
-4.52136623272082
30
0
41
1
10
66.3437675424641
20
-4.52765104306707
30
0
41
1
10
66.157990269539
20
-4.53847132439142
30
0
41
1
10
66.0650702596887
20
-4.54300773141748
30
0
41
1
10
65.7862466825314
20
-4.55401489498138
30
0
41
1
10
65.6002844814234
20
-4.55789098100612
30
0
41
1
10
65.228421006611
20
-4.55867857866397
30
0
41
1
10
65.042480776349
20
-4.55557171056444
30
0
41
1
10
64.6699400036543
20
-4.54234648946988
30
0
41
1
10
64.4832877535425
20
-4.53225127062612
30
0
41
1
10
64.2028574170571
20
-4.5118537347264
30
0
41
1
10
64.1093105355338
20
-4.50417614068104
30
0
41
1
10
63.9221024260019
20
-4.48703709581511
30
0
41
1
10
63.8284340613831
20
-4.47757681774451
30
0
41
1
10
63.6408989577957
20
-4.45687929673133
30
0
41
1
10
63.5470328072458
20
-4.44564156579847
30
0
41
1
10
63.4060175940699
20
-4.42747186663667
30
0
41
1
10
63.3589759682694
20
-4.42119685753926
30
0
41
1
10
63.264811053275
20
-4.40821373895517
30
0
41
1
10
63.2176691629831
20
-4.40150218878489
30
0
41
1
10
62.9821499362219
20
-4.36691252200603
30
0
41
1
10
62.7941498435696
20
-4.33593037600485
30
0
41
1
10
62.4192410482762
20
-4.26726858204879
30
0
41
1
10
62.2323311691628
20
-4.22957351369868
30
0
41
1
10
61.8589960065656
20
-4.14791427102284
30
0
41
1
10
61.6724924591952
20
-4.10401967707276
30
0
41
1
10
61.3930047845223
20
-4.03363808269557
30
0
41
1
10
61.2998931752787
20
-4.00941509913983
30
0
41
1
10
61.113811930426
20
-3.95940828151757
30
0
41
1
10
61.0208457959539
20
-3.93362038545163
30
0
41
1
10
60.7420724519092
20
-3.8539869310903
30
0
41
1
10
60.5563902324125
20
-3.79786534624262
30
0
41
1
10
60.1847114690298
20
-3.68024801257278
30
0
41
1
10
59.9987542737231
20
-3.61872591481529
30
0
41
1
10
59.6268465722101
20
-3.48998826155852
30
0
41
1
10
59.440951417645
20
-3.42269571537005
30
0
41
1
10
59.1618037946989
20
-3.31779398198688
30
0
41
1
10
59.0686983763722
20
-3.28217392482387
30
0
41
1
10
58.8822901715492
20
-3.20973969412657
30
0
41
1
10
58.7889935669786
20
-3.17291833870144
30
0
41
1
10
58.5088573782492
20
-3.06060055456862
30
0
41
1
10
58.3217920817892
20
-2.98322669505978
30
0
41
1
10
57.9471775738562
20
-2.82319335219122
30
0
41
1
10
57.7595795191084
20
-2.74059064993455
30
0
41
1
10
57.4772331499816
20
-2.61353535767452
30
0
41
1
10
57.3828979989874
20
-2.57063532290323
30
0
41
1
10
57.1945886483385
20
-2.48406634793369
30
0
41
1
10
57.1005434010207
20
-2.44036806539108
30
0
41
1
10
56.8187849303903
20
-2.30795689209111
30
0
41
1
10
56.6315147241959
20
-2.21781788640885
30
0
41
1
10
56.3511764941483
20
-2.08029178836787
30
0
41
1
10
56.2578177190432
20
-2.03407566698903
30
0
41
1
10
56.0711827999629
20
-1.94105398551713
30
0
41
1
10
55.9779008351629
20
-1.89425857462484
30
0
41
1
10
55.6981828051093
20
-1.75298901336848
30
0
41
1
10
55.5118754819296
20
-1.65763195478397
30
0
41
1
10
55.139852919393
20
-1.46413492854688
30
0
41
1
10
54.9541080689605
20
-1.36604189683462
30
0
41
1
10
54.5825193718093
20
-1.16827904198683
30
0
41
1
10
54.3966101669168
20
-1.0687290689923
30
0
41
1
10
54.1176675422379
20
-0.918244381294244
30
0
41
1
10
54.0246781983084
20
-0.867880857751004
30
0
41
1
10
53.838719869
20
-0.766679715244834
30
0
41
1
10
53.7457464668905
20
-0.715849862514318
30
0
41
1
10
53.4667426576029
20
-0.562852409174837
30
0
41
1
10
53.2806144337302
20
-0.460201413618279
30
0
41
1
10
52.9075301746686
20
-0.254662141177903
30
0
41
1
10
52.7206261216773
20
-0.151681293974065
30
0
41
1
10
52.3463511186653
20
0.0552061387353433
30
0
41
1
10
52.1590069012005
20
0.1591682255374
30
0
41
1
10
51.8772337005803
20
0.315058297264102
30
0
41
1
10
51.783175040812
20
0.366996660968113
30
0
41
1
10
51.641841396181
20
0.444781243708491
30
0
41
1
10
51.5946862504813
20
0.470695694517474
30
0
41
1
10
51.5004738215603
20
0.522401730569783
30
0
41
1
10
51.3592376233276
20
0.59981158791345
30
0
41
1
10
51.2182608298469
20
0.676802872524547
30
0
41
1
10
51.0305601502584
20
0.779162153734774
30
0
41
1
10
50.9368510832803
20
0.830206913729342
30
0
41
1
10
50.6560630589138
20
0.982777364188138
30
0
41
1
10
50.4693248042429
20
1.08373818353266
30
0
41
1
10
50.0960836164126
20
1.28296143228678
30
0
41
1
10
49.9096065129169
20
1.38127920731409
30
0
41
1
10
49.5371660969447
20
1.57576268397008
30
0
41
1
10
49.35126827795
20
1.672036976454
30
0
41
1
10
49.0725417525164
20
1.81435844550347
30
0
41
1
10
48.979647689209
20
1.86144201539957
30
0
41
1
10
48.7937972707225
20
1.95474412743798
30
0
41
1
10
48.700843666933
20
2.00096779446923
30
0
41
1
10
48.4219286998193
20
2.1384141056881
30
0
41
1
10
48.2359238674383
20
2.22843238216194
30
0
41
1
10
47.8639838986958
20
2.4055303500881
30
0
41
1
10
47.6780050552788
20
2.4925325683337
30
0
41
1
10
47.3053756751261
20
2.66240222242084
30
0
41
1
10
47.1186857670854
20
2.74521683539123
30
0
41
1
10
46.7447386095536
20
2.90687569239324
30
0
41
1
10
46.5575567166926
20
2.98582717149088
30
0
41
1
10
46.2762405208026
20
3.10105064947876
30
0
41
1
10
46.1823690804612
20
3.13891186550865
30
0
41
1
10
45.9943360511895
20
3.2134082145667
30
0
41
1
10
45.9001219732404
20
3.25004876106209
30
0
41
1
10
45.6173050293819
20
3.35798417176019
30
0
41
1
10
45.4291908752178
20
3.42705755347384
30
0
41
1
10
45.0540802196518
20
3.55984763391197
30
0
41
1
10
44.8670701607293
20
3.62352933101837
30
0
41
1
10
44.4935248568847
20
3.74480103507304
30
0
41
1
10
44.3069155297824
20
3.8023227796734
30
0
41
1
10
44.027299536228
20
3.88407294775246
30
0
41
1
10
43.9341492108603
20
3.91057217339494
30
0
41
1
10
43.7479991710298
20
3.96210620479391
30
0
41
1
10
43.6549989430013
20
3.98713948875866
30
0
41
1
10
43.3761219322086
20
4.0599399163965
30
0
41
1
10
43.1903632107113
20
4.10539620795734
30
0
41
1
10
42.8185438291963
20
4.18969972013608
30
0
41
1
10
42.6325295498621
20
4.22859880612211
30
0
41
1
10
42.260543871684
20
4.30006502984958
30
0
41
1
10
42.0746172744924
20
4.33264576358812
30
0
41
1
10
41.7954125943214
20
4.37649110451977
30
0
41
1
10
41.7022857300205
20
4.390266533849
30
0
41
1
10
41.5158387110544
20
4.41610343644533
30
0
41
1
10
41.4225262770446
20
4.42816949974932
30
0
41
1
10
41.142353701728
20
4.46182444178055
30
0
41
1
10
40.9552869132159
20
4.48088599992943
30
0
41
1
10
40.5806719793848
20
4.51216720824073
30
0
41
1
10
40.393072737741
20
4.52435580838647
30
0
41
1
10
40.1107200889734
20
4.53728638797574
30
0
41
1
10
40.0163612419283
20
4.54070965771632
30
0
41
1
10
39.8279160948564
20
4.54576394602935
30
0
41
1
10
39.733806806647
20
4.54739797000016
30
0
41
1
10
39.5988530898218
20
4.54847230985263
30
0
41
1
10
39.5579059896139
20
4.54862981718608
30
0
41
1
10
39.516984459202
20
4.54861886377032
30
0
0
SPLINE
5
C3
100
AcDbEntity
8
1
62
256
6
ByLayer
370
18
48
1
60
0
100
AcDbSpline
70
4
71
3
72
56
73
52
40
0
40
0
40
0
40
0
40
0.0134175119083216
40
0.0134175119083216
40
0.0627466363129069
40
0.0627466363129069
40
0.112075760717491
40
0.112075760717491
40
0.161404885122077
40
0.161404885122077
40
0.210734009526661
40
0.210734009526661
40
0.260063133931247
40
0.260063133931247
40
0.284727696133539
40
0.284727696133539
40
0.309392258335831
40
0.309392258335831
40
0.334056820538123
40
0.334056820538123
40
0.358721382740414
40
0.358721382740414
40
0.408050507144997
40
0.408050507144997
40
0.45737963154958
40
0.45737963154958
40
0.506708755954163
40
0.506708755954163
40
0.556037880358746
40
0.556037880358746
40
0.605367004763329
40
0.605367004763329
40
0.654696129167913
40
0.654696129167913
40
0.704025253572496
40
0.704025253572496
40
0.75335437797708
40
0.75335437797708
40
0.778018940179372
40
0.778018940179372
40
0.802683502381663
40
0.802683502381663
40
0.827348064583955
40
0.827348064583955
40
0.852012626786247
40
0.852012626786247
40
0.901341751190831
40
0.901341751190831
40
0.950670875595415
40
0.950670875595415
40
1
40
1
40
1
40
1
41
1
10
20.1784783369786
20
-3.1881607253473
30
0
41
1
10
20.1279008462089
20
-3.20805604452073
30
0
41
1
10
20.0773254830884
20
-3.22776204999181
30
0
41
1
10
19.8407900097647
20
-3.3189905777208
30
0
41
1
10
19.6547365255286
20
-3.38800004120361
30
0
41
1
10
19.2826237524796
20
-3.52086942045486
30
0
41
1
10
19.096639521674
20
-3.5848120615311
30
0
41
1
10
18.7245186398157
20
-3.70730722672528
30
0
41
1
10
18.5383118904968
20
-3.76577924851037
30
0
41
1
10
18.1651377319539
20
-3.87668750226911
30
0
41
1
10
17.9782277962138
20
-3.9291939007019
30
0
41
1
10
17.6040290565714
20
-4.02850254865845
30
0
41
1
10
17.4167289315661
20
-4.07527987732641
30
0
41
1
10
17.1350116373649
20
-4.1406610887507
30
0
41
1
10
17.0409668824537
20
-4.16165002968648
30
0
41
1
10
16.852573944937
20
-4.20199695703528
30
0
41
1
10
16.7581506444099
20
-4.22137462616129
30
0
41
1
10
16.5696356718349
20
-4.25840258352704
30
0
41
1
10
16.475504613723
20
-4.27606375282272
30
0
41
1
10
16.2875346223652
20
-4.30971315035694
30
0
41
1
10
16.1936952501462
20
-4.3256998620281
30
0
41
1
10
15.9125137002689
20
-4.37109033045209
30
0
41
1
10
15.7255013849627
20
-4.39791339586026
30
0
41
1
10
15.3517447040528
20
-4.44450598047368
30
0
41
1
10
15.1650465914951
20
-4.46431412438471
30
0
41
1
10
14.7922622342448
20
-4.49710190849356
30
0
41
1
10
14.6062173815744
20
-4.51007648485913
30
0
41
1
10
14.2342591610062
20
-4.5290402183947
30
0
41
1
10
14.0482641500319
20
-4.53502487365228
30
0
41
1
10
13.6761321101775
20
-4.5400662301937
30
0
41
1
10
13.4900643784437
20
-4.5391303801955
30
0
41
1
10
13.1180156301928
20
-4.53027859120451
30
0
41
1
10
12.9319844459569
20
-4.52235041560715
30
0
41
1
10
12.5592318720166
20
-4.49957154754722
30
0
41
1
10
12.372515313388
20
-4.48473887605527
30
0
41
1
10
11.9986156093583
20
-4.44810264885459
30
0
41
1
10
11.8115047126074
20
-4.42626116906106
30
0
41
1
10
11.5302743309172
20
-4.38823353662443
30
0
41
1
10
11.4364303482928
20
-4.37468360057096
30
0
41
1
10
11.2484484747862
20
-4.34587673029347
30
0
41
1
10
11.154307595742
20
-4.33062269263021
30
0
41
1
10
10.9657445062811
20
-4.29839944931211
30
0
41
1
10
10.8713204882924
20
-4.28142930183202
30
0
41
1
10
10.6827005271281
20
-4.24583633651704
30
0
41
1
10
10.5884508247007
20
-4.22719972405645
30
0
41
1
10
10.3058915194985
20
-4.16875499047003
30
0
41
1
10
10.1177533387462
20
-4.12641453258723
30
0
41
1
10
9.74127302321364
20
-4.03548486512642
30
0
41
1
10
9.55288170898214
20
-3.98695069506337
30
0
41
1
10
9.17597802465497
20
-3.88362302963375
30
0
41
1
10
8.98746565955634
20
-3.82883094703536
30
0
41
1
10
8.79901514286487
20
-3.77072774404951
30
0
0
SPLINE
5
C4
100
AcDbEntity
8
1
62
256
6
ByLayer
370
18
48
1
60
0
100
AcDbSpline
70
4
71
3
72
52
73
48
40
0
40
0
40
0
40
0
40
0.0989413260980009
40
0.0989413260980009
40
0.148411989147002
40
0.148411989147002
40
0.197882652196003
40
0.197882652196003
40
0.247353315245004
40
0.247353315245004
40
0.296823978294006
40
0.296823978294006
40
0.321559309818505
40
0.321559309818505
40
0.346294641343005
40
0.346294641343005
40
0.395765304392006
40
0.395765304392006
40
0.445235967441009
40
0.445235967441009
40
0.46997129896551
40
0.46997129896551
40
0.494706630490012
40
0.494706630490012
40
0.544177293539011
40
0.544177293539011
40
0.59364795658801
40
0.59364795658801
40
0.64311861963701
40
0.64311861963701
40
0.692589282686009
40
0.692589282686009
40
0.742059945735009
40
0.742059945735009
40
0.791530608784008
40
0.791530608784008
40
0.841001271833008
40
0.841001271833008
40
0.890471934882007
40
0.890471934882007
40
0.939942597931007
40
0.939942597931007
40
0.964677929455507
40
0.964677929455507
40
0.989413260980006
40
0.989413260980006
40
1
40
1
40
1
40
1
41
1
10
16.6166529294019
20
-1.52738085327076
30
0
41
1
10
16.9522881682349
20
-1.70290030970327
30
0
41
1
10
17.2876231193563
20
-1.87202619975164
30
0
41
1
10
17.7887440321033
20
-2.11896674298998
30
0
41
1
10
17.9554188783491
20
-2.2002189100628
30
0
41
1
10
18.2886497546242
20
-2.35959801467797
30
0
41
1
10
18.4552447010839
20
-2.43766794657427
30
0
41
1
10
18.7885473591212
20
-2.59037767929274
30
0
41
1
10
18.9551755641925
20
-2.66514316841642
30
0
41
1
10
19.2881713341955
20
-2.81179270540591
30
0
41
1
10
19.4545342080883
20
-2.88367440611256
30
0
41
1
10
19.7043504436926
20
-2.98863671510335
30
0
41
1
10
19.7876646927557
20
-3.02315298016504
30
0
41
1
10
19.9544355867001
20
-3.09116686397832
30
0
41
1
10
20.0378918142396
20
-3.12466565594431
30
0
41
1
10
20.288396231671
20
-3.22374409021339
30
0
41
1
10
20.4555618454988
20
-3.2879322154692
30
0
41
1
10
20.7900508832918
20
-3.41274128061957
30
0
41
1
10
20.9574099490005
20
-3.47330821775589
30
0
41
1
10
21.2090746958083
20
-3.56081464983745
30
0
41
1
10
21.293128573014
20
-3.58944934782483
30
0
41
1
10
21.4611170866219
20
-3.64544199900007
30
0
41
1
10
21.5450397823259
20
-3.67280919262504
30
0
41
1
10
21.7965218769964
20
-3.75312677698693
30
0
41
1
10
21.9637749988956
20
-3.80431756344851
30
0
41
1
10
22.2973975654296
20
-3.90207602644529
30
0
41
1
10
22.4638281635366
20
-3.94856978605463
30
0
41
1
10
22.7964942820973
20
-4.03630797454622
30
0
41
1
10
22.9627784510555
20
-4.07752378679672
30
0
41
1
10
23.2950009746086
20
-4.15494143225311
30
0
41
1
10
23.4608957685295
20
-4.1911727301692
30
0
41
1
10
23.7922636014376
20
-4.25862966541132
30
0
41
1
10
23.9578080831133
20
-4.28979749623258
30
0
41
1
10
24.2891457285223
20
-4.34671314089306
30
0
41
1
10
24.4549761150927
20
-4.37245469276354
30
0
41
1
10
24.7866344346749
20
-4.41870554423832
30
0
41
1
10
24.9524269707032
20
-4.43922370568905
30
0
41
1
10
25.2840526465857
20
-4.47491431245487
30
0
41
1
10
25.4499585348216
20
-4.49005328904485
30
0
41
1
10
25.7824647168397
20
-4.51476736184273
30
0
41
1
10
25.9490789236453
20
-4.52435482416561
30
0
41
1
10
26.1992760851344
20
-4.53461856722458
30
0
41
1
10
26.2827247053137
20
-4.53735111980481
30
0
41
1
10
26.4497041390023
20
-4.54142444327263
30
0
41
1
10
26.5332334724887
20
-4.54276438858844
30
0
41
1
10
26.6526283753997
20
-4.54366859446947
30
0
41
1
10
26.6884284695199
20
-4.54381015230311
30
0
41
1
10
26.7242462430168
20
-4.5438220254326
30
0
0
SPLINE
5
C5
100
AcDbEntity
8
1
62
256
6
ByLayer
370
18
48
1
60
0
100
AcDbSpline
70
4
71
3
72
162
73
158
40
0
40
0
40
0
40
0
40
0.001477921476869
40
0.001477921476869
40
0.0168729582304347
40
0.0168729582304347
40
0.0322679949840003
40
0.0322679949840003
40
0.0399655133607831
40
0.0399655133607831
40
0.0476630317375659
40
0.0476630317375659
40
0.0630580684911316
40
0.0630580684911316
40
0.0784531052446972
40
0.0784531052446972
40
0.0861506236214801
40
0.0861506236214801
40
0.0938481419982631
40
0.0938481419982631
40
0.10924317875183
40
0.10924317875183
40
0.124638215505396
40
0.124638215505396
40
0.13233573388218
40
0.13233573388218
40
0.140033252258963
40
0.140033252258963
40
0.15542828901253
40
0.15542828901253
40
0.170823325766096
40
0.170823325766096
40
0.186218362519663
40
0.186218362519663
40
0.201613399273229
40
0.201613399273229
40
0.217008436026796
40
0.217008436026796
40
0.232403472780363
40
0.232403472780363
40
0.240100991157147
40
0.240100991157147
40
0.247798509533931
40
0.247798509533931
40
0.263193546287497
40
0.263193546287497
40
0.278588583041064
40
0.278588583041064
40
0.286286101417847
40
0.286286101417847
40
0.29398361979463
40
0.29398361979463
40
0.309378656548195
40
0.309378656548195
40
0.317076174924977
40
0.317076174924977
40
0.32477369330176
40
0.32477369330176
40
0.340168730055324
40
0.340168730055324
40
0.355563766808889
40
0.355563766808889
40
0.370958803562454
40
0.370958803562454
40
0.386353840316019
40
0.386353840316019
40
0.401748877069583
40
0.401748877069583
40
0.417143913823148
40
0.417143913823148
40
0.432538950576713
40
0.432538950576713
40
0.440236468953495
40
0.440236468953495
40
0.447933987330277
40
0.447933987330277
40
0.463329024083839
40
0.463329024083839
40
0.478724060837402
40
0.478724060837402
40
0.486421579214183
40
0.486421579214183
40
0.494119097590965
40
0.494119097590965
40
0.509514134344527
40
0.509514134344527
40
0.524909171098089
40
0.524909171098089
40
0.54030420785165
40
0.54030420785165
40
0.555699244605212
40
0.555699244605212
40
0.571094281358774
40
0.571094281358774
40
0.586489318112336
40
0.586489318112336
40
0.601884354865898
40
0.601884354865898
40
0.61727939161946
40
0.61727939161946
40
0.632674428373022
40
0.632674428373022
40
0.648069465126583
40
0.648069465126583
40
0.663464501880146
40
0.663464501880146
40
0.671162020256926
40
0.671162020256926
40
0.678859538633707
40
0.678859538633707
40
0.686557057010488
40
0.686557057010488
40
0.694254575387269
40
0.694254575387269
40
0.709649612140829
40
0.709649612140829
40
0.72504464889439
40
0.72504464889439
40
0.740439685647951
40
0.740439685647951
40
0.755834722401512
40
0.755834722401512
40
0.771229759155073
40
0.771229759155073
40
0.786624795908633
40
0.786624795908633
40
0.802019832662194
40
0.802019832662194
40
0.817414869415755
40
0.817414869415755
40
0.832809906169316
40
0.832809906169316
40
0.848204942922876
40
0.848204942922876
40
0.863599979676437
40
0.863599979676437
40
0.878995016429998
40
0.878995016429998
40
0.886692534806779
40
0.886692534806779
40
0.89439005318356
40
0.89439005318356
40
0.909785089937122
40
0.909785089937122
40
0.925180126690683
40
0.925180126690683
40
0.932877645067464
40
0.932877645067464
40
0.940575163444245
40
0.940575163444245
40
0.955970200197807
40
0.955970200197807
40
0.971365236951369
40
0.971365236951369
40
0.98676027370493
40
0.98676027370493
40
1
40
1
40
1
40
1
41
1
10
46.0481579574702
20
3.18926417891996
30
0
41
1
10
46.064115779378
20
3.19554541094169
30
0
41
1
10
46.0800724619766
20
3.20180721728016
30
0
41
1
10
46.2622302037789
20
3.27307712523955
30
0
41
1
10
46.4282698762545
20
3.33605662388811
30
0
41
1
10
46.7598174880395
20
3.45817459283873
30
0
41
1
10
46.9253231556793
20
3.51730344166327
30
0
41
1
10
47.173638772329
20
3.60255176487357
30
0
41
1
10
47.2564170303192
20
3.63039880725077
30
0
41
1
10
47.4220425452824
20
3.68489986055357
30
0
41
1
10
47.5048894443248
20
3.71155505873622
30
0
41
1
10
47.7534579991789
20
3.78982308015239
30
0
41
1
10
47.9191902356936
20
3.83975921026385
30
0
41
1
10
48.2505206236333
20
3.93526881428488
30
0
41
1
10
48.4161492769781
20
3.98080113070799
30
0
41
1
10
48.6649889216354
20
4.0453304057109
30
0
41
1
10
48.7479995997325
20
4.06621523734535
30
0
41
1
10
48.9141956905527
20
4.10670048593724
30
0
41
1
10
48.9973743318753
20
4.126307241364
30
0
41
1
10
49.2470777526383
20
4.18327904034072
30
0
41
1
10
49.4137503977013
20
4.218812797993
30
0
41
1
10
49.7474015509343
20
4.28496318716103
30
0
41
1
10
49.914436114522
20
4.31553045916317
30
0
41
1
10
50.1657296803686
20
4.35730852189496
30
0
41
1
10
50.2496227117707
20
4.37055686686051
30
0
41
1
10
50.4176643509558
20
4.39568703116939
30
0
41
1
10
50.5016046035835
20
4.40754351349793
30
0
41
1
10
50.7531125854151
20
4.44104202581144
30
0
41
1
10
50.9203451063901
20
4.46062365199217
30
0
41
1
10
51.2539287482724
20
4.49428523428369
30
0
41
1
10
51.4203501797187
20
4.5083302273471
30
0
41
1
10
51.7529956959849
20
4.53077286533465
30
0
41
1
10
51.9192596364344
20
4.53917800166249
30
0
41
1
10
52.2513548350813
20
4.55048985198667
30
0
41
1
10
52.4171500813742
20
4.55339257829729
30
0
41
1
10
52.7483368410684
20
4.55364338663563
30
0
41
1
10
52.9138006215994
20
4.55098396005022
30
0
41
1
10
53.244973958347
20
4.54017035136928
30
0
41
1
10
53.4107013265662
20
4.53203403184338
30
0
41
1
10
53.6592366509644
20
4.51570851590577
30
0
41
1
10
53.7420756301433
20
4.50957860216133
30
0
41
1
10
53.9077229291732
20
4.49592741926972
30
0
41
1
10
53.9905281582088
20
4.48840437452711
30
0
41
1
10
54.239009201755
20
4.46376414712498
30
0
41
1
10
54.4047647214703
20
4.44457634361075
30
0
41
1
10
54.7369669554861
20
4.40088638199435
30
0
41
1
10
54.9033965943693
20
4.37639252741383
30
0
41
1
10
55.1532758074003
20
4.33552476799949
30
0
41
1
10
55.2366119097177
20
4.32121452576169
30
0
41
1
10
55.403357512942
20
4.29119370285949
30
0
41
1
10
55.4867718766353
20
4.27548519974462
30
0
41
1
10
55.7372622001705
20
4.22632397696597
30
0
41
1
10
55.9046012759426
20
4.1908428655114
30
0
41
1
10
56.1564510088916
20
4.13378929075387
30
0
41
1
10
56.2404994995605
20
4.11413234133775
30
0
41
1
10
56.4082620780056
20
4.07362028058452
30
0
41
1
10
56.4920404645811
20
4.05274859870832
30
0
41
1
10
56.7430353132397
20
3.98826287350477
30
0
41
1
10
56.9098541971721
20
3.94272082439719
30
0
41
1
10
57.2429328544698
20
3.84697532467666
30
0
41
1
10
57.409241226724
20
3.79682167014653
30
0
41
1
10
57.7417405787937
20
3.69239006541449
30
0
41
1
10
57.9078567468697
20
3.63804034836653
30
0
41
1
10
58.2395557807558
20
3.52478824420896
30
0
41
1
10
58.4051016218084
20
3.46583244761854
30
0
41
1
10
58.7361346054462
20
3.343896645234
30
0
41
1
10
58.9016616874314
20
3.28096990278769
30
0
41
1
10
59.2329709231173
20
3.1515472342889
30
0
41
1
10
59.3986724798975
20
3.0849520861909
30
0
41
1
10
59.7299355548994
20
2.94765034022791
30
0
41
1
10
59.8954732491369
20
2.8768996618561
30
0
41
1
10
60.1440934262776
20
2.76824204243678
30
0
41
1
10
60.2270177469083
20
2.7316002176531
30
0
41
1
10
60.3930251996805
20
2.65755910924085
30
0
41
1
10
60.4761142231185
20
2.62016937255996
30
0
41
1
10
60.7255726748976
20
2.50679827616233
30
0
41
1
10
60.8921107217951
20
2.42958287106359
30
0
41
1
10
61.2254571454366
20
2.27150533881903
30
0
41
1
10
61.392269999222
20
2.19063907539842
30
0
41
1
10
61.6431616239631
20
2.06732551238591
30
0
41
1
10
61.7269009968404
20
2.02588117750506
30
0
41
1
10
61.8946523526665
20
1.942408771798
30
0
41
1
10
61.9787193929378
20
1.90034646743845
30
0
41
1
10
62.2304954810796
20
1.77351654891822
30
0
41
1
10
62.3979376115329
20
1.68798846223959
30
0
41
1
10
62.7318580204297
20
1.5147212752978
30
0
41
1
10
62.8983790416017
20
1.42705768038508
30
0
41
1
10
63.2311350271266
20
1.25074136642024
30
0
41
1
10
63.3974197291944
20
1.16217961030736
30
0
41
1
10
63.7296539322705
20
0.983988462691883
30
0
41
1
10
63.895548696677
20
0.894259622934356
30
0
41
1
10
64.2268216373718
20
0.713401723008445
30
0
41
1
10
64.3922626496201
20
0.622386287517372
30
0
41
1
10
64.7233080891297
20
0.440198130980321
30
0
41
1
10
64.8889600151466
20
0.349113698313204
30
0
41
1
10
65.2202662886448
20
0.166497783887081
30
0
41
1
10
65.3858778533715
20
0.074887096654777
30
0
41
1
10
65.7170315784377
20
-0.10892102141662
30
0
41
1
10
65.882645898991
20
-0.200985688887528
30
0
41
1
10
66.2144839502519
20
-0.384444553060632
30
0
41
1
10
66.3807448570632
20
-0.475768249678623
30
0
41
1
10
66.7136260617247
20
-0.65820931276042
30
0
41
1
10
66.8802111047938
20
-0.749393286045915
30
0
41
1
10
67.2137964965979
20
-0.931461640688639
30
0
41
1
10
67.3808689433596
20
-1.02221116208631
30
0
41
1
10
67.6322744213104
20
-1.15719964647585
30
0
41
1
10
67.716269716764
20
-1.20203169668099
30
0
41
1
10
67.8842056390281
20
-1.29124243234355
30
0
41
1
10
67.9680776398268
20
-1.33559057204926
30
0
41
1
10
68.1355947950154
20
-1.42384191437716
30
0
41
1
10
68.2192419319696
20
-1.46774134237165
30
0
41
1
10
68.3862951239509
20
-1.55512042358649
30
0
41
1
10
68.4697016897826
20
-1.59859856269432
30
0
41
1
10
68.7196838670677
20
-1.72817966983038
30
0
41
1
10
68.8860353811115
20
-1.81340319889947
30
0
41
1
10
69.2186108097932
20
-1.98075213874711
30
0
41
1
10
69.3848000734475
20
-2.06294570527388
30
0
41
1
10
69.7166529505834
20
-2.22494749328459
30
0
41
1
10
69.8822770005605
20
-2.30481282566268
30
0
41
1
10
70.2132957769008
20
-2.46164775235238
30
0
41
1
10
70.378744144058
20
-2.53853257245547
30
0
41
1
10
70.7099244728374
20
-2.68865215593942
30
0
41
1
10
70.8755957884163
20
-2.76198610039552
30
0
41
1
10
71.2068015365547
20
-2.90563703761677
30
0
41
1
10
71.3722944770802
20
-2.97600563824727
30
0
41
1
10
71.7035387961514
20
-3.11311136862213
30
0
41
1
10
71.8693368453995
20
-3.17978562123554
30
0
41
1
10
72.2016138718157
20
-3.30895372157104
30
0
41
1
10
72.3680164881146
20
-3.37155457622677
30
0
41
1
10
72.7010903296389
20
-3.49308239588299
30
0
41
1
10
72.8677266955055
20
-3.55204345576951
30
0
41
1
10
73.2017618396328
20
-3.66561377741957
30
0
41
1
10
73.3692010363628
20
-3.72017944065314
30
0
41
1
10
73.7051335406317
20
-3.82462753668628
30
0
41
1
10
73.8728199099534
20
-3.87437792161711
30
0
41
1
10
74.2071177664893
20
-3.96910257636372
30
0
41
1
10
74.373762525688
20
-4.01409110301657
30
0
41
1
10
74.6234363188687
20
-4.07761064470671
30
0
41
1
10
74.7066097418913
20
-4.09812719128502
30
0
41
1
10
74.8729124277974
20
-4.1378137562121
30
0
41
1
10
74.9560447372578
20
-4.15698230074071
30
0
41
1
10
75.2053129480864
20
-4.21253933901565
30
0
41
1
10
75.3713019954907
20
-4.24699636355953
30
0
41
1
10
75.7027125393643
20
-4.3108634386864
30
0
41
1
10
75.868152793298
20
-4.34024705641284
30
0
41
1
10
76.1163683843319
20
-4.38023539432493
30
0
41
1
10
76.1991133155801
20
-4.39288695468389
30
0
41
1
10
76.3646679704269
20
-4.41681861438161
30
0
41
1
10
76.4474726736171
20
-4.42810203121127
30
0
41
1
10
76.6958945317807
20
-4.45994702058488
30
0
41
1
10
76.8615014019753
20
-4.47851362258504
30
0
41
1
10
77.1925586161457
20
-4.51030643626999
30
0
41
1
10
77.3580553790214
20
-4.5235046976531
30
0
41
1
10
77.6895721369296
20
-4.5443270284143
30
0
41
1
10
77.8556411053047
20
-4.55195447998966
30
0
41
1
10
78.1649586023734
20
-4.56100525410815
30
0
41
1
10
78.3081068250322
20
-4.56315044488412
30
0
41
1
10
78.4513673204031
20
-4.56321987520741
30
0
0
SPLINE
5
C6
100
AcDbEntity
8
1
62
256
6
ByLayer
370
18
48
1
60
0
100
AcDbSpline
70
4
71
3
72
171
73
167
40
0
40
0
40
0
40
0
40
0.0312500000000022
40
0.0312500000000022
40
0.0625000000000044
40
0.0625000000000044
40
0.0937500000000065
40
0.0937500000000065
40
0.109375000000008
40
0.109375000000008
40
0.125000000000009
40
0.125000000000009
40
0.15625000000001
40
0.15625000000001
40
0.187500000000012
40
0.187500000000012
40
0.218750000000013
40
0.218750000000013
40
0.250000000000015
40
0.250000000000015
40
0.265625000000015
40
0.265625000000015
40
0.273437500000015
40
0.273437500000015
40
0.281250000000016
40
0.281250000000016
40
0.289062500000017
40
0.289062500000017
40
0.296875000000017
40
0.296875000000017
40
0.304687500000018
40
0.304687500000018
40
0.312500000000018
40
0.312500000000018
40
0.320312500000019
40
0.320312500000019
40
0.324218750000019
40
0.324218750000019
40
0.328125000000019
40
0.328125000000019
40
0.335937500000021
40
0.335937500000021
40
0.343750000000022
40
0.343750000000022
40
0.359375000000024
40
0.359375000000024
40
0.375000000000026
40
0.375000000000026
40
0.390625000000028
40
0.390625000000028
40
0.406250000000029
40
0.406250000000029
40
0.421875000000031
40
0.421875000000031
40
0.437500000000033
40
0.437500000000033
40
0.445312500000034
40
0.445312500000034
40
0.453125000000034
40
0.453125000000034
40
0.468750000000035
40
0.468750000000035
40
0.484375000000035
40
0.484375000000035
40
0.500000000000035
40
0.500000000000035
40
0.515625000000035
40
0.515625000000035
40
0.531250000000036
40
0.531250000000036
40
0.546875000000036
40
0.546875000000036
40
0.554687500000036
40
0.554687500000036
40
0.562500000000037
40
0.562500000000037
40
0.578125000000039
40
0.578125000000039
40
0.585937500000039
40
0.585937500000039
40
0.59375000000004
40
0.59375000000004
40
0.59765625000004
40
0.59765625000004
40
0.601562500000041
40
0.601562500000041
40
0.609375000000041
40
0.609375000000041
40
0.613281250000041
40
0.613281250000041
40
0.617187500000041
40
0.617187500000041
40
0.625000000000039
40
0.625000000000039
40
0.62695312500004
40
0.62695312500004
40
0.62890625000004
40
0.63281250000004
40
0.63281250000004
40
0.634765625000039
40
0.634765625000039
40
0.636718750000039
40
0.636718750000039
40
0.640625000000039
40
0.640625000000039
40
0.644531250000038
40
0.644531250000038
40
0.646484375000038
40
0.646484375000038
40
0.648437500000038
40
0.648437500000038
40
0.652343750000037
40
0.652343750000037
40
0.654296875000037
40
0.654296875000037
40
0.656250000000037
40
0.656250000000037
40
0.664062500000037
40
0.664062500000037
40
0.667968750000037
40
0.667968750000037
40
0.671875000000037
40
0.671875000000037
40
0.675781250000036
40
0.675781250000036
40
0.679687500000036
40
0.679687500000036
40
0.687500000000035
40
0.687500000000035
40
0.695312500000034
40
0.695312500000034
40
0.703125000000033
40
0.703125000000033
40
0.718750000000031
40
0.718750000000031
40
0.72656250000003
40
0.72656250000003
40
0.734375000000029
40
0.734375000000029
40
0.742187500000028
40
0.742187500000028
40
0.750000000000027
40
0.750000000000027
40
0.781250000000023
40
0.781250000000023
40
0.796875000000022
40
0.796875000000022
40
0.81250000000002
40
0.81250000000002
40
0.828125000000019
40
0.828125000000019
40
0.843750000000017
40
0.843750000000017
40
0.851562500000016
40
0.851562500000016
40
0.859375000000015
40
0.859375000000015
40
0.875000000000013
40
0.875000000000013
40
0.90625000000001
40
0.90625000000001
40
0.937500000000007
40
0.937500000000007
40
0.968750000000003
40
0.968750000000003
40
1
40
1
40
1
40
1
41
1
10
16.6166427489504
20
-1.52738456240863
30
0
41
1
10
16.3892094213807
20
-1.3981712367364
30
0
41
1
10
16.1623302282613
20
-1.26698342749694
30
0
41
1
10
15.7090752288157
20
-1.0016434162865
30
0
41
1
10
15.4826995718101
20
-0.867489460049683
30
0
41
1
10
15.0294992407071
20
-0.597792771056959
30
0
41
1
10
14.8026687670144
20
-0.462258466226729
30
0
41
1
10
14.4611724615986
20
-0.259473649990582
30
0
41
1
10
14.3471307021175
20
-0.191967436043853
30
0
41
1
10
14.1184678186157
20
-0.0574130101795447
30
0
41
1
10
14.0037689139297
20
0.0096809262516615
30
0
41
1
10
13.6596398995538
20
0.20918686510376
30
0
41
1
10
13.4299240114861
20
0.340011910249586
30
0
41
1
10
12.9683224952276
20
0.594182842791469
30
0
41
1
10
12.7363931708231
20
0.717438234817848
30
0
41
1
10
12.2692423622155
20
0.954505560035614
30
0
41
1
10
12.0340872358149
20
1.06845297396512
30
0
41
1
10
11.5587115812913
20
1.28368464265469
30
0
41
1
10
11.318421787954
20
1.38483923330722
30
0
41
1
10
10.954339767477
20
1.52782757084063
30
0
41
1
10
10.8323598152161
20
1.57400692216535
30
0
41
1
10
10.6480278641601
20
1.6402245012234
30
0
41
1
10
10.5863532548083
20
1.66178147064406
30
0
41
1
10
10.4625412560817
20
1.7038723846932
30
0
41
1
10
10.4004006330402
20
1.72440000292235
30
0
41
1
10
10.275814835096
20
1.7647613168231
30
0
41
1
10
10.2133704067466
20
1.78459678594342
30
0
41
1
10
10.0885542484135
20
1.82433589032524
30
0
41
1
10
10.026183649597
20
1.84424205800173
30
0
41
1
10
9.90207125285664
20
1.88522877349709
30
0
41
1
10
9.84034115486506
20
1.90633293200176
30
0
41
1
10
9.71814536591148
20
1.950959226056
30
0
41
1
10
9.65771630090646
20
1.97455330767934
30
0
41
1
10
9.53807558865319
20
2.02402588136204
30
0
41
1
10
9.47884113312975
20
2.04985671075133
30
0
41
1
10
9.38980236358643
20
2.08812522093061
30
0
41
1
10
9.36008420343416
20
2.10078767439433
30
0
41
1
10
9.30039898658572
20
2.12558938908833
30
0
41
1
10
9.2704304940803
20
2.13772591508189
30
0
41
1
10
9.1800271465091
20
2.17311297097731
30
0
41
1
10
9.1190744103354
20
2.19530250767539
30
0
41
1
10
8.99603622848946
20
2.2373725422249
30
0
41
1
10
8.93426831558372
20
2.25724173236719
30
0
41
1
10
8.74857622331882
20
2.31456553306967
30
0
41
1
10
8.62421477724891
20
2.34974360849998
30
0
41
1
10
8.37392754362531
20
2.41232085480243
30
0
41
1
10
8.24799113066342
20
2.43968057899019
30
0
41
1
10
7.99494079977649
20
2.48869634543834
30
0
41
1
10
7.86784910472119
20
2.51044956348352
30
0
41
1
10
7.61252876185725
20
2.54860191105632
30
0
41
1
10
7.4842738823227
20
2.56488240909238
30
0
41
1
10
7.22665490276307
20
2.5923482353792
30
0
41
1
10
7.09730984476559
20
2.60361918373781
30
0
41
1
10
6.8376843792542
20
2.62192903969805
30
0
41
1
10
6.70739491247986
20
2.62892661623363
30
0
41
1
10
6.5112224800416
20
2.63612006691838
30
0
41
1
10
6.44570870588643
20
2.63796752456833
30
0
41
1
10
6.31444300387699
20
2.64059965613942
30
0
41
1
10
6.24867934422113
20
2.64138468355608
30
0
41
1
10
6.05181059248062
20
2.6422385425611
30
0
41
1
10
5.92086218179389
20
2.6408418980711
30
0
41
1
10
5.65952842008002
20
2.63431870163734
30
0
41
1
10
5.52914506667275
20
2.62917913956869
30
0
41
1
10
5.26899388081699
20
2.61478965106244
30
0
41
1
10
5.13922862136042
20
2.60552308244709
30
0
41
1
10
4.88039269002746
20
2.58228805604418
30
0
41
1
10
4.75132632989585
20
2.56829030566698
30
0
41
1
10
4.49387078627259
20
2.53560508746918
30
0
41
1
10
4.36546968754124
20
2.51699781184811
30
0
41
1
10
4.10932332812391
20
2.47510737769571
30
0
41
1
10
3.98158507431714
20
2.45177971497961
30
0
41
1
10
3.79062809059945
20
2.41206078997467
30
0
41
1
10
3.72708424451508
20
2.39803180256712
30
0
41
1
10
3.60023077735062
20
2.36824297861563
30
0
41
1
10
3.53684817449783
20
2.35246715414289
30
0
41
1
10
3.34797809877247
20
2.30250334508514
30
0
41
1
10
3.22354113464337
20
2.26573826429444
30
0
41
1
10
3.0400566076691
20
2.2030167669929
30
0
41
1
10
2.97943215402935
20
2.18082663826649
30
0
41
1
10
2.85949742759362
20
2.13327043574716
30
0
41
1
10
2.80018514339963
20
2.10790941059892
30
0
41
1
10
2.712435567228
20
2.06688319584788
30
0
41
1
10
2.68340069650299
20
2.05271130613696
30
0
41
1
10
2.62609854919381
20
2.02339667900799
30
0
41
1
10
2.59779491239596
20
2.00823766081658
30
0
41
1
10
2.51405259125411
20
1.96106271580641
30
0
41
1
10
2.45976831463796
20
1.92737084668497
30
0
41
1
10
2.3813788218107
20
1.87236895156738
30
0
41
1
10
2.3557092731802
20
1.85324765212644
30
0
41
1
10
2.30578906035822
20
1.81341583696832
30
0
41
1
10
2.28163158712752
20
1.79278527866407
30
0
41
1
10
2.21192936958673
20
1.72841382734754
30
0
41
1
10
2.16908830993441
20
1.68225460664743
30
0
41
1
10
2.12209957808707
20
1.61863312304303
30
0
41
1
10
2.11300883352757
20
1.60556583390723
30
0
41
1
10
2.09572008504108
20
1.57898772487766
30
0
41
1
10
2.07114416640869
20
1.53850010342305
30
0
41
1
10
2.05090629946451
20
1.49602588447786
30
0
41
1
10
2.03398200943258
20
1.4520272670847
30
0
41
1
10
2.02889321329002
20
1.43710677213045
30
0
41
1
10
2.01988480342186
20
1.4067256284097
30
0
41
1
10
2.01596388628343
20
1.3912309377157
30
0
41
1
10
2.00618883446958
20
1.34475212730911
30
0
41
1
10
2.00221946082416
20
1.31351549615479
30
0
41
1
10
1.99918281528244
20
1.25054653597152
30
0
41
1
10
2.00012677795436
20
1.21881355954216
30
0
41
1
10
2.00535498875547
20
1.17082973640956
30
0
41
1
10
2.00772815154008
20
1.15486085578169
30
0
41
1
10
2.01361471434751
20
1.12328051131763
30
0
41
1
10
2.01713324893956
20
1.10761986587789
30
0
41
1
10
2.02925311142039
20
1.0609876226757
30
0
41
1
10
2.03940566289367
20
1.03036246028415
30
0
41
1
10
2.05710744649977
20
0.984963174972563
30
0
41
1
10
2.06343688963881
20
0.969890956948888
30
0
41
1
10
2.07674069330818
20
0.940172074706794
30
0
41
1
10
2.08372357504152
20
0.925499230984173
30
0
41
1
10
2.12018084591472
20
0.85300547622785
30
0
41
1
10
2.15437420704413
20
0.797852553283377
30
0
41
1
10
2.21170625655387
20
0.718558568644227
30
0
41
1
10
2.23179716032783
20
0.692683198624508
30
0
41
1
10
2.2733415088193
20
0.641688276758202
30
0
41
1
10
2.29473979041509
20
0.616620870372032
30
0
41
1
10
2.33806051639627
20
0.567112654133581
30
0
41
1
10
2.36001200616141
20
0.542631939522636
30
0
41
1
10
2.4041398452151
20
0.493879776202476
30
0
41
1
10
2.42631746051276
20
0.469609520127449
30
0
41
1
10
2.49290534104671
20
0.396846005817139
30
0
41
1
10
2.53733375042557
20
0.348365128134759
30
0
41
1
10
2.62613977146526
20
0.25134274496159
30
0
41
1
10
2.67056265239091
20
0.202844007938836
30
0
41
1
10
2.75993636867207
20
0.106333275366381
30
0
41
1
10
2.80490236410554
20
0.0583356312129695
30
0
41
1
10
2.940757727185
20
-0.0847700170398014
30
0
41
1
10
3.0325523189837
20
-0.179039909545992
30
0
41
1
10
3.17092299909399
20
-0.319837638115928
30
0
41
1
10
3.21716019190467
20
-0.366668591405556
30
0
41
1
10
3.30988181569077
20
-0.460108272490771
30
0
41
1
10
3.35637132619587
20
-0.506712198526714
30
0
41
1
10
3.44977929029952
20
-0.599525710287281
30
0
41
1
10
3.49666590022201
20
-0.645694569639005
30
0
41
1
10
3.59067147696896
20
-0.737085072177734
30
0
41
1
10
3.63783448249174
20
-0.782346947588422
30
0
41
1
10
3.87468247504412
20
-1.00626959967227
30
0
41
1
10
4.06759157447291
20
-1.17765599222904
30
0
41
1
10
4.36084033537119
20
-1.42538954766076
30
0
41
1
10
4.4592387251266
20
-1.5064012844683
30
0
41
1
10
4.65746607150533
20
-1.66524098524613
30
0
41
1
10
4.75730082331205
20
-1.74306179210419
30
0
41
1
10
4.95873204358443
20
-1.8952519824042
30
0
41
1
10
5.06033535748961
20
-1.96961388766888
30
0
41
1
10
5.26564213136666
20
-2.11462696862861
30
0
41
1
10
5.36934800497124
20
-2.18527609857981
30
0
41
1
10
5.52660971690051
20
-2.28841374137019
30
0
41
1
10
5.57931263831335
20
-2.3223218498953
30
0
41
1
10
5.68528885974041
20
-2.38920303929282
30
0
41
1
10
5.73860611232885
20
-2.42220232905731
30
0
41
1
10
5.89890751573037
20
-2.51951661725371
30
0
41
1
10
6.00633775140784
20
-2.58221337735762
30
0
41
1
10
6.33026998927167
20
-2.76422767838767
30
0
41
1
10
6.54840941351927
20
-2.87749278379951
30
0
41
1
10
6.98868620989151
20
-3.09000300543042
30
0
41
1
10
7.21082477874938
20
-3.18924099225868
30
0
41
1
10
7.65874923775203
20
-3.37529839218189
30
0
41
1
10
7.884534296715
20
-3.46211587509748
30
0
41
1
10
8.33939089243722
20
-3.6245767745869
30
0
41
1
10
8.56846237637427
20
-3.70021824220936
30
0
41
1
10
8.79901214121608
20
-3.77072837738066
30
0
0
SPLINE
5
C7
100
AcDbEntity
8
1
62
256
6
ByLayer
370
18
48
1
60
0
100
AcDbSpline
70
4
71
3
72
45
73
41
40
0
40
0
40
0
40
0
40
0.0218285571381511
40
0.0462916672664631
40
0.0707547773947748
40
0.119680997651398
40
0.168607217908022
40
0.217533438164646
40
0.266459658421269
40
0.315385878677893
40
0.339848988806205
40
0.364312098934516
40
0.388775209062828
40
0.41323831919114
40
0.437701429319452
40
0.462164539447764
40
0.486627649576076
40
0.511090759704387
40
0.560016979961011
40
0.584480090089323
40
0.608943200217634
40
0.633406310345946
40
0.645637865410102
40
0.657869420474258
40
0.670100975538414
40
0.68233253060257
40
0.706795640730882
40
0.719027195795038
40
0.731258750859193
40
0.743490305923349
40
0.755721860987505
40
0.780184971115817
40
0.804648081244129
40
0.829111191372441
40
0.853574301500752
40
0.878037411629064
40
0.902500521757376
40
0.926963631885688
40
0.951426742014
40
1
40
1
40
1
40
1
41
1
10
14.4247150512367
20
-0.23531233220254
30
0
41
1
10
14.3779953312021
20
-0.228173956528764
30
0
41
1
10
14.2761015156586
20
-0.216175355086591
30
0
41
1
10
14.1141066474628
20
-0.206878453637614
30
0
41
1
10
13.8864353100595
20
-0.204440111193293
30
0
41
1
10
13.592942135312
20
-0.221934578876784
30
0
41
1
10
13.2295962916202
20
-0.267702656472721
30
0
41
1
10
12.8592364972699
20
-0.33712319634472
30
0
41
1
10
12.4910854628407
20
-0.423826334225282
30
0
41
1
10
12.1832847375351
20
-0.513116860223619
30
0
41
1
10
11.9372812402802
20
-0.594436159920917
30
0
41
1
10
11.7526091612346
20
-0.660047933588999
30
0
41
1
10
11.5678746713384
20
-0.730280712401282
30
0
41
1
10
11.3844183394015
20
-0.805202217778742
30
0
41
1
10
11.2032591432439
20
-0.884582455049582
30
0
41
1
10
11.0246552615976
20
-0.968668457262027
30
0
41
1
10
10.848529948697
20
-1.058112474675
30
0
41
1
10
10.6177423955309
20
-1.1855689489787
30
0
41
1
10
10.3948061459733
20
-1.32609231171918
30
0
41
1
10
10.1889679824382
20
-1.47704109916955
30
0
41
1
10
10.0423708599795
20
-1.5973684246438
30
0
41
1
10
9.93009106865983
20
-1.70310233472082
30
0
41
1
10
9.84893846227314
20
-1.78944821943506
30
0
41
1
10
9.79218985463223
20
-1.85537649247672
30
0
41
1
10
9.73973466215398
20
-1.92269647139901
30
0
41
1
10
9.6765322025779
20
-2.01377973820479
30
0
41
1
10
9.62416163546294
20
-2.10618274758758
30
0
41
1
10
9.58329254914293
20
-2.19824268275778
30
0
41
1
10
9.56013036826778
20
-2.26656380043201
30
0
41
1
10
9.5420440288172
20
-2.33433230302165
30
0
41
1
10
9.51867924963122
20
-2.42470196754303
30
0
41
1
10
9.48337733862817
20
-2.53852814650804
30
0
41
1
10
9.43447094572565
20
-2.67586254931032
30
0
41
1
10
9.38147235912001
20
-2.81316214880096
30
0
41
1
10
9.31906834248827
20
-2.95065182327136
30
0
41
1
10
9.24836443690359
20
-3.08839856872063
30
0
41
1
10
9.17296578774113
20
-3.22631353028822
30
0
41
1
10
9.09144836244198
20
-3.36434033424911
30
0
41
1
10
8.97138958307175
20
-3.54702464644853
30
0
41
1
10
8.86880245407229
20
-3.68142942421903
30
0
41
1
10
8.79901514298314
20
-3.77072774389814
30
0
0
SPLINE
5
C8
100
AcDbEntity
8
1
62
256
6
ByLayer
370
18
48
1
60
0
100
AcDbSpline
70
4
71
3
72
16
73
12
40
0
40
0
40
0
40
0
40
0.0267218034836445
40
0.114736162043416
40
0.209288632413944
40
0.298815371564143
40
0.386395312508287
40
0.475391432641878
40
0.568983471012315
40
0.78666508089312
40
1
40
1
40
1
40
1
41
1
10
78.4490545828388
20
-0.0494746855166852
30
0
41
1
10
78.451159301398
20
-0.0437293237034453
30
0
41
1
10
78.4526747505238
20
-0.0175288196894314
30
0
41
1
10
78.3948345242721
20
0.0407722668713859
30
0
41
1
10
78.2540002329467
20
0.127748937434546
30
0
41
1
10
78.0610468193676
20
0.223992706953197
30
0
41
1
10
77.8332114940911
20
0.335121432180728
30
0
41
1
10
77.5745725380205
20
0.460718693166086
30
0
41
1
10
77.169607282233
20
0.659099520836747
30
0
41
1
10
76.6526372844512
20
0.920968426572074
30
0
41
1
10
76.2365633118212
20
1.13858208471532
30
0
41
1
10
76.0333250018772
20
1.24686684336376
30
0
0
SPLINE
5
C9
100
AcDbEntity
8
1
62
256
6
ByLayer
370
18
48
1
60
0
100
AcDbSpline
70
4
71
3
72
19
73
15
40
0
40
0
40
0
40
0
40
0.0100797468326193
40
0.0340504476733866
40
0.0632131560196466
40
0.127555608133167
40
0.194288689296519
40
0.256789853531677
40
0.386369655362622
40
0.473504707300695
40
0.57670609903998
40
0.709907567238151
40
0.874249205940241
40
1
40
1
40
1
40
1
41
1
10
27.9617326663612
20
-0.473101074273472
30
0
41
1
10
27.9619645290615
20
-0.472451323622153
30
0
41
1
10
27.9579483624332
20
-0.468843686825636
30
0
41
1
10
27.9218393884331
20
-0.453392936524153
30
0
41
1
10
27.812888702315
20
-0.410724272725332
30
0
41
1
10
27.6254943748486
20
-0.336852762777283
30
0
41
1
10
27.4008468488654
20
-0.245331502497123
30
0
41
1
10
27.0938200154777
20
-0.117555890521714
30
0
41
1
10
26.7569108101791
20
0.0288473062272487
30
0
41
1
10
26.3604529028859
20
0.211524837889073
30
0
41
1
10
25.958607927235
20
0.403365856499391
30
0
41
1
10
25.460151443346
20
0.648159277977925
30
0
41
1
10
24.9302764760646
20
0.913733649613363
30
0
41
1
10
24.5675394998342
20
1.10454476021371
30
0
41
1
10
24.4101930207019
20
1.18863317256941
30
0
0
SPLINE
5
CA
100
AcDbEntity
8
1
62
256
6
ByLayer
370
18
48
1
60
0
100
AcDbSpline
70
4
71
3
72
17
73
13
40
0
40
0
40
0
40
0
40
0.0465807358821087
40
0.133994301768949
40
0.210407681906115
40
0.276709270305776
40
0.335390901992114
40
0.401614644084847
40
0.505641737350771
40
0.64997478308593
40
0.836030200972346
40
1
40
1
40
1
40
1
41
1
10
52.874368146253
20
-0.17841983345852
30
0
41
1
10
52.8769812486704
20
-0.167632332550369
30
0
41
1
10
52.8693239292598
20
-0.131923073770054
30
0
41
1
10
52.7937503207686
20
-0.0714975089747441
30
0
41
1
10
52.6807729280271
20
-0.0006998440134112
30
0
41
1
10
52.5355251699771
20
0.0687691600026028
30
0
41
1
10
52.3609849298713
20
0.149805445918901
30
0
41
1
10
52.1186569536969
20
0.263137986657256
30
0
41
1
10
51.785918696815
20
0.422761083832569
30
0
41
1
10
51.318254761417
20
0.652318694071312
30
0
41
1
10
50.7819074613487
20
0.921693957620107
30
0
41
1
10
50.4018169796731
20
1.12145459222157
30
0
41
1
10
50.2234777536074
20
1.21679209702231
30
0
0
LINE
5
7D
100
AcDbEntity
8
80
62
256
6
ByLayer
370
18
48
1
60
0
100
AcDbLine
10
0
20
0
30
0
11
-5
21
0
31
0
39
0
210
0
220
0
230
1
0
LINE
5
7E
100
AcDbEntity
8
4
62
256
6
ByLayer
370
18
48
0.05
60
0
100
AcDbLine
10
-5
20
0
30
0
11
88
21
0
31
0
39
0
210
0
220
0
230
1
0
LINE
5
80
100
AcDbEntity
8
SK4
62
256
6
ByLayer
370
18
48
0.05
60
0
100
AcDbLine
10
-47
20
0
30
0
11
88
21
0
31
0
39
0
210
0
220
0
230
1
0
LINE
5
82
100
AcDbEntity
8
81
62
256
6
ByLayer
370
18
48
1
60
0
100
AcDbLine
10
83
20
0
30
0
11
88
21
0
31
0
39
0
210
0
220
0
230
1
0
LINE
5
83
100
AcDbEntity
8
1
62
256
6
ByLayer
370
18
48
1
60
0
100
AcDbLine
10
0
20
4.564
30
0
11
0
21
-4.564
31
0
39
0
210
0
220
0
230
1
0
LINE
5
84
100
AcDbEntity
8
1
62
256
6
ByLayer
370
18
48
1
60
0
100
AcDbLine
10
80.531905
20
-4.564
30
0
11
80.531905
21
-1.217347
31
0
39
0
210
0
220
0
230
1
0
LINE
5
85
100
AcDbEntity
8
1
62
256
6
ByLayer
370
18
48
1
60
0
100
AcDbLine
10
80.531905
20
4.564
30
0
11
80.531905
21
4.419086
31
0
39
0
210
0
220
0
230
1
0
LINE
5
86
100
AcDbEntity
8
1
62
256
6
ByLayer
370
18
48
1
60
0
100
AcDbLine
10
0.4
20
-4.533951
30
0
11
0.4
21
4.533951
31
0
39
0
210
0
220
0
230
1
0
LINE
5
87
100
AcDbEntity
8
SK1
62
256
6
ByLayer
370
18
48
1
60
0
100
AcDbLine
10
0
20
4.564
30
0
11
0
21
-4.564
31
0
39
0
210
0
220
0
230
1
0
LINE
5
89
100
AcDbEntity
8
SK1
62
256
6
ByLayer
370
18
48
1
60
0
100
AcDbLine
10
-42
20
-3.815
30
0
11
-42
21
3.815
31
0
39
0
210
0
220
0
230
1
0
LINE
5
8A
100
AcDbEntity
8
SK1
62
256
6
ByLayer
370
18
48
1
60
0
100
AcDbLine
10
-41.251
20
-4.564
30
0
11
-41.251
21
4.564
31
0
39
0
210
0
220
0
230
1
0
LINE
5
8B
100
AcDbEntity
8
1
62
256
6
ByLayer
370
18
48
1
60
0
100
AcDbLine
10
0.4
20
4.533951
30
0
11
0
21
4.564
31
0
39
0
210
0
220
0
230
1
0
LINE
5
8C
100
AcDbEntity
8
1
62
256
6
ByLayer
370
18
48
1
60
0
100
AcDbLine
10
0
20
-4.564
30
0
11
0.4
21
-4.533951
31
0
39
0
210
0
220
0
230
1
0
LINE
5
8D
100
AcDbEntity
8
1
62
256
6
ByLayer
370
18
48
1
60
0
100
AcDbLine
10
83
20
0
30
0
11
80.531905
21
4.564
31
0
39
0
210
0
220
0
230
1
0
LINE
5
8E
100
AcDbEntity
8
1
62
256
6
ByLayer
370
18
48
1
60
0
100
AcDbLine
10
80.531905
20
-4.564
30
0
11
83
21
0
31
0
39
0
210
0
220
0
230
1
0
LINE
5
8F
100
AcDbEntity
8
1
62
256
6
ByLayer
370
18
48
1
60
0
100
AcDbLine
10
0.4
20
-4.533951
30
0
11
13.654308
21
-4.538921
31
0
39
0
210
0
220
0
230
1
0
LINE
5
90
100
AcDbEntity
8
1
62
256
6
ByLayer
370
18
48
1
60
0
100
AcDbLine
10
26.723397
20
-4.543822
30
0
11
39.516378
21
-4.548619
31
0
39
0
210
0
220
0
230
1
0
LINE
5
91
100
AcDbEntity
8
1
62
256
6
ByLayer
370
18
48
1
60
0
100
AcDbLine
10
52.587614
20
-4.553521
30
0
11
65.378187
21
-4.558317
31
0
39
0
210
0
220
0
230
1
0
LINE
5
92
100
AcDbEntity
8
1
62
256
6
ByLayer
370
18
48
1
60
0
100
AcDbLine
10
78.451859
20
-4.56322
30
0
11
80.531905
21
-4.564
31
0
39
0
210
0
220
0
230
1
0
LINE
5
93
100
AcDbEntity
8
1
62
256
6
ByLayer
370
18
48
1
60
0
100
AcDbLine
10
80.531905
20
4.564
30
0
11
78.451859
21
4.56322
31
0
39
0
210
0
220
0
230
1
0
LINE
5
94
100
AcDbEntity
8
1
62
256
6
ByLayer
370
18
48
1
60
0
100
AcDbLine
10
65.378187
20
4.558317
30
0
11
52.587614
21
4.553521
31
0
39
0
210
0
220
0
230
1
0
LINE
5
95
100
AcDbEntity
8
1
62
256
6
ByLayer
370
18
48
1
60
0
100
AcDbLine
10
39.516378
20
4.548619
30
0
11
26.723397
21
4.543822
31
0
39
0
210
0
220
0
230
1
0
LINE
5
96
100
AcDbEntity
8
1
62
256
6
ByLayer
370
18
48
1
60
0
100
AcDbLine
10
13.654308
20
4.538921
30
0
11
0.4
21
4.533951
31
0
39
0
210
0
220
0
230
1
0
LINE
5
97
100
AcDbEntity
8
SK1
62
256
6
ByLayer
370
18
48
1
60
0
100
AcDbLine
10
-41.251
20
-4.564
30
0
11
0
21
-4.564
31
0
39
0
210
0
220
0
230
1
0
LINE
5
98
100
AcDbEntity
8
SK1
62
256
6
ByLayer
370
18
48
1
60
0
100
AcDbLine
10
0
20
4.564
30
0
11
-41.251
21
4.564
31
0
39
0
210
0
220
0
230
1
0
LINE
5
99
100
AcDbEntity
8
SK1
62
256
6
ByLayer
370
18
48
1
60
0
100
AcDbLine
10
-42
20
-3.815
30
0
11
-41.251
21
-4.564
31
0
39
0
210
0
220
0
230
1
0
LINE
5
9A
100
AcDbEntity
8
SK1
62
256
6
ByLayer
370
18
48
1
60
0
100
AcDbLine
10
-41.251
20
4.564
30
0
11
-42
21
3.815
31
0
39
0
210
0
220
0
230
1
0
LINE
5
9B
100
AcDbEntity
8
SK2
62
256
6
ByLayer
370
13
48
1
60
0
100
AcDbLine
10
-48.5
20
-4.564
30
0
11
-48.5
21
30.596855
31
0
39
0
210
0
220
0
230
1
0
LINE
5
9D
100
AcDbEntity
8
SK2
62
256
6
ByLayer
370
13
48
1
60
0
100
AcDbLine
10
-43.5875
20
4.564
30
0
11
-50.5
21
4.564
31
0
39
0
210
0
220
0
230
1
0
LINE
5
9E
100
AcDbEntity
8
SK2
62
256
6
ByLayer
370
13
48
1
60
0
100
AcDbLine
10
-43.5875
20
-4.564
30
0
11
-50.5
21
-4.564
31
0
39
0
210
0
220
0
230
1
0
LINE
5
9F
100
AcDbEntity
8
1
62
256
6
ByLayer
370
18
48
1
60
1
100
AcDbLine
10
-48.5
20
4.564
30
0
11
-48.039216
21
1.064002
31
0
39
0
210
0
220
0
230
1
0
LINE
5
A0
100
AcDbEntity
8
1
62
256
6
ByLayer
370
18
48
1
60
1
100
AcDbLine
10
-48.039216
20
1.064002
30
0
11
-48.960784
21
1.063998
31
0
39
0
210
0
220
0
230
1
0
LINE
5
A1
100
AcDbEntity
8
1
62
256
6
ByLayer
370
18
48
1
60
1
100
AcDbLine
10
-48.960784
20
1.063998
30
0
11
-48.5
21
4.564
31
0
39
0
210
0
220
0
230
1
0
LINE
5
A2
100
AcDbEntity
8
1
62
256
6
ByLayer
370
18
48
1
60
1
100
AcDbLine
10
-48.5
20
-4.564
30
0
11
-48.960784
21
-1.064002
31
0
39
0
210
0
220
0
230
1
0
LINE
5
A3
100
AcDbEntity
8
1
62
256
6
ByLayer
370
18
48
1
60
1
100
AcDbLine
10
-48.960784
20
-1.064002
30
0
11
-48.039216
21
-1.063998
31
0
39
0
210
0
220
0
230
1
0
LINE
5
A4
100
AcDbEntity
8
1
62
256
6
ByLayer
370
18
48
1
60
1
100
AcDbLine
10
-48.039216
20
-1.063998
30
0
11
-48.5
21
-4.564
31
0
39
0
210
0
220
0
230
1
0
LINE
5
A5
100
AcDbEntity
8
2
62
256
6
ByLayer
370
13
48
1
60
0
100
AcDbLine
10
90.031905
20
-4.564
30
0
11
90.031905
21
30.596855
31
0
39
0
210
0
220
0
230
1
0
LINE
5
A7
100
AcDbEntity
8
2
62
256
6
ByLayer
370
13
48
1
60
0
100
AcDbLine
10
82.119405
20
4.564
30
0
11
92.031905
21
4.564
31
0
39
0
210
0
220
0
230
1
0
LINE
5
A8
100
AcDbEntity
8
2
62
256
6
ByLayer
370
13
48
1
60
0
100
AcDbLine
10
82.119405
20
-4.564
30
0
11
92.031905
21
-4.564
31
0
39
0
210
0
220
0
230
1
0
LINE
5
A9
100
AcDbEntity
8
1
62
256
6
ByLayer
370
18
48
1
60
1
100
AcDbLine
10
90.031905
20
4.564
30
0
11
90.492689
21
1.064002
31
0
39
0
210
0
220
0
230
1
0
LINE
5
AA
100
AcDbEntity
8
1
62
256
6
ByLayer
370
18
48
1
60
1
100
AcDbLine
10
90.492689
20
1.064002
30
0
11
89.571121
21
1.063998
31
0
39
0
210
0
220
0
230
1
0
LINE
5
AB
100
AcDbEntity
8
1
62
256
6
ByLayer
370
18
48
1
60
1
100
AcDbLine
10
89.571121
20
1.063998
30
0
11
90.031905
21
4.564
31
0
39
0
210
0
220
0
230
1
0
LINE
5
AC
100
AcDbEntity
8
1
62
256
6
ByLayer
370
18
48
1
60
1
100
AcDbLine
10
90.031905
20
-4.564
30
0
11
89.571121
21
-1.064002
31
0
39
0
210
0
220
0
230
1
0
LINE
5
AD
100
AcDbEntity
8
1
62
256
6
ByLayer
370
18
48
1
60
1
100
AcDbLine
10
89.571121
20
-1.064002
30
0
11
90.492689
21
-1.063998
31
0
39
0
210
0
220
0
230
1
0
LINE
5
AE
100
AcDbEntity
8
1
62
256
6
ByLayer
370
18
48
1
60
1
100
AcDbLine
10
90.492689
20
-1.063998
30
0
11
90.031905
21
-4.564
31
0
39
0
210
0
220
0
230
1
0
LINE
5
AF
100
AcDbEntity
8
2
62
256
6
ByLayer
370
13
48
1
60
0
100
AcDbLine
10
83.755136
20
-1.396397
30
0
11
94.416232
21
-21.110889
31
0
39
0
210
0
220
0
230
1
0
LINE
5
B0
100
AcDbEntity
8
2
62
256
6
ByLayer
370
13
48
1
60
0
100
AcDbLine
10
83.755136
20
1.396397
30
0
11
94.416232
21
21.110889
31
0
39
0
210
0
220
0
230
1
0
LINE
5
B1
100
AcDbEntity
8
1
62
256
6
ByLayer
370
18
48
1
60
1
100
AcDbLine
10
93.464879
20
-19.351649
30
0
11
96.239971
21
-17.169637
31
0
39
0
210
0
220
0
230
1
0
LINE
5
B2
100
AcDbEntity
8
1
62
256
6
ByLayer
370
18
48
1
60
1
100
AcDbLine
10
96.239971
20
-17.169637
30
0
11
96.710161
21
-17.962233
31
0
39
0
210
0
220
0
230
1
0
LINE
5
B3
100
AcDbEntity
8
1
62
256
6
ByLayer
370
18
48
1
60
1
100
AcDbLine
10
96.710161
20
-17.962233
30
0
11
93.464879
21
-19.351649
31
0
39
0
210
0
220
0
230
1
0
LINE
5
B4
100
AcDbEntity
8
1
62
256
6
ByLayer
370
18
48
1
60
1
100
AcDbLine
10
93.464879
20
19.351649
30
0
11
96.710158
21
17.962234
31
0
39
0
210
0
220
0
230
1
0
LINE
5
B5
100
AcDbEntity
8
1
62
256
6
ByLayer
370
18
48
1
60
1
100
AcDbLine
10
96.710158
20
17.962234
30
0
11
96.239974
21
17.169635
31
0
39
0
210
0
220
0
230
1
0
LINE
5
B6
100
AcDbEntity
8
1
62
256
6
ByLayer
370
18
48
1
60
1
100
AcDbLine
10
96.239974
20
17.169635
30
0
11
93.464879
21
19.351649
31
0
39
0
210
0
220
0
230
1
0
LINE
5
CF
100
AcDbEntity
8
1
62
256
6
ByLayer
370
18
48
1
60
1
100
AcDbLine
10
-48.5
20
4.564
30
0
11
-48.039216
21
1.064002
31
0
39
0
210
0
220
0
230
1
0
LINE
5
D0
100
AcDbEntity
8
1
62
256
6
ByLayer
370
18
48
1
60
1
100
AcDbLine
10
-48.039216
20
1.064002
30
0
11
-48.960784
21
1.063998
31
0
39
0
210
0
220
0
230
1
0
LINE
5
D1
100
AcDbEntity
8
1
62
256
6
ByLayer
370
18
48
1
60
1
100
AcDbLine
10
-48.960784
20
1.063998
30
0
11
-48.5
21
4.564
31
0
39
0
210
0
220
0
230
1
0
LINE
5
D3
100
AcDbEntity
8
1
62
256
6
ByLayer
370
18
48
1
60
1
100
AcDbLine
10
-48.5
20
-4.564
30
0
11
-48.960784
21
-1.064002
31
0
39
0
210
0
220
0
230
1
0
LINE
5
D4
100
AcDbEntity
8
1
62
256
6
ByLayer
370
18
48
1
60
1
100
AcDbLine
10
-48.960784
20
-1.064002
30
0
11
-48.039216
21
-1.063998
31
0
39
0
210
0
220
0
230
1
0
LINE
5
D5
100
AcDbEntity
8
1
62
256
6
ByLayer
370
18
48
1
60
1
100
AcDbLine
10
-48.039216
20
-1.063998
30
0
11
-48.5
21
-4.564
31
0
39
0
210
0
220
0
230
1
0
LINE
5
D9
100
AcDbEntity
8
1
62
256
6
ByLayer
370
18
48
1
60
1
100
AcDbLine
10
90.031905
20
4.564
30
0
11
90.492689
21
1.064002
31
0
39
0
210
0
220
0
230
1
0
LINE
5
DA
100
AcDbEntity
8
1
62
256
6
ByLayer
370
18
48
1
60
1
100
AcDbLine
10
90.492689
20
1.064002
30
0
11
89.571121
21
1.063998
31
0
39
0
210
0
220
0
230
1
0
LINE
5
DB
100
AcDbEntity
8
1
62
256
6
ByLayer
370
18
48
1
60
1
100
AcDbLine
10
89.571121
20
1.063998
30
0
11
90.031905
21
4.564
31
0
39
0
210
0
220
0
230
1
0
LINE
5
DD
100
AcDbEntity
8
1
62
256
6
ByLayer
370
18
48
1
60
1
100
AcDbLine
10
90.031905
20
-4.564
30
0
11
89.571121
21
-1.064002
31
0
39
0
210
0
220
0
230
1
0
LINE
5
DE
100
AcDbEntity
8
1
62
256
6
ByLayer
370
18
48
1
60
1
100
AcDbLine
10
89.571121
20
-1.064002
30
0
11
90.492689
21
-1.063998
31
0
39
0
210
0
220
0
230
1
0
LINE
5
DF
100
AcDbEntity
8
1
62
256
6
ByLayer
370
18
48
1
60
1
100
AcDbLine
10
90.492689
20
-1.063998
30
0
11
90.031905
21
-4.564
31
0
39
0
210
0
220
0
230
1
0
LINE
5
E2
100
AcDbEntity
8
1
62
256
6
ByLayer
370
18
48
1
60
1
100
AcDbLine
10
93.464879
20
-19.351649
30
0
11
96.239971
21
-17.169637
31
0
39
0
210
0
220
0
230
1
0
LINE
5
E3
100
AcDbEntity
8
1
62
256
6
ByLayer
370
18
48
1
60
1
100
AcDbLine
10
96.239971
20
-17.169637
30
0
11
96.710161
21
-17.962233
31
0
39
0
210
0
220
0
230
1
0
LINE
5
E4
100
AcDbEntity
8
1
62
256
6
ByLayer
370
18
48
1
60
1
100
AcDbLine
10
96.710161
20
-17.962233
30
0
11
93.464879
21
-19.351649
31
0
39
0
210
0
220
0
230
1
0
LINE
5
E6
100
AcDbEntity
8
1
62
256
6
ByLayer
370
18
48
1
60
1
100
AcDbLine
10
93.464879
20
19.351649
30
0
11
96.710158
21
17.962234
31
0
39
0
210
0
220
0
230
1
0
LINE
5
E7
100
AcDbEntity
8
1
62
256
6
ByLayer
370
18
48
1
60
1
100
AcDbLine
10
96.710158
20
17.962234
30
0
11
96.239974
21
17.169635
31
0
39
0
210
0
220
0
230
1
0
LINE
5
E8
100
AcDbEntity
8
1
62
256
6
ByLayer
370
18
48
1
60
1
100
AcDbLine
10
96.239974
20
17.169635
30
0
11
93.464879
21
19.351649
31
0
39
0
210
0
220
0
230
1
0
MTEXT
5
CB
100
AcDbEntity
8
SK2
62
256
6
ByLayer
370
18
48
1
60
0
100
AcDbMText
10
-49.841114
20
16.222438
30
0
210
0
220
0
230
1
1
%%c
40
3
41
0
44
1.084337
50
90
71
7
72
5
7
iso_b_vert
0
MTEXT
5
CE
100
AcDbEntity
8
SK2
62
256
6
ByLayer
370
18
48
1
60
0
100
AcDbMText
10
-49.841114
20
22.199
30
0
210
0
220
0
230
1
1
\W0.6864;9.128
40
3
41
0
44
1.084337
50
90
71
7
72
5
7
iso_b_vert
0
MTEXT
5
D7
100
AcDbEntity
8
2
62
256
6
ByLayer
370
18
48
1
60
0
100
AcDbMText
10
88.69079
20
16.222438
30
0
210
0
220
0
230
1
1
%%c
40
3
41
0
44
1.084337
50
90
71
7
72
5
7
iso_b_vert
0
MTEXT
5
D8
100
AcDbEntity
8
2
62
256
6
ByLayer
370
18
48
1
60
0
100
AcDbMText
10
88.69079
20
22.199
30
0
210
0
220
0
230
1
1
\W0.6864;9.128
40
3
41
0
44
1.084337
50
90
71
7
72
5
7
iso_b_vert
0
MTEXT
5
E1
100
AcDbEntity
8
2
62
256
6
ByLayer
370
18
48
1
60
0
100
AcDbMText
10
102.092229
20
-2.114886
30
0
210
0
220
0
230
1
1
\W0.6008;118%%d
40
3
41
0
44
1.084337
50
0
71
7
72
5
7
iso_b_vert
0
MTEXT
5
EA
100
AcDbEntity
8
SK6
62
256
6
ByLayer
370
18
48
1
60
0
100
AcDbMText
10
10.975123
20
-67.114886
30
0
210
0
220
0
230
1
1
\W0.7958;R00323/64
40
3
41
0
44
1.084337
50
0
71
7
72
5
7
iso_b_vert
0
HATCH
5
D2
100
AcDbEntity
8
SK2
62
256
6
ByLayer
370
13
48
1
60
0
100
AcDbHatch
10
0
20
0
30
0
210
0
220
0
230
1
2
ANSI31
70
0
71
0
91
1
92
5
93
3
72
1
10
-48.5
20
4.56400000000002
11
-48.0392162584472
21
1.0640016925532
72
1
10
-48.0392162584472
20
1.0640016925532
11
-48.9607837415528
21
1.06399830744684
72
1
10
-48.9607837415528
20
1.06399830744684
11
-48.5
21
4.56400000000002
97
0
75
0
76
1
52
0
41
0.0062
77
0
78
1
53
45
43
0
44
0
45
-0.0139193969876572
46
0.0139193969876572
79
0
47
0
98
1
10
0
20
0
0
HATCH
5
D6
100
AcDbEntity
8
SK2
62
256
6
ByLayer
370
13
48
1
60
0
100
AcDbHatch
10
0
20
0
30
0
210
0
220
0
230
1
2
ANSI31
70
0
71
0
91
1
92
5
93
3
72
1
10
-48.5
20
-4.56399999999999
11
-48.9607837415528
21
-1.06400169255318
72
1
10
-48.9607837415528
20
-1.06400169255318
11
-48.0392162584472
21
-1.06399830744681
72
1
10
-48.0392162584472
20
-1.06399830744681
11
-48.5
21
-4.56399999999999
97
0
75
0
76
1
52
0
41
0.0062
77
0
78
1
53
45
43
0
44
0
45
-0.0139193969876572
46
0.0139193969876572
79
0
47
0
98
1
10
0
20
0
0
HATCH
5
DC
100
AcDbEntity
8
2
62
256
6
ByLayer
370
13
48
1
60
0
100
AcDbHatch
10
0
20
0
30
0
210
0
220
0
230
1
2
ANSI31
70
0
71
0
91
1
92
5
93
3
72
1
10
90.0319049212824
20
4.56400000000002
11
90.4926886628352
21
1.0640016925532
72
1
10
90.4926886628352
20
1.0640016925532
11
89.5711211797296
21
1.06399830744684
72
1
10
89.5711211797296
20
1.06399830744684
11
90.0319049212824
21
4.56400000000002
97
0
75
0
76
1
52
0
41
0.0062
77
0
78
1
53
45
43
0
44
0
45
-0.0139193969876572
46
0.0139193969876572
79
0
47
0
98
1
10
0
20
0
0
HATCH
5
E0
100
AcDbEntity
8
2
62
256
6
ByLayer
370
13
48
1
60
0
100
AcDbHatch
10
0
20
0
30
0
210
0
220
0
230
1
2
ANSI31
70
0
71
0
91
1
92
5
93
3
72
1
10
90.0319049212824
20
-4.56399999999999
11
89.5711211797296
21
-1.06400169255318
72
1
10
89.5711211797296
20
-1.06400169255318
11
90.4926886628352
21
-1.06399830744681
72
1
10
90.4926886628352
20
-1.06399830744681
11
90.0319049212824
21
-4.56399999999999
97
0
75
0
76
1
52
0
41
0.0062
77
0
78
1
53
45
43
0
44
0
45
-0.0139193969876572
46
0.0139193969876572
79
0
47
0
98
1
10
0
20
0
0
HATCH
5
E5
100
AcDbEntity
8
2
62
256
6
ByLayer
370
13
48
1
60
0
100
AcDbHatch
10
0
20
0
30
0
210
0
220
0
230
1
2
ANSI31
70
0
71
0
91
1
92
5
93
3
72
1
10
93.4648791987519
20
-19.3516485952885
11
96.2399711078381
21
-17.1696369764528
72
1
10
96.2399711078381
20
-17.1696369764528
11
96.7101613929249
21
-17.9622325364573
72
1
10
96.7101613929249
20
-17.9622325364573
11
93.4648791987519
21
-19.3516485952885
97
0
75
0
76
1
52
0
41
0.0062
77
0
78
1
53
45
43
0
44
0
45
-0.0139193969876572
46
0.0139193969876572
79
0
47
0
98
1
10
0
20
0
0
HATCH
5
E9
100
AcDbEntity
8
2
62
256
6
ByLayer
370
13
48
1
60
0
100
AcDbHatch
10
0
20
0
30
0
210
0
220
0
230
1
2
ANSI31
70
0
71
0
91
1
92
5
93
3
72
1
10
93.4648791987519
20
19.3516485952885
11
96.7101584815525
21
17.9622342635519
72
1
10
96.7101584815525
20
17.9622342635519
11
96.2399740192105
21
17.1696352493581
72
1
10
96.2399740192105
20
17.1696352493581
11
93.4648791987519
21
19.3516485952885
97
0
75
0
76
1
52
0
41
0.0062
77
0
78
1
53
45
43
0
44
0
45
-0.0139193969876572
46
0.0139193969876572
79
0
47
0
98
1
10
0
20
0
0
DIMENSION
5
ED
100
AcDbEntity
8
SK2
62
256
6
ByLayer
370
18
48
1
60
0
100
AcDbDimension
2
_U0
10
83
20
-51.624559
30
0
11
20.5
21
-51.624559
31
0
70
32
71
1
72
1
41
1
210
0
220
0
230
1
3
Standard
100
AcDbAlignedDimension
13
-42
23
-4.564
33
0
14
83
24
0
34
0
50
0
100
AcDbRotatedDimension
1001
ACAD
1000
DSTYLE
1002
{
1070
   371
1070
    13
1070
   372
1070
    13
1070
     3
1000

1070
   170
1070
     0
1070
   144
1040
1.0
1070
   277
1070
     2
1070
   284
1070
     8
1070
   278
1070
    46
1070
   146
1040
1.166667
1070
   345
1005
16
1070
   347
1005
16
1070
   346
1005
16
1070
   344
1005
0
1070
   343
1005
0
1070
   172
1070
     1
1070
    76
1070
     0
1070
    75
1070
     0
1070
   282
1070
     0
1070
   281
1070
     0
1070
    71
1070
     0
1070
    74
1070
     0
1070
   279
1070
     0
1070
   173
1070
     1
1070
   340
1005
CC
1070
   271
1070
     2
1070
   272
1070
     3
1070
    77
1070
     1
1070
    73
1070
     1
1070
   171
1070
     3
1070
   274
1070
     4
1070
   177
1070
     2
1070
   176
1070
     2
1070
   178
1070
     2
1070
    78
1070
     8
1070
    48
1040
-0.1
1070
    41
1040
3.5
1070
   147
1040
1.5
1070
    42
1040
1.5875
1070
    44
1040
2.0
1070
   140
1040
3.0
1002
}
1001
ACAD_DSTYLE_DIM_LINETYPE
1070
   380
1005
16
1001
ACAD_DSTYLE_DIM_EXT1_LINETYPE
1070
   381
1005
16
1001
ACAD_DSTYLE_DIM_EXT2_LINETYPE
1070
   382
1005
16
0
DIMENSION
5
106
100
AcDbEntity
8
2
62
256
6
ByLayer
370
18
48
1
60
0
100
AcDbDimension
2
_U1
10
2
20
-41.624559
30
0
11
42.5
21
-41.624559
31
0
70
32
71
1
72
1
41
1
210
0
220
0
230
1
3
Standard
100
AcDbAlignedDimension
13
83
23
0
33
0
14
2
24
-4.564
34
0
50
0
100
AcDbRotatedDimension
1001
ACAD
1000
DSTYLE
1002
{
1070
   371
1070
    13
1070
   372
1070
    13
1070
     3
1000

1070
   170
1070
     0
1070
   144
1040
1.0
1070
   277
1070
     2
1070
   284
1070
     8
1070
   278
1070
    46
1070
   146
1040
1.166667
1070
   345
1005
16
1070
   347
1005
16
1070
   346
1005
16
1070
   344
1005
0
1070
   343
1005
0
1070
   172
1070
     1
1070
    76
1070
     0
1070
    75
1070
     0
1070
   282
1070
     0
1070
   281
1070
     0
1070
    71
1070
     0
1070
    74
1070
     0
1070
   279
1070
     0
1070
   173
1070
     1
1070
   340
1005
CC
1070
   271
1070
     2
1070
   272
1070
     3
1070
    77
1070
     1
1070
    73
1070
     1
1070
   171
1070
     3
1070
   274
1070
     4
1070
   177
1070
     2
1070
   176
1070
     2
1070
   178
1070
     2
1070
    78
1070
     8
1070
    48
1040
-0.1
1070
    41
1040
3.5
1070
   147
1040
1.5
1070
    42
1040
1.5875
1070
    44
1040
2.0
1070
   140
1040
3.0
1002
}
1001
ACAD_DSTYLE_DIM_LINETYPE
1070
   380
1005
16
1001
ACAD_DSTYLE_DIM_EXT1_LINETYPE
1070
   381
1005
16
1001
ACAD_DSTYLE_DIM_EXT2_LINETYPE
1070
   382
1005
16
0
DIMENSION
5
11E
100
AcDbEntity
8
SK2
62
256
6
ByLayer
370
18
48
1
60
0
100
AcDbDimension
2
_U2
10
0
20
-36.624559
30
0
11
-21
21
-36.624559
31
0
70
32
71
1
72
1
41
1
210
0
220
0
230
1
3
Standard
100
AcDbAlignedDimension
13
-42
23
-4.564
33
0
14
0
24
-4.564
34
0
50
0
100
AcDbRotatedDimension
1001
ACAD
1000
DSTYLE
1002
{
1070
   371
1070
    13
1070
   372
1070
    13
1070
     3
1000

1070
   170
1070
     0
1070
   144
1040
1.0
1070
   277
1070
     2
1070
   284
1070
     8
1070
   278
1070
    46
1070
   146
1040
1.166667
1070
   345
1005
16
1070
   347
1005
16
1070
   346
1005
16
1070
   344
1005
0
1070
   343
1005
0
1070
   172
1070
     1
1070
    76
1070
     0
1070
    75
1070
     0
1070
   282
1070
     0
1070
   281
1070
     0
1070
    71
1070
     0
1070
    74
1070
     0
1070
   279
1070
     0
1070
   173
1070
     1
1070
   340
1005
CC
1070
   271
1070
     2
1070
   272
1070
     3
1070
    77
1070
     1
1070
    73
1070
     1
1070
   171
1070
     3
1070
   274
1070
     4
1070
   177
1070
     2
1070
   176
1070
     2
1070
   178
1070
     2
1070
    78
1070
     8
1070
    48
1040
-0.1
1070
    41
1040
3.5
1070
   147
1040
1.5
1070
    42
1040
1.5875
1070
    44
1040
2.0
1070
   140
1040
3.0
1002
}
1001
ACAD_DSTYLE_DIM_LINETYPE
1070
   380
1005
16
1001
ACAD_DSTYLE_DIM_EXT1_LINETYPE
1070
   381
1005
16
1001
ACAD_DSTYLE_DIM_EXT2_LINETYPE
1070
   382
1005
16
0
DIMENSION
5
136
100
AcDbEntity
8
2
62
256
6
ByLayer
370
18
48
1
60
0
100
AcDbDimension
2
_U3
10
22.25
20
-34.624559
30
0
11
52.625
21
-34.624559
31
0
70
32
71
1
72
1
41
1
210
0
220
0
230
1
3
Standard
100
AcDbAlignedDimension
13
83
23
0
33
0
14
22.25
24
-4.564
34
0
50
0
100
AcDbRotatedDimension
1001
ACAD
1000
DSTYLE
1002
{
1070
   371
1070
    13
1070
   372
1070
    13
1070
     3
1000

1070
   170
1070
     0
1070
   144
1040
1.0
1070
   277
1070
     2
1070
   284
1070
     8
1070
   278
1070
    46
1070
   146
1040
1.166667
1070
   345
1005
16
1070
   347
1005
16
1070
   346
1005
16
1070
   344
1005
0
1070
   343
1005
0
1070
   172
1070
     1
1070
    76
1070
     0
1070
    75
1070
     0
1070
   282
1070
     0
1070
   281
1070
     0
1070
    71
1070
     0
1070
    74
1070
     0
1070
   279
1070
     0
1070
   173
1070
     1
1070
   340
1005
CC
1070
   271
1070
     2
1070
   272
1070
     3
1070
    77
1070
     1
1070
    73
1070
     1
1070
   171
1070
     3
1070
   274
1070
     4
1070
   177
1070
     2
1070
   176
1070
     2
1070
   178
1070
     2
1070
    78
1070
     8
1070
    48
1040
-0.1
1070
    41
1040
3.5
1070
   147
1040
1.5
1070
    42
1040
1.5875
1070
    44
1040
2.0
1070
   140
1040
3.0
1002
}
1001
ACAD_DSTYLE_DIM_LINETYPE
1070
   380
1005
16
1001
ACAD_DSTYLE_DIM_EXT1_LINETYPE
1070
   381
1005
16
1001
ACAD_DSTYLE_DIM_EXT2_LINETYPE
1070
   382
1005
16
0
ENDSEC
0
SECTION
2
OBJECTS
0
DICTIONARY
5
1c0
330
0
100
AcDbDictionary
280
0
281
1
3
ACAD_GROUP
350
1c1
3
ACAD_MLINESTYLE
350
1c2
0
DICTIONARY
5
1c1
330
0
100
AcDbDictionary
280
0
281
1
0
DICTIONARY
5
1c2
330
0
100
AcDbDictionary
280
0
281
1
3
Standard
350
18
0
MLINESTYLE
5
18
330
1c2
100
AcDbMlineStyle
2
Standard
70
0
3

62
256
51
90
52
90
71
2
49
-0.5
62
256
6
ByLayer
49
0.5
62
256
6
ByLayer
0
RASTERVARIABLES
5
1ac
330

100
AcDbRasterVariables
90
0
70
1
71
1
72
1
0
ENDSEC
0
EOF
