0
SECTION
2
HEADER
9
$ACADVER
1
AC1015
9
$DWGCODEPAGE
3
ANSI_1252
9
$HANDSEED
5
1ce
9
$ANGBASE
50
0
9
$ANGDIR
70
0
9
$ATTMODE
70
1
9
$AUNITS
70
0
9
$AUPREC
70
0
9
$CECOLOR
62
256
9
$CELTSCALE
40
1
9
$CELTYPE
6
ByLayer
9
$CELWEIGHT
370
18
9
$CLAYER
8
0
9
$CMLJUST
70
0
9
$CMLSCALE
40
1
9
$CMLSTYLE
2
Standard
9
$DIMSTYLE
2
Standard
9
$TEXTSIZE
40
0.2
9
$TEXTSTYLE
7
Standard
9
$LUNITS
70
2
9
$LUPREC
70
4
9
$EXTNAMES
290
1
9
$INSUNITS
70
4
9
$LTSCALE
40
1
9
$LWDISPLAY
290
1
9
$PDMODE
70
0
9
$PDSIZE
40
0
9
$PLINEGEN
70
0
0
ENDSEC
0
SECTION
2
CLASSES
0
CLASS
1
RASTERVARIABLES
2
AcDbRasterVariables
3
ISM
90
0
280
0
281
0
0
ENDSEC
0
SECTION
2
TABLES
0
TABLE
2
VPORT
5
1c4
100
AcDbSymbolTable
0
VPORT
5
1
100
AcDbSymbolTableRecord
100
AcDbViewportTableRecord
2
*Active
70
0
10
0
20
0
11
1
21
1
12
-1
22
1
13
0
23
0
14
0.5
24
0.5
15
10
25
10
16
0
26
0
36
1
17
0
27
0
37
0
0
ENDTAB
0
TABLE
2
LTYPE
5
1c5
100
AcDbSymbolTable
0
LTYPE
5
14
100
AcDbSymbolTableRecord
100
AcDbLinetypeTableRecord
70
0
2
ByBlock
3

72
65
73
0
40
0
0
LTYPE
5
15
100
AcDbSymbolTableRecord
100
AcDbLinetypeTableRecord
70
0
2
ByLayer
3

72
65
73
0
40
0
0
LTYPE
5
16
100
AcDbSymbolTableRecord
100
AcDbLinetypeTableRecord
70
0
2
Continuous
3
Solid line
72
65
73
0
40
0
0
LTYPE
5
6E
100
AcDbSymbolTableRecord
100
AcDbLinetypeTableRecord
70
0
2
CENTER
3
____ _ ____ _ ____ _ ____
72
65
73
4
40
47.5
49
22
74
0
49
-8.5
74
0
49
8.5
74
0
49
-8.5
74
0
0
LTYPE
5
6F
100
AcDbSymbolTableRecord
100
AcDbLinetypeTableRecord
70
0
2
DASHED
3
__ __ __ __ __ __ __ __ __
72
65
73
2
40
25.72
49
12.86
74
0
49
-12.86
74
0
0
ENDTAB
0
TABLE
2
LAYER
5
1c6
100
AcDbSymbolTable
0
LAYER
5
10
100
AcDbSymbolTableRecord
100
AcDbLayerTableRecord
2
0
70
0
62
7
6
Continuous
290
1
370
-3
390
0
0
LAYER
5
71
100
AcDbSymbolTableRecord
100
AcDbLayerTableRecord
2
81
70
0
62
-3
6
Continuous
290
1
370
-3
390
0
0
LAYER
5
73
100
AcDbSymbolTableRecord
100
AcDbLayerTableRecord
2
80
70
0
62
-6
6
Continuous
290
1
370
-3
390
0
0
LAYER
5
75
100
AcDbSymbolTableRecord
100
AcDbLayerTableRecord
2
1
70
0
62
4
6
Continuous
290
1
370
-3
390
0
0
LAYER
5
7E
100
AcDbSymbolTableRecord
100
AcDbLayerTableRecord
2
4
70
0
62
-2
6
CENTER
290
1
370
-3
390
0
0
LAYER
5
A6
100
AcDbSymbolTableRecord
100
AcDbLayerTableRecord
2
2
70
0
62
7
6
Continuous
290
1
370
-3
390
0
0
LAYER
5
F1
100
AcDbSymbolTableRecord
100
AcDbLayerTableRecord
2
Defpoints
70
0
62
7
6
Continuous
290
0
370
-3
390
0
0
LAYER
5
1ae
100
AcDbSymbolTableRecord
100
AcDbLayerTableRecord
2
SK4
70
0
62
2
6
CENTER
290
1
370
-3
390
0
0
LAYER
5
1af
100
AcDbSymbolTableRecord
100
AcDbLayerTableRecord
2
SK1
70
0
62
4
6
Continuous
290
1
370
-3
390
0
0
LAYER
5
1b0
100
AcDbSymbolTableRecord
100
AcDbLayerTableRecord
2
SK2
70
0
62
7
6
Continuous
290
1
370
-3
390
0
0
LAYER
5
1b1
100
AcDbSymbolTableRecord
100
AcDbLayerTableRecord
2
NOCUT
70
0
62
-7
6
Continuous
290
1
370
-3
390
0
0
LAYER
5
1b2
100
AcDbSymbolTableRecord
100
AcDbLayerTableRecord
2
CUT
70
0
62
-1
6
Continuous
290
1
370
-3
390
0
0
LAYER
5
1b3
100
AcDbSymbolTableRecord
100
AcDbLayerTableRecord
2
SK6
70
0
62
5
6
Continuous
290
1
370
-3
390
0
0
ENDTAB
0
TABLE
2
STYLE
5
1c7
100
AcDbSymbolTable
0
STYLE
5
11
100
AcDbSymbolTableRecord
100
AcDbTextStyleTableRecord
2
Standard
3
txt
70
0
71
0
40
0
41
1
42
0
50
0
0
STYLE
5
CD
100
AcDbSymbolTableRecord
100
AcDbTextStyleTableRecord
2
iso_b_vert
3
simplex.shx
70
0
71
0
40
0
41
1
42
0
50
0
0
STYLE
5
CE
100
AcDbSymbolTableRecord
100
AcDbTextStyleTableRecord
2
DWGDirectTextStyle
3
simplex
70
0
71
0
40
0
41
1
42
0
50
0
0
ENDTAB
0
TABLE
2
DIMSTYLE
5
1c8
100
AcDbSymbolTable
100
AcDbDimStyleTable
0
DIMSTYLE
105
27
100
AcDbSymbolTableRecord
100
AcDbDimStyleTableRecord
2
Standard
70
0
3
<>
41
0.18
42
0.0625
44
0.18
140
0.18
147
0.09
73
0
74
0
77
1
271
2
275
0
278
52
280
0
340
11
0
ENDTAB
0
TABLE
2
VIEW
5
1c9
100
AcDbSymbolTable
0
ENDTAB
0
TABLE
2
UCS
5
1ca
100
AcDbSymbolTable
0
ENDTAB
0
TABLE
2
APPID
5
1cb
100
AcDbSymbolTable
0
APPID
5
12
100
AcDbSymbolTableRecord
100
AcDbRegAppTableRecord
2
ACAD
70
0
0
APPID
5
ED
100
AcDbSymbolTableRecord
100
AcDbRegAppTableRecord
2
ACAD_DSTYLE_DIMBREAK
70
0
0
APPID
5
16D
100
AcDbSymbolTableRecord
100
AcDbRegAppTableRecord
2
ACAD_DSTYLE_DIM_LINETYPE
70
0
0
APPID
5
16E
100
AcDbSymbolTableRecord
100
AcDbRegAppTableRecord
2
ACAD_DSTYLE_DIM_EXT1_LINETYPE
70
0
0
APPID
5
16F
100
AcDbSymbolTableRecord
100
AcDbRegAppTableRecord
2
ACAD_DSTYLE_DIM_EXT2_LINETYPE
70
0
0
APPID
5
1AA
100
AcDbSymbolTableRecord
100
AcDbRegAppTableRecord
2
ACAD_MLEADERVER
70
0
0
ENDTAB
0
TABLE
2
BLOCK_RECORD
5
1cc
100
AcDbSymbolTable
0
BLOCK_RECORD
5
1F
100
AcDbSymbolTableRecord
100
AcDbBlockTableRecord
2
*Model_Space
340
0
70
0
0
BLOCK_RECORD
5
1B
100
AcDbSymbolTableRecord
100
AcDbBlockTableRecord
2
*Paper_Space
340
0
70
0
0
BLOCK_RECORD
5
23
100
AcDbSymbolTableRecord
100
AcDbBlockTableRecord
2
*Paper_Space0
340
0
70
0
0
BLOCK_RECORD
5
F2
100
AcDbSymbolTableRecord
100
AcDbBlockTableRecord
2
*D1
340
0
70
0
0
BLOCK_RECORD
5
FE
100
AcDbSymbolTableRecord
100
AcDbBlockTableRecord
2
_U0
340
0
70
0
0
BLOCK_RECORD
5
10A
100
AcDbSymbolTableRecord
100
AcDbBlockTableRecord
2
*D3
340
0
70
0
0
BLOCK_RECORD
5
116
100
AcDbSymbolTableRecord
100
AcDbBlockTableRecord
2
_U1
340
0
70
0
0
BLOCK_RECORD
5
122
100
AcDbSymbolTableRecord
100
AcDbBlockTableRecord
2
*D5
340
0
70
0
0
BLOCK_RECORD
5
12E
100
AcDbSymbolTableRecord
100
AcDbBlockTableRecord
2
_U2
340
0
70
0
0
BLOCK_RECORD
5
13A
100
AcDbSymbolTableRecord
100
AcDbBlockTableRecord
2
*D7
340
0
70
0
0
BLOCK_RECORD
5
146
100
AcDbSymbolTableRecord
100
AcDbBlockTableRecord
2
_U3
340
0
70
0
0
ENDTAB
0
ENDSEC
0
SECTION
2
BLOCKS
0
BLOCK
5
20
100
AcDbEntity
8
0
100
AcDbBlockBegin
2
*Model_Space
70
0
10
0
20
0
30
0
3
*Model_Space
0
ENDBLK
5
21
100
AcDbEntity
8
0
100
AcDbBlockEnd
0
BLOCK
5
1C
100
AcDbEntity
8
0
100
AcDbBlockBegin
2
*Paper_Space
70
0
10
0
20
0
30
0
3
*Paper_Space
0
ENDBLK
5
1D
100
AcDbEntity
8
0
100
AcDbBlockEnd
0
BLOCK
5
24
100
AcDbEntity
8
0
100
AcDbBlockBegin
2
*Paper_Space0
70
0
10
0
20
0
30
0
3
*Paper_Space0
0
ENDBLK
5
25
100
AcDbEntity
8
0
100
AcDbBlockEnd
0
BLOCK
5
F3
100
AcDbEntity
8
0
100
AcDbBlockBegin
2
*D1
70
1
10
0
20
0
30
0
3
*D1
0
LINE
5
F5
100
AcDbEntity
8
0
62
256
6
ByLayer
370
-2
48
1
60
0
100
AcDbLine
10
-40
20
-5.7545
30
0
11
-40
21
-53.405878
31
0
39
0
210
0
220
0
230
1
0
LINE
5
F6
100
AcDbEntity
8
0
62
256
6
ByLayer
370
-2
48
1
60
0
100
AcDbLine
10
77
20
-1.5875
30
0
11
77
21
-53.405878
31
0
39
0
210
0
220
0
230
1
0
LINE
5
F7
100
AcDbEntity
8
0
62
256
6
ByLayer
370
-2
48
1
60
0
100
AcDbLine
10
-36.5
20
-51.405878
30
0
11
73.5
21
-51.405878
31
0
39
0
210
0
220
0
230
1
0
SOLID
5
F8
100
AcDbEntity
8
0
62
256
6
ByLayer
370
-1
48
1
60
0
100
AcDbTrace
10
-36.5
20
-50.822545
30
0
11
-36.5
21
-51.989211
31
0
12
-40
22
-51.405878
32
0
13
-40
23
-51.405878
33
0
39
0
210
0
220
0
230
1
0
SOLID
5
F9
100
AcDbEntity
8
0
62
256
6
ByLayer
370
-1
48
1
60
0
100
AcDbTrace
10
73.5
20
-51.989211
30
0
11
73.5
21
-50.822545
31
0
12
77
22
-51.405878
32
0
13
77
23
-51.405878
33
0
39
0
210
0
220
0
230
1
0
MTEXT
5
FA
100
AcDbEntity
8
0
62
256
6
ByLayer
370
18
48
1
60
0
100
AcDbMText
10
18.5
20
-45.405878
30
0
210
0
220
0
230
1
1
\A1;117
40
3
41
0
44
1
50
0
71
5
72
5
7
iso_b_vert
0
POINT
5
FB
100
AcDbEntity
8
Defpoints
62
0
6
ByLayer
370
-1
48
1
60
0
100
AcDbPoint
10
-40
20
-4.167
30
0
39
0
210
0
220
0
230
1
50
360
0
POINT
5
FC
100
AcDbEntity
8
Defpoints
62
0
6
ByLayer
370
-1
48
1
60
0
100
AcDbPoint
10
77
20
0
30
0
39
0
210
0
220
0
230
1
50
360
0
POINT
5
FD
100
AcDbEntity
8
Defpoints
62
0
6
ByLayer
370
-1
48
1
60
0
100
AcDbPoint
10
77
20
-51.405878
30
0
39
0
210
0
220
0
230
1
50
360
0
ENDBLK
5
F4
100
AcDbEntity
8
0
100
AcDbBlockEnd
0
BLOCK
5
105
100
AcDbEntity
8
0
100
AcDbBlockBegin
2
_U0
70
0
10
0
20
0
30
0
3
_U0
0
MTEXT
5
FF
100
AcDbEntity
8
SK2
62
256
6
ByLayer
370
18
48
1
60
0
100
AcDbMText
10
13.646601
20
-50.520764
30
0
210
0
220
0
230
1
1
\W0.6532;117.00
40
3
41
0
44
1.084337
50
0
71
7
72
5
7
iso_b_vert
0
LINE
5
100
100
AcDbEntity
8
SK2
62
256
6
ByLayer
370
13
48
1
60
0
100
AcDbLine
10
-40
20
-5.7545
30
0
11
-40
21
-53.405878
31
0
39
0
210
0
220
0
230
1
0
LINE
5
101
100
AcDbEntity
8
SK2
62
256
6
ByLayer
370
13
48
1
60
0
100
AcDbLine
10
77
20
-1.5875
30
0
11
77
21
-53.405878
31
0
39
0
210
0
220
0
230
1
0
LINE
5
102
100
AcDbEntity
8
SK2
62
256
6
ByLayer
370
13
48
1
60
0
100
AcDbLine
10
-40
20
-51.405878
30
0
11
77
21
-51.405878
31
0
39
0
210
0
220
0
230
1
0
SOLID
5
103
100
AcDbEntity
8
SK2
62
256
6
ByLayer
370
18
48
1
60
0
100
AcDbTrace
10
-40
20
-51.405878
30
0
11
-36.500002
21
-50.945094
31
0
12
-36.499998
22
-51.866662
32
0
13
-36.499998
23
-51.866662
33
0
39
0
210
0
220
0
230
1
0
SOLID
5
104
100
AcDbEntity
8
SK2
62
256
6
ByLayer
370
18
48
1
60
0
100
AcDbTrace
10
77
20
-51.405878
30
0
11
73.500002
21
-51.866662
31
0
12
73.499998
22
-50.945094
32
0
13
73.499998
23
-50.945094
33
0
39
0
210
0
220
0
230
1
0
ENDBLK
5
106
100
AcDbEntity
8
0
100
AcDbBlockEnd
0
BLOCK
5
10B
100
AcDbEntity
8
0
100
AcDbBlockBegin
2
*D3
70
1
10
0
20
0
30
0
3
*D3
0
LINE
5
10D
100
AcDbEntity
8
0
62
256
6
ByLayer
370
-2
48
1
60
0
100
AcDbLine
10
77
20
-1.5875
30
0
11
77
21
-43.405878
31
0
39
0
210
0
220
0
230
1
0
LINE
5
10E
100
AcDbEntity
8
0
62
256
6
ByLayer
370
-2
48
1
60
0
100
AcDbLine
10
2
20
-5.7545
30
0
11
2
21
-43.405878
31
0
39
0
210
0
220
0
230
1
0
LINE
5
10F
100
AcDbEntity
8
0
62
256
6
ByLayer
370
-2
48
1
60
0
100
AcDbLine
10
73.5
20
-41.405878
30
0
11
5.5
21
-41.405878
31
0
39
0
210
0
220
0
230
1
0
SOLID
5
110
100
AcDbEntity
8
0
62
256
6
ByLayer
370
-1
48
1
60
0
100
AcDbTrace
10
73.5
20
-41.989211
30
0
11
73.5
21
-40.822545
31
0
12
77
22
-41.405878
32
0
13
77
23
-41.405878
33
0
39
0
210
0
220
0
230
1
0
SOLID
5
111
100
AcDbEntity
8
0
62
256
6
ByLayer
370
-1
48
1
60
0
100
AcDbTrace
10
5.5
20
-40.822545
30
0
11
5.5
21
-41.989211
31
0
12
2
22
-41.405878
32
0
13
2
23
-41.405878
33
0
39
0
210
0
220
0
230
1
0
MTEXT
5
112
100
AcDbEntity
8
0
62
256
6
ByLayer
370
18
48
1
60
0
100
AcDbMText
10
39.5
20
-35.405878
30
0
210
0
220
0
230
1
1
\A1;75
40
3
41
0
44
1
50
0
71
5
72
5
7
iso_b_vert
0
POINT
5
113
100
AcDbEntity
8
Defpoints
62
0
6
ByLayer
370
-1
48
1
60
0
100
AcDbPoint
10
77
20
0
30
0
39
0
210
0
220
0
230
1
50
360
0
POINT
5
114
100
AcDbEntity
8
Defpoints
62
0
6
ByLayer
370
-1
48
1
60
0
100
AcDbPoint
10
2
20
-4.167
30
0
39
0
210
0
220
0
230
1
50
360
0
POINT
5
115
100
AcDbEntity
8
Defpoints
62
0
6
ByLayer
370
-1
48
1
60
0
100
AcDbPoint
10
2
20
-41.405878
30
0
39
0
210
0
220
0
230
1
50
360
0
ENDBLK
5
10C
100
AcDbEntity
8
0
100
AcDbBlockEnd
0
BLOCK
5
11D
100
AcDbEntity
8
0
100
AcDbBlockBegin
2
_U1
70
0
10
0
20
0
30
0
3
_U1
0
MTEXT
5
117
100
AcDbEntity
8
2
62
256
6
ByLayer
370
18
48
1
60
0
100
AcDbMText
10
35.01763
20
-40.520764
30
0
210
0
220
0
230
1
1
\W0.7468;75.00
40
3
41
0
44
1.084337
50
0
71
7
72
5
7
iso_b_vert
0
LINE
5
118
100
AcDbEntity
8
2
62
256
6
ByLayer
370
13
48
1
60
0
100
AcDbLine
10
77
20
-1.5875
30
0
11
77
21
-43.405878
31
0
39
0
210
0
220
0
230
1
0
LINE
5
119
100
AcDbEntity
8
2
62
256
6
ByLayer
370
13
48
1
60
0
100
AcDbLine
10
2
20
-5.7545
30
0
11
2
21
-43.405878
31
0
39
0
210
0
220
0
230
1
0
LINE
5
11A
100
AcDbEntity
8
2
62
256
6
ByLayer
370
13
48
1
60
0
100
AcDbLine
10
77
20
-41.405878
30
0
11
2
21
-41.405878
31
0
39
0
210
0
220
0
230
1
0
SOLID
5
11B
100
AcDbEntity
8
2
62
256
6
ByLayer
370
18
48
1
60
0
100
AcDbTrace
10
77
20
-41.405878
30
0
11
73.500002
21
-41.866662
31
0
12
73.499998
22
-40.945094
32
0
13
73.499998
23
-40.945094
33
0
39
0
210
0
220
0
230
1
0
SOLID
5
11C
100
AcDbEntity
8
2
62
256
6
ByLayer
370
18
48
1
60
0
100
AcDbTrace
10
2
20
-41.405878
30
0
11
5.499998
21
-40.945094
31
0
12
5.500002
22
-41.866662
32
0
13
5.500002
23
-41.866662
33
0
39
0
210
0
220
0
230
1
0
ENDBLK
5
11E
100
AcDbEntity
8
0
100
AcDbBlockEnd
0
BLOCK
5
123
100
AcDbEntity
8
0
100
AcDbBlockBegin
2
*D5
70
1
10
0
20
0
30
0
3
*D5
0
LINE
5
125
100
AcDbEntity
8
0
62
256
6
ByLayer
370
-2
48
1
60
0
100
AcDbLine
10
-40
20
-5.7545
30
0
11
-40
21
-38.405878
31
0
39
0
210
0
220
0
230
1
0
LINE
5
126
100
AcDbEntity
8
0
62
256
6
ByLayer
370
-2
48
1
60
0
100
AcDbLine
10
0
20
-5.7545
30
0
11
0
21
-38.405878
31
0
39
0
210
0
220
0
230
1
0
LINE
5
127
100
AcDbEntity
8
0
62
256
6
ByLayer
370
-2
48
1
60
0
100
AcDbLine
10
-36.5
20
-36.405878
30
0
11
-3.5
21
-36.405878
31
0
39
0
210
0
220
0
230
1
0
SOLID
5
128
100
AcDbEntity
8
0
62
256
6
ByLayer
370
-1
48
1
60
0
100
AcDbTrace
10
-36.5
20
-35.822545
30
0
11
-36.5
21
-36.989211
31
0
12
-40
22
-36.405878
32
0
13
-40
23
-36.405878
33
0
39
0
210
0
220
0
230
1
0
SOLID
5
129
100
AcDbEntity
8
0
62
256
6
ByLayer
370
-1
48
1
60
0
100
AcDbTrace
10
-3.5
20
-36.989211
30
0
11
-3.5
21
-35.822545
31
0
12
0
22
-36.405878
32
0
13
0
23
-36.405878
33
0
39
0
210
0
220
0
230
1
0
MTEXT
5
12A
100
AcDbEntity
8
0
62
256
6
ByLayer
370
18
48
1
60
0
100
AcDbMText
10
-20
20
-30.405878
30
0
210
0
220
0
230
1
1
\A1;40
40
3
41
0
44
1
50
0
71
5
72
5
7
iso_b_vert
0
POINT
5
12B
100
AcDbEntity
8
Defpoints
62
0
6
ByLayer
370
-1
48
1
60
0
100
AcDbPoint
10
-40
20
-4.167
30
0
39
0
210
0
220
0
230
1
50
360
0
POINT
5
12C
100
AcDbEntity
8
Defpoints
62
0
6
ByLayer
370
-1
48
1
60
0
100
AcDbPoint
10
0
20
-4.167
30
0
39
0
210
0
220
0
230
1
50
360
0
POINT
5
12D
100
AcDbEntity
8
Defpoints
62
0
6
ByLayer
370
-1
48
1
60
0
100
AcDbPoint
10
0
20
-36.405878
30
0
39
0
210
0
220
0
230
1
50
360
0
ENDBLK
5
124
100
AcDbEntity
8
0
100
AcDbBlockEnd
0
BLOCK
5
135
100
AcDbEntity
8
0
100
AcDbBlockBegin
2
_U2
70
0
10
0
20
0
30
0
3
_U2
0
MTEXT
5
12F
100
AcDbEntity
8
SK2
62
256
6
ByLayer
370
18
48
1
60
0
100
AcDbMText
10
-24.640313
20
-35.520764
30
0
210
0
220
0
230
1
1
\W0.7694;40.00
40
3
41
0
44
1.084337
50
0
71
7
72
5
7
iso_b_vert
0
LINE
5
130
100
AcDbEntity
8
SK2
62
256
6
ByLayer
370
13
48
1
60
0
100
AcDbLine
10
-40
20
-5.7545
30
0
11
-40
21
-38.405878
31
0
39
0
210
0
220
0
230
1
0
LINE
5
131
100
AcDbEntity
8
SK2
62
256
6
ByLayer
370
13
48
1
60
0
100
AcDbLine
10
0
20
-5.7545
30
0
11
0
21
-38.405878
31
0
39
0
210
0
220
0
230
1
0
LINE
5
132
100
AcDbEntity
8
SK2
62
256
6
ByLayer
370
13
48
1
60
0
100
AcDbLine
10
-40
20
-36.405878
30
0
11
0
21
-36.405878
31
0
39
0
210
0
220
0
230
1
0
SOLID
5
133
100
AcDbEntity
8
SK2
62
256
6
ByLayer
370
18
48
1
60
0
100
AcDbTrace
10
-40
20
-36.405878
30
0
11
-36.500002
21
-35.945094
31
0
12
-36.499998
22
-36.866662
32
0
13
-36.499998
23
-36.866662
33
0
39
0
210
0
220
0
230
1
0
SOLID
5
134
100
AcDbEntity
8
SK2
62
256
6
ByLayer
370
18
48
1
60
0
100
AcDbTrace
10
0
20
-36.405878
30
0
11
-3.499998
21
-36.866662
31
0
12
-3.500002
22
-35.945094
32
0
13
-3.500002
23
-35.945094
33
0
39
0
210
0
220
0
230
1
0
ENDBLK
5
136
100
AcDbEntity
8
0
100
AcDbBlockEnd
0
BLOCK
5
13B
100
AcDbEntity
8
0
100
AcDbBlockBegin
2
*D7
70
1
10
0
20
0
30
0
3
*D7
0
LINE
5
13D
100
AcDbEntity
8
0
62
256
6
ByLayer
370
-2
48
1
60
0
100
AcDbLine
10
77
20
-1.5875
30
0
11
77
21
-36.405878
31
0
39
0
210
0
220
0
230
1
0
LINE
5
13E
100
AcDbEntity
8
0
62
256
6
ByLayer
370
-2
48
1
60
0
100
AcDbLine
10
20.75
20
-5.7545
30
0
11
20.75
21
-36.405878
31
0
39
0
210
0
220
0
230
1
0
LINE
5
13F
100
AcDbEntity
8
0
62
256
6
ByLayer
370
-2
48
1
60
0
100
AcDbLine
10
73.5
20
-34.405878
30
0
11
24.25
21
-34.405878
31
0
39
0
210
0
220
0
230
1
0
SOLID
5
140
100
AcDbEntity
8
0
62
256
6
ByLayer
370
-1
48
1
60
0
100
AcDbTrace
10
73.5
20
-34.989211
30
0
11
73.5
21
-33.822545
31
0
12
77
22
-34.405878
32
0
13
77
23
-34.405878
33
0
39
0
210
0
220
0
230
1
0
SOLID
5
141
100
AcDbEntity
8
0
62
256
6
ByLayer
370
-1
48
1
60
0
100
AcDbTrace
10
24.25
20
-33.822545
30
0
11
24.25
21
-34.989211
31
0
12
20.75
22
-34.405878
32
0
13
20.75
23
-34.405878
33
0
39
0
210
0
220
0
230
1
0
MTEXT
5
142
100
AcDbEntity
8
0
62
256
6
ByLayer
370
18
48
1
60
0
100
AcDbMText
10
48.875
20
-28.405878
30
0
210
0
220
0
230
1
1
\A1;56.25
40
3
41
0
44
1
50
0
71
5
72
5
7
iso_b_vert
0
POINT
5
143
100
AcDbEntity
8
Defpoints
62
0
6
ByLayer
370
-1
48
1
60
0
100
AcDbPoint
10
77
20
0
30
0
39
0
210
0
220
0
230
1
50
360
0
POINT
5
144
100
AcDbEntity
8
Defpoints
62
0
6
ByLayer
370
-1
48
1
60
0
100
AcDbPoint
10
20.75
20
-4.167
30
0
39
0
210
0
220
0
230
1
50
360
0
POINT
5
145
100
AcDbEntity
8
Defpoints
62
0
6
ByLayer
370
-1
48
1
60
0
100
AcDbPoint
10
20.75
20
-34.405878
30
0
39
0
210
0
220
0
230
1
50
360
0
ENDBLK
5
13C
100
AcDbEntity
8
0
100
AcDbBlockEnd
0
BLOCK
5
14D
100
AcDbEntity
8
0
100
AcDbBlockBegin
2
_U3
70
0
10
0
20
0
30
0
3
_U3
0
MTEXT
5
147
100
AcDbEntity
8
2
62
256
6
ByLayer
370
18
48
1
60
0
100
AcDbMText
10
44.39263
20
-33.520764
30
0
210
0
220
0
230
1
1
\W0.7468;56.25
40
3
41
0
44
1.084337
50
0
71
7
72
5
7
iso_b_vert
0
LINE
5
148
100
AcDbEntity
8
2
62
256
6
ByLayer
370
13
48
1
60
0
100
AcDbLine
10
77
20
-1.5875
30
0
11
77
21
-36.405878
31
0
39
0
210
0
220
0
230
1
0
LINE
5
149
100
AcDbEntity
8
2
62
256
6
ByLayer
370
13
48
1
60
0
100
AcDbLine
10
20.75
20
-5.7545
30
0
11
20.75
21
-36.405878
31
0
39
0
210
0
220
0
230
1
0
LINE
5
14A
100
AcDbEntity
8
2
62
256
6
ByLayer
370
13
48
1
60
0
100
AcDbLine
10
77
20
-34.405878
30
0
11
20.75
21
-34.405878
31
0
39
0
210
0
220
0
230
1
0
SOLID
5
14B
100
AcDbEntity
8
2
62
256
6
ByLayer
370
18
48
1
60
0
100
AcDbTrace
10
77
20
-34.405878
30
0
11
73.500002
21
-34.866662
31
0
12
73.499998
22
-33.945094
32
0
13
73.499998
23
-33.945094
33
0
39
0
210
0
220
0
230
1
0
SOLID
5
14C
100
AcDbEntity
8
2
62
256
6
ByLayer
370
18
48
1
60
0
100
AcDbTrace
10
20.75
20
-34.405878
30
0
11
24.249998
21
-33.945094
31
0
12
24.250002
22
-34.866662
32
0
13
24.250002
23
-34.866662
33
0
39
0
210
0
220
0
230
1
0
ENDBLK
5
14E
100
AcDbEntity
8
0
100
AcDbBlockEnd
0
ENDSEC
0
SECTION
2
ENTITIES
0
ARC
5
B7
100
AcDbEntity
8
2
62
256
6
ByLayer
370
13
48
1
60
0
100
AcDbCircle
39
0
10
77
20
0
30
0
40
21.9999999999999
210
0
220
0
230
1
100
AcDbArc
50
7.83748
51
61.596605
0
ARC
5
B8
100
AcDbEntity
8
2
62
256
6
ByLayer
370
13
48
1
60
0
100
AcDbCircle
39
0
10
77
20
0
30
0
40
21.9999999999999
210
0
220
0
230
1
100
AcDbArc
50
298.403395
51
352.16252
0
POINT
5
70
100
AcDbEntity
8
81
62
256
6
ByLayer
370
18
48
1
60
0
100
AcDbPoint
10
77
20
0
30
0
39
0
210
0
220
0
230
1
50
360
0
POINT
5
72
100
AcDbEntity
8
80
62
256
6
ByLayer
370
18
48
1
60
0
100
AcDbPoint
10
0
20
0
30
0
39
0
210
0
220
0
230
1
50
360
0
POINT
5
74
100
AcDbEntity
8
1
62
256
6
ByLayer
370
18
48
1
60
1
100
AcDbPoint
10
-40
20
-4.167
30
0
39
0
210
0
220
0
230
1
50
360
0
POINT
5
76
100
AcDbEntity
8
1
62
256
6
ByLayer
370
18
48
1
60
1
100
AcDbPoint
10
77
20
0
30
0
39
0
210
0
220
0
230
1
50
360
0
POINT
5
77
100
AcDbEntity
8
1
62
256
6
ByLayer
370
18
48
1
60
1
100
AcDbPoint
10
77
20
0
30
0
39
0
210
0
220
0
230
1
50
360
0
POINT
5
78
100
AcDbEntity
8
1
62
256
6
ByLayer
370
18
48
1
60
1
100
AcDbPoint
10
2
20
-4.167
30
0
39
0
210
0
220
0
230
1
50
360
0
POINT
5
79
100
AcDbEntity
8
1
62
256
6
ByLayer
370
18
48
1
60
1
100
AcDbPoint
10
-40
20
-4.167
30
0
39
0
210
0
220
0
230
1
50
360
0
POINT
5
7A
100
AcDbEntity
8
1
62
256
6
ByLayer
370
18
48
1
60
1
100
AcDbPoint
10
0
20
-4.167
30
0
39
0
210
0
220
0
230
1
50
360
0
POINT
5
7B
100
AcDbEntity
8
1
62
256
6
ByLayer
370
18
48
1
60
1
100
AcDbPoint
10
77
20
0
30
0
39
0
210
0
220
0
230
1
50
360
0
POINT
5
7C
100
AcDbEntity
8
1
62
256
6
ByLayer
370
18
48
1
60
1
100
AcDbPoint
10
20.75
20
-4.167
30
0
39
0
210
0
220
0
230
1
50
360
0
SPLINE
5
B9
100
AcDbEntity
8
NOCUT
62
256
6
ByLayer
370
18
48
1
60
0
100
AcDbSpline
70
2053
71
3
72
26
73
22
40
0
40
0
40
0
40
0
40
0.469568078368386
40
0.469568078368386
40
0.469568078368386
40
0.501620457446434
40
0.501620457446434
40
0.501620457446434
40
0.658916112864877
40
0.658916112864877
40
0.658916112864877
40
0.66201542016182
40
0.66201542016182
40
0.66201542016182
40
0.965383452093223
40
0.965383452093223
40
0.965383452093223
40
0.973603703908087
40
0.973603703908087
40
0.973603703908087
40
1
40
1
40
1
40
1
41
1
10
-40
20
0
30
0
41
1
10
-19.7500000000002
20
0
30
0
41
1
10
0.499999999999574
20
0
30
0
41
1
10
20.7499999999997
20
0
30
0
41
1
10
20.75
20
1.38225042595639
30
0
41
1
10
20.75
20
2.7645008519128
30
0
41
1
10
20.75
20
4.14675127786919
30
0
41
1
10
13.966666666666
20
4.14420752786936
30
0
41
1
10
7.18333333333197
20
4.1416637778695
30
0
41
1
10
0.399999999855766
20
4.13912002787964
30
0
41
1
10
0.266666666475743
20
4.14841335192642
30
0
41
1
10
0.133333333237886
20
4.1577066759632
30
0
41
1
10
0
20
4.167
30
0
41
1
10
-13.0826666666667
20
4.167
30
0
41
1
10
-26.1653333333333
20
4.167
30
0
41
1
10
-39.248
20
4.167
30
0
41
1
10
-39.4986666666667
20
3.91633333333334
30
0
41
1
10
-39.7493333333333
20
3.66566666666665
30
0
41
1
10
-40
20
3.41499999999999
30
0
41
1
10
-40
20
2.27666666666667
30
0
41
1
10
-40
20
1.13833333333332
30
0
41
1
10
-40
20
0
30
0
0
SPLINE
5
BB
100
AcDbEntity
8
CUT
62
256
6
ByLayer
370
18
48
1
60
0
100
AcDbSpline
70
2053
71
3
72
17
73
13
40
0
40
0
40
0
40
0
40
0.472170805463798
40
0.472170805463798
40
0.472170805463798
40
0.511936156107
40
0.511936156107
40
0.511936156107
40
0.965191557495167
40
0.965191557495167
40
0.965191557495167
40
1
40
1
40
1
40
1
41
1
10
20.75
20
0
30
0
41
1
10
39.5
20
0
30
0
41
1
10
58.25
20
0
30
0
41
1
10
77
20
0
30
0
41
1
10
76.248864140149
20
1.38900000000854
30
0
41
1
10
75.4977282802981
20
2.77800000001707
30
0
41
1
10
74.7465924204471
20
4.16700000002561
30
0
41
1
10
56.7477282802977
20
4.16025042597346
30
0
41
1
10
38.7488641401483
20
4.15350085192134
30
0
41
1
10
20.7499999999995
20
4.14675127786919
30
0
41
1
10
20.75
20
2.7645008519128
30
0
41
1
10
20.75
20
1.38225042595639
30
0
41
1
10
20.75
20
0
30
0
0
SPLINE
5
BD
100
AcDbEntity
8
1
62
256
6
ByLayer
370
18
48
1
60
0
100
AcDbSpline
70
4
71
3
72
133
73
129
40
0
40
0
40
0
40
0
40
0.0156249999999998
40
0.0156249999999998
40
0.0312499999999997
40
0.0312499999999997
40
0.0625000000000016
40
0.0625000000000016
40
0.0937500000000034
40
0.0937500000000034
40
0.125000000000005
40
0.125000000000005
40
0.187500000000009
40
0.187500000000009
40
0.218750000000012
40
0.218750000000012
40
0.250000000000015
40
0.250000000000015
40
0.265625000000016
40
0.265625000000016
40
0.281250000000018
40
0.281250000000018
40
0.296875000000019
40
0.296875000000019
40
0.30468750000002
40
0.30468750000002
40
0.312500000000021
40
0.312500000000021
40
0.32812500000002
40
0.32812500000002
40
0.335937500000021
40
0.335937500000021
40
0.343750000000022
40
0.343750000000022
40
0.351562500000022
40
0.351562500000022
40
0.359375000000023
40
0.359375000000023
40
0.367187500000024
40
0.367187500000024
40
0.375000000000025
40
0.375000000000025
40
0.382812500000025
40
0.382812500000025
40
0.390625000000026
40
0.390625000000026
40
0.406250000000028
40
0.406250000000028
40
0.421875000000029
40
0.421875000000029
40
0.437500000000031
40
0.437500000000031
40
0.453125000000032
40
0.453125000000032
40
0.460937500000033
40
0.460937500000033
40
0.468750000000034
40
0.468750000000034
40
0.484375000000035
40
0.484375000000035
40
0.492187500000036
40
0.492187500000036
40
0.500000000000036
40
0.500000000000036
40
0.515625000000037
40
0.515625000000037
40
0.519531250000037
40
0.519531250000037
40
0.523437500000037
40
0.523437500000037
40
0.531250000000036
40
0.531250000000036
40
0.546875000000035
40
0.546875000000035
40
0.554687500000035
40
0.554687500000035
40
0.562500000000034
40
0.562500000000034
40
0.578125000000031
40
0.578125000000031
40
0.593750000000028
40
0.593750000000028
40
0.609375000000025
40
0.609375000000025
40
0.617187500000023
40
0.617187500000023
40
0.625000000000021
40
0.625000000000021
40
0.656250000000013
40
0.656250000000013
40
0.67187500000001
40
0.67187500000001
40
0.687500000000006
40
0.687500000000006
40
0.718750000000002
40
0.718750000000002
40
0.749999999999998
40
0.749999999999998
40
0.757812499999999
40
0.757812499999999
40
0.765624999999999
40
0.765624999999999
40
0.773437499999999
40
0.773437499999999
40
0.781249999999999
40
0.796875
40
0.796875
40
0.8125
40
0.8125
40
0.843749999999999
40
0.843749999999999
40
0.874999999999997
40
0.874999999999997
40
0.890624999999998
40
0.890624999999998
40
0.906249999999998
40
0.906249999999998
40
0.921874999999998
40
0.921874999999998
40
0.937499999999999
40
0.937499999999999
40
0.953124999999999
40
0.953124999999999
40
0.968749999999999
40
0.968749999999999
40
0.984375
40
0.984375
40
1
40
1
40
1
40
1
41
1
10
74.7465924204471
20
4.03484754303702
30
0
41
1
10
74.7679699762267
20
3.99369288302719
30
0
41
1
10
74.7893621372257
20
3.9525566425329
30
0
41
1
10
74.8321974725267
20
3.87033732367755
30
0
41
1
10
74.8536403661699
20
3.82925392482653
30
0
41
1
10
74.9179966599406
20
3.70604180024617
30
0
41
1
10
74.9609317071415
20
3.62394584586636
30
0
41
1
10
75.0466354569911
20
3.45966588436085
30
0
41
1
10
75.0894250441668
20
3.37749911477019
30
0
41
1
10
75.1749125695549
20
3.21314322383574
30
0
41
1
10
75.2176086729848
20
3.13095243480547
30
0
41
1
10
75.3454742480515
20
2.88429069879496
30
0
41
1
10
75.4303946533597
20
2.71970804832353
30
0
41
1
10
75.5568760452132
20
2.47239167112502
30
0
41
1
10
75.5988729307963
20
2.38987007576992
30
0
41
1
10
75.6825231922966
20
2.22466750777002
30
0
41
1
10
75.7241878753976
20
2.14199409256395
30
0
41
1
10
75.7863390100168
20
2.01781874435298
30
0
41
1
10
75.8069977367808
20
1.97639627894927
30
0
41
1
10
75.8481559441244
20
1.89349096661016
30
0
41
1
10
75.8686588676675
20
1.85202445202958
30
0
41
1
10
75.9097155201902
20
1.76973200377117
30
0
41
1
10
75.9302814887058
20
1.72895471676452
30
0
41
1
10
75.9616163150839
20
1.6694718598132
30
0
41
1
10
75.9721413233341
20
1.64991791704196
30
0
41
1
10
75.9933681274671
20
1.61136550973597
30
0
41
1
10
76.0040719450782
20
1.5923725104845
30
0
41
1
10
76.0363868274461
20
1.53600508577895
30
0
41
1
10
76.0582155665867
20
1.4992773951648
30
0
41
1
10
76.0909139091885
20
1.44407081006881
30
0
41
1
10
76.1018012679094
20
1.42563789157086
30
0
41
1
10
76.1234884698195
20
1.38853921975647
30
0
41
1
10
76.1342923655686
20
1.36988502155896
30
0
41
1
10
76.1558095846149
20
1.33234842494127
30
0
41
1
10
76.1665265770985
20
1.31347647234779
30
0
41
1
10
76.1879037028044
20
1.27560968260144
30
0
41
1
10
76.1985617394366
20
1.25660899259708
30
0
41
1
10
76.219817984742
20
1.21848882849886
30
0
41
1
10
76.2304170554003
20
1.19936988224649
30
0
41
1
10
76.2515555078519
20
1.1610339409805
30
0
41
1
10
76.262088188562
20
1.14182180467176
30
0
41
1
10
76.2830433066358
20
1.10326166236084
30
0
41
1
10
76.2934644028608
20
1.08391156324188
30
0
41
1
10
76.314155959165
20
1.04502937630974
30
0
41
1
10
76.324429497135
20
1.02550210763675
30
0
41
1
10
76.3550296497831
20
0.966683507192556
30
0
41
1
10
76.3751526652824
20
0.92717705357984
30
0
41
1
10
76.4146580369389
20
0.847485792140105
30
0
41
1
10
76.4340346839985
20
0.80729095085286
30
0
41
1
10
76.4716992335518
20
0.726012608261271
30
0
41
1
10
76.4899907634617
20
0.68493191750369
30
0
41
1
10
76.525002928577
20
0.601650297797903
30
0
41
1
10
76.5417370893271
20
0.559461825605354
30
0
41
1
10
76.5650732957961
20
0.495046907099891
30
0
41
1
10
76.5725329890206
20
0.473437205771973
30
0
41
1
10
76.5865995365751
20
0.430082773566426
30
0
41
1
10
76.5932138221552
20
0.408310746563501
30
0
41
1
10
76.6115584763494
20
0.342652316419958
30
0
41
1
10
76.6218401058026
20
0.298433400250985
30
0
41
1
10
76.6330008136266
20
0.231123644215188
30
0
41
1
10
76.6360087099572
20
0.208472553419853
30
0
41
1
10
76.640317266184
20
0.162995509745088
30
0
41
1
10
76.6415980993802
20
0.140387935374577
30
0
41
1
10
76.6427381830163
20
0.0729739159977214
30
0
41
1
10
76.6398640742846
20
0.0285765412978947
30
0
41
1
10
76.6319773891725
20
-0.0262064618242448
30
0
41
1
10
76.6301872855512
20
-0.0371272526099631
30
0
41
1
10
76.6261964328965
20
-0.0588967041094008
30
0
41
1
10
76.623989707566
20
-0.0697705138484537
30
0
41
1
10
76.6168399228417
20
-0.102030342176192
30
0
41
1
10
76.6113675142061
20
-0.123088277165039
30
0
41
1
10
76.5932130510126
20
-0.185079553890034
30
0
41
1
10
76.5788121243679
20
-0.224835726806901
30
0
41
1
10
76.5549395837728
20
-0.282623962468733
30
0
41
1
10
76.5465980731452
20
-0.301576589273992
30
0
41
1
10
76.5292756409389
20
-0.338906478329363
30
0
41
1
10
76.5202809896383
20
-0.357310058508744
30
0
41
1
10
76.4925772242056
20
-0.411531125788372
30
0
41
1
10
76.4733245919043
20
-0.446076570124973
30
0
41
1
10
76.4337939073423
20
-0.512186858778279
30
0
41
1
10
76.4135121528289
20
-0.543749078150341
30
0
41
1
10
76.3722462704501
20
-0.604153962015175
30
0
41
1
10
76.3512546246557
20
-0.632971135446638
30
0
41
1
10
76.3193688622328
20
-0.674286955471814
30
0
41
1
10
76.3086737809733
20
-0.68774456619451
30
0
41
1
10
76.2871636833273
20
-0.714048679179513
30
0
41
1
10
76.2763449753145
20
-0.726893118213411
30
0
41
1
10
76.2223903786057
20
-0.78904599277206
30
0
41
1
10
76.1793521353013
20
-0.832575292157287
30
0
41
1
10
76.1149726358853
20
-0.889692629758684
30
0
41
1
10
76.0935392622582
20
-0.90733688721366
30
0
41
1
10
76.0506947554101
20
-0.939853706238608
30
0
41
1
10
76.029227237346
20
-0.954757937557588
30
0
41
1
10
75.9655621668673
20
-0.994872816848499
30
0
41
1
10
75.923892944721
20
-1.01572809935189
30
0
41
1
10
75.8415173614677
20
-1.04720715736406
30
0
41
1
10
75.8008275183312
20
-1.0577018406573
30
0
41
1
10
75.750271276032
20
-1.06499403362505
30
0
41
1
10
75.740180651856
20
-1.06613831838908
30
0
41
1
10
75.7200560522964
20
-1.06770489101299
30
0
41
1
10
75.7100206801654
20
-1.06812286281411
30
0
41
1
10
75.6899245625117
20
-1.06882099150707
30
0
41
1
10
75.6798559966264
20
-1.06916441275189
30
0
41
1
10
75.6596289698044
20
-1.0702815976961
30
0
41
1
10
75.629174487592
20
-1.07243549513902
30
0
41
1
10
75.5984232116734
20
-1.07591369102312
30
0
41
1
10
75.5572669457223
20
-1.08107231806383
30
0
41
1
10
75.5366067539895
20
-1.08394928811225
30
0
41
1
10
75.4744425861415
20
-1.09319194243318
30
0
41
1
10
75.4327723570767
20
-1.09997674963805
30
0
41
1
10
75.3489516667567
20
-1.11643660545891
30
0
41
1
10
75.3068138351401
20
-1.12600296772527
30
0
41
1
10
75.2433454578851
20
-1.14235617891902
30
0
41
1
10
75.2221445084073
20
-1.14815070922347
30
0
41
1
10
75.1796491335281
20
-1.16060583630369
30
0
41
1
10
75.1583533393184
20
-1.16728266153922
30
0
41
1
10
75.1156453957547
20
-1.1819319397795
30
0
41
1
10
75.0942331683025
20
-1.18990678954251
30
0
41
1
10
75.0512823671014
20
-1.2074201410679
30
0
41
1
10
75.0297417187078
20
-1.2169872613633
30
0
41
1
10
74.9865325106028
20
-1.23780962522377
30
0
41
1
10
74.9648644433092
20
-1.24905833739905
30
0
41
1
10
74.9214165426992
20
-1.27307695785836
30
0
41
1
10
74.8996380345544
20
-1.28582814090035
30
0
41
1
10
74.8560111996536
20
-1.31228899775471
30
0
41
1
10
74.834163016385
20
-1.3259959740131
30
0
41
1
10
74.7904168062172
20
-1.35409025966101
30
0
41
1
10
74.7685241855086
20
-1.36840397970934
30
0
41
1
10
74.7465924204468
20
-1.38324712270582
30
0
0
SPLINE
5
BE
100
AcDbEntity
8
1
62
256
6
ByLayer
370
18
48
1
60
0
100
AcDbSpline
70
4
71
3
72
74
73
70
40
0
40
0
40
0
40
0
40
0.0362082698546183
40
0.0362082698546183
40
0.0724165397092365
40
0.0724165397092365
40
0.108624809563855
40
0.108624809563855
40
0.126728944491164
40
0.126728944491164
40
0.144833079418473
40
0.144833079418473
40
0.181041349273094
40
0.181041349273094
40
0.217249619127714
40
0.217249619127714
40
0.253457888982335
40
0.253457888982335
40
0.289666158836955
40
0.289666158836955
40
0.325874428691576
40
0.325874428691576
40
0.362082698546196
40
0.362082698546196
40
0.380186833473506
40
0.380186833473506
40
0.398290968400816
40
0.398290968400816
40
0.434499238255435
40
0.434499238255435
40
0.452603373182744
40
0.452603373182744
40
0.470707508110053
40
0.470707508110053
40
0.506915777964673
40
0.506915777964673
40
0.543124047819294
40
0.543124047819294
40
0.579332317673915
40
0.579332317673915
40
0.615540587528535
40
0.615540587528535
40
0.651748857383156
40
0.651748857383156
40
0.687957127237776
40
0.687957127237776
40
0.724165397092397
40
0.724165397092397
40
0.742269532019706
40
0.742269532019706
40
0.760373666947015
40
0.760373666947015
40
0.778477801874324
40
0.778477801874324
40
0.796581936801633
40
0.796581936801633
40
0.832790206656254
40
0.832790206656254
40
0.868998476510874
40
0.868998476510874
40
0.905206746365495
40
0.905206746365495
40
0.941415016220116
40
0.941415016220116
40
0.959519151147426
40
0.959519151147426
40
0.977623286074736
40
0.977623286074736
40
1
40
1
40
1
40
1
41
1
10
74.7465924204489
20
-1.38324712270725
30
0
41
1
10
74.5717742027676
20
-1.29170187821393
30
0
41
1
10
74.3975433882485
20
-1.19911036138595
30
0
41
1
10
74.0496181941689
20
-1.01301295857434
30
0
41
1
10
73.8759052498831
20
-0.91954115377311
30
0
41
1
10
73.5291539013995
20
-0.73142656253475
30
0
41
1
10
73.35618383763
20
-0.636657795542874
30
0
41
1
10
73.0970729989088
20
-0.493924738506621
30
0
41
1
10
73.0107532809141
20
-0.446262964499823
30
0
41
1
10
72.8381294743246
20
-0.350928742946934
30
0
41
1
10
72.7518199771147
20
-0.303266253050452
30
0
41
1
10
72.4929191543278
20
-0.160254745843901
30
0
41
1
10
72.3203581086642
20
-0.0648768049325668
30
0
41
1
10
71.9755318791811
20
0.126352133215193
30
0
41
1
10
71.8032371314849
20
0.222148512083521
30
0
41
1
10
71.458287466838
20
0.413006310853746
30
0
41
1
10
71.285576804776
20
0.507965341837576
30
0
41
1
10
70.9398137571273
20
0.697182826029433
30
0
41
1
10
70.7668313747858
20
0.791569890812809
30
0
41
1
10
70.4204465310916
20
0.979498128550659
30
0
41
1
10
70.2469809380324
20
1.07292326481021
30
0
41
1
10
69.8990128375884
20
1.25779450216262
30
0
41
1
10
69.7245633134759
20
1.34933803525209
30
0
41
1
10
69.4623625254126
20
1.4856292381748
30
0
41
1
10
69.3749734192606
20
1.53083070496032
30
0
41
1
10
69.2005615192361
20
1.62045002608053
30
0
41
1
10
69.1134784969791
20
1.66490142228923
30
0
41
1
10
68.8524734338095
20
1.79697348805763
30
0
41
1
10
68.6787338757439
20
1.88320964038155
30
0
41
1
10
68.4185464523313
20
2.00996057547962
30
0
41
1
10
68.3318930674614
20
2.05178560394833
30
0
41
1
10
68.1587737259684
20
2.13464499181234
30
0
41
1
10
68.0723079651849
20
2.17567896405737
30
0
41
1
10
67.8130984735379
20
2.2974416863691
30
0
41
1
10
67.640536277658
20
2.37681714236359
30
0
41
1
10
67.2953278639183
20
2.53114017153459
30
0
41
1
10
67.1227256509371
20
2.60616446335081
30
0
41
1
10
66.7777540295739
20
2.75227937852696
30
0
41
1
10
66.6054204621718
20
2.82341006998877
30
0
41
1
10
66.2605228598461
20
2.96105339774275
30
0
41
1
10
66.0878829093088
20
3.0274714210579
30
0
41
1
10
65.7421369717568
20
3.15541390327024
30
0
41
1
10
65.5690982834875
20
3.21702392457306
30
0
41
1
10
65.2227230719339
20
3.33549301049143
30
0
41
1
10
65.0493372335998
20
3.39228524586764
30
0
41
1
10
64.7015385278528
20
3.50024876318139
30
0
41
1
10
64.5271464686496
20
3.55145469640695
30
0
41
1
10
64.2649653552732
20
3.62420956076809
30
0
41
1
10
64.1774819334634
20
3.64779147900359
30
0
41
1
10
64.002953282953
20
3.69340106375296
30
0
41
1
10
63.915823342873
20
3.71544864742319
30
0
41
1
10
63.7417604912204
20
3.7579757911187
30
0
41
1
10
63.6548259319981
20
3.77845382860363
30
0
41
1
10
63.4810658723803
20
3.8177895970687
30
0
41
1
10
63.3942449239817
20
3.83665202921153
30
0
41
1
10
63.1339855908531
20
3.89086932170233
30
0
41
1
10
62.9607676614318
20
3.92387119773534
30
0
41
1
10
62.6150353860693
20
3.98368583465785
30
0
41
1
10
62.4424781051026
20
4.01045742190442
30
0
41
1
10
62.0973535863452
20
4.05745159737228
30
0
41
1
10
61.9247726219739
20
4.07768502726805
30
0
41
1
10
61.579759328194
20
4.11174624694124
30
0
41
1
10
61.4073954072291
20
4.12558534188798
30
0
41
1
10
61.1487960332165
20
4.14143758744083
30
0
41
1
10
61.0625805314677
20
4.14590277880004
30
0
41
1
10
60.8900325651359
20
4.15318290963458
30
0
41
1
10
60.8036946071038
20
4.15599811019726
30
0
41
1
10
60.6105154569671
20
4.16045639591817
30
0
41
1
10
60.5036454225817
20
4.16166883448366
30
0
41
1
10
60.3967144882992
20
4.16162019875313
30
0
0
SPLINE
5
BF
100
AcDbEntity
8
1
62
256
6
ByLayer
370
18
48
1
60
0
100
AcDbSpline
70
4
71
3
72
144
73
140
40
0
40
0
40
0
40
0
40
0.0166265773358225
40
0.0166265773358225
40
0.0340548601630964
40
0.0340548601630964
40
0.0514831429903701
40
0.0514831429903701
40
0.0689114258176439
40
0.0689114258176439
40
0.0863397086449178
40
0.0863397086449178
40
0.103767991472191
40
0.103767991472191
40
0.112482132885829
40
0.112482132885829
40
0.121196274299465
40
0.121196274299465
40
0.138624557126739
40
0.138624557126739
40
0.156052839954013
40
0.156052839954013
40
0.173481122781287
40
0.173481122781287
40
0.182195264194923
40
0.182195264194923
40
0.190909405608559
40
0.190909405608559
40
0.199623547022196
40
0.199623547022196
40
0.208337688435832
40
0.208337688435832
40
0.225765971263105
40
0.225765971263105
40
0.243194254090378
40
0.243194254090378
40
0.260622536917651
40
0.260622536917651
40
0.278050819744924
40
0.278050819744924
40
0.295479102572196
40
0.295479102572196
40
0.312907385399469
40
0.312907385399469
40
0.330335668226742
40
0.330335668226742
40
0.347763951054015
40
0.347763951054015
40
0.356478092467652
40
0.356478092467652
40
0.365192233881288
40
0.365192233881288
40
0.382620516708562
40
0.382620516708562
40
0.400048799535836
40
0.400048799535836
40
0.41747708236311
40
0.41747708236311
40
0.434905365190383
40
0.434905365190383
40
0.452333648017657
40
0.452333648017657
40
0.469761930844931
40
0.469761930844931
40
0.487190213672205
40
0.487190213672205
40
0.504618496499479
40
0.504618496499479
40
0.513332637913116
40
0.513332637913116
40
0.522046779326753
40
0.522046779326753
40
0.530760920740391
40
0.530760920740391
40
0.539475062154028
40
0.539475062154028
40
0.556903344981303
40
0.556903344981303
40
0.574331627808578
40
0.574331627808578
40
0.591759910635853
40
0.591759910635853
40
0.60047405204949
40
0.60047405204949
40
0.609188193463127
40
0.609188193463127
40
0.626616476290402
40
0.626616476290402
40
0.644044759117677
40
0.644044759117677
40
0.661473041944952
40
0.661473041944952
40
0.678901324772227
40
0.678901324772227
40
0.696329607599501
40
0.696329607599501
40
0.705043749013138
40
0.705043749013138
40
0.713757890426776
40
0.713757890426776
40
0.73118617325405
40
0.73118617325405
40
0.748614456081325
40
0.748614456081325
40
0.7660427389086
40
0.7660427389086
40
0.783471021735875
40
0.783471021735875
40
0.80089930456315
40
0.80089930456315
40
0.818327587390424
40
0.818327587390424
40
0.835755870217699
40
0.835755870217699
40
0.844470011631336
40
0.844470011631336
40
0.853184153044973
40
0.853184153044973
40
0.870612435872247
40
0.870612435872247
40
0.879326577285884
40
0.879326577285884
40
0.883683647992703
40
0.883683647992703
40
0.888040718699522
40
0.888040718699522
40
0.905469001526797
40
0.905469001526797
40
0.922897284354072
40
0.922897284354072
40
0.940325567181347
40
0.940325567181347
40
0.957753850008621
40
0.957753850008621
40
0.975182132835896
40
0.975182132835896
40
0.992610415663171
40
0.992610415663171
40
1
40
1
40
1
40
1
41
1
10
43.0135560310587
20
-2.80844984762655
30
0
41
1
10
42.8467632840864
20
-2.87634506623823
30
0
41
1
10
42.6805215165884
20
-2.94215226283677
30
0
41
1
10
42.3406579257987
20
-3.07202989554517
30
0
41
1
10
42.1669908410277
20
-3.13577354410018
30
0
41
1
10
41.8201386807378
20
-3.25787853391745
30
0
41
1
10
41.6470227475693
20
-3.31632357299083
30
0
41
1
10
41.3014001240479
20
-3.42798440945816
30
0
41
1
10
41.1288427543335
20
-3.48113353674768
30
0
41
1
10
40.7836206227884
20
-3.58149024963549
30
0
41
1
10
40.6109859220461
20
-3.62874270891683
30
0
41
1
10
40.2658822245479
20
-3.71761176607839
30
0
41
1
10
40.0934680126716
20
-3.75926262295317
30
0
41
1
10
39.8346902327336
20
-3.81723023706965
30
0
41
1
10
39.748399777637
20
-3.83579834487614
30
0
41
1
10
39.5756757405353
20
-3.87137170371096
30
0
41
1
10
39.489247692921
20
-3.88838174059882
30
0
41
1
10
39.2297942959129
20
-3.9371048423871
30
0
41
1
10
39.0566194205123
20
-3.96652771040101
30
0
41
1
10
38.7099699219897
20
-4.01922914567774
30
0
41
1
10
38.5364504475328
20
-4.0424696120769
30
0
41
1
10
38.1883883996259
20
-4.0823803224618
30
0
41
1
10
38.0138408409325
20
-4.09906521724446
30
0
41
1
10
37.7513803414273
20
-4.11918447526506
30
0
41
1
10
37.6638977093181
20
-4.12506415179783
30
0
41
1
10
37.4893364720382
20
-4.13513796354584
30
0
41
1
10
37.4021907380947
20
-4.13933516507794
30
0
41
1
10
37.2281010335148
20
-4.14604654541256
30
0
41
1
10
37.1411562118334
20
-4.14856040925423
30
0
41
1
10
36.9673789539754
20
-4.15191306926116
30
0
41
1
10
36.8805444987561
20
-4.15275289147471
30
0
41
1
10
36.620228732378
20
-4.152791672749
30
0
41
1
10
36.4469409244744
20
-4.14951612190353
30
0
41
1
10
36.1010627338246
20
-4.13637073474772
30
0
41
1
10
35.9284360054799
20
-4.12648872773818
30
0
41
1
10
35.5832007307129
20
-4.10025591311606
30
0
41
1
10
35.4105504875535
20
-4.08393169315985
30
0
41
1
10
35.0653461363758
20
-4.04487295255734
30
0
41
1
10
34.8928619682328
20
-4.02210299456269
30
0
41
1
10
34.5478552384087
20
-3.97013652716152
30
0
41
1
10
34.375266051028
20
-3.94096996068839
30
0
41
1
10
34.029476649475
20
-3.87654378798982
30
0
41
1
10
33.8563316300672
20
-3.8412639330663
30
0
41
1
10
33.5097776938689
20
-3.76433595181328
30
0
41
1
10
33.3363551414238
20
-3.72268058275432
30
0
41
1
10
32.9886387867074
20
-3.63336952361527
30
0
41
1
10
32.8142787361815
20
-3.58578701595727
30
0
41
1
10
32.5520401780982
20
-3.50994073956468
30
0
41
1
10
32.4644425568802
20
-3.48388431571522
30
0
41
1
10
32.289638918534
20
-3.4303947009798
30
0
41
1
10
32.2023845358524
20
-3.4029523852237
30
0
41
1
10
31.9409676398784
20
-3.31864369504268
30
0
41
1
10
31.7671367843496
20
-3.25980843030373
30
0
41
1
10
31.419826295358
20
-3.13759726964267
30
0
41
1
10
31.2463952541832
20
-3.07417291013138
30
0
41
1
10
30.9002170992596
20
-2.94242514477739
30
0
41
1
10
30.7274866156373
20
-2.87406985327598
30
0
41
1
10
30.3821919213289
20
-2.73313378486193
30
0
41
1
10
30.2095530157929
20
-2.66066226170187
30
0
41
1
10
29.8642757320895
20
-2.51178271884515
30
0
41
1
10
29.6917064347343
20
-2.43527461561936
30
0
41
1
10
29.346680344752
20
-2.2781247952266
30
0
41
1
10
29.174171325952
20
-2.1975550882606
30
0
41
1
10
28.8285486984625
20
-2.0333881828013
30
0
41
1
10
28.6554685736425
20
-1.94974812237538
30
0
41
1
10
28.3089842778097
20
-1.77898382795226
30
0
41
1
10
28.1356312281379
20
-1.69176449021674
30
0
41
1
10
27.8750617442828
20
-1.55876781235736
30
0
41
1
10
27.7881097741603
20
-1.51408462042201
30
0
41
1
10
27.6139382454432
20
-1.42415156864874
30
0
41
1
10
27.5267251684892
20
-1.37889069953971
30
0
41
1
10
27.3520627458072
20
-1.28774379409884
30
0
41
1
10
27.2645912567685
20
-1.24184724478647
30
0
41
1
10
27.0895326608837
20
-1.14940947438367
30
0
41
1
10
27.0021541036583
20
-1.10295960395803
30
0
41
1
10
26.7404160253669
20
-0.963019731587707
30
0
41
1
10
26.5664502405199
20
-0.86894731689199
30
0
41
1
10
26.218927145981
20
-0.680447317276588
30
0
41
1
10
26.0453771862312
20
-0.586004825783846
30
0
41
1
10
25.6988914364686
20
-0.396371954663181
30
0
41
1
10
25.5260203197179
20
-0.30106166476196
30
0
41
1
10
25.266958925973
20
-0.157937750597199
30
0
41
1
10
25.1806405571136
20
-0.110213463504238
30
0
41
1
10
25.0079884188144
20
-0.0148918185818161
30
0
41
1
10
24.9216548387117
20
0.0327059571504549
30
0
41
1
10
24.6626592717544
20
0.175362449954036
30
0
41
1
10
24.4900107219107
20
0.270299981283927
30
0
41
1
10
24.1449221360591
20
0.460168342245311
30
0
41
1
10
23.9724428735888
20
0.555025849441563
30
0
41
1
10
23.6270003384894
20
0.743456624110621
30
0
41
1
10
23.4540002985622
20
0.836963388153123
30
0
41
1
10
23.1076112959088
20
1.02286867390501
30
0
41
1
10
22.9342912544131
20
1.1153926089876
30
0
41
1
10
22.5871018070503
20
1.29903134445976
30
0
41
1
10
22.4131635787415
20
1.39002069653589
30
0
41
1
10
22.1514323178086
20
1.5246977537098
30
0
41
1
10
22.064065585545
20
1.56931504351408
30
0
41
1
10
21.8891109790774
20
1.65804371863212
30
0
41
1
10
21.8015155533511
20
1.70216487229337
30
0
41
1
10
21.539419646944
20
1.83334662114649
30
0
41
1
10
21.3652667398831
20
1.91935431315287
30
0
41
1
10
21.0175205861304
20
2.08750578633814
30
0
41
1
10
20.8438659578989
20
2.16955781204706
30
0
41
1
10
20.4970974210669
20
2.32987214894996
30
0
41
1
10
20.3240544952282
20
2.40824212960084
30
0
41
1
10
19.9784606710277
20
2.56110625793192
30
0
41
1
10
19.8058488087599
20
2.63550470549663
30
0
41
1
10
19.4604863893507
20
2.77955005194488
30
0
41
1
10
19.28778629162
20
2.84927886764123
30
0
41
1
10
18.9425929383042
20
2.98447705451204
30
0
41
1
10
18.7701088624472
20
3.04994668046325
30
0
41
1
10
18.4248060363312
20
3.17588271084438
30
0
41
1
10
18.2519132106497
20
3.23626652050535
30
0
41
1
10
17.9922141671358
20
3.32298092207591
30
0
41
1
10
17.9055943043598
20
3.35124926332478
30
0
41
1
10
17.732282516848
20
3.40654361765203
30
0
41
1
10
17.645594696747
20
3.43357338432531
30
0
41
1
10
17.3853439082733
20
3.51269430753288
30
0
41
1
10
17.2115915528725
20
3.56280960025282
30
0
41
1
10
16.9501367799107
20
3.63356262627039
30
0
41
1
10
16.862858946478
20
3.65642319625644
30
0
41
1
10
16.7317670236998
20
3.6896380095067
30
0
41
1
10
16.6880406171741
20
3.70053030230426
30
0
41
1
10
16.6005334971682
20
3.72195834885622
30
0
41
1
10
16.5567359135601
20
3.7324979812108
30
0
41
1
10
16.3379983406325
20
3.78422130866721
30
0
41
1
10
16.1636268741317
20
3.82255701260283
30
0
41
1
10
15.8155945709585
20
3.89279089544581
30
0
41
1
10
15.6418566737628
20
3.92464475195996
30
0
41
1
10
15.2948265916701
20
3.98189965975666
30
0
41
1
10
15.1216016542394
20
4.00734203141911
30
0
41
1
10
14.7757802426576
20
4.05188205442912
30
0
41
1
10
14.6031361237675
20
4.07094431233733
30
0
41
1
10
14.2577512844346
20
4.10247426469175
30
0
41
1
10
14.0850268488504
20
4.11496465501543
30
0
41
1
10
13.7397169165286
20
4.13347673587282
30
0
41
1
10
13.5671940213396
20
4.1394962500994
30
0
41
1
10
13.3213963341835
20
4.14337591168209
30
0
41
1
10
13.2481899269917
20
4.14393900943131
30
0
41
1
10
13.1749377838813
20
4.14391059442139
30
0
0
SPLINE
5
C0
100
AcDbEntity
8
1
62
256
6
ByLayer
370
18
48
1
60
0
100
AcDbSpline
70
4
71
3
72
152
73
148
40
0
40
0
40
0
40
0
40
0.0122691936028936
40
0.0122691936028936
40
0.0277605805599732
40
0.0277605805599732
40
0.0432519675170528
40
0.0432519675170528
40
0.0509976609955923
40
0.0509976609955923
40
0.0587433544741319
40
0.0587433544741319
40
0.0742347414312104
40
0.0742347414312104
40
0.0897261283882889
40
0.0897261283882889
40
0.105217515345367
40
0.105217515345367
40
0.120708902302446
40
0.120708902302446
40
0.136200289259525
40
0.136200289259525
40
0.151691676216603
40
0.151691676216603
40
0.167183063173682
40
0.167183063173682
40
0.18267445013076
40
0.18267445013076
40
0.198165837087839
40
0.198165837087839
40
0.213657224044917
40
0.213657224044917
40
0.221402917523457
40
0.221402917523457
40
0.229148611001996
40
0.229148611001996
40
0.244639997959074
40
0.244639997959074
40
0.260131384916153
40
0.260131384916153
40
0.275622771873231
40
0.275622771873231
40
0.29111415883031
40
0.29111415883031
40
0.306605545787388
40
0.306605545787388
40
0.322096932744467
40
0.322096932744467
40
0.329842626223006
40
0.329842626223006
40
0.337588319701546
40
0.337588319701546
40
0.353079706658623
40
0.353079706658623
40
0.3685710936157
40
0.3685710936157
40
0.384062480572778
40
0.384062480572778
40
0.399553867529855
40
0.399553867529855
40
0.407299561008393
40
0.407299561008393
40
0.415045254486932
40
0.415045254486932
40
0.430536641444007
40
0.430536641444007
40
0.446028028401083
40
0.446028028401083
40
0.461519415358158
40
0.461519415358158
40
0.477010802315233
40
0.477010802315233
40
0.492502189272308
40
0.492502189272308
40
0.507993576229384
40
0.507993576229384
40
0.523484963186459
40
0.523484963186459
40
0.538976350143534
40
0.538976350143534
40
0.55446773710061
40
0.55446773710061
40
0.569959124057685
40
0.569959124057685
40
0.577704817536223
40
0.577704817536223
40
0.585450511014761
40
0.585450511014761
40
0.600941897971837
40
0.600941897971837
40
0.616433284928913
40
0.616433284928913
40
0.631924671885989
40
0.631924671885989
40
0.647416058843066
40
0.647416058843066
40
0.662907445800142
40
0.662907445800142
40
0.678398832757218
40
0.678398832757218
40
0.686144526235757
40
0.686144526235757
40
0.693890219714295
40
0.693890219714295
40
0.709381606671371
40
0.709381606671371
40
0.724872993628448
40
0.724872993628448
40
0.740364380585524
40
0.740364380585524
40
0.7558557675426
40
0.7558557675426
40
0.763601461021139
40
0.763601461021139
40
0.771347154499677
40
0.771347154499677
40
0.786838541456752
40
0.786838541456752
40
0.802329928413827
40
0.802329928413827
40
0.817821315370903
40
0.817821315370903
40
0.833312702327978
40
0.833312702327978
40
0.848804089285053
40
0.848804089285053
40
0.864295476242128
40
0.864295476242128
40
0.879786863199203
40
0.879786863199203
40
0.895278250156279
40
0.895278250156279
40
0.910769637113354
40
0.910769637113354
40
0.92626102407043
40
0.92626102407043
40
0.934006717548967
40
0.934006717548967
40
0.941752411027505
40
0.941752411027505
40
0.95724379798458
40
0.95724379798458
40
0.972735184941655
40
0.972735184941655
40
0.98822657189873
40
0.98822657189873
40
1
40
1
40
1
40
1
41
1
10
19.3947124224548
20
2.80615867267284
30
0
41
1
10
19.5164458881974
20
2.85573436191808
30
0
41
1
10
19.638244392045
20
2.90429918262302
30
0
41
1
10
19.914286345088
20
3.01146118515871
30
0
41
1
10
20.0686943334826
20
3.06929229198533
30
0
41
1
10
20.3780959538382
20
3.18120893870892
30
0
41
1
10
20.5330374037243
20
3.23535922699307
30
0
41
1
10
20.7657856772638
20
3.31384619141593
30
0
41
1
10
20.8434937019591
20
3.33955399471779
30
0
41
1
10
20.9988464380695
20
3.38983608782607
30
0
41
1
10
21.0764367884643
20
3.41439412915145
30
0
41
1
10
21.3090323774273
20
3.48625114823332
30
0
41
1
10
21.4639141203184
20
3.53168631154603
30
0
41
1
10
21.7730447339001
20
3.61799771638499
30
0
41
1
10
21.9272561998679
20
3.65890284219756
30
0
41
1
10
22.2350574024082
20
3.73611761199314
30
0
41
1
10
22.3887159169179
20
3.77236140415133
30
0
41
1
10
22.6960276238839
20
3.83980802815643
30
0
41
1
10
22.8496959156735
20
3.87101455534693
30
0
41
1
10
23.1567258100305
20
3.92866441289775
30
0
41
1
10
23.3100544825302
20
3.955118466453
30
0
41
1
10
23.6165568916837
20
4.00310621475037
30
0
41
1
10
23.7697929657066
20
4.02460314346968
30
0
41
1
10
24.0766860848474
20
4.06243301088298
30
0
41
1
10
24.2303169985957
20
4.07879070170796
30
0
41
1
10
24.5376310266731
20
4.10649485489859
30
0
41
1
10
24.6912779434717
20
4.11784023261381
30
0
41
1
10
24.9988995122279
20
4.13534411224953
30
0
41
1
10
25.1529274415413
20
4.14149162641604
30
0
41
1
10
25.4617933256997
20
4.14853893959096
30
0
41
1
10
25.616572410736
20
4.14945592898974
30
0
41
1
10
25.8490603735859
20
4.14687207797735
30
0
41
1
10
25.9266083710722
20
4.14534878469337
30
0
41
1
10
26.0818340859283
20
4.14096050160319
30
0
41
1
10
26.1595774506791
20
4.13809229811636
30
0
41
1
10
26.3924586125509
20
4.12750727189305
30
0
41
1
10
26.5474000631678
20
4.11781470140681
30
0
41
1
10
26.8569263548068
20
4.09334707294619
30
0
41
1
10
27.0114362755134
20
4.07855997536021
30
0
41
1
10
27.3197281533876
20
4.04382952103583
30
0
41
1
10
27.4734860514065
20
4.0238625884368
30
0
41
1
10
27.7807891678861
20
3.97898255914834
30
0
41
1
10
27.9343714089396
20
3.95409592298267
30
0
41
1
10
28.2415114993079
20
3.89957524221805
30
0
41
1
10
28.3949967688566
20
3.8699026832831
30
0
41
1
10
28.7016103688167
20
3.80558301214228
30
0
41
1
10
28.8547456806288
20
3.77092757908113
30
0
41
1
10
29.0846278969348
20
3.7155195149825
30
0
41
1
10
29.1612821208307
20
3.69647851843828
30
0
41
1
10
29.3146957466513
20
3.65730364461578
30
0
41
1
10
29.3914516354689
20
3.63716759523084
30
0
41
1
10
29.6217965284864
20
3.57505678126429
30
0
41
1
10
29.7754450039925
20
3.53136564769872
30
0
41
1
10
30.0827792029484
20
3.43921290018733
30
0
41
1
10
30.2365075962493
20
3.39078251913099
30
0
41
1
10
30.5446366341952
20
3.28976399287819
30
0
41
1
10
30.6990816855163
20
3.23723847882243
30
0
41
1
10
31.0085744848844
20
3.1279670743323
30
0
41
1
10
31.1635712106299
20
3.07115618399212
30
0
41
1
10
31.3964245340604
20
2.98255866936356
30
0
41
1
10
31.4741621695137
20
2.95245978123253
30
0
41
1
10
31.6293705281416
20
2.89145824072421
30
0
41
1
10
31.7068910842316
20
2.86053662026041
30
0
41
1
10
31.9392844326599
20
2.76663589965534
30
0
41
1
10
32.0940394194638
20
2.70259697993089
30
0
41
1
10
32.4029255204748
20
2.57128870747215
30
0
41
1
10
32.5570200245298
20
2.5039621019549
30
0
41
1
10
32.8646071417683
20
2.36609863323534
30
0
41
1
10
33.0181683228303
20
2.29566303845397
30
0
41
1
10
33.325302332222
20
2.15255139619001
30
0
41
1
10
33.4788879283711
20
2.07990206091574
30
0
41
1
10
33.7857639224048
20
1.93190368683537
30
0
41
1
10
33.9390213686839
20
1.85649664935903
30
0
41
1
10
34.2454011149911
20
1.70321442886444
30
0
41
1
10
34.3985851205181
20
1.62544050569488
30
0
41
1
10
34.7053897870533
20
1.46840486341699
30
0
41
1
10
34.8589819619815
20
1.38910039000913
30
0
41
1
10
35.1662318743736
20
1.22836479571868
30
0
41
1
10
35.3198531848961
20
1.14686381316392
30
0
41
1
10
35.6274435175718
20
0.982192395669671
30
0
41
1
10
35.781465270679
20
0.899117593077591
30
0
41
1
10
36.0903329670488
20
0.732178690621026
30
0
41
1
10
36.245118881332
20
0.648207970859573
30
0
41
1
10
36.4776281190596
20
0.521100368107199
30
0
41
1
10
36.5551848488541
20
0.47853559984776
30
0
41
1
10
36.7104331485959
20
0.393059402411097
30
0
41
1
10
36.7881577115203
20
0.35014519474106
30
0
41
1
10
37.0209000818107
20
0.221565098024911
30
0
41
1
10
37.1757562300564
20
0.135973545998212
30
0
41
1
10
37.4851203268139
20
-0.0344807785081969
30
0
41
1
10
37.6395530583758
20
-0.119490202101929
30
0
41
1
10
37.9477000024066
20
-0.289498135578185
30
0
41
1
10
38.1013911037576
20
-0.374536268407553
30
0
41
1
10
38.4085739965859
20
-0.543624735041647
30
0
41
1
10
38.562102773026
20
-0.627608703301433
30
0
41
1
10
38.8691438052966
20
-0.7942786909897
30
0
41
1
10
39.022583801523
20
-0.877098143623272
30
0
41
1
10
39.3291166307679
20
-1.04203516573571
30
0
41
1
10
39.4822179192689
20
-1.12413382807765
30
0
41
1
10
39.7120582884285
20
-1.24594577159144
30
0
41
1
10
39.7887001320081
20
-1.28633288047195
30
0
41
1
10
39.9420917849521
20
-1.3665852143838
30
0
41
1
10
40.0188378179561
20
-1.40645730292491
30
0
41
1
10
40.2491565386338
20
-1.52543501407857
30
0
41
1
10
40.4027920193924
20
-1.60393379318614
30
0
41
1
10
40.7101116771688
20
-1.75949614290405
30
0
41
1
10
40.8638393999735
20
-1.83648182554398
30
0
41
1
10
41.1719796152203
20
-1.98792049549405
30
0
41
1
10
41.3264365625548
20
-2.06230236624256
30
0
41
1
10
41.635962096392
20
-2.20866025241892
30
0
41
1
10
41.7909800601463
20
-2.28071916323327
30
0
41
1
10
42.0238754304115
20
-2.38712363117997
30
0
41
1
10
42.1015783182751
20
-2.42228692306409
30
0
41
1
10
42.256691236186
20
-2.49165148370707
30
0
41
1
10
42.3341656723172
20
-2.52588358344841
30
0
41
1
10
42.5664254660079
20
-2.62712183962583
30
0
41
1
10
42.7210973342391
20
-2.69260219109185
30
0
41
1
10
43.0298264651209
20
-2.82003415551287
30
0
41
1
10
43.1838473845599
20
-2.88203091742184
30
0
41
1
10
43.4912998780222
20
-3.00243577268353
30
0
41
1
10
43.6447999739772
20
-3.06074723661266
30
0
41
1
10
43.9518237616078
20
-3.17303710852951
30
0
41
1
10
44.10535962349
20
-3.22701317052318
30
0
41
1
10
44.4121465718843
20
-3.33105440690409
30
0
41
1
10
44.5653647081632
20
-3.38114829129256
30
0
41
1
10
44.871678251406
20
-3.47718697097875
30
0
41
1
10
45.0248352378547
20
-3.52306412353522
30
0
41
1
10
45.3315976651895
20
-3.6101208802267
30
0
41
1
10
45.4851741557076
20
-3.65133982601884
30
0
41
1
10
45.7924040539898
20
-3.72943031085038
30
0
41
1
10
45.9460209901132
20
-3.766322680483
30
0
41
1
10
46.2536154618647
20
-3.83543654368572
30
0
41
1
10
46.4076456424863
20
-3.86761753129275
30
0
41
1
10
46.7165423082917
20
-3.92697194026849
30
0
41
1
10
46.8713485143413
20
-3.95419602598716
30
0
41
1
10
47.103897507605
20
-3.99142506624653
30
0
41
1
10
47.1814690007679
20
-4.00323259177583
30
0
41
1
10
47.3367503131746
20
-4.02561127876874
30
0
41
1
10
47.4144213692321
20
-4.03617111282196
30
0
41
1
10
47.6470151459035
20
-4.06582721416339
30
0
41
1
10
47.8017787699981
20
-4.08292436341037
30
0
41
1
10
48.1109698543332
20
-4.11180978370584
30
0
41
1
10
48.265322021999
20
-4.12363163900253
30
0
41
1
10
48.573319656675
20
-4.1421146000468
30
0
41
1
10
48.7269420191591
20
-4.14876497251942
30
0
41
1
10
48.9971523055782
20
-4.15584377034449
30
0
41
1
10
49.1138011193343
20
-4.15738571238106
30
0
41
1
10
49.2304411785229
20
-4.15743148887918
30
0
0
SPLINE
5
C1
100
AcDbEntity
8
1
62
256
6
ByLayer
370
18
48
1
60
0
100
AcDbSpline
70
4
71
3
72
48
73
44
40
0
40
0
40
0
40
0
40
0.0320008968015708
40
0.0320008968015708
40
0.0889420205191293
40
0.0889420205191293
40
0.145883144236688
40
0.145883144236688
40
0.202824267954245
40
0.202824267954245
40
0.231294829813025
40
0.231294829813025
40
0.259765391671804
40
0.259765391671804
40
0.316706515389358
40
0.316706515389358
40
0.373647639106912
40
0.373647639106912
40
0.430588762824466
40
0.430588762824466
40
0.487529886542021
40
0.487529886542021
40
0.544471010259574
40
0.544471010259574
40
0.601412133977129
40
0.601412133977129
40
0.629882695835908
40
0.629882695835908
40
0.658353257694687
40
0.658353257694687
40
0.715294381412242
40
0.715294381412242
40
0.772235505129795
40
0.772235505129795
40
0.82917662884735
40
0.82917662884735
40
0.857647190706125
40
0.857647190706125
40
0.8861177525649
40
0.8861177525649
40
0.94305887628245
40
0.94305887628245
40
1
40
1
40
1
40
1
41
1
10
66.6251894309537
20
2.81704597394579
30
0
41
1
10
66.7114549166524
20
2.85215349497221
30
0
41
1
10
66.7977655708252
20
2.88671050965638
30
0
41
1
10
67.0377012271368
20
2.98133113539106
30
0
41
1
10
67.1913271288931
20
3.04032382366179
30
0
41
1
10
67.4989583123748
20
3.15463953931561
30
0
41
1
10
67.6530172652381
20
3.20989445240289
30
0
41
1
10
67.9620025977486
20
3.31613659329443
30
0
41
1
10
68.1168710197392
20
3.36720054309234
30
0
41
1
10
68.3495375153661
20
3.44090495618409
30
0
41
1
10
68.4272030931517
20
3.46500631010946
30
0
41
1
10
68.5824400598287
20
3.51213316153954
30
0
41
1
10
68.6599418464346
20
3.5351288958181
30
0
41
1
10
68.8922135516553
20
3.60230357230972
30
0
41
1
10
69.0467730623221
20
3.64464655013117
30
0
41
1
10
69.3555901863454
20
3.72432397125334
30
0
41
1
10
69.5097730607515
20
3.76173409226055
30
0
41
1
10
69.8174622265123
20
3.83190565016659
30
0
41
1
10
69.9709426720827
20
3.8646720612293
30
0
41
1
10
70.2777353920063
20
3.92516862857812
30
0
41
1
10
70.4310845069871
20
3.95288273732203
30
0
41
1
10
70.7378165719197
20
4.00324876499454
30
0
41
1
10
70.8911259798708
20
4.02594666288144
30
0
41
1
10
71.1974403909213
20
4.06643350229083
30
0
41
1
10
71.3504475732555
20
4.08420733361427
30
0
41
1
10
71.5801719074879
20
4.10697832312278
30
0
41
1
10
71.6567791424038
20
4.1139231332815
30
0
41
1
10
71.8101113161596
20
4.12651300431082
30
0
41
1
10
71.8868338689159
20
4.1321596302887
30
0
41
1
10
72.1171009472718
20
4.14717674703783
30
0
41
1
10
72.2707273828395
20
4.15463111909324
30
0
41
1
10
72.5780689268468
20
4.16436518130823
30
0
41
1
10
72.7318229656143
20
4.16662752270599
30
0
41
1
10
73.0400529792769
20
4.16586796537715
30
0
41
1
10
73.1945731178501
20
4.16285992764392
30
0
41
1
10
73.4268552971363
20
4.15439384544587
30
0
41
1
10
73.5043569904534
20
4.15091062434476
30
0
41
1
10
73.6594918681682
20
4.14260408834065
30
0
41
1
10
73.7371587863647
20
4.13777657019781
30
0
41
1
10
73.9700593161811
20
4.12127969534563
30
0
41
1
10
74.1251838232618
20
4.10760477219878
30
0
41
1
10
74.435698491523
20
4.07508189196673
30
0
41
1
10
74.5911313563576
20
4.05626402359644
30
0
41
1
10
74.746592420449
20
4.03484754303676
30
0
0
SPLINE
5
C2
100
AcDbEntity
8
1
62
256
6
ByLayer
370
18
48
1
60
0
100
AcDbSpline
70
4
71
3
72
153
73
149
40
0
40
0
40
0
40
0
40
0.0064824072922116
40
0.0064824072922116
40
0.0239082605519549
40
0.0239082605519549
40
0.0413341138116981
40
0.0413341138116981
40
0.0587599670714414
40
0.0587599670714414
40
0.0761858203311847
40
0.0761858203311847
40
0.0848987469610563
40
0.0848987469610563
40
0.093611673590928
40
0.093611673590928
40
0.1023246002208
40
0.1023246002208
40
0.111037526850671
40
0.111037526850671
40
0.128463380110414
40
0.128463380110414
40
0.145889233370158
40
0.145889233370158
40
0.163315086629901
40
0.163315086629901
40
0.180740939889644
40
0.180740939889644
40
0.189453866519517
40
0.189453866519517
40
0.198166793149389
40
0.198166793149389
40
0.215592646409132
40
0.215592646409132
40
0.233018499668875
40
0.233018499668875
40
0.250444352928619
40
0.250444352928619
40
0.25915727955849
40
0.25915727955849
40
0.267870206188361
40
0.267870206188361
40
0.285296059448102
40
0.285296059448102
40
0.302721912707843
40
0.302721912707843
40
0.320147765967584
40
0.320147765967584
40
0.337573619227325
40
0.337573619227325
40
0.346286545857197
40
0.346286545857197
40
0.354999472487068
40
0.354999472487068
40
0.372425325746809
40
0.372425325746809
40
0.38985117900655
40
0.38985117900655
40
0.407277032266291
40
0.407277032266291
40
0.424702885526033
40
0.424702885526033
40
0.433415812155904
40
0.433415812155904
40
0.442128738785775
40
0.442128738785775
40
0.459554592045518
40
0.459554592045518
40
0.476980445305261
40
0.476980445305261
40
0.494406298565005
40
0.494406298565005
40
0.503119225194876
40
0.503119225194876
40
0.511832151824747
40
0.511832151824747
40
0.52925800508449
40
0.52925800508449
40
0.546683858344234
40
0.546683858344234
40
0.564109711603977
40
0.564109711603977
40
0.58153556486372
40
0.58153556486372
40
0.590248491493592
40
0.590248491493592
40
0.598961418123463
40
0.607674344753335
40
0.607674344753335
40
0.616387271383207
40
0.616387271383207
40
0.633813124642951
40
0.633813124642951
40
0.651238977902695
40
0.651238977902695
40
0.66866483116244
40
0.66866483116244
40
0.686090684422184
40
0.686090684422184
40
0.703516537681929
40
0.703516537681929
40
0.720942390941673
40
0.720942390941673
40
0.738368244201417
40
0.738368244201417
40
0.747081170831289
40
0.747081170831289
40
0.755794097461161
40
0.755794097461161
40
0.773219950720903
40
0.773219950720903
40
0.781932877350773
40
0.781932877350773
40
0.786289340665709
40
0.786289340665709
40
0.790645803980644
40
0.790645803980644
40
0.808071657240385
40
0.808071657240385
40
0.825497510500126
40
0.825497510500126
40
0.842923363759867
40
0.842923363759867
40
0.860349217019608
40
0.860349217019608
40
0.877775070279349
40
0.877775070279349
40
0.89520092353909
40
0.89520092353909
40
0.903913850168961
40
0.903913850168961
40
0.912626776798832
40
0.912626776798832
40
0.930052630058571
40
0.930052630058571
40
0.947478483318311
40
0.947478483318311
40
0.964904336578052
40
0.964904336578052
40
0.973617263207921
40
0.973617263207921
40
0.982330189837792
40
0.982330189837792
40
0.991043116467661
40
0.991043116467661
40
0.999756043097531
40
0.999756043097531
40
1
40
1
40
1
40
1
41
1
10
66.625390152616
20
-2.81448796074827
30
0
41
1
10
66.561257422309
20
-2.84070896440477
30
0
41
1
10
66.4971225148884
20
-2.86663011487303
30
0
41
1
10
66.2605228598462
20
-2.96105339774272
30
0
41
1
10
66.0878829093089
20
-3.02747142105784
30
0
41
1
10
65.7421369717569
20
-3.15541390327021
30
0
41
1
10
65.5690982834876
20
-3.21702392457303
30
0
41
1
10
65.222723071934
20
-3.33549301049141
30
0
41
1
10
65.0493372335999
20
-3.39228524586761
30
0
41
1
10
64.7015385278529
20
-3.50024876318136
30
0
41
1
10
64.5271464686498
20
-3.55145469640689
30
0
41
1
10
64.2649653552734
20
-3.62420956076806
30
0
41
1
10
64.1774819334636
20
-3.64779147900353
30
0
41
1
10
64.0029532829532
20
-3.69340106375293
30
0
41
1
10
63.9158233428731
20
-3.71544864742316
30
0
41
1
10
63.7417604912205
20
-3.75797579111867
30
0
41
1
10
63.6548259319982
20
-3.7784538286036
30
0
41
1
10
63.4810658723804
20
-3.8177895970687
30
0
41
1
10
63.3942449239818
20
-3.83665202921153
30
0
41
1
10
63.1339855908531
20
-3.89086932170233
30
0
41
1
10
62.9607676614319
20
-3.92387119773531
30
0
41
1
10
62.6150353860694
20
-3.98368583465782
30
0
41
1
10
62.4424781051026
20
-4.01045742190442
30
0
41
1
10
62.0973535863453
20
-4.05745159737228
30
0
41
1
10
61.9247726219741
20
-4.07768502726805
30
0
41
1
10
61.579759328194
20
-4.11174624694124
30
0
41
1
10
61.4073954072292
20
-4.12558534188798
30
0
41
1
10
61.1487960332166
20
-4.14143758744083
30
0
41
1
10
61.0625805314678
20
-4.14590277880001
30
0
41
1
10
60.890032565136
20
-4.15318290963458
30
0
41
1
10
60.8036946071038
20
-4.15599811019726
30
0
41
1
10
60.5445097210392
20
-4.1619797095355
30
0
41
1
10
60.3714950238841
20
-4.16268935475506
30
0
41
1
10
60.0252274671992
20
-4.15747541506616
30
0
41
1
10
59.8519446847956
20
-4.15153574556058
30
0
41
1
10
59.50448252496
20
-4.13297825264425
30
0
41
1
10
59.330250156832
20
-4.12038628948494
30
0
41
1
10
59.0682457412304
20
-4.09646980253689
30
0
41
1
10
58.9807245284687
20
-4.08764714081664
30
0
41
1
10
58.8059753102711
20
-4.06834340099934
30
0
41
1
10
58.7187471118216
20
-4.05786664030549
30
0
41
1
10
58.4574045885296
20
-4.02401075146952
30
0
41
1
10
58.2836042172776
20
-3.99821495234693
30
0
41
1
10
57.9363839640364
20
-3.94054091078795
30
0
41
1
10
57.7630172217432
20
-3.90864590842307
30
0
41
1
10
57.417009046793
20
-3.83862952418929
30
0
41
1
10
57.2443601978203
20
-3.80049804837705
30
0
41
1
10
56.8992038807944
20
-3.71842491236191
30
0
41
1
10
56.7266262176778
20
-3.67455046613716
30
0
41
1
10
56.4678018544145
20
-3.60449579496688
30
0
41
1
10
56.3815391972621
20
-3.58043189938266
30
0
41
1
10
56.2090745333391
20
-3.53084045090841
30
0
41
1
10
56.1228724715776
20
-3.50531204973103
30
0
41
1
10
55.8642622043591
20
-3.42661031632753
30
0
41
1
10
55.691843361838
20
-3.37132144772204
30
0
41
1
10
55.3464088381042
20
-3.25572795349606
30
0
41
1
10
55.1734381254675
20
-3.19538763849803
30
0
41
1
10
54.827216157395
20
-3.06931540944908
30
0
41
1
10
54.6539992864576
20
-3.00352693761016
30
0
41
1
10
54.3068154045577
20
-2.86704431680818
30
0
41
1
10
54.1327732598415
20
-2.79646007278532
30
0
41
1
10
53.8709770956801
20
-2.6871323357361
30
0
41
1
10
53.7835976964799
20
-2.65010263256232
30
0
41
1
10
53.6086432358016
20
-2.57480461399527
30
0
41
1
10
53.5212836716611
20
-2.53661474587605
30
0
41
1
10
53.259646556764
20
-2.42061674855364
30
0
41
1
10
53.0857374352896
20
-2.34134702443859
30
0
41
1
10
52.738317636818
20
-2.17997008415952
30
0
41
1
10
52.5648330732639
20
-2.09782713728779
30
0
41
1
10
52.2185181229346
20
-1.93032977310398
30
0
41
1
10
52.0457440578901
20
-1.84487811654267
30
0
41
1
10
51.7868032603267
20
-1.71473483362905
30
0
41
1
10
51.7005212569417
20
-1.67103502521257
30
0
41
1
10
51.5279389001938
20
-1.58313979021068
30
0
41
1
10
51.441643684983
20
-1.53893595281346
30
0
41
1
10
51.1827742547717
20
-1.40551193993224
30
0
41
1
10
51.0102342903597
20
-1.3154497010307
30
0
41
1
10
50.6653602800324
20
-1.13286460410387
30
0
41
1
10
50.4929820271798
20
-1.04041460540682
30
0
41
1
10
50.1477120581709
20
-0.854323149216384
30
0
41
1
10
49.9748078544532
20
-0.760709807518168
30
0
41
1
10
49.6286477357574
20
-0.572004805846603
30
0
41
1
10
49.455459199662
20
-0.476785007803727
30
0
41
1
10
49.1952397540033
20
-0.333136107978959
30
0
41
1
10
49.1084204649383
20
-0.285129335122036
30
0
41
1
10
48.9345373546608
20
-0.189029226925783
30
0
41
1
10
48.7604006827495
20
-0.0928604764790748
30
0
41
1
10
48.5857849372026
20
0.0035003674265397
30
0
41
1
10
48.410956535105
20
0.10001358908761
30
0
41
1
10
48.3234080418331
20
0.148373856628098
30
0
41
1
10
48.0614387314773
20
0.293198140846585
30
0
41
1
10
47.8873651265175
20
0.389539363508163
30
0
41
1
10
47.539750102725
20
0.580660488149846
30
0
41
1
10
47.3661612880108
20
0.675356841263266
30
0
41
1
10
47.0195649062575
20
0.863335816701579
30
0
41
1
10
46.8466274992484
20
0.956744735729984
30
0
41
1
10
46.5012149764767
20
1.14192428325401
30
0
41
1
10
46.3286743854316
20
1.23357556335387
30
0
41
1
10
45.983475410105
20
1.41423332275454
30
0
41
1
10
45.8108707003482
20
1.50333931004943
30
0
41
1
10
45.4658944541108
20
1.67952134788811
30
0
41
1
10
45.2935130001712
20
1.76657406697407
30
0
41
1
10
44.9483889826307
20
1.93762251529884
30
0
41
1
10
44.7755767885219
20
2.02150775580401
30
0
41
1
10
44.5160287141261
20
2.1449571824723
30
0
41
1
10
44.4294627162894
20
2.18571838000668
30
0
41
1
10
44.2562662314069
20
2.26651527628164
30
0
41
1
10
44.169635019163
20
2.30654942284573
30
0
41
1
10
43.9095469174049
20
2.4253992091985
30
0
41
1
10
43.7358867819005
20
2.50294598562269
30
0
41
1
10
43.4745731736319
20
2.61607804975813
30
0
41
1
10
43.3873448316482
20
2.65327866600723
30
0
41
1
10
43.2563315850227
20
2.70833474045582
30
0
41
1
10
43.2126322115325
20
2.72656283542534
30
0
41
1
10
43.1251808502151
20
2.76277623542833
30
0
41
1
10
43.0814101688335
20
2.78076910751614
30
0
41
1
10
42.8627958006378
20
2.86999326900812
30
0
41
1
10
42.68852244526
20
2.93909473710147
30
0
41
1
10
42.3406579257988
20
3.07202989554511
30
0
41
1
10
42.1669908410278
20
3.13577354410015
30
0
41
1
10
41.8201386807379
20
3.25787853391745
30
0
41
1
10
41.6470227475693
20
3.3163235729908
30
0
41
1
10
41.301400124048
20
3.42798440945813
30
0
41
1
10
41.1288427543335
20
3.48113353674765
30
0
41
1
10
40.7836206227884
20
3.58149024963549
30
0
41
1
10
40.6109859220461
20
3.62874270891683
30
0
41
1
10
40.265882224548
20
3.71761176607836
30
0
41
1
10
40.0934680126717
20
3.75926262295315
30
0
41
1
10
39.8346902327336
20
3.81723023706962
30
0
41
1
10
39.748399777637
20
3.83579834487611
30
0
41
1
10
39.5756757405353
20
3.87137170371094
30
0
41
1
10
39.489247692921
20
3.88838174059882
30
0
41
1
10
39.229794295913
20
3.93710484238707
30
0
41
1
10
39.0566194205124
20
3.96652771040101
30
0
41
1
10
38.7099699219897
20
4.01922914567774
30
0
41
1
10
38.5364504475329
20
4.04246961207687
30
0
41
1
10
38.188388399626
20
4.08238032246177
30
0
41
1
10
38.0138408409326
20
4.09906521724446
30
0
41
1
10
37.7513803414274
20
4.11918447526506
30
0
41
1
10
37.6638977093182
20
4.12506415179783
30
0
41
1
10
37.4893364720384
20
4.13513796354584
30
0
41
1
10
37.4021907380948
20
4.13933516507794
30
0
41
1
10
37.2281010335149
20
4.14604654541256
30
0
41
1
10
37.1411562118335
20
4.14856040925423
30
0
41
1
10
36.9673789539755
20
4.15191306926116
30
0
41
1
10
36.8805444987561
20
4.15275289147471
30
0
41
1
10
36.7913430130354
20
4.15276618051723
30
0
41
1
10
36.7889134996217
20
4.15276589541966
30
0
41
1
10
36.7864840366434
20
4.15276496328516
30
0
0
SPLINE
5
C3
100
AcDbEntity
8
1
62
256
6
ByLayer
370
18
48
1
60
0
100
AcDbSpline
70
4
71
3
72
62
73
58
40
0
40
0
40
0
40
0
40
0.0250695981556267
40
0.0250695981556267
40
0.0714948553863118
40
0.0714948553863118
40
0.117920112616997
40
0.117920112616997
40
0.141132741232338
40
0.141132741232338
40
0.16434536984768
40
0.16434536984768
40
0.210770627078364
40
0.210770627078364
40
0.233983255693705
40
0.233983255693705
40
0.245589570001376
40
0.245589570001376
40
0.257195884309047
40
0.257195884309047
40
0.303621141539732
40
0.303621141539732
40
0.350046398770417
40
0.350046398770417
40
0.396471656001102
40
0.396471656001102
40
0.442896913231787
40
0.442896913231787
40
0.489322170462472
40
0.489322170462472
40
0.535747427693157
40
0.535747427693157
40
0.558960056308499
40
0.558960056308499
40
0.582172684923842
40
0.582172684923842
40
0.628597942154527
40
0.628597942154527
40
0.675023199385212
40
0.675023199385212
40
0.721448456615897
40
0.721448456615897
40
0.744661085231239
40
0.744661085231239
40
0.767873713846582
40
0.767873713846582
40
0.791086342461923
40
0.791086342461923
40
0.814298971077265
40
0.814298971077265
40
0.860724228307949
40
0.860724228307949
40
0.907149485538633
40
0.907149485538633
40
0.953574742769317
40
0.953574742769317
40
1
40
1
40
1
40
1
41
1
10
19.3948669899413
20
-2.80547868746609
30
0
41
1
10
19.3016238802522
20
-2.84325003384177
30
0
41
1
10
19.2083916688638
20
-2.8803745099554
30
0
41
1
10
18.9425929383042
20
-2.98447705451201
30
0
41
1
10
18.7701088624472
20
-3.04994668046325
30
0
41
1
10
18.4248060363312
20
-3.17588271084438
30
0
41
1
10
18.2519132106497
20
-3.23626652050535
30
0
41
1
10
17.9922141671358
20
-3.32298092207588
30
0
41
1
10
17.9055943043599
20
-3.35124926332475
30
0
41
1
10
17.732282516848
20
-3.40654361765203
30
0
41
1
10
17.6455946967471
20
-3.43357338432531
30
0
41
1
10
17.3853439082734
20
-3.51269430753288
30
0
41
1
10
17.2115915528725
20
-3.56280960025282
30
0
41
1
10
16.9501367799108
20
-3.63356262627039
30
0
41
1
10
16.8628589464781
20
-3.65642319625641
30
0
41
1
10
16.7317670236999
20
-3.6896380095067
30
0
41
1
10
16.6880406171741
20
-3.70053030230426
30
0
41
1
10
16.6005334971683
20
-3.72195834885622
30
0
41
1
10
16.5567359135602
20
-3.73249798121077
30
0
41
1
10
16.3379983406326
20
-3.78422130866721
30
0
41
1
10
16.1636268741318
20
-3.8225570126028
30
0
41
1
10
15.8155945709585
20
-3.89279089544581
30
0
41
1
10
15.6418566737628
20
-3.92464475195996
30
0
41
1
10
15.2948265916701
20
-3.98189965975666
30
0
41
1
10
15.1216016542394
20
-4.00734203141911
30
0
41
1
10
14.7757802426576
20
-4.05188205442912
30
0
41
1
10
14.6031361237675
20
-4.07094431233733
30
0
41
1
10
14.2577512844346
20
-4.10247426469178
30
0
41
1
10
14.0850268488504
20
-4.11496465501543
30
0
41
1
10
13.7397169165286
20
-4.13347673587282
30
0
41
1
10
13.5671940213395
20
-4.1394962500994
30
0
41
1
10
13.3082778391962
20
-4.14358297352069
30
0
41
1
10
13.2219453167064
20
-4.14412185285585
30
0
41
1
10
13.0491399936554
20
-4.14355475342919
30
0
41
1
10
12.9626692115929
20
-4.14244987754952
30
0
41
1
10
12.7030808952664
20
-4.13667562080124
30
0
41
1
10
12.5297991350229
20
-4.12955148217631
30
0
41
1
10
12.1829454562343
20
-4.10863516164306
30
0
41
1
10
12.0093320578177
20
-4.094834168234
30
0
41
1
10
11.6611104519468
20
-4.0606424197413
30
0
41
1
10
11.4864769387558
20
-4.04027854158855
30
0
41
1
10
11.2238712583965
20
-4.00472973159597
30
0
41
1
10
11.1363093106166
20
-3.99205017606704
30
0
41
1
10
10.9614767096462
20
-3.96507457327038
30
0
41
1
10
10.8741478511693
20
-3.95077473182343
30
0
41
1
10
10.6995967552882
20
-3.92058933464793
30
0
41
1
10
10.6123738893661
20
-3.90470394543448
30
0
41
1
10
10.437944050287
20
-3.87141131632114
30
0
41
1
10
10.3507313440844
20
-3.85400870885476
30
0
41
1
10
10.0891209523906
20
-3.79953631037364
30
0
41
1
10
9.91475503361207
20
-3.7602054412275
30
0
41
1
10
9.56632404577243
20
-3.67532978438462
30
0
41
1
10
9.39222751419419
20
-3.62979454878087
30
0
41
1
10
9.04365772533538
20
-3.53304344351497
30
0
41
1
10
8.8691347438093
20
-3.48188776667635
30
0
41
1
10
8.51975827251334
20
-3.37388528523906
30
0
41
1
10
8.34490577313085
20
-3.31703918020457
30
0
41
1
10
8.16999582979932
20
-3.25715983743854
30
0
0
SPLINE
5
C4
100
AcDbEntity
8
1
62
256
6
ByLayer
370
18
48
1
60
0
100
AcDbSpline
70
4
71
3
72
52
73
48
40
0
40
0
40
0
40
0
40
0.0923190518100614
40
0.0923190518100614
40
0.138478577715093
40
0.138478577715093
40
0.184638103620124
40
0.184638103620124
40
0.230797629525156
40
0.230797629525156
40
0.276957155430187
40
0.276957155430187
40
0.300036918382702
40
0.300036918382702
40
0.323116681335217
40
0.323116681335217
40
0.369276207240247
40
0.369276207240247
40
0.415435733145277
40
0.415435733145277
40
0.461595259050307
40
0.461595259050307
40
0.507754784955337
40
0.507754784955337
40
0.530834547907852
40
0.530834547907852
40
0.553914310860367
40
0.553914310860367
40
0.600073836765397
40
0.600073836765397
40
0.646233362670426
40
0.646233362670426
40
0.692392888575456
40
0.692392888575456
40
0.738552414480486
40
0.738552414480486
40
0.784711940385516
40
0.784711940385516
40
0.830871466290546
40
0.830871466290546
40
0.877030992195575
40
0.877030992195575
40
0.923190518100605
40
0.923190518100605
40
0.969350044005635
40
0.969350044005635
40
1
40
1
40
1
40
1
41
1
10
15.6045992474748
20
-0.982232372688742
30
0
41
1
10
15.915248124737
20
-1.14976825951183
30
0
41
1
10
16.2253015133169
20
-1.31215091117306
30
0
41
1
10
16.6882074356796
20
-1.55073170257728
30
0
41
1
10
16.84210400142
20
-1.62948183674368
30
0
41
1
10
17.1496573606519
20
-1.78443865630715
30
0
41
1
10
17.3033499617476
20
-1.86058909102056
30
0
41
1
10
17.6106899441988
20
-2.01007977972418
30
0
41
1
10
17.7642651705122
20
-2.08354196487997
30
0
41
1
10
18.0710357917663
20
-2.22819189040308
30
0
41
1
10
18.2242343202192
20
-2.29936653893904
30
0
41
1
10
18.4541907633215
20
-2.40371593118277
30
0
41
1
10
18.5308662203248
20
-2.43810272984749
30
0
41
1
10
18.6843162562396
20
-2.50600938254925
30
0
41
1
10
18.7610880699213
20
-2.53953387080222
30
0
41
1
10
18.9914737476936
20
-2.63892764340761
30
0
41
1
10
19.1451402485149
20
-2.703644428551
30
0
41
1
10
19.4524852463897
20
-2.83014274476554
30
0
41
1
10
19.606203976152
20
-2.8918608010969
30
0
41
1
10
19.914286345088
20
-3.01146118515871
30
0
41
1
10
20.0686943334826
20
-3.06929229198533
30
0
41
1
10
20.3780959538382
20
-3.18120893870895
30
0
41
1
10
20.5330374037243
20
-3.23535922699307
30
0
41
1
10
20.7657856772638
20
-3.31384619141593
30
0
41
1
10
20.8434937019591
20
-3.33955399471782
30
0
41
1
10
20.9988464380695
20
-3.38983608782607
30
0
41
1
10
21.0764367884643
20
-3.41439412915145
30
0
41
1
10
21.3090323774273
20
-3.48625114823332
30
0
41
1
10
21.4639141203184
20
-3.53168631154603
30
0
41
1
10
21.7730447339002
20
-3.61799771638499
30
0
41
1
10
21.9272561998679
20
-3.65890284219756
30
0
41
1
10
22.2350574024082
20
-3.73611761199314
30
0
41
1
10
22.3887159169178
20
-3.77236140415133
30
0
41
1
10
22.6960276238839
20
-3.83980802815643
30
0
41
1
10
22.8496959156735
20
-3.87101455534693
30
0
41
1
10
23.1567258100305
20
-3.92866441289775
30
0
41
1
10
23.3100544825305
20
-3.95511846645343
30
0
41
1
10
23.616556891684
20
-4.0031062147508
30
0
41
1
10
23.7697929657066
20
-4.0246031434697
30
0
41
1
10
24.0766860848474
20
-4.06243301088296
30
0
41
1
10
24.2303169985957
20
-4.07879070170796
30
0
41
1
10
24.5376310266731
20
-4.10649485489859
30
0
41
1
10
24.6912779434717
20
-4.11784023261381
30
0
41
1
10
24.9988995122278
20
-4.13534411224953
30
0
41
1
10
25.1529274415413
20
-4.14149162641604
30
0
41
1
10
25.4099039601847
20
-4.14735499332826
30
0
41
1
10
25.5126001501007
20
-4.14854543220687
30
0
41
1
10
25.6154099428467
20
-4.14857697103147
30
0
0
SPLINE
5
C5
100
AcDbEntity
8
1
62
256
6
ByLayer
370
18
48
1
60
0
100
AcDbSpline
70
4
71
3
72
152
73
148
40
0
40
0
40
0
40
0
40
0.0108332398855024
40
0.0108332398855024
40
0.0263092831241133
40
0.0263092831241133
40
0.0417853263627243
40
0.0417853263627243
40
0.0572613696013352
40
0.0572613696013352
40
0.0727374128399461
40
0.0727374128399461
40
0.0882134560785573
40
0.0882134560785573
40
0.103689499317168
40
0.103689499317168
40
0.119165542555779
40
0.119165542555779
40
0.13464158579439
40
0.13464158579439
40
0.142379607413696
40
0.142379607413696
40
0.150117629033001
40
0.150117629033001
40
0.165593672271612
40
0.165593672271612
40
0.181069715510223
40
0.181069715510223
40
0.196545758748834
40
0.196545758748834
40
0.212021801987445
40
0.212021801987445
40
0.227497845226056
40
0.227497845226056
40
0.242973888464667
40
0.242973888464667
40
0.250711910083973
40
0.250711910083973
40
0.258449931703279
40
0.258449931703279
40
0.27392597494189
40
0.27392597494189
40
0.2894020181805
40
0.2894020181805
40
0.304878061419112
40
0.304878061419112
40
0.320354104657723
40
0.320354104657723
40
0.328092126277028
40
0.328092126277028
40
0.335830147896333
40
0.335830147896333
40
0.351306191134943
40
0.351306191134943
40
0.366782234373553
40
0.366782234373553
40
0.382258277612163
40
0.382258277612163
40
0.397734320850773
40
0.397734320850773
40
0.413210364089383
40
0.413210364089383
40
0.428686407327993
40
0.428686407327993
40
0.444162450566602
40
0.444162450566602
40
0.459638493805212
40
0.459638493805212
40
0.475114537043822
40
0.475114537043822
40
0.490590580282432
40
0.490590580282432
40
0.498328601901737
40
0.498328601901737
40
0.506066623521042
40
0.506066623521042
40
0.521542666759651
40
0.521542666759651
40
0.53701870999826
40
0.53701870999826
40
0.552494753236868
40
0.552494753236868
40
0.567970796475477
40
0.567970796475477
40
0.583446839714086
40
0.583446839714086
40
0.598922882952695
40
0.598922882952695
40
0.606660904572
40
0.606660904572
40
0.614398926191305
40
0.614398926191305
40
0.629874969429915
40
0.629874969429915
40
0.645351012668525
40
0.645351012668525
40
0.660827055907135
40
0.660827055907135
40
0.66856507752644
40
0.66856507752644
40
0.676303099145745
40
0.676303099145745
40
0.691779142384358
40
0.691779142384358
40
0.70725518562297
40
0.70725518562297
40
0.722731228861582
40
0.722731228861582
40
0.738207272100194
40
0.738207272100194
40
0.753683315338806
40
0.753683315338806
40
0.769159358577418
40
0.769159358577418
40
0.78463540181603
40
0.78463540181603
40
0.800111445054642
40
0.800111445054642
40
0.815587488293254
40
0.815587488293254
40
0.831063531531866
40
0.831063531531866
40
0.846539574770478
40
0.846539574770478
40
0.854277596389784
40
0.854277596389784
40
0.86201561800909
40
0.86201561800909
40
0.877491661247701
40
0.877491661247701
40
0.892967704486312
40
0.892967704486312
40
0.908443747724923
40
0.908443747724923
40
0.923919790963534
40
0.923919790963534
40
0.939395834202145
40
0.939395834202145
40
0.954871877440756
40
0.954871877440756
40
0.962609899060061
40
0.962609899060061
40
0.970347920679366
40
0.970347920679366
40
0.985823963917977
40
0.985823963917977
40
1
40
1
40
1
40
1
41
1
10
43.0142982589953
20
2.81319622286912
30
0
41
1
10
43.1222123049002
20
2.85707064617949
30
0
41
1
10
43.2299651630373
20
2.90009160829487
30
0
41
1
10
43.4912998780222
20
3.00243577268356
30
0
41
1
10
43.6447999739772
20
3.06074723661268
30
0
41
1
10
43.9518237616078
20
3.17303710852951
30
0
41
1
10
44.10535962349
20
3.22701317052318
30
0
41
1
10
44.4121465718843
20
3.33105440690412
30
0
41
1
10
44.5653647081632
20
3.38114829129259
30
0
41
1
10
44.871678251406
20
3.47718697097878
30
0
41
1
10
45.0248352378547
20
3.52306412353525
30
0
41
1
10
45.3315976651896
20
3.6101208802267
30
0
41
1
10
45.4851741557076
20
3.65133982601884
30
0
41
1
10
45.7924040539897
20
3.72943031085038
30
0
41
1
10
45.9460209901132
20
3.76632268048303
30
0
41
1
10
46.2536154618647
20
3.83543654368572
30
0
41
1
10
46.4076456424863
20
3.86761753129278
30
0
41
1
10
46.7165423082917
20
3.92697194026849
30
0
41
1
10
46.8713485143413
20
3.95419602598716
30
0
41
1
10
47.103897507605
20
3.99142506624653
30
0
41
1
10
47.1814690007679
20
4.00323259177583
30
0
41
1
10
47.3367503131745
20
4.02561127876874
30
0
41
1
10
47.4144213692321
20
4.03617111282196
30
0
41
1
10
47.6470151459035
20
4.06582721416339
30
0
41
1
10
47.8017787699981
20
4.08292436341037
30
0
41
1
10
48.1109698543332
20
4.11180978370587
30
0
41
1
10
48.265322021999
20
4.12363163900253
30
0
41
1
10
48.5733196566749
20
4.1421146000468
30
0
41
1
10
48.7269420191591
20
4.14876497251944
30
0
41
1
10
49.0339994554735
20
4.15680906862383
30
0
41
1
10
49.1874714654408
20
4.15820851552778
30
0
41
1
10
49.4944114148252
20
4.15584714253126
30
0
41
1
10
49.6478070259852
20
4.15208975482327
30
0
41
1
10
49.9542632074931
20
4.13937303127869
30
0
41
1
10
50.1073318948844
20
4.13040045653099
30
0
41
1
10
50.3371322669877
20
4.11309202683523
30
0
41
1
10
50.4137622479417
20
4.1066819802833
30
0
41
1
10
50.5671332579815
20
4.09260300452192
30
0
41
1
10
50.6438705910705
20
4.08493385478286
30
0
41
1
10
50.8741680812345
20
4.06001890263255
30
0
41
1
10
51.0277959216568
20
4.04086177212548
30
0
41
1
10
51.3351127373176
20
3.99731395457726
30
0
41
1
10
51.4888449640949
20
3.97293081391459
30
0
41
1
10
51.7970067717516
20
3.9191985924779
30
0
41
1
10
51.9514807987991
20
3.88989003332739
30
0
41
1
10
52.2610546727905
20
3.8262783237397
30
0
41
1
10
52.4161037314939
20
3.791936371014
30
0
41
1
10
52.64905581563
20
3.73650029501238
30
0
41
1
10
52.7266834031216
20
3.71740029690838
30
0
41
1
10
52.8816939772331
20
3.67809619234475
30
0
41
1
10
52.9591188371932
20
3.6578818242657
30
0
41
1
10
53.1912346688032
20
3.59564410858078
30
0
41
1
10
53.3458171910242
20
3.55208024564018
30
0
41
1
10
53.6543815099846
20
3.46060777325172
30
0
41
1
10
53.8083269184654
20
3.41265659489906
30
0
41
1
10
54.1156395910313
20
3.3124113327938
30
0
41
1
10
54.2690754618269
20
3.26018783437934
30
0
41
1
10
54.5759829057881
20
3.15213033439423
30
0
41
1
10
54.7294675697842
20
3.09632250723294
30
0
41
1
10
55.0361661118989
20
2.98076988335163
30
0
41
1
10
55.1893471264328
20
2.92097629079109
30
0
41
1
10
55.4955967775426
20
2.79760506832324
30
0
41
1
10
55.6487272797622
20
2.73410739176651
30
0
41
1
10
55.955449346022
20
2.60413551757085
30
0
41
1
10
56.109013251875
20
2.53763215128291
30
0
41
1
10
56.4162320869745
20
2.40112077466748
30
0
41
1
10
56.5698507032444
20
2.33104954113
30
0
41
1
10
56.8774591810989
20
2.1877527810102
30
0
41
1
10
57.0315020013994
20
2.11461044513649
30
0
41
1
10
57.3404384841218
20
1.96594947449523
30
0
41
1
10
57.4952725333432
20
1.89034085378489
30
0
41
1
10
57.7278745175772
20
1.77463173727634
30
0
41
1
10
57.805465659717
20
1.73567547336685
30
0
41
1
10
57.9607893323632
20
1.65702315773228
30
0
41
1
10
58.0383604770988
20
1.6174230976452
30
0
41
1
10
58.2707964387161
20
1.49807266390192
30
0
41
1
10
58.4254606271267
20
1.41778786790056
30
0
41
1
10
58.734468407616
20
1.25627076210017
30
0
41
1
10
58.8887368423727
20
1.17490330003071
30
0
41
1
10
59.1965810867856
20
1.01055060285688
30
0
41
1
10
59.3501328516835
20
0.927520683272377
30
0
41
1
10
59.657059625201
20
0.760779813001022
30
0
41
1
10
59.8104715080359
20
0.677136670043893
30
0
41
1
10
60.1173081128727
20
0.509522491166791
30
0
41
1
10
60.2706600556452
20
0.425418611338472
30
0
41
1
10
60.5770432526183
20
0.256270188121022
30
0
41
1
10
60.7300804882265
20
0.171235658113119
30
0
41
1
10
60.9598421813966
20
0.0437979806574162
30
0
41
1
10
61.0364606288377
20
0.0013321921817919
30
0
41
1
10
61.1898118900507
20
-0.0834760320744579
30
0
41
1
10
61.2665414468249
20
-0.12582442905665
30
0
41
1
10
61.4968219091031
20
-0.252831717749302
30
0
41
1
10
61.6504469113991
20
-0.337485317117967
30
0
41
1
10
61.9577714014285
20
-0.507013003159813
30
0
41
1
10
62.1115126453564
20
-0.591810277058102
30
0
41
1
10
62.4197049927296
20
-0.760445428312607
30
0
41
1
10
62.5742004643639
20
-0.844199420973297
30
0
41
1
10
62.8064275200578
20
-0.969200931127403
30
0
41
1
10
62.8839083706165
20
-1.01077980132178
30
0
41
1
10
63.0389969962167
20
-1.09379344406213
30
0
41
1
10
63.1166235519433
20
-1.13525068103985
30
0
41
1
10
63.3495655335369
20
-1.25928294367279
30
0
41
1
10
63.5044025527402
20
-1.3411369334049
30
0
41
1
10
63.8136874668695
20
-1.50226368472849
30
0
41
1
10
63.9681757222984
20
-1.58147333616705
30
0
41
1
10
64.2765698158715
20
-1.73773018397895
30
0
41
1
10
64.4304388845205
20
-1.81483665793067
30
0
41
1
10
64.7376084892163
20
-1.96684430573555
30
0
41
1
10
64.8909778160669
20
-2.04162660900673
30
0
41
1
10
65.1977641617061
20
-2.18800625423404
30
0
41
1
10
65.3511966520508
20
-2.25958800318975
30
0
41
1
10
65.6578082554376
20
-2.40007753700417
30
0
41
1
10
65.8109546493004
20
-2.46902922976437
30
0
41
1
10
66.1171431059332
20
-2.60398980198215
30
0
41
1
10
66.2702477410429
20
-2.66990453137134
30
0
41
1
10
66.5769310578321
20
-2.79797718011255
30
0
41
1
10
66.7304852270832
20
-2.86017794537483
30
0
41
1
10
67.0377012271368
20
-2.98133113539109
30
0
41
1
10
67.1913271288931
20
-3.04032382366179
30
0
41
1
10
67.4989583123748
20
-3.15463953931564
30
0
41
1
10
67.6530172652381
20
-3.20989445240292
30
0
41
1
10
67.9620025977487
20
-3.31613659329446
30
0
41
1
10
68.1168710197392
20
-3.36720054309234
30
0
41
1
10
68.3495375153662
20
-3.44090495618409
30
0
41
1
10
68.4272030931518
20
-3.46500631010946
30
0
41
1
10
68.5824400598288
20
-3.51213316153957
30
0
41
1
10
68.6599418464346
20
-3.5351288958181
30
0
41
1
10
68.8922135516552
20
-3.60230357230972
30
0
41
1
10
69.0467730623221
20
-3.64464655013117
30
0
41
1
10
69.3555901863454
20
-3.72432397125334
30
0
41
1
10
69.5097730607515
20
-3.76173409226058
30
0
41
1
10
69.8174622265124
20
-3.83190565016659
30
0
41
1
10
69.9709426720827
20
-3.86467206122933
30
0
41
1
10
70.2777353920063
20
-3.92516862857815
30
0
41
1
10
70.4310845069871
20
-3.95288273732203
30
0
41
1
10
70.7378165719197
20
-4.00324876499454
30
0
41
1
10
70.8911259798707
20
-4.02594666288144
30
0
41
1
10
71.1974403909213
20
-4.06643350229083
30
0
41
1
10
71.3504475732554
20
-4.08420733361427
30
0
41
1
10
71.580171907488
20
-4.10697832312278
30
0
41
1
10
71.6567791424038
20
-4.1139231332815
30
0
41
1
10
71.8101113161596
20
-4.12651300431082
30
0
41
1
10
71.8868338689159
20
-4.1321596302887
30
0
41
1
10
72.1171009472718
20
-4.14717674703783
30
0
41
1
10
72.2707273828395
20
-4.15463111909324
30
0
41
1
10
72.5651603881277
20
-4.16395634455495
30
0
41
1
10
72.7059924866977
20
-4.16622906440017
30
0
41
1
10
72.84710788403
20
-4.16628754181107
30
0
0
SPLINE
5
C6
100
AcDbEntity
8
1
62
256
6
ByLayer
370
18
48
1
60
0
100
AcDbSpline
70
4
71
3
72
163
73
159
40
0
40
0
40
0
40
0
40
0.0312500000000023
40
0.0312500000000023
40
0.0625000000000045
40
0.0625000000000045
40
0.0937500000000068
40
0.0937500000000068
40
0.109375000000007
40
0.109375000000007
40
0.125000000000008
40
0.125000000000008
40
0.15625000000001
40
0.15625000000001
40
0.187500000000011
40
0.187500000000011
40
0.218750000000013
40
0.218750000000013
40
0.250000000000014
40
0.250000000000014
40
0.265625000000015
40
0.265625000000015
40
0.281250000000017
40
0.281250000000017
40
0.289062500000017
40
0.289062500000017
40
0.296875000000017
40
0.296875000000017
40
0.304687500000017
40
0.304687500000017
40
0.312500000000017
40
0.312500000000017
40
0.320312500000018
40
0.320312500000018
40
0.328125000000018
40
0.328125000000018
40
0.335937500000018
40
0.335937500000018
40
0.343750000000018
40
0.343750000000018
40
0.351562500000018
40
0.351562500000018
40
0.359375000000018
40
0.359375000000018
40
0.367187500000019
40
0.367187500000019
40
0.375000000000019
40
0.375000000000019
40
0.390625000000018
40
0.390625000000018
40
0.406250000000018
40
0.406250000000018
40
0.421875000000017
40
0.421875000000017
40
0.437500000000016
40
0.437500000000016
40
0.468750000000015
40
0.468750000000015
40
0.476562500000015
40
0.476562500000015
40
0.484375000000014
40
0.484375000000014
40
0.500000000000014
40
0.500000000000014
40
0.515625000000014
40
0.515625000000014
40
0.531250000000014
40
0.531250000000014
40
0.546875000000014
40
0.546875000000014
40
0.562500000000014
40
0.562500000000014
40
0.570312500000014
40
0.570312500000014
40
0.578125000000013
40
0.578125000000013
40
0.585937500000013
40
0.585937500000013
40
0.593750000000012
40
0.593750000000012
40
0.601562500000012
40
0.601562500000012
40
0.605468750000012
40
0.605468750000012
40
0.609375000000011
40
0.609375000000011
40
0.613281250000011
40
0.613281250000011
40
0.617187500000011
40
0.617187500000011
40
0.625000000000011
40
0.625000000000011
40
0.628906250000011
40
0.628906250000011
40
0.630859375000011
40
0.630859375000011
40
0.632812500000011
40
0.63671875000001
40
0.63671875000001
40
0.63867187500001
40
0.63867187500001
40
0.64062500000001
40
0.644531250000009
40
0.646484375000009
40
0.646484375000009
40
0.648437500000009
40
0.648437500000009
40
0.656250000000009
40
0.656250000000009
40
0.660156250000009
40
0.660156250000009
40
0.664062500000009
40
0.664062500000009
40
0.667968750000009
40
0.667968750000009
40
0.671875000000009
40
0.671875000000009
40
0.675781250000009
40
0.675781250000009
40
0.679687500000009
40
0.679687500000009
40
0.687500000000009
40
0.687500000000009
40
0.695312500000009
40
0.695312500000009
40
0.703125000000009
40
0.703125000000009
40
0.718750000000008
40
0.718750000000008
40
0.734375000000007
40
0.734375000000007
40
0.750000000000006
40
0.750000000000006
40
0.765625000000006
40
0.765625000000006
40
0.781250000000005
40
0.781250000000005
40
0.796875000000004
40
0.796875000000004
40
0.804687500000004
40
0.804687500000004
40
0.812500000000003
40
0.812500000000003
40
0.828125000000004
40
0.828125000000004
40
0.843750000000004
40
0.843750000000004
40
0.875000000000003
40
0.875000000000003
40
0.906250000000002
40
0.906250000000002
40
0.937500000000001
40
0.937500000000001
40
0.953125000000001
40
0.953125000000001
40
0.968750000000001
40
0.968750000000001
40
1
40
1
40
1
40
1
41
1
10
15.6045411021394
20
-0.982254384355571
30
0
41
1
10
15.391860101902
20
-0.863138941596134
30
0
41
1
10
15.179330759554
20
-0.743345617515416
30
0
41
1
10
14.7544332744146
20
-0.502669637890506
30
0
41
1
10
14.5420803762826
20
-0.381758947472775
30
0
41
1
10
14.1167992132505
20
-0.140157415924762
30
0
41
1
10
13.9038302867238
20
-0.0195379602646426
30
0
41
1
10
13.5831189634187
20
0.159739480274283
30
0
41
1
10
13.4760087009898
20
0.219228712093184
30
0
41
1
10
13.261281037434
20
0.337494499014923
30
0
41
1
10
13.1536094316011
20
0.396304897839087
30
0
41
1
10
12.830614886481
20
0.570856522528914
30
0
41
1
10
12.6150563496944
20
0.684876756357596
30
0
41
1
10
12.1822258092025
20
0.905731524965688
30
0
41
1
10
11.9649301042847
20
1.01251723991717
30
0
41
1
10
11.5277341620572
20
1.21743180198104
30
0
41
1
10
11.3078529535773
20
1.3155991060238
30
0
41
1
10
10.8643047258534
20
1.50129790565782
30
0
41
1
10
10.6406702115167
20
1.58890575663909
30
0
41
1
10
10.3019988171206
20
1.71203253569053
30
0
41
1
10
10.1885525726675
20
1.75165374740837
30
0
41
1
10
9.96038986926234
20
1.82781163657395
30
0
41
1
10
9.84563949242931
20
1.86428019523973
30
0
41
1
10
9.6727690467159
20
1.91715949909556
30
0
41
1
10
9.61502760022432
20
1.93449483202909
30
0
41
1
10
9.49960350305628
20
1.96918667611024
30
0
41
1
10
9.44192597757146
20
1.98655414164608
30
0
41
1
10
9.32719252523557
20
2.02243918187986
30
0
41
1
10
9.27015088017234
20
2.04098562204351
30
0
41
1
10
9.15718902900244
20
2.08020086792035
30
0
41
1
10
9.10128409165554
20
2.10089928055169
30
0
41
1
10
8.990573353206
20
2.1443221439074
30
0
41
1
10
8.93577122329231
20
2.16705134941063
30
0
41
1
10
8.82629585992103
20
2.21257270349156
30
0
41
1
10
8.77157328260233
20
2.23526691498577
30
0
41
1
10
8.66109091343614
20
2.27844182621627
30
0
41
1
10
8.60532799949632
20
2.29891914984751
30
0
41
1
10
8.49267034109985
20
2.33752797766164
30
0
41
1
10
8.43580271116534
20
2.35571320791118
30
0
41
1
10
8.321321752372
20
2.39052514226094
30
0
41
1
10
8.2637195864599
20
2.40717277689521
30
0
41
1
10
8.14786118455467
20
2.43910993265195
30
0
41
1
10
8.08958949513362
20
2.45437914031933
30
0
41
1
10
7.97295621437627
20
2.48318401829121
30
0
41
1
10
7.91451421346216
20
2.49672791570006
30
0
41
1
10
7.79737998206014
20
2.52214686481435
30
0
41
1
10
7.73868929319968
20
2.53403175142117
30
0
41
1
10
7.56229641868123
20
2.56757646112362
30
0
41
1
10
7.44428909941982
20
2.58722476736844
30
0
41
1
10
7.20756404480034
20
2.62199227807977
30
0
41
1
10
7.08883033100051
20
2.63701288933063
30
0
41
1
10
6.85062798570391
20
2.66252525071215
30
0
41
1
10
6.73116439061803
20
2.6730477105167
30
0
41
1
10
6.49161178264777
20
2.69031864363077
30
0
41
1
10
6.37152537033501
20
2.69708167952604
30
0
41
1
10
6.01036513446121
20
2.71201452962237
30
0
41
1
10
5.7683662842756
20
2.71470045025131
30
0
41
1
10
5.46447076277616
20
2.70982845710589
30
0
41
1
10
5.40359335146084
20
2.70843489698763
30
0
41
1
10
5.28211863784355
20
2.70479105248637
30
0
41
1
10
5.22147259476361
20
2.70253957789839
30
0
41
1
10
5.03981930365381
20
2.69443843112671
30
0
41
1
10
4.91909955924874
20
2.68723056136875
30
0
41
1
10
4.67844981474855
20
2.66902208757429
30
0
41
1
10
4.55851575947349
20
2.65804068002913
30
0
41
1
10
4.3194478789062
20
2.63214079913138
30
0
41
1
10
4.20031450210257
20
2.6172209853577
30
0
41
1
10
3.9629372350588
20
2.58288185999487
30
0
41
1
10
3.84469419615019
20
2.5634592093252
30
0
41
1
10
3.60921063042184
20
2.51937098523675
30
0
41
1
10
3.49196424578707
20
2.49473641642706
30
0
41
1
10
3.31700304231339
20
2.45286871369933
30
0
41
1
10
3.25879360288138
20
2.4380739515662
30
0
41
1
10
3.14291207937444
20
2.40656810602391
30
0
41
1
10
3.08543402507294
20
2.38991089405798
30
0
41
1
10
2.97156176480613
20
2.35444797767082
30
0
41
1
10
2.91516645375091
20
2.33564461390563
30
0
41
1
10
2.8036792092239
20
2.29541796497963
30
0
41
1
10
2.74858550477001
20
2.27399856742181
30
0
41
1
10
2.64003125396005
20
2.22783297315408
30
0
41
1
10
2.58656930564939
20
2.20309043830014
30
0
41
1
10
2.50796033407022
20
2.16270248022886
30
0
41
1
10
2.48197813958265
20
2.14866498989352
30
0
41
1
10
2.43095075390045
20
2.11950349036928
30
0
41
1
10
2.40588520429978
20
2.10437267802911
30
0
41
1
10
2.35678200272869
20
2.0728403168365
30
0
41
1
10
2.3327435810055
20
2.0564397458468
30
0
41
1
10
2.28588156536171
20
2.02212807401628
30
0
41
1
10
2.26301634430888
20
2.00418216515709
30
0
41
1
10
2.19690819828438
20
1.94780590073032
30
0
41
1
10
2.15667311261692
20
1.90736816396793
30
0
41
1
10
2.10420069882002
20
1.84076670459564
30
0
41
1
10
2.08803285574973
20
1.81756781403706
30
0
41
1
10
2.06620444229799
20
1.78092962042388
30
0
41
1
10
2.05931471940392
20
1.76836333970158
30
0
41
1
10
2.04663211209601
20
1.74294342150998
30
0
41
1
10
2.02918582987738
20
1.70428640085487
30
0
41
1
10
2.01666409379968
20
1.66397652492319
30
0
41
1
10
2.00772989289243
20
1.62245147028827
30
0
41
1
10
2.00534405737642
20
1.60834982760065
30
0
41
1
10
2.00185738500488
20
1.57999652021377
30
0
41
1
10
1.99856277637034
20
1.53744698380191
30
0
41
1
10
2.00159654227906
20
1.48062803263997
30
0
41
1
10
2.00896022265343
20
1.43793586450641
30
0
41
1
10
2.01495084463448
20
1.40945567446406
30
0
41
1
10
2.01846544812122
20
1.39531494716178
30
0
41
1
10
2.03828970237905
20
1.32545976421483
30
0
41
1
10
2.06135792922552
20
1.2718233202643
30
0
41
1
10
2.10356878966172
20
1.19369573831767
30
0
41
1
10
2.11895798791935
20
1.16799733795784
30
0
41
1
10
2.15126778123118
20
1.1180635692451
30
0
41
1
10
2.16824558127297
20
1.09370368118499
30
0
41
1
10
2.20356972731855
20
1.04599071298591
30
0
41
1
10
2.22192475188035
20
1.02264446078632
30
0
41
1
10
2.25992917115917
20
0.976910750060682
30
0
41
1
10
2.27959983595048
20
0.954540506487319
30
0
41
1
10
2.31976899706424
20
0.91039364595693
30
0
41
1
10
2.34024582228159
20
0.888599869859831
30
0
41
1
10
2.38084368649308
20
0.844655514929144
30
0
41
1
10
2.40095510954632
20
0.822496673364412
30
0
41
1
10
2.46078237015979
20
0.755500831303209
30
0
41
1
10
2.50006668415404
20
0.710204643254968
30
0
41
1
10
2.57859465809469
20
0.619278989630402
30
0
41
1
10
2.61785495560332
20
0.573663612946945
30
0
41
1
10
2.69690900595521
20
0.482572267017048
30
0
41
1
10
2.73671242932471
20
0.437051297477666
30
0
41
1
10
2.85669565921174
20
0.300879732780942
30
0
41
1
10
2.93704759484837
20
0.210824183168285
30
0
41
1
10
3.09862012971885
20
0.0322660745900691
30
0
41
1
10
3.17994506426354
20
-0.0561299175330419
30
0
41
1
10
3.34438928892058
20
-0.230477841234915
30
0
41
1
10
3.42748788820927
20
-0.316451744093229
30
0
41
1
10
3.59518064611049
20
-0.486298737397874
30
0
41
1
10
3.67974276936985
20
-0.570203496448215
30
0
41
1
10
3.8502868128337
20
-0.736016190745829
30
0
41
1
10
3.93628007979635
20
-0.817912240350921
30
0
41
1
10
4.11020897097265
20
-0.979217417876669
30
0
41
1
10
4.19815568677558
20
-1.05861541961377
30
0
41
1
10
4.33203691788668
20
-1.1753775688635
30
0
41
1
10
4.37699101697746
20
-1.21390909088305
30
0
41
1
10
4.4676190066352
20
-1.29013456078661
30
0
41
1
10
4.51334271453501
20
-1.3278684042628
30
0
41
1
10
4.65130179478226
20
-1.43946901180004
30
0
41
1
10
4.74407692886629
20
-1.5115270802028
30
0
41
1
10
4.93130267684251
20
-1.65115309001101
30
0
41
1
10
5.02574820502389
20
-1.71872870414464
30
0
41
1
10
5.3114636256052
20
-1.9152795798083
30
0
41
1
10
5.50508910895377
20
-2.03812829649593
30
0
41
1
10
5.89786229397382
20
-2.26997282668992
30
0
41
1
10
6.09702116779494
20
-2.3789456136119
30
0
41
1
10
6.50041398363754
20
-2.58465470878505
30
0
41
1
10
6.70465309251614
20
-2.68138224143777
30
0
41
1
10
7.01447105544386
20
-2.81829633845453
30
0
41
1
10
7.11833889690144
20
-2.86257772315042
30
0
41
1
10
7.32708480735886
20
-2.94852659994697
30
0
41
1
10
7.43177295503188
20
-2.99011693333159
30
0
41
1
10
7.74671428193872
20
-3.11099525010877
30
0
41
1
10
7.95783991485578
20
-3.18640504663261
30
0
41
1
10
8.16997801430364
20
-3.25716402505691
30
0
0
SPLINE
5
C7
100
AcDbEntity
8
1
62
256
6
ByLayer
370
18
48
1
60
0
100
AcDbSpline
70
4
71
3
72
54
73
50
40
0
40
0
40
0
40
0
40
0.0102806127866914
40
0.0307156861400657
40
0.0511507594934401
40
0.0715858328468143
40
0.0818033695235014
40
0.0920209062001887
40
0.112455979553563
40
0.12267351623025
40
0.132891052906937
40
0.153326126260312
40
0.173761199613686
40
0.19419627296706
40
0.214631346320435
40
0.255501493027183
40
0.275936566380557
40
0.296371639733932
40
0.316806713087306
40
0.33724178644068
40
0.378111933147429
40
0.418982079854178
40
0.459852226560926
40
0.500722373267675
40
0.541592519974423
40
0.582462666681172
40
0.602897740034546
40
0.62333281338792
40
0.664202960094669
40
0.684638033448044
40
0.705073106801418
40
0.725508180154792
40
0.745943253508166
40
0.766378326861541
40
0.776595863538228
40
0.781704631876571
40
0.786813400214915
40
0.797030936891602
40
0.807248473568289
40
0.827683546921664
40
0.848118620275038
40
0.868553693628412
40
0.888988766981787
40
0.909423840335161
40
0.929858913688535
40
0.950293987041909
40
0.970729060395284
40
0.991164133748658
40
1
40
1
40
1
40
1
41
1
10
14.4588791716557
20
-0.321074575197571
30
0
41
1
10
14.4373063415057
20
-0.316269821345031
30
0
41
1
10
14.3722474148045
20
-0.302503560643601
30
0
41
1
10
14.2608315608271
20
-0.28254901810476
30
0
41
1
10
14.1223447977898
20
-0.263420699325508
30
0
41
1
10
14.0074590914788
20
-0.246958799104391
30
0
41
1
10
13.9227779810843
20
-0.226462378466437
30
0
41
1
10
13.8436513569776
20
-0.20031084019547
30
0
41
1
10
13.7695395250339
20
-0.168690660199871
30
0
41
1
10
13.6877258748428
20
-0.143988718944627
30
0
41
1
10
13.6009445957185
20
-0.124272105543355
30
0
41
1
10
13.4871925745925
20
-0.106265055431862
30
0
41
1
10
13.3445211749976
20
-0.0927329410350808
30
0
41
1
10
13.1927098970114
20
-0.0889253844594293
30
0
41
1
10
12.9840454101665
20
-0.0937271216905344
30
0
41
1
10
12.7699015193757
20
-0.111917219373254
30
0
41
1
10
12.5511841288185
20
-0.141428844139028
30
0
41
1
10
12.3850482106464
20
-0.168665114254139
30
0
41
1
10
12.2165949546157
20
-0.200779027631683
30
0
41
1
10
11.9901019659371
20
-0.249689291580665
30
0
41
1
10
11.7068130460281
20
-0.32063359099439
30
0
41
1
10
11.3680099429664
20
-0.42144486317838
30
0
41
1
10
11.0304056656464
20
-0.537480565538516
30
0
41
1
10
10.6926319930969
20
-0.669828093415788
30
0
41
1
10
10.3582572186026
20
-0.818154590869824
30
0
41
1
10
10.0896004096661
20
-0.953951458626761
30
0
41
1
10
9.88045881101095
20
-1.07274529834027
30
0
41
1
10
9.67721115477875
20
-1.19849866584749
30
0
41
1
10
9.48907728794043
20
-1.33188121359356
30
0
41
1
10
9.3187966895668
20
-1.4768053472294
30
0
41
1
10
9.20534346884705
20
-1.58903214116793
30
0
41
1
10
9.10954139697537
20
-1.70333922291041
30
0
41
1
10
9.0318622398382
20
-1.82080005247127
30
0
41
1
10
8.98575920288886
20
-1.91730342261488
30
0
41
1
10
8.96230539398573
20
-1.98406072633196
30
0
41
1
10
8.95225625718996
20
-2.02154055315214
30
0
41
1
10
8.94284063827405
20
-2.05888230978778
30
0
41
1
10
8.92805154752273
20
-2.10612348467586
30
0
41
1
10
8.89903431536493
20
-2.18259857606486
30
0
41
1
10
8.85691089519742
20
-2.27882867901923
30
0
41
1
10
8.80080621548396
20
-2.39469868636584
30
0
41
1
10
8.7373161313931
20
-2.51078311261381
30
0
41
1
10
8.66794263564486
20
-2.62700114799068
30
0
41
1
10
8.59247933672529
20
-2.74350553232389
30
0
41
1
10
8.5085220502811
20
-2.86038967623088
30
0
41
1
10
8.41587894901949
20
-2.97691182535181
30
0
41
1
10
8.3169164418598
20
-3.09244799602999
30
0
41
1
10
8.23421693749705
20
-3.18571192905233
30
0
41
1
10
8.1849534584
20
-3.24060182162964
30
0
41
1
10
8.16999583054948
20
-3.25715983660811
30
0
0
SPLINE
5
C8
100
AcDbEntity
8
1
62
256
6
ByLayer
370
18
48
1
60
0
100
AcDbSpline
70
4
71
3
72
17
73
13
40
0
40
0
40
0
40
0
40
2.02924659105E-05
40
0.0765798862985352
40
0.154717757708791
40
0.22410090798599
40
0.287128130855971
40
0.375164789442108
40
0.487981308979369
40
0.633576200468222
40
0.823157292078019
40
1
40
1
40
1
40
1
41
1
10
72.5046509051849
20
-0.0896688932511154
30
0
41
1
10
72.5046515734173
20
-0.0896633976099963
30
0
41
1
10
72.5071695702789
20
-0.0689227943354069
30
0
41
1
10
72.4834020290921
20
-0.0186033000990733
30
0
41
1
10
72.3827952509684
20
0.0500047676005124
30
0
41
1
10
72.2508300318237
20
0.1214017183257
30
0
41
1
10
72.0704733340015
20
0.206643686840835
30
0
41
1
10
71.7956515985312
20
0.332106252304385
30
0
41
1
10
71.4193041510686
20
0.507098749463438
30
0
41
1
10
70.9389356824487
20
0.736227755778515
30
0
41
1
10
70.3853000633237
20
1.00681357978027
30
0
41
1
10
69.9910660002869
20
1.21058568113062
30
0
41
1
10
69.8008176923059
20
1.31102571324846
30
0
0
SPLINE
5
C9
100
AcDbEntity
8
1
62
256
6
ByLayer
370
18
48
1
60
0
100
AcDbSpline
70
4
71
3
72
16
73
12
40
0
40
0
40
0
40
0
40
0.0103997771641338
40
0.0322524754061768
40
0.055174293600131
40
0.107701004507122
40
0.205890369101219
40
0.313449839946423
40
0.527015487681382
40
0.775111623782693
40
1
40
1
40
1
40
1
41
1
10
25.7281132337903
20
-0.207023748763078
30
0
41
1
10
25.7286895801888
20
-0.205323620690336
30
0
41
1
10
25.7280793915356
20
-0.199625976723439
30
0
41
1
10
25.7145527851482
20
-0.18714217905648
30
0
41
1
10
25.6645491870982
20
-0.158952303939543
30
0
41
1
10
25.5194841807704
20
-0.0933420316679019
30
0
41
1
10
25.2509171470631
20
0.0210366353288975
30
0
41
1
10
24.8028169590118
20
0.218856417751681
30
0
41
1
10
24.1535801673338
20
0.521043082409108
30
0
41
1
10
23.3713168941512
20
0.896124219452901
30
0
41
1
10
22.8421145164217
20
1.16768609664606
30
0
41
1
10
22.5919816868147
20
1.29933814591951
30
0
0
SPLINE
5
CA
100
AcDbEntity
8
1
62
256
6
ByLayer
370
18
48
1
60
0
100
AcDbSpline
70
4
71
3
72
16
73
12
40
0
40
0
40
0
40
0
40
0.0319374123515742
40
0.100766776926739
40
0.18372515081637
40
0.332292562413066
40
0.399532373338443
40
0.472761843285004
40
0.615031574719223
40
0.811766819398266
40
1
40
1
40
1
40
1
41
1
10
49.0710365990765
20
-0.160192063020418
30
0
41
1
10
49.0735896637442
20
-0.152175043100101
30
0
41
1
10
49.0706179065584
20
-0.121791622680405
30
0
41
1
10
48.9918372185213
20
-0.0595701337329331
30
0
41
1
10
48.7933997012842
20
0.0494366554422072
30
0
41
1
10
48.5284468735281
20
0.171702814427988
30
0
41
1
10
48.2197037779175
20
0.313431947537396
30
0
41
1
10
47.9013273988159
20
0.46104910289327
30
0
41
1
10
47.4441911600791
20
0.677475636885163
30
0
41
1
10
46.8536937803054
20
0.963226591267642
30
0
41
1
10
46.424880413372
20
1.18452500461731
30
0
41
1
10
46.2151889363835
20
1.29533251771332
30
0
0
SPLINE
5
CB
100
AcDbEntity
8
1
62
256
6
ByLayer
370
18
48
1
60
0
100
AcDbSpline
70
4
71
3
72
10
73
6
40
0
40
0
40
0
40
0
40
0.214973977615481
40
0.931355573243172
40
1
40
1
40
1
40
1
41
1
10
14.4676855304813
20
-0.329944193175777
30
0
41
1
10
14.4669986409724
20
-0.335252213900475
30
0
41
1
10
14.4702367135724
20
-0.359238739616927
30
0
41
1
10
14.4978708353408
20
-0.372202338695331
30
0
41
1
10
14.529499843331
20
-0.376978035380802
30
0
41
1
10
14.532333343556
20
-0.377359542091938
30
0
0
LINE
5
7D
100
AcDbEntity
8
4
62
256
6
ByLayer
370
18
48
0.05
60
0
100
AcDbLine
10
-5
20
0
30
0
11
82
21
0
31
0
39
0
210
0
220
0
230
1
0
LINE
5
7F
100
AcDbEntity
8
81
62
256
6
ByLayer
370
18
48
1
60
0
100
AcDbLine
10
77
20
0
30
0
11
82
21
0
31
0
39
0
210
0
220
0
230
1
0
LINE
5
80
100
AcDbEntity
8
SK4
62
256
6
ByLayer
370
18
48
0.05
60
0
100
AcDbLine
10
-45
20
0
30
0
11
82
21
0
31
0
39
0
210
0
220
0
230
1
0
LINE
5
82
100
AcDbEntity
8
80
62
256
6
ByLayer
370
18
48
1
60
0
100
AcDbLine
10
0
20
0
30
0
11
-5
21
0
31
0
39
0
210
0
220
0
230
1
0
LINE
5
83
100
AcDbEntity
8
1
62
256
6
ByLayer
370
18
48
1
60
0
100
AcDbLine
10
0
20
4.167
30
0
11
0
21
-4.167
31
0
39
0
210
0
220
0
230
1
0
LINE
5
84
100
AcDbEntity
8
1
62
256
6
ByLayer
370
18
48
1
60
0
100
AcDbLine
10
74.746592
20
-4.167
30
0
11
74.746592
21
-1.383247
31
0
39
0
210
0
220
0
230
1
0
LINE
5
85
100
AcDbEntity
8
1
62
256
6
ByLayer
370
18
48
1
60
0
100
AcDbLine
10
74.746592
20
4.167
30
0
11
74.746592
21
4.034848
31
0
39
0
210
0
220
0
230
1
0
LINE
5
86
100
AcDbEntity
8
1
62
256
6
ByLayer
370
18
48
1
60
0
100
AcDbLine
10
0.4
20
-4.13912
30
0
11
0.4
21
4.13912
31
0
39
0
210
0
220
0
230
1
0
LINE
5
87
100
AcDbEntity
8
SK1
62
256
6
ByLayer
370
18
48
1
60
0
100
AcDbLine
10
0
20
4.167
30
0
11
0
21
-4.167
31
0
39
0
210
0
220
0
230
1
0
LINE
5
89
100
AcDbEntity
8
SK1
62
256
6
ByLayer
370
18
48
1
60
0
100
AcDbLine
10
-40
20
-3.415
30
0
11
-40
21
3.415
31
0
39
0
210
0
220
0
230
1
0
LINE
5
8A
100
AcDbEntity
8
SK1
62
256
6
ByLayer
370
18
48
1
60
0
100
AcDbLine
10
-39.248
20
-4.167
30
0
11
-39.248
21
4.167
31
0
39
0
210
0
220
0
230
1
0
LINE
5
8B
100
AcDbEntity
8
1
62
256
6
ByLayer
370
18
48
1
60
0
100
AcDbLine
10
0.4
20
4.13912
30
0
11
0
21
4.167
31
0
39
0
210
0
220
0
230
1
0
LINE
5
8C
100
AcDbEntity
8
1
62
256
6
ByLayer
370
18
48
1
60
0
100
AcDbLine
10
0
20
-4.167
30
0
11
0.4
21
-4.13912
31
0
39
0
210
0
220
0
230
1
0
LINE
5
8D
100
AcDbEntity
8
1
62
256
6
ByLayer
370
18
48
1
60
0
100
AcDbLine
10
77
20
0
30
0
11
74.746592
21
4.167
31
0
39
0
210
0
220
0
230
1
0
LINE
5
8E
100
AcDbEntity
8
1
62
256
6
ByLayer
370
18
48
1
60
0
100
AcDbLine
10
74.746592
20
-4.167
30
0
11
77
21
0
31
0
39
0
210
0
220
0
230
1
0
LINE
5
8F
100
AcDbEntity
8
1
62
256
6
ByLayer
370
18
48
1
60
0
100
AcDbLine
10
0.4
20
-4.13912
30
0
11
13.174184
21
-4.14391
31
0
39
0
210
0
220
0
230
1
0
LINE
5
90
100
AcDbEntity
8
1
62
256
6
ByLayer
370
18
48
1
60
0
100
AcDbLine
10
25.614523
20
-4.148575
30
0
11
36.785681
21
-4.152765
31
0
39
0
210
0
220
0
230
1
0
LINE
5
91
100
AcDbEntity
8
1
62
256
6
ByLayer
370
18
48
1
60
0
100
AcDbLine
10
49.231455
20
-4.157432
30
0
11
60.397448
21
-4.161619
31
0
39
0
210
0
220
0
230
1
0
LINE
5
92
100
AcDbEntity
8
1
62
256
6
ByLayer
370
18
48
1
60
0
100
AcDbLine
10
72.848316
20
-4.166288
30
0
11
74.746592
21
-4.167
31
0
39
0
210
0
220
0
230
1
0
LINE
5
93
100
AcDbEntity
8
1
62
256
6
ByLayer
370
18
48
1
60
0
100
AcDbLine
10
74.746592
20
4.167
30
0
11
72.848316
21
4.166288
31
0
39
0
210
0
220
0
230
1
0
LINE
5
94
100
AcDbEntity
8
1
62
256
6
ByLayer
370
18
48
1
60
0
100
AcDbLine
10
60.397448
20
4.161619
30
0
11
49.231455
21
4.157432
31
0
39
0
210
0
220
0
230
1
0
LINE
5
95
100
AcDbEntity
8
1
62
256
6
ByLayer
370
18
48
1
60
0
100
AcDbLine
10
36.785681
20
4.152765
30
0
11
25.614523
21
4.148575
31
0
39
0
210
0
220
0
230
1
0
LINE
5
96
100
AcDbEntity
8
1
62
256
6
ByLayer
370
18
48
1
60
0
100
AcDbLine
10
13.174184
20
4.14391
30
0
11
0.4
21
4.13912
31
0
39
0
210
0
220
0
230
1
0
LINE
5
97
100
AcDbEntity
8
SK1
62
256
6
ByLayer
370
18
48
1
60
0
100
AcDbLine
10
-39.248
20
-4.167
30
0
11
0
21
-4.167
31
0
39
0
210
0
220
0
230
1
0
LINE
5
98
100
AcDbEntity
8
SK1
62
256
6
ByLayer
370
18
48
1
60
0
100
AcDbLine
10
0
20
4.167
30
0
11
-39.248
21
4.167
31
0
39
0
210
0
220
0
230
1
0
LINE
5
99
100
AcDbEntity
8
SK1
62
256
6
ByLayer
370
18
48
1
60
0
100
AcDbLine
10
-40
20
-3.415
30
0
11
-39.248
21
-4.167
31
0
39
0
210
0
220
0
230
1
0
LINE
5
9A
100
AcDbEntity
8
SK1
62
256
6
ByLayer
370
18
48
1
60
0
100
AcDbLine
10
-39.248
20
4.167
30
0
11
-40
21
3.415
31
0
39
0
210
0
220
0
230
1
0
LINE
5
9B
100
AcDbEntity
8
SK2
62
256
6
ByLayer
370
13
48
1
60
0
100
AcDbLine
10
-46.5
20
-4.167
30
0
11
-46.5
21
31.265627
31
0
39
0
210
0
220
0
230
1
0
LINE
5
9D
100
AcDbEntity
8
SK2
62
256
6
ByLayer
370
13
48
1
60
0
100
AcDbLine
10
-41.5875
20
4.167
30
0
11
-48.5
21
4.167
31
0
39
0
210
0
220
0
230
1
0
LINE
5
9E
100
AcDbEntity
8
SK2
62
256
6
ByLayer
370
13
48
1
60
0
100
AcDbLine
10
-41.5875
20
-4.167
30
0
11
-48.5
21
-4.167
31
0
39
0
210
0
220
0
230
1
0
LINE
5
9F
100
AcDbEntity
8
1
62
256
6
ByLayer
370
18
48
1
60
1
100
AcDbLine
10
-46.5
20
4.167
30
0
11
-46.039216
21
0.667002
31
0
39
0
210
0
220
0
230
1
0
LINE
5
A0
100
AcDbEntity
8
1
62
256
6
ByLayer
370
18
48
1
60
1
100
AcDbLine
10
-46.039216
20
0.667002
30
0
11
-46.960784
21
0.666998
31
0
39
0
210
0
220
0
230
1
0
LINE
5
A1
100
AcDbEntity
8
1
62
256
6
ByLayer
370
18
48
1
60
1
100
AcDbLine
10
-46.960784
20
0.666998
30
0
11
-46.5
21
4.167
31
0
39
0
210
0
220
0
230
1
0
LINE
5
A2
100
AcDbEntity
8
1
62
256
6
ByLayer
370
18
48
1
60
1
100
AcDbLine
10
-46.5
20
-4.167
30
0
11
-46.960784
21
-0.667002
31
0
39
0
210
0
220
0
230
1
0
LINE
5
A3
100
AcDbEntity
8
1
62
256
6
ByLayer
370
18
48
1
60
1
100
AcDbLine
10
-46.960784
20
-0.667002
30
0
11
-46.039216
21
-0.666998
31
0
39
0
210
0
220
0
230
1
0
LINE
5
A4
100
AcDbEntity
8
1
62
256
6
ByLayer
370
18
48
1
60
1
100
AcDbLine
10
-46.039216
20
-0.666998
30
0
11
-46.5
21
-4.167
31
0
39
0
210
0
220
0
230
1
0
LINE
5
A5
100
AcDbEntity
8
2
62
256
6
ByLayer
370
13
48
1
60
0
100
AcDbLine
10
84.246592
20
-4.167
30
0
11
84.246592
21
31.265627
31
0
39
0
210
0
220
0
230
1
0
LINE
5
A7
100
AcDbEntity
8
2
62
256
6
ByLayer
370
13
48
1
60
0
100
AcDbLine
10
76.334092
20
4.167
30
0
11
86.246592
21
4.167
31
0
39
0
210
0
220
0
230
1
0
LINE
5
A8
100
AcDbEntity
8
2
62
256
6
ByLayer
370
13
48
1
60
0
100
AcDbLine
10
76.334092
20
-4.167
30
0
11
86.246592
21
-4.167
31
0
39
0
210
0
220
0
230
1
0
LINE
5
A9
100
AcDbEntity
8
1
62
256
6
ByLayer
370
18
48
1
60
1
100
AcDbLine
10
84.246592
20
4.167
30
0
11
84.707376
21
0.667002
31
0
39
0
210
0
220
0
230
1
0
LINE
5
AA
100
AcDbEntity
8
1
62
256
6
ByLayer
370
18
48
1
60
1
100
AcDbLine
10
84.707376
20
0.667002
30
0
11
83.785809
21
0.666998
31
0
39
0
210
0
220
0
230
1
0
LINE
5
AB
100
AcDbEntity
8
1
62
256
6
ByLayer
370
18
48
1
60
1
100
AcDbLine
10
83.785809
20
0.666998
30
0
11
84.246592
21
4.167
31
0
39
0
210
0
220
0
230
1
0
LINE
5
AC
100
AcDbEntity
8
1
62
256
6
ByLayer
370
18
48
1
60
1
100
AcDbLine
10
84.246592
20
-4.167
30
0
11
83.785809
21
-0.667002
31
0
39
0
210
0
220
0
230
1
0
LINE
5
AD
100
AcDbEntity
8
1
62
256
6
ByLayer
370
18
48
1
60
1
100
AcDbLine
10
83.785809
20
-0.667002
30
0
11
84.707376
21
-0.666998
31
0
39
0
210
0
220
0
230
1
0
LINE
5
AE
100
AcDbEntity
8
1
62
256
6
ByLayer
370
18
48
1
60
1
100
AcDbLine
10
84.707376
20
-0.666998
30
0
11
84.246592
21
-4.167
31
0
39
0
210
0
220
0
230
1
0
LINE
5
AF
100
AcDbEntity
8
2
62
256
6
ByLayer
370
13
48
1
60
0
100
AcDbLine
10
77.755136
20
-1.396397
30
0
11
88.416232
21
-21.110889
31
0
39
0
210
0
220
0
230
1
0
LINE
5
B0
100
AcDbEntity
8
2
62
256
6
ByLayer
370
13
48
1
60
0
100
AcDbLine
10
77.755136
20
1.396397
30
0
11
88.416232
21
21.110889
31
0
39
0
210
0
220
0
230
1
0
LINE
5
B1
100
AcDbEntity
8
1
62
256
6
ByLayer
370
18
48
1
60
1
100
AcDbLine
10
87.464879
20
-19.351649
30
0
11
90.239971
21
-17.169637
31
0
39
0
210
0
220
0
230
1
0
LINE
5
B2
100
AcDbEntity
8
1
62
256
6
ByLayer
370
18
48
1
60
1
100
AcDbLine
10
90.239971
20
-17.169637
30
0
11
90.710161
21
-17.962233
31
0
39
0
210
0
220
0
230
1
0
LINE
5
B3
100
AcDbEntity
8
1
62
256
6
ByLayer
370
18
48
1
60
1
100
AcDbLine
10
90.710161
20
-17.962233
30
0
11
87.464879
21
-19.351649
31
0
39
0
210
0
220
0
230
1
0
LINE
5
B4
100
AcDbEntity
8
1
62
256
6
ByLayer
370
18
48
1
60
1
100
AcDbLine
10
87.464879
20
19.351649
30
0
11
90.710158
21
17.962234
31
0
39
0
210
0
220
0
230
1
0
LINE
5
B5
100
AcDbEntity
8
1
62
256
6
ByLayer
370
18
48
1
60
1
100
AcDbLine
10
90.710158
20
17.962234
30
0
11
90.239974
21
17.169635
31
0
39
0
210
0
220
0
230
1
0
LINE
5
B6
100
AcDbEntity
8
1
62
256
6
ByLayer
370
18
48
1
60
1
100
AcDbLine
10
90.239974
20
17.169635
30
0
11
87.464879
21
19.351649
31
0
39
0
210
0
220
0
230
1
0
LINE
5
D0
100
AcDbEntity
8
1
62
256
6
ByLayer
370
18
48
1
60
1
100
AcDbLine
10
-46.5
20
4.167
30
0
11
-46.039216
21
0.667002
31
0
39
0
210
0
220
0
230
1
0
LINE
5
D1
100
AcDbEntity
8
1
62
256
6
ByLayer
370
18
48
1
60
1
100
AcDbLine
10
-46.039216
20
0.667002
30
0
11
-46.960784
21
0.666998
31
0
39
0
210
0
220
0
230
1
0
LINE
5
D2
100
AcDbEntity
8
1
62
256
6
ByLayer
370
18
48
1
60
1
100
AcDbLine
10
-46.960784
20
0.666998
30
0
11
-46.5
21
4.167
31
0
39
0
210
0
220
0
230
1
0
LINE
5
D4
100
AcDbEntity
8
1
62
256
6
ByLayer
370
18
48
1
60
1
100
AcDbLine
10
-46.5
20
-4.167
30
0
11
-46.960784
21
-0.667002
31
0
39
0
210
0
220
0
230
1
0
LINE
5
D5
100
AcDbEntity
8
1
62
256
6
ByLayer
370
18
48
1
60
1
100
AcDbLine
10
-46.960784
20
-0.667002
30
0
11
-46.039216
21
-0.666998
31
0
39
0
210
0
220
0
230
1
0
LINE
5
D6
100
AcDbEntity
8
1
62
256
6
ByLayer
370
18
48
1
60
1
100
AcDbLine
10
-46.039216
20
-0.666998
30
0
11
-46.5
21
-4.167
31
0
39
0
210
0
220
0
230
1
0
LINE
5
DA
100
AcDbEntity
8
1
62
256
6
ByLayer
370
18
48
1
60
1
100
AcDbLine
10
84.246592
20
4.167
30
0
11
84.707376
21
0.667002
31
0
39
0
210
0
220
0
230
1
0
LINE
5
DB
100
AcDbEntity
8
1
62
256
6
ByLayer
370
18
48
1
60
1
100
AcDbLine
10
84.707376
20
0.667002
30
0
11
83.785809
21
0.666998
31
0
39
0
210
0
220
0
230
1
0
LINE
5
DC
100
AcDbEntity
8
1
62
256
6
ByLayer
370
18
48
1
60
1
100
AcDbLine
10
83.785809
20
0.666998
30
0
11
84.246592
21
4.167
31
0
39
0
210
0
220
0
230
1
0
LINE
5
DE
100
AcDbEntity
8
1
62
256
6
ByLayer
370
18
48
1
60
1
100
AcDbLine
10
84.246592
20
-4.167
30
0
11
83.785809
21
-0.667002
31
0
39
0
210
0
220
0
230
1
0
LINE
5
DF
100
AcDbEntity
8
1
62
256
6
ByLayer
370
18
48
1
60
1
100
AcDbLine
10
83.785809
20
-0.667002
30
0
11
84.707376
21
-0.666998
31
0
39
0
210
0
220
0
230
1
0
LINE
5
E0
100
AcDbEntity
8
1
62
256
6
ByLayer
370
18
48
1
60
1
100
AcDbLine
10
84.707376
20
-0.666998
30
0
11
84.246592
21
-4.167
31
0
39
0
210
0
220
0
230
1
0
LINE
5
E3
100
AcDbEntity
8
1
62
256
6
ByLayer
370
18
48
1
60
1
100
AcDbLine
10
87.464879
20
-19.351649
30
0
11
90.239971
21
-17.169637
31
0
39
0
210
0
220
0
230
1
0
LINE
5
E4
100
AcDbEntity
8
1
62
256
6
ByLayer
370
18
48
1
60
1
100
AcDbLine
10
90.239971
20
-17.169637
30
0
11
90.710161
21
-17.962233
31
0
39
0
210
0
220
0
230
1
0
LINE
5
E5
100
AcDbEntity
8
1
62
256
6
ByLayer
370
18
48
1
60
1
100
AcDbLine
10
90.710161
20
-17.962233
30
0
11
87.464879
21
-19.351649
31
0
39
0
210
0
220
0
230
1
0
LINE
5
E7
100
AcDbEntity
8
1
62
256
6
ByLayer
370
18
48
1
60
1
100
AcDbLine
10
87.464879
20
19.351649
30
0
11
90.710158
21
17.962234
31
0
39
0
210
0
220
0
230
1
0
LINE
5
E8
100
AcDbEntity
8
1
62
256
6
ByLayer
370
18
48
1
60
1
100
AcDbLine
10
90.710158
20
17.962234
30
0
11
90.239974
21
17.169635
31
0
39
0
210
0
220
0
230
1
0
LINE
5
E9
100
AcDbEntity
8
1
62
256
6
ByLayer
370
18
48
1
60
1
100
AcDbLine
10
90.239974
20
17.169635
30
0
11
87.464879
21
19.351649
31
0
39
0
210
0
220
0
230
1
0
MTEXT
5
CC
100
AcDbEntity
8
SK2
62
256
6
ByLayer
370
18
48
1
60
0
100
AcDbMText
10
-47.841114
20
15.825438
30
0
210
0
220
0
230
1
1
%%c
40
3
41
0
44
1.084337
50
90
71
7
72
5
7
iso_b_vert
0
MTEXT
5
CF
100
AcDbEntity
8
SK2
62
256
6
ByLayer
370
18
48
1
60
0
100
AcDbMText
10
-47.841114
20
21.802
30
0
210
0
220
0
230
1
1
\W0.7607;8.334
40
3
41
0
44
1.084337
50
90
71
7
72
5
7
iso_b_vert
0
MTEXT
5
D8
100
AcDbEntity
8
2
62
256
6
ByLayer
370
18
48
1
60
0
100
AcDbMText
10
82.905478
20
15.825438
30
0
210
0
220
0
230
1
1
%%c
40
3
41
0
44
1.084337
50
90
71
7
72
5
7
iso_b_vert
0
MTEXT
5
D9
100
AcDbEntity
8
2
62
256
6
ByLayer
370
18
48
1
60
0
100
AcDbMText
10
82.905478
20
21.802
30
0
210
0
220
0
230
1
1
\W0.7607;8.334
40
3
41
0
44
1.084337
50
90
71
7
72
5
7
iso_b_vert
0
MTEXT
5
E2
100
AcDbEntity
8
2
62
256
6
ByLayer
370
18
48
1
60
0
100
AcDbMText
10
96.092229
20
-2.114886
30
0
210
0
220
0
230
1
1
\W0.6008;118%%d
40
3
41
0
44
1.084337
50
0
71
7
72
5
7
iso_b_vert
0
MTEXT
5
EB
100
AcDbEntity
8
SK6
62
256
6
ByLayer
370
18
48
1
60
0
100
AcDbMText
10
9.192533
20
-67.114886
30
0
210
0
220
0
230
1
1
\W0.7668;R00321/64
40
3
41
0
44
1.084337
50
0
71
7
72
5
7
iso_b_vert
0
HATCH
5
D3
100
AcDbEntity
8
SK2
62
256
6
ByLayer
370
13
48
1
60
0
100
AcDbHatch
10
0
20
0
30
0
210
0
220
0
230
1
2
ANSI31
70
0
71
0
91
1
92
5
93
3
72
1
10
-46.5
20
4.167
11
-46.0392162584472
21
0.667001692553185
72
1
10
-46.0392162584472
20
0.667001692553185
11
-46.9607837415528
21
0.666998307446818
72
1
10
-46.9607837415528
20
0.666998307446818
11
-46.5
21
4.167
97
0
75
0
76
1
52
0
41
0.0062
77
0
78
1
53
45
43
0
44
0
45
-0.0139193969876572
46
0.0139193969876572
79
0
47
0
98
1
10
0
20
0
0
HATCH
5
D7
100
AcDbEntity
8
SK2
62
256
6
ByLayer
370
13
48
1
60
0
100
AcDbHatch
10
0
20
0
30
0
210
0
220
0
230
1
2
ANSI31
70
0
71
0
91
1
92
5
93
3
72
1
10
-46.5
20
-4.167
11
-46.9607837415528
21
-0.667001692553185
72
1
10
-46.9607837415528
20
-0.667001692553185
11
-46.0392162584472
21
-0.666998307446818
72
1
10
-46.0392162584472
20
-0.666998307446818
11
-46.5
21
-4.167
97
0
75
0
76
1
52
0
41
0.0062
77
0
78
1
53
45
43
0
44
0
45
-0.0139193969876572
46
0.0139193969876572
79
0
47
0
98
1
10
0
20
0
0
HATCH
5
DD
100
AcDbEntity
8
2
62
256
6
ByLayer
370
13
48
1
60
0
100
AcDbHatch
10
0
20
0
30
0
210
0
220
0
230
1
2
ANSI31
70
0
71
0
91
1
92
5
93
3
72
1
10
84.2465924204609
20
4.167
11
84.7073761620137
21
0.667001692553185
72
1
10
84.7073761620137
20
0.667001692553185
11
83.7858086789081
21
0.666998307446818
72
1
10
83.7858086789081
20
0.666998307446818
11
84.2465924204609
21
4.167
97
0
75
0
76
1
52
0
41
0.0062
77
0
78
1
53
45
43
0
44
0
45
-0.0139193969876572
46
0.0139193969876572
79
0
47
0
98
1
10
0
20
0
0
HATCH
5
E1
100
AcDbEntity
8
2
62
256
6
ByLayer
370
13
48
1
60
0
100
AcDbHatch
10
0
20
0
30
0
210
0
220
0
230
1
2
ANSI31
70
0
71
0
91
1
92
5
93
3
72
1
10
84.2465924204609
20
-4.167
11
83.7858086789081
21
-0.667001692553185
72
1
10
83.7858086789081
20
-0.667001692553185
11
84.7073761620137
21
-0.666998307446818
72
1
10
84.7073761620137
20
-0.666998307446818
11
84.2465924204609
21
-4.167
97
0
75
0
76
1
52
0
41
0.0062
77
0
78
1
53
45
43
0
44
0
45
-0.0139193969876572
46
0.0139193969876572
79
0
47
0
98
1
10
0
20
0
0
HATCH
5
E6
100
AcDbEntity
8
2
62
256
6
ByLayer
370
13
48
1
60
0
100
AcDbHatch
10
0
20
0
30
0
210
0
220
0
230
1
2
ANSI31
70
0
71
0
91
1
92
5
93
3
72
1
10
87.464879198752
20
-19.3516485952884
11
90.2399711078382
21
-17.1696369764526
72
1
10
90.2399711078382
20
-17.1696369764526
11
90.710161392925
21
-17.9622325364572
72
1
10
90.710161392925
20
-17.9622325364572
11
87.464879198752
21
-19.3516485952884
97
0
75
0
76
1
52
0
41
0.0062
77
0
78
1
53
45
43
0
44
0
45
-0.0139193969876572
46
0.0139193969876572
79
0
47
0
98
1
10
0
20
0
0
HATCH
5
EA
100
AcDbEntity
8
2
62
256
6
ByLayer
370
13
48
1
60
0
100
AcDbHatch
10
0
20
0
30
0
210
0
220
0
230
1
2
ANSI31
70
0
71
0
91
1
92
5
93
3
72
1
10
87.464879198752
20
19.3516485952884
11
90.7101584815526
21
17.9622342635518
72
1
10
90.7101584815526
20
17.9622342635518
11
90.2399740192106
21
17.1696352493579
72
1
10
90.2399740192106
20
17.1696352493579
11
87.464879198752
21
19.3516485952884
97
0
75
0
76
1
52
0
41
0.0062
77
0
78
1
53
45
43
0
44
0
45
-0.0139193969876572
46
0.0139193969876572
79
0
47
0
98
1
10
0
20
0
0
DIMENSION
5
EE
100
AcDbEntity
8
SK2
62
256
6
ByLayer
370
18
48
1
60
0
100
AcDbDimension
2
_U0
10
77
20
-51.405878
30
0
11
18.5
21
-51.405878
31
0
70
32
71
1
72
1
41
1
210
0
220
0
230
1
3
Standard
100
AcDbAlignedDimension
13
-40
23
-4.167
33
0
14
77
24
0
34
0
50
0
100
AcDbRotatedDimension
1001
ACAD
1000
DSTYLE
1002
{
1070
   371
1070
    13
1070
   372
1070
    13
1070
     3
1000

1070
   170
1070
     0
1070
   144
1040
1.0
1070
   277
1070
     2
1070
   284
1070
     8
1070
   278
1070
    46
1070
   146
1040
1.166667
1070
   345
1005
16
1070
   347
1005
16
1070
   346
1005
16
1070
   344
1005
0
1070
   343
1005
0
1070
   172
1070
     1
1070
    76
1070
     0
1070
    75
1070
     0
1070
   282
1070
     0
1070
   281
1070
     0
1070
    71
1070
     0
1070
    74
1070
     0
1070
   279
1070
     0
1070
   173
1070
     1
1070
   340
1005
CD
1070
   271
1070
     2
1070
   272
1070
     3
1070
    77
1070
     1
1070
    73
1070
     1
1070
   171
1070
     3
1070
   274
1070
     4
1070
   177
1070
     2
1070
   176
1070
     2
1070
   178
1070
     2
1070
    78
1070
     8
1070
    48
1040
-0.1
1070
    41
1040
3.5
1070
   147
1040
1.5
1070
    42
1040
1.5875
1070
    44
1040
2.0
1070
   140
1040
3.0
1002
}
1001
ACAD_DSTYLE_DIM_LINETYPE
1070
   380
1005
16
1001
ACAD_DSTYLE_DIM_EXT1_LINETYPE
1070
   381
1005
16
1001
ACAD_DSTYLE_DIM_EXT2_LINETYPE
1070
   382
1005
16
0
DIMENSION
5
107
100
AcDbEntity
8
2
62
256
6
ByLayer
370
18
48
1
60
0
100
AcDbDimension
2
_U1
10
2
20
-41.405878
30
0
11
39.5
21
-41.405878
31
0
70
32
71
1
72
1
41
1
210
0
220
0
230
1
3
Standard
100
AcDbAlignedDimension
13
77
23
0
33
0
14
2
24
-4.167
34
0
50
0
100
AcDbRotatedDimension
1001
ACAD
1000
DSTYLE
1002
{
1070
   371
1070
    13
1070
   372
1070
    13
1070
     3
1000

1070
   170
1070
     0
1070
   144
1040
1.0
1070
   277
1070
     2
1070
   284
1070
     8
1070
   278
1070
    46
1070
   146
1040
1.166667
1070
   345
1005
16
1070
   347
1005
16
1070
   346
1005
16
1070
   344
1005
0
1070
   343
1005
0
1070
   172
1070
     1
1070
    76
1070
     0
1070
    75
1070
     0
1070
   282
1070
     0
1070
   281
1070
     0
1070
    71
1070
     0
1070
    74
1070
     0
1070
   279
1070
     0
1070
   173
1070
     1
1070
   340
1005
CD
1070
   271
1070
     2
1070
   272
1070
     3
1070
    77
1070
     1
1070
    73
1070
     1
1070
   171
1070
     3
1070
   274
1070
     4
1070
   177
1070
     2
1070
   176
1070
     2
1070
   178
1070
     2
1070
    78
1070
     8
1070
    48
1040
-0.1
1070
    41
1040
3.5
1070
   147
1040
1.5
1070
    42
1040
1.5875
1070
    44
1040
2.0
1070
   140
1040
3.0
1002
}
1001
ACAD_DSTYLE_DIM_LINETYPE
1070
   380
1005
16
1001
ACAD_DSTYLE_DIM_EXT1_LINETYPE
1070
   381
1005
16
1001
ACAD_DSTYLE_DIM_EXT2_LINETYPE
1070
   382
1005
16
0
DIMENSION
5
11F
100
AcDbEntity
8
SK2
62
256
6
ByLayer
370
18
48
1
60
0
100
AcDbDimension
2
_U2
10
0
20
-36.405878
30
0
11
-20
21
-36.405878
31
0
70
32
71
1
72
1
41
1
210
0
220
0
230
1
3
Standard
100
AcDbAlignedDimension
13
-40
23
-4.167
33
0
14
0
24
-4.167
34
0
50
0
100
AcDbRotatedDimension
1001
ACAD
1000
DSTYLE
1002
{
1070
   371
1070
    13
1070
   372
1070
    13
1070
     3
1000

1070
   170
1070
     0
1070
   144
1040
1.0
1070
   277
1070
     2
1070
   284
1070
     8
1070
   278
1070
    46
1070
   146
1040
1.166667
1070
   345
1005
16
1070
   347
1005
16
1070
   346
1005
16
1070
   344
1005
0
1070
   343
1005
0
1070
   172
1070
     1
1070
    76
1070
     0
1070
    75
1070
     0
1070
   282
1070
     0
1070
   281
1070
     0
1070
    71
1070
     0
1070
    74
1070
     0
1070
   279
1070
     0
1070
   173
1070
     1
1070
   340
1005
CD
1070
   271
1070
     2
1070
   272
1070
     3
1070
    77
1070
     1
1070
    73
1070
     1
1070
   171
1070
     3
1070
   274
1070
     4
1070
   177
1070
     2
1070
   176
1070
     2
1070
   178
1070
     2
1070
    78
1070
     8
1070
    48
1040
-0.1
1070
    41
1040
3.5
1070
   147
1040
1.5
1070
    42
1040
1.5875
1070
    44
1040
2.0
1070
   140
1040
3.0
1002
}
1001
ACAD_DSTYLE_DIM_LINETYPE
1070
   380
1005
16
1001
ACAD_DSTYLE_DIM_EXT1_LINETYPE
1070
   381
1005
16
1001
ACAD_DSTYLE_DIM_EXT2_LINETYPE
1070
   382
1005
16
0
DIMENSION
5
137
100
AcDbEntity
8
2
62
256
6
ByLayer
370
18
48
1
60
0
100
AcDbDimension
2
_U3
10
20.75
20
-34.405878
30
0
11
48.875
21
-34.405878
31
0
70
32
71
1
72
1
41
1
210
0
220
0
230
1
3
Standard
100
AcDbAlignedDimension
13
77
23
0
33
0
14
20.75
24
-4.167
34
0
50
0
100
AcDbRotatedDimension
1001
ACAD
1000
DSTYLE
1002
{
1070
   371
1070
    13
1070
   372
1070
    13
1070
     3
1000

1070
   170
1070
     0
1070
   144
1040
1.0
1070
   277
1070
     2
1070
   284
1070
     8
1070
   278
1070
    46
1070
   146
1040
1.166667
1070
   345
1005
16
1070
   347
1005
16
1070
   346
1005
16
1070
   344
1005
0
1070
   343
1005
0
1070
   172
1070
     1
1070
    76
1070
     0
1070
    75
1070
     0
1070
   282
1070
     0
1070
   281
1070
     0
1070
    71
1070
     0
1070
    74
1070
     0
1070
   279
1070
     0
1070
   173
1070
     1
1070
   340
1005
CD
1070
   271
1070
     2
1070
   272
1070
     3
1070
    77
1070
     1
1070
    73
1070
     1
1070
   171
1070
     3
1070
   274
1070
     4
1070
   177
1070
     2
1070
   176
1070
     2
1070
   178
1070
     2
1070
    78
1070
     8
1070
    48
1040
-0.1
1070
    41
1040
3.5
1070
   147
1040
1.5
1070
    42
1040
1.5875
1070
    44
1040
2.0
1070
   140
1040
3.0
1002
}
1001
ACAD_DSTYLE_DIM_LINETYPE
1070
   380
1005
16
1001
ACAD_DSTYLE_DIM_EXT1_LINETYPE
1070
   381
1005
16
1001
ACAD_DSTYLE_DIM_EXT2_LINETYPE
1070
   382
1005
16
0
ENDSEC
0
SECTION
2
OBJECTS
0
DICTIONARY
5
1c1
330
0
100
AcDbDictionary
280
0
281
1
3
ACAD_GROUP
350
1c2
3
ACAD_MLINESTYLE
350
1c3
0
DICTIONARY
5
1c2
330
0
100
AcDbDictionary
280
0
281
1
0
DICTIONARY
5
1c3
330
0
100
AcDbDictionary
280
0
281
1
3
Standard
350
18
0
MLINESTYLE
5
18
330
1c3
100
AcDbMlineStyle
2
Standard
70
0
3

62
256
51
90
52
90
71
2
49
-0.5
62
256
6
ByLayer
49
0.5
62
256
6
ByLayer
0
RASTERVARIABLES
5
1ad
330

100
AcDbRasterVariables
90
0
70
1
71
1
72
1
0
ENDSEC
0
EOF
