0
SECTION
2
HEADER
9
$ACADVER
1
AC1015
9
$DWGCODEPAGE
3
ANSI_1252
9
$HANDSEED
5
1cf
9
$ANGBASE
50
0
9
$ANGDIR
70
0
9
$ATTMODE
70
1
9
$AUNITS
70
0
9
$AUPREC
70
0
9
$CECOLOR
62
256
9
$CELTSCALE
40
1
9
$CELTYPE
6
ByLayer
9
$CELWEIGHT
370
18
9
$CLAYER
8
0
9
$CMLJUST
70
0
9
$CMLSCALE
40
1
9
$CMLSTYLE
2
Standard
9
$DIMSTYLE
2
Standard
9
$TEXTSIZE
40
0.2
9
$TEXTSTYLE
7
Standard
9
$LUNITS
70
2
9
$LUPREC
70
4
9
$EXTNAMES
290
1
9
$INSUNITS
70
4
9
$LTSCALE
40
1
9
$LWDISPLAY
290
1
9
$PDMODE
70
0
9
$PDSIZE
40
0
9
$PLINEGEN
70
0
0
ENDSEC
0
SECTION
2
CLASSES
0
CLASS
1
RASTERVARIABLES
2
AcDbRasterVariables
3
ISM
90
0
280
0
281
0
0
ENDSEC
0
SECTION
2
TABLES
0
TABLE
2
VPORT
5
1c5
100
AcDbSymbolTable
0
VPORT
5
1
100
AcDbSymbolTableRecord
100
AcDbViewportTableRecord
2
*Active
70
0
10
0
20
0
11
1
21
1
12
-1
22
1
13
0
23
0
14
0.5
24
0.5
15
10
25
10
16
0
26
0
36
1
17
0
27
0
37
0
0
ENDTAB
0
TABLE
2
LTYPE
5
1c6
100
AcDbSymbolTable
0
LTYPE
5
14
100
AcDbSymbolTableRecord
100
AcDbLinetypeTableRecord
70
0
2
ByBlock
3

72
65
73
0
40
0
0
LTYPE
5
15
100
AcDbSymbolTableRecord
100
AcDbLinetypeTableRecord
70
0
2
ByLayer
3

72
65
73
0
40
0
0
LTYPE
5
16
100
AcDbSymbolTableRecord
100
AcDbLinetypeTableRecord
70
0
2
Continuous
3
Solid line
72
65
73
0
40
0
0
LTYPE
5
6E
100
AcDbSymbolTableRecord
100
AcDbLinetypeTableRecord
70
0
2
CENTER
3
____ _ ____ _ ____ _ ____
72
65
73
4
40
47.5
49
22
74
0
49
-8.5
74
0
49
8.5
74
0
49
-8.5
74
0
0
LTYPE
5
6F
100
AcDbSymbolTableRecord
100
AcDbLinetypeTableRecord
70
0
2
DASHED
3
__ __ __ __ __ __ __ __ __
72
65
73
2
40
25.72
49
12.86
74
0
49
-12.86
74
0
0
ENDTAB
0
TABLE
2
LAYER
5
1c7
100
AcDbSymbolTable
0
LAYER
5
10
100
AcDbSymbolTableRecord
100
AcDbLayerTableRecord
2
0
70
0
62
7
6
Continuous
290
1
370
-3
390
0
0
LAYER
5
71
100
AcDbSymbolTableRecord
100
AcDbLayerTableRecord
2
81
70
0
62
-3
6
Continuous
290
1
370
-3
390
0
0
LAYER
5
73
100
AcDbSymbolTableRecord
100
AcDbLayerTableRecord
2
80
70
0
62
-6
6
Continuous
290
1
370
-3
390
0
0
LAYER
5
75
100
AcDbSymbolTableRecord
100
AcDbLayerTableRecord
2
1
70
0
62
4
6
Continuous
290
1
370
-3
390
0
0
LAYER
5
7F
100
AcDbSymbolTableRecord
100
AcDbLayerTableRecord
2
4
70
0
62
-2
6
CENTER
290
1
370
-3
390
0
0
LAYER
5
A8
100
AcDbSymbolTableRecord
100
AcDbLayerTableRecord
2
2
70
0
62
7
6
Continuous
290
1
370
-3
390
0
0
LAYER
5
F2
100
AcDbSymbolTableRecord
100
AcDbLayerTableRecord
2
Defpoints
70
0
62
7
6
Continuous
290
0
370
-3
390
0
0
LAYER
5
1af
100
AcDbSymbolTableRecord
100
AcDbLayerTableRecord
2
SK4
70
0
62
2
6
CENTER
290
1
370
-3
390
0
0
LAYER
5
1b0
100
AcDbSymbolTableRecord
100
AcDbLayerTableRecord
2
SK1
70
0
62
4
6
Continuous
290
1
370
-3
390
0
0
LAYER
5
1b1
100
AcDbSymbolTableRecord
100
AcDbLayerTableRecord
2
SK2
70
0
62
7
6
Continuous
290
1
370
-3
390
0
0
LAYER
5
1b2
100
AcDbSymbolTableRecord
100
AcDbLayerTableRecord
2
CUT
70
0
62
-1
6
Continuous
290
1
370
-3
390
0
0
LAYER
5
1b3
100
AcDbSymbolTableRecord
100
AcDbLayerTableRecord
2
NOCUT
70
0
62
-7
6
Continuous
290
1
370
-3
390
0
0
LAYER
5
1b4
100
AcDbSymbolTableRecord
100
AcDbLayerTableRecord
2
SK6
70
0
62
5
6
Continuous
290
1
370
-3
390
0
0
ENDTAB
0
TABLE
2
STYLE
5
1c8
100
AcDbSymbolTable
0
STYLE
5
11
100
AcDbSymbolTableRecord
100
AcDbTextStyleTableRecord
2
Standard
3
txt
70
0
71
0
40
0
41
1
42
0
50
0
0
STYLE
5
CE
100
AcDbSymbolTableRecord
100
AcDbTextStyleTableRecord
2
iso_b_vert
3
simplex.shx
70
0
71
0
40
0
41
1
42
0
50
0
0
STYLE
5
CF
100
AcDbSymbolTableRecord
100
AcDbTextStyleTableRecord
2
DWGDirectTextStyle
3
simplex
70
0
71
0
40
0
41
1
42
0
50
0
0
ENDTAB
0
TABLE
2
DIMSTYLE
5
1c9
100
AcDbSymbolTable
100
AcDbDimStyleTable
0
DIMSTYLE
105
27
100
AcDbSymbolTableRecord
100
AcDbDimStyleTableRecord
2
Standard
70
0
3
<>
41
0.18
42
0.0625
44
0.18
140
0.18
147
0.09
73
0
74
0
77
1
271
2
275
0
278
52
280
0
340
11
0
ENDTAB
0
TABLE
2
VIEW
5
1ca
100
AcDbSymbolTable
0
ENDTAB
0
TABLE
2
UCS
5
1cb
100
AcDbSymbolTable
0
ENDTAB
0
TABLE
2
APPID
5
1cc
100
AcDbSymbolTable
0
APPID
5
12
100
AcDbSymbolTableRecord
100
AcDbRegAppTableRecord
2
ACAD
70
0
0
APPID
5
EE
100
AcDbSymbolTableRecord
100
AcDbRegAppTableRecord
2
ACAD_DSTYLE_DIMBREAK
70
0
0
APPID
5
16E
100
AcDbSymbolTableRecord
100
AcDbRegAppTableRecord
2
ACAD_DSTYLE_DIM_LINETYPE
70
0
0
APPID
5
16F
100
AcDbSymbolTableRecord
100
AcDbRegAppTableRecord
2
ACAD_DSTYLE_DIM_EXT1_LINETYPE
70
0
0
APPID
5
170
100
AcDbSymbolTableRecord
100
AcDbRegAppTableRecord
2
ACAD_DSTYLE_DIM_EXT2_LINETYPE
70
0
0
APPID
5
1AB
100
AcDbSymbolTableRecord
100
AcDbRegAppTableRecord
2
ACAD_MLEADERVER
70
0
0
ENDTAB
0
TABLE
2
BLOCK_RECORD
5
1cd
100
AcDbSymbolTable
0
BLOCK_RECORD
5
1F
100
AcDbSymbolTableRecord
100
AcDbBlockTableRecord
2
*Model_Space
340
0
70
0
0
BLOCK_RECORD
5
1B
100
AcDbSymbolTableRecord
100
AcDbBlockTableRecord
2
*Paper_Space
340
0
70
0
0
BLOCK_RECORD
5
23
100
AcDbSymbolTableRecord
100
AcDbBlockTableRecord
2
*Paper_Space0
340
0
70
0
0
BLOCK_RECORD
5
F3
100
AcDbSymbolTableRecord
100
AcDbBlockTableRecord
2
*D1
340
0
70
0
0
BLOCK_RECORD
5
FF
100
AcDbSymbolTableRecord
100
AcDbBlockTableRecord
2
_U0
340
0
70
0
0
BLOCK_RECORD
5
10B
100
AcDbSymbolTableRecord
100
AcDbBlockTableRecord
2
*D3
340
0
70
0
0
BLOCK_RECORD
5
117
100
AcDbSymbolTableRecord
100
AcDbBlockTableRecord
2
_U1
340
0
70
0
0
BLOCK_RECORD
5
123
100
AcDbSymbolTableRecord
100
AcDbBlockTableRecord
2
*D5
340
0
70
0
0
BLOCK_RECORD
5
12F
100
AcDbSymbolTableRecord
100
AcDbBlockTableRecord
2
_U2
340
0
70
0
0
BLOCK_RECORD
5
13B
100
AcDbSymbolTableRecord
100
AcDbBlockTableRecord
2
*D7
340
0
70
0
0
BLOCK_RECORD
5
147
100
AcDbSymbolTableRecord
100
AcDbBlockTableRecord
2
_U3
340
0
70
0
0
ENDTAB
0
ENDSEC
0
SECTION
2
BLOCKS
0
BLOCK
5
20
100
AcDbEntity
8
0
100
AcDbBlockBegin
2
*Model_Space
70
0
10
0
20
0
30
0
3
*Model_Space
0
ENDBLK
5
21
100
AcDbEntity
8
0
100
AcDbBlockEnd
0
BLOCK
5
1C
100
AcDbEntity
8
0
100
AcDbBlockBegin
2
*Paper_Space
70
0
10
0
20
0
30
0
3
*Paper_Space
0
ENDBLK
5
1D
100
AcDbEntity
8
0
100
AcDbBlockEnd
0
BLOCK
5
24
100
AcDbEntity
8
0
100
AcDbBlockBegin
2
*Paper_Space0
70
0
10
0
20
0
30
0
3
*Paper_Space0
0
ENDBLK
5
25
100
AcDbEntity
8
0
100
AcDbBlockEnd
0
BLOCK
5
F4
100
AcDbEntity
8
0
100
AcDbBlockBegin
2
*D1
70
1
10
0
20
0
30
0
3
*D1
0
LINE
5
F6
100
AcDbEntity
8
0
62
256
6
ByLayer
370
-2
48
1
60
0
100
AcDbLine
10
-22
20
-2.5375
30
0
11
-22
21
-50.893551
31
0
39
0
210
0
220
0
230
1
0
LINE
5
F7
100
AcDbEntity
8
0
62
256
6
ByLayer
370
-2
48
1
60
0
100
AcDbLine
10
24
20
-1.5875
30
0
11
24
21
-50.893551
31
0
39
0
210
0
220
0
230
1
0
LINE
5
F8
100
AcDbEntity
8
0
62
256
6
ByLayer
370
-2
48
1
60
0
100
AcDbLine
10
-18.5
20
-48.893551
30
0
11
20.5
21
-48.893551
31
0
39
0
210
0
220
0
230
1
0
SOLID
5
F9
100
AcDbEntity
8
0
62
256
6
ByLayer
370
-1
48
1
60
0
100
AcDbTrace
10
-18.5
20
-48.310218
30
0
11
-18.5
21
-49.476885
31
0
12
-22
22
-48.893551
32
0
13
-22
23
-48.893551
33
0
39
0
210
0
220
0
230
1
0
SOLID
5
FA
100
AcDbEntity
8
0
62
256
6
ByLayer
370
-1
48
1
60
0
100
AcDbTrace
10
20.5
20
-49.476885
30
0
11
20.5
21
-48.310218
31
0
12
24
22
-48.893551
32
0
13
24
23
-48.893551
33
0
39
0
210
0
220
0
230
1
0
MTEXT
5
FB
100
AcDbEntity
8
0
62
256
6
ByLayer
370
18
48
1
60
0
100
AcDbMText
10
1
20
-42.893551
30
0
210
0
220
0
230
1
1
\A1;46
40
3
41
0
44
1
50
0
71
5
72
5
7
iso_b_vert
0
POINT
5
FC
100
AcDbEntity
8
Defpoints
62
0
6
ByLayer
370
-1
48
1
60
0
100
AcDbPoint
10
-22
20
-0.95
30
0
39
0
210
0
220
0
230
1
50
360
0
POINT
5
FD
100
AcDbEntity
8
Defpoints
62
0
6
ByLayer
370
-1
48
1
60
0
100
AcDbPoint
10
24
20
0
30
0
39
0
210
0
220
0
230
1
50
360
0
POINT
5
FE
100
AcDbEntity
8
Defpoints
62
0
6
ByLayer
370
-1
48
1
60
0
100
AcDbPoint
10
24
20
-48.893551
30
0
39
0
210
0
220
0
230
1
50
360
0
ENDBLK
5
F5
100
AcDbEntity
8
0
100
AcDbBlockEnd
0
BLOCK
5
106
100
AcDbEntity
8
0
100
AcDbBlockBegin
2
_U0
70
0
10
0
20
0
30
0
3
_U0
0
MTEXT
5
100
100
AcDbEntity
8
SK2
62
256
6
ByLayer
370
18
48
1
60
0
100
AcDbMText
10
-3.640313
20
-48.008437
30
0
210
0
220
0
230
1
1
\W0.7694;46.00
40
3
41
0
44
1.084337
50
0
71
7
72
5
7
iso_b_vert
0
LINE
5
101
100
AcDbEntity
8
SK2
62
256
6
ByLayer
370
13
48
1
60
0
100
AcDbLine
10
-22
20
-2.5375
30
0
11
-22
21
-50.893551
31
0
39
0
210
0
220
0
230
1
0
LINE
5
102
100
AcDbEntity
8
SK2
62
256
6
ByLayer
370
13
48
1
60
0
100
AcDbLine
10
24
20
-1.5875
30
0
11
24
21
-50.893551
31
0
39
0
210
0
220
0
230
1
0
LINE
5
103
100
AcDbEntity
8
SK2
62
256
6
ByLayer
370
13
48
1
60
0
100
AcDbLine
10
-22
20
-48.893551
30
0
11
24
21
-48.893551
31
0
39
0
210
0
220
0
230
1
0
SOLID
5
104
100
AcDbEntity
8
SK2
62
256
6
ByLayer
370
18
48
1
60
0
100
AcDbTrace
10
-22
20
-48.893551
30
0
11
-18.500002
21
-48.432767
31
0
12
-18.499998
22
-49.354335
32
0
13
-18.499998
23
-49.354335
33
0
39
0
210
0
220
0
230
1
0
SOLID
5
105
100
AcDbEntity
8
SK2
62
256
6
ByLayer
370
18
48
1
60
0
100
AcDbTrace
10
24
20
-48.893551
30
0
11
20.500002
21
-49.354335
31
0
12
20.499998
22
-48.432767
32
0
13
20.499998
23
-48.432767
33
0
39
0
210
0
220
0
230
1
0
ENDBLK
5
107
100
AcDbEntity
8
0
100
AcDbBlockEnd
0
BLOCK
5
10C
100
AcDbEntity
8
0
100
AcDbBlockBegin
2
*D3
70
1
10
0
20
0
30
0
3
*D3
0
LINE
5
10E
100
AcDbEntity
8
0
62
256
6
ByLayer
370
-2
48
1
60
0
100
AcDbLine
10
24
20
-1.5875
30
0
11
24
21
-40.893551
31
0
39
0
210
0
220
0
230
1
0
LINE
5
10F
100
AcDbEntity
8
0
62
256
6
ByLayer
370
-2
48
1
60
0
100
AcDbLine
10
2
20
-2.5375
30
0
11
2
21
-40.893551
31
0
39
0
210
0
220
0
230
1
0
LINE
5
110
100
AcDbEntity
8
0
62
256
6
ByLayer
370
-2
48
1
60
0
100
AcDbLine
10
20.5
20
-38.893551
30
0
11
5.5
21
-38.893551
31
0
39
0
210
0
220
0
230
1
0
SOLID
5
111
100
AcDbEntity
8
0
62
256
6
ByLayer
370
-1
48
1
60
0
100
AcDbTrace
10
20.5
20
-39.476885
30
0
11
20.5
21
-38.310218
31
0
12
24
22
-38.893551
32
0
13
24
23
-38.893551
33
0
39
0
210
0
220
0
230
1
0
SOLID
5
112
100
AcDbEntity
8
0
62
256
6
ByLayer
370
-1
48
1
60
0
100
AcDbTrace
10
5.5
20
-38.310218
30
0
11
5.5
21
-39.476885
31
0
12
2
22
-38.893551
32
0
13
2
23
-38.893551
33
0
39
0
210
0
220
0
230
1
0
MTEXT
5
113
100
AcDbEntity
8
0
62
256
6
ByLayer
370
18
48
1
60
0
100
AcDbMText
10
13
20
-32.893551
30
0
210
0
220
0
230
1
1
\A1;22
40
3
41
0
44
1
50
0
71
5
72
5
7
iso_b_vert
0
POINT
5
114
100
AcDbEntity
8
Defpoints
62
0
6
ByLayer
370
-1
48
1
60
0
100
AcDbPoint
10
24
20
0
30
0
39
0
210
0
220
0
230
1
50
360
0
POINT
5
115
100
AcDbEntity
8
Defpoints
62
0
6
ByLayer
370
-1
48
1
60
0
100
AcDbPoint
10
2
20
-0.95
30
0
39
0
210
0
220
0
230
1
50
360
0
POINT
5
116
100
AcDbEntity
8
Defpoints
62
0
6
ByLayer
370
-1
48
1
60
0
100
AcDbPoint
10
2
20
-38.893551
30
0
39
0
210
0
220
0
230
1
50
360
0
ENDBLK
5
10D
100
AcDbEntity
8
0
100
AcDbBlockEnd
0
BLOCK
5
11E
100
AcDbEntity
8
0
100
AcDbBlockBegin
2
_U1
70
0
10
0
20
0
30
0
3
_U1
0
MTEXT
5
118
100
AcDbEntity
8
2
62
256
6
ByLayer
370
18
48
1
60
0
100
AcDbMText
10
8.51763
20
-38.008437
30
0
210
0
220
0
230
1
1
\W0.7468;22.00
40
3
41
0
44
1.084337
50
0
71
7
72
5
7
iso_b_vert
0
LINE
5
119
100
AcDbEntity
8
2
62
256
6
ByLayer
370
13
48
1
60
0
100
AcDbLine
10
24
20
-1.5875
30
0
11
24
21
-40.893551
31
0
39
0
210
0
220
0
230
1
0
LINE
5
11A
100
AcDbEntity
8
2
62
256
6
ByLayer
370
13
48
1
60
0
100
AcDbLine
10
2
20
-2.5375
30
0
11
2
21
-40.893551
31
0
39
0
210
0
220
0
230
1
0
LINE
5
11B
100
AcDbEntity
8
2
62
256
6
ByLayer
370
13
48
1
60
0
100
AcDbLine
10
24
20
-38.893551
30
0
11
2
21
-38.893551
31
0
39
0
210
0
220
0
230
1
0
SOLID
5
11C
100
AcDbEntity
8
2
62
256
6
ByLayer
370
18
48
1
60
0
100
AcDbTrace
10
24
20
-38.893551
30
0
11
20.500002
21
-39.354335
31
0
12
20.499998
22
-38.432767
32
0
13
20.499998
23
-38.432767
33
0
39
0
210
0
220
0
230
1
0
SOLID
5
11D
100
AcDbEntity
8
2
62
256
6
ByLayer
370
18
48
1
60
0
100
AcDbTrace
10
2
20
-38.893551
30
0
11
5.499998
21
-38.432767
31
0
12
5.500002
22
-39.354335
32
0
13
5.500002
23
-39.354335
33
0
39
0
210
0
220
0
230
1
0
ENDBLK
5
11F
100
AcDbEntity
8
0
100
AcDbBlockEnd
0
BLOCK
5
124
100
AcDbEntity
8
0
100
AcDbBlockBegin
2
*D5
70
1
10
0
20
0
30
0
3
*D5
0
LINE
5
126
100
AcDbEntity
8
0
62
256
6
ByLayer
370
-2
48
1
60
0
100
AcDbLine
10
-22
20
-2.5375
30
0
11
-22
21
-35.893551
31
0
39
0
210
0
220
0
230
1
0
LINE
5
127
100
AcDbEntity
8
0
62
256
6
ByLayer
370
-2
48
1
60
0
100
AcDbLine
10
0
20
-2.5375
30
0
11
0
21
-35.893551
31
0
39
0
210
0
220
0
230
1
0
LINE
5
128
100
AcDbEntity
8
0
62
256
6
ByLayer
370
-2
48
1
60
0
100
AcDbLine
10
-18.5
20
-33.893551
30
0
11
-3.5
21
-33.893551
31
0
39
0
210
0
220
0
230
1
0
SOLID
5
129
100
AcDbEntity
8
0
62
256
6
ByLayer
370
-1
48
1
60
0
100
AcDbTrace
10
-18.5
20
-33.310218
30
0
11
-18.5
21
-34.476885
31
0
12
-22
22
-33.893551
32
0
13
-22
23
-33.893551
33
0
39
0
210
0
220
0
230
1
0
SOLID
5
12A
100
AcDbEntity
8
0
62
256
6
ByLayer
370
-1
48
1
60
0
100
AcDbTrace
10
-3.5
20
-34.476885
30
0
11
-3.5
21
-33.310218
31
0
12
0
22
-33.893551
32
0
13
0
23
-33.893551
33
0
39
0
210
0
220
0
230
1
0
MTEXT
5
12B
100
AcDbEntity
8
0
62
256
6
ByLayer
370
18
48
1
60
0
100
AcDbMText
10
-11
20
-27.893551
30
0
210
0
220
0
230
1
1
\A1;22
40
3
41
0
44
1
50
0
71
5
72
5
7
iso_b_vert
0
POINT
5
12C
100
AcDbEntity
8
Defpoints
62
0
6
ByLayer
370
-1
48
1
60
0
100
AcDbPoint
10
-22
20
-0.95
30
0
39
0
210
0
220
0
230
1
50
360
0
POINT
5
12D
100
AcDbEntity
8
Defpoints
62
0
6
ByLayer
370
-1
48
1
60
0
100
AcDbPoint
10
0
20
-0.95
30
0
39
0
210
0
220
0
230
1
50
360
0
POINT
5
12E
100
AcDbEntity
8
Defpoints
62
0
6
ByLayer
370
-1
48
1
60
0
100
AcDbPoint
10
0
20
-33.893551
30
0
39
0
210
0
220
0
230
1
50
360
0
ENDBLK
5
125
100
AcDbEntity
8
0
100
AcDbBlockEnd
0
BLOCK
5
136
100
AcDbEntity
8
0
100
AcDbBlockBegin
2
_U2
70
0
10
0
20
0
30
0
3
_U2
0
MTEXT
5
130
100
AcDbEntity
8
SK2
62
256
6
ByLayer
370
18
48
1
60
0
100
AcDbMText
10
-15.48237
20
-33.008437
30
0
210
0
220
0
230
1
1
\W0.7468;22.00
40
3
41
0
44
1.084337
50
0
71
7
72
5
7
iso_b_vert
0
LINE
5
131
100
AcDbEntity
8
SK2
62
256
6
ByLayer
370
13
48
1
60
0
100
AcDbLine
10
-22
20
-2.5375
30
0
11
-22
21
-35.893551
31
0
39
0
210
0
220
0
230
1
0
LINE
5
132
100
AcDbEntity
8
SK2
62
256
6
ByLayer
370
13
48
1
60
0
100
AcDbLine
10
0
20
-2.5375
30
0
11
0
21
-35.893551
31
0
39
0
210
0
220
0
230
1
0
LINE
5
133
100
AcDbEntity
8
SK2
62
256
6
ByLayer
370
13
48
1
60
0
100
AcDbLine
10
-22
20
-33.893551
30
0
11
0
21
-33.893551
31
0
39
0
210
0
220
0
230
1
0
SOLID
5
134
100
AcDbEntity
8
SK2
62
256
6
ByLayer
370
18
48
1
60
0
100
AcDbTrace
10
-22
20
-33.893551
30
0
11
-18.500002
21
-33.432767
31
0
12
-18.499998
22
-34.354335
32
0
13
-18.499998
23
-34.354335
33
0
39
0
210
0
220
0
230
1
0
SOLID
5
135
100
AcDbEntity
8
SK2
62
256
6
ByLayer
370
18
48
1
60
0
100
AcDbTrace
10
0
20
-33.893551
30
0
11
-3.499998
21
-34.354335
31
0
12
-3.500002
22
-33.432767
32
0
13
-3.500002
23
-33.432767
33
0
39
0
210
0
220
0
230
1
0
ENDBLK
5
137
100
AcDbEntity
8
0
100
AcDbBlockEnd
0
BLOCK
5
13C
100
AcDbEntity
8
0
100
AcDbBlockBegin
2
*D7
70
1
10
0
20
0
30
0
3
*D7
0
LINE
5
13E
100
AcDbEntity
8
0
62
256
6
ByLayer
370
-2
48
1
60
0
100
AcDbLine
10
24
20
-1.5875
30
0
11
24
21
-33.893551
31
0
39
0
210
0
220
0
230
1
0
LINE
5
13F
100
AcDbEntity
8
0
62
256
6
ByLayer
370
-2
48
1
60
0
100
AcDbLine
10
7.5
20
-2.5375
30
0
11
7.5
21
-33.893551
31
0
39
0
210
0
220
0
230
1
0
LINE
5
140
100
AcDbEntity
8
0
62
256
6
ByLayer
370
-2
48
1
60
0
100
AcDbLine
10
20.5
20
-31.893551
30
0
11
11
21
-31.893551
31
0
39
0
210
0
220
0
230
1
0
SOLID
5
141
100
AcDbEntity
8
0
62
256
6
ByLayer
370
-1
48
1
60
0
100
AcDbTrace
10
20.5
20
-32.476885
30
0
11
20.5
21
-31.310218
31
0
12
24
22
-31.893551
32
0
13
24
23
-31.893551
33
0
39
0
210
0
220
0
230
1
0
SOLID
5
142
100
AcDbEntity
8
0
62
256
6
ByLayer
370
-1
48
1
60
0
100
AcDbTrace
10
11
20
-31.310218
30
0
11
11
21
-32.476885
31
0
12
7.5
22
-31.893551
32
0
13
7.5
23
-31.893551
33
0
39
0
210
0
220
0
230
1
0
MTEXT
5
143
100
AcDbEntity
8
0
62
256
6
ByLayer
370
18
48
1
60
0
100
AcDbMText
10
15.75
20
-25.893551
30
0
210
0
220
0
230
1
1
\A1;16.5
40
3
41
0
44
1
50
0
71
5
72
5
7
iso_b_vert
0
POINT
5
144
100
AcDbEntity
8
Defpoints
62
0
6
ByLayer
370
-1
48
1
60
0
100
AcDbPoint
10
24
20
0
30
0
39
0
210
0
220
0
230
1
50
360
0
POINT
5
145
100
AcDbEntity
8
Defpoints
62
0
6
ByLayer
370
-1
48
1
60
0
100
AcDbPoint
10
7.5
20
-0.95
30
0
39
0
210
0
220
0
230
1
50
360
0
POINT
5
146
100
AcDbEntity
8
Defpoints
62
0
6
ByLayer
370
-1
48
1
60
0
100
AcDbPoint
10
7.5
20
-31.893551
30
0
39
0
210
0
220
0
230
1
50
360
0
ENDBLK
5
13D
100
AcDbEntity
8
0
100
AcDbBlockEnd
0
BLOCK
5
14E
100
AcDbEntity
8
0
100
AcDbBlockBegin
2
_U3
70
0
10
0
20
0
30
0
3
_U3
0
MTEXT
5
148
100
AcDbEntity
8
2
62
256
6
ByLayer
370
18
48
1
60
0
100
AcDbMText
10
11.642572
20
-31.008437
30
0
210
0
220
0
230
1
1
\W0.6864;16.50
40
3
41
0
44
1.084337
50
0
71
7
72
5
7
iso_b_vert
0
LINE
5
149
100
AcDbEntity
8
2
62
256
6
ByLayer
370
13
48
1
60
0
100
AcDbLine
10
24
20
-1.5875
30
0
11
24
21
-33.893551
31
0
39
0
210
0
220
0
230
1
0
LINE
5
14A
100
AcDbEntity
8
2
62
256
6
ByLayer
370
13
48
1
60
0
100
AcDbLine
10
7.5
20
-2.5375
30
0
11
7.5
21
-33.893551
31
0
39
0
210
0
220
0
230
1
0
LINE
5
14B
100
AcDbEntity
8
2
62
256
6
ByLayer
370
13
48
1
60
0
100
AcDbLine
10
24
20
-31.893551
30
0
11
7.5
21
-31.893551
31
0
39
0
210
0
220
0
230
1
0
SOLID
5
14C
100
AcDbEntity
8
2
62
256
6
ByLayer
370
18
48
1
60
0
100
AcDbTrace
10
24
20
-31.893551
30
0
11
20.500002
21
-32.354335
31
0
12
20.499998
22
-31.432767
32
0
13
20.499998
23
-31.432767
33
0
39
0
210
0
220
0
230
1
0
SOLID
5
14D
100
AcDbEntity
8
2
62
256
6
ByLayer
370
18
48
1
60
0
100
AcDbTrace
10
7.5
20
-31.893551
30
0
11
10.999998
21
-31.432767
31
0
12
11.000002
22
-32.354335
32
0
13
11.000002
23
-32.354335
33
0
39
0
210
0
220
0
230
1
0
ENDBLK
5
14F
100
AcDbEntity
8
0
100
AcDbBlockEnd
0
ENDSEC
0
SECTION
2
ENTITIES
0
ARC
5
B9
100
AcDbEntity
8
2
62
256
6
ByLayer
370
13
48
1
60
0
100
AcDbCircle
39
0
10
24
20
0
30
0
40
22
210
0
220
0
230
1
100
AcDbArc
50
7.83748
51
61.596605
0
ARC
5
BA
100
AcDbEntity
8
2
62
256
6
ByLayer
370
13
48
1
60
0
100
AcDbCircle
39
0
10
24
20
0
30
0
40
22
210
0
220
0
230
1
100
AcDbArc
50
298.403395
51
352.16252
0
POINT
5
70
100
AcDbEntity
8
81
62
256
6
ByLayer
370
18
48
1
60
0
100
AcDbPoint
10
24
20
0
30
0
39
0
210
0
220
0
230
1
50
360
0
POINT
5
72
100
AcDbEntity
8
80
62
256
6
ByLayer
370
18
48
1
60
0
100
AcDbPoint
10
0
20
0
30
0
39
0
210
0
220
0
230
1
50
360
0
POINT
5
74
100
AcDbEntity
8
1
62
256
6
ByLayer
370
18
48
1
60
1
100
AcDbPoint
10
-22
20
-0.95
30
0
39
0
210
0
220
0
230
1
50
360
0
POINT
5
76
100
AcDbEntity
8
1
62
256
6
ByLayer
370
18
48
1
60
1
100
AcDbPoint
10
24
20
0
30
0
39
0
210
0
220
0
230
1
50
360
0
POINT
5
77
100
AcDbEntity
8
1
62
256
6
ByLayer
370
18
48
1
60
1
100
AcDbPoint
10
24
20
0
30
0
39
0
210
0
220
0
230
1
50
360
0
POINT
5
78
100
AcDbEntity
8
1
62
256
6
ByLayer
370
18
48
1
60
1
100
AcDbPoint
10
2
20
-0.95
30
0
39
0
210
0
220
0
230
1
50
360
0
POINT
5
79
100
AcDbEntity
8
1
62
256
6
ByLayer
370
18
48
1
60
1
100
AcDbPoint
10
-22
20
-0.95
30
0
39
0
210
0
220
0
230
1
50
360
0
POINT
5
7A
100
AcDbEntity
8
1
62
256
6
ByLayer
370
18
48
1
60
1
100
AcDbPoint
10
0
20
-0.95
30
0
39
0
210
0
220
0
230
1
50
360
0
POINT
5
7B
100
AcDbEntity
8
1
62
256
6
ByLayer
370
18
48
1
60
1
100
AcDbPoint
10
24
20
0
30
0
39
0
210
0
220
0
230
1
50
360
0
POINT
5
7C
100
AcDbEntity
8
1
62
256
6
ByLayer
370
18
48
1
60
1
100
AcDbPoint
10
7.5
20
-0.95
30
0
39
0
210
0
220
0
230
1
50
360
0
SPLINE
5
BB
100
AcDbEntity
8
CUT
62
256
6
ByLayer
370
18
48
1
60
0
100
AcDbSpline
70
2053
71
3
72
17
73
13
40
0
40
0
40
0
40
0
40
0.478118379350913
40
0.478118379350913
40
0.478118379350913
40
0.505472695281213
40
0.505472695281213
40
0.505472695281213
40
0.968704650106791
40
0.968704650106791
40
0.968704650106791
40
1
40
1
40
1
40
1
41
1
10
24
20
0
30
0
41
1
10
18.5
20
0
30
0
41
1
10
13
20
0
30
0
41
1
10
7.5
20
0
30
0
41
1
10
7.5
20
0.314668383637155
30
0
41
1
10
7.5
20
0.62933676727431
30
0
41
1
10
7.49999999999994
20
0.944005150911465
30
0
41
1
10
12.8287547235815
20
0.946003433932702
30
0
41
1
10
18.1575094471632
20
0.948001716953911
30
0
41
1
10
23.4862641707449
20
0.949999999975148
30
0
41
1
10
23.6575094471633
20
0.633333333316756
30
0
41
1
10
23.8287547235816
20
0.316666666658392
30
0
41
1
10
24
20
0
30
0
0
SPLINE
5
BD
100
AcDbEntity
8
NOCUT
62
256
6
ByLayer
370
18
48
1
60
0
100
AcDbSpline
70
2053
71
3
72
26
73
22
40
0
40
0
40
0
40
0
40
0.357386054028817
40
0.357386054028817
40
0.357386054028817
40
0.364373430129227
40
0.364373430129227
40
0.364373430129227
40
0.37507854234668
40
0.37507854234668
40
0.37507854234668
40
0.860925942984934
40
0.860925942984934
40
0.860925942984934
40
0.876473144637608
40
0.876473144637608
40
0.876473144637608
40
0.998346738451489
40
0.998346738451489
40
0.998346738451489
40
1
40
1
40
1
40
1
41
1
10
0
20
0.949999999999989
30
0
41
1
10
-7.23333333333332
20
0.949999999999989
30
0
41
1
10
-14.4666666666667
20
0.949999999999989
30
0
41
1
10
-21.7
20
0.949999999999989
30
0
41
1
10
-21.8
20
0.849999999999994
30
0
41
1
10
-21.9
20
0.75
30
0
41
1
10
-22
20
0.650000000000006
30
0
41
1
10
-22
20
0.433333333333337
30
0
41
1
10
-22
20
0.216666666666669
30
0
41
1
10
-22
20
0
30
0
41
1
10
-12.1666666666667
20
0
30
0
41
1
10
-2.33333333333331
20
0
30
0
41
1
10
7.50000000000003
20
0
30
0
41
1
10
7.5
20
0.314668383637155
30
0
41
1
10
7.5
20
0.62933676727431
30
0
41
1
10
7.5
20
0.944005150911465
30
0
41
1
10
5.03333333333339
20
0.943080150911527
30
0
41
1
10
2.56666666666678
20
0.942155150911589
30
0
41
1
10
0.100000000278243
20
0.941230150910968
30
0
41
1
10
0.0666666670375378
20
0.944153433940187
30
0
41
1
10
0.0333333335187831
20
0.947076716970088
30
0
41
1
10
0
20
0.949999999999989
30
0
0
SPLINE
5
BF
100
AcDbEntity
8
1
62
256
6
ByLayer
370
18
48
1
60
0
100
AcDbSpline
70
4
71
3
72
50
73
46
40
0
40
0
40
0
40
0
40
0.125000000000006
40
0.125000000000006
40
0.187500000000009
40
0.187500000000009
40
0.250000000000012
40
0.250000000000012
40
0.312500000000015
40
0.312500000000015
40
0.375000000000019
40
0.375000000000019
40
0.437500000000022
40
0.437500000000022
40
0.468750000000021
40
0.468750000000021
40
0.476562500000022
40
0.476562500000022
40
0.484375000000023
40
0.484375000000023
40
0.492187500000024
40
0.492187500000024
40
0.500000000000025
40
0.500000000000025
40
0.507812500000025
40
0.507812500000025
40
0.515625000000026
40
0.515625000000026
40
0.531250000000026
40
0.531250000000026
40
0.562500000000021
40
0.562500000000021
40
0.593750000000016
40
0.593750000000016
40
0.625000000000011
40
0.625000000000011
40
0.687500000000002
40
0.687500000000002
40
0.71875
40
0.71875
40
0.749999999999998
40
0.749999999999998
40
0.874999999999999
40
0.874999999999999
40
1
40
1
40
1
40
1
41
1
10
23.4862641707449
20
0.91952407931484
30
0
41
1
10
23.5255492953332
20
0.847002734779608
30
0
41
1
10
23.56462833164
20
0.774149735488805
30
0
41
1
10
23.622742736871
20
0.664397742695797
30
0
41
1
10
23.6420269677019
20
0.627731706767975
30
0
41
1
10
23.6803278304219
20
0.554201394816829
30
0
41
1
10
23.6993450050641
20
0.517343561722413
30
0
41
1
10
23.7368864940583
20
0.443354427124831
30
0
41
1
10
23.7553817474586
20
0.406200266738779
30
0
41
1
10
23.7921434409989
20
0.331923472774491
30
0
41
1
10
23.8104042990559
20
0.29481268838785
30
0
41
1
10
23.8461652052865
20
0.220584036200819
30
0
41
1
10
23.8637427790789
20
0.183436579746342
30
0
41
1
10
23.8883361063041
20
0.127347017630399
30
0
41
1
10
23.8962587729823
20
0.10859661814635
30
0
41
1
10
23.905350349502
20
0.0849707548648837
30
0
41
1
10
23.9071250795375
20
0.0802329559715815
30
0
41
1
10
23.9104821903059
20
0.0706473673983226
30
0
41
1
10
23.9120653032453
20
0.0657909466034425
30
0
41
1
10
23.9147908191256
20
0.0558068873122579
30
0
41
1
10
23.9158991699939
20
0.0507645146431628
30
0
41
1
10
23.9174023838396
20
0.0405387931631367
30
0
41
1
10
23.9177898960137
20
0.0352929445460575
30
0
41
1
10
23.9177278745447
20
0.0251881619750236
30
0
41
1
10
23.9172911729794
20
0.0202818110213627
30
0
41
1
10
23.9157970801033
20
0.0106753478009978
30
0
41
1
10
23.9147641938671
20
0.0060510084777832
30
0
41
1
10
23.9112695731988
20
-0.0075289779826448
30
0
41
1
10
23.9084331994934
20
-0.0163232299348408
30
0
41
1
10
23.8991038978047
20
-0.0424484501703546
30
0
41
1
10
23.891675273333
20
-0.0594403454025496
30
0
41
1
10
23.8757453802539
20
-0.0923189496620296
30
0
41
1
10
23.867236263333
20
-0.108225219761124
30
0
41
1
10
23.8496816586024
20
-0.139221918463164
30
0
41
1
10
23.8406280780903
20
-0.15431097631506
30
0
41
1
10
23.8130140502406
20
-0.198538314531533
30
0
41
1
10
23.794017258206
20
-0.226643888696515
30
0
41
1
10
23.7651634844581
20
-0.266987275140366
30
0
41
1
10
23.7554780328273
20
-0.280128831604003
30
0
41
1
10
23.7360010011176
20
-0.305811655490714
30
0
41
1
10
23.7262212501821
20
-0.31833486234035
30
0
41
1
10
23.6775443139999
20
-0.378910943343726
30
0
41
1
10
23.6389915713799
20
-0.421384803378288
30
0
41
1
10
23.5624148581092
20
-0.49509534825458
30
0
41
1
10
23.5243722234444
20
-0.526310238562303
30
0
41
1
10
23.4862641707452
20
-0.551675401639386
30
0
0
SPLINE
5
C0
100
AcDbEntity
8
1
62
256
6
ByLayer
370
18
48
1
60
0
100
AcDbSpline
70
4
71
3
72
56
73
52
40
0
40
0
40
0
40
0
40
0.0384260688535891
40
0.0384260688535891
40
0.0768521377071782
40
0.0768521377071782
40
0.153704275414356
40
0.153704275414356
40
0.192130344267946
40
0.192130344267946
40
0.230556413121535
40
0.230556413121535
40
0.307408550828717
40
0.307408550828717
40
0.326621585255512
40
0.326621585255512
40
0.345834619682306
40
0.345834619682306
40
0.384260688535895
40
0.384260688535895
40
0.422686757389485
40
0.422686757389485
40
0.461112826243073
40
0.461112826243073
40
0.537964963950252
40
0.537964963950252
40
0.576391032803841
40
0.576391032803841
40
0.61481710165743
40
0.61481710165743
40
0.634030136084225
40
0.634030136084225
40
0.653243170511019
40
0.653243170511019
40
0.691669239364608
40
0.691669239364608
40
0.730095308218197
40
0.730095308218197
40
0.768521377071787
40
0.768521377071787
40
0.806947445925376
40
0.806947445925376
40
0.845373514778965
40
0.845373514778965
40
0.922225652486147
40
0.922225652486147
40
0.960651721339736
40
0.960651721339736
40
0.999077790193325
40
0.999077790193325
40
1
40
1
40
1
40
1
41
1
10
23.4862641707447
20
-0.551675401639784
30
0
41
1
10
23.4378136694531
20
-0.529699039425168
30
0
41
1
10
23.3896204089597
20
-0.506982682991747
30
0
41
1
10
23.2933088490865
20
-0.46079232931163
30
0
41
1
10
23.2451960214453
20
-0.437313139595261
30
0
41
1
10
23.1010788482465
20
-0.365599340545742
30
0
41
1
10
23.0052349222182
20
-0.316192757994145
30
0
41
1
10
22.8616801082917
20
-0.239944507635357
30
0
41
1
10
22.8138794448275
20
-0.214142934970198
30
0
41
1
10
22.7183325063035
20
-0.161839563023307
30
0
41
1
10
22.670574640803
20
-0.135356220614369
30
0
41
1
10
22.5267392246447
20
-0.0560313353223023
30
0
41
1
10
22.430386559283
20
-0.0027986831580051
30
0
41
1
10
22.3092148182518
20
0.0639075883783562
30
0
41
1
10
22.2849175359355
20
0.0772684898903719
30
0
41
1
10
22.2364424612398
20
0.103903479261788
30
0
41
1
10
22.2122518079956
20
0.117187349072623
30
0
41
1
10
22.139819336319
20
0.156935992243689
30
0
41
1
10
22.091728389447
20
0.183318722620072
30
0
41
1
10
21.9958194653294
20
0.235617334237645
30
0
41
1
10
21.9479184447944
20
0.261380775897038
30
0
41
1
10
21.8520911889596
20
0.311929492798754
30
0
41
1
10
21.8042019741783
20
0.336781363326907
30
0
41
1
10
21.6605699660405
20
0.410021672006138
30
0
41
1
10
21.5648085962911
20
0.457013165277573
30
0
41
1
10
21.4211585162626
20
0.524691660977652
30
0
41
1
10
21.3733001801193
20
0.546818887550074
30
0
41
1
10
21.2773361093791
20
0.589727983747935
30
0
41
1
10
21.2291609399897
20
0.6104090176581
30
0
41
1
10
21.1566555572744
20
0.640346766573884
30
0
41
1
10
21.1324461628673
20
0.650144311234612
30
0
41
1
10
21.0839417583775
20
0.669369333271021
30
0
41
1
10
21.0596553137009
20
0.6787928038936
30
0
41
1
10
20.986984484615
20
0.706367037811646
30
0
41
1
10
20.9386744010223
20
0.723858675501418
30
0
41
1
10
20.8423266861333
20
0.757086036365848
30
0
41
1
10
20.7942993529127
20
0.772833182736889
30
0
41
1
10
20.6985102659074
20
0.802545064218663
30
0
41
1
10
20.6507741829128
20
0.816526315183921
30
0
41
1
10
20.5551604113268
20
0.842315659411355
30
0
41
1
10
20.5073123186077
20
0.854162382717504
30
0
41
1
10
20.4115870557295
20
0.875841511410982
30
0
41
1
10
20.3637031775284
20
0.885666287158642
30
0
41
1
10
20.2199059924818
20
0.912041855443022
30
0
41
1
10
20.1238718032773
20
0.925533193202341
30
0
41
1
10
19.9794909602056
20
0.939277176577178
30
0
41
1
10
19.9312634781228
20
0.942747600349833
30
0
41
1
10
19.834264959629
20
0.947379217525111
30
0
41
1
10
19.7858605649942
20
0.948544786812789
30
0
41
1
10
19.7364289932293
20
0.948592558461769
30
0
41
1
10
19.7352705188192
20
0.948593036900206
30
0
41
1
10
19.7341121029713
20
0.94859287423867
30
0
0
SPLINE
5
C1
100
AcDbEntity
8
1
62
256
6
ByLayer
370
18
48
1
60
0
100
AcDbSpline
70
4
71
3
72
99
73
95
40
0
40
0
40
0
40
0
40
0.0029494996027301
40
0.0029494996027301
40
0.0234320694544295
40
0.0234320694544295
40
0.0439146393061289
40
0.0439146393061289
40
0.0848797790095255
40
0.0848797790095255
40
0.105362348861223
40
0.105362348861223
40
0.12584491871292
40
0.12584491871292
40
0.146327488564617
40
0.146327488564617
40
0.166810058416314
40
0.166810058416314
40
0.187292628268011
40
0.187292628268011
40
0.207775198119708
40
0.207775198119708
40
0.228257767971406
40
0.228257767971406
40
0.248740337823103
40
0.248740337823103
40
0.289705477526495
40
0.289705477526495
40
0.299946762452341
40
0.299946762452341
40
0.310188047378187
40
0.310188047378187
40
0.330670617229878
40
0.371635756933259
40
0.371635756933259
40
0.392118326784949
40
0.392118326784949
40
0.41260089663664
40
0.41260089663664
40
0.43308346648833
40
0.43308346648833
40
0.453566036340021
40
0.453566036340021
40
0.474048606191711
40
0.474048606191711
40
0.484289891117556
40
0.484289891117556
40
0.494531176043401
40
0.494531176043401
40
0.515013745895089
40
0.515013745895089
40
0.535496315746777
40
0.535496315746777
40
0.576461455450154
40
0.576461455450154
40
0.596944025301842
40
0.596944025301842
40
0.61742659515353
40
0.61742659515353
40
0.637909165005218
40
0.637909165005218
40
0.648150449931063
40
0.648150449931063
40
0.658391734856906
40
0.658391734856906
40
0.678874304708592
40
0.678874304708592
40
0.699356874560278
40
0.699356874560278
40
0.719839444411964
40
0.719839444411964
40
0.74032201426365
40
0.74032201426365
40
0.781287153967019
40
0.781287153967019
40
0.801769723818704
40
0.801769723818704
40
0.822252293670388
40
0.822252293670388
40
0.86321743337376
40
0.86321743337376
40
0.883700003225446
40
0.883700003225446
40
0.904182573077132
40
0.904182573077132
40
0.945147712780506
40
0.945147712780506
40
0.965630282632193
40
0.965630282632193
40
0.986112852483881
40
0.986112852483881
40
0.996354137409726
40
0.996354137409726
40
1
40
1
40
1
40
1
41
1
10
16.0087569292417
20
-0.536377722201365
30
0
41
1
10
16.0018382193883
20
-0.539537128039257
30
0
41
1
10
15.9949226806281
20
-0.542684257202978
30
0
41
1
10
15.9400077427302
20
-0.567588458468066
30
0
41
1
10
15.8921890014622
20
-0.58880477791692
30
0
41
1
10
15.7964993596761
20
-0.629518909275902
30
0
41
1
10
15.7486185183266
20
-0.649012012779423
30
0
41
1
10
15.604979465128
20
-0.705110602243991
30
0
41
1
10
15.5091672114281
20
-0.739263212731743
30
0
41
1
10
15.3652137253344
20
-0.785401940093436
30
0
41
1
10
15.3172062310882
20
-0.79994773998709
30
0
41
1
10
15.2210993969211
20
-0.827271429701824
30
0
41
1
10
15.1729987335317
20
-0.840040297872747
30
0
41
1
10
15.0762784398462
20
-0.863399138224054
30
0
41
1
10
15.0276342456013
20
-0.874060084114859
30
0
41
1
10
14.9307896460569
20
-0.893172473698883
30
0
41
1
10
14.8824996732249
20
-0.901641581244974
30
0
41
1
10
14.7861264997383
20
-0.916412689802229
30
0
41
1
10
14.7380450149466
20
-0.922717691846685
30
0
41
1
10
14.6421177639675
20
-0.933176743289351
30
0
41
1
10
14.5942781877297
20
-0.937329716112828
30
0
41
1
10
14.4987455620349
20
-0.943417016097499
30
0
41
1
10
14.4509750084534
20
-0.945333058286337
30
0
41
1
10
14.3552530973667
20
-0.946939806110493
30
0
41
1
10
14.3073459474237
20
-0.946636889537388
30
0
41
1
10
14.1634527517531
20
-0.94242576355515
30
0
41
1
10
14.067240524641
20
-0.935246667037347
30
0
41
1
10
13.946603192593
20
-0.920604526736327
30
0
41
1
10
13.9224570584006
20
-0.917390629423238
30
0
41
1
10
13.8741166016436
20
-0.910384615175332
30
0
41
1
10
13.8499001951197
20
-0.906585792242851
30
0
41
1
10
13.7772758514185
20
-0.894391902011449
30
0
41
1
10
13.6322468616385
20
-0.8669577934769
30
0
41
1
10
13.4880647682537
20
-0.830630098870046
30
0
41
1
10
13.3442334005448
20
-0.788682317149039
30
0
41
1
10
13.296365855751
20
-0.773743170902236
30
0
41
1
10
13.2007593784725
20
-0.741945800331791
30
0
41
1
10
13.1530494492144
20
-0.725046596302718
30
0
41
1
10
13.0573634466534
20
-0.689775346753862
30
0
41
1
10
13.0094063048599
20
-0.671390614699391
30
0
41
1
10
12.9133250739745
20
-0.633063698943971
30
0
41
1
10
12.8651938817582
20
-0.613128743149161
30
0
41
1
10
12.7686941513692
20
-0.571782519553977
30
0
41
1
10
12.7203214471544
20
-0.550379266578318
30
0
41
1
10
12.6475926056417
20
-0.517123620084107
30
0
41
1
10
12.6232998027362
20
-0.505835910017026
30
0
41
1
10
12.5748600977022
20
-0.482971326052109
30
0
41
1
10
12.5506931347896
20
-0.471385637544273
30
0
41
1
10
12.4783356881943
20
-0.436193357528964
30
0
41
1
10
12.4302645273611
20
-0.412190572434582
30
0
41
1
10
12.3340968754502
20
-0.363731044162392
30
0
41
1
10
12.2860610684329
20
-0.339171870116076
30
0
41
1
10
12.1420991377125
20
-0.26451868977216
30
0
41
1
10
12.046256009812
20
-0.213563008853583
30
0
41
1
10
11.902642216878
20
-0.135423297280113
30
0
41
1
10
11.8548145653169
20
-0.109056812964383
30
0
41
1
10
11.7591010580271
20
-0.0559392902773652
30
0
41
1
10
11.7111281255472
20
-0.0293503219535012
30
0
41
1
10
11.6148598986693
20
0.0237121519407992
30
0
41
1
10
11.5665953922673
20
0.0502435627140869
30
0
41
1
10
11.4939802541669
20
0.0900000344879288
30
0
41
1
10
11.4697379147907
20
0.103243750773203
30
0
41
1
10
11.4211708756495
20
0.129700219504713
30
0
41
1
10
11.3968644502197
20
0.142902831979484
30
0
41
1
10
11.3241444508355
20
0.182291280643824
30
0
41
1
10
11.275835940107
20
0.208325762995514
30
0
41
1
10
11.1795589394357
20
0.259938505621363
30
0
41
1
10
11.1316189763758
20
0.285565030397379
30
0
41
1
10
11.035792150797
20
0.335839444485288
30
0
41
1
10
10.9878553347631
20
0.360404355897202
30
0
41
1
10
10.8920137709167
20
0.408556913986217
30
0
41
1
10
10.84410432546
20
0.432135020058638
30
0
41
1
10
10.7003415608525
20
0.501271509210568
30
0
41
1
10
10.6044358031225
20
0.545216198855258
30
0
41
1
10
10.4604762664943
20
0.607792072100892
30
0
41
1
10
10.4124839585802
20
0.62810139278227
30
0
41
1
10
10.3160293738757
20
0.666955374427459
30
0
41
1
10
10.2676099883295
20
0.685566454019437
30
0
41
1
10
10.121834910434
20
0.739029384294582
30
0
41
1
10
10.025197734096
20
0.770956240349307
30
0
41
1
10
9.88098333201967
20
0.813290464828242
30
0
41
1
10
9.83304754885188
20
0.82648544561161
30
0
41
1
10
9.73738254796365
20
0.850952692397897
30
0
41
1
10
9.68959710235907
20
0.862171873442662
30
0
41
1
10
9.54597809778679
20
0.892542562363445
30
0
41
1
10
9.45012759899353
20
0.90861553997496
30
0
41
1
10
9.30597992256747
20
0.926365467175941
30
0
41
1
10
9.25787251399072
20
0.931222349124425
30
0
41
1
10
9.16155366104775
20
0.938767284805948
30
0
41
1
10
9.1133586378611
20
0.941454264491256
30
0
41
1
10
9.0408556754723
20
0.9437695445678
30
0
41
1
10
9.016616006768
20
0.944254392070405
30
0
41
1
10
8.9837307475716
20
0.944522646818939
30
0
41
1
10
8.97510018008327
20
0.94455685231074
30
0
41
1
10
8.96647283750423
20
0.944555084172691
30
0
0
SPLINE
5
C2
100
AcDbEntity
8
1
62
256
6
ByLayer
370
18
48
1
60
0
100
AcDbSpline
70
4
71
3
72
8
73
4
40
0
40
0
40
0
40
0
40
1
40
1
40
1
40
1
41
1
10
5.24811547546545
20
-0.530941770198694
30
0
41
1
10
5.17193047655815
20
-0.565383140794467
30
0
41
1
10
5.09580950232123
20
-0.598295603515595
30
0
41
1
10
5.01990562444152
20
-0.629838249679267
30
0
0
SPLINE
5
C3
100
AcDbEntity
8
1
62
256
6
ByLayer
370
18
48
1
60
0
100
AcDbSpline
70
4
71
3
72
32
73
28
40
0
40
0
40
0
40
0
40
0.153280189666294
40
0.153280189666294
40
0.306560379332588
40
0.306560379332588
40
0.383200474165735
40
0.383200474165735
40
0.459840568998882
40
0.459840568998882
40
0.536480663832029
40
0.536480663832029
40
0.613120758665176
40
0.613120758665176
40
0.651440806081752
40
0.651440806081752
40
0.689760853498327
40
0.689760853498327
40
0.766400948331483
40
0.766400948331483
40
0.843041043164638
40
0.843041043164638
40
0.919681137997794
40
0.919681137997794
40
0.996321232830949
40
0.996321232830949
40
1
40
1
40
1
40
1
41
1
10
5.01990562444152
20
-0.428599974442165
30
0
41
1
10
5.11634125253249
20
-0.477482207955006
30
0
41
1
10
5.2131510849733
20
-0.522090701896531
30
0
41
1
10
5.40608948421399
20
-0.606051767240615
30
0
41
1
10
5.50207956465317
20
-0.645545139731098
30
0
41
1
10
5.6453781755927
20
-0.700756159245117
30
0
41
1
10
5.69298304517284
20
-0.718532248398958
30
0
41
1
10
5.78852046820245
20
-0.752020698243683
30
0
41
1
10
5.83651914892477
20
-0.76766985575432
30
0
41
1
10
5.93289973556739
20
-0.796960577038902
30
0
41
1
10
5.98125256258976
20
-0.810635840798426
30
0
41
1
10
6.07804818276495
20
-0.836270038807868
30
0
41
1
10
6.12647918767814
20
-0.848234523018391
30
0
41
1
10
6.19922105720912
20
-0.864795889067693
30
0
41
1
10
6.22350448327006
20
-0.870087686832562
30
0
41
1
10
6.27189719756038
20
-0.880150538929826
30
0
41
1
10
6.2960243010649
20
-0.884929987986681
30
0
41
1
10
6.36821184507076
20
-0.898487155733847
30
0
41
1
10
6.41611410323077
20
-0.906444065246518
30
0
41
1
10
6.51215740786296
20
-0.919910874594962
30
0
41
1
10
6.56030662558723
20
-0.925442924577794
30
0
41
1
10
6.65659168449474
20
-0.934356833662747
30
0
41
1
10
6.70472794678057
20
-0.937736536507089
30
0
41
1
10
6.80077464671962
20
-0.94237741249313
30
0
41
1
10
6.84870305903095
20
-0.943628830600915
30
0
41
1
10
6.89886233998516
20
-0.94377554333127
30
0
41
1
10
6.90115949037582
20
-0.943779694135372
30
0
41
1
10
6.90345640584775
20
-0.943781271005378
30
0
0
SPLINE
5
C4
100
AcDbEntity
8
1
62
256
6
ByLayer
370
18
48
1
60
0
100
AcDbSpline
70
4
71
3
72
118
73
114
40
0
40
0
40
0
40
0
40
0.0030732148637775
40
0.0030732148637775
40
0.0235616595521911
40
0.0235616595521911
40
0.0440501042406045
40
0.0440501042406045
40
0.0542943265848112
40
0.0542943265848112
40
0.0645385489290181
40
0.0645385489290181
40
0.0850269936174315
40
0.0850269936174315
40
0.105515438305845
40
0.105515438305845
40
0.126003882994258
40
0.126003882994258
40
0.146492327682672
40
0.146492327682672
40
0.166980772371085
40
0.166980772371085
40
0.187469217059499
40
0.187469217059499
40
0.207957661747912
40
0.207957661747912
40
0.228446106436326
40
0.228446106436326
40
0.24893455112474
40
0.24893455112474
40
0.269422995813153
40
0.269422995813153
40
0.279667218157361
40
0.279667218157361
40
0.289911440501569
40
0.289911440501569
40
0.310399885189982
40
0.310399885189982
40
0.351376774566809
40
0.351376774566809
40
0.371865219255222
40
0.371865219255222
40
0.392353663943634
40
0.392353663943634
40
0.412842108632047
40
0.412842108632047
40
0.433330553320459
40
0.433330553320459
40
0.453818998008871
40
0.453818998008871
40
0.474307442697283
40
0.474307442697283
40
0.494795887385696
40
0.494795887385696
40
0.515284332074108
40
0.515284332074108
40
0.535772776762521
40
0.535772776762521
40
0.546016999106727
40
0.546016999106727
40
0.556261221450933
40
0.556261221450933
40
0.576749666139343
40
0.576749666139343
40
0.597238110827753
40
0.597238110827753
40
0.617726555516163
40
0.617726555516163
40
0.638215000204573
40
0.638215000204573
40
0.64845922254878
40
0.64845922254878
40
0.658703444892986
40
0.658703444892986
40
0.668947667237192
40
0.668947667237192
40
0.679191889581399
40
0.679191889581399
40
0.699680334269811
40
0.699680334269811
40
0.720168778958223
40
0.720168778958223
40
0.740657223646636
40
0.740657223646636
40
0.761145668335048
40
0.761145668335048
40
0.78163411302346
40
0.78163411302346
40
0.802122557711872
40
0.802122557711872
40
0.822611002400285
40
0.822611002400285
40
0.832855224744491
40
0.832855224744491
40
0.843099447088698
40
0.843099447088698
40
0.86358789177711
40
0.86358789177711
40
0.884076336465522
40
0.884076336465522
40
0.904564781153934
40
0.904564781153934
40
0.925053225842347
40
0.925053225842347
40
0.935297448186554
40
0.935297448186554
40
0.945541670530761
40
0.945541670530761
40
0.966030115219176
40
0.966030115219176
40
0.98651855990759
40
0.98651855990759
40
1
40
1
40
1
40
1
41
1
10
10.6250671374846
20
0.535805543648422
30
0
41
1
10
10.6322688821656
20
0.539054628132305
30
0
41
1
10
10.6394747826485
20
0.542285567709428
30
0
41
1
10
10.6947487233616
20
0.566924295809059
30
0
41
1
10
10.7429753467872
20
0.587584941427593
30
0
41
1
10
10.8395182116721
20
0.627731024257059
30
0
41
1
10
10.8878157163807
20
0.647240466609389
30
0
41
1
10
10.9603287866391
20
0.675581386638271
30
0
41
1
10
10.9845125501905
20
0.684872154188042
30
0
41
1
10
11.0329109105346
20
0.703126038947715
30
0
41
1
10
11.0571454196105
20
0.712099317538531
30
0
41
1
10
11.1295662178245
20
0.738417102067075
30
0
41
1
10
11.1775718132836
20
0.755147607349642
30
0
41
1
10
11.2737222765414
20
0.786235472225769
30
0
41
1
10
11.3219047649982
20
0.800575604223383
30
0
41
1
10
11.4182504730435
20
0.827241568282631
30
0
41
1
10
11.4664113107834
20
0.839568840247409
30
0
41
1
10
11.5624789548307
20
0.862414392900774
30
0
41
1
10
11.6103970847763
20
0.872916655323394
30
0
41
1
10
11.7060587835414
20
0.891968835550671
30
0
41
1
10
11.7537794740811
20
0.900532749352863
30
0
41
1
10
11.8491141148638
20
0.915571364907152
30
0
41
1
10
11.8968030044457
20
0.921994798193936
30
0
41
1
10
11.9928292207594
20
0.932462882358095
30
0
41
1
10
12.041112173866
20
0.936549179512667
30
0
41
1
10
12.1379524887968
20
0.942572178475018
30
0
41
1
10
12.1865012111557
20
0.944508306596958
30
0
41
1
10
12.2837130997185
20
0.946169735403458
30
0
41
1
10
12.3321874066579
20
0.945881960978994
30
0
41
1
10
12.4285777534957
20
0.94302009758141
30
0
41
1
10
12.4764786566109
20
0.940429567219127
30
0
41
1
10
12.5482163483407
20
0.934835312409604
30
0
41
1
10
12.5721199066751
20
0.932689924086304
30
0
41
1
10
12.6199883110261
20
0.92787859884632
30
0
41
1
10
12.6439599771021
20
0.92521631983783
30
0
41
1
10
12.7159460234959
20
0.916477427076529
30
0
41
1
10
12.7640218339723
20
0.909650454105076
30
0
41
1
10
12.9081503174951
20
0.886078259736422
30
0
41
1
10
13.0039797111159
20
0.866166803645967
30
0
41
1
10
13.1474276697902
20
0.82957705014752
30
0
41
1
10
13.1951432043368
20
0.816194860971621
30
0
41
1
10
13.2910476099072
20
0.787641849588709
30
0
41
1
10
13.3393047181515
20
0.772558656456738
30
0
41
1
10
13.4363543590067
20
0.740815201288115
30
0
41
1
10
13.4851697431782
20
0.724102178415848
30
0
41
1
10
13.5824128604786
20
0.688958044049201
30
0
41
1
10
13.630896081394
20
0.670486554497813
30
0
41
1
10
13.7276353037643
20
0.631763990201989
30
0
41
1
10
13.7758950688075
20
0.611519061682429
30
0
41
1
10
13.8721806210519
20
0.56917459932626
30
0
41
1
10
13.9202561844898
20
0.547133572363691
30
0
41
1
10
14.0169714452936
20
0.502376509652066
30
0
41
1
10
14.065690432514
20
0.479643389583657
30
0
41
1
10
14.1628418903948
20
0.433423399000787
30
0
41
1
10
14.2113128649883
20
0.409917593190556
30
0
41
1
10
14.3078433028681
20
0.361768133335914
30
0
41
1
10
14.3559215781072
20
0.337155752977793
30
0
41
1
10
14.4277997074007
20
0.299494411350423
30
0
41
1
10
14.4517186668102
20
0.286815921230726
30
0
41
1
10
14.4994644047968
20
0.261187246826893
30
0
41
1
10
14.5232864270893
20
0.24822835476246
30
0
41
1
10
14.5947304554568
20
0.209149028872616
30
0
41
1
10
14.642361249678
20
0.182879994127774
30
0
41
1
10
14.7381211521727
20
0.130830296852849
30
0
41
1
10
14.7861781439284
20
0.104921695873117
30
0
41
1
10
14.8823944244644
20
0.0528874157408836
30
0
41
1
10
14.9305384243011
20
0.0267327250727192
30
0
41
1
10
15.0267958688839
20
-0.0260563296754981
30
0
41
1
10
15.0749329976532
20
-0.0526467297170257
30
0
41
1
10
15.1471781683794
20
-0.0927921300146579
30
0
41
1
10
15.171258982072
20
-0.106231675244629
30
0
41
1
10
15.2194456013018
20
-0.133178598133355
30
0
41
1
10
15.2435844066822
20
-0.1466859400864
30
0
41
1
10
15.2918626587286
20
-0.173494896219438
30
0
41
1
10
15.3159813454005
20
-0.186786630348848
30
0
41
1
10
15.3642573934382
20
-0.213004904106242
30
0
41
1
10
15.3884124238744
20
-0.225936655781197
30
0
41
1
10
15.4608755327554
20
-0.2643173553586
30
0
41
1
10
15.5091805126752
20
-0.289356586133351
30
0
41
1
10
15.6055545571553
20
-0.338783666541644
30
0
41
1
10
15.6536019118165
20
-0.363206750587978
30
0
41
1
10
15.7494271973648
20
-0.41142738566802
30
0
41
1
10
15.7972220982024
20
-0.435196738894632
30
0
41
1
10
15.892545630884
20
-0.482060291606814
30
0
41
1
10
15.9400612887155
20
-0.505166166040624
30
0
41
1
10
16.0355000174037
20
-0.549623066006689
30
0
41
1
10
16.083476525218
20
-0.570902992968826
30
0
41
1
10
16.1797564248853
20
-0.611911192822646
30
0
41
1
10
16.2280479094512
20
-0.631657639157282
30
0
41
1
10
16.3246983500369
20
-0.669958410638742
30
0
41
1
10
16.3730587957017
20
-0.688506934218879
30
0
41
1
10
16.445701845071
20
-0.715315562768296
30
0
41
1
10
16.4699545375686
20
-0.724087610398612
30
0
41
1
10
16.5182809519511
20
-0.741212363085452
30
0
41
1
10
16.5423694762043
20
-0.749581390007791
30
0
41
1
10
16.6144687966911
20
-0.774026550833668
30
0
41
1
10
16.6623475034391
20
-0.789388269117893
30
0
41
1
10
16.7583829633509
20
-0.817657827366418
30
0
41
1
10
16.8065058827085
20
-0.830622464122882
30
0
41
1
10
16.9027011034809
20
-0.85457129238489
30
0
41
1
10
16.9507689760251
20
-0.865556801797879
30
0
41
1
10
17.0466656934316
20
-0.885663440252159
30
0
41
1
10
17.0945164601737
20
-0.894763616330323
30
0
41
1
10
17.1661867282412
20
-0.906900865554775
30
0
41
1
10
17.1900576584393
20
-0.910695408008564
30
0
41
1
10
17.2377506776253
20
-0.917773252149914
30
0
41
1
10
17.2615737063648
20
-0.921054827806586
30
0
41
1
10
17.3331100384713
20
-0.930053434049654
30
0
41
1
10
17.3809280090039
20
-0.934904595764323
30
0
41
1
10
17.4772206982902
20
-0.942283883986164
30
0
41
1
10
17.5256200435985
20
-0.944848185820092
30
0
41
1
10
17.6060823430105
20
-0.947300387598858
30
0
41
1
10
17.6381070278956
20
-0.947800874901219
30
0
41
1
10
17.6700781273428
20
-0.947818369020979
30
0
0
SPLINE
5
C5
100
AcDbEntity
8
1
62
256
6
ByLayer
370
18
48
1
60
0
100
AcDbSpline
70
4
71
3
72
38
73
34
40
0
40
0
40
0
40
0
40
0.0371390074606112
40
0.0371390074606112
40
0.105914792641991
40
0.105914792641991
40
0.174690577823371
40
0.174690577823371
40
0.243466363004751
40
0.243466363004751
40
0.312242148186132
40
0.312242148186132
40
0.381017933367512
40
0.381017933367512
40
0.449793718548892
40
0.449793718548892
40
0.518569503730272
40
0.518569503730272
40
0.587345288911653
40
0.587345288911653
40
0.656121074093033
40
0.656121074093033
40
0.690508966683726
40
0.690508966683726
40
0.72489685927442
40
0.72489685927442
40
0.793672644455814
40
0.793672644455814
40
0.86244842963721
40
0.86244842963721
40
0.931224214818604
40
0.931224214818604
40
1
40
1
40
1
40
1
41
1
10
21.389130987556
20
0.53630866367044
30
0
41
1
10
21.4150734434133
20
0.548426515893965
30
0
41
1
10
21.4409887316327
20
0.560314152887372
30
0
41
1
10
21.5149722355221
20
0.593332532986921
30
0
41
1
10
21.5631230674717
20
0.613705626027809
30
0
41
1
10
21.6593814881722
20
0.652819804020965
30
0
41
1
10
21.7074896618689
20
0.67155859326121
30
0
41
1
10
21.8034457648021
20
0.707684218231975
30
0
41
1
10
21.8513101497844
20
0.725044756809382
30
0
41
1
10
21.9468666476122
20
0.75823709173838
30
0
41
1
10
21.9945233624207
20
0.77410721472171
30
0
41
1
10
22.0897747802039
20
0.804119643260293
30
0
41
1
10
22.1374503560697
20
0.818171010920423
30
0
41
1
10
22.2334465880089
20
0.843912400322466
30
0
41
1
10
22.2817009831965
20
0.855678917692387
30
0
41
1
10
22.3784655924365
20
0.877266272803098
30
0
41
1
10
22.4269634347707
20
0.887094321869057
30
0
41
1
10
22.5240759208629
20
0.904827554001258
30
0
41
1
10
22.5724707522382
20
0.912667543068011
30
0
41
1
10
22.6687926085445
20
0.926188310734858
30
0
41
1
10
22.7166756902323
20
0.931895335903988
30
0
41
1
10
22.7884759693199
20
0.938695723846649
30
0
41
1
10
22.8124127383668
20
0.940668948656935
30
0
41
1
10
22.8603740930577
20
0.944025582634396
30
0
41
1
10
22.88440125767
20
0.945409936537146
30
0
41
1
10
22.9565660837363
20
0.948724238458681
30
0
41
1
10
23.0047835609305
20
0.949821476893561
30
0
41
1
10
23.1011932350219
20
0.949853560523735
30
0
41
1
10
23.149362766909
20
0.948782612475469
30
0
41
1
10
23.2456252419818
20
0.944387335689981
30
0
41
1
10
23.2937370988887
20
0.941066451048926
30
0
41
1
10
23.3899067667419
20
0.932055103463938
30
0
41
1
10
23.4379362881186
20
0.926335798411827
30
0
41
1
10
23.4862641707447
20
0.91952407931484
30
0
0
SPLINE
5
C6
100
AcDbEntity
8
1
62
256
6
ByLayer
370
18
48
1
60
0
100
AcDbSpline
70
4
71
3
72
99
73
95
40
0
40
0
40
0
40
0
40
0.0091777167432867
40
0.0091777167432867
40
0.0296636436652196
40
0.0296636436652196
40
0.039906607126185
40
0.039906607126185
40
0.0501495705871503
40
0.0501495705871503
40
0.0706354975090787
40
0.0706354975090787
40
0.0911214244310072
40
0.0911214244310072
40
0.111607351352935
40
0.111607351352935
40
0.132093278274864
40
0.132093278274864
40
0.152579205196792
40
0.152579205196792
40
0.193551059040652
40
0.193551059040652
40
0.21403698596258
40
0.21403698596258
40
0.234522912884508
40
0.234522912884508
40
0.275494766728363
40
0.275494766728363
40
0.29598069365029
40
0.29598069365029
40
0.316466620572218
40
0.316466620572218
40
0.357438474416075
40
0.357438474416075
40
0.377924401338004
40
0.377924401338004
40
0.388167364798969
40
0.388167364798969
40
0.398410328259934
40
0.398410328259934
40
0.418896255181866
40
0.418896255181866
40
0.439382182103797
40
0.439382182103797
40
0.480354035947659
40
0.480354035947659
40
0.500839962869589
40
0.500839962869589
40
0.52132588979152
40
0.52132588979152
40
0.541811816713451
40
0.552054780174416
40
0.552054780174416
40
0.562297743635381
40
0.562297743635381
40
0.582783670557312
40
0.582783670557312
40
0.603269597479243
40
0.603269597479243
40
0.644241451323104
40
0.644241451323104
40
0.664727378245035
40
0.664727378245035
40
0.685213305166966
40
0.685213305166966
40
0.726185159010825
40
0.726185159010825
40
0.736428122471789
40
0.736428122471789
40
0.746671085932753
40
0.746671085932753
40
0.767157012854682
40
0.767157012854682
40
0.78764293977661
40
0.78764293977661
40
0.808128866698539
40
0.808128866698539
40
0.849100720542393
40
0.849100720542393
40
0.86958664746432
40
0.86958664746432
40
0.890072574386248
40
0.890072574386248
40
0.910558501308175
40
0.910558501308175
40
0.931044428230102
40
0.931044428230102
40
0.951530355152029
40
0.951530355152029
40
0.972016282073957
40
0.972016282073957
40
0.992502208995884
40
0.992502208995884
40
1
40
1
40
1
40
1
41
1
10
21.3897450426852
20
-0.539055042227488
30
0
41
1
10
21.3682853220263
20
-0.548915105663951
30
0
41
1
10
21.3468141469107
20
-0.558661775602644
30
0
41
1
10
21.2773361093792
20
-0.589727983747935
30
0
41
1
10
21.2291609399897
20
-0.6104090176581
30
0
41
1
10
21.1566555572744
20
-0.640346766573884
30
0
41
1
10
21.1324461628673
20
-0.650144311234612
30
0
41
1
10
21.0839417583775
20
-0.669369333271021
30
0
41
1
10
21.0596553137009
20
-0.6787928038936
30
0
41
1
10
20.986984484615
20
-0.706367037811646
30
0
41
1
10
20.9386744010223
20
-0.723858675501418
30
0
41
1
10
20.8423266861333
20
-0.757086036365848
30
0
41
1
10
20.7942993529127
20
-0.772833182736889
30
0
41
1
10
20.6985102659074
20
-0.802545064218663
30
0
41
1
10
20.6507741829128
20
-0.816526315183921
30
0
41
1
10
20.5551604113268
20
-0.842315659411355
30
0
41
1
10
20.5073123186077
20
-0.854162382717504
30
0
41
1
10
20.4115870557295
20
-0.875841511410982
30
0
41
1
10
20.3637031775283
20
-0.885666287158614
30
0
41
1
10
20.2199059924818
20
-0.912041855443022
30
0
41
1
10
20.1238718032773
20
-0.925533193202341
30
0
41
1
10
19.9794909602056
20
-0.939277176577178
30
0
41
1
10
19.9312634781228
20
-0.942747600349833
30
0
41
1
10
19.834264959629
20
-0.947379217525111
30
0
41
1
10
19.7858605649942
20
-0.948544786812789
30
0
41
1
10
19.6410414487698
20
-0.948684742872047
30
0
41
1
10
19.5449024212481
20
-0.944325180010992
30
0
41
1
10
19.4012603657725
20
-0.931185400620166
30
0
41
1
10
19.3534943005263
20
-0.925690133080792
30
0
41
1
10
19.2580300587558
20
-0.912495708539552
30
0
41
1
10
19.2102436898256
20
-0.90483917441523
30
0
41
1
10
19.0666260663423
20
-0.878816966374075
30
0
41
1
10
18.9706470179264
20
-0.857345233907012
30
0
41
1
10
18.8260949366383
20
-0.819062045589476
30
0
41
1
10
18.7778265676641
20
-0.805274826286905
30
0
41
1
10
18.7052894544271
20
-0.783004700439591
30
0
41
1
10
18.6810628071195
20
-0.775308750269858
30
0
41
1
10
18.632669876881
20
-0.759429313644063
30
0
41
1
10
18.6085260698789
20
-0.751255521149346
30
0
41
1
10
18.5361426615119
20
-0.726167849234486
30
0
41
1
10
18.4879355394659
20
-0.708710981479754
30
0
41
1
10
18.3916930291076
20
-0.672290443130237
30
0
41
1
10
18.3436520348957
20
-0.653331933089618
30
0
41
1
10
18.199693953313
20
-0.594342650517035
30
0
41
1
10
18.1039274985033
20
-0.552233892363688
30
0
41
1
10
17.9605899055978
20
-0.484818992235262
30
0
41
1
10
17.9128705987668
20
-0.461616464656089
30
0
41
1
10
17.8170972472673
20
-0.414482282381897
30
0
41
1
10
17.7690893061563
20
-0.390481898671766
30
0
41
1
10
17.6728705573709
20
-0.341554957369681
30
0
41
1
10
17.6005446825841
20
-0.304179803628955
30
0
41
1
10
17.5279112814067
20
-0.265884719191945
30
0
41
1
10
17.4794215654962
20
-0.240145019826315
30
0
41
1
10
17.4551225942561
20
-0.227157129499716
30
0
41
1
10
17.3824384262595
20
-0.188028452618056
30
0
41
1
10
17.334189289902
20
-0.161673457278141
30
0
41
1
10
17.2380335472747
20
-0.108561679607846
30
0
41
1
10
17.1900663617782
20
-0.081919506225006
30
0
41
1
10
17.0461111678662
20
-0.0024456643264728
30
0
41
1
10
16.9503055365084
20
0.0503775158059057
30
0
41
1
10
16.806615178467
20
0.128964315432881
30
0
41
1
10
16.7587267609416
20
0.155061584496878
30
0
41
1
10
16.6629815537665
20
0.20708277171525
30
0
41
1
10
16.6151418492169
20
0.233037162077039
30
0
41
1
10
16.4714054751894
20
0.310150862449348
30
0
41
1
10
16.3749472538899
20
0.359945090495273
30
0
41
1
10
16.2535900457699
20
0.420184644668922
30
0
41
1
10
16.2292961987069
20
0.432116649568286
30
0
41
1
10
16.180832428079
20
0.455654680673177
30
0
41
1
10
16.1566376268395
20
0.467273178501387
30
0
41
1
10
16.0841672683025
20
0.501685856584487
30
0
41
1
10
16.0360128398116
20
0.524049662801303
30
0
41
1
10
15.9400077427302
20
0.567588458468066
30
0
41
1
10
15.8921890014622
20
0.58880477791692
30
0
41
1
10
15.7964993596761
20
0.629518909275902
30
0
41
1
10
15.7486185183266
20
0.649012012779423
30
0
41
1
10
15.604979465128
20
0.705110602243991
30
0
41
1
10
15.5091672114281
20
0.739263212731743
30
0
41
1
10
15.3652137253344
20
0.785401940093436
30
0
41
1
10
15.3172062310882
20
0.79994773998709
30
0
41
1
10
15.2210993969211
20
0.827271429701824
30
0
41
1
10
15.1729987335316
20
0.840040297872747
30
0
41
1
10
15.0762784398462
20
0.863399138224054
30
0
41
1
10
15.0276342456013
20
0.874060084114859
30
0
41
1
10
14.9307896460569
20
0.893172473698883
30
0
41
1
10
14.8824996732249
20
0.901641581244974
30
0
41
1
10
14.7861264997383
20
0.916412689802229
30
0
41
1
10
14.7380450149466
20
0.922717691846685
30
0
41
1
10
14.6421177639675
20
0.933176743289351
30
0
41
1
10
14.5942781877297
20
0.937329716112828
30
0
41
1
10
14.498745562035
20
0.943417016097499
30
0
41
1
10
14.4509750084534
20
0.945333058286337
30
0
41
1
10
14.3855970792682
20
0.946430464765939
30
0
41
1
10
14.3680739177054
20
0.946576305387794
30
0
41
1
10
14.3505440262696
20
0.946574223632581
30
0
0
SPLINE
5
C7
100
AcDbEntity
8
1
62
256
6
ByLayer
370
18
48
1
60
0
100
AcDbSpline
70
4
71
3
72
76
73
72
40
0
40
0
40
0
40
0
40
0.0210221927210675
40
0.0210221927210675
40
0.0467847665968326
40
0.0467847665968326
40
0.0725473404725976
40
0.0725473404725976
40
0.124072488224127
40
0.124072488224127
40
0.149835062099892
40
0.149835062099892
40
0.175597635975657
40
0.175597635975657
40
0.227122783727184
40
0.227122783727184
40
0.252885357602945
40
0.252885357602945
40
0.278647931478706
40
0.278647931478706
40
0.291529218416587
40
0.291529218416587
40
0.304410505354467
40
0.304410505354467
40
0.330173079230229
40
0.330173079230229
40
0.381698226981751
40
0.381698226981751
40
0.407460800857512
40
0.407460800857512
40
0.433223374733272
40
0.433223374733272
40
0.484748522484794
40
0.484748522484794
40
0.497629809422673
40
0.497629809422673
40
0.510511096360554
40
0.510511096360554
40
0.536273670236313
40
0.536273670236313
40
0.587798817987834
40
0.587798817987834
40
0.613561391863594
40
0.613561391863594
40
0.639323965739354
40
0.639323965739354
40
0.665086539615114
40
0.665086539615114
40
0.690849113490874
40
0.690849113490874
40
0.716611687366634
40
0.716611687366634
40
0.729492974304513
40
0.729492974304513
40
0.742374261242393
40
0.742374261242393
40
0.768136835118155
40
0.768136835118155
40
0.793899408993916
40
0.793899408993916
40
0.845424556745437
40
0.845424556745437
40
0.871187130621198
40
0.871187130621198
40
0.896949704496958
40
0.896949704496958
40
0.922712278372719
40
0.922712278372719
40
0.948474852248479
40
0.948474852248479
40
1
40
1
40
1
40
1
41
1
10
10.6259000184912
20
-0.534764850848006
30
0
41
1
10
10.586765317533
20
-0.552521495717826
30
0
41
1
10
10.5476196468234
20
-0.569912864863966
30
0
41
1
10
10.4604762664943
20
-0.607792072100892
30
0
41
1
10
10.4124839585801
20
-0.62810139278227
30
0
41
1
10
10.3160293738757
20
-0.666955374427459
30
0
41
1
10
10.2676099883296
20
-0.685566454019437
30
0
41
1
10
10.121834910434
20
-0.739029384294554
30
0
41
1
10
10.025197734096
20
-0.770956240349307
30
0
41
1
10
9.88098333201967
20
-0.813290464828242
30
0
41
1
10
9.83304754885191
20
-0.82648544561161
30
0
41
1
10
9.73738254796368
20
-0.850952692397868
30
0
41
1
10
9.68959710235907
20
-0.862171873442662
30
0
41
1
10
9.54597809778681
20
-0.892542562363445
30
0
41
1
10
9.45012759899356
20
-0.90861553997496
30
0
41
1
10
9.3059799225675
20
-0.926365467175941
30
0
41
1
10
9.25787251399072
20
-0.931222349124425
30
0
41
1
10
9.16155366104775
20
-0.938767284805948
30
0
41
1
10
9.11335863786113
20
-0.941454264491256
30
0
41
1
10
9.04085567547236
20
-0.9437695445678
30
0
41
1
10
9.01661600676806
20
-0.944254392070405
30
0
41
1
10
8.9681125529234
20
-0.944650049034408
30
0
41
1
10
8.94388421984681
20
-0.944562075005251
30
0
41
1
10
8.87128669885948
20
-0.9434571790826
30
0
41
1
10
8.82300304850691
20
-0.941599245984463
30
0
41
1
10
8.67843651650412
20
-0.932741022933271
30
0
41
1
10
8.58239269751002
20
-0.922492759566268
30
0
41
1
10
8.43884410939762
20
-0.900573914189181
30
0
41
1
10
8.39110994675568
20
-0.892145853611964
30
0
41
1
10
8.29546538553649
20
-0.87327657294378
30
0
41
1
10
8.24753951612524
20
-0.862857470858273
30
0
41
1
10
8.10356889601761
20
-0.828612057310778
30
0
41
1
10
8.00727743091795
20
-0.801845401432246
30
0
41
1
10
7.88638328663359
20
-0.763472354644193
30
0
41
1
10
7.86218105123086
20
-0.755547387251397
30
0
41
1
10
7.81372636405729
20
-0.739190016396975
30
0
41
1
10
7.78944810676458
20
-0.730747462884125
30
0
41
1
10
7.7168103973479
20
-0.704762283900294
30
0
41
1
10
7.66860182911901
20
-0.686540432181374
30
0
41
1
10
7.52398640540304
20
-0.630069753838711
30
0
41
1
10
7.42786180063433
20
-0.58967871141445
30
0
41
1
10
7.28393072389889
20
-0.525347080031793
30
0
41
1
10
7.23599064514454
20
-0.503286365464078
30
0
41
1
10
7.14021086530013
20
-0.457880701196359
30
0
41
1
10
7.09237671613653
20
-0.434525294606885
30
0
41
1
10
6.99672224079558
20
-0.38664149677632
30
0
41
1
10
6.94882605502508
20
-0.362239054388994
30
0
41
1
10
6.85271918410905
20
-0.31283364840786
30
0
41
1
10
6.80455334031194
20
-0.287754070956055
30
0
41
1
10
6.70797525665557
20
-0.236875728792512
30
0
41
1
10
6.65955692465468
20
-0.211087962742681
30
0
41
1
10
6.58670468567021
20
-0.171926976447622
30
0
41
1
10
6.56238314513985
20
-0.158790363749347
30
0
41
1
10
6.51389233349622
20
-0.132459820691935
30
0
41
1
10
6.48969504854463
20
-0.119252238455488
30
0
41
1
10
6.4172440070912
20
-0.0795096484691555
30
0
41
1
10
6.36915825633363
20
-0.0528036704154431
30
0
41
1
10
6.27313566956354
20
0.0004951478205157
30
0
41
1
10
6.22512528102152
20
0.0269505360728601
30
0
41
1
10
6.0811757708608
20
0.10590230727459
30
0
41
1
10
5.98531491048041
20
0.157978378725346
30
0
41
1
10
5.84147363402431
20
0.234881053715441
30
0
41
1
10
5.79353569049476
20
0.260344553119893
30
0
41
1
10
5.69765395004461
20
0.310877096608863
30
0
41
1
10
5.64973932553636
20
0.335996223426974
30
0
41
1
10
5.5535132426181
20
0.38514138555621
30
0
41
1
10
5.50522716678489
20
0.409214292262902
30
0
41
1
10
5.40835864800513
20
0.45644774379781
30
0
41
1
10
5.3596990453359
20
0.479613058848884
30
0
41
1
10
5.21389144946383
20
0.547143601048219
30
0
41
1
10
5.11672193655255
20
0.589605223895916
30
0
41
1
10
5.01990562444149
20
0.629838249679267
30
0
0
SPLINE
5
C8
100
AcDbEntity
8
1
62
256
6
ByLayer
370
18
48
1
60
0
100
AcDbSpline
70
4
71
3
72
114
73
110
40
0
40
0
40
0
40
0
40
0.0087730021030823
40
0.0087730021030823
40
0.0497683717005201
40
0.0497683717005201
40
0.070266056499239
40
0.070266056499239
40
0.0907637412979578
40
0.0907637412979578
40
0.111261426096677
40
0.111261426096677
40
0.131759110895396
40
0.131759110895396
40
0.142007953294756
40
0.142007953294756
40
0.152256795694116
40
0.152256795694116
40
0.172754480492837
40
0.172754480492837
40
0.193252165291558
40
0.193252165291558
40
0.213749850090279
40
0.213749850090279
40
0.234247534889
40
0.234247534889
40
0.254745219687721
40
0.254745219687721
40
0.275242904486442
40
0.275242904486442
40
0.295740589285164
40
0.295740589285164
40
0.316238274083885
40
0.316238274083885
40
0.336735958882606
40
0.336735958882606
40
0.357233643681327
40
0.357233643681327
40
0.367482486080688
40
0.367482486080688
40
0.377731328480048
40
0.377731328480048
40
0.398229013278769
40
0.398229013278769
40
0.41872669807749
40
0.41872669807749
40
0.439224382876212
40
0.439224382876212
40
0.459722067674933
40
0.459722067674933
40
0.480219752473654
40
0.480219752473654
40
0.500717437272375
40
0.500717437272375
40
0.541712806869818
40
0.541712806869818
40
0.56221049166854
40
0.56221049166854
40
0.58270817646726
40
0.58270817646726
40
0.603205861265981
40
0.603205861265981
40
0.623703546064701
40
0.623703546064701
40
0.633952388464062
40
0.633952388464062
40
0.644201230863422
40
0.644201230863422
40
0.654450073262782
40
0.654450073262782
40
0.664698915662143
40
0.664698915662143
40
0.685196600460863
40
0.685196600460863
40
0.705694285259584
40
0.705694285259584
40
0.726191970058304
40
0.726191970058304
40
0.746689654857025
40
0.746689654857025
40
0.756938497256385
40
0.756938497256385
40
0.767187339655745
40
0.767187339655745
40
0.787685024454466
40
0.787685024454466
40
0.808182709253186
40
0.808182709253186
40
0.818431551652547
40
0.818431551652547
40
0.828680394051907
40
0.828680394051907
40
0.849178078850627
40
0.849178078850627
40
0.869675763649348
40
0.869675763649348
40
0.890173448448068
40
0.890173448448068
40
0.910671133246789
40
0.910671133246789
40
0.931168818045509
40
0.931168818045509
40
0.95166650284423
40
0.95166650284423
40
0.97216418764295
40
0.97216418764295
40
0.992661872441671
40
0.992661872441671
40
1
40
1
40
1
40
1
41
1
10
5.24764731463495
20
0.536742575146945
30
0
41
1
10
5.26831590046135
20
0.545983230979971
30
0
41
1
10
5.28897589232537
20
0.555087407735527
30
0
41
1
10
5.40608948421399
20
0.606051767240615
30
0
41
1
10
5.50207956465317
20
0.645545139731098
30
0
41
1
10
5.6453781755927
20
0.700756159245117
30
0
41
1
10
5.69298304517284
20
0.718532248398958
30
0
41
1
10
5.78852046820248
20
0.752020698243683
30
0
41
1
10
5.83651914892479
20
0.76766985575432
30
0
41
1
10
5.93289973556739
20
0.796960577038902
30
0
41
1
10
5.98125256258976
20
0.810635840798426
30
0
41
1
10
6.07804818276495
20
0.836270038807868
30
0
41
1
10
6.12647918767811
20
0.848234523018391
30
0
41
1
10
6.19922105720912
20
0.864795889067693
30
0
41
1
10
6.22350448327009
20
0.870087686832562
30
0
41
1
10
6.27189719756038
20
0.880150538929854
30
0
41
1
10
6.2960243010649
20
0.884929987986681
30
0
41
1
10
6.36821184507079
20
0.898487155733847
30
0
41
1
10
6.41611410323077
20
0.906444065246518
30
0
41
1
10
6.51215740786296
20
0.919910874594962
30
0
41
1
10
6.56030662558723
20
0.925442924577794
30
0
41
1
10
6.65659168449474
20
0.934356833662747
30
0
41
1
10
6.70472794678122
20
0.937736536507089
30
0
41
1
10
6.80077464672027
20
0.94237741249313
30
0
41
1
10
6.84870305903095
20
0.943628830600915
30
0
41
1
10
6.94442682685499
20
0.943908816578983
30
0
41
1
10
6.992181659621
20
0.942933845292174
30
0
41
1
10
7.08768939774825
20
0.938663610671796
30
0
41
1
10
7.13552527030475
20
0.935372218356974
30
0
41
1
10
7.23187444404775
20
0.926694575173684
30
0
41
1
10
7.2803178249101
20
0.921307321277965
30
0
41
1
10
7.37748899669083
20
0.908386558469175
30
0
41
1
10
7.42629628214809
20
0.90082257620503
30
0
41
1
10
7.52328214481935
20
0.883520506194571
30
0
41
1
10
7.57155006407649
20
0.873789664742674
30
0
41
1
10
7.66766235645926
20
0.852143446542328
30
0
41
1
10
7.71543560342465
20
0.840162001557104
30
0
41
1
10
7.78708129450743
20
0.820777573768112
30
0
41
1
10
7.81096662588465
20
0.81408777051962
30
0
41
1
10
7.85882364563321
20
0.800341817410782
30
0
41
1
10
7.88279440051232
20
0.793285985654279
30
0
41
1
10
7.95477755613948
20
0.771539612764087
30
0
41
1
10
8.00285884327621
20
0.756272463919061
30
0
41
1
10
8.09897102277822
20
0.723976199442433
30
0
41
1
10
8.14697980344545
20
0.706916887842141
30
0
41
1
10
8.24290663556684
20
0.670919071300744
30
0
41
1
10
8.29084241167456
20
0.652003845925634
30
0
41
1
10
8.38663801296732
20
0.612220657738192
30
0
41
1
10
8.43447743445063
20
0.591308336426124
30
0
41
1
10
8.53073299798672
20
0.548436537273801
30
0
41
1
10
8.57923623590364
20
0.52656434793704
30
0
41
1
10
8.67661249884307
20
0.481844671426131
30
0
41
1
10
8.72521492328494
20
0.459092952002862
30
0
41
1
10
8.87041786040828
20
0.38908895142805
30
0
41
1
10
8.96643435602826
20
0.340118406177652
30
0
41
1
10
9.10947789641332
20
0.263466164650651
30
0
41
1
10
9.15705915019561
20
0.237491327053505
30
0
41
1
10
9.25267837899256
20
0.185887763568815
30
0
41
1
10
9.30068733788954
20
0.160211731787967
30
0
41
1
10
9.3968328008221
20
0.108639675295393
30
0
41
1
10
9.44496602719281
20
0.0827371693667374
30
0
41
1
10
9.54116843823209
20
0.0303459195998812
30
0
41
1
10
9.58925926077717
20
0.0038963759465673
30
0
41
1
10
9.66142483217374
20
-0.0360912358007681
30
0
41
1
10
9.6854835967099
20
-0.0494751390173747
30
0
41
1
10
9.73359873393619
20
-0.0763747047226957
30
0
41
1
10
9.75765523530552
20
-0.0898904295629848
30
0
41
1
10
9.80585726451605
20
-0.116880326588443
30
0
41
1
10
9.83003035937065
20
-0.130367273223357
30
0
41
1
10
9.87840652635472
20
-0.157064362325912
30
0
41
1
10
9.90260324473076
20
-0.170250798104064
30
0
41
1
10
9.97521752213004
20
-0.209348317917431
30
0
41
1
10
10.0236360885132
20
-0.234845443375377
30
0
41
1
10
10.1202583746868
20
-0.285186083749011
30
0
41
1
10
10.168442418409
20
-0.31006312076326
30
0
41
1
10
10.2644886444981
20
-0.359332429691364
30
0
41
1
10
10.3123731799274
20
-0.383684628886129
30
0
41
1
10
10.407876030482
20
-0.431768739324326
30
0
41
1
10
10.4554299403318
20
-0.455601038234818
30
0
41
1
10
10.5269303344005
20
-0.490258619449065
30
0
41
1
10
10.5507959889954
20
-0.501624359987488
30
0
41
1
10
10.5986603452234
20
-0.523882682356231
30
0
41
1
10
10.6226521203293
20
-0.534786753667106
30
0
41
1
10
10.6947487233617
20
-0.566924295809059
30
0
41
1
10
10.7429753467873
20
-0.587584941427593
30
0
41
1
10
10.8395182116721
20
-0.627731024257088
30
0
41
1
10
10.8878157163807
20
-0.647240466609389
30
0
41
1
10
10.9603287866391
20
-0.675581386638271
30
0
41
1
10
10.9845125501905
20
-0.684872154188042
30
0
41
1
10
11.0329109105347
20
-0.703126038947715
30
0
41
1
10
11.0571454196106
20
-0.712099317538531
30
0
41
1
10
11.1295662178245
20
-0.738417102067075
30
0
41
1
10
11.1775718132836
20
-0.75514760734967
30
0
41
1
10
11.2737222765414
20
-0.786235472225798
30
0
41
1
10
11.3219047649982
20
-0.800575604223383
30
0
41
1
10
11.4182504730435
20
-0.827241568282631
30
0
41
1
10
11.4664113107834
20
-0.839568840247409
30
0
41
1
10
11.5624789548307
20
-0.862414392900803
30
0
41
1
10
11.6103970847763
20
-0.872916655323394
30
0
41
1
10
11.7060587835414
20
-0.891968835550671
30
0
41
1
10
11.7537794740811
20
-0.900532749352863
30
0
41
1
10
11.8491141148638
20
-0.915571364907152
30
0
41
1
10
11.8968030044457
20
-0.921994798193936
30
0
41
1
10
11.9928292207594
20
-0.932462882358095
30
0
41
1
10
12.041112173866
20
-0.936549179512696
30
0
41
1
10
12.1379524887968
20
-0.942572178475018
30
0
41
1
10
12.1865012111557
20
-0.944508306596958
30
0
41
1
10
12.2525079801026
20
-0.945636414989593
30
0
41
1
10
12.2698919338001
20
-0.945790460680286
30
0
41
1
10
12.2872522491259
20
-0.945800026237208
30
0
0
SPLINE
5
C9
100
AcDbEntity
8
1
62
256
6
ByLayer
370
18
48
1
60
0
100
AcDbSpline
70
4
71
3
72
114
73
110
40
0
40
0
40
0
40
0
40
0.0176056897748187
40
0.0176056897748187
40
0.0380773576171284
40
0.0380773576171284
40
0.0585490254594381
40
0.0585490254594381
40
0.068784859380594
40
0.068784859380594
40
0.0790206933017496
40
0.0790206933017496
40
0.0994923611440637
40
0.0994923611440637
40
0.119964028986378
40
0.119964028986378
40
0.140435696828692
40
0.140435696828692
40
0.160907364671006
40
0.160907364671006
40
0.171143198592164
40
0.171143198592164
40
0.181379032513322
40
0.181379032513322
40
0.201850700355641
40
0.201850700355641
40
0.22232236819796
40
0.22232236819796
40
0.242794036040279
40
0.242794036040279
40
0.263265703882597
40
0.263265703882597
40
0.283737371724916
40
0.283737371724916
40
0.293973205646075
40
0.293973205646075
40
0.304209039567235
40
0.304209039567235
40
0.324680707409556
40
0.324680707409556
40
0.365624043094196
40
0.365624043094196
40
0.386095710936515
40
0.386095710936515
40
0.406567378778833
40
0.406567378778833
40
0.427039046621152
40
0.427039046621152
40
0.447510714463471
40
0.447510714463471
40
0.467982382305789
40
0.467982382305789
40
0.488454050148108
40
0.488454050148108
40
0.508925717990427
40
0.508925717990427
40
0.529397385832746
40
0.529397385832746
40
0.549869053675065
40
0.549869053675065
40
0.560104887596224
40
0.560104887596224
40
0.570340721517383
40
0.570340721517383
40
0.580576555438543
40
0.580576555438543
40
0.590812389359702
40
0.590812389359702
40
0.611284057202021
40
0.611284057202021
40
0.652227392886661
40
0.652227392886661
40
0.672699060728981
40
0.672699060728981
40
0.693170728571301
40
0.693170728571301
40
0.71364239641362
40
0.71364239641362
40
0.73411406425594
40
0.73411406425594
40
0.744349898177101
40
0.744349898177101
40
0.754585732098262
40
0.754585732098262
40
0.775057399940585
40
0.775057399940585
40
0.795529067782907
40
0.795529067782907
40
0.816000735625229
40
0.816000735625229
40
0.836472403467551
40
0.836472403467551
40
0.856944071309873
40
0.856944071309873
40
0.877415739152196
40
0.877415739152196
40
0.897887406994518
40
0.897887406994518
40
0.91835907483684
40
0.91835907483684
40
0.938830742679162
40
0.938830742679162
40
0.959302410521485
40
0.959302410521485
40
0.969538244442645
40
0.969538244442645
40
0.979774078363805
40
0.979774078363805
40
1
40
1
40
1
40
1
41
1
10
16.0078372608092
20
0.536675087308936
30
0
41
1
10
16.0489363831227
20
0.555566124696554
30
0
41
1
10
16.0902159878478
20
0.573773511440351
30
0
41
1
10
16.1797564248853
20
0.611911192822646
30
0
41
1
10
16.2280479094513
20
0.631657639157311
30
0
41
1
10
16.324698350037
20
0.66995841063877
30
0
41
1
10
16.3730587957017
20
0.688506934218907
30
0
41
1
10
16.445701845071
20
0.715315562768296
30
0
41
1
10
16.4699545375686
20
0.724087610398612
30
0
41
1
10
16.5182809519511
20
0.741212363085452
30
0
41
1
10
16.5423694762044
20
0.749581390007791
30
0
41
1
10
16.6144687966911
20
0.774026550833668
30
0
41
1
10
16.6623475034391
20
0.789388269117893
30
0
41
1
10
16.7583829633509
20
0.817657827366446
30
0
41
1
10
16.8065058827085
20
0.830622464122882
30
0
41
1
10
16.9027011034809
20
0.85457129238489
30
0
41
1
10
16.9507689760251
20
0.865556801797879
30
0
41
1
10
17.0466656934316
20
0.885663440252159
30
0
41
1
10
17.0945164601737
20
0.894763616330323
30
0
41
1
10
17.1661867282413
20
0.906900865554775
30
0
41
1
10
17.1900576584393
20
0.910695408008564
30
0
41
1
10
17.2377506776253
20
0.917773252149914
30
0
41
1
10
17.2615737063649
20
0.921054827806586
30
0
41
1
10
17.3331100384714
20
0.930053434049654
30
0
41
1
10
17.3809280090039
20
0.934904595764323
30
0
41
1
10
17.4772206982902
20
0.942283883986164
30
0
41
1
10
17.5256200435986
20
0.944848185820092
30
0
41
1
10
17.6226793878761
20
0.947806205891879
30
0
41
1
10
17.6714216805053
20
0.948193436031772
30
0
41
1
10
17.7683090666382
20
0.946712107720884
30
0
41
1
10
17.8165286513268
20
0.944849095778068
30
0
41
1
10
17.9125260477596
20
0.938826194432437
30
0
41
1
10
17.9602404699063
20
0.934637038453587
30
0
41
1
10
18.031854156992
20
0.926715778041142
30
0
41
1
10
18.0557364902723
20
0.923806727345891
30
0
41
1
10
18.1035901295123
20
0.917499418592143
30
0
41
1
10
18.127554057583
20
0.914099166561471
30
0
41
1
10
18.1995011045189
20
0.903158245800483
30
0
41
1
10
18.2475407706181
20
0.894883128515346
30
0
41
1
10
18.3915331809578
20
0.866945989078403
30
0
41
1
10
18.4873044263254
20
0.844130291883488
30
0
41
1
10
18.6307498570886
20
0.803149863635042
30
0
41
1
10
18.6785341467077
20
0.788345460235064
30
0
41
1
10
18.7747335677856
20
0.757161290145888
30
0
41
1
10
18.8232144137714
20
0.740838655809796
30
0
41
1
10
18.9205245868172
20
0.70660005543499
30
0
41
1
10
18.9690816165132
20
0.688773584072095
30
0
41
1
10
19.0657731152067
20
0.651423067934559
30
0
41
1
10
19.1139183406784
20
0.631909594886395
30
0
41
1
10
19.2098605064306
20
0.59125394571717
30
0
41
1
10
19.2576338290627
20
0.570077176157156
30
0
41
1
10
19.3528967593944
20
0.526150624343302
30
0
41
1
10
19.400460700052
20
0.503507008445183
30
0
41
1
10
19.4960571464018
20
0.457850354775871
30
0
41
1
10
19.5440358001893
20
0.434762658217835
30
0
41
1
10
19.6400927492287
20
0.387688064742122
30
0
41
1
10
19.6881628408167
20
0.363686173006641
30
0
41
1
10
19.7842338627651
20
0.314464853322505
30
0
41
1
10
19.8322581491639
20
0.289283625912901
30
0
41
1
10
19.9043180244091
20
0.250686409505818
30
0
41
1
10
19.928338709206
20
0.237677291174208
30
0
41
1
10
19.9763791564816
20
0.211358014546107
30
0
41
1
10
20.0004046137062
20
0.198057788839549
30
0
41
1
10
20.0485585203315
20
0.171345884041784
30
0
41
1
10
20.0727145573511
20
0.157919792843501
30
0
41
1
10
20.1210604563286
20
0.131193869610627
30
0
41
1
10
20.1452472562767
20
0.117914225778378
30
0
41
1
10
20.2178152589776
20
0.0782516574923875
30
0
41
1
10
20.2661927238214
20
0.0520220882460762
30
0
41
1
10
20.4109763606747
20
-0.0267128422934206
30
0
41
1
10
20.5069105223897
20
-0.0794958577374985
30
0
41
1
10
20.649982443644
20
-0.15894312280372
30
0
41
1
10
20.6974825148266
20
-0.185562846424233
30
0
41
1
10
20.7927654370079
20
-0.237866475444804
30
0
41
1
10
20.8406173056367
20
-0.263429421133281
30
0
41
1
10
20.9366845836219
20
-0.313505544221186
30
0
41
1
10
20.9848678307439
20
-0.33807663097582
30
0
41
1
10
21.0812995726681
20
-0.386695648540837
30
0
41
1
10
21.1295345537429
20
-0.410765835709412
30
0
41
1
10
21.2019565947204
20
-0.446425722133427
30
0
41
1
10
21.2261102960157
20
-0.458235653517562
30
0
41
1
10
21.274445866352
20
-0.481695276495799
30
0
41
1
10
21.2986412867842
20
-0.493359033909201
30
0
41
1
10
21.3709412915014
20
-0.527948837783896
30
0
41
1
10
21.4188898386531
20
-0.550451553661617
30
0
41
1
10
21.5149722355222
20
-0.593332532986921
30
0
41
1
10
21.5631230674717
20
-0.613705626027809
30
0
41
1
10
21.6593814881722
20
-0.652819804020965
30
0
41
1
10
21.707489661869
20
-0.67155859326121
30
0
41
1
10
21.8034457648021
20
-0.707684218231975
30
0
41
1
10
21.8513101497844
20
-0.72504475680941
30
0
41
1
10
21.9468666476122
20
-0.75823709173838
30
0
41
1
10
21.9945233624207
20
-0.77410721472171
30
0
41
1
10
22.0897747802039
20
-0.804119643260293
30
0
41
1
10
22.1374503560697
20
-0.818171010920423
30
0
41
1
10
22.2334465880089
20
-0.843912400322466
30
0
41
1
10
22.2817009831966
20
-0.855678917692387
30
0
41
1
10
22.3784655924365
20
-0.877266272803098
30
0
41
1
10
22.4269634347707
20
-0.887094321869057
30
0
41
1
10
22.5240759208629
20
-0.904827554001258
30
0
41
1
10
22.5724707522382
20
-0.912667543068011
30
0
41
1
10
22.6687926085445
20
-0.926188310734858
30
0
41
1
10
22.7166756902323
20
-0.931895335903988
30
0
41
1
10
22.7884759693199
20
-0.938695723846649
30
0
41
1
10
22.8124127383668
20
-0.940668948656935
30
0
41
1
10
22.8603740930577
20
-0.944025582634396
30
0
41
1
10
22.88440125767
20
-0.945409936537146
30
0
41
1
10
22.9559885625703
20
-0.948697714740518
30
0
41
1
10
23.0036259509613
20
-0.949794973648636
30
0
41
1
10
23.0512524097146
20
-0.949836473542149
30
0
0
SPLINE
5
CA
100
AcDbEntity
8
1
62
256
6
ByLayer
370
18
48
1
60
0
100
AcDbSpline
70
4
71
3
72
20
73
16
40
0
40
0
40
0
40
0
40
0.186924617624014
40
0.186924617624014
40
0.373849235248029
40
0.373849235248029
40
0.560773852872044
40
0.560773852872044
40
0.654236161684051
40
0.654236161684051
40
0.747698470496058
40
0.747698470496058
40
0.934623088120073
40
0.934623088120073
40
1
40
1
40
1
40
1
41
1
10
5.01990562444149
20
0.629838249679267
30
0
41
1
10
4.88233905037708
20
0.656941040536196
30
0
41
1
10
4.74564151185726
20
0.684346017485694
30
0
41
1
10
4.47381701829397
20
0.738022219278804
30
0
41
1
10
4.33868958598433
20
0.764293832539693
30
0
41
1
10
4.06977422833862
20
0.813800785122794
30
0
41
1
10
3.93598554036231
20
0.837040589540322
30
0
41
1
10
3.73610130856267
20
0.868030494403058
30
0
41
1
10
3.66956491193528
20
0.87771681671228
30
0
41
1
10
3.53743016149628
20
0.895402881372405
30
0
41
1
10
3.47175097674039
20
0.903416560581888
30
0
41
1
10
3.27588783824726
20
0.924512757625848
30
0
41
1
10
3.14686300004547
20
0.934698410001772
30
0
41
1
10
2.9750029619899
20
0.941060987022922
30
0
41
1
10
2.93067918791891
20
0.942036288033819
30
0
41
1
10
2.8865823585912
20
0.942232582548172
30
0
0
SPLINE
5
CB
100
AcDbEntity
8
1
62
256
6
ByLayer
370
18
48
1
60
0
100
AcDbSpline
70
4
71
5
72
16
73
10
40
0
40
0
40
0
40
0
40
0
40
0
40
0.156315355405512
40
0.351103519283695
40
0.557271023986635
40
0.781704313399123
40
1
40
1
40
1
40
1
40
1
40
1
41
1
10
5.01990562444149
20
-0.629838249623901
30
0
41
1
10
5.01990562444149
20
-0.623160719841309
30
0
41
1
10
5.01990562444149
20
-0.60821893010754
30
0
41
1
10
5.01990562444152
20
-0.584704103559034
30
0
41
1
10
5.01990562444149
20
-0.552158474193902
30
0
41
1
10
5.01990562444152
20
-0.511438588485902
30
0
41
1
10
5.01990562444149
20
-0.477974504666406
30
0
41
1
10
5.01990562444155
20
-0.452739283790493
30
0
41
1
10
5.01990562444155
20
-0.435757285205852
30
0
41
1
10
5.01990562444155
20
-0.427441249623882
30
0
0
SPLINE
5
CC
100
AcDbEntity
8
1
62
256
6
ByLayer
370
18
48
1
60
0
100
AcDbSpline
70
4
71
3
72
115
73
111
40
0
40
0
40
0
40
0
40
0.0625000000000092
40
0.0625000000000092
40
0.125000000000018
40
0.125000000000018
40
0.187500000000028
40
0.187500000000028
40
0.218750000000033
40
0.218750000000033
40
0.250000000000038
40
0.250000000000038
40
0.312500000000049
40
0.312500000000049
40
0.343750000000054
40
0.343750000000054
40
0.375000000000059
40
0.375000000000059
40
0.390625000000063
40
0.390625000000063
40
0.406250000000066
40
0.406250000000066
40
0.437500000000072
40
0.437500000000072
40
0.445312500000075
40
0.445312500000075
40
0.453125000000077
40
0.453125000000077
40
0.468750000000081
40
0.468750000000081
40
0.476562500000084
40
0.476562500000084
40
0.480468750000085
40
0.480468750000085
40
0.484375000000086
40
0.484375000000086
40
0.492187500000087
40
0.492187500000087
40
0.496093750000088
40
0.496093750000088
40
0.500000000000089
40
0.500000000000089
40
0.50781250000009
40
0.50781250000009
40
0.51171875000009
40
0.51171875000009
40
0.515625000000091
40
0.515625000000091
40
0.523437500000093
40
0.523437500000093
40
0.527343750000093
40
0.527343750000093
40
0.531250000000094
40
0.531250000000094
40
0.539062500000095
40
0.539062500000095
40
0.542968750000096
40
0.542968750000096
40
0.546875000000096
40
0.546875000000096
40
0.562500000000097
40
0.562500000000097
40
0.570312500000096
40
0.570312500000096
40
0.578125000000096
40
0.578125000000096
40
0.593750000000095
40
0.593750000000095
40
0.609375000000094
40
0.609375000000094
40
0.625000000000093
40
0.625000000000093
40
0.640625000000093
40
0.640625000000093
40
0.656250000000092
40
0.656250000000092
40
0.687500000000092
40
0.687500000000092
40
0.718750000000092
40
0.718750000000092
40
0.734375000000091
40
0.734375000000091
40
0.75000000000009
40
0.75000000000009
40
0.757812500000089
40
0.757812500000089
40
0.761718750000087
40
0.761718750000087
40
0.765625000000086
40
0.765625000000086
40
0.773437500000084
40
0.773437500000084
40
0.777343750000082
40
0.777343750000082
40
0.781250000000081
40
0.781250000000081
40
0.789062500000078
40
0.789062500000078
40
0.796875000000076
40
0.81250000000007
40
0.81250000000007
40
0.843750000000059
40
0.843750000000059
40
0.859375000000052
40
0.859375000000052
40
0.875000000000045
40
0.875000000000045
40
0.937500000000023
40
0.937500000000023
40
1
40
1
40
1
40
1
41
1
10
5.01990562444149
20
-0.629838249679267
30
0
41
1
10
4.88233905037728
20
-0.65694104053614
30
0
41
1
10
4.74564151185768
20
-0.684346017485609
30
0
41
1
10
4.47381701829482
20
-0.738022219278633
30
0
41
1
10
4.33868958598538
20
-0.764293832539494
30
0
41
1
10
4.06977422834009
20
-0.813800785122538
30
0
41
1
10
3.93598554036401
20
-0.837040589540038
30
0
41
1
10
3.73610130856466
20
-0.868030494402774
30
0
41
1
10
3.66956491193736
20
-0.877716816711995
30
0
41
1
10
3.53743016149858
20
-0.895402881372121
30
0
41
1
10
3.47175097674278
20
-0.903416560581604
30
0
41
1
10
3.2758878382499
20
-0.924512757625592
30
0
41
1
10
3.14686300004831
20
-0.934698410001573
30
0
41
1
10
2.95587205384893
20
-0.941769248686995
30
0
41
1
10
2.89263547693184
20
-0.942749978573943
30
0
41
1
10
2.76712152085724
20
-0.941341807581836
30
0
41
1
10
2.70484161500107
20
-0.93896125872692
30
0
41
1
10
2.61229442112324
20
-0.932157177556263
30
0
41
1
10
2.5815917737784
20
-0.929347082218328
30
0
41
1
10
2.5205244829657
20
-0.922460790745902
30
0
41
1
10
2.49010816708122
20
-0.918377372494689
30
0
41
1
10
2.39982449533957
20
-0.903904850258328
30
0
41
1
10
2.34123407751031
20
-0.891436961083286
30
0
41
1
10
2.27106664358459
20
-0.870554591071283
30
0
41
1
10
2.2571689484225
20
-0.866098956188381
30
0
41
1
10
2.22986665769011
20
-0.856612432146875
30
0
41
1
10
2.21646368334063
20
-0.851583628621881
30
0
41
1
10
2.17710612133919
20
-0.835527962308703
30
0
41
1
10
2.15198391424528
20
-0.82355089986811
30
0
41
1
10
2.11665081194369
20
-0.802974822678834
30
0
41
1
10
2.10526851006156
20
-0.795677327548816
30
0
41
1
10
2.08893122512626
20
-0.783926659374373
30
0
41
1
10
2.08360869735731
20
-0.77987515999456
30
0
41
1
10
2.07324268330871
20
-0.771469865359165
30
0
41
1
10
2.06819036866992
20
-0.767106779146815
30
0
41
1
10
2.05365460110613
20
-0.753640378529269
30
0
41
1
10
2.04474612887947
20
-0.744132876523196
30
0
41
1
10
2.03282986280635
20
-0.72891101696203
30
0
41
1
10
2.02909988041077
20
-0.723676349104153
30
0
41
1
10
2.02218635367228
20
-0.712848084111329
30
0
41
1
10
2.01899327866579
20
-0.707231766817671
30
0
41
1
10
2.01046862462636
20
-0.690034814532652
30
0
41
1
10
2.00615035136215
20
-0.678068108311095
30
0
41
1
10
2.0020266786035
20
-0.659279663891652
30
0
41
1
10
2.00104537113128
20
-0.652876849669639
30
0
41
1
10
1.99993449084616
20
-0.639773079348856
30
0
41
1
10
1.99980871979608
20
-0.633026072111875
30
0
41
1
10
2.00079642166048
20
-0.612694175477543
30
0
41
1
10
2.00324147659506
20
-0.599064657036109
30
0
41
1
10
2.00944470817427
20
-0.578541701605047
30
0
41
1
10
2.01193553949446
20
-0.571687557949986
30
0
41
1
10
2.01774442977032
20
-0.557958112678818
30
0
41
1
10
2.02107610846997
20
-0.551065477224654
30
0
41
1
10
2.03202777659774
20
-0.53079718723157
30
0
41
1
10
2.04065046673108
20
-0.517683201288293
30
0
41
1
10
2.05519534411283
20
-0.498515991046787
30
0
41
1
10
2.06031367130294
20
-0.492211271781514
30
0
41
1
10
2.07104360509399
20
-0.479758733064699
30
0
41
1
10
2.0766741606439
20
-0.473591953664851
30
0
41
1
10
2.10567620232922
20
-0.443415477239426
30
0
41
1
10
2.1315232061753
20
-0.421288215024532
30
0
41
1
10
2.17280326676942
20
-0.390073611928671
30
0
41
1
10
2.18699425585666
20
-0.380007153823101
30
0
41
1
10
2.21609886639772
20
-0.360450861360675
30
0
41
1
10
2.23101332192436
20
-0.350964590423871
30
0
41
1
10
2.27615807242915
20
-0.323560887913544
30
0
41
1
10
2.30696922480482
20
-0.306558271076881
30
0
41
1
10
2.36961811082591
20
-0.274400911321806
30
0
41
1
10
2.4014600103886
20
-0.259253196782936
30
0
41
1
10
2.46594219675563
20
-0.230415965905536
30
0
41
1
10
2.49858430037824
20
-0.216729557543601
30
0
41
1
10
2.56451839991618
20
-0.190561249272605
30
0
41
1
10
2.5978112085752
20
-0.178080727874004
30
0
41
1
10
2.66494279880331
20
-0.154146308200836
30
0
41
1
10
2.69881926231295
20
-0.142681608507473
30
0
41
1
10
2.8008189666092
20
-0.109740321618602
30
0
41
1
10
2.86931776555645
20
-0.089692489619182
30
0
41
1
10
3.00708666896873
20
-0.0525733846433241
30
0
41
1
10
3.07635865449998
20
-0.0355091194387001
30
0
41
1
10
3.18074536324249
20
-0.011771584992573
30
0
41
1
10
3.21562122268469
20
-0.0041707613673907
30
0
41
1
10
3.28552563973733
20
0.0104359699440693
30
0
41
1
10
3.32055785494145
20
0.0174273292820715
30
0
41
1
10
3.37318150959527
20
0.0276220521245421
30
0
41
1
10
3.3907331578564
20
0.0309906468136774
30
0
41
1
10
3.41706419082004
20
0.0359615996064804
30
0
41
1
10
3.42584129394524
20
0.0376173328855316
30
0
41
1
10
3.44342067443699
20
0.0406276677522897
30
0
41
1
10
3.45222548481854
20
0.0419519943521607
30
0
41
1
10
3.47875656722113
20
0.0445308052154019
30
0
41
1
10
3.49660922997055
20
0.0442749670815772
30
0
41
1
10
3.52366271442674
20
0.0406106933710362
30
0
41
1
10
3.53269402232763
20
0.0388458762060395
30
0
41
1
10
3.55049997435287
20
0.0347588335801277
30
0
41
1
10
3.55933584642122
20
0.0324548805191114
30
0
41
1
10
3.58582091093319
20
0.0254563123118885
30
0
41
1
10
3.6034548971061
20
0.0207034750899879
30
0
41
1
10
3.63876879199944
20
0.0113782947813661
30
0
41
1
10
3.69176868583165
20
-0.0024934501506664
30
0
41
1
10
3.74478854726314
20
-0.0162781489280803
30
0
41
1
10
3.85082286761309
20
-0.0438558191966081
30
0
41
1
10
3.92151459568817
20
-0.0622155007778815
30
0
41
1
10
4.0275839623695
20
-0.0896067632929203
30
0
41
1
10
4.06296061951142
20
-0.0986753168112955
30
0
41
1
10
4.13365535976655
20
-0.116933399772449
30
0
41
1
10
4.16895371536484
20
-0.126161453394133
30
0
41
1
10
4.34457537789214
20
-0.174497289822796
30
0
41
1
10
4.48236683202117
20
-0.219954599869396
30
0
41
1
10
4.75379697381086
20
-0.319433828389975
30
0
41
1
10
4.88741905263646
20
-0.373485020264099
30
0
41
1
10
5.01990562444161
20
-0.428599974442193
30
0
0
LINE
5
7D
100
AcDbEntity
8
80
62
256
6
ByLayer
370
18
48
1
60
0
100
AcDbLine
10
0
20
0
30
0
11
-5
21
0
31
0
39
0
210
0
220
0
230
1
0
LINE
5
7E
100
AcDbEntity
8
4
62
256
6
ByLayer
370
18
48
0.05
60
0
100
AcDbLine
10
-5
20
0
30
0
11
29
21
0
31
0
39
0
210
0
220
0
230
1
0
LINE
5
80
100
AcDbEntity
8
81
62
256
6
ByLayer
370
18
48
1
60
0
100
AcDbLine
10
24
20
0
30
0
11
29
21
0
31
0
39
0
210
0
220
0
230
1
0
LINE
5
81
100
AcDbEntity
8
SK4
62
256
6
ByLayer
370
18
48
0.05
60
0
100
AcDbLine
10
-27
20
0
30
0
11
29
21
0
31
0
39
0
210
0
220
0
230
1
0
LINE
5
83
100
AcDbEntity
8
1
62
256
6
ByLayer
370
18
48
1
60
0
100
AcDbLine
10
0
20
0.95
30
0
11
0
21
-0.95
31
0
39
0
210
0
220
0
230
1
0
LINE
5
84
100
AcDbEntity
8
1
62
256
6
ByLayer
370
18
48
1
60
0
100
AcDbLine
10
23.486264
20
-0.95
30
0
11
23.486264
21
-0.551675
31
0
39
0
210
0
220
0
230
1
0
LINE
5
85
100
AcDbEntity
8
1
62
256
6
ByLayer
370
18
48
1
60
0
100
AcDbLine
10
23.486264
20
0.95
30
0
11
23.486264
21
0.919524
31
0
39
0
210
0
220
0
230
1
0
LINE
5
86
100
AcDbEntity
8
1
62
256
6
ByLayer
370
18
48
1
60
0
100
AcDbLine
10
0.1
20
-0.94123
30
0
11
0.1
21
0.94123
31
0
39
0
210
0
220
0
230
1
0
LINE
5
87
100
AcDbEntity
8
SK1
62
256
6
ByLayer
370
18
48
1
60
0
100
AcDbLine
10
0
20
0.95
30
0
11
0
21
-0.95
31
0
39
0
210
0
220
0
230
1
0
LINE
5
89
100
AcDbEntity
8
SK1
62
256
6
ByLayer
370
18
48
1
60
0
100
AcDbLine
10
-22
20
-0.65
30
0
11
-22
21
0.65
31
0
39
0
210
0
220
0
230
1
0
LINE
5
8A
100
AcDbEntity
8
SK1
62
256
6
ByLayer
370
18
48
1
60
0
100
AcDbLine
10
-21.7
20
-0.95
30
0
11
-21.7
21
0.95
31
0
39
0
210
0
220
0
230
1
0
LINE
5
8B
100
AcDbEntity
8
1
62
256
6
ByLayer
370
18
48
1
60
0
100
AcDbLine
10
24
20
0
30
0
11
23.486264
21
0.95
31
0
39
0
210
0
220
0
230
1
0
LINE
5
8C
100
AcDbEntity
8
1
62
256
6
ByLayer
370
18
48
1
60
0
100
AcDbLine
10
23.486264
20
-0.95
30
0
11
24
21
0
31
0
39
0
210
0
220
0
230
1
0
LINE
5
8D
100
AcDbEntity
8
1
62
256
6
ByLayer
370
18
48
1
60
0
100
AcDbLine
10
0.1
20
0.94123
30
0
11
0
21
0.95
31
0
39
0
210
0
220
0
230
1
0
LINE
5
8E
100
AcDbEntity
8
1
62
256
6
ByLayer
370
18
48
1
60
0
100
AcDbLine
10
0
20
-0.95
30
0
11
0.1
21
-0.94123
31
0
39
0
210
0
220
0
230
1
0
LINE
5
8F
100
AcDbEntity
8
1
62
256
6
ByLayer
370
18
48
1
60
0
100
AcDbLine
10
0.1
20
-0.94123
30
0
11
2.890767
21
-0.942277
31
0
39
0
210
0
220
0
230
1
0
LINE
5
90
100
AcDbEntity
8
1
62
256
6
ByLayer
370
18
48
1
60
0
100
AcDbLine
10
6.903585
20
-0.943781
30
0
11
8.966134
21
-0.944555
31
0
39
0
210
0
220
0
230
1
0
LINE
5
91
100
AcDbEntity
8
1
62
256
6
ByLayer
370
18
48
1
60
0
100
AcDbLine
10
12.287212
20
-0.9458
30
0
11
14.350283
21
-0.946574
31
0
39
0
210
0
220
0
230
1
0
LINE
5
92
100
AcDbEntity
8
1
62
256
6
ByLayer
370
18
48
1
60
0
100
AcDbLine
10
17.670303
20
-0.947819
30
0
11
19.734162
21
-0.948593
31
0
39
0
210
0
220
0
230
1
0
LINE
5
93
100
AcDbEntity
8
1
62
256
6
ByLayer
370
18
48
1
60
0
100
AcDbLine
10
23.051166
20
-0.949837
30
0
11
23.486264
21
-0.95
31
0
39
0
210
0
220
0
230
1
0
LINE
5
94
100
AcDbEntity
8
1
62
256
6
ByLayer
370
18
48
1
60
0
100
AcDbLine
10
23.486264
20
0.95
30
0
11
23.051166
21
0.949837
31
0
39
0
210
0
220
0
230
1
0
LINE
5
95
100
AcDbEntity
8
1
62
256
6
ByLayer
370
18
48
1
60
0
100
AcDbLine
10
19.734162
20
0.948593
30
0
11
17.670303
21
0.947819
31
0
39
0
210
0
220
0
230
1
0
LINE
5
96
100
AcDbEntity
8
1
62
256
6
ByLayer
370
18
48
1
60
0
100
AcDbLine
10
14.350283
20
0.946574
30
0
11
12.287212
21
0.9458
31
0
39
0
210
0
220
0
230
1
0
LINE
5
97
100
AcDbEntity
8
1
62
256
6
ByLayer
370
18
48
1
60
0
100
AcDbLine
10
8.966134
20
0.944555
30
0
11
6.903585
21
0.943781
31
0
39
0
210
0
220
0
230
1
0
LINE
5
98
100
AcDbEntity
8
1
62
256
6
ByLayer
370
18
48
1
60
0
100
AcDbLine
10
2.890767
20
0.942277
30
0
11
0.1
21
0.94123
31
0
39
0
210
0
220
0
230
1
0
LINE
5
99
100
AcDbEntity
8
SK1
62
256
6
ByLayer
370
18
48
1
60
0
100
AcDbLine
10
-21.7
20
-0.95
30
0
11
0
21
-0.95
31
0
39
0
210
0
220
0
230
1
0
LINE
5
9A
100
AcDbEntity
8
SK1
62
256
6
ByLayer
370
18
48
1
60
0
100
AcDbLine
10
0
20
0.95
30
0
11
-21.7
21
0.95
31
0
39
0
210
0
220
0
230
1
0
LINE
5
9B
100
AcDbEntity
8
SK1
62
256
6
ByLayer
370
18
48
1
60
0
100
AcDbLine
10
-22
20
-0.65
30
0
11
-21.7
21
-0.95
31
0
39
0
210
0
220
0
230
1
0
LINE
5
9C
100
AcDbEntity
8
SK1
62
256
6
ByLayer
370
18
48
1
60
0
100
AcDbLine
10
-21.7
20
0.95
30
0
11
-22
21
0.65
31
0
39
0
210
0
220
0
230
1
0
LINE
5
9D
100
AcDbEntity
8
SK2
62
256
6
ByLayer
370
13
48
1
60
0
100
AcDbLine
10
-28.5
20
26.982855
30
0
11
-28.5
21
-8.45
31
0
39
0
210
0
220
0
230
1
0
LINE
5
9F
100
AcDbEntity
8
SK2
62
256
6
ByLayer
370
13
48
1
60
0
100
AcDbLine
10
-23.5875
20
0.95
30
0
11
-30.5
21
0.95
31
0
39
0
210
0
220
0
230
1
0
LINE
5
A0
100
AcDbEntity
8
SK2
62
256
6
ByLayer
370
13
48
1
60
0
100
AcDbLine
10
-23.5875
20
-0.95
30
0
11
-30.5
21
-0.95
31
0
39
0
210
0
220
0
230
1
0
LINE
5
A1
100
AcDbEntity
8
1
62
256
6
ByLayer
370
18
48
1
60
1
100
AcDbLine
10
-28.5
20
0.95
30
0
11
-28.960784
21
4.449998
31
0
39
0
210
0
220
0
230
1
0
LINE
5
A2
100
AcDbEntity
8
1
62
256
6
ByLayer
370
18
48
1
60
1
100
AcDbLine
10
-28.960784
20
4.449998
30
0
11
-28.039216
21
4.450002
31
0
39
0
210
0
220
0
230
1
0
LINE
5
A3
100
AcDbEntity
8
1
62
256
6
ByLayer
370
18
48
1
60
1
100
AcDbLine
10
-28.039216
20
4.450002
30
0
11
-28.5
21
0.95
31
0
39
0
210
0
220
0
230
1
0
LINE
5
A4
100
AcDbEntity
8
1
62
256
6
ByLayer
370
18
48
1
60
1
100
AcDbLine
10
-28.5
20
-0.95
30
0
11
-28.039216
21
-4.449998
31
0
39
0
210
0
220
0
230
1
0
LINE
5
A5
100
AcDbEntity
8
1
62
256
6
ByLayer
370
18
48
1
60
1
100
AcDbLine
10
-28.039216
20
-4.449998
30
0
11
-28.960784
21
-4.450002
31
0
39
0
210
0
220
0
230
1
0
LINE
5
A6
100
AcDbEntity
8
1
62
256
6
ByLayer
370
18
48
1
60
1
100
AcDbLine
10
-28.960784
20
-4.450002
30
0
11
-28.5
21
-0.95
31
0
39
0
210
0
220
0
230
1
0
LINE
5
A7
100
AcDbEntity
8
2
62
256
6
ByLayer
370
13
48
1
60
0
100
AcDbLine
10
32.986264
20
26.982855
30
0
11
32.986264
21
-8.45
31
0
39
0
210
0
220
0
230
1
0
LINE
5
A9
100
AcDbEntity
8
2
62
256
6
ByLayer
370
13
48
1
60
0
100
AcDbLine
10
25.073764
20
0.95
30
0
11
34.986264
21
0.95
31
0
39
0
210
0
220
0
230
1
0
LINE
5
AA
100
AcDbEntity
8
2
62
256
6
ByLayer
370
13
48
1
60
0
100
AcDbLine
10
25.073764
20
-0.95
30
0
11
34.986264
21
-0.95
31
0
39
0
210
0
220
0
230
1
0
LINE
5
AB
100
AcDbEntity
8
1
62
256
6
ByLayer
370
18
48
1
60
1
100
AcDbLine
10
32.986264
20
0.95
30
0
11
32.52548
21
4.449998
31
0
39
0
210
0
220
0
230
1
0
LINE
5
AC
100
AcDbEntity
8
1
62
256
6
ByLayer
370
18
48
1
60
1
100
AcDbLine
10
32.52548
20
4.449998
30
0
11
33.447048
21
4.450002
31
0
39
0
210
0
220
0
230
1
0
LINE
5
AD
100
AcDbEntity
8
1
62
256
6
ByLayer
370
18
48
1
60
1
100
AcDbLine
10
33.447048
20
4.450002
30
0
11
32.986264
21
0.95
31
0
39
0
210
0
220
0
230
1
0
LINE
5
AE
100
AcDbEntity
8
1
62
256
6
ByLayer
370
18
48
1
60
1
100
AcDbLine
10
32.986264
20
-0.95
30
0
11
33.447048
21
-4.449998
31
0
39
0
210
0
220
0
230
1
0
LINE
5
AF
100
AcDbEntity
8
1
62
256
6
ByLayer
370
18
48
1
60
1
100
AcDbLine
10
33.447048
20
-4.449998
30
0
11
32.52548
21
-4.450002
31
0
39
0
210
0
220
0
230
1
0
LINE
5
B0
100
AcDbEntity
8
1
62
256
6
ByLayer
370
18
48
1
60
1
100
AcDbLine
10
32.52548
20
-4.450002
30
0
11
32.986264
21
-0.95
31
0
39
0
210
0
220
0
230
1
0
LINE
5
B1
100
AcDbEntity
8
2
62
256
6
ByLayer
370
13
48
1
60
0
100
AcDbLine
10
24.755136
20
-1.396397
30
0
11
35.416232
21
-21.110889
31
0
39
0
210
0
220
0
230
1
0
LINE
5
B2
100
AcDbEntity
8
2
62
256
6
ByLayer
370
13
48
1
60
0
100
AcDbLine
10
24.755136
20
1.396397
30
0
11
35.416232
21
21.110889
31
0
39
0
210
0
220
0
230
1
0
LINE
5
B3
100
AcDbEntity
8
1
62
256
6
ByLayer
370
18
48
1
60
1
100
AcDbLine
10
34.464879
20
-19.351649
30
0
11
37.239971
21
-17.169637
31
0
39
0
210
0
220
0
230
1
0
LINE
5
B4
100
AcDbEntity
8
1
62
256
6
ByLayer
370
18
48
1
60
1
100
AcDbLine
10
37.239971
20
-17.169637
30
0
11
37.710161
21
-17.962233
31
0
39
0
210
0
220
0
230
1
0
LINE
5
B5
100
AcDbEntity
8
1
62
256
6
ByLayer
370
18
48
1
60
1
100
AcDbLine
10
37.710161
20
-17.962233
30
0
11
34.464879
21
-19.351649
31
0
39
0
210
0
220
0
230
1
0
LINE
5
B6
100
AcDbEntity
8
1
62
256
6
ByLayer
370
18
48
1
60
1
100
AcDbLine
10
34.464879
20
19.351649
30
0
11
37.710158
21
17.962234
31
0
39
0
210
0
220
0
230
1
0
LINE
5
B7
100
AcDbEntity
8
1
62
256
6
ByLayer
370
18
48
1
60
1
100
AcDbLine
10
37.710158
20
17.962234
30
0
11
37.239974
21
17.169635
31
0
39
0
210
0
220
0
230
1
0
LINE
5
B8
100
AcDbEntity
8
1
62
256
6
ByLayer
370
18
48
1
60
1
100
AcDbLine
10
37.239974
20
17.169635
30
0
11
34.464879
21
19.351649
31
0
39
0
210
0
220
0
230
1
0
LINE
5
D1
100
AcDbEntity
8
1
62
256
6
ByLayer
370
18
48
1
60
1
100
AcDbLine
10
-28.5
20
0.95
30
0
11
-28.960784
21
4.449998
31
0
39
0
210
0
220
0
230
1
0
LINE
5
D2
100
AcDbEntity
8
1
62
256
6
ByLayer
370
18
48
1
60
1
100
AcDbLine
10
-28.960784
20
4.449998
30
0
11
-28.039216
21
4.450002
31
0
39
0
210
0
220
0
230
1
0
LINE
5
D3
100
AcDbEntity
8
1
62
256
6
ByLayer
370
18
48
1
60
1
100
AcDbLine
10
-28.039216
20
4.450002
30
0
11
-28.5
21
0.95
31
0
39
0
210
0
220
0
230
1
0
LINE
5
D5
100
AcDbEntity
8
1
62
256
6
ByLayer
370
18
48
1
60
1
100
AcDbLine
10
-28.5
20
-0.95
30
0
11
-28.039216
21
-4.449998
31
0
39
0
210
0
220
0
230
1
0
LINE
5
D6
100
AcDbEntity
8
1
62
256
6
ByLayer
370
18
48
1
60
1
100
AcDbLine
10
-28.039216
20
-4.449998
30
0
11
-28.960784
21
-4.450002
31
0
39
0
210
0
220
0
230
1
0
LINE
5
D7
100
AcDbEntity
8
1
62
256
6
ByLayer
370
18
48
1
60
1
100
AcDbLine
10
-28.960784
20
-4.450002
30
0
11
-28.5
21
-0.95
31
0
39
0
210
0
220
0
230
1
0
LINE
5
DB
100
AcDbEntity
8
1
62
256
6
ByLayer
370
18
48
1
60
1
100
AcDbLine
10
32.986264
20
0.95
30
0
11
32.52548
21
4.449998
31
0
39
0
210
0
220
0
230
1
0
LINE
5
DC
100
AcDbEntity
8
1
62
256
6
ByLayer
370
18
48
1
60
1
100
AcDbLine
10
32.52548
20
4.449998
30
0
11
33.447048
21
4.450002
31
0
39
0
210
0
220
0
230
1
0
LINE
5
DD
100
AcDbEntity
8
1
62
256
6
ByLayer
370
18
48
1
60
1
100
AcDbLine
10
33.447048
20
4.450002
30
0
11
32.986264
21
0.95
31
0
39
0
210
0
220
0
230
1
0
LINE
5
DF
100
AcDbEntity
8
1
62
256
6
ByLayer
370
18
48
1
60
1
100
AcDbLine
10
32.986264
20
-0.95
30
0
11
33.447048
21
-4.449998
31
0
39
0
210
0
220
0
230
1
0
LINE
5
E0
100
AcDbEntity
8
1
62
256
6
ByLayer
370
18
48
1
60
1
100
AcDbLine
10
33.447048
20
-4.449998
30
0
11
32.52548
21
-4.450002
31
0
39
0
210
0
220
0
230
1
0
LINE
5
E1
100
AcDbEntity
8
1
62
256
6
ByLayer
370
18
48
1
60
1
100
AcDbLine
10
32.52548
20
-4.450002
30
0
11
32.986264
21
-0.95
31
0
39
0
210
0
220
0
230
1
0
LINE
5
E4
100
AcDbEntity
8
1
62
256
6
ByLayer
370
18
48
1
60
1
100
AcDbLine
10
34.464879
20
-19.351649
30
0
11
37.239971
21
-17.169637
31
0
39
0
210
0
220
0
230
1
0
LINE
5
E5
100
AcDbEntity
8
1
62
256
6
ByLayer
370
18
48
1
60
1
100
AcDbLine
10
37.239971
20
-17.169637
30
0
11
37.710161
21
-17.962233
31
0
39
0
210
0
220
0
230
1
0
LINE
5
E6
100
AcDbEntity
8
1
62
256
6
ByLayer
370
18
48
1
60
1
100
AcDbLine
10
37.710161
20
-17.962233
30
0
11
34.464879
21
-19.351649
31
0
39
0
210
0
220
0
230
1
0
LINE
5
E8
100
AcDbEntity
8
1
62
256
6
ByLayer
370
18
48
1
60
1
100
AcDbLine
10
34.464879
20
19.351649
30
0
11
37.710158
21
17.962234
31
0
39
0
210
0
220
0
230
1
0
LINE
5
E9
100
AcDbEntity
8
1
62
256
6
ByLayer
370
18
48
1
60
1
100
AcDbLine
10
37.710158
20
17.962234
30
0
11
37.239974
21
17.169635
31
0
39
0
210
0
220
0
230
1
0
LINE
5
EA
100
AcDbEntity
8
1
62
256
6
ByLayer
370
18
48
1
60
1
100
AcDbLine
10
37.239974
20
17.169635
30
0
11
34.464879
21
19.351649
31
0
39
0
210
0
220
0
230
1
0
MTEXT
5
CD
100
AcDbEntity
8
SK2
62
256
6
ByLayer
370
18
48
1
60
0
100
AcDbMText
10
-29.841114
20
12.608437
30
0
210
0
220
0
230
1
1
%%c
40
3
41
0
44
1.084337
50
90
71
7
72
5
7
iso_b_vert
0
MTEXT
5
D0
100
AcDbEntity
8
SK2
62
256
6
ByLayer
370
18
48
1
60
0
100
AcDbMText
10
-29.841114
20
18.585
30
0
210
0
220
0
230
1
1
\W0.6864;1.900
40
3
41
0
44
1.084337
50
90
71
7
72
5
7
iso_b_vert
0
MTEXT
5
D9
100
AcDbEntity
8
2
62
256
6
ByLayer
370
18
48
1
60
0
100
AcDbMText
10
31.64515
20
12.608437
30
0
210
0
220
0
230
1
1
%%c
40
3
41
0
44
1.084337
50
90
71
7
72
5
7
iso_b_vert
0
MTEXT
5
DA
100
AcDbEntity
8
2
62
256
6
ByLayer
370
18
48
1
60
0
100
AcDbMText
10
31.64515
20
18.585
30
0
210
0
220
0
230
1
1
\W0.6864;1.900
40
3
41
0
44
1.084337
50
90
71
7
72
5
7
iso_b_vert
0
MTEXT
5
E3
100
AcDbEntity
8
2
62
256
6
ByLayer
370
18
48
1
60
0
100
AcDbMText
10
43.092229
20
-2.114886
30
0
210
0
220
0
230
1
1
\W0.6008;118%%d
40
3
41
0
44
1.084337
50
0
71
7
72
5
7
iso_b_vert
0
MTEXT
5
EC
100
AcDbEntity
8
SK6
62
256
6
ByLayer
370
18
48
1
60
0
100
AcDbMText
10
-5.507199
20
-67.114886
30
0
210
0
220
0
230
1
1
\W0.7338;R0031.9
40
3
41
0
44
1.084337
50
0
71
7
72
5
7
iso_b_vert
0
HATCH
5
D4
100
AcDbEntity
8
SK2
62
256
6
ByLayer
370
13
48
1
60
0
100
AcDbHatch
10
0
20
0
30
0
210
0
220
0
230
1
2
ANSI31
70
0
71
0
91
1
92
5
93
3
72
1
10
-28.5
20
0.949999999999989
11
-28.9607837415528
21
4.4499983074468
72
1
10
-28.9607837415528
20
4.4499983074468
11
-28.0392162584472
21
4.45000169255317
72
1
10
-28.0392162584472
20
4.45000169255317
11
-28.5
21
0.949999999999989
97
0
75
0
76
1
52
0
41
0.0062
77
0
78
1
53
45
43
0
44
0
45
-0.0139193969876572
46
0.0139193969876572
79
0
47
0
98
1
10
0
20
0
0
HATCH
5
D8
100
AcDbEntity
8
SK2
62
256
6
ByLayer
370
13
48
1
60
0
100
AcDbHatch
10
0
20
0
30
0
210
0
220
0
230
1
2
ANSI31
70
0
71
0
91
1
92
5
93
3
72
1
10
-28.5
20
-0.950000000000017
11
-28.0392162584472
21
-4.44999830744683
72
1
10
-28.0392162584472
20
-4.44999830744683
11
-28.9607837415528
21
-4.4500016925532
72
1
10
-28.9607837415528
20
-4.4500016925532
11
-28.5
21
-0.950000000000017
97
0
75
0
76
1
52
0
41
0.0062
77
0
78
1
53
45
43
0
44
0
45
-0.0139193969876572
46
0.0139193969876572
79
0
47
0
98
1
10
0
20
0
0
HATCH
5
DE
100
AcDbEntity
8
2
62
256
6
ByLayer
370
13
48
1
60
0
100
AcDbHatch
10
0
20
0
30
0
210
0
220
0
230
1
2
ANSI31
70
0
71
0
91
1
92
5
93
3
72
1
10
32.9862641707314
20
0.949999999999989
11
32.5254804291787
21
4.4499983074468
72
1
10
32.5254804291787
20
4.4499983074468
11
33.4470479122842
21
4.45000169255317
72
1
10
33.4470479122842
20
4.45000169255317
11
32.9862641707314
21
0.949999999999989
97
0
75
0
76
1
52
0
41
0.0062
77
0
78
1
53
45
43
0
44
0
45
-0.0139193969876572
46
0.0139193969876572
79
0
47
0
98
1
10
0
20
0
0
HATCH
5
E2
100
AcDbEntity
8
2
62
256
6
ByLayer
370
13
48
1
60
0
100
AcDbHatch
10
0
20
0
30
0
210
0
220
0
230
1
2
ANSI31
70
0
71
0
91
1
92
5
93
3
72
1
10
32.9862641707314
20
-0.950000000000017
11
33.4470479122842
21
-4.44999830744683
72
1
10
33.4470479122842
20
-4.44999830744683
11
32.5254804291787
21
-4.4500016925532
72
1
10
32.5254804291787
20
-4.4500016925532
11
32.9862641707314
21
-0.950000000000017
97
0
75
0
76
1
52
0
41
0.0062
77
0
78
1
53
45
43
0
44
0
45
-0.0139193969876572
46
0.0139193969876572
79
0
47
0
98
1
10
0
20
0
0
HATCH
5
E7
100
AcDbEntity
8
2
62
256
6
ByLayer
370
13
48
1
60
0
100
AcDbHatch
10
0
20
0
30
0
210
0
220
0
230
1
2
ANSI31
70
0
71
0
91
1
92
5
93
3
72
1
10
34.4648791987521
20
-19.3516485952884
11
37.2399711078383
21
-17.1696369764526
72
1
10
37.2399711078383
20
-17.1696369764526
11
37.7101613929251
21
-17.9622325364572
72
1
10
37.7101613929251
20
-17.9622325364572
11
34.4648791987521
21
-19.3516485952884
97
0
75
0
76
1
52
0
41
0.0062
77
0
78
1
53
45
43
0
44
0
45
-0.0139193969876572
46
0.0139193969876572
79
0
47
0
98
1
10
0
20
0
0
HATCH
5
EB
100
AcDbEntity
8
2
62
256
6
ByLayer
370
13
48
1
60
0
100
AcDbHatch
10
0
20
0
30
0
210
0
220
0
230
1
2
ANSI31
70
0
71
0
91
1
92
5
93
3
72
1
10
34.4648791987519
20
19.3516485952884
11
37.7101584815525
21
17.9622342635519
72
1
10
37.7101584815525
20
17.9622342635519
11
37.2399740192105
21
17.169635249358
72
1
10
37.2399740192105
20
17.169635249358
11
34.4648791987519
21
19.3516485952884
97
0
75
0
76
1
52
0
41
0.0062
77
0
78
1
53
45
43
0
44
0
45
-0.0139193969876572
46
0.0139193969876572
79
0
47
0
98
1
10
0
20
0
0
DIMENSION
5
EF
100
AcDbEntity
8
SK2
62
256
6
ByLayer
370
18
48
1
60
0
100
AcDbDimension
2
_U0
10
24
20
-48.893551
30
0
11
1
21
-48.893551
31
0
70
32
71
1
72
1
41
1
210
0
220
0
230
1
3
Standard
100
AcDbAlignedDimension
13
-22
23
-0.95
33
0
14
24
24
0
34
0
50
0
100
AcDbRotatedDimension
1001
ACAD
1000
DSTYLE
1002
{
1070
   371
1070
    13
1070
   372
1070
    13
1070
     3
1000

1070
   170
1070
     0
1070
   144
1040
1.0
1070
   277
1070
     2
1070
   284
1070
     8
1070
   278
1070
    46
1070
   146
1040
1.166667
1070
   345
1005
16
1070
   347
1005
16
1070
   346
1005
16
1070
   344
1005
0
1070
   343
1005
0
1070
   172
1070
     1
1070
    76
1070
     0
1070
    75
1070
     0
1070
   282
1070
     0
1070
   281
1070
     0
1070
    71
1070
     0
1070
    74
1070
     0
1070
   279
1070
     0
1070
   173
1070
     1
1070
   340
1005
CE
1070
   271
1070
     2
1070
   272
1070
     3
1070
    77
1070
     1
1070
    73
1070
     1
1070
   171
1070
     3
1070
   274
1070
     4
1070
   177
1070
     2
1070
   176
1070
     2
1070
   178
1070
     2
1070
    78
1070
     8
1070
    48
1040
-0.1
1070
    41
1040
3.5
1070
   147
1040
1.5
1070
    42
1040
1.5875
1070
    44
1040
2.0
1070
   140
1040
3.0
1002
}
1001
ACAD_DSTYLE_DIM_LINETYPE
1070
   380
1005
16
1001
ACAD_DSTYLE_DIM_EXT1_LINETYPE
1070
   381
1005
16
1001
ACAD_DSTYLE_DIM_EXT2_LINETYPE
1070
   382
1005
16
0
DIMENSION
5
108
100
AcDbEntity
8
2
62
256
6
ByLayer
370
18
48
1
60
0
100
AcDbDimension
2
_U1
10
2
20
-38.893551
30
0
11
13
21
-38.893551
31
0
70
32
71
1
72
1
41
1
210
0
220
0
230
1
3
Standard
100
AcDbAlignedDimension
13
24
23
0
33
0
14
2
24
-0.95
34
0
50
0
100
AcDbRotatedDimension
1001
ACAD
1000
DSTYLE
1002
{
1070
   371
1070
    13
1070
   372
1070
    13
1070
     3
1000

1070
   170
1070
     0
1070
   144
1040
1.0
1070
   277
1070
     2
1070
   284
1070
     8
1070
   278
1070
    46
1070
   146
1040
1.166667
1070
   345
1005
16
1070
   347
1005
16
1070
   346
1005
16
1070
   344
1005
0
1070
   343
1005
0
1070
   172
1070
     1
1070
    76
1070
     0
1070
    75
1070
     0
1070
   282
1070
     0
1070
   281
1070
     0
1070
    71
1070
     0
1070
    74
1070
     0
1070
   279
1070
     0
1070
   173
1070
     1
1070
   340
1005
CE
1070
   271
1070
     2
1070
   272
1070
     3
1070
    77
1070
     1
1070
    73
1070
     1
1070
   171
1070
     3
1070
   274
1070
     4
1070
   177
1070
     2
1070
   176
1070
     2
1070
   178
1070
     2
1070
    78
1070
     8
1070
    48
1040
-0.1
1070
    41
1040
3.5
1070
   147
1040
1.5
1070
    42
1040
1.5875
1070
    44
1040
2.0
1070
   140
1040
3.0
1002
}
1001
ACAD_DSTYLE_DIM_LINETYPE
1070
   380
1005
16
1001
ACAD_DSTYLE_DIM_EXT1_LINETYPE
1070
   381
1005
16
1001
ACAD_DSTYLE_DIM_EXT2_LINETYPE
1070
   382
1005
16
0
DIMENSION
5
120
100
AcDbEntity
8
SK2
62
256
6
ByLayer
370
18
48
1
60
0
100
AcDbDimension
2
_U2
10
0
20
-33.893551
30
0
11
-11
21
-33.893551
31
0
70
32
71
1
72
1
41
1
210
0
220
0
230
1
3
Standard
100
AcDbAlignedDimension
13
-22
23
-0.95
33
0
14
0
24
-0.95
34
0
50
0
100
AcDbRotatedDimension
1001
ACAD
1000
DSTYLE
1002
{
1070
   371
1070
    13
1070
   372
1070
    13
1070
     3
1000

1070
   170
1070
     0
1070
   144
1040
1.0
1070
   277
1070
     2
1070
   284
1070
     8
1070
   278
1070
    46
1070
   146
1040
1.166667
1070
   345
1005
16
1070
   347
1005
16
1070
   346
1005
16
1070
   344
1005
0
1070
   343
1005
0
1070
   172
1070
     1
1070
    76
1070
     0
1070
    75
1070
     0
1070
   282
1070
     0
1070
   281
1070
     0
1070
    71
1070
     0
1070
    74
1070
     0
1070
   279
1070
     0
1070
   173
1070
     1
1070
   340
1005
CE
1070
   271
1070
     2
1070
   272
1070
     3
1070
    77
1070
     1
1070
    73
1070
     1
1070
   171
1070
     3
1070
   274
1070
     4
1070
   177
1070
     2
1070
   176
1070
     2
1070
   178
1070
     2
1070
    78
1070
     8
1070
    48
1040
-0.1
1070
    41
1040
3.5
1070
   147
1040
1.5
1070
    42
1040
1.5875
1070
    44
1040
2.0
1070
   140
1040
3.0
1002
}
1001
ACAD_DSTYLE_DIM_LINETYPE
1070
   380
1005
16
1001
ACAD_DSTYLE_DIM_EXT1_LINETYPE
1070
   381
1005
16
1001
ACAD_DSTYLE_DIM_EXT2_LINETYPE
1070
   382
1005
16
0
DIMENSION
5
138
100
AcDbEntity
8
2
62
256
6
ByLayer
370
18
48
1
60
0
100
AcDbDimension
2
_U3
10
7.5
20
-31.893551
30
0
11
15.75
21
-31.893551
31
0
70
32
71
1
72
1
41
1
210
0
220
0
230
1
3
Standard
100
AcDbAlignedDimension
13
24
23
0
33
0
14
7.5
24
-0.95
34
0
50
0
100
AcDbRotatedDimension
1001
ACAD
1000
DSTYLE
1002
{
1070
   371
1070
    13
1070
   372
1070
    13
1070
     3
1000

1070
   170
1070
     0
1070
   144
1040
1.0
1070
   277
1070
     2
1070
   284
1070
     8
1070
   278
1070
    46
1070
   146
1040
1.166667
1070
   345
1005
16
1070
   347
1005
16
1070
   346
1005
16
1070
   344
1005
0
1070
   343
1005
0
1070
   172
1070
     1
1070
    76
1070
     0
1070
    75
1070
     0
1070
   282
1070
     0
1070
   281
1070
     0
1070
    71
1070
     0
1070
    74
1070
     0
1070
   279
1070
     0
1070
   173
1070
     1
1070
   340
1005
CE
1070
   271
1070
     2
1070
   272
1070
     3
1070
    77
1070
     1
1070
    73
1070
     1
1070
   171
1070
     3
1070
   274
1070
     4
1070
   177
1070
     2
1070
   176
1070
     2
1070
   178
1070
     2
1070
    78
1070
     8
1070
    48
1040
-0.1
1070
    41
1040
3.5
1070
   147
1040
1.5
1070
    42
1040
1.5875
1070
    44
1040
2.0
1070
   140
1040
3.0
1002
}
1001
ACAD_DSTYLE_DIM_LINETYPE
1070
   380
1005
16
1001
ACAD_DSTYLE_DIM_EXT1_LINETYPE
1070
   381
1005
16
1001
ACAD_DSTYLE_DIM_EXT2_LINETYPE
1070
   382
1005
16
0
ENDSEC
0
SECTION
2
OBJECTS
0
DICTIONARY
5
1c2
330
0
100
AcDbDictionary
280
0
281
1
3
ACAD_GROUP
350
1c3
3
ACAD_MLINESTYLE
350
1c4
0
DICTIONARY
5
1c3
330
0
100
AcDbDictionary
280
0
281
1
0
DICTIONARY
5
1c4
330
0
100
AcDbDictionary
280
0
281
1
3
Standard
350
18
0
MLINESTYLE
5
18
330
1c4
100
AcDbMlineStyle
2
Standard
70
0
3

62
256
51
90
52
90
71
2
49
-0.5
62
256
6
ByLayer
49
0.5
62
256
6
ByLayer
0
RASTERVARIABLES
5
1ae
330

100
AcDbRasterVariables
90
0
70
1
71
1
72
1
0
ENDSEC
0
EOF
