0
SECTION
2
HEADER
9
$ACADVER
1
AC1015
9
$DWGCODEPAGE
3
ANSI_1252
9
$HANDSEED
5
1cf
9
$ANGBASE
50
0
9
$ANGDIR
70
0
9
$ATTMODE
70
1
9
$AUNITS
70
0
9
$AUPREC
70
0
9
$CECOLOR
62
256
9
$CELTSCALE
40
1
9
$CELTYPE
6
ByLayer
9
$CELWEIGHT
370
18
9
$CLAYER
8
0
9
$CMLJUST
70
0
9
$CMLSCALE
40
1
9
$CMLSTYLE
2
Standard
9
$DIMSTYLE
2
Standard
9
$TEXTSIZE
40
0.2
9
$TEXTSTYLE
7
Standard
9
$LUNITS
70
2
9
$LUPREC
70
4
9
$EXTNAMES
290
1
9
$INSUNITS
70
4
9
$LTSCALE
40
1
9
$LWDISPLAY
290
1
9
$PDMODE
70
0
9
$PDSIZE
40
0
9
$PLINEGEN
70
0
0
ENDSEC
0
SECTION
2
CLASSES
0
CLASS
1
RASTERVARIABLES
2
AcDbRasterVariables
3
ISM
90
0
280
0
281
0
0
ENDSEC
0
SECTION
2
TABLES
0
TABLE
2
VPORT
5
1c5
100
AcDbSymbolTable
0
VPORT
5
1
100
AcDbSymbolTableRecord
100
AcDbViewportTableRecord
2
*Active
70
0
10
0
20
0
11
1
21
1
12
-1
22
1
13
0
23
0
14
0.5
24
0.5
15
10
25
10
16
0
26
0
36
1
17
0
27
0
37
0
0
ENDTAB
0
TABLE
2
LTYPE
5
1c6
100
AcDbSymbolTable
0
LTYPE
5
14
100
AcDbSymbolTableRecord
100
AcDbLinetypeTableRecord
70
0
2
ByBlock
3

72
65
73
0
40
0
0
LTYPE
5
15
100
AcDbSymbolTableRecord
100
AcDbLinetypeTableRecord
70
0
2
ByLayer
3

72
65
73
0
40
0
0
LTYPE
5
16
100
AcDbSymbolTableRecord
100
AcDbLinetypeTableRecord
70
0
2
Continuous
3
Solid line
72
65
73
0
40
0
0
LTYPE
5
6E
100
AcDbSymbolTableRecord
100
AcDbLinetypeTableRecord
70
0
2
CENTER
3
____ _ ____ _ ____ _ ____
72
65
73
4
40
47.5
49
22
74
0
49
-8.5
74
0
49
8.5
74
0
49
-8.5
74
0
0
LTYPE
5
6F
100
AcDbSymbolTableRecord
100
AcDbLinetypeTableRecord
70
0
2
DASHED
3
__ __ __ __ __ __ __ __ __
72
65
73
2
40
25.72
49
12.86
74
0
49
-12.86
74
0
0
ENDTAB
0
TABLE
2
LAYER
5
1c7
100
AcDbSymbolTable
0
LAYER
5
10
100
AcDbSymbolTableRecord
100
AcDbLayerTableRecord
2
0
70
0
62
7
6
Continuous
290
1
370
-3
390
0
0
LAYER
5
71
100
AcDbSymbolTableRecord
100
AcDbLayerTableRecord
2
81
70
0
62
-3
6
Continuous
290
1
370
-3
390
0
0
LAYER
5
73
100
AcDbSymbolTableRecord
100
AcDbLayerTableRecord
2
80
70
0
62
-6
6
Continuous
290
1
370
-3
390
0
0
LAYER
5
75
100
AcDbSymbolTableRecord
100
AcDbLayerTableRecord
2
1
70
0
62
4
6
Continuous
290
1
370
-3
390
0
0
LAYER
5
7E
100
AcDbSymbolTableRecord
100
AcDbLayerTableRecord
2
4
70
0
62
-2
6
CENTER
290
1
370
-3
390
0
0
LAYER
5
A8
100
AcDbSymbolTableRecord
100
AcDbLayerTableRecord
2
2
70
0
62
7
6
Continuous
290
1
370
-3
390
0
0
LAYER
5
F1
100
AcDbSymbolTableRecord
100
AcDbLayerTableRecord
2
Defpoints
70
0
62
7
6
Continuous
290
0
370
-3
390
0
0
LAYER
5
1af
100
AcDbSymbolTableRecord
100
AcDbLayerTableRecord
2
SK4
70
0
62
2
6
CENTER
290
1
370
-3
390
0
0
LAYER
5
1b0
100
AcDbSymbolTableRecord
100
AcDbLayerTableRecord
2
SK1
70
0
62
4
6
Continuous
290
1
370
-3
390
0
0
LAYER
5
1b1
100
AcDbSymbolTableRecord
100
AcDbLayerTableRecord
2
SK2
70
0
62
7
6
Continuous
290
1
370
-3
390
0
0
LAYER
5
1b2
100
AcDbSymbolTableRecord
100
AcDbLayerTableRecord
2
CUT
70
0
62
-1
6
Continuous
290
1
370
-3
390
0
0
LAYER
5
1b3
100
AcDbSymbolTableRecord
100
AcDbLayerTableRecord
2
NOCUT
70
0
62
-7
6
Continuous
290
1
370
-3
390
0
0
LAYER
5
1b4
100
AcDbSymbolTableRecord
100
AcDbLayerTableRecord
2
SK6
70
0
62
5
6
Continuous
290
1
370
-3
390
0
0
ENDTAB
0
TABLE
2
STYLE
5
1c8
100
AcDbSymbolTable
0
STYLE
5
11
100
AcDbSymbolTableRecord
100
AcDbTextStyleTableRecord
2
Standard
3
txt
70
0
71
0
40
0
41
1
42
0
50
0
0
STYLE
5
CD
100
AcDbSymbolTableRecord
100
AcDbTextStyleTableRecord
2
iso_b_vert
3
simplex.shx
70
0
71
0
40
0
41
1
42
0
50
0
0
STYLE
5
CE
100
AcDbSymbolTableRecord
100
AcDbTextStyleTableRecord
2
DWGDirectTextStyle
3
simplex
70
0
71
0
40
0
41
1
42
0
50
0
0
ENDTAB
0
TABLE
2
DIMSTYLE
5
1c9
100
AcDbSymbolTable
100
AcDbDimStyleTable
0
DIMSTYLE
105
27
100
AcDbSymbolTableRecord
100
AcDbDimStyleTableRecord
2
Standard
70
0
3
<>
41
0.18
42
0.0625
44
0.18
140
0.18
147
0.09
73
0
74
0
77
1
271
2
275
0
278
52
280
0
340
11
0
ENDTAB
0
TABLE
2
VIEW
5
1ca
100
AcDbSymbolTable
0
ENDTAB
0
TABLE
2
UCS
5
1cb
100
AcDbSymbolTable
0
ENDTAB
0
TABLE
2
APPID
5
1cc
100
AcDbSymbolTable
0
APPID
5
12
100
AcDbSymbolTableRecord
100
AcDbRegAppTableRecord
2
ACAD
70
0
0
APPID
5
ED
100
AcDbSymbolTableRecord
100
AcDbRegAppTableRecord
2
ACAD_DSTYLE_DIMBREAK
70
0
0
APPID
5
16E
100
AcDbSymbolTableRecord
100
AcDbRegAppTableRecord
2
ACAD_DSTYLE_DIM_LINETYPE
70
0
0
APPID
5
16F
100
AcDbSymbolTableRecord
100
AcDbRegAppTableRecord
2
ACAD_DSTYLE_DIM_EXT1_LINETYPE
70
0
0
APPID
5
170
100
AcDbSymbolTableRecord
100
AcDbRegAppTableRecord
2
ACAD_DSTYLE_DIM_EXT2_LINETYPE
70
0
0
APPID
5
1AB
100
AcDbSymbolTableRecord
100
AcDbRegAppTableRecord
2
ACAD_MLEADERVER
70
0
0
ENDTAB
0
TABLE
2
BLOCK_RECORD
5
1cd
100
AcDbSymbolTable
0
BLOCK_RECORD
5
1F
100
AcDbSymbolTableRecord
100
AcDbBlockTableRecord
2
*Model_Space
340
0
70
0
0
BLOCK_RECORD
5
1B
100
AcDbSymbolTableRecord
100
AcDbBlockTableRecord
2
*Paper_Space
340
0
70
0
0
BLOCK_RECORD
5
23
100
AcDbSymbolTableRecord
100
AcDbBlockTableRecord
2
*Paper_Space0
340
0
70
0
0
BLOCK_RECORD
5
F2
100
AcDbSymbolTableRecord
100
AcDbBlockTableRecord
2
*D1
340
0
70
0
0
BLOCK_RECORD
5
FE
100
AcDbSymbolTableRecord
100
AcDbBlockTableRecord
2
_U0
340
0
70
0
0
BLOCK_RECORD
5
10A
100
AcDbSymbolTableRecord
100
AcDbBlockTableRecord
2
*D3
340
0
70
0
0
BLOCK_RECORD
5
116
100
AcDbSymbolTableRecord
100
AcDbBlockTableRecord
2
_U1
340
0
70
0
0
BLOCK_RECORD
5
122
100
AcDbSymbolTableRecord
100
AcDbBlockTableRecord
2
*D5
340
0
70
0
0
BLOCK_RECORD
5
12E
100
AcDbSymbolTableRecord
100
AcDbBlockTableRecord
2
_U2
340
0
70
0
0
BLOCK_RECORD
5
13A
100
AcDbSymbolTableRecord
100
AcDbBlockTableRecord
2
*D7
340
0
70
0
0
BLOCK_RECORD
5
147
100
AcDbSymbolTableRecord
100
AcDbBlockTableRecord
2
_U3
340
0
70
0
0
ENDTAB
0
ENDSEC
0
SECTION
2
BLOCKS
0
BLOCK
5
20
100
AcDbEntity
8
0
100
AcDbBlockBegin
2
*Model_Space
70
0
10
0
20
0
30
0
3
*Model_Space
0
ENDBLK
5
21
100
AcDbEntity
8
0
100
AcDbBlockEnd
0
BLOCK
5
1C
100
AcDbEntity
8
0
100
AcDbBlockBegin
2
*Paper_Space
70
0
10
0
20
0
30
0
3
*Paper_Space
0
ENDBLK
5
1D
100
AcDbEntity
8
0
100
AcDbBlockEnd
0
BLOCK
5
24
100
AcDbEntity
8
0
100
AcDbBlockBegin
2
*Paper_Space0
70
0
10
0
20
0
30
0
3
*Paper_Space0
0
ENDBLK
5
25
100
AcDbEntity
8
0
100
AcDbBlockEnd
0
BLOCK
5
F3
100
AcDbEntity
8
0
100
AcDbBlockBegin
2
*D1
70
1
10
0
20
0
30
0
3
*D1
0
LINE
5
F5
100
AcDbEntity
8
0
62
256
6
ByLayer
370
-2
48
1
60
0
100
AcDbLine
10
-21
20
-2.3875
30
0
11
-21
21
-49.626072
31
0
39
0
210
0
220
0
230
1
0
LINE
5
F6
100
AcDbEntity
8
0
62
256
6
ByLayer
370
-2
48
1
60
0
100
AcDbLine
10
22
20
-1.5875
30
0
11
22
21
-49.626072
31
0
39
0
210
0
220
0
230
1
0
LINE
5
F7
100
AcDbEntity
8
0
62
256
6
ByLayer
370
-2
48
1
60
0
100
AcDbLine
10
-17.5
20
-47.626072
30
0
11
18.5
21
-47.626072
31
0
39
0
210
0
220
0
230
1
0
SOLID
5
F8
100
AcDbEntity
8
0
62
256
6
ByLayer
370
-1
48
1
60
0
100
AcDbTrace
10
-17.5
20
-47.042739
30
0
11
-17.5
21
-48.209406
31
0
12
-21
22
-47.626072
32
0
13
-21
23
-47.626072
33
0
39
0
210
0
220
0
230
1
0
SOLID
5
F9
100
AcDbEntity
8
0
62
256
6
ByLayer
370
-1
48
1
60
0
100
AcDbTrace
10
18.5
20
-48.209406
30
0
11
18.5
21
-47.042739
31
0
12
22
22
-47.626072
32
0
13
22
23
-47.626072
33
0
39
0
210
0
220
0
230
1
0
MTEXT
5
FA
100
AcDbEntity
8
0
62
256
6
ByLayer
370
18
48
1
60
0
100
AcDbMText
10
0.5
20
-41.626072
30
0
210
0
220
0
230
1
1
\A1;43
40
3
41
0
44
1
50
0
71
5
72
5
7
iso_b_vert
0
POINT
5
FB
100
AcDbEntity
8
Defpoints
62
0
6
ByLayer
370
-1
48
1
60
0
100
AcDbPoint
10
-21
20
-0.8
30
0
39
0
210
0
220
0
230
1
50
360
0
POINT
5
FC
100
AcDbEntity
8
Defpoints
62
0
6
ByLayer
370
-1
48
1
60
0
100
AcDbPoint
10
22
20
0
30
0
39
0
210
0
220
0
230
1
50
360
0
POINT
5
FD
100
AcDbEntity
8
Defpoints
62
0
6
ByLayer
370
-1
48
1
60
0
100
AcDbPoint
10
22
20
-47.626072
30
0
39
0
210
0
220
0
230
1
50
360
0
ENDBLK
5
F4
100
AcDbEntity
8
0
100
AcDbBlockEnd
0
BLOCK
5
105
100
AcDbEntity
8
0
100
AcDbBlockBegin
2
_U0
70
0
10
0
20
0
30
0
3
_U0
0
MTEXT
5
FF
100
AcDbEntity
8
SK2
62
256
6
ByLayer
370
18
48
1
60
0
100
AcDbMText
10
-4.140313
20
-46.740958
30
0
210
0
220
0
230
1
1
\W0.7694;43.00
40
3
41
0
44
1.084337
50
0
71
7
72
5
7
iso_b_vert
0
LINE
5
100
100
AcDbEntity
8
SK2
62
256
6
ByLayer
370
13
48
1
60
0
100
AcDbLine
10
-21
20
-2.3875
30
0
11
-21
21
-49.626072
31
0
39
0
210
0
220
0
230
1
0
LINE
5
101
100
AcDbEntity
8
SK2
62
256
6
ByLayer
370
13
48
1
60
0
100
AcDbLine
10
22
20
-1.5875
30
0
11
22
21
-49.626072
31
0
39
0
210
0
220
0
230
1
0
LINE
5
102
100
AcDbEntity
8
SK2
62
256
6
ByLayer
370
13
48
1
60
0
100
AcDbLine
10
-21
20
-47.626072
30
0
11
22
21
-47.626072
31
0
39
0
210
0
220
0
230
1
0
SOLID
5
103
100
AcDbEntity
8
SK2
62
256
6
ByLayer
370
18
48
1
60
0
100
AcDbTrace
10
-21
20
-47.626072
30
0
11
-17.500002
21
-47.165289
31
0
12
-17.499998
22
-48.086856
32
0
13
-17.499998
23
-48.086856
33
0
39
0
210
0
220
0
230
1
0
SOLID
5
104
100
AcDbEntity
8
SK2
62
256
6
ByLayer
370
18
48
1
60
0
100
AcDbTrace
10
22
20
-47.626072
30
0
11
18.500002
21
-48.086856
31
0
12
18.499998
22
-47.165289
32
0
13
18.499998
23
-47.165289
33
0
39
0
210
0
220
0
230
1
0
ENDBLK
5
106
100
AcDbEntity
8
0
100
AcDbBlockEnd
0
BLOCK
5
10B
100
AcDbEntity
8
0
100
AcDbBlockBegin
2
*D3
70
1
10
0
20
0
30
0
3
*D3
0
LINE
5
10D
100
AcDbEntity
8
0
62
256
6
ByLayer
370
-2
48
1
60
0
100
AcDbLine
10
22
20
-1.5875
30
0
11
22
21
-39.626072
31
0
39
0
210
0
220
0
230
1
0
LINE
5
10E
100
AcDbEntity
8
0
62
256
6
ByLayer
370
-2
48
1
60
0
100
AcDbLine
10
2
20
-2.3875
30
0
11
2
21
-39.626072
31
0
39
0
210
0
220
0
230
1
0
LINE
5
10F
100
AcDbEntity
8
0
62
256
6
ByLayer
370
-2
48
1
60
0
100
AcDbLine
10
18.5
20
-37.626072
30
0
11
5.5
21
-37.626072
31
0
39
0
210
0
220
0
230
1
0
SOLID
5
110
100
AcDbEntity
8
0
62
256
6
ByLayer
370
-1
48
1
60
0
100
AcDbTrace
10
18.5
20
-38.209406
30
0
11
18.5
21
-37.042739
31
0
12
22
22
-37.626072
32
0
13
22
23
-37.626072
33
0
39
0
210
0
220
0
230
1
0
SOLID
5
111
100
AcDbEntity
8
0
62
256
6
ByLayer
370
-1
48
1
60
0
100
AcDbTrace
10
5.5
20
-37.042739
30
0
11
5.5
21
-38.209406
31
0
12
2
22
-37.626072
32
0
13
2
23
-37.626072
33
0
39
0
210
0
220
0
230
1
0
MTEXT
5
112
100
AcDbEntity
8
0
62
256
6
ByLayer
370
18
48
1
60
0
100
AcDbMText
10
12
20
-31.626072
30
0
210
0
220
0
230
1
1
\A1;20
40
3
41
0
44
1
50
0
71
5
72
5
7
iso_b_vert
0
POINT
5
113
100
AcDbEntity
8
Defpoints
62
0
6
ByLayer
370
-1
48
1
60
0
100
AcDbPoint
10
22
20
0
30
0
39
0
210
0
220
0
230
1
50
360
0
POINT
5
114
100
AcDbEntity
8
Defpoints
62
0
6
ByLayer
370
-1
48
1
60
0
100
AcDbPoint
10
2
20
-0.8
30
0
39
0
210
0
220
0
230
1
50
360
0
POINT
5
115
100
AcDbEntity
8
Defpoints
62
0
6
ByLayer
370
-1
48
1
60
0
100
AcDbPoint
10
2
20
-37.626072
30
0
39
0
210
0
220
0
230
1
50
360
0
ENDBLK
5
10C
100
AcDbEntity
8
0
100
AcDbBlockEnd
0
BLOCK
5
11D
100
AcDbEntity
8
0
100
AcDbBlockBegin
2
_U1
70
0
10
0
20
0
30
0
3
_U1
0
MTEXT
5
117
100
AcDbEntity
8
2
62
256
6
ByLayer
370
18
48
1
60
0
100
AcDbMText
10
7.51763
20
-36.740958
30
0
210
0
220
0
230
1
1
\W0.7468;20.00
40
3
41
0
44
1.084337
50
0
71
7
72
5
7
iso_b_vert
0
LINE
5
118
100
AcDbEntity
8
2
62
256
6
ByLayer
370
13
48
1
60
0
100
AcDbLine
10
22
20
-1.5875
30
0
11
22
21
-39.626072
31
0
39
0
210
0
220
0
230
1
0
LINE
5
119
100
AcDbEntity
8
2
62
256
6
ByLayer
370
13
48
1
60
0
100
AcDbLine
10
2
20
-2.3875
30
0
11
2
21
-39.626072
31
0
39
0
210
0
220
0
230
1
0
LINE
5
11A
100
AcDbEntity
8
2
62
256
6
ByLayer
370
13
48
1
60
0
100
AcDbLine
10
22
20
-37.626072
30
0
11
2
21
-37.626072
31
0
39
0
210
0
220
0
230
1
0
SOLID
5
11B
100
AcDbEntity
8
2
62
256
6
ByLayer
370
18
48
1
60
0
100
AcDbTrace
10
22
20
-37.626072
30
0
11
18.500002
21
-38.086856
31
0
12
18.499998
22
-37.165289
32
0
13
18.499998
23
-37.165289
33
0
39
0
210
0
220
0
230
1
0
SOLID
5
11C
100
AcDbEntity
8
2
62
256
6
ByLayer
370
18
48
1
60
0
100
AcDbTrace
10
2
20
-37.626072
30
0
11
5.499998
21
-37.165289
31
0
12
5.500002
22
-38.086856
32
0
13
5.500002
23
-38.086856
33
0
39
0
210
0
220
0
230
1
0
ENDBLK
5
11E
100
AcDbEntity
8
0
100
AcDbBlockEnd
0
BLOCK
5
123
100
AcDbEntity
8
0
100
AcDbBlockBegin
2
*D5
70
1
10
0
20
0
30
0
3
*D5
0
LINE
5
125
100
AcDbEntity
8
0
62
256
6
ByLayer
370
-2
48
1
60
0
100
AcDbLine
10
-21
20
-2.3875
30
0
11
-21
21
-34.626072
31
0
39
0
210
0
220
0
230
1
0
LINE
5
126
100
AcDbEntity
8
0
62
256
6
ByLayer
370
-2
48
1
60
0
100
AcDbLine
10
0
20
-2.3875
30
0
11
0
21
-34.626072
31
0
39
0
210
0
220
0
230
1
0
LINE
5
127
100
AcDbEntity
8
0
62
256
6
ByLayer
370
-2
48
1
60
0
100
AcDbLine
10
-17.5
20
-32.626072
30
0
11
-3.5
21
-32.626072
31
0
39
0
210
0
220
0
230
1
0
SOLID
5
128
100
AcDbEntity
8
0
62
256
6
ByLayer
370
-1
48
1
60
0
100
AcDbTrace
10
-17.5
20
-32.042739
30
0
11
-17.5
21
-33.209406
31
0
12
-21
22
-32.626072
32
0
13
-21
23
-32.626072
33
0
39
0
210
0
220
0
230
1
0
SOLID
5
129
100
AcDbEntity
8
0
62
256
6
ByLayer
370
-1
48
1
60
0
100
AcDbTrace
10
-3.5
20
-33.209406
30
0
11
-3.5
21
-32.042739
31
0
12
0
22
-32.626072
32
0
13
0
23
-32.626072
33
0
39
0
210
0
220
0
230
1
0
MTEXT
5
12A
100
AcDbEntity
8
0
62
256
6
ByLayer
370
18
48
1
60
0
100
AcDbMText
10
-10.5
20
-26.626072
30
0
210
0
220
0
230
1
1
\A1;21
40
3
41
0
44
1
50
0
71
5
72
5
7
iso_b_vert
0
POINT
5
12B
100
AcDbEntity
8
Defpoints
62
0
6
ByLayer
370
-1
48
1
60
0
100
AcDbPoint
10
-21
20
-0.8
30
0
39
0
210
0
220
0
230
1
50
360
0
POINT
5
12C
100
AcDbEntity
8
Defpoints
62
0
6
ByLayer
370
-1
48
1
60
0
100
AcDbPoint
10
0
20
-0.8
30
0
39
0
210
0
220
0
230
1
50
360
0
POINT
5
12D
100
AcDbEntity
8
Defpoints
62
0
6
ByLayer
370
-1
48
1
60
0
100
AcDbPoint
10
0
20
-32.626072
30
0
39
0
210
0
220
0
230
1
50
360
0
ENDBLK
5
124
100
AcDbEntity
8
0
100
AcDbBlockEnd
0
BLOCK
5
135
100
AcDbEntity
8
0
100
AcDbBlockBegin
2
_U2
70
0
10
0
20
0
30
0
3
_U2
0
MTEXT
5
12F
100
AcDbEntity
8
SK2
62
256
6
ByLayer
370
18
48
1
60
0
100
AcDbMText
10
-14.607428
20
-31.740958
30
0
210
0
220
0
230
1
1
\W0.6864;21.00
40
3
41
0
44
1.084337
50
0
71
7
72
5
7
iso_b_vert
0
LINE
5
130
100
AcDbEntity
8
SK2
62
256
6
ByLayer
370
13
48
1
60
0
100
AcDbLine
10
-21
20
-2.3875
30
0
11
-21
21
-34.626072
31
0
39
0
210
0
220
0
230
1
0
LINE
5
131
100
AcDbEntity
8
SK2
62
256
6
ByLayer
370
13
48
1
60
0
100
AcDbLine
10
0
20
-2.3875
30
0
11
0
21
-34.626072
31
0
39
0
210
0
220
0
230
1
0
LINE
5
132
100
AcDbEntity
8
SK2
62
256
6
ByLayer
370
13
48
1
60
0
100
AcDbLine
10
-21
20
-32.626072
30
0
11
0
21
-32.626072
31
0
39
0
210
0
220
0
230
1
0
SOLID
5
133
100
AcDbEntity
8
SK2
62
256
6
ByLayer
370
18
48
1
60
0
100
AcDbTrace
10
-21
20
-32.626072
30
0
11
-17.500002
21
-32.165289
31
0
12
-17.499998
22
-33.086856
32
0
13
-17.499998
23
-33.086856
33
0
39
0
210
0
220
0
230
1
0
SOLID
5
134
100
AcDbEntity
8
SK2
62
256
6
ByLayer
370
18
48
1
60
0
100
AcDbTrace
10
0
20
-32.626072
30
0
11
-3.499998
21
-33.086856
31
0
12
-3.500002
22
-32.165289
32
0
13
-3.500002
23
-32.165289
33
0
39
0
210
0
220
0
230
1
0
ENDBLK
5
136
100
AcDbEntity
8
0
100
AcDbBlockEnd
0
BLOCK
5
13B
100
AcDbEntity
8
0
100
AcDbBlockBegin
2
*D7
70
1
10
0
20
0
30
0
3
*D7
0
LINE
5
13D
100
AcDbEntity
8
0
62
256
6
ByLayer
370
-2
48
1
60
0
100
AcDbLine
10
22
20
-1.5875
30
0
11
22
21
-32.626072
31
0
39
0
210
0
220
0
230
1
0
LINE
5
13E
100
AcDbEntity
8
0
62
256
6
ByLayer
370
-2
48
1
60
0
100
AcDbLine
10
7
20
-2.3875
30
0
11
7
21
-32.626072
31
0
39
0
210
0
220
0
230
1
0
LINE
5
13F
100
AcDbEntity
8
0
62
256
6
ByLayer
370
-2
48
1
60
0
100
AcDbLine
10
25.5
20
-30.626072
30
0
11
29
21
-30.626072
31
0
39
0
210
0
220
0
230
1
0
LINE
5
140
100
AcDbEntity
8
0
62
256
6
ByLayer
370
-2
48
1
60
0
100
AcDbLine
10
3.5
20
-30.626072
30
0
11
0
21
-30.626072
31
0
39
0
210
0
220
0
230
1
0
SOLID
5
141
100
AcDbEntity
8
0
62
256
6
ByLayer
370
-1
48
1
60
0
100
AcDbTrace
10
25.5
20
-30.042739
30
0
11
25.5
21
-31.209406
31
0
12
22
22
-30.626072
32
0
13
22
23
-30.626072
33
0
39
0
210
0
220
0
230
1
0
SOLID
5
142
100
AcDbEntity
8
0
62
256
6
ByLayer
370
-1
48
1
60
0
100
AcDbTrace
10
3.5
20
-31.209406
30
0
11
3.5
21
-30.042739
31
0
12
7
22
-30.626072
32
0
13
7
23
-30.626072
33
0
39
0
210
0
220
0
230
1
0
MTEXT
5
143
100
AcDbEntity
8
0
62
256
6
ByLayer
370
18
48
1
60
0
100
AcDbMText
10
14.5
20
-24.626072
30
0
210
0
220
0
230
1
1
\A1;15
40
3
41
0
44
1
50
0
71
5
72
5
7
iso_b_vert
0
POINT
5
144
100
AcDbEntity
8
Defpoints
62
0
6
ByLayer
370
-1
48
1
60
0
100
AcDbPoint
10
22
20
0
30
0
39
0
210
0
220
0
230
1
50
360
0
POINT
5
145
100
AcDbEntity
8
Defpoints
62
0
6
ByLayer
370
-1
48
1
60
0
100
AcDbPoint
10
7
20
-0.8
30
0
39
0
210
0
220
0
230
1
50
360
0
POINT
5
146
100
AcDbEntity
8
Defpoints
62
0
6
ByLayer
370
-1
48
1
60
0
100
AcDbPoint
10
7
20
-30.626072
30
0
39
0
210
0
220
0
230
1
50
360
0
ENDBLK
5
13C
100
AcDbEntity
8
0
100
AcDbBlockEnd
0
BLOCK
5
14E
100
AcDbEntity
8
0
100
AcDbBlockBegin
2
_U3
70
0
10
0
20
0
30
0
3
_U3
0
MTEXT
5
148
100
AcDbEntity
8
2
62
256
6
ByLayer
370
18
48
1
60
0
100
AcDbMText
10
10.392572
20
-29.740958
30
0
210
0
220
0
230
1
1
\W0.6864;15.00
40
3
41
0
44
1.084337
50
0
71
7
72
5
7
iso_b_vert
0
LINE
5
149
100
AcDbEntity
8
2
62
256
6
ByLayer
370
13
48
1
60
0
100
AcDbLine
10
22
20
-1.5875
30
0
11
22
21
-32.626072
31
0
39
0
210
0
220
0
230
1
0
LINE
5
14A
100
AcDbEntity
8
2
62
256
6
ByLayer
370
13
48
1
60
0
100
AcDbLine
10
7
20
-2.3875
30
0
11
7
21
-32.626072
31
0
39
0
210
0
220
0
230
1
0
LINE
5
14B
100
AcDbEntity
8
2
62
256
6
ByLayer
370
13
48
1
60
0
100
AcDbLine
10
22
20
-30.626072
30
0
11
7
21
-30.626072
31
0
39
0
210
0
220
0
230
1
0
SOLID
5
14C
100
AcDbEntity
8
2
62
256
6
ByLayer
370
18
48
1
60
0
100
AcDbTrace
10
22
20
-30.626072
30
0
11
18.500002
21
-31.086856
31
0
12
18.499998
22
-30.165289
32
0
13
18.499998
23
-30.165289
33
0
39
0
210
0
220
0
230
1
0
SOLID
5
14D
100
AcDbEntity
8
2
62
256
6
ByLayer
370
18
48
1
60
0
100
AcDbTrace
10
7
20
-30.626072
30
0
11
10.499998
21
-30.165289
31
0
12
10.500002
22
-31.086856
32
0
13
10.500002
23
-31.086856
33
0
39
0
210
0
220
0
230
1
0
ENDBLK
5
14F
100
AcDbEntity
8
0
100
AcDbBlockEnd
0
ENDSEC
0
SECTION
2
ENTITIES
0
ARC
5
B9
100
AcDbEntity
8
2
62
256
6
ByLayer
370
13
48
1
60
0
100
AcDbCircle
39
0
10
22
20
0
30
0
40
22
210
0
220
0
230
1
100
AcDbArc
50
7.83748
51
61.596605
0
ARC
5
BA
100
AcDbEntity
8
2
62
256
6
ByLayer
370
13
48
1
60
0
100
AcDbCircle
39
0
10
22
20
0
30
0
40
22
210
0
220
0
230
1
100
AcDbArc
50
298.403395
51
352.16252
0
POINT
5
70
100
AcDbEntity
8
81
62
256
6
ByLayer
370
18
48
1
60
0
100
AcDbPoint
10
22
20
0
30
0
39
0
210
0
220
0
230
1
50
360
0
POINT
5
72
100
AcDbEntity
8
80
62
256
6
ByLayer
370
18
48
1
60
0
100
AcDbPoint
10
0
20
0
30
0
39
0
210
0
220
0
230
1
50
360
0
POINT
5
74
100
AcDbEntity
8
1
62
256
6
ByLayer
370
18
48
1
60
1
100
AcDbPoint
10
-21
20
-0.8
30
0
39
0
210
0
220
0
230
1
50
360
0
POINT
5
76
100
AcDbEntity
8
1
62
256
6
ByLayer
370
18
48
1
60
1
100
AcDbPoint
10
22
20
0
30
0
39
0
210
0
220
0
230
1
50
360
0
POINT
5
77
100
AcDbEntity
8
1
62
256
6
ByLayer
370
18
48
1
60
1
100
AcDbPoint
10
22
20
0
30
0
39
0
210
0
220
0
230
1
50
360
0
POINT
5
78
100
AcDbEntity
8
1
62
256
6
ByLayer
370
18
48
1
60
1
100
AcDbPoint
10
2
20
-0.8
30
0
39
0
210
0
220
0
230
1
50
360
0
POINT
5
79
100
AcDbEntity
8
1
62
256
6
ByLayer
370
18
48
1
60
1
100
AcDbPoint
10
-21
20
-0.8
30
0
39
0
210
0
220
0
230
1
50
360
0
POINT
5
7A
100
AcDbEntity
8
1
62
256
6
ByLayer
370
18
48
1
60
1
100
AcDbPoint
10
0
20
-0.8
30
0
39
0
210
0
220
0
230
1
50
360
0
POINT
5
7B
100
AcDbEntity
8
1
62
256
6
ByLayer
370
18
48
1
60
1
100
AcDbPoint
10
22
20
0
30
0
39
0
210
0
220
0
230
1
50
360
0
POINT
5
7C
100
AcDbEntity
8
1
62
256
6
ByLayer
370
18
48
1
60
1
100
AcDbPoint
10
7
20
-0.8
30
0
39
0
210
0
220
0
230
1
50
360
0
SPLINE
5
BB
100
AcDbEntity
8
CUT
62
256
6
ByLayer
370
18
48
1
60
0
100
AcDbSpline
70
2053
71
3
72
17
73
13
40
0
40
0
40
0
40
0
40
0.479671492603686
40
0.479671492603686
40
0.479671492603686
40
0.505079283280123
40
0.505079283280123
40
0.505079283280123
40
0.970916454556939
40
0.970916454556939
40
0.970916454556939
40
1
40
1
40
1
40
1
41
1
10
22
20
0
30
0
41
1
10
17
20
0
30
0
41
1
10
12
20
0
30
0
41
1
10
7
20
0
30
0
41
1
10
7
20
0.264845744122368
30
0
41
1
10
7
20
0.529691488244765
30
0
41
1
10
7.00000000000009
20
0.794537232367134
30
0
41
1
10
11.8557934514335
20
0.796358154911417
30
0
41
1
10
16.7115869028668
20
0.7981790774557
30
0
41
1
10
21.5673803543002
20
0.800000000000011
30
0
41
1
10
21.7115869028668
20
0.533333333333331
30
0
41
1
10
21.8557934514334
20
0.26666666666668
30
0
41
1
10
22
20
0
30
0
0
SPLINE
5
BD
100
AcDbEntity
8
NOCUT
62
256
6
ByLayer
370
18
48
1
60
0
100
AcDbSpline
70
2053
71
3
72
26
73
22
40
0
40
0
40
0
40
0
40
0.36050705915511
40
0.36050705915511
40
0.36050705915511
40
0.367895957305495
40
0.367895957305495
40
0.367895957305495
40
0.376603857283387
40
0.376603857283387
40
0.376603857283387
40
0.864246256142897
40
0.864246256142897
40
0.864246256142897
40
0.878083757640824
40
0.878083757640824
40
0.878083757640824
40
0.998252785808179
40
0.998252785808179
40
0.998252785808179
40
1
40
1
40
1
40
1
41
1
10
0
20
0.800000000000011
30
0
41
1
10
-6.90000000000001
20
0.800000000000011
30
0
41
1
10
-13.8
20
0.800000000000011
30
0
41
1
10
-20.7
20
0.800000000000011
30
0
41
1
10
-20.8
20
0.699999999999989
30
0
41
1
10
-20.9
20
0.599999999999994
30
0
41
1
10
-21
20
0.5
30
0
41
1
10
-21
20
0.333333333333343
30
0
41
1
10
-21
20
0.166666666666657
30
0
41
1
10
-21
20
0
30
0
41
1
10
-11.6666666666667
20
0
30
0
41
1
10
-2.33333333333331
20
0
30
0
41
1
10
7
20
0
30
0
41
1
10
7
20
0.264845744122368
30
0
41
1
10
7
20
0.529691488244765
30
0
41
1
10
7
20
0.794537232367134
30
0
41
1
10
4.69999999999985
20
0.793674732367123
30
0
41
1
10
2.39999999999969
20
0.79281223236714
30
0
41
1
10
0.0999999999521606
20
0.791949732370966
30
0
41
1
10
0.0666666666032256
20
0.794633154916539
30
0
41
1
10
0.0333333333016128
20
0.797316577458275
30
0
41
1
10
0
20
0.800000000000011
30
0
0
SPLINE
5
BF
100
AcDbEntity
8
1
62
256
6
ByLayer
370
18
48
1
60
0
100
AcDbSpline
70
4
71
3
72
50
73
46
40
0
40
0
40
0
40
0
40
0.124999999999998
40
0.124999999999998
40
0.249999999999996
40
0.249999999999996
40
0.312499999999995
40
0.312499999999995
40
0.374999999999994
40
0.374999999999994
40
0.437499999999994
40
0.437499999999994
40
0.468749999999993
40
0.468749999999993
40
0.476562499999994
40
0.476562499999994
40
0.484374999999995
40
0.484374999999995
40
0.492187499999996
40
0.492187499999996
40
0.499999999999997
40
0.499999999999997
40
0.507812499999998
40
0.507812499999998
40
0.515624999999999
40
0.515624999999999
40
0.5234375
40
0.5234375
40
0.531250000000001
40
0.531250000000001
40
0.562500000000001
40
0.562500000000001
40
0.593750000000001
40
0.593750000000001
40
0.625000000000001
40
0.625000000000001
40
0.687500000000001
40
0.687500000000001
40
0.750000000000001
40
0.750000000000001
40
0.812500000000001
40
0.812500000000001
40
0.875
40
0.875
40
1
40
1
40
1
40
1
41
1
10
21.5673803543002
20
0.77446713059021
30
0
41
1
10
21.6003384268662
20
0.713704284472755
30
0
41
1
10
21.6331048716125
20
0.652617997553421
30
0
41
1
10
21.6980828469734
20
0.529922330848621
30
0
41
1
10
21.7303363113221
20
0.468315239241292
30
0
41
1
10
21.7775719278646
20
0.375271743453112
30
0
41
1
10
21.793092680621
20
0.344128045791223
30
0
41
1
10
21.823926477851
20
0.281845596277691
30
0
41
1
10
21.8392381203431
20
0.25074783303495
30
0
41
1
10
21.8692690205736
20
0.188529584794992
30
0
41
1
10
21.8840379983023
20
0.15739692267951
30
0
41
1
10
21.9047667111461
20
0.110414174827696
30
0
41
1
10
21.9114539477733
20
0.0947030616316908
30
0
41
1
10
21.9191888329982
20
0.0749233181315105
30
0
41
1
10
21.9207026476774
20
0.0709585751861539
30
0
41
1
10
21.9235967676154
20
0.0629554475615635
30
0
41
1
10
21.9249773098755
20
0.05891303708799
30
0
41
1
10
21.927415883409
20
0.0507035664503519
30
0
41
1
10
21.9284719804634
20
0.0465293333849957
30
0
41
1
10
21.9300520268832
20
0.0379514621909038
30
0
41
1
10
21.9305580465326
20
0.0336048360409791
30
0
41
1
10
21.9308847271676
20
0.0250712415723058
30
0
41
1
10
21.9307004543863
20
0.0207912980482092
30
0
41
1
10
21.9297058326897
20
0.0126818057205185
30
0
41
1
10
21.9289092220119
20
0.0088262790067972
30
0
41
1
10
21.9269506945591
20
0.0013343423422043
30
0
41
1
10
21.9257930089859
20
-0.0023066178020485
30
0
41
1
10
21.9233270785049
20
-0.00945084869727
30
0
41
1
10
21.9220117312644
20
-0.0129684461275019
30
0
41
1
10
21.9151517609997
20
-0.0304180957240021
30
0
41
1
10
21.9087699186891
20
-0.0439224014035062
30
0
41
1
10
21.8950990828218
20
-0.0701730670845961
30
0
41
1
10
21.8877817849552
20
-0.0829379411053424
30
0
41
1
10
21.8727858219993
20
-0.107599732205585
30
0
41
1
10
21.8650894936216
20
-0.119523422227502
30
0
41
1
10
21.8416985945968
20
-0.154247218240926
30
0
41
1
10
21.8257152304217
20
-0.176010038349574
30
0
41
1
10
21.7934875548292
20
-0.217083301818491
30
0
41
1
10
21.7772253662252
20
-0.236384012760254
30
0
41
1
10
21.7445077138749
20
-0.272560437246824
30
0
41
1
10
21.7279869630621
20
-0.289481556528841
30
0
41
1
10
21.6953418205665
20
-0.320266407940153
30
0
41
1
10
21.6791521282568
20
-0.334209843262982
30
0
41
1
10
21.6308799171223
20
-0.371799276429726
30
0
41
1
10
21.5990970157411
20
-0.391213840239033
30
0
41
1
10
21.5673803543002
20
-0.404937002461139
30
0
0
SPLINE
5
C0
100
AcDbEntity
8
1
62
256
6
ByLayer
370
18
48
1
60
0
100
AcDbSpline
70
4
71
5
72
131
73
125
40
0
40
0
40
0
40
0
40
0
40
0
40
0.0118316248379493
40
0.0489868773733586
40
0.0862318001086552
40
0.123559705183557
40
0.160964243206513
40
0.198440991764444
40
0.235974818130281
40
0.273342516346936
40
0.308821726888495
40
0.340946410405771
40
0.375180641606731
40
0.41120929626473
40
0.440322723366807
40
0.455073987033431
40
0.457512404544908
40
0.461555044103411
40
0.464196094281964
40
0.466837144460517
40
0.467777395901379
40
0.469211279348692
40
0.471585414236865
40
0.4726877695097
40
0.473790124782535
40
0.474892480055369
40
0.475994835328203
40
0.476076342433238
40
0.477023862529273
40
0.478052889730343
40
0.479081916931413
40
0.480110944132483
40
0.481073293371714
40
0.482035642610945
40
0.482997991850177
40
0.483350535630885
40
0.483960341089409
40
0.487553886477147
40
0.489200478525533
40
0.489738473947283
40
0.490847070573919
40
0.491586846347099
40
0.49232662212028
40
0.493066397893461
40
0.493806173666642
40
0.49450508136247
40
0.49516246978924
40
0.495203989058299
40
0.495902896754128
40
0.496601804449957
40
0.497338102035603
40
0.498074399621249
40
0.498810697206895
40
0.499546994792541
40
0.50034693083682
40
0.500529094490468
40
0.501146866881099
40
0.502746738969657
40
0.504391654111044
40
0.50603656925243
40
0.506449846106789
40
0.506839280065705
40
0.507641990878979
40
0.508444701692253
40
0.509247412505528
40
0.51004191392963
40
0.510836415353732
40
0.511630916777834
40
0.512268091187263
40
0.512425418201937
40
0.513302566279184
40
0.514179714356432
40
0.51505686243368
40
0.515495436472303
40
0.515934010510927
40
0.516538422932744
40
0.51714283535456
40
0.517747247776376
40
0.518351660198192
40
0.519560485041825
40
0.519668202107099
40
0.520769309885457
40
0.522847477935513
40
0.524925645985568
40
0.525964730010596
40
0.527003814035624
40
0.528042898060652
40
0.529081982085679
40
0.529963791484476
40
0.530845600883272
40
0.531727410282069
40
0.532609219680865
40
0.533491029079662
40
0.534372838478458
40
0.536136457276051
40
0.537463536767309
40
0.537900076073644
40
0.539663694871237
40
0.54142731366883
40
0.543190932466423
40
0.54805586175349
40
0.552920791040556
40
0.56265064961469
40
0.571506173612072
40
0.608637938845141
40
0.641476914126519
40
0.671295689742496
40
0.698688897659157
40
0.724190681500505
40
0.748342560163316
40
0.770764014496613
40
0.792184284392127
40
0.814773711499719
40
0.837799629192832
40
0.860794605806974
40
0.88370527957179
40
0.906523507318738
40
0.929239259511457
40
0.951811894075772
40
0.973631120661014
40
0.99314222688543
40
1
40
1
40
1
40
1
40
1
40
1
41
1
10
4.25385120861449
20
-0.707394536235
30
0
41
1
10
4.25385120861449
20
-0.7043326496877
30
0
41
1
10
4.25385120861449
20
-0.691644472988884
30
0
41
1
10
4.25385120861449
20
-0.669229775255417
30
0
41
1
10
4.25385120861449
20
-0.636912515981038
30
0
41
1
10
4.25385120861446
20
-0.594443456772211
30
0
41
1
10
4.25385120861449
20
-0.544696771726933
30
0
41
1
10
4.25385120861446
20
-0.494341459699484
30
0
41
1
10
4.25385120861449
20
-0.443445550269303
30
0
41
1
10
4.25385120861449
20
-0.392555981798552
30
0
41
1
10
4.25385120861446
20
-0.342637105620781
30
0
41
1
10
4.25385120861452
20
-0.293168724028419
30
0
41
1
10
4.25385120861449
20
-0.243662318831156
30
0
41
1
10
4.25385120861449
20
-0.196198855925132
30
0
41
1
10
4.25385120861449
20
-0.154446248735951
30
0
41
1
10
4.25385120861446
20
-0.121025960687859
30
0
41
1
10
4.25385120861446
20
-0.0962012030317112
30
0
41
1
10
4.25385120861446
20
-0.0809516342484642
30
0
41
1
10
4.25385120861446
20
-0.0733153295497004
30
0
41
1
10
4.25385120861446
20
-0.0696551322032803
30
0
41
1
10
4.25385120861446
20
-0.0662828574232606
30
0
41
1
10
4.25385120861449
20
-0.0633903678468357
30
0
41
1
10
4.25385120861449
20
-0.0609404477069404
30
0
41
1
10
4.25385120861449
20
-0.0589335703282075
30
0
41
1
10
4.25385120861449
20
-0.0568787828845245
30
0
41
1
10
4.25385120861449
20
-0.0549185423008964
30
0
41
1
10
4.25385120861449
20
-0.0536201083890546
30
0
41
1
10
4.25385120861449
20
-0.0523658592786944
30
0
41
1
10
4.25385120861449
20
-0.0511322274626878
30
0
41
1
10
4.25385120861449
20
-0.049919201935694
30
0
41
1
10
4.25385120861449
20
-0.0487267758473422
30
0
41
1
10
4.25385120861449
20
-0.047278066777011
30
0
41
1
10
4.25385120861452
20
-0.045823840861317
30
0
41
1
10
4.25385120861452
20
-0.0443876835453807
30
0
41
1
10
4.25385120861452
20
-0.0431468332814973
30
0
41
1
10
4.25385120861452
20
-0.04202693687742
30
0
41
1
10
4.25385120861452
20
-0.0401401514496911
30
0
41
1
10
4.25385120861452
20
-0.03805112753966
30
0
41
1
10
4.25385120861452
20
-0.0360825723120684
30
0
41
1
10
4.25385120861452
20
-0.0338893324699825
30
0
41
1
10
4.25385120861452
20
-0.0316538476607491
30
0
41
1
10
4.25385120861452
20
-0.0302533577337556
30
0
41
1
10
4.25385120861452
20
-0.029118058419499
30
0
41
1
10
4.25385120861452
20
-0.0279225657752704
30
0
41
1
10
4.25385120861449
20
-0.0268468055424194
30
0
41
1
10
4.25385120861449
20
-0.0257947288437208
30
0
41
1
10
4.25385120861449
20
-0.0249477789818684
30
0
41
1
10
4.25385120861449
20
-0.0241127042905305
30
0
41
1
10
4.25385120861449
20
-0.0232895766231138
30
0
41
1
10
4.25385120861449
20
-0.02245542355206
30
0
41
1
10
4.25385120861446
20
-0.0215980991914932
30
0
41
1
10
4.25385120861446
20
-0.0205365333739564
30
0
41
1
10
4.25385120861446
20
-0.0194645172775836
30
0
41
1
10
4.25385120861444
20
-0.0183636166555345
30
0
41
1
10
4.25385120861444
20
-0.0174265667394309
30
0
41
1
10
4.25385120861444
20
-0.0165252687374675
30
0
41
1
10
4.25385120861441
20
-0.0153719783132544
30
0
41
1
10
4.25385120861441
20
-0.0139549904913565
30
0
41
1
10
4.25385120861438
20
-0.0122952580119318
30
0
41
1
10
4.25385120861435
20
-0.010575798152928
30
0
41
1
10
4.25385120861432
20
-0.0089314819982178
30
0
41
1
10
4.25385120861432
20
-0.0075241528765844
30
0
41
1
10
4.25385120861429
20
-0.0063637356455502
30
0
41
1
10
4.25385120861429
20
-0.005447399518431
30
0
41
1
10
4.25385120861426
20
-0.0044263311326063
30
0
41
1
10
4.25385120861426
20
-0.0032956419709365
30
0
41
1
10
4.25385120861424
20
-0.0021731012517989
30
0
41
1
10
4.25385120861424
20
-0.0011030146738165
30
0
41
1
10
4.25385120861424
20
-0.0002184033591277
30
0
41
1
10
4.25385120861421
20
0.0006851375024439
30
0
41
1
10
4.25385120861421
20
0.0016071534561775
30
0
41
1
10
4.25385120861421
20
0.0025471679159921
30
0
41
1
10
4.25385120861421
20
0.0034276382126848
30
0
41
1
10
4.25385120861421
20
0.004378649574619
30
0
41
1
10
4.25385120861421
20
0.0052507842190153
30
0
41
1
10
4.25385120861421
20
0.0060453217200234
30
0
41
1
10
4.25385120861421
20
0.0067634397065319
30
0
41
1
10
4.25385120861421
20
0.0075220716103672
30
0
41
1
10
4.25385120861421
20
0.0084802266880217
30
0
41
1
10
4.25385120861421
20
0.0093017801141855
30
0
41
1
10
4.25385120861421
20
0.010248681825999
30
0
41
1
10
4.25385120861421
20
0.0115722044223787
30
0
41
1
10
4.25385120861421
20
0.0132631977972437
30
0
41
1
10
4.25385120861424
20
0.0148943525148013
30
0
41
1
10
4.25385120861426
20
0.0167437686477854
30
0
41
1
10
4.25385120861429
20
0.0185617632537571
30
0
41
1
10
4.25385120861432
20
0.020110388916379
30
0
41
1
10
4.25385120861432
20
0.0213563773619398
30
0
41
1
10
4.25385120861435
20
0.0225590681986603
30
0
41
1
10
4.25385120861438
20
0.0237194840061363
30
0
41
1
10
4.25385120861438
20
0.024838473193654
30
0
41
1
10
4.25385120861441
20
0.0259167333774428
30
0
41
1
10
4.25385120861441
20
0.0269931459119448
30
0
41
1
10
4.25385120861444
20
0.0282829891281153
30
0
41
1
10
4.25385120861444
20
0.0296792848992311
30
0
41
1
10
4.25385120861444
20
0.0309655495699417
30
0
41
1
10
4.25385120861446
20
0.0324649577359821
30
0
41
1
10
4.25385120861446
20
0.0341773620115191
30
0
41
1
10
4.25385120861449
20
0.0358889988753504
30
0
41
1
10
4.25385120861449
20
0.038458398727812
30
0
41
1
10
4.25385120861449
20
0.042101989090952
30
0
41
1
10
4.25385120861452
20
0.047680184878061
30
0
41
1
10
4.25385120861449
20
0.0549870615042209
30
0
41
1
10
4.25385120861449
20
0.0709075627312075
30
0
41
1
10
4.25385120861446
20
0.0936745313330221
30
0
41
1
10
4.25385120861446
20
0.122522936052917
30
0
41
1
10
4.25385120861446
20
0.155656965192264
30
0
41
1
10
4.25385120861449
20
0.192849067417825
30
0
41
1
10
4.25385120861446
20
0.22689563743981
30
0
41
1
10
4.25385120861449
20
0.258455559841821
30
0
41
1
10
4.25385120861449
20
0.287649111213369
30
0
41
1
10
4.25385120861449
20
0.315040264896453
30
0
41
1
10
4.25385120861449
20
0.341176625536036
30
0
41
1
10
4.25385120861446
20
0.366258869067877
30
0
41
1
10
4.25385120861446
20
0.390638881305478
30
0
41
1
10
4.25385120861446
20
0.414481213374756
30
0
41
1
10
4.25385120861449
20
0.437506798716129
30
0
41
1
10
4.25385120861449
20
0.459592057435089
30
0
41
1
10
4.25385120861446
20
0.480598656699925
30
0
41
1
10
4.25385120861446
20
0.500143554300621
30
0
41
1
10
4.25385120861449
20
0.516142425006024
30
0
41
1
10
4.25385120861449
20
0.527808376990862
30
0
41
1
10
4.25385120861449
20
0.535524311560835
30
0
41
1
10
4.25385120861449
20
0.539673840573812
30
0
41
1
10
4.25385120861449
20
0.540748023091027
30
0
0
SPLINE
5
C1
100
AcDbEntity
8
1
62
256
6
ByLayer
370
18
48
1
60
0
100
AcDbSpline
70
4
71
3
72
52
73
48
40
0
40
0
40
0
40
0
40
0.0222756843053686
40
0.0222756843053686
40
0.0445513686107373
40
0.0445513686107373
40
0.0891027372214746
40
0.0891027372214746
40
0.178205474442955
40
0.178205474442955
40
0.222756843053694
40
0.222756843053694
40
0.267308211664434
40
0.267308211664434
40
0.311859580275174
40
0.311859580275174
40
0.356410948885914
40
0.356410948885914
40
0.400962317496654
40
0.400962317496654
40
0.445513686107394
40
0.445513686107394
40
0.490065054718134
40
0.490065054718134
40
0.534616423328874
40
0.534616423328874
40
0.579167791939614
40
0.579167791939614
40
0.623719160550353
40
0.623719160550353
40
0.668270529161093
40
0.668270529161093
40
0.712821897771833
40
0.712821897771833
40
0.757373266382573
40
0.757373266382573
40
0.801924634993313
40
0.801924634993313
40
0.846476003604053
40
0.846476003604053
40
0.891027372214793
40
0.891027372214793
40
0.935578740825533
40
0.935578740825533
40
0.980130109436273
40
0.980130109436273
40
1
40
1
40
1
40
1
41
1
10
21.5673803543005
20
-0.40493700246131
30
0
41
1
10
21.5447058574462
20
-0.393974621112903
30
0
41
1
10
21.5220840397492
20
-0.382864624785981
30
0
41
1
10
21.4768553076775
20
-0.360505414072748
30
0
41
1
10
21.4542514327737
20
-0.34925133571781
30
0
41
1
10
21.3865043385096
20
-0.315213214461892
30
0
41
1
10
21.3414319596422
20
-0.292142160721937
30
0
41
1
10
21.2063935106317
20
-0.221979089633095
30
0
41
1
10
21.1165242823274
20
-0.174091082166058
30
0
41
1
10
20.9821993833276
20
-0.1001332595863
30
0
41
1
10
20.9375266604176
20
-0.0750804744922107
30
0
41
1
10
20.8478341247692
20
-0.0251849719751078
30
0
41
1
10
20.8028459990271
20
-0.0002868084898182
30
0
41
1
10
20.7126480181091
20
0.0495220183101708
30
0
41
1
10
20.6674210119685
20
0.0744011010288261
30
0
41
1
10
20.5766356568508
20
0.123968774768969
30
0
41
1
10
20.5310235985498
20
0.148698799842833
30
0
41
1
10
20.4404410935736
20
0.197646141899185
30
0
41
1
10
20.3953897324215
20
0.221958840849936
30
0
41
1
10
20.3055462766094
20
0.269843983634757
30
0
41
1
10
20.2606451920283
20
0.293224396539387
30
0
41
1
10
20.1708496108596
20
0.338846352156423
30
0
41
1
10
20.1259789843679
20
0.36112777884253
30
0
41
1
10
20.0362147992776
20
0.404519629344264
30
0
41
1
10
19.9913106670135
20
0.4256145283195
30
0
41
1
10
19.9014941657178
20
0.466656114257518
30
0
41
1
10
19.8566001381356
20
0.48663021799527
30
0
41
1
10
19.7668191637532
20
0.525408725681359
30
0
41
1
10
19.7219292462837
20
0.54420125736479
30
0
41
1
10
19.6316238491665
20
0.579851227999484
30
0
41
1
10
19.5862439943302
20
0.59683294812973
30
0
41
1
10
19.4952793542004
20
0.629020568519195
30
0
41
1
10
19.4499391475142
20
0.64411374386637
30
0
41
1
10
19.3594879842862
20
0.6722973811396
30
0
41
1
10
19.3143874134311
20
0.685402248868598
30
0
41
1
10
19.224505263164
20
0.709693008182597
30
0
41
1
10
19.1797520627621
20
0.720893088403955
30
0
41
1
10
19.0902663558305
20
0.741080606290581
30
0
41
1
10
19.0454476241985
20
0.750015736492031
30
0
41
1
10
18.9557445934316
20
0.765690317322935
30
0
41
1
10
18.9108566699196
20
0.772422979541716
30
0
41
1
10
18.8209236814703
20
0.783647222264648
30
0
41
1
10
18.7758731214074
20
0.78814049049646
30
0
41
1
10
18.6856627732662
20
0.794874566566904
30
0
41
1
10
18.6405188595668
20
0.797116198014976
30
0
41
1
10
18.575131394606
20
0.798639245738968
30
0
41
1
10
18.5549378750922
20
0.798871334595333
30
0
41
1
10
18.534712518139
20
0.798862702053441
30
0
0
SPLINE
5
C2
100
AcDbEntity
8
1
62
256
6
ByLayer
370
18
48
1
60
0
100
AcDbSpline
70
4
71
3
72
106
73
102
40
0
40
0
40
0
40
0
40
0.020379970591243
40
0.020379970591243
40
0.0434341928655583
40
0.0434341928655583
40
0.0549613040027146
40
0.0549613040027146
40
0.066488415139871
40
0.066488415139871
40
0.0895426374141835
40
0.0895426374141835
40
0.112596859688496
40
0.112596859688496
40
0.135651081962809
40
0.135651081962809
40
0.158705304237121
40
0.158705304237121
40
0.170232415374278
40
0.170232415374278
40
0.181759526511436
40
0.181759526511436
40
0.227867971060058
40
0.227867971060058
40
0.239395082197214
40
0.239395082197214
40
0.25092219333437
40
0.25092219333437
40
0.273976415608681
40
0.273976415608681
40
0.297030637882992
40
0.297030637882992
40
0.320084860157303
40
0.320084860157303
40
0.343139082431614
40
0.343139082431614
40
0.366193304705926
40
0.366193304705926
40
0.389247526980237
40
0.389247526980237
40
0.400774638117391
40
0.400774638117391
40
0.412301749254545
40
0.412301749254545
40
0.45841019380316
40
0.45841019380316
40
0.481464416077467
40
0.481464416077467
40
0.504518638351774
40
0.504518638351774
40
0.527572860626082
40
0.527572860626082
40
0.550627082900389
40
0.550627082900389
40
0.573681305174696
40
0.573681305174696
40
0.58520841631185
40
0.58520841631185
40
0.596735527449003
40
0.596735527449003
40
0.619789749723311
40
0.619789749723311
40
0.642843971997618
40
0.642843971997618
40
0.665898194271925
40
0.665898194271925
40
0.67742530540908
40
0.67742530540908
40
0.688952416546235
40
0.688952416546235
40
0.735060861094852
40
0.735060861094852
40
0.746587972232007
40
0.746587972232007
40
0.758115083369162
40
0.758115083369162
40
0.781169305643472
40
0.781169305643472
40
0.804223527917782
40
0.804223527917782
40
0.827277750192091
40
0.827277750192091
40
0.850331972466401
40
0.850331972466401
40
0.873386194740711
40
0.873386194740711
40
0.884913305877867
40
0.884913305877867
40
0.896440417015023
40
0.896440417015023
40
0.919494639289334
40
0.919494639289334
40
0.931021750426489
40
0.931021750426489
40
0.942548861563645
40
0.942548861563645
40
0.965603083837956
40
0.965603083837956
40
0.988657306112267
40
0.988657306112267
40
1
40
1
40
1
40
1
41
1
10
15.3326481819863
20
-0.481483146270449
30
0
41
1
10
15.2928935254021
20
-0.498909106947366
30
0
41
1
10
15.2530768328654
20
-0.515782019989615
30
0
41
1
10
15.1680609697555
20
-0.550523524246699
30
0
41
1
10
15.1228532896284
20
-0.568250929340621
30
0
41
1
10
15.0549592423492
20
-0.593793698080759
30
0
41
1
10
15.0323127667507
20
-0.60213076099862
30
0
41
1
10
14.9869684459519
20
-0.618414647981865
30
0
41
1
10
14.9642879300233
20
-0.626355151838197
30
0
41
1
10
14.8963802957146
20
-0.649311007512637
30
0
41
1
10
14.8511576708148
20
-0.663487318458721
30
0
41
1
10
14.760907353381
20
-0.689792418169958
30
0
41
1
10
14.715866699939
20
-0.701902485859847
30
0
41
1
10
14.6258657454922
20
-0.724003208754766
30
0
41
1
10
14.5809036474356
20
-0.733996599721053
30
0
41
1
10
14.4911274094796
20
-0.751917923761681
30
0
41
1
10
14.4463283414913
20
-0.759851539806363
30
0
41
1
10
14.3791916025113
20
-0.77011605251198
30
0
41
1
10
14.356816984606
20
-0.773260788171712
30
0
41
1
10
14.31198583539
20
-0.778957120631503
30
0
41
1
10
14.2895296474223
20
-0.781510429504607
30
0
41
1
10
14.1771041278674
20
-0.792843385635706
30
0
41
1
10
14.0867267010766
20
-0.797340005641303
30
0
41
1
10
13.9729499125999
20
-0.797111356226054
30
0
41
1
10
13.950169962252
20
-0.796771469930803
30
0
41
1
10
13.9047758135647
20
-0.795502661098595
30
0
41
1
10
13.8821342474261
20
-0.794573616409764
30
0
41
1
10
13.8143714725798
20
-0.790896568454912
30
0
41
1
10
13.7694447036164
20
-0.787239077546758
30
0
41
1
10
13.6795410409633
20
-0.777691972745345
30
0
41
1
10
13.6345910166193
20
-0.771809861773448
30
0
41
1
10
13.5447558569598
20
-0.757864774364151
30
0
41
1
10
13.4998540035551
20
-0.749806680150783
30
0
41
1
10
13.4100069212933
20
-0.731589156901265
30
0
41
1
10
13.3650662321965
20
-0.721430669093849
30
0
41
1
10
13.2752262798058
20
-0.698921235500421
30
0
41
1
10
13.230347491344
20
-0.686545768828751
30
0
41
1
10
13.1404707949459
20
-0.659654855910077
30
0
41
1
10
13.0953647643876
20
-0.64525192373938
30
0
41
1
10
13.0274094287738
20
-0.622282367946355
30
0
41
1
10
13.0047148685355
20
-0.614390429210971
30
0
41
1
10
12.9592335796914
20
-0.598141209737435
30
0
41
1
10
12.936451496277
20
-0.589784848902411
30
0
41
1
10
12.8228513299859
20
-0.547095139136985
30
0
41
1
10
12.7324766852913
20
-0.509945678932013
30
0
41
1
10
12.5978803672054
20
-0.449424308110139
30
0
41
1
10
12.5531647628484
20
-0.428454736465909
30
0
41
1
10
12.463504530862
20
-0.385761753606033
30
0
41
1
10
12.4186337291801
20
-0.363928250020109
30
0
41
1
10
12.3288190819863
20
-0.319290436424836
30
0
41
1
10
12.2838589067917
20
-0.296512614075311
30
0
41
1
10
12.1937809382287
20
-0.250130001999878
30
0
41
1
10
12.1486730938996
20
-0.226509512085073
30
0
41
1
10
12.0583850312601
20
-0.178257901429589
30
0
41
1
10
12.0132321078683
20
-0.15357058916166
30
0
41
1
10
11.9452298135039
20
-0.116151556297552
30
0
41
1
10
11.9224897629376
20
-0.103646454813713
30
0
41
1
10
11.877105012655
20
-0.0787229471037847
30
0
41
1
10
11.854437974309
20
-0.06627681233104
30
0
41
1
10
11.7865228585574
20
-0.0289624139407465
30
0
41
1
10
11.7413574544654
20
-0.0041247682211178
30
0
41
1
10
11.6511607664372
20
0.0453168880386556
30
0
41
1
10
11.6061237532399
20
0.0699109775594025
30
0
41
1
10
11.5162327677453
20
0.118960003345478
30
0
41
1
10
11.4713945964427
20
0.143443393529992
30
0
41
1
10
11.4042518341326
20
0.180011192497574
30
0
41
1
10
11.3818886699884
20
0.192171568464204
30
0
41
1
10
11.3371085712753
20
0.216273635189936
30
0
41
1
10
11.314684409691
20
0.228202675923228
30
0
41
1
10
11.2024279740842
20
0.287305395258301
30
0
41
1
10
11.1122796800357
20
0.333014975290098
30
0
41
1
10
10.9988978824827
20
0.387714191140191
30
0
41
1
10
10.9761902767791
20
0.398538089979581
30
0
41
1
10
10.9307232017828
20
0.419969669001261
30
0
41
1
10
10.9079479268321
20
0.430583692333443
30
0
41
1
10
10.8398819010343
20
0.46193941126873
30
0
41
1
10
10.7947823058062
20
0.482290002229888
30
0
41
1
10
10.704649220542
20
0.521145338101775
30
0
41
1
10
10.6595971290515
20
0.539636979953997
30
0
41
1
10
10.5696123863831
20
0.574942568591922
30
0
41
1
10
10.524664064497
20
0.591731393340552
30
0
41
1
10
10.4347737707686
20
0.623505006960727
30
0
41
1
10
10.3898324888534
20
0.638494125975228
30
0
41
1
10
10.300032101399
20
0.666741899237053
30
0
41
1
10
10.2551898297579
20
0.68001374481139
30
0
41
1
10
10.1879108052861
20
0.698489881100869
30
0
41
1
10
10.165472229889
20
0.704400485751023
30
0
41
1
10
10.1204859873222
20
0.715653573396054
30
0
41
1
10
10.0979443365496
20
0.721002459780834
30
0
41
1
10
10.0302096504341
20
0.736251339522227
30
0
41
1
10
9.98490932868066
20
0.745354248938554
30
0
41
1
10
9.91669058108727
20
0.757367009816164
30
0
41
1
10
9.89388304035
20
0.761099130485661
30
0
41
1
10
9.8483852056427
20
0.76797723738116
30
0
41
1
10
9.8256733072578
20
0.771127790893047
30
0
41
1
10
9.75765945180757
20
0.77972674073186
30
0
41
1
10
9.71249080592992
20
0.78432925843137
30
0
41
1
10
9.62251209150273
20
0.791245732309363
30
0
41
1
10
9.57771864351344
20
0.793547517446399
30
0
41
1
10
9.51076848475736
20
0.795210046797422
30
0
41
1
10
9.48868464530509
20
0.795476088241116
30
0
41
1
10
9.4665967151897
20
0.795462830366944
30
0
0
SPLINE
5
C3
100
AcDbEntity
8
1
62
256
6
ByLayer
370
18
48
1
60
0
100
AcDbSpline
70
4
71
3
72
36
73
32
40
0
40
0
40
0
40
0
40
0.0574927320538359
40
0.0574927320538359
40
0.124814679764276
40
0.124814679764276
40
0.192136627474716
40
0.192136627474716
40
0.259458575185156
40
0.259458575185156
40
0.326780522895597
40
0.326780522895597
40
0.394102470606037
40
0.394102470606037
40
0.461424418316478
40
0.461424418316478
40
0.528746366026917
40
0.528746366026917
40
0.596068313737358
40
0.596068313737358
40
0.663390261447798
40
0.663390261447798
40
0.730712209158239
40
0.730712209158239
40
0.798034156868679
40
0.798034156868679
40
0.865356104579119
40
0.865356104579119
40
0.932678052289559
40
0.932678052289559
40
1
40
1
40
1
40
1
41
1
10
6.26233724465064
20
-0.480157471082009
30
0
41
1
10
6.22356119990565
20
-0.497030362388045
30
0
41
1
10
6.18488952698095
20
-0.513347532842516
30
0
41
1
10
6.10121083081464
20
-0.547642260437044
30
0
41
1
10
6.05627371641575
20
-0.565451573640104
30
0
41
1
10
5.96657119974958
20
-0.599362498180142
30
0
41
1
10
5.92169716912937
20
-0.615330969453538
30
0
41
1
10
5.83187765148782
20
-0.645326489440748
30
0
41
1
10
5.78695481566083
20
-0.659377813451101
30
0
41
1
10
5.69700679396627
20
-0.685523235324354
30
0
41
1
10
5.65197122348329
20
-0.697609692524424
30
0
41
1
10
5.56181220133283
20
-0.719827878344915
30
0
41
1
10
5.51670695834343
20
-0.729973864015477
30
0
41
1
10
5.42641706159165
20
-0.74823279502067
30
0
41
1
10
5.38122522244581
20
-0.75632802574782
30
0
41
1
10
5.29023481687778
20
-0.770116073095522
30
0
41
1
10
5.24479570987472
20
-0.775819977372066
30
0
41
1
10
5.15423628452157
20
-0.784899772068684
30
0
41
1
10
5.10906453145401
20
-0.788273854181398
30
0
41
1
10
5.01888767787364
20
-0.792731555149203
30
0
41
1
10
4.97389320556789
20
-0.793820211492118
30
0
41
1
10
4.8841595975949
20
-0.79369850267409
30
0
41
1
10
4.83944918654822
20
-0.792475726968888
30
0
41
1
10
4.74998267394395
20
-0.787701131568582
30
0
41
1
10
4.7051463757586
20
-0.784176823190478
30
0
41
1
10
4.61536821280725
20
-0.774880283980707
30
0
41
1
10
4.57041331949443
20
-0.769106710577631
30
0
41
1
10
4.48026918400447
20
-0.755361487454991
30
0
41
1
10
4.43508260760061
20
-0.747393712050183
30
0
41
1
10
4.34454821422017
20
-0.729177912232728
30
0
41
1
10
4.29920162409641
20
-0.718932826478721
30
0
41
1
10
4.25385120861452
20
-0.707394536235
30
0
0
SPLINE
5
C4
100
AcDbEntity
8
1
62
256
6
ByLayer
370
18
48
1
60
0
100
AcDbSpline
70
4
71
3
72
106
73
102
40
0
40
0
40
0
40
0
40
0.124999999999978
40
0.124999999999978
40
0.187499999999967
40
0.187499999999967
40
0.21874999999996
40
0.21874999999996
40
0.249999999999954
40
0.249999999999954
40
0.312499999999942
40
0.312499999999942
40
0.343749999999937
40
0.343749999999937
40
0.374999999999931
40
0.374999999999931
40
0.390624999999928
40
0.390624999999928
40
0.406249999999924
40
0.406249999999924
40
0.437499999999919
40
0.437499999999919
40
0.453124999999916
40
0.453124999999916
40
0.468749999999913
40
0.468749999999913
40
0.48437499999991
40
0.48437499999991
40
0.492187499999908
40
0.492187499999908
40
0.496093749999908
40
0.496093749999908
40
0.499999999999907
40
0.499999999999907
40
0.507812499999906
40
0.507812499999906
40
0.511718749999906
40
0.511718749999906
40
0.515624999999905
40
0.515624999999905
40
0.523437499999904
40
0.523437499999904
40
0.527343749999903
40
0.527343749999903
40
0.531249999999903
40
0.531249999999903
40
0.539062499999902
40
0.539062499999902
40
0.546874999999901
40
0.546874999999901
40
0.562499999999899
40
0.562499999999899
40
0.570312499999898
40
0.570312499999898
40
0.578124999999898
40
0.578124999999898
40
0.593749999999899
40
0.593749999999899
40
0.6093749999999
40
0.6093749999999
40
0.6249999999999
40
0.6249999999999
40
0.6562499999999
40
0.6562499999999
40
0.6874999999999
40
0.6874999999999
40
0.7031249999999
40
0.7031249999999
40
0.7187499999999
40
0.7187499999999
40
0.7265624999999
40
0.7265624999999
40
0.7304687499999
40
0.7304687499999
40
0.7343749999999
40
0.7343749999999
40
0.7421874999999
40
0.7421874999999
40
0.746093749999901
40
0.746093749999901
40
0.749999999999902
40
0.749999999999902
40
0.757812499999906
40
0.757812499999906
40
0.76562499999991
40
0.76562499999991
40
0.781249999999916
40
0.781249999999916
40
0.812499999999928
40
0.812499999999928
40
0.828124999999934
40
0.828124999999934
40
0.84374999999994
40
0.84374999999994
40
0.859374999999946
40
0.859374999999946
40
0.874999999999952
40
0.874999999999952
40
0.937499999999976
40
0.937499999999976
40
1
40
1
40
1
40
1
41
1
10
4.25385120861449
20
-0.707394536235
30
0
41
1
10
4.0472400122847
20
-0.676205504897212
30
0
41
1
10
3.84384740947985
20
-0.634037179168928
30
0
41
1
10
3.54185140994102
20
-0.550992441846716
30
0
41
1
10
3.4416951018903
20
-0.5200340149255
30
0
41
1
10
3.29197863477972
20
-0.468286189060819
30
0
41
1
10
3.24225675978747
20
-0.450182298631176
30
0
41
1
10
3.14350522155968
20
-0.412348869773098
30
0
41
1
10
3.09442353649797
20
-0.392602114360045
30
0
41
1
10
2.94804986971525
20
-0.330782021439859
30
0
41
1
10
2.85161486660007
20
-0.286169366829626
30
0
41
1
10
2.70882010608875
20
-0.213300707464867
30
0
41
1
10
2.66153411878563
20
-0.188012285374583
30
0
41
1
10
2.56767159609186
20
-0.135117483552534
30
0
41
1
10
2.52109290541674
20
-0.107517520963825
30
0
41
1
10
2.45188595782088
20
-0.0639474254060417
30
0
41
1
10
2.42888495849942
20
-0.049030622930303
30
0
41
1
10
2.38336547935126
20
-0.0184969621305981
30
0
41
1
10
2.36087546994799
20
-0.0029016626058365
30
0
41
1
10
2.29434712516786
20
0.0450324962931745
30
0
41
1
10
2.25121132099412
20
0.0784710530916186
30
0
41
1
10
2.18933461198284
20
0.13208988002512
30
0
41
1
10
2.16915524801411
20
0.150588076893712
30
0
41
1
10
2.13062316376684
20
0.188641343345978
30
0
41
1
10
2.11220465291765
20
0.208238572224644
30
0
41
1
10
2.07772634462307
20
0.249048159174379
30
0
41
1
10
2.06158853004231
20
0.270385688608485
30
0
41
1
10
2.04070862845956
20
0.303240376547223
30
0
41
1
10
2.03428241897302
20
0.314360024162426
30
0
41
1
10
2.02562390305849
20
0.331355856298245
30
0
41
1
10
2.02290184513606
20
0.337074094462935
30
0
41
1
10
2.01782624246854
20
0.348630912486726
30
0
41
1
10
2.01546845647505
20
0.354484710274562
30
0
41
1
10
2.00910539994379
20
0.372002911530643
30
0
41
1
10
2.00577514391043
20
0.383688916499636
30
0
41
1
10
2.00235307556855
20
0.401243997755046
30
0
41
1
10
2.00147521179011
20
0.407100080980172
30
0
41
1
10
2.00028822640297
20
0.418824215784639
30
0
41
1
10
1.99998112105885
20
0.424719765256981
30
0
41
1
10
1.99997637585605
20
0.442086898230883
30
0
41
1
10
2.00117554814514
20
0.453315836073728
30
0
41
1
10
2.00474803626503
20
0.469662063017068
30
0
41
1
10
2.00623470988364
20
0.475027878265678
30
0
41
1
10
2.00979704955725
20
0.485597415001166
30
0
41
1
10
2.01188500329846
20
0.490825172269013
30
0
41
1
10
2.01891837249954
20
0.506044020107908
30
0
41
1
10
2.02462069258897
20
0.515591858803958
30
0
41
1
10
2.0377504649835
20
0.533691864185045
30
0
41
1
10
2.04523350295597
20
0.542292581513408
30
0
41
1
10
2.06945717391255
20
0.566373928261953
30
0
41
1
10
2.08789711606821
20
0.580224780328507
30
0
41
1
10
2.1178422050763
20
0.598889242625575
30
0
41
1
10
2.12823279684039
20
0.604759050601189
30
0
41
1
10
2.14959514070836
20
0.615852739642747
30
0
41
1
10
2.16049881754924
20
0.621043623930177
30
0
41
1
10
2.19375988588362
20
0.635753847899451
30
0
41
1
10
2.21666141206322
20
0.644421120143846
30
0
41
1
10
2.26352456395728
20
0.660163616315202
30
0
41
1
10
2.28749002665339
20
0.66723205244196
30
0
41
1
10
2.33625269336395
20
0.680171803723539
30
0
41
1
10
2.36109658062287
20
0.686049463832319
30
0
41
1
10
2.43627561407286
20
0.702200853819164
30
0
41
1
10
2.48720635336508
20
0.711023635795556
30
0
41
1
10
2.59020263615568
20
0.726235849814373
30
0
41
1
10
2.64227325454934
20
0.73260718097751
30
0
41
1
10
2.72104641208597
20
0.740894472755485
30
0
41
1
10
2.74742787049115
20
0.743441325191952
30
0
41
1
10
2.8003261952592
20
0.748163398920894
30
0
41
1
10
2.82685061414631
20
0.750335284244926
30
0
41
1
10
2.86669855584088
20
0.753404112936465
30
0
41
1
10
2.87998572698871
20
0.75440244121927
30
0
41
1
10
2.89994019772706
20
0.755843649768934
30
0
41
1
10
2.90659506108932
20
0.756315219575157
30
0
41
1
10
2.91997153360606
20
0.757169049725832
30
0
41
1
10
2.92672623811569
20
0.757547508087697
30
0
41
1
10
2.94698647206218
20
0.758375476882208
30
0
41
1
10
2.96043824433008
20
0.758501035424558
30
0
41
1
10
2.98053437167394
20
0.758067657898664
30
0
41
1
10
2.98721962070215
20
0.757819796508329
30
0
41
1
10
3.00056678148232
20
0.757138879178939
30
0
41
1
10
3.00724068313889
20
0.756704814098043
30
0
41
1
10
3.02713915264928
20
0.755254142926816
30
0
41
1
10
3.04028392132602
20
0.754127827422053
30
0
41
1
10
3.06663617848082
20
0.751900080622619
30
0
41
1
10
3.07982023973906
20
0.750773121872896
30
0
41
1
10
3.11939212972774
20
0.747351202533451
30
0
41
1
10
3.14579207420849
20
0.74500630578541
30
0
41
1
10
3.22499078884996
20
0.737715108476408
30
0
41
1
10
3.27779967230134
20
0.732517775357849
30
0
41
1
10
3.35702036530427
20
0.724246751912062
30
0
41
1
10
3.38342519909185
20
0.721411696837521
30
0
41
1
10
3.43623530166713
20
0.715592892042167
30
0
41
1
10
3.46264529849842
20
0.71261593830647
30
0
41
1
10
3.51538925939681
20
0.706413616901898
30
0
41
1
10
3.54171595821845
20
0.703179266279079
30
0
41
1
10
3.59415557046106
20
0.696252287920487
30
0
41
1
10
3.62026981669501
20
0.692560199337152
30
0
41
1
10
3.75031299218105
20
0.672851498039336
30
0
41
1
10
3.85268097964686
20
0.653113457907892
30
0
41
1
10
4.05488358837999
20
0.604178323145817
30
0
41
1
10
4.15471081406636
20
0.57494594714268
30
0
41
1
10
4.25385120861446
20
0.540748023198177
30
0
0
SPLINE
5
C5
100
AcDbEntity
8
1
62
256
6
ByLayer
370
18
48
1
60
0
100
AcDbSpline
70
4
71
3
72
64
73
60
40
0
40
0
40
0
40
0
40
0.0404399890124996
40
0.0404399890124996
40
0.0808799780249993
40
0.0808799780249993
40
0.161759956049999
40
0.161759956049999
40
0.202199945062499
40
0.202199945062499
40
0.242639934075
40
0.242639934075
40
0.283079923087501
40
0.283079923087501
40
0.303299917593753
40
0.303299917593753
40
0.323519912100004
40
0.323519912100004
40
0.36395990111251
40
0.36395990111251
40
0.384179895618763
40
0.384179895618763
40
0.404399890125015
40
0.404399890125015
40
0.444839879137521
40
0.444839879137521
40
0.485279868150026
40
0.485279868150026
40
0.525719857162532
40
0.525719857162532
40
0.566159846175038
40
0.566159846175038
40
0.58637984068129
40
0.58637984068129
40
0.606599835187543
40
0.606599835187543
40
0.647039824200046
40
0.647039824200046
40
0.68747981321255
40
0.68747981321255
40
0.727919802225053
40
0.727919802225053
40
0.768359791237556
40
0.768359791237556
40
0.808799780250059
40
0.808799780250059
40
0.849239769262562
40
0.849239769262562
40
0.869459763768815
40
0.869459763768815
40
0.889679758275067
40
0.889679758275067
40
0.90989975278132
40
0.90989975278132
40
0.930119747287573
40
0.930119747287573
40
0.97055973630008
40
0.97055973630008
40
1
40
1
40
1
40
1
41
1
10
4.25385120861449
20
0.540748023198177
30
0
41
1
10
4.2990473514682
20
0.521897064608169
30
0
41
1
10
4.34435121529128
20
0.502680730951596
30
0
41
1
10
4.43499163283343
20
0.463361946386669
30
0
41
1
10
4.48032594168745
20
0.443256202973799
30
0
41
1
10
4.6159873917166
20
0.381050364997947
30
0
41
1
10
4.70589294308414
20
0.336928667700306
30
0
41
1
10
4.84010128388465
20
0.266822325730743
30
0
41
1
10
4.88476855493275
20
0.24285732729382
30
0
41
1
10
4.97471700283015
20
0.195090313499406
30
0
41
1
10
5.01997791036922
20
0.171264152698825
30
0
41
1
10
5.11075585451849
20
0.123187719777178
30
0
41
1
10
5.15625541771894
20
0.0989034303407266
30
0
41
1
10
5.22453991722483
20
0.0618279522752516
30
0
41
1
10
5.24734145535535
20
0.0493603836507077
30
0
41
1
10
5.29284709191907
20
0.024331992430831
30
0
41
1
10
5.31553659011638
20
0.0117840599148451
30
0
41
1
10
5.3834088327425
20
-0.0259695456569773
30
0
41
1
10
5.42832123700632
20
-0.0514226071887265
30
0
41
1
10
5.49568772652711
20
-0.0890702420110188
30
0
41
1
10
5.518151246923
20
-0.101516101096564
30
0
41
1
10
5.5631677532221
20
-0.126072578978466
30
0
41
1
10
5.58571132673151
20
-0.138201102734115
30
0
41
1
10
5.65338791865199
20
-0.174258153107388
30
0
41
1
10
5.69856886253797
20
-0.197856799134627
30
0
41
1
10
5.78874384088735
20
-0.244745519685068
30
0
41
1
10
5.83373144443465
20
-0.268043751231801
30
0
41
1
10
5.92359848648729
20
-0.314157831635896
30
0
41
1
10
5.96845765997597
20
-0.337008570821638
30
0
41
1
10
6.05814412655926
20
-0.382059258353621
30
0
41
1
10
6.10306485307723
20
-0.404097756533673
30
0
41
1
10
6.17103986264468
20
-0.435659282128824
30
0
41
1
10
6.19377914388454
20
-0.445961181560335
30
0
41
1
10
6.23937869598348
20
-0.466197690089928
30
0
41
1
10
6.26226739727329
20
-0.476143582506722
30
0
41
1
10
6.33080836618001
20
-0.505412566377146
30
0
41
1
10
6.37630511087556
20
-0.52421381844178
30
0
41
1
10
6.46682855871793
20
-0.560470013952795
30
0
41
1
10
6.51188894288492
20
-0.577876005946791
30
0
41
1
10
6.60160655051396
20
-0.611174568457301
30
0
41
1
10
6.64621641433922
20
-0.627106358201644
30
0
41
1
10
6.73573253105744
20
-0.656622260673856
30
0
41
1
10
6.78070468381839
20
-0.670159084831255
30
0
41
1
10
6.87087046120757
20
-0.695148381914606
30
0
41
1
10
6.91604498021209
20
-0.706620842164057
30
0
41
1
10
7.00628448877922
20
-0.727750660389745
30
0
41
1
10
7.05137007986872
20
-0.7373823244005
30
0
41
1
10
7.1190210976209
20
-0.750296370374798
30
0
41
1
10
7.14157445250694
20
-0.754346301707443
30
0
41
1
10
7.18667447041631
20
-0.761926063425165
30
0
41
1
10
7.2092193261775
20
-0.765455354195694
30
0
41
1
10
7.2544031976438
20
-0.77192396385874
30
0
41
1
10
7.27706911822588
20
-0.774865808130016
30
0
41
1
10
7.3224595317302
20
-0.780110706412529
30
0
41
1
10
7.3451697229178
20
-0.782410092933191
30
0
41
1
10
7.41331788942767
20
-0.788401251152862
30
0
41
1
10
7.45876204308499
20
-0.791199489863345
30
0
41
1
10
7.53705290393447
20
-0.794108404003879
30
0
41
1
10
7.56994833330558
20
-0.794742189792373
30
0
41
1
10
7.60276087022535
20
-0.794767241013858
30
0
0
SPLINE
5
C6
100
AcDbEntity
8
1
62
256
6
ByLayer
370
18
48
1
60
0
100
AcDbSpline
70
4
71
3
72
104
73
100
40
0
40
0
40
0
40
0
40
0.0152980965232455
40
0.0152980965232455
40
0.0383374488667666
40
0.0383374488667666
40
0.0613768012102877
40
0.0613768012102877
40
0.0844161535538088
40
0.0844161535538088
40
0.0959358297255692
40
0.0959358297255692
40
0.10745550589733
40
0.10745550589733
40
0.11897518206909
40
0.11897518206909
40
0.130494858240851
40
0.130494858240851
40
0.153534210584372
40
0.153534210584372
40
0.176573562927893
40
0.176573562927893
40
0.199612915271414
40
0.199612915271414
40
0.222652267614935
40
0.222652267614935
40
0.245691619958456
40
0.245691619958456
40
0.268730972301977
40
0.268730972301977
40
0.291770324645498
40
0.291770324645498
40
0.314809676989019
40
0.314809676989019
40
0.326329353160779
40
0.326329353160779
40
0.33784902933254
40
0.33784902933254
40
0.360888381676058
40
0.360888381676058
40
0.383927734019577
40
0.383927734019577
40
0.406967086363095
40
0.406967086363095
40
0.430006438706613
40
0.430006438706613
40
0.453045791050131
40
0.453045791050131
40
0.47608514339365
40
0.47608514339365
40
0.499124495737168
40
0.499124495737168
40
0.522163848080686
40
0.522163848080686
40
0.545203200424205
40
0.545203200424205
40
0.568242552767723
40
0.568242552767723
40
0.591281905111241
40
0.591281905111241
40
0.602801581282999
40
0.602801581282999
40
0.614321257454757
40
0.614321257454757
40
0.625840933626515
40
0.625840933626515
40
0.637360609798272
40
0.637360609798272
40
0.660399962141788
40
0.660399962141788
40
0.683439314485304
40
0.683439314485304
40
0.706478666828819
40
0.706478666828819
40
0.729518019172335
40
0.729518019172335
40
0.752557371515851
40
0.752557371515851
40
0.775596723859366
40
0.775596723859366
40
0.798636076202882
40
0.798636076202882
40
0.821675428546398
40
0.821675428546398
40
0.833195104718156
40
0.833195104718156
40
0.844714780889913
40
0.844714780889913
40
0.867754133233429
40
0.867754133233429
40
0.91383283792046
40
0.91383283792046
40
0.936872190263977
40
0.936872190263977
40
0.959911542607494
40
0.959911542607494
40
0.982950894951011
40
0.982950894951011
40
1
40
1
40
1
40
1
41
1
10
10.7964693579883
20
0.477217035119196
30
0
41
1
10
10.8261203513085
20
0.490617281282312
30
0
41
1
10
10.8557510908931
20
0.503716949522527
30
0
41
1
10
10.9302477494183
20
0.535371510681671
30
0
41
1
10
10.9752747588135
20
0.553297156258594
30
0
41
1
10
11.0655592986756
20
0.587432908872358
30
0
41
1
10
11.1108042740437
20
0.603658969821225
30
0
41
1
10
11.2012464935389
20
0.634703722685344
30
0
41
1
10
11.246472851349
20
0.649481495498748
30
0
41
1
10
11.3143924462193
20
0.670380430979833
30
0
41
1
10
11.3370417840634
20
0.677139739797553
30
0
41
1
10
11.3823565998583
20
0.69023099854283
30
0
41
1
10
11.4049547099545
20
0.696533003765097
30
0
41
1
10
11.4500934701716
20
0.708538614926965
30
0
41
1
10
11.4726412021578
20
0.714244742350729
30
0
41
1
10
11.517788710228
20
0.725007934210453
30
0
41
1
10
11.5403909111666
20
0.730065063577257
30
0
41
1
10
11.608225888043
20
0.744352301279235
30
0
41
1
10
11.6534870071639
20
0.752706622668001
30
0
41
1
10
11.7437794000039
20
0.767334835899675
30
0
41
1
10
11.78878539544
20
0.773612242400986
30
0
41
1
10
11.8785737513601
20
0.783984187196552
30
0
41
1
10
11.9233656079318
20
0.788077061866289
30
0
41
1
10
12.0127392612235
20
0.79395825767574
30
0
41
1
10
12.0573781821909
20
0.795711771020251
30
0
41
1
10
12.1473237564119
20
0.79681976510372
30
0
41
1
10
12.192597885049
20
0.796206919044749
30
0
41
1
10
12.2834311856399
20
0.792731342709487
30
0
41
1
10
12.3289714894596
20
0.789862218308201
30
0
41
1
10
12.420143631778
20
0.781713406908722
30
0
41
1
10
12.4655180016981
20
0.77646311337088
30
0
41
1
10
12.5557400283781
20
0.763586659547855
30
0
41
1
10
12.6005302618356
20
0.75590133619346
30
0
41
1
10
12.667754349942
20
0.742792308030658
30
0
41
1
10
12.6901770714875
20
0.738167780333924
30
0
41
1
10
12.7351179542029
20
0.728479369303329
30
0
41
1
10
12.7576263093586
20
0.723409690409568
30
0
41
1
10
12.8252046846089
20
0.707506893551141
30
0
41
1
10
12.8703301079674
20
0.695988862396035
30
0
41
1
10
12.9604139289963
20
0.670856098462622
30
0
41
1
10
13.0053696402005
20
0.657229017143237
30
0
41
1
10
13.0952017159081
20
0.627855591867302
30
0
41
1
10
13.1400536138894
20
0.612081493083281
30
0
41
1
10
13.2297683205846
20
0.578399445558716
30
0
41
1
10
13.2747283521618
20
0.560599787182269
30
0
41
1
10
13.3654678674384
20
0.523992771103963
30
0
41
1
10
13.4112664160145
20
0.505058564805751
30
0
41
1
10
13.5024009565653
20
0.465951239765559
30
0
41
1
10
13.5477803967463
20
0.445702655209487
30
0
41
1
10
13.6380983389672
20
0.403697369766178
30
0
41
1
10
13.6830698270497
20
0.381992921379293
30
0
41
1
10
13.7726325637078
20
0.337142254509843
30
0
41
1
10
13.8171819930347
20
0.313918527407964
30
0
41
1
10
13.9066171382417
20
0.267235081137216
30
0
41
1
10
13.9515650776636
20
0.243892660800867
30
0
41
1
10
14.0416998387578
20
0.196874996358815
30
0
41
1
10
14.0868690048915
20
0.173168911719046
30
0
41
1
10
14.1771231741239
20
0.12482819983947
30
0
41
1
10
14.2222301095487
20
0.100230281077728
30
0
41
1
10
14.2899343923761
20
0.0627970517485892
30
0
41
1
10
14.312508763758
20
0.0502280766412184
30
0
41
1
10
14.3576576527327
20
0.0248760760524647
30
0
41
1
10
14.380231833305
20
0.0120917477141518
30
0
41
1
10
14.4254849072498
20
-0.013493673469668
30
0
41
1
10
14.4481254956075
20
-0.0262706589129778
30
0
41
1
10
14.4933854302308
20
-0.0515335179173917
30
0
41
1
10
14.5160352164699
20
-0.0640155920620771
30
0
41
1
10
14.584010270377
20
-0.10109659432058
30
0
41
1
10
14.6293517603822
20
-0.125351745975706
30
0
41
1
10
14.7197846641606
20
-0.173525012194801
30
0
41
1
10
14.7648460810825
20
-0.197494967890492
30
0
41
1
10
14.8546829848658
20
-0.24513119362868
30
0
41
1
10
14.8994807348147
20
-0.268758390981105
30
0
41
1
10
14.9888015869655
20
-0.315649235092565
30
0
41
1
10
15.0333553856913
20
-0.338851472168926
30
0
41
1
10
15.1230421366598
20
-0.38344769789299
30
0
41
1
10
15.168182475827
20
-0.404840803379756
30
0
41
1
10
15.2587375782524
20
-0.446382697053934
30
0
41
1
10
15.3041393834915
20
-0.466551323084161
30
0
41
1
10
15.3949810739531
20
-0.505982524647607
30
0
41
1
10
15.4405655720949
20
-0.525234117751438
30
0
41
1
10
15.5311314413321
20
-0.562218925235669
30
0
41
1
10
15.5760733094746
20
-0.580079821203668
30
0
41
1
10
15.6434163712578
20
-0.605318419794855
30
0
41
1
10
15.6658613416944
20
-0.613463784356895
30
0
41
1
10
15.7108341293668
20
-0.62913646615803
30
0
41
1
10
15.7333556104632
20
-0.636672858709119
30
0
41
1
10
15.8009656653401
20
-0.658482918529245
30
0
41
1
10
15.8461012506991
20
-0.671963095735549
30
0
41
1
10
15.9812315191757
20
-0.7097403114239
30
0
41
1
10
16.0709030210562
20
-0.731392412679128
30
0
41
1
10
16.2051464846751
20
-0.757668587292244
30
0
41
1
10
16.2499278833085
20
-0.765323188388464
30
0
41
1
10
16.3402735861544
20
-0.778098094662511
30
0
41
1
10
16.3857774730468
20
-0.783275233543606
30
0
41
1
10
16.4771301186184
20
-0.791403065506501
30
0
41
1
10
16.5227184391787
20
-0.794332780049842
30
0
41
1
10
16.6015273589064
20
-0.797433352281871
30
0
41
1
10
16.6349267310595
20
-0.798120872960368
30
0
41
1
10
16.6682129522734
20
-0.798162041847718
30
0
0
SPLINE
5
C7
100
AcDbEntity
8
1
62
256
6
ByLayer
370
18
48
1
60
0
100
AcDbSpline
70
4
71
3
72
38
73
34
40
0
40
0
40
0
40
0
40
0.0080938989494542
40
0.0080938989494542
40
0.0477701429914775
40
0.0477701429914775
40
0.127122631075522
40
0.127122631075522
40
0.206475119159565
40
0.206475119159565
40
0.285827607243609
40
0.285827607243609
40
0.365180095327654
40
0.365180095327654
40
0.404856339369672
40
0.404856339369672
40
0.44453258341169
40
0.44453258341169
40
0.523885071495734
40
0.523885071495734
40
0.603237559579779
40
0.603237559579779
40
0.682590047663823
40
0.682590047663823
40
0.761942535747867
40
0.761942535747867
40
0.841295023831911
40
0.841295023831911
40
0.920647511915956
40
0.920647511915956
40
0.960323755957979
40
0.960323755957979
40
1
40
1
40
1
40
1
41
1
10
19.8653191714198
20
0.481065863184398
30
0
41
1
10
19.8698902048308
20
0.483101993273635
30
0
41
1
10
19.8744631427828
20
0.485127101498705
30
0
41
1
10
19.9014656444224
20
0.497011989172336
30
0
41
1
10
19.9239366493948
20
0.506624138484767
30
0
41
1
10
19.9914194062069
20
0.534793193353323
30
0
41
1
10
20.0365028389029
20
0.552685481552771
30
0
41
1
10
20.1265470203556
20
0.587123955077203
30
0
41
1
10
20.1715010540525
20
0.603671322026202
30
0
41
1
10
20.2613657200271
20
0.635232107868632
30
0
41
1
10
20.3062565681604
20
0.650268500577909
30
0
41
1
10
20.3960737976928
20
0.678620218949561
30
0
41
1
10
20.4410940807728
20
0.691824940034024
30
0
41
1
10
20.5092704757039
20
0.709749291998207
30
0
41
1
10
20.5320753881549
20
0.715427107917179
30
0
41
1
10
20.5775916502132
20
0.726191219783203
30
0
41
1
10
20.6003322971643
20
0.731284924103988
30
0
41
1
10
20.6684466141696
20
0.745762624580749
30
0
41
1
10
20.7136849712305
20
0.754365753513127
30
0
41
1
10
20.8037408000992
20
0.769480334970211
30
0
41
1
10
20.8485915673319
20
0.775970379149328
30
0
41
1
10
20.9379418271131
20
0.786726735279416
30
0
41
1
10
20.9823900740155
20
0.790990696018497
30
0
41
1
10
21.071620687065
20
0.797052043054038
30
0
41
1
10
21.1164719593115
20
0.79886244150444
30
0
41
1
10
21.2064548257558
20
0.800236008723743
30
0
41
1
10
21.2515657664654
20
0.799803121128747
30
0
41
1
10
21.3417323850677
20
0.796651599433602
30
0
41
1
10
21.3868062332909
20
0.793924282044372
30
0
41
1
10
21.4544777820316
20
0.78802042279878
30
0
41
1
10
21.4770448315488
20
0.78575062079338
30
0
41
1
10
21.5221865601308
20
0.780580047436416
30
0
41
1
10
21.5447575685274
20
0.777675925288548
30
0
41
1
10
21.5673803543005
20
0.774467130590153
30
0
0
SPLINE
5
C8
100
AcDbEntity
8
1
62
256
6
ByLayer
370
18
48
1
60
0
100
AcDbSpline
70
4
71
3
72
98
73
94
40
0
40
0
40
0
40
0
40
0.0091769151222207
40
0.0091769151222207
40
0.032234326393873
40
0.032234326393873
40
0.0552917376655253
40
0.0552917376655253
40
0.0783491489371776
40
0.0783491489371776
40
0.10140656020883
40
0.10140656020883
40
0.124463971480482
40
0.124463971480482
40
0.147521382752135
40
0.147521382752135
40
0.170578794023787
40
0.170578794023787
40
0.193636205295439
40
0.193636205295439
40
0.216693616567091
40
0.216693616567091
40
0.228222322202919
40
0.228222322202919
40
0.239751027838746
40
0.239751027838746
40
0.262808439110399
40
0.262808439110399
40
0.308923261653706
40
0.308923261653706
40
0.33198067292536
40
0.33198067292536
40
0.355038084197013
40
0.355038084197013
40
0.378095495468667
40
0.378095495468667
40
0.401152906740321
40
0.401152906740321
40
0.424210318011974
40
0.424210318011974
40
0.435739023647799
40
0.435739023647799
40
0.447267729283625
40
0.447267729283625
40
0.49338255182693
40
0.49338255182693
40
0.516439963098582
40
0.516439963098582
40
0.539497374370235
40
0.539497374370235
40
0.562554785641887
40
0.562554785641887
40
0.585612196913539
40
0.585612196913539
40
0.608669608185192
40
0.608669608185192
40
0.631727019456844
40
0.631727019456844
40
0.654784430728496
40
0.654784430728496
40
0.666313136364324
40
0.666313136364324
40
0.677841842000151
40
0.677841842000151
40
0.700899253271807
40
0.700899253271807
40
0.723956664543462
40
0.723956664543462
40
0.747014075815117
40
0.747014075815117
40
0.770071487086772
40
0.770071487086772
40
0.793128898358426
40
0.793128898358426
40
0.816186309630082
40
0.816186309630082
40
0.827715015265908
40
0.827715015265908
40
0.839243720901734
40
0.839243720901734
40
0.862301132173389
40
0.862301132173389
40
0.885358543445044
40
0.885358543445044
40
0.908415954716699
40
0.908415954716699
40
0.931473365988354
40
0.931473365988354
40
0.94300207162418
40
0.94300207162418
40
0.954530777260006
40
0.954530777260006
40
1
40
1
40
1
40
1
41
1
10
19.8653116308051
20
-0.482593011902509
30
0
41
1
10
19.8474432943638
20
-0.490492871843316
30
0
41
1
10
19.829576192244
20
-0.498302493782774
30
0
41
1
10
19.7668191637532
20
-0.525408725681359
30
0
41
1
10
19.7219292462837
20
-0.54420125736479
30
0
41
1
10
19.6316238491665
20
-0.579851227999484
30
0
41
1
10
19.5862439943302
20
-0.596832948129702
30
0
41
1
10
19.4952793542004
20
-0.629020568519167
30
0
41
1
10
19.4499391475142
20
-0.64411374386637
30
0
41
1
10
19.3594879842862
20
-0.6722973811396
30
0
41
1
10
19.3143874134311
20
-0.68540224886857
30
0
41
1
10
19.224505263164
20
-0.709693008182626
30
0
41
1
10
19.1797520627621
20
-0.720893088403955
30
0
41
1
10
19.0902663558305
20
-0.741080606290581
30
0
41
1
10
19.0454476241985
20
-0.750015736492031
30
0
41
1
10
18.9557445934316
20
-0.765690317322935
30
0
41
1
10
18.9108566699197
20
-0.772422979541716
30
0
41
1
10
18.8209236814703
20
-0.783647222264648
30
0
41
1
10
18.7758731214074
20
-0.78814049049646
30
0
41
1
10
18.6856627732662
20
-0.794874566566904
30
0
41
1
10
18.6405188595668
20
-0.797116198014976
30
0
41
1
10
18.572689518182
20
-0.798696123526383
30
0
41
1
10
18.5500475438202
20
-0.79892405175076
30
0
41
1
10
18.5046816739759
20
-0.798773896852964
30
0
41
1
10
18.4820142055144
20
-0.798398055610335
30
0
41
1
10
18.4140788171666
20
-0.796393831982499
30
0
41
1
10
18.3688969547357
20
-0.79388650643142
30
0
41
1
10
18.2336016481739
20
-0.782963455483099
30
0
41
1
10
18.1436301074449
20
-0.7712260921503
30
0
41
1
10
18.0092362099534
20
-0.746812550365775
30
0
41
1
10
17.9645663462799
20
-0.737495266707725
30
0
41
1
10
17.8749948767396
20
-0.716813129499599
30
0
41
1
10
17.8300725739317
20
-0.70548000039031
30
0
41
1
10
17.7400544389448
20
-0.680780929422014
30
0
41
1
10
17.6949426363285
20
-0.667424882065461
30
0
41
1
10
17.604431173115
20
-0.638773352008712
30
0
41
1
10
17.5590127546829
20
-0.623474457624582
30
0
41
1
10
17.468036329351
20
-0.59082494753244
30
0
41
1
10
17.4228005984364
20
-0.573557238312389
30
0
41
1
10
17.3552204237902
20
-0.546369641910161
30
0
41
1
10
17.3327289563009
20
-0.537106573925541
30
0
41
1
10
17.2877332969654
20
-0.518301273786307
30
0
41
1
10
17.2652357198438
20
-0.50875047652525
30
0
41
1
10
17.1528062955447
20
-0.460188805751415
30
0
41
1
10
17.063024723897
20
-0.41879688410674
30
0
41
1
10
16.9283141440046
20
-0.353405583231279
30
0
41
1
10
16.8834358198519
20
-0.331005672364483
30
0
41
1
10
16.793740688807
20
-0.284944381976374
30
0
41
1
10
16.7489415354939
20
-0.261244588294233
30
0
41
1
10
16.6588877496391
20
-0.213468570440966
30
0
41
1
10
16.6136827756993
20
-0.189311677112499
30
0
41
1
10
16.5229593993108
20
-0.140383389595513
30
0
41
1
10
16.4773643826773
20
-0.115609335673128
30
0
41
1
10
16.3864111213368
20
-0.065983008036369
30
0
41
1
10
16.3409912145599
20
-0.0410805996563681
30
0
41
1
10
16.2503429873931
20
0.0090444282432713
30
0
41
1
10
16.2051414294917
20
0.0343155452972042
30
0
41
1
10
16.1146951295152
20
0.0847507772708411
30
0
41
1
10
16.0693411376157
20
0.109716745158124
30
0
41
1
10
16.0011378897452
20
0.14683222378298
30
0
41
1
10
15.9783768305292
20
0.159151719068319
30
0
41
1
10
15.9329655251347
20
0.183579789910255
30
0
41
1
10
15.9102934329399
20
0.195699774585478
30
0
41
1
10
15.8423574649714
20
0.231746195248064
30
0
41
1
10
15.797168004906
20
0.255350389540212
30
0
41
1
10
15.7070404103232
20
0.301808048128777
30
0
41
1
10
15.6621193957879
20
0.324690167402281
30
0
41
1
10
15.5725209327682
20
0.369661928721342
30
0
41
1
10
15.5278162562318
20
0.391700033177699
30
0
41
1
10
15.4381388225159
20
0.434160379476651
30
0
41
1
10
15.3932478387686
20
0.454718325093779
30
0
41
1
10
15.3033417122304
20
0.494471149444962
30
0
41
1
10
15.2583112760543
20
0.513642978830973
30
0
41
1
10
15.1680609697555
20
0.550523524246699
30
0
41
1
10
15.1228532896284
20
0.568250929340621
30
0
41
1
10
15.0549592423492
20
0.593793698080759
30
0
41
1
10
15.0323127667507
20
0.60213076099862
30
0
41
1
10
14.9869684459519
20
0.618414647981865
30
0
41
1
10
14.9642879300233
20
0.626355151838197
30
0
41
1
10
14.8963802957146
20
0.649311007512637
30
0
41
1
10
14.8511576708148
20
0.663487318458692
30
0
41
1
10
14.760907353381
20
0.689792418169958
30
0
41
1
10
14.715866699939
20
0.701902485859847
30
0
41
1
10
14.6258657454922
20
0.724003208754766
30
0
41
1
10
14.5809036474356
20
0.733996599721053
30
0
41
1
10
14.4911274094796
20
0.751917923761681
30
0
41
1
10
14.4463283414913
20
0.759851539806334
30
0
41
1
10
14.3791916025114
20
0.77011605251198
30
0
41
1
10
14.356816984606
20
0.773260788171712
30
0
41
1
10
14.31198583539
20
0.778957120631503
30
0
41
1
10
14.2895296474223
20
0.781510429504607
30
0
41
1
10
14.1783632786446
20
0.792716458043287
30
0
41
1
10
14.0892571531449
20
0.797213206136547
30
0
41
1
10
13.9995277466231
20
0.797162017435426
30
0
0
SPLINE
5
C9
100
AcDbEntity
8
1
62
256
6
ByLayer
370
18
48
1
60
0
100
AcDbSpline
70
4
71
3
72
100
73
96
40
0
40
0
40
0
40
0
40
0.0079401194226815
40
0.0079401194226815
40
0.0310220145515692
40
0.0310220145515692
40
0.0541039096804572
40
0.0541039096804572
40
0.077185804809345
40
0.077185804809345
40
0.100267699938233
40
0.100267699938233
40
0.111808647502677
40
0.111808647502677
40
0.123349595067121
40
0.123349595067121
40
0.146431490196007
40
0.146431490196007
40
0.157972437760451
40
0.157972437760451
40
0.169513385324894
40
0.169513385324894
40
0.192595280453779
40
0.192595280453779
40
0.215677175582664
40
0.215677175582664
40
0.238759070711548
40
0.238759070711548
40
0.261840965840433
40
0.261840965840433
40
0.284922860969318
40
0.284922860969318
40
0.308004756098203
40
0.308004756098203
40
0.319545703662645
40
0.319545703662645
40
0.331086651227087
40
0.331086651227087
40
0.354168546355969
40
0.354168546355969
40
0.377250441484851
40
0.377250441484851
40
0.400332336613734
40
0.400332336613734
40
0.423414231742616
40
0.423414231742616
40
0.469578022000382
40
0.469578022000382
40
0.492659917129265
40
0.492659917129265
40
0.504200864693706
40
0.504200864693706
40
0.515741812258148
40
0.515741812258148
40
0.538823707387029
40
0.538823707387029
40
0.561905602515911
40
0.561905602515911
40
0.584987497644793
40
0.584987497644793
40
0.608069392773674
40
0.608069392773674
40
0.619610340338114
40
0.619610340338114
40
0.631151287902554
40
0.631151287902554
40
0.654233183031433
40
0.654233183031433
40
0.700396973289191
40
0.700396973289191
40
0.723478868418069
40
0.723478868418069
40
0.746560763546948
40
0.746560763546948
40
0.769642658675826
40
0.769642658675826
40
0.792724553804705
40
0.792724553804705
40
0.815806448933583
40
0.815806448933583
40
0.838888344062461
40
0.838888344062461
40
0.861970239191339
40
0.861970239191339
40
0.885052134320218
40
0.885052134320218
40
0.908134029449096
40
0.908134029449096
40
0.931215924577974
40
0.931215924577974
40
0.954297819706853
40
0.954297819706853
40
0.977379714835731
40
0.977379714835731
40
1
40
1
40
1
40
1
41
1
10
10.7962458224871
20
-0.481355858051643
30
0
41
1
10
10.7807252507502
20
-0.488242309430689
30
0
41
1
10
10.765218551332
20
-0.495034596585668
30
0
41
1
10
10.704649220542
20
-0.521145338101775
30
0
41
1
10
10.6595971290515
20
-0.539636979953997
30
0
41
1
10
10.5696123863831
20
-0.574942568591922
30
0
41
1
10
10.524664064497
20
-0.591731393340552
30
0
41
1
10
10.4347737707686
20
-0.623505006960727
30
0
41
1
10
10.3898324888534
20
-0.638494125975228
30
0
41
1
10
10.300032101399
20
-0.666741899237053
30
0
41
1
10
10.2551898297579
20
-0.68001374481139
30
0
41
1
10
10.1879108052861
20
-0.698489881100869
30
0
41
1
10
10.165472229889
20
-0.704400485751023
30
0
41
1
10
10.1204859873222
20
-0.715653573396054
30
0
41
1
10
10.0979443365496
20
-0.721002459780834
30
0
41
1
10
10.0302096504341
20
-0.736251339522227
30
0
41
1
10
9.98490932868066
20
-0.745354248938554
30
0
41
1
10
9.91669058108727
20
-0.757367009816164
30
0
41
1
10
9.89388304034998
20
-0.761099130485661
30
0
41
1
10
9.8483852056427
20
-0.76797723738116
30
0
41
1
10
9.8256733072578
20
-0.771127790893047
30
0
41
1
10
9.75765945180757
20
-0.77972674073186
30
0
41
1
10
9.71249080592992
20
-0.78432925843137
30
0
41
1
10
9.6225120915027
20
-0.791245732309363
30
0
41
1
10
9.57771864351341
20
-0.793547517446399
30
0
41
1
10
9.48797316551818
20
-0.795776107998819
30
0
41
1
10
9.44307390595085
20
-0.795724629724958
30
0
41
1
10
9.35326145749667
20
-0.793338713988504
30
0
41
1
10
9.30833193050316
20
-0.791002661638601
30
0
41
1
10
9.21836168494514
20
-0.78406781762618
30
0
41
1
10
9.17332787961351
20
-0.779471326509821
30
0
41
1
10
9.08323456306482
20
-0.767937783554174
30
0
41
1
10
9.03819929293789
20
-0.760980295682089
30
0
41
1
10
8.97046272784428
20
-0.748788655781595
30
0
41
1
10
8.94783550700458
20
-0.744444079479877
30
0
41
1
10
8.90244742285773
20
-0.735223775999856
30
0
41
1
10
8.87966833386264
20
-0.730336319507501
30
0
41
1
10
8.81147803650404
20
-0.714913496419854
30
0
41
1
10
8.76615608358725
20
-0.703611843678971
30
0
41
1
10
8.67569916499053
20
-0.679098654139835
30
0
41
1
10
8.63055558732788
20
-0.665898051627607
30
0
41
1
10
8.54048397435409
20
-0.637580378988957
30
0
41
1
10
8.4955733020561
20
-0.622442798227894
30
0
41
1
10
8.40596602354921
20
-0.590209963090018
30
0
41
1
10
8.36124829951734
20
-0.573130946851222
30
0
41
1
10
8.22664452917289
20
-0.519943224867575
30
0
41
1
10
8.13665969704547
20
-0.481461145840001
30
0
41
1
10
8.00101301980908
20
-0.419650543890327
30
0
41
1
10
7.95569838849528
20
-0.398346236455325
30
0
41
1
10
7.88761879232354
20
-0.365218447913719
30
0
41
1
10
7.86488428684171
20
-0.3539703709028
30
0
41
1
10
7.81948882255909
20
-0.331176436778492
30
0
41
1
10
7.79682994577874
20
-0.319628145944733
30
0
41
1
10
7.72882974063262
20
-0.284766349260849
30
0
41
1
10
7.68343939393969
20
-0.26128204453866
30
0
41
1
10
7.59265332500115
20
-0.213661863390485
30
0
41
1
10
7.54724466807161
20
-0.189546883175325
30
0
41
1
10
7.45630696458591
20
-0.140869908081385
30
0
41
1
10
7.41077615310951
20
-0.116312411853499
30
0
41
1
10
7.31966272540174
20
-0.066617768190838
30
0
41
1
10
7.27432925516931
20
-0.0415770463831109
30
0
41
1
10
7.20663421964588
20
-0.0039066605546907
30
0
41
1
10
7.18411033600739
20
0.0086558739161262
30
0
41
1
10
7.13905479481747
20
0.0336233411532874
30
0
41
1
10
7.11652598490508
20
0.0460340753485866
30
0
41
1
10
7.0489703138237
20
0.0831158493035389
30
0
41
1
10
7.00398098889923
20
0.107648855682441
30
0
41
1
10
6.8690636224363
20
0.180526710149991
30
0
41
1
10
6.77910435389384
20
0.228013467469651
30
0
41
1
10
6.64437966648313
20
0.297974265219409
30
0
41
1
10
6.59952998347839
20
0.321116253374925
30
0
41
1
10
6.50939961445266
20
0.366090057425708
30
0
41
1
10
6.46415026316953
20
0.38797968534351
30
0
41
1
10
6.37334337591506
20
0.430668058009132
30
0
41
1
10
6.32768064232584
20
0.451473291784311
30
0
41
1
10
6.23678788336093
20
0.491435844946807
30
0
41
1
10
6.19147926427817
20
0.510646806661498
30
0
41
1
10
6.10121083081464
20
0.547642260437044
30
0
41
1
10
6.05627371641575
20
0.565451573640075
30
0
41
1
10
5.96657119974958
20
0.599362498180142
30
0
41
1
10
5.92169716912937
20
0.615330969453538
30
0
41
1
10
5.83187765148779
20
0.645326489440748
30
0
41
1
10
5.78695481566086
20
0.659377813451101
30
0
41
1
10
5.69700679396627
20
0.685523235324354
30
0
41
1
10
5.65197122348329
20
0.697609692524395
30
0
41
1
10
5.56181220133283
20
0.719827878344915
30
0
41
1
10
5.51670695834346
20
0.729973864015477
30
0
41
1
10
5.42641706159168
20
0.74823279502067
30
0
41
1
10
5.38122522244583
20
0.75632802574782
30
0
41
1
10
5.29023481687781
20
0.770116073095522
30
0
41
1
10
5.24479570987472
20
0.775819977372066
30
0
41
1
10
5.15423628452157
20
0.784899772068684
30
0
41
1
10
5.10906453145401
20
0.788273854181398
30
0
41
1
10
5.01978939183508
20
0.792686980837289
30
0
41
1
10
4.97569291311615
20
0.793776211851309
30
0
41
1
10
4.93171839981608
20
0.793761628955224
30
0
0
SPLINE
5
CA
100
AcDbEntity
8
1
62
256
6
ByLayer
370
18
48
1
60
0
100
AcDbSpline
70
4
71
3
72
106
73
102
40
0
40
0
40
0
40
0
40
0.0038691833268069
40
0.0038691833268069
40
0.0269000430881982
40
0.0269000430881982
40
0.0499309028495896
40
0.0499309028495896
40
0.0729617626109809
40
0.0729617626109809
40
0.0959926223723722
40
0.0959926223723722
40
0.119023482133764
40
0.119023482133764
40
0.142054341895155
40
0.142054341895155
40
0.153569771775851
40
0.153569771775851
40
0.165085201656546
40
0.165085201656546
40
0.176600631537242
40
0.176600631537242
40
0.188116061417938
40
0.188116061417938
40
0.211146921179329
40
0.211146921179329
40
0.257208640702113
40
0.257208640702113
40
0.280239500463505
40
0.280239500463505
40
0.303270360224897
40
0.303270360224897
40
0.326301219986289
40
0.326301219986289
40
0.349332079747681
40
0.349332079747681
40
0.372362939509073
40
0.372362939509073
40
0.38387836938977
40
0.38387836938977
40
0.395393799270466
40
0.395393799270466
40
0.41842465903186
40
0.41842465903186
40
0.441455518793253
40
0.441455518793253
40
0.464486378554646
40
0.464486378554646
40
0.487517238316039
40
0.487517238316039
40
0.510548098077433
40
0.510548098077433
40
0.533578957838826
40
0.533578957838826
40
0.556609817600219
40
0.556609817600219
40
0.579640677361613
40
0.579640677361613
40
0.602671537123006
40
0.602671537123006
40
0.625702396884399
40
0.625702396884399
40
0.648733256645793
40
0.648733256645793
40
0.66024868652649
40
0.66024868652649
40
0.671764116407187
40
0.671764116407187
40
0.683279546287884
40
0.683279546287884
40
0.694794976168582
40
0.694794976168582
40
0.717825835929979
40
0.717825835929979
40
0.763887555452777
40
0.763887555452777
40
0.786918415214175
40
0.786918415214175
40
0.809949274975574
40
0.809949274975574
40
0.832980134736973
40
0.832980134736973
40
0.856010994498372
40
0.856010994498372
40
0.86752642437907
40
0.86752642437907
40
0.879041854259767
40
0.879041854259767
40
0.890557284140465
40
0.890557284140465
40
0.902072714021163
40
0.902072714021163
40
0.92510357378256
40
0.92510357378256
40
0.948134433543956
40
0.948134433543956
40
0.971165293305352
40
0.971165293305352
40
0.994196153066748
40
0.994196153066748
40
1
40
1
40
1
40
1
41
1
10
6.26207545620528
20
0.47600198408847
30
0
41
1
10
6.26975650521442
20
0.479322258905739
30
0
41
1
10
6.27743780059973
20
0.482621785213098
30
0
41
1
10
6.33080836618001
20
0.505412566377146
30
0
41
1
10
6.37630511087553
20
0.52421381844178
30
0
41
1
10
6.46682855871791
20
0.560470013952795
30
0
41
1
10
6.51188894288495
20
0.577876005946791
30
0
41
1
10
6.60160655051399
20
0.611174568457301
30
0
41
1
10
6.64621641433925
20
0.627106358201644
30
0
41
1
10
6.73573253105747
20
0.656622260673856
30
0
41
1
10
6.78070468381839
20
0.670159084831255
30
0
41
1
10
6.87087046120757
20
0.695148381914606
30
0
41
1
10
6.91604498021209
20
0.706620842164057
30
0
41
1
10
7.00628448877922
20
0.727750660389745
30
0
41
1
10
7.05137007986869
20
0.7373823244005
30
0
41
1
10
7.1190210976209
20
0.750296370374798
30
0
41
1
10
7.14157445250694
20
0.754346301707443
30
0
41
1
10
7.18667447041631
20
0.761926063425165
30
0
41
1
10
7.2092193261775
20
0.765455354195694
30
0
41
1
10
7.2544031976438
20
0.771923963858768
30
0
41
1
10
7.27706911822588
20
0.774865808130016
30
0
41
1
10
7.3224595317302
20
0.780110706412529
30
0
41
1
10
7.34516972291783
20
0.782410092933191
30
0
41
1
10
7.41331788942767
20
0.788401251152862
30
0
41
1
10
7.45876204308502
20
0.791199489863345
30
0
41
1
10
7.59468377045314
20
0.796249691514674
30
0
41
1
10
7.6846326555613
20
0.795150472937763
30
0
41
1
10
7.81872231781563
20
0.786273670006693
30
0
41
1
10
7.86329469865473
20
0.782086203741471
30
0
41
1
10
7.95298300774328
20
0.771553959224235
30
0
41
1
10
7.99810983997619
20
0.765245511809781
30
0
41
1
10
8.08861209877267
20
0.750522666947802
30
0
41
1
10
8.13397473776436
20
0.742098604234599
30
0
41
1
10
8.22470686381925
20
0.722901436578695
30
0
41
1
10
8.27015748857926
20
0.712132221114729
30
0
41
1
10
8.36101323932888
20
0.688244615976288
30
0
41
1
10
8.40608616013714
20
0.675104479744448
30
0
41
1
10
8.47359610328027
20
0.65402046739581
30
0
41
1
10
8.49609197343094
20
0.646775035206986
30
0
41
1
10
8.54115799648633
20
0.631965621778761
30
0
41
1
10
8.56372217734625
20
0.624396222110533
30
0
41
1
10
8.63144936604184
20
0.60115241197289
30
0
41
1
10
8.6766484456019
20
0.584949631777988
30
0
41
1
10
8.76683367278332
20
0.550773490968169
30
0
41
1
10
8.81180271860052
20
0.532770445414997
30
0
41
1
10
8.90157573696342
20
0.494981691086338
30
0
41
1
10
8.94637421456903
20
0.475188996454335
30
0
41
1
10
9.03584661276585
20
0.433795351593744
30
0
41
1
10
9.08059928199123
20
0.412301326860131
30
0
41
1
10
9.17085375540245
20
0.36892100184528
30
0
41
1
10
9.21629611636979
20
0.346957370839647
30
0
41
1
10
9.30749410634996
20
0.301993879514498
30
0
41
1
10
9.35328499955966
20
0.278913823324501
30
0
41
1
10
9.44413217122215
20
0.231818782591176
30
0
41
1
10
9.48932610777911
20
0.20781868921793
30
0
41
1
10
9.57927396738577
20
0.158946836649449
30
0
41
1
10
9.62396009078483
20
0.13394999782119
30
0
41
1
10
9.71350775372991
20
0.0842155549800054
30
0
41
1
10
9.75845081902798
20
0.059628739426671
30
0
41
1
10
9.84855177519685
20
0.0107928760805294
30
0
41
1
10
9.89368181391535
20
-0.0135074541359472
30
0
41
1
10
9.98379383351758
20
-0.0624409200786147
30
0
41
1
10
10.0287872469823
20
-0.0870531980083058
30
0
41
1
10
10.0962572574036
20
-0.124055568875121
30
0
41
1
10
10.1187448576582
20
-0.136401915434618
30
0
41
1
10
10.163702660243
20
-0.161142931828721
30
0
41
1
10
10.186165579144
20
-0.173551171172704
30
0
41
1
10
10.2311549473367
20
-0.19826610168198
30
0
41
1
10
10.2536841156605
20
-0.210567738747926
30
0
41
1
10
10.2989070640843
20
-0.234881200897604
30
0
41
1
10
10.3216181287255
20
-0.246880114696779
30
0
41
1
10
10.3899792833046
20
-0.282355754164115
30
0
41
1
10
10.4355544459382
20
-0.305222505428674
30
0
41
1
10
10.5718408984248
20
-0.372393349132011
30
0
41
1
10
10.661964042571
20
-0.415516003312092
30
0
41
1
10
10.7961570668124
20
-0.477239785499677
30
0
41
1
10
10.8407084182989
20
-0.497325129955613
30
0
41
1
10
10.9302477494183
20
-0.535371510681671
30
0
41
1
10
10.9752747588135
20
-0.553297156258594
30
0
41
1
10
11.0655592986756
20
-0.587432908872358
30
0
41
1
10
11.1108042740437
20
-0.603658969821225
30
0
41
1
10
11.2012464935389
20
-0.634703722685373
30
0
41
1
10
11.246472851349
20
-0.649481495498748
30
0
41
1
10
11.3143924462193
20
-0.670380430979833
30
0
41
1
10
11.3370417840634
20
-0.677139739797553
30
0
41
1
10
11.3823565998583
20
-0.69023099854283
30
0
41
1
10
11.4049547099546
20
-0.696533003765097
30
0
41
1
10
11.4500934701716
20
-0.708538614926994
30
0
41
1
10
11.4726412021578
20
-0.714244742350729
30
0
41
1
10
11.5177887102281
20
-0.725007934210453
30
0
41
1
10
11.5403909111666
20
-0.730065063577257
30
0
41
1
10
11.608225888043
20
-0.744352301279235
30
0
41
1
10
11.6534870071639
20
-0.752706622668001
30
0
41
1
10
11.7437794000039
20
-0.767334835899675
30
0
41
1
10
11.7887853954401
20
-0.773612242401015
30
0
41
1
10
11.8785737513601
20
-0.783984187196552
30
0
41
1
10
11.9233656079318
20
-0.788077061866289
30
0
41
1
10
12.0127392612235
20
-0.79395825767574
30
0
41
1
10
12.0573781821909
20
-0.795711771020251
30
0
41
1
10
12.1136842488774
20
-0.796405377006892
30
0
41
1
10
12.1250366653091
20
-0.796470884953095
30
0
41
1
10
12.1364056769085
20
-0.796462962466904
30
0
0
SPLINE
5
CB
100
AcDbEntity
8
1
62
256
6
ByLayer
370
18
48
1
60
0
100
AcDbSpline
70
4
71
3
72
107
73
103
40
0
40
0
40
0
40
0
40
0.0028564516435614
40
0.0028564516435614
40
0.0258926170217056
40
0.0258926170217056
40
0.0489287823998494
40
0.0489287823998494
40
0.0604468650889202
40
0.0604468650889202
40
0.071964947777991
40
0.071964947777991
40
0.0950011131561322
40
0.0950011131561322
40
0.141073443912412
40
0.141073443912412
40
0.164109609290553
40
0.164109609290553
40
0.187145774668695
40
0.187145774668695
40
0.210181940046836
40
0.210181940046836
40
0.233218105424978
40
0.233218105424978
40
0.256254270803119
40
0.256254270803119
40
0.27929043618126
40
0.27929043618126
40
0.302326601559402
40
0.302326601559402
40
0.325362766937543
40
0.325362766937543
40
0.336880849626612
40
0.336880849626612
40
0.348398932315682
40
0.348398932315682
40
0.359917015004751
40
0.359917015004751
40
0.37143509769382
40
0.37143509769382
40
0.394471263071962
40
0.394471263071962
40
0.417507428450103
40
0.417507428450103
40
0.440543593828245
40
0.440543593828245
40
0.463579759206386
40
0.463579759206386
40
0.486615924584528
40
0.486615924584528
40
0.509652089962669
40
0.509652089962669
40
0.53268825534081
40
0.53268825534081
40
0.544206338029881
40
0.544206338029881
40
0.555724420718951
40
0.567242503408022
40
0.567242503408022
40
0.578760586097093
40
0.578760586097093
40
0.601796751475232
40
0.601796751475232
40
0.647869082231509
40
0.647869082231509
40
0.670905247609647
40
0.670905247609647
40
0.693941412987786
40
0.693941412987786
40
0.705459495676854
40
0.705459495676854
40
0.716977578365922
40
0.716977578365922
40
0.740013743744058
40
0.740013743744058
40
0.763049909122194
40
0.763049909122194
40
0.774567991811262
40
0.774567991811262
40
0.78608607450033
40
0.78608607450033
40
0.809122239878466
40
0.809122239878466
40
0.832158405256601
40
0.832158405256601
40
0.855194570634737
40
0.855194570634737
40
0.878230736012873
40
0.878230736012873
40
0.889748818701941
40
0.889748818701941
40
0.901266901391009
40
0.901266901391009
40
0.924303066769145
40
0.924303066769145
40
0.947339232147282
40
0.947339232147282
40
0.970375397525418
40
0.970375397525418
40
0.993411562903554
40
0.993411562903554
40
1
40
1
40
1
40
1
41
1
10
15.3326649475414
20
0.478911623445271
30
0
41
1
10
15.3382962814517
20
0.481370545568552
30
0
41
1
10
15.3439281087109
20
0.483822217495202
30
0
41
1
10
15.3949810739531
20
0.505982524647607
30
0
41
1
10
15.440565572095
20
0.525234117751438
30
0
41
1
10
15.5311314413321
20
0.562218925235669
30
0
41
1
10
15.5760733094746
20
0.580079821203668
30
0
41
1
10
15.6434163712578
20
0.605318419794855
30
0
41
1
10
15.6658613416944
20
0.613463784356924
30
0
41
1
10
15.7108341293668
20
0.62913646615803
30
0
41
1
10
15.7333556104632
20
0.636672858709119
30
0
41
1
10
15.8009656653401
20
0.658482918529245
30
0
41
1
10
15.8461012506991
20
0.671963095735549
30
0
41
1
10
15.9812315191758
20
0.7097403114239
30
0
41
1
10
16.0709030210562
20
0.731392412679128
30
0
41
1
10
16.2051464846751
20
0.757668587292244
30
0
41
1
10
16.2499278833085
20
0.765323188388464
30
0
41
1
10
16.3402735861544
20
0.778098094662511
30
0
41
1
10
16.3857774730469
20
0.783275233543606
30
0
41
1
10
16.4771301186184
20
0.791403065506501
30
0
41
1
10
16.5227184391788
20
0.794332780049842
30
0
41
1
10
16.6133034398258
20
0.797896657573006
30
0
41
1
10
16.6583821938627
20
0.79852608728936
30
0
41
1
10
16.7481314398275
20
0.797404715706023
30
0
41
1
10
16.7927339094242
20
0.795629863487051
30
0
41
1
10
16.8821459991291
20
0.789747330491934
30
0
41
1
10
16.9270373942657
20
0.785682787124216
30
0
41
1
10
17.0170689775727
20
0.775447497006581
30
0
41
1
10
17.0621808341895
20
0.769270593417048
30
0
41
1
10
17.1522898624008
20
0.754636501746631
30
0
41
1
10
17.1972978057359
20
0.746174299271331
30
0
41
1
10
17.2648143028779
20
0.731719812369562
30
0
41
1
10
17.2873215897427
20
0.726609240723832
30
0
41
1
10
17.3323275465252
20
0.7157739755188
30
0
41
1
10
17.3548187576633
20
0.710041556032621
30
0
41
1
10
17.3998727686239
20
0.698011242692644
30
0
41
1
10
17.4224384250656
20
0.691715848984558
30
0
41
1
10
17.467742826493
20
0.678662366294361
30
0
41
1
10
17.4904683933332
20
0.671920816297671
30
0
41
1
10
17.5586000594446
20
0.651180838783517
30
0
41
1
10
17.6040411388458
20
0.636616375046884
30
0
41
1
10
17.6946660339132
20
0.605750527110985
30
0
41
1
10
17.7398188967122
20
0.589406620155955
30
0
41
1
10
17.8297810680917
20
0.554828270656856
30
0
41
1
10
17.8746202169356
20
0.536632836454487
30
0
41
1
10
17.9639863883049
20
0.498327879872079
30
0
41
1
10
18.0085033566322
20
0.478189246401655
30
0
41
1
10
18.0980034843315
20
0.437126407858443
30
0
41
1
10
18.1430284466895
20
0.416285132974139
30
0
41
1
10
18.2333482619876
20
0.373632708034449
30
0
41
1
10
18.2786302665481
20
0.351800451108318
30
0
41
1
10
18.3691830795304
20
0.306652158187319
30
0
41
1
10
18.4144823383988
20
0.283379339022389
30
0
41
1
10
18.4825398315537
20
0.247483790783178
30
0
41
1
10
18.5052264667016
20
0.235354516933029
30
0
41
1
10
18.5503906933705
20
0.210860460759648
30
0
41
1
10
18.5954141122117
20
0.186125164089049
30
0
41
1
10
18.6403676874019
20
0.16130103429731
30
0
41
1
10
18.6853815046523
20
0.136608343450632
30
0
41
1
10
18.7079221401914
20
0.124334341494261
30
0
41
1
10
18.7755885541529
20
0.087622873504813
30
0
41
1
10
18.8207579662915
20
0.0632940569789184
30
0
41
1
10
18.9559819346153
20
-0.0101090733673459
30
0
41
1
10
19.0456669596467
20
-0.0597568122030339
30
0
41
1
10
19.1797279597557
20
-0.13485276923069
30
0
41
1
10
19.224379127645
20
-0.159910997971906
30
0
41
1
10
19.3143816246084
20
-0.208667456538336
30
0
41
1
10
19.3597065450621
20
-0.232415056207628
30
0
41
1
10
19.4279399580436
20
-0.267530407550822
30
0
41
1
10
19.4507258631484
20
-0.279150329267452
30
0
41
1
10
19.4963425815884
20
-0.302288655323707
30
0
41
1
10
19.5191552207675
20
-0.313805282425989
30
0
41
1
10
19.5873226145485
20
-0.34803023963994
30
0
41
1
10
19.6325238008344
20
-0.370451121090298
30
0
41
1
10
19.7224866222039
20
-0.414374667314206
30
0
41
1
10
19.7671651376862
20
-0.436001167211742
30
0
41
1
10
19.8342367156874
20
-0.46712448572174
30
0
41
1
10
19.8566109390477
20
-0.477269628181858
30
0
41
1
10
19.9014656444224
20
-0.497011989172336
30
0
41
1
10
19.9239366493948
20
-0.506624138484796
30
0
41
1
10
19.9914194062069
20
-0.534793193353323
30
0
41
1
10
20.0365028389029
20
-0.552685481552771
30
0
41
1
10
20.1265470203556
20
-0.587123955077232
30
0
41
1
10
20.1715010540525
20
-0.60367132202623
30
0
41
1
10
20.2613657200271
20
-0.635232107868632
30
0
41
1
10
20.3062565681605
20
-0.650268500577937
30
0
41
1
10
20.3960737976929
20
-0.678620218949561
30
0
41
1
10
20.4410940807729
20
-0.691824940034053
30
0
41
1
10
20.509270475704
20
-0.709749291998207
30
0
41
1
10
20.5320753881549
20
-0.715427107917179
30
0
41
1
10
20.5775916502132
20
-0.726191219783203
30
0
41
1
10
20.6003322971643
20
-0.731284924103988
30
0
41
1
10
20.6684466141696
20
-0.745762624580749
30
0
41
1
10
20.7136849712306
20
-0.754365753513127
30
0
41
1
10
20.8037408000992
20
-0.769480334970211
30
0
41
1
10
20.8485915673319
20
-0.775970379149328
30
0
41
1
10
20.9379418271131
20
-0.786726735279416
30
0
41
1
10
20.9823900740155
20
-0.790990696018497
30
0
41
1
10
21.071620687065
20
-0.797052043054038
30
0
41
1
10
21.1164719593115
20
-0.79886244150444
30
0
41
1
10
21.1743311256306
20
-0.799745648022878
30
0
41
1
10
21.1872086342403
20
-0.799850483698037
30
0
41
1
10
21.2000924760991
20
-0.799863189335582
30
0
0
LINE
5
7D
100
AcDbEntity
8
4
62
256
6
ByLayer
370
18
48
0.05
60
0
100
AcDbLine
10
-5
20
0
30
0
11
27
21
0
31
0
39
0
210
0
220
0
230
1
0
LINE
5
7F
100
AcDbEntity
8
81
62
256
6
ByLayer
370
18
48
1
60
0
100
AcDbLine
10
22
20
0
30
0
11
27
21
0
31
0
39
0
210
0
220
0
230
1
0
LINE
5
80
100
AcDbEntity
8
SK4
62
256
6
ByLayer
370
18
48
0.05
60
0
100
AcDbLine
10
-26
20
0
30
0
11
27
21
0
31
0
39
0
210
0
220
0
230
1
0
LINE
5
82
100
AcDbEntity
8
80
62
256
6
ByLayer
370
18
48
1
60
0
100
AcDbLine
10
0
20
0
30
0
11
-5
21
0
31
0
39
0
210
0
220
0
230
1
0
LINE
5
83
100
AcDbEntity
8
1
62
256
6
ByLayer
370
18
48
1
60
0
100
AcDbLine
10
0
20
0.8
30
0
11
0
21
-0.8
31
0
39
0
210
0
220
0
230
1
0
LINE
5
84
100
AcDbEntity
8
1
62
256
6
ByLayer
370
18
48
1
60
0
100
AcDbLine
10
21.56738
20
-0.8
30
0
11
21.56738
21
-0.404937
31
0
39
0
210
0
220
0
230
1
0
LINE
5
85
100
AcDbEntity
8
1
62
256
6
ByLayer
370
18
48
1
60
0
100
AcDbLine
10
21.56738
20
0.8
30
0
11
21.56738
21
0.774467
31
0
39
0
210
0
220
0
230
1
0
LINE
5
86
100
AcDbEntity
8
1
62
256
6
ByLayer
370
18
48
1
60
0
100
AcDbLine
10
0.1
20
-0.79195
30
0
11
0.1
21
0.79195
31
0
39
0
210
0
220
0
230
1
0
LINE
5
87
100
AcDbEntity
8
SK1
62
256
6
ByLayer
370
18
48
1
60
0
100
AcDbLine
10
-21
20
-0.5
30
0
11
-21
21
0.5
31
0
39
0
210
0
220
0
230
1
0
LINE
5
89
100
AcDbEntity
8
SK1
62
256
6
ByLayer
370
18
48
1
60
0
100
AcDbLine
10
0
20
0.8
30
0
11
0
21
-0.8
31
0
39
0
210
0
220
0
230
1
0
LINE
5
8A
100
AcDbEntity
8
SK1
62
256
6
ByLayer
370
18
48
1
60
0
100
AcDbLine
10
-20.7
20
-0.8
30
0
11
-20.7
21
0.8
31
0
39
0
210
0
220
0
230
1
0
LINE
5
8B
100
AcDbEntity
8
1
62
256
6
ByLayer
370
18
48
1
60
0
100
AcDbLine
10
22
20
0
30
0
11
21.56738
21
0.8
31
0
39
0
210
0
220
0
230
1
0
LINE
5
8C
100
AcDbEntity
8
1
62
256
6
ByLayer
370
18
48
1
60
0
100
AcDbLine
10
21.56738
20
-0.8
30
0
11
22
21
0
31
0
39
0
210
0
220
0
230
1
0
LINE
5
8D
100
AcDbEntity
8
1
62
256
6
ByLayer
370
18
48
1
60
0
100
AcDbLine
10
0.1
20
0.79195
30
0
11
0
21
0.8
31
0
39
0
210
0
220
0
230
1
0
LINE
5
8E
100
AcDbEntity
8
1
62
256
6
ByLayer
370
18
48
1
60
0
100
AcDbLine
10
0
20
-0.8
30
0
11
0.1
21
-0.79195
31
0
39
0
210
0
220
0
230
1
0
LINE
5
8F
100
AcDbEntity
8
1
62
256
6
ByLayer
370
18
48
1
60
0
100
AcDbLine
10
0.1
20
-0.79195
30
0
11
4.932149
21
-0.793762
31
0
39
0
210
0
220
0
230
1
0
LINE
5
90
100
AcDbEntity
8
1
62
256
6
ByLayer
370
18
48
1
60
0
100
AcDbLine
10
7.601949
20
-0.794763
30
0
11
9.466544
21
-0.795462
31
0
39
0
210
0
220
0
230
1
0
LINE
5
91
100
AcDbEntity
8
1
62
256
6
ByLayer
370
18
48
1
60
0
100
AcDbLine
10
12.137169
20
-0.796464
30
0
11
13.999665
21
-0.797162
31
0
39
0
210
0
220
0
230
1
0
LINE
5
92
100
AcDbEntity
8
1
62
256
6
ByLayer
370
18
48
1
60
0
100
AcDbLine
10
16.667786
20
-0.798163
30
0
11
18.534871
21
-0.798863
31
0
39
0
210
0
220
0
230
1
0
LINE
5
93
100
AcDbEntity
8
1
62
256
6
ByLayer
370
18
48
1
60
0
100
AcDbLine
10
21.200409
20
-0.799862
30
0
11
21.56738
21
-0.8
31
0
39
0
210
0
220
0
230
1
0
LINE
5
94
100
AcDbEntity
8
1
62
256
6
ByLayer
370
18
48
1
60
0
100
AcDbLine
10
21.56738
20
0.8
30
0
11
21.200409
21
0.799862
31
0
39
0
210
0
220
0
230
1
0
LINE
5
95
100
AcDbEntity
8
1
62
256
6
ByLayer
370
18
48
1
60
0
100
AcDbLine
10
18.534871
20
0.798863
30
0
11
16.667786
21
0.798163
31
0
39
0
210
0
220
0
230
1
0
LINE
5
96
100
AcDbEntity
8
1
62
256
6
ByLayer
370
18
48
1
60
0
100
AcDbLine
10
13.999665
20
0.797162
30
0
11
12.137169
21
0.796464
31
0
39
0
210
0
220
0
230
1
0
LINE
5
97
100
AcDbEntity
8
1
62
256
6
ByLayer
370
18
48
1
60
0
100
AcDbLine
10
9.466544
20
0.795462
30
0
11
7.601949
21
0.794763
31
0
39
0
210
0
220
0
230
1
0
LINE
5
98
100
AcDbEntity
8
1
62
256
6
ByLayer
370
18
48
1
60
0
100
AcDbLine
10
4.932149
20
0.793762
30
0
11
0.1
21
0.79195
31
0
39
0
210
0
220
0
230
1
0
LINE
5
99
100
AcDbEntity
8
SK1
62
256
6
ByLayer
370
18
48
1
60
0
100
AcDbLine
10
-21
20
-0.5
30
0
11
-20.7
21
-0.8
31
0
39
0
210
0
220
0
230
1
0
LINE
5
9A
100
AcDbEntity
8
SK1
62
256
6
ByLayer
370
18
48
1
60
0
100
AcDbLine
10
-20.7
20
0.8
30
0
11
-21
21
0.5
31
0
39
0
210
0
220
0
230
1
0
LINE
5
9B
100
AcDbEntity
8
SK1
62
256
6
ByLayer
370
18
48
1
60
0
100
AcDbLine
10
-20.7
20
-0.8
30
0
11
0
21
-0.8
31
0
39
0
210
0
220
0
230
1
0
LINE
5
9C
100
AcDbEntity
8
SK1
62
256
6
ByLayer
370
18
48
1
60
0
100
AcDbLine
10
0
20
0.8
30
0
11
-20.7
21
0.8
31
0
39
0
210
0
220
0
230
1
0
LINE
5
9D
100
AcDbEntity
8
SK2
62
256
6
ByLayer
370
13
48
1
60
0
100
AcDbLine
10
-27.5
20
26.832855
30
0
11
-27.5
21
-8.3
31
0
39
0
210
0
220
0
230
1
0
LINE
5
9F
100
AcDbEntity
8
SK2
62
256
6
ByLayer
370
13
48
1
60
0
100
AcDbLine
10
-22.5875
20
0.8
30
0
11
-29.5
21
0.8
31
0
39
0
210
0
220
0
230
1
0
LINE
5
A0
100
AcDbEntity
8
SK2
62
256
6
ByLayer
370
13
48
1
60
0
100
AcDbLine
10
-22.5875
20
-0.8
30
0
11
-29.5
21
-0.8
31
0
39
0
210
0
220
0
230
1
0
LINE
5
A1
100
AcDbEntity
8
1
62
256
6
ByLayer
370
18
48
1
60
1
100
AcDbLine
10
-27.5
20
0.8
30
0
11
-27.960784
21
4.299998
31
0
39
0
210
0
220
0
230
1
0
LINE
5
A2
100
AcDbEntity
8
1
62
256
6
ByLayer
370
18
48
1
60
1
100
AcDbLine
10
-27.960784
20
4.299998
30
0
11
-27.039216
21
4.300002
31
0
39
0
210
0
220
0
230
1
0
LINE
5
A3
100
AcDbEntity
8
1
62
256
6
ByLayer
370
18
48
1
60
1
100
AcDbLine
10
-27.039216
20
4.300002
30
0
11
-27.5
21
0.8
31
0
39
0
210
0
220
0
230
1
0
LINE
5
A4
100
AcDbEntity
8
1
62
256
6
ByLayer
370
18
48
1
60
1
100
AcDbLine
10
-27.5
20
-0.8
30
0
11
-27.039216
21
-4.299998
31
0
39
0
210
0
220
0
230
1
0
LINE
5
A5
100
AcDbEntity
8
1
62
256
6
ByLayer
370
18
48
1
60
1
100
AcDbLine
10
-27.039216
20
-4.299998
30
0
11
-27.960784
21
-4.300002
31
0
39
0
210
0
220
0
230
1
0
LINE
5
A6
100
AcDbEntity
8
1
62
256
6
ByLayer
370
18
48
1
60
1
100
AcDbLine
10
-27.960784
20
-4.300002
30
0
11
-27.5
21
-0.8
31
0
39
0
210
0
220
0
230
1
0
LINE
5
A7
100
AcDbEntity
8
2
62
256
6
ByLayer
370
13
48
1
60
0
100
AcDbLine
10
31.06738
20
26.832855
30
0
11
31.06738
21
-8.3
31
0
39
0
210
0
220
0
230
1
0
LINE
5
A9
100
AcDbEntity
8
2
62
256
6
ByLayer
370
13
48
1
60
0
100
AcDbLine
10
23.15488
20
0.8
30
0
11
33.06738
21
0.8
31
0
39
0
210
0
220
0
230
1
0
LINE
5
AA
100
AcDbEntity
8
2
62
256
6
ByLayer
370
13
48
1
60
0
100
AcDbLine
10
23.15488
20
-0.8
30
0
11
33.06738
21
-0.8
31
0
39
0
210
0
220
0
230
1
0
LINE
5
AB
100
AcDbEntity
8
1
62
256
6
ByLayer
370
18
48
1
60
1
100
AcDbLine
10
31.06738
20
0.8
30
0
11
30.606597
21
4.299998
31
0
39
0
210
0
220
0
230
1
0
LINE
5
AC
100
AcDbEntity
8
1
62
256
6
ByLayer
370
18
48
1
60
1
100
AcDbLine
10
30.606597
20
4.299998
30
0
11
31.528164
21
4.300002
31
0
39
0
210
0
220
0
230
1
0
LINE
5
AD
100
AcDbEntity
8
1
62
256
6
ByLayer
370
18
48
1
60
1
100
AcDbLine
10
31.528164
20
4.300002
30
0
11
31.06738
21
0.8
31
0
39
0
210
0
220
0
230
1
0
LINE
5
AE
100
AcDbEntity
8
1
62
256
6
ByLayer
370
18
48
1
60
1
100
AcDbLine
10
31.06738
20
-0.8
30
0
11
31.528164
21
-4.299998
31
0
39
0
210
0
220
0
230
1
0
LINE
5
AF
100
AcDbEntity
8
1
62
256
6
ByLayer
370
18
48
1
60
1
100
AcDbLine
10
31.528164
20
-4.299998
30
0
11
30.606597
21
-4.300002
31
0
39
0
210
0
220
0
230
1
0
LINE
5
B0
100
AcDbEntity
8
1
62
256
6
ByLayer
370
18
48
1
60
1
100
AcDbLine
10
30.606597
20
-4.300002
30
0
11
31.06738
21
-0.8
31
0
39
0
210
0
220
0
230
1
0
LINE
5
B1
100
AcDbEntity
8
2
62
256
6
ByLayer
370
13
48
1
60
0
100
AcDbLine
10
22.755136
20
-1.396397
30
0
11
33.416232
21
-21.110889
31
0
39
0
210
0
220
0
230
1
0
LINE
5
B2
100
AcDbEntity
8
2
62
256
6
ByLayer
370
13
48
1
60
0
100
AcDbLine
10
22.755136
20
1.396397
30
0
11
33.416232
21
21.110889
31
0
39
0
210
0
220
0
230
1
0
LINE
5
B3
100
AcDbEntity
8
1
62
256
6
ByLayer
370
18
48
1
60
1
100
AcDbLine
10
32.464879
20
-19.351649
30
0
11
35.239971
21
-17.169637
31
0
39
0
210
0
220
0
230
1
0
LINE
5
B4
100
AcDbEntity
8
1
62
256
6
ByLayer
370
18
48
1
60
1
100
AcDbLine
10
35.239971
20
-17.169637
30
0
11
35.710161
21
-17.962233
31
0
39
0
210
0
220
0
230
1
0
LINE
5
B5
100
AcDbEntity
8
1
62
256
6
ByLayer
370
18
48
1
60
1
100
AcDbLine
10
35.710161
20
-17.962233
30
0
11
32.464879
21
-19.351649
31
0
39
0
210
0
220
0
230
1
0
LINE
5
B6
100
AcDbEntity
8
1
62
256
6
ByLayer
370
18
48
1
60
1
100
AcDbLine
10
32.464879
20
19.351649
30
0
11
35.710158
21
17.962234
31
0
39
0
210
0
220
0
230
1
0
LINE
5
B7
100
AcDbEntity
8
1
62
256
6
ByLayer
370
18
48
1
60
1
100
AcDbLine
10
35.710158
20
17.962234
30
0
11
35.239974
21
17.169635
31
0
39
0
210
0
220
0
230
1
0
LINE
5
B8
100
AcDbEntity
8
1
62
256
6
ByLayer
370
18
48
1
60
1
100
AcDbLine
10
35.239974
20
17.169635
30
0
11
32.464879
21
19.351649
31
0
39
0
210
0
220
0
230
1
0
LINE
5
D0
100
AcDbEntity
8
1
62
256
6
ByLayer
370
18
48
1
60
1
100
AcDbLine
10
-27.5
20
0.8
30
0
11
-27.960784
21
4.299998
31
0
39
0
210
0
220
0
230
1
0
LINE
5
D1
100
AcDbEntity
8
1
62
256
6
ByLayer
370
18
48
1
60
1
100
AcDbLine
10
-27.960784
20
4.299998
30
0
11
-27.039216
21
4.300002
31
0
39
0
210
0
220
0
230
1
0
LINE
5
D2
100
AcDbEntity
8
1
62
256
6
ByLayer
370
18
48
1
60
1
100
AcDbLine
10
-27.039216
20
4.300002
30
0
11
-27.5
21
0.8
31
0
39
0
210
0
220
0
230
1
0
LINE
5
D4
100
AcDbEntity
8
1
62
256
6
ByLayer
370
18
48
1
60
1
100
AcDbLine
10
-27.5
20
-0.8
30
0
11
-27.039216
21
-4.299998
31
0
39
0
210
0
220
0
230
1
0
LINE
5
D5
100
AcDbEntity
8
1
62
256
6
ByLayer
370
18
48
1
60
1
100
AcDbLine
10
-27.039216
20
-4.299998
30
0
11
-27.960784
21
-4.300002
31
0
39
0
210
0
220
0
230
1
0
LINE
5
D6
100
AcDbEntity
8
1
62
256
6
ByLayer
370
18
48
1
60
1
100
AcDbLine
10
-27.960784
20
-4.300002
30
0
11
-27.5
21
-0.8
31
0
39
0
210
0
220
0
230
1
0
LINE
5
DA
100
AcDbEntity
8
1
62
256
6
ByLayer
370
18
48
1
60
1
100
AcDbLine
10
31.06738
20
0.8
30
0
11
30.606597
21
4.299998
31
0
39
0
210
0
220
0
230
1
0
LINE
5
DB
100
AcDbEntity
8
1
62
256
6
ByLayer
370
18
48
1
60
1
100
AcDbLine
10
30.606597
20
4.299998
30
0
11
31.528164
21
4.300002
31
0
39
0
210
0
220
0
230
1
0
LINE
5
DC
100
AcDbEntity
8
1
62
256
6
ByLayer
370
18
48
1
60
1
100
AcDbLine
10
31.528164
20
4.300002
30
0
11
31.06738
21
0.8
31
0
39
0
210
0
220
0
230
1
0
LINE
5
DE
100
AcDbEntity
8
1
62
256
6
ByLayer
370
18
48
1
60
1
100
AcDbLine
10
31.06738
20
-0.8
30
0
11
31.528164
21
-4.299998
31
0
39
0
210
0
220
0
230
1
0
LINE
5
DF
100
AcDbEntity
8
1
62
256
6
ByLayer
370
18
48
1
60
1
100
AcDbLine
10
31.528164
20
-4.299998
30
0
11
30.606597
21
-4.300002
31
0
39
0
210
0
220
0
230
1
0
LINE
5
E0
100
AcDbEntity
8
1
62
256
6
ByLayer
370
18
48
1
60
1
100
AcDbLine
10
30.606597
20
-4.300002
30
0
11
31.06738
21
-0.8
31
0
39
0
210
0
220
0
230
1
0
LINE
5
E3
100
AcDbEntity
8
1
62
256
6
ByLayer
370
18
48
1
60
1
100
AcDbLine
10
32.464879
20
-19.351649
30
0
11
35.239971
21
-17.169637
31
0
39
0
210
0
220
0
230
1
0
LINE
5
E4
100
AcDbEntity
8
1
62
256
6
ByLayer
370
18
48
1
60
1
100
AcDbLine
10
35.239971
20
-17.169637
30
0
11
35.710161
21
-17.962233
31
0
39
0
210
0
220
0
230
1
0
LINE
5
E5
100
AcDbEntity
8
1
62
256
6
ByLayer
370
18
48
1
60
1
100
AcDbLine
10
35.710161
20
-17.962233
30
0
11
32.464879
21
-19.351649
31
0
39
0
210
0
220
0
230
1
0
LINE
5
E7
100
AcDbEntity
8
1
62
256
6
ByLayer
370
18
48
1
60
1
100
AcDbLine
10
32.464879
20
19.351649
30
0
11
35.710158
21
17.962234
31
0
39
0
210
0
220
0
230
1
0
LINE
5
E8
100
AcDbEntity
8
1
62
256
6
ByLayer
370
18
48
1
60
1
100
AcDbLine
10
35.710158
20
17.962234
30
0
11
35.239974
21
17.169635
31
0
39
0
210
0
220
0
230
1
0
LINE
5
E9
100
AcDbEntity
8
1
62
256
6
ByLayer
370
18
48
1
60
1
100
AcDbLine
10
35.239974
20
17.169635
30
0
11
32.464879
21
19.351649
31
0
39
0
210
0
220
0
230
1
0
MTEXT
5
CC
100
AcDbEntity
8
SK2
62
256
6
ByLayer
370
18
48
1
60
0
100
AcDbMText
10
-28.841114
20
12.458437
30
0
210
0
220
0
230
1
1
%%c
40
3
41
0
44
1.084337
50
90
71
7
72
5
7
iso_b_vert
0
MTEXT
5
CF
100
AcDbEntity
8
SK2
62
256
6
ByLayer
370
18
48
1
60
0
100
AcDbMText
10
-28.841114
20
18.435
30
0
210
0
220
0
230
1
1
\W0.6864;1.600
40
3
41
0
44
1.084337
50
90
71
7
72
5
7
iso_b_vert
0
MTEXT
5
D8
100
AcDbEntity
8
2
62
256
6
ByLayer
370
18
48
1
60
0
100
AcDbMText
10
29.726266
20
12.458437
30
0
210
0
220
0
230
1
1
%%c
40
3
41
0
44
1.084337
50
90
71
7
72
5
7
iso_b_vert
0
MTEXT
5
D9
100
AcDbEntity
8
2
62
256
6
ByLayer
370
18
48
1
60
0
100
AcDbMText
10
29.726266
20
18.435
30
0
210
0
220
0
230
1
1
\W0.6864;1.600
40
3
41
0
44
1.084337
50
90
71
7
72
5
7
iso_b_vert
0
MTEXT
5
E2
100
AcDbEntity
8
2
62
256
6
ByLayer
370
18
48
1
60
0
100
AcDbMText
10
41.092229
20
-2.114886
30
0
210
0
220
0
230
1
1
\W0.6008;118%%d
40
3
41
0
44
1.084337
50
0
71
7
72
5
7
iso_b_vert
0
MTEXT
5
EB
100
AcDbEntity
8
SK6
62
256
6
ByLayer
370
18
48
1
60
0
100
AcDbMText
10
-6.007199
20
-67.114886
30
0
210
0
220
0
230
1
1
\W0.7280;R0031.6
40
3
41
0
44
1.084337
50
0
71
7
72
5
7
iso_b_vert
0
HATCH
5
D3
100
AcDbEntity
8
SK2
62
256
6
ByLayer
370
13
48
1
60
0
100
AcDbHatch
10
0
20
0
30
0
210
0
220
0
230
1
2
ANSI31
70
0
71
0
91
1
92
5
93
3
72
1
10
-27.5
20
0.799999999999983
11
-27.9607837415528
21
4.2999983074468
72
1
10
-27.9607837415528
20
4.2999983074468
11
-27.0392162584472
21
4.30000169255317
72
1
10
-27.0392162584472
20
4.30000169255317
11
-27.5
21
0.799999999999983
97
0
75
0
76
1
52
0
41
0.0062
77
0
78
1
53
45
43
0
44
0
45
-0.0139193969876572
46
0.0139193969876572
79
0
47
0
98
1
10
0
20
0
0
HATCH
5
D7
100
AcDbEntity
8
SK2
62
256
6
ByLayer
370
13
48
1
60
0
100
AcDbHatch
10
0
20
0
30
0
210
0
220
0
230
1
2
ANSI31
70
0
71
0
91
1
92
5
93
3
72
1
10
-27.5
20
-0.800000000000011
11
-27.0392162584472
21
-4.29999830744683
72
1
10
-27.0392162584472
20
-4.29999830744683
11
-27.9607837415528
21
-4.3000016925532
72
1
10
-27.9607837415528
20
-4.3000016925532
11
-27.5
21
-0.800000000000011
97
0
75
0
76
1
52
0
41
0.0062
77
0
78
1
53
45
43
0
44
0
45
-0.0139193969876572
46
0.0139193969876572
79
0
47
0
98
1
10
0
20
0
0
HATCH
5
DD
100
AcDbEntity
8
2
62
256
6
ByLayer
370
13
48
1
60
0
100
AcDbHatch
10
0
20
0
30
0
210
0
220
0
230
1
2
ANSI31
70
0
71
0
91
1
92
5
93
3
72
1
10
31.0673803543002
20
0.799999999999983
11
30.6065966127474
21
4.2999983074468
72
1
10
30.6065966127474
20
4.2999983074468
11
31.5281640958529
21
4.30000169255317
72
1
10
31.5281640958529
20
4.30000169255317
11
31.0673803543002
21
0.799999999999983
97
0
75
0
76
1
52
0
41
0.0062
77
0
78
1
53
45
43
0
44
0
45
-0.0139193969876572
46
0.0139193969876572
79
0
47
0
98
1
10
0
20
0
0
HATCH
5
E1
100
AcDbEntity
8
2
62
256
6
ByLayer
370
13
48
1
60
0
100
AcDbHatch
10
0
20
0
30
0
210
0
220
0
230
1
2
ANSI31
70
0
71
0
91
1
92
5
93
3
72
1
10
31.0673803543002
20
-0.800000000000011
11
31.5281640958529
21
-4.29999830744683
72
1
10
31.5281640958529
20
-4.29999830744683
11
30.6065966127474
21
-4.3000016925532
72
1
10
30.6065966127474
20
-4.3000016925532
11
31.0673803543002
21
-0.800000000000011
97
0
75
0
76
1
52
0
41
0.0062
77
0
78
1
53
45
43
0
44
0
45
-0.0139193969876572
46
0.0139193969876572
79
0
47
0
98
1
10
0
20
0
0
HATCH
5
E6
100
AcDbEntity
8
2
62
256
6
ByLayer
370
13
48
1
60
0
100
AcDbHatch
10
0
20
0
30
0
210
0
220
0
230
1
2
ANSI31
70
0
71
0
91
1
92
5
93
3
72
1
10
32.4648791987521
20
-19.3516485952884
11
35.2399711078383
21
-17.1696369764526
72
1
10
35.2399711078383
20
-17.1696369764526
11
35.7101613929252
21
-17.9622325364571
72
1
10
35.7101613929252
20
-17.9622325364571
11
32.4648791987521
21
-19.3516485952884
97
0
75
0
76
1
52
0
41
0.0062
77
0
78
1
53
45
43
0
44
0
45
-0.0139193969876572
46
0.0139193969876572
79
0
47
0
98
1
10
0
20
0
0
HATCH
5
EA
100
AcDbEntity
8
2
62
256
6
ByLayer
370
13
48
1
60
0
100
AcDbHatch
10
0
20
0
30
0
210
0
220
0
230
1
2
ANSI31
70
0
71
0
91
1
92
5
93
3
72
1
10
32.4648791987519
20
19.3516485952884
11
35.7101584815525
21
17.9622342635519
72
1
10
35.7101584815525
20
17.9622342635519
11
35.2399740192105
21
17.169635249358
72
1
10
35.2399740192105
20
17.169635249358
11
32.4648791987519
21
19.3516485952884
97
0
75
0
76
1
52
0
41
0.0062
77
0
78
1
53
45
43
0
44
0
45
-0.0139193969876572
46
0.0139193969876572
79
0
47
0
98
1
10
0
20
0
0
DIMENSION
5
EE
100
AcDbEntity
8
SK2
62
256
6
ByLayer
370
18
48
1
60
0
100
AcDbDimension
2
_U0
10
22
20
-47.626072
30
0
11
0.5
21
-47.626072
31
0
70
32
71
1
72
1
41
1
210
0
220
0
230
1
3
Standard
100
AcDbAlignedDimension
13
-21
23
-0.8
33
0
14
22
24
0
34
0
50
0
100
AcDbRotatedDimension
1001
ACAD
1000
DSTYLE
1002
{
1070
   371
1070
    13
1070
   372
1070
    13
1070
     3
1000

1070
   170
1070
     0
1070
   144
1040
1.0
1070
   277
1070
     2
1070
   284
1070
     8
1070
   278
1070
    46
1070
   146
1040
1.166667
1070
   345
1005
16
1070
   347
1005
16
1070
   346
1005
16
1070
   344
1005
0
1070
   343
1005
0
1070
   172
1070
     1
1070
    76
1070
     0
1070
    75
1070
     0
1070
   282
1070
     0
1070
   281
1070
     0
1070
    71
1070
     0
1070
    74
1070
     0
1070
   279
1070
     0
1070
   173
1070
     1
1070
   340
1005
CD
1070
   271
1070
     2
1070
   272
1070
     3
1070
    77
1070
     1
1070
    73
1070
     1
1070
   171
1070
     3
1070
   274
1070
     4
1070
   177
1070
     2
1070
   176
1070
     2
1070
   178
1070
     2
1070
    78
1070
     8
1070
    48
1040
-0.1
1070
    41
1040
3.5
1070
   147
1040
1.5
1070
    42
1040
1.5875
1070
    44
1040
2.0
1070
   140
1040
3.0
1002
}
1001
ACAD_DSTYLE_DIM_LINETYPE
1070
   380
1005
16
1001
ACAD_DSTYLE_DIM_EXT1_LINETYPE
1070
   381
1005
16
1001
ACAD_DSTYLE_DIM_EXT2_LINETYPE
1070
   382
1005
16
0
DIMENSION
5
107
100
AcDbEntity
8
2
62
256
6
ByLayer
370
18
48
1
60
0
100
AcDbDimension
2
_U1
10
2
20
-37.626072
30
0
11
12
21
-37.626072
31
0
70
32
71
1
72
1
41
1
210
0
220
0
230
1
3
Standard
100
AcDbAlignedDimension
13
22
23
0
33
0
14
2
24
-0.8
34
0
50
0
100
AcDbRotatedDimension
1001
ACAD
1000
DSTYLE
1002
{
1070
   371
1070
    13
1070
   372
1070
    13
1070
     3
1000

1070
   170
1070
     0
1070
   144
1040
1.0
1070
   277
1070
     2
1070
   284
1070
     8
1070
   278
1070
    46
1070
   146
1040
1.166667
1070
   345
1005
16
1070
   347
1005
16
1070
   346
1005
16
1070
   344
1005
0
1070
   343
1005
0
1070
   172
1070
     1
1070
    76
1070
     0
1070
    75
1070
     0
1070
   282
1070
     0
1070
   281
1070
     0
1070
    71
1070
     0
1070
    74
1070
     0
1070
   279
1070
     0
1070
   173
1070
     1
1070
   340
1005
CD
1070
   271
1070
     2
1070
   272
1070
     3
1070
    77
1070
     1
1070
    73
1070
     1
1070
   171
1070
     3
1070
   274
1070
     4
1070
   177
1070
     2
1070
   176
1070
     2
1070
   178
1070
     2
1070
    78
1070
     8
1070
    48
1040
-0.1
1070
    41
1040
3.5
1070
   147
1040
1.5
1070
    42
1040
1.5875
1070
    44
1040
2.0
1070
   140
1040
3.0
1002
}
1001
ACAD_DSTYLE_DIM_LINETYPE
1070
   380
1005
16
1001
ACAD_DSTYLE_DIM_EXT1_LINETYPE
1070
   381
1005
16
1001
ACAD_DSTYLE_DIM_EXT2_LINETYPE
1070
   382
1005
16
0
DIMENSION
5
11F
100
AcDbEntity
8
SK2
62
256
6
ByLayer
370
18
48
1
60
0
100
AcDbDimension
2
_U2
10
0
20
-32.626072
30
0
11
-10.5
21
-32.626072
31
0
70
32
71
1
72
1
41
1
210
0
220
0
230
1
3
Standard
100
AcDbAlignedDimension
13
-21
23
-0.8
33
0
14
0
24
-0.8
34
0
50
0
100
AcDbRotatedDimension
1001
ACAD
1000
DSTYLE
1002
{
1070
   371
1070
    13
1070
   372
1070
    13
1070
     3
1000

1070
   170
1070
     0
1070
   144
1040
1.0
1070
   277
1070
     2
1070
   284
1070
     8
1070
   278
1070
    46
1070
   146
1040
1.166667
1070
   345
1005
16
1070
   347
1005
16
1070
   346
1005
16
1070
   344
1005
0
1070
   343
1005
0
1070
   172
1070
     1
1070
    76
1070
     0
1070
    75
1070
     0
1070
   282
1070
     0
1070
   281
1070
     0
1070
    71
1070
     0
1070
    74
1070
     0
1070
   279
1070
     0
1070
   173
1070
     1
1070
   340
1005
CD
1070
   271
1070
     2
1070
   272
1070
     3
1070
    77
1070
     1
1070
    73
1070
     1
1070
   171
1070
     3
1070
   274
1070
     4
1070
   177
1070
     2
1070
   176
1070
     2
1070
   178
1070
     2
1070
    78
1070
     8
1070
    48
1040
-0.1
1070
    41
1040
3.5
1070
   147
1040
1.5
1070
    42
1040
1.5875
1070
    44
1040
2.0
1070
   140
1040
3.0
1002
}
1001
ACAD_DSTYLE_DIM_LINETYPE
1070
   380
1005
16
1001
ACAD_DSTYLE_DIM_EXT1_LINETYPE
1070
   381
1005
16
1001
ACAD_DSTYLE_DIM_EXT2_LINETYPE
1070
   382
1005
16
0
DIMENSION
5
137
100
AcDbEntity
8
2
62
256
6
ByLayer
370
18
48
1
60
0
100
AcDbDimension
2
_U3
10
7
20
-30.626072
30
0
11
14.5
21
-30.626072
31
0
70
32
71
1
72
1
41
1
210
0
220
0
230
1
3
Standard
100
AcDbAlignedDimension
13
22
23
0
33
0
14
7
24
-0.8
34
0
50
0
100
AcDbRotatedDimension
1001
ACAD
1000
DSTYLE
1002
{
1070
   371
1070
    13
1070
   372
1070
    13
1070
     3
1000

1070
   170
1070
     0
1070
   144
1040
1.0
1070
   277
1070
     2
1070
   284
1070
     8
1070
   278
1070
    46
1070
   146
1040
1.166667
1070
   345
1005
16
1070
   347
1005
16
1070
   346
1005
16
1070
   344
1005
0
1070
   343
1005
0
1070
   172
1070
     1
1070
    76
1070
     0
1070
    75
1070
     0
1070
   282
1070
     0
1070
   281
1070
     0
1070
    71
1070
     0
1070
    74
1070
     0
1070
   279
1070
     0
1070
   173
1070
     1
1070
   340
1005
CD
1070
   271
1070
     2
1070
   272
1070
     3
1070
    77
1070
     1
1070
    73
1070
     1
1070
   171
1070
     3
1070
   274
1070
     4
1070
   177
1070
     2
1070
   176
1070
     2
1070
   178
1070
     2
1070
    78
1070
     8
1070
    48
1040
-0.1
1070
    41
1040
3.5
1070
   147
1040
1.5
1070
    42
1040
1.5875
1070
    44
1040
2.0
1070
   140
1040
3.0
1002
}
1001
ACAD_DSTYLE_DIM_LINETYPE
1070
   380
1005
16
1001
ACAD_DSTYLE_DIM_EXT1_LINETYPE
1070
   381
1005
16
1001
ACAD_DSTYLE_DIM_EXT2_LINETYPE
1070
   382
1005
16
0
ENDSEC
0
SECTION
2
OBJECTS
0
DICTIONARY
5
1c2
330
0
100
AcDbDictionary
280
0
281
1
3
ACAD_GROUP
350
1c3
3
ACAD_MLINESTYLE
350
1c4
0
DICTIONARY
5
1c3
330
0
100
AcDbDictionary
280
0
281
1
0
DICTIONARY
5
1c4
330
0
100
AcDbDictionary
280
0
281
1
3
Standard
350
18
0
MLINESTYLE
5
18
330
1c4
100
AcDbMlineStyle
2
Standard
70
0
3

62
256
51
90
52
90
71
2
49
-0.5
62
256
6
ByLayer
49
0.5
62
256
6
ByLayer
0
RASTERVARIABLES
5
1ae
330

100
AcDbRasterVariables
90
0
70
1
71
1
72
1
0
ENDSEC
0
EOF
