0
SECTION
2
HEADER
9
$ACADVER
1
AC1015
9
$DWGCODEPAGE
3
ANSI_1252
9
$HANDSEED
5
1d0
9
$ANGBASE
50
0
9
$ANGDIR
70
0
9
$ATTMODE
70
1
9
$AUNITS
70
0
9
$AUPREC
70
0
9
$CECOLOR
62
256
9
$CELTSCALE
40
1
9
$CELTYPE
6
ByLayer
9
$CELWEIGHT
370
18
9
$CLAYER
8
0
9
$CMLJUST
70
0
9
$CMLSCALE
40
1
9
$CMLSTYLE
2
Standard
9
$DIMSTYLE
2
Standard
9
$TEXTSIZE
40
0.2
9
$TEXTSTYLE
7
Standard
9
$LUNITS
70
2
9
$LUPREC
70
4
9
$EXTNAMES
290
1
9
$INSUNITS
70
4
9
$LTSCALE
40
1
9
$LWDISPLAY
290
1
9
$PDMODE
70
0
9
$PDSIZE
40
0
9
$PLINEGEN
70
0
0
ENDSEC
0
SECTION
2
CLASSES
0
CLASS
1
RASTERVARIABLES
2
AcDbRasterVariables
3
ISM
90
0
280
0
281
0
0
ENDSEC
0
SECTION
2
TABLES
0
TABLE
2
VPORT
5
1c6
100
AcDbSymbolTable
0
VPORT
5
1
100
AcDbSymbolTableRecord
100
AcDbViewportTableRecord
2
*Active
70
0
10
0
20
0
11
1
21
1
12
-1
22
1
13
0
23
0
14
0.5
24
0.5
15
10
25
10
16
0
26
0
36
1
17
0
27
0
37
0
0
ENDTAB
0
TABLE
2
LTYPE
5
1c7
100
AcDbSymbolTable
0
LTYPE
5
14
100
AcDbSymbolTableRecord
100
AcDbLinetypeTableRecord
70
0
2
ByBlock
3

72
65
73
0
40
0
0
LTYPE
5
15
100
AcDbSymbolTableRecord
100
AcDbLinetypeTableRecord
70
0
2
ByLayer
3

72
65
73
0
40
0
0
LTYPE
5
16
100
AcDbSymbolTableRecord
100
AcDbLinetypeTableRecord
70
0
2
Continuous
3
Solid line
72
65
73
0
40
0
0
LTYPE
5
6E
100
AcDbSymbolTableRecord
100
AcDbLinetypeTableRecord
70
0
2
CENTER
3
____ _ ____ _ ____ _ ____
72
65
73
4
40
47.5
49
22
74
0
49
-8.5
74
0
49
8.5
74
0
49
-8.5
74
0
0
LTYPE
5
6F
100
AcDbSymbolTableRecord
100
AcDbLinetypeTableRecord
70
0
2
DASHED
3
__ __ __ __ __ __ __ __ __
72
65
73
2
40
25.72
49
12.86
74
0
49
-12.86
74
0
0
ENDTAB
0
TABLE
2
LAYER
5
1c8
100
AcDbSymbolTable
0
LAYER
5
10
100
AcDbSymbolTableRecord
100
AcDbLayerTableRecord
2
0
70
0
62
7
6
Continuous
290
1
370
-3
390
0
0
LAYER
5
71
100
AcDbSymbolTableRecord
100
AcDbLayerTableRecord
2
81
70
0
62
-3
6
Continuous
290
1
370
-3
390
0
0
LAYER
5
73
100
AcDbSymbolTableRecord
100
AcDbLayerTableRecord
2
80
70
0
62
-6
6
Continuous
290
1
370
-3
390
0
0
LAYER
5
75
100
AcDbSymbolTableRecord
100
AcDbLayerTableRecord
2
1
70
0
62
4
6
Continuous
290
1
370
-3
390
0
0
LAYER
5
7E
100
AcDbSymbolTableRecord
100
AcDbLayerTableRecord
2
4
70
0
62
-2
6
CENTER
290
1
370
-3
390
0
0
LAYER
5
A8
100
AcDbSymbolTableRecord
100
AcDbLayerTableRecord
2
2
70
0
62
7
6
Continuous
290
1
370
-3
390
0
0
LAYER
5
F2
100
AcDbSymbolTableRecord
100
AcDbLayerTableRecord
2
Defpoints
70
0
62
7
6
Continuous
290
0
370
-3
390
0
0
LAYER
5
1b0
100
AcDbSymbolTableRecord
100
AcDbLayerTableRecord
2
SK4
70
0
62
2
6
CENTER
290
1
370
-3
390
0
0
LAYER
5
1b1
100
AcDbSymbolTableRecord
100
AcDbLayerTableRecord
2
SK1
70
0
62
4
6
Continuous
290
1
370
-3
390
0
0
LAYER
5
1b2
100
AcDbSymbolTableRecord
100
AcDbLayerTableRecord
2
SK2
70
0
62
7
6
Continuous
290
1
370
-3
390
0
0
LAYER
5
1b3
100
AcDbSymbolTableRecord
100
AcDbLayerTableRecord
2
CUT
70
0
62
-1
6
Continuous
290
1
370
-3
390
0
0
LAYER
5
1b4
100
AcDbSymbolTableRecord
100
AcDbLayerTableRecord
2
NOCUT
70
0
62
-7
6
Continuous
290
1
370
-3
390
0
0
LAYER
5
1b5
100
AcDbSymbolTableRecord
100
AcDbLayerTableRecord
2
SK6
70
0
62
5
6
Continuous
290
1
370
-3
390
0
0
ENDTAB
0
TABLE
2
STYLE
5
1c9
100
AcDbSymbolTable
0
STYLE
5
11
100
AcDbSymbolTableRecord
100
AcDbTextStyleTableRecord
2
Standard
3
txt
70
0
71
0
40
0
41
1
42
0
50
0
0
STYLE
5
CE
100
AcDbSymbolTableRecord
100
AcDbTextStyleTableRecord
2
iso_b_vert
3
simplex.shx
70
0
71
0
40
0
41
1
42
0
50
0
0
STYLE
5
CF
100
AcDbSymbolTableRecord
100
AcDbTextStyleTableRecord
2
DWGDirectTextStyle
3
simplex
70
0
71
0
40
0
41
1
42
0
50
0
0
ENDTAB
0
TABLE
2
DIMSTYLE
5
1ca
100
AcDbSymbolTable
100
AcDbDimStyleTable
0
DIMSTYLE
105
27
100
AcDbSymbolTableRecord
100
AcDbDimStyleTableRecord
2
Standard
70
0
3
<>
41
0.18
42
0.0625
44
0.18
140
0.18
147
0.09
73
0
74
0
77
1
271
2
275
0
278
52
280
0
340
11
0
ENDTAB
0
TABLE
2
VIEW
5
1cb
100
AcDbSymbolTable
0
ENDTAB
0
TABLE
2
UCS
5
1cc
100
AcDbSymbolTable
0
ENDTAB
0
TABLE
2
APPID
5
1cd
100
AcDbSymbolTable
0
APPID
5
12
100
AcDbSymbolTableRecord
100
AcDbRegAppTableRecord
2
ACAD
70
0
0
APPID
5
EE
100
AcDbSymbolTableRecord
100
AcDbRegAppTableRecord
2
ACAD_DSTYLE_DIMBREAK
70
0
0
APPID
5
16F
100
AcDbSymbolTableRecord
100
AcDbRegAppTableRecord
2
ACAD_DSTYLE_DIM_LINETYPE
70
0
0
APPID
5
170
100
AcDbSymbolTableRecord
100
AcDbRegAppTableRecord
2
ACAD_DSTYLE_DIM_EXT1_LINETYPE
70
0
0
APPID
5
171
100
AcDbSymbolTableRecord
100
AcDbRegAppTableRecord
2
ACAD_DSTYLE_DIM_EXT2_LINETYPE
70
0
0
APPID
5
1AC
100
AcDbSymbolTableRecord
100
AcDbRegAppTableRecord
2
ACAD_MLEADERVER
70
0
0
ENDTAB
0
TABLE
2
BLOCK_RECORD
5
1ce
100
AcDbSymbolTable
0
BLOCK_RECORD
5
1F
100
AcDbSymbolTableRecord
100
AcDbBlockTableRecord
2
*Model_Space
340
0
70
0
0
BLOCK_RECORD
5
1B
100
AcDbSymbolTableRecord
100
AcDbBlockTableRecord
2
*Paper_Space
340
0
70
0
0
BLOCK_RECORD
5
23
100
AcDbSymbolTableRecord
100
AcDbBlockTableRecord
2
*Paper_Space0
340
0
70
0
0
BLOCK_RECORD
5
F3
100
AcDbSymbolTableRecord
100
AcDbBlockTableRecord
2
*D1
340
0
70
0
0
BLOCK_RECORD
5
FF
100
AcDbSymbolTableRecord
100
AcDbBlockTableRecord
2
_U0
340
0
70
0
0
BLOCK_RECORD
5
10B
100
AcDbSymbolTableRecord
100
AcDbBlockTableRecord
2
*D3
340
0
70
0
0
BLOCK_RECORD
5
117
100
AcDbSymbolTableRecord
100
AcDbBlockTableRecord
2
_U1
340
0
70
0
0
BLOCK_RECORD
5
123
100
AcDbSymbolTableRecord
100
AcDbBlockTableRecord
2
*D5
340
0
70
0
0
BLOCK_RECORD
5
12F
100
AcDbSymbolTableRecord
100
AcDbBlockTableRecord
2
_U2
340
0
70
0
0
BLOCK_RECORD
5
13B
100
AcDbSymbolTableRecord
100
AcDbBlockTableRecord
2
*D7
340
0
70
0
0
BLOCK_RECORD
5
148
100
AcDbSymbolTableRecord
100
AcDbBlockTableRecord
2
_U3
340
0
70
0
0
ENDTAB
0
ENDSEC
0
SECTION
2
BLOCKS
0
BLOCK
5
20
100
AcDbEntity
8
0
100
AcDbBlockBegin
2
*Model_Space
70
0
10
0
20
0
30
0
3
*Model_Space
0
ENDBLK
5
21
100
AcDbEntity
8
0
100
AcDbBlockEnd
0
BLOCK
5
1C
100
AcDbEntity
8
0
100
AcDbBlockBegin
2
*Paper_Space
70
0
10
0
20
0
30
0
3
*Paper_Space
0
ENDBLK
5
1D
100
AcDbEntity
8
0
100
AcDbBlockEnd
0
BLOCK
5
24
100
AcDbEntity
8
0
100
AcDbBlockBegin
2
*Paper_Space0
70
0
10
0
20
0
30
0
3
*Paper_Space0
0
ENDBLK
5
25
100
AcDbEntity
8
0
100
AcDbBlockEnd
0
BLOCK
5
F4
100
AcDbEntity
8
0
100
AcDbBlockBegin
2
*D1
70
1
10
0
20
0
30
0
3
*D1
0
LINE
5
F6
100
AcDbEntity
8
0
62
256
6
ByLayer
370
-2
48
1
60
0
100
AcDbLine
10
-20
20
-2.3375
30
0
11
-20
21
-53.658159
31
0
39
0
210
0
220
0
230
1
0
LINE
5
F7
100
AcDbEntity
8
0
62
256
6
ByLayer
370
-2
48
1
60
0
100
AcDbLine
10
20
20
-1.5875
30
0
11
20
21
-53.658159
31
0
39
0
210
0
220
0
230
1
0
LINE
5
F8
100
AcDbEntity
8
0
62
256
6
ByLayer
370
-2
48
1
60
0
100
AcDbLine
10
-16.5
20
-51.658159
30
0
11
16.5
21
-51.658159
31
0
39
0
210
0
220
0
230
1
0
SOLID
5
F9
100
AcDbEntity
8
0
62
256
6
ByLayer
370
-1
48
1
60
0
100
AcDbTrace
10
-16.5
20
-51.074825
30
0
11
-16.5
21
-52.241492
31
0
12
-20
22
-51.658159
32
0
13
-20
23
-51.658159
33
0
39
0
210
0
220
0
230
1
0
SOLID
5
FA
100
AcDbEntity
8
0
62
256
6
ByLayer
370
-1
48
1
60
0
100
AcDbTrace
10
16.5
20
-52.241492
30
0
11
16.5
21
-51.074825
31
0
12
20
22
-51.658159
32
0
13
20
23
-51.658159
33
0
39
0
210
0
220
0
230
1
0
MTEXT
5
FB
100
AcDbEntity
8
0
62
256
6
ByLayer
370
18
48
1
60
0
100
AcDbMText
10
0
20
-45.658159
30
0
210
0
220
0
230
1
1
\A1;40
40
3
41
0
44
1
50
0
71
5
72
5
7
iso_b_vert
0
POINT
5
FC
100
AcDbEntity
8
Defpoints
62
0
6
ByLayer
370
-1
48
1
60
0
100
AcDbPoint
10
-20
20
-0.75
30
0
39
0
210
0
220
0
230
1
50
360
0
POINT
5
FD
100
AcDbEntity
8
Defpoints
62
0
6
ByLayer
370
-1
48
1
60
0
100
AcDbPoint
10
20
20
0
30
0
39
0
210
0
220
0
230
1
50
360
0
POINT
5
FE
100
AcDbEntity
8
Defpoints
62
0
6
ByLayer
370
-1
48
1
60
0
100
AcDbPoint
10
20
20
-51.658159
30
0
39
0
210
0
220
0
230
1
50
360
0
ENDBLK
5
F5
100
AcDbEntity
8
0
100
AcDbBlockEnd
0
BLOCK
5
106
100
AcDbEntity
8
0
100
AcDbBlockBegin
2
_U0
70
0
10
0
20
0
30
0
3
_U0
0
MTEXT
5
100
100
AcDbEntity
8
SK2
62
256
6
ByLayer
370
18
48
1
60
0
100
AcDbMText
10
-4.640313
20
-50.773044
30
0
210
0
220
0
230
1
1
\W0.7694;40.00
40
3
41
0
44
1.084337
50
0
71
7
72
5
7
iso_b_vert
0
LINE
5
101
100
AcDbEntity
8
SK2
62
256
6
ByLayer
370
13
48
1
60
0
100
AcDbLine
10
-20
20
-2.3375
30
0
11
-20
21
-53.658159
31
0
39
0
210
0
220
0
230
1
0
LINE
5
102
100
AcDbEntity
8
SK2
62
256
6
ByLayer
370
13
48
1
60
0
100
AcDbLine
10
20
20
-1.5875
30
0
11
20
21
-53.658159
31
0
39
0
210
0
220
0
230
1
0
LINE
5
103
100
AcDbEntity
8
SK2
62
256
6
ByLayer
370
13
48
1
60
0
100
AcDbLine
10
-20
20
-51.658159
30
0
11
20
21
-51.658159
31
0
39
0
210
0
220
0
230
1
0
SOLID
5
104
100
AcDbEntity
8
SK2
62
256
6
ByLayer
370
18
48
1
60
0
100
AcDbTrace
10
-20
20
-51.658159
30
0
11
-16.500002
21
-51.197375
31
0
12
-16.499998
22
-52.118942
32
0
13
-16.499998
23
-52.118942
33
0
39
0
210
0
220
0
230
1
0
SOLID
5
105
100
AcDbEntity
8
SK2
62
256
6
ByLayer
370
18
48
1
60
0
100
AcDbTrace
10
20
20
-51.658159
30
0
11
16.500002
21
-52.118942
31
0
12
16.499998
22
-51.197375
32
0
13
16.499998
23
-51.197375
33
0
39
0
210
0
220
0
230
1
0
ENDBLK
5
107
100
AcDbEntity
8
0
100
AcDbBlockEnd
0
BLOCK
5
10C
100
AcDbEntity
8
0
100
AcDbBlockBegin
2
*D3
70
1
10
0
20
0
30
0
3
*D3
0
LINE
5
10E
100
AcDbEntity
8
0
62
256
6
ByLayer
370
-2
48
1
60
0
100
AcDbLine
10
20
20
-1.5875
30
0
11
20
21
-43.658159
31
0
39
0
210
0
220
0
230
1
0
LINE
5
10F
100
AcDbEntity
8
0
62
256
6
ByLayer
370
-2
48
1
60
0
100
AcDbLine
10
2
20
-2.3375
30
0
11
2
21
-43.658159
31
0
39
0
210
0
220
0
230
1
0
LINE
5
110
100
AcDbEntity
8
0
62
256
6
ByLayer
370
-2
48
1
60
0
100
AcDbLine
10
16.5
20
-41.658159
30
0
11
5.5
21
-41.658159
31
0
39
0
210
0
220
0
230
1
0
SOLID
5
111
100
AcDbEntity
8
0
62
256
6
ByLayer
370
-1
48
1
60
0
100
AcDbTrace
10
16.5
20
-42.241492
30
0
11
16.5
21
-41.074825
31
0
12
20
22
-41.658159
32
0
13
20
23
-41.658159
33
0
39
0
210
0
220
0
230
1
0
SOLID
5
112
100
AcDbEntity
8
0
62
256
6
ByLayer
370
-1
48
1
60
0
100
AcDbTrace
10
5.5
20
-41.074825
30
0
11
5.5
21
-42.241492
31
0
12
2
22
-41.658159
32
0
13
2
23
-41.658159
33
0
39
0
210
0
220
0
230
1
0
MTEXT
5
113
100
AcDbEntity
8
0
62
256
6
ByLayer
370
18
48
1
60
0
100
AcDbMText
10
11
20
-35.658159
30
0
210
0
220
0
230
1
1
\A1;18
40
3
41
0
44
1
50
0
71
5
72
5
7
iso_b_vert
0
POINT
5
114
100
AcDbEntity
8
Defpoints
62
0
6
ByLayer
370
-1
48
1
60
0
100
AcDbPoint
10
20
20
0
30
0
39
0
210
0
220
0
230
1
50
360
0
POINT
5
115
100
AcDbEntity
8
Defpoints
62
0
6
ByLayer
370
-1
48
1
60
0
100
AcDbPoint
10
2
20
-0.75
30
0
39
0
210
0
220
0
230
1
50
360
0
POINT
5
116
100
AcDbEntity
8
Defpoints
62
0
6
ByLayer
370
-1
48
1
60
0
100
AcDbPoint
10
2
20
-41.658159
30
0
39
0
210
0
220
0
230
1
50
360
0
ENDBLK
5
10D
100
AcDbEntity
8
0
100
AcDbBlockEnd
0
BLOCK
5
11E
100
AcDbEntity
8
0
100
AcDbBlockBegin
2
_U1
70
0
10
0
20
0
30
0
3
_U1
0
MTEXT
5
118
100
AcDbEntity
8
2
62
256
6
ByLayer
370
18
48
1
60
0
100
AcDbMText
10
6.892572
20
-40.773044
30
0
210
0
220
0
230
1
1
\W0.6864;18.00
40
3
41
0
44
1.084337
50
0
71
7
72
5
7
iso_b_vert
0
LINE
5
119
100
AcDbEntity
8
2
62
256
6
ByLayer
370
13
48
1
60
0
100
AcDbLine
10
20
20
-1.5875
30
0
11
20
21
-43.658159
31
0
39
0
210
0
220
0
230
1
0
LINE
5
11A
100
AcDbEntity
8
2
62
256
6
ByLayer
370
13
48
1
60
0
100
AcDbLine
10
2
20
-2.3375
30
0
11
2
21
-43.658159
31
0
39
0
210
0
220
0
230
1
0
LINE
5
11B
100
AcDbEntity
8
2
62
256
6
ByLayer
370
13
48
1
60
0
100
AcDbLine
10
20
20
-41.658159
30
0
11
2
21
-41.658159
31
0
39
0
210
0
220
0
230
1
0
SOLID
5
11C
100
AcDbEntity
8
2
62
256
6
ByLayer
370
18
48
1
60
0
100
AcDbTrace
10
20
20
-41.658159
30
0
11
16.500002
21
-42.118942
31
0
12
16.499998
22
-41.197375
32
0
13
16.499998
23
-41.197375
33
0
39
0
210
0
220
0
230
1
0
SOLID
5
11D
100
AcDbEntity
8
2
62
256
6
ByLayer
370
18
48
1
60
0
100
AcDbTrace
10
2
20
-41.658159
30
0
11
5.499998
21
-41.197375
31
0
12
5.500002
22
-42.118942
32
0
13
5.500002
23
-42.118942
33
0
39
0
210
0
220
0
230
1
0
ENDBLK
5
11F
100
AcDbEntity
8
0
100
AcDbBlockEnd
0
BLOCK
5
124
100
AcDbEntity
8
0
100
AcDbBlockBegin
2
*D5
70
1
10
0
20
0
30
0
3
*D5
0
LINE
5
126
100
AcDbEntity
8
0
62
256
6
ByLayer
370
-2
48
1
60
0
100
AcDbLine
10
-20
20
-2.3375
30
0
11
-20
21
-38.658159
31
0
39
0
210
0
220
0
230
1
0
LINE
5
127
100
AcDbEntity
8
0
62
256
6
ByLayer
370
-2
48
1
60
0
100
AcDbLine
10
0
20
-2.3375
30
0
11
0
21
-38.658159
31
0
39
0
210
0
220
0
230
1
0
LINE
5
128
100
AcDbEntity
8
0
62
256
6
ByLayer
370
-2
48
1
60
0
100
AcDbLine
10
-16.5
20
-36.658159
30
0
11
-3.5
21
-36.658159
31
0
39
0
210
0
220
0
230
1
0
SOLID
5
129
100
AcDbEntity
8
0
62
256
6
ByLayer
370
-1
48
1
60
0
100
AcDbTrace
10
-16.5
20
-36.074825
30
0
11
-16.5
21
-37.241492
31
0
12
-20
22
-36.658159
32
0
13
-20
23
-36.658159
33
0
39
0
210
0
220
0
230
1
0
SOLID
5
12A
100
AcDbEntity
8
0
62
256
6
ByLayer
370
-1
48
1
60
0
100
AcDbTrace
10
-3.5
20
-37.241492
30
0
11
-3.5
21
-36.074825
31
0
12
0
22
-36.658159
32
0
13
0
23
-36.658159
33
0
39
0
210
0
220
0
230
1
0
MTEXT
5
12B
100
AcDbEntity
8
0
62
256
6
ByLayer
370
18
48
1
60
0
100
AcDbMText
10
-10
20
-30.658159
30
0
210
0
220
0
230
1
1
\A1;20
40
3
41
0
44
1
50
0
71
5
72
5
7
iso_b_vert
0
POINT
5
12C
100
AcDbEntity
8
Defpoints
62
0
6
ByLayer
370
-1
48
1
60
0
100
AcDbPoint
10
-20
20
-0.75
30
0
39
0
210
0
220
0
230
1
50
360
0
POINT
5
12D
100
AcDbEntity
8
Defpoints
62
0
6
ByLayer
370
-1
48
1
60
0
100
AcDbPoint
10
0
20
-0.75
30
0
39
0
210
0
220
0
230
1
50
360
0
POINT
5
12E
100
AcDbEntity
8
Defpoints
62
0
6
ByLayer
370
-1
48
1
60
0
100
AcDbPoint
10
0
20
-36.658159
30
0
39
0
210
0
220
0
230
1
50
360
0
ENDBLK
5
125
100
AcDbEntity
8
0
100
AcDbBlockEnd
0
BLOCK
5
136
100
AcDbEntity
8
0
100
AcDbBlockBegin
2
_U2
70
0
10
0
20
0
30
0
3
_U2
0
MTEXT
5
130
100
AcDbEntity
8
SK2
62
256
6
ByLayer
370
18
48
1
60
0
100
AcDbMText
10
-14.48237
20
-35.773044
30
0
210
0
220
0
230
1
1
\W0.7468;20.00
40
3
41
0
44
1.084337
50
0
71
7
72
5
7
iso_b_vert
0
LINE
5
131
100
AcDbEntity
8
SK2
62
256
6
ByLayer
370
13
48
1
60
0
100
AcDbLine
10
-20
20
-2.3375
30
0
11
-20
21
-38.658159
31
0
39
0
210
0
220
0
230
1
0
LINE
5
132
100
AcDbEntity
8
SK2
62
256
6
ByLayer
370
13
48
1
60
0
100
AcDbLine
10
0
20
-2.3375
30
0
11
0
21
-38.658159
31
0
39
0
210
0
220
0
230
1
0
LINE
5
133
100
AcDbEntity
8
SK2
62
256
6
ByLayer
370
13
48
1
60
0
100
AcDbLine
10
-20
20
-36.658159
30
0
11
0
21
-36.658159
31
0
39
0
210
0
220
0
230
1
0
SOLID
5
134
100
AcDbEntity
8
SK2
62
256
6
ByLayer
370
18
48
1
60
0
100
AcDbTrace
10
-20
20
-36.658159
30
0
11
-16.500002
21
-36.197375
31
0
12
-16.499998
22
-37.118942
32
0
13
-16.499998
23
-37.118942
33
0
39
0
210
0
220
0
230
1
0
SOLID
5
135
100
AcDbEntity
8
SK2
62
256
6
ByLayer
370
18
48
1
60
0
100
AcDbTrace
10
0
20
-36.658159
30
0
11
-3.499998
21
-37.118942
31
0
12
-3.500002
22
-36.197375
32
0
13
-3.500002
23
-36.197375
33
0
39
0
210
0
220
0
230
1
0
ENDBLK
5
137
100
AcDbEntity
8
0
100
AcDbBlockEnd
0
BLOCK
5
13C
100
AcDbEntity
8
0
100
AcDbBlockBegin
2
*D7
70
1
10
0
20
0
30
0
3
*D7
0
LINE
5
13E
100
AcDbEntity
8
0
62
256
6
ByLayer
370
-2
48
1
60
0
100
AcDbLine
10
20
20
-1.5875
30
0
11
20
21
-36.658159
31
0
39
0
210
0
220
0
230
1
0
LINE
5
13F
100
AcDbEntity
8
0
62
256
6
ByLayer
370
-2
48
1
60
0
100
AcDbLine
10
6.5
20
-2.3375
30
0
11
6.5
21
-36.658159
31
0
39
0
210
0
220
0
230
1
0
LINE
5
140
100
AcDbEntity
8
0
62
256
6
ByLayer
370
-2
48
1
60
0
100
AcDbLine
10
23.5
20
-34.658159
30
0
11
27
21
-34.658159
31
0
39
0
210
0
220
0
230
1
0
LINE
5
141
100
AcDbEntity
8
0
62
256
6
ByLayer
370
-2
48
1
60
0
100
AcDbLine
10
3
20
-34.658159
30
0
11
-0.5
21
-34.658159
31
0
39
0
210
0
220
0
230
1
0
SOLID
5
142
100
AcDbEntity
8
0
62
256
6
ByLayer
370
-1
48
1
60
0
100
AcDbTrace
10
23.5
20
-34.074825
30
0
11
23.5
21
-35.241492
31
0
12
20
22
-34.658159
32
0
13
20
23
-34.658159
33
0
39
0
210
0
220
0
230
1
0
SOLID
5
143
100
AcDbEntity
8
0
62
256
6
ByLayer
370
-1
48
1
60
0
100
AcDbTrace
10
3
20
-35.241492
30
0
11
3
21
-34.074825
31
0
12
6.5
22
-34.658159
32
0
13
6.5
23
-34.658159
33
0
39
0
210
0
220
0
230
1
0
MTEXT
5
144
100
AcDbEntity
8
0
62
256
6
ByLayer
370
18
48
1
60
0
100
AcDbMText
10
13.25
20
-28.658159
30
0
210
0
220
0
230
1
1
\A1;13.5
40
3
41
0
44
1
50
0
71
5
72
5
7
iso_b_vert
0
POINT
5
145
100
AcDbEntity
8
Defpoints
62
0
6
ByLayer
370
-1
48
1
60
0
100
AcDbPoint
10
20
20
0
30
0
39
0
210
0
220
0
230
1
50
360
0
POINT
5
146
100
AcDbEntity
8
Defpoints
62
0
6
ByLayer
370
-1
48
1
60
0
100
AcDbPoint
10
6.5
20
-0.75
30
0
39
0
210
0
220
0
230
1
50
360
0
POINT
5
147
100
AcDbEntity
8
Defpoints
62
0
6
ByLayer
370
-1
48
1
60
0
100
AcDbPoint
10
6.5
20
-34.658159
30
0
39
0
210
0
220
0
230
1
50
360
0
ENDBLK
5
13D
100
AcDbEntity
8
0
100
AcDbBlockEnd
0
BLOCK
5
14F
100
AcDbEntity
8
0
100
AcDbBlockBegin
2
_U3
70
0
10
0
20
0
30
0
3
_U3
0
MTEXT
5
149
100
AcDbEntity
8
2
62
256
6
ByLayer
370
18
48
1
60
0
100
AcDbMText
10
9.142572
20
-33.773044
30
0
210
0
220
0
230
1
1
\W0.6864;13.50
40
3
41
0
44
1.084337
50
0
71
7
72
5
7
iso_b_vert
0
LINE
5
14A
100
AcDbEntity
8
2
62
256
6
ByLayer
370
13
48
1
60
0
100
AcDbLine
10
20
20
-1.5875
30
0
11
20
21
-36.658159
31
0
39
0
210
0
220
0
230
1
0
LINE
5
14B
100
AcDbEntity
8
2
62
256
6
ByLayer
370
13
48
1
60
0
100
AcDbLine
10
6.5
20
-2.3375
30
0
11
6.5
21
-36.658159
31
0
39
0
210
0
220
0
230
1
0
LINE
5
14C
100
AcDbEntity
8
2
62
256
6
ByLayer
370
13
48
1
60
0
100
AcDbLine
10
20
20
-34.658159
30
0
11
6.5
21
-34.658159
31
0
39
0
210
0
220
0
230
1
0
SOLID
5
14D
100
AcDbEntity
8
2
62
256
6
ByLayer
370
18
48
1
60
0
100
AcDbTrace
10
20
20
-34.658159
30
0
11
16.500002
21
-35.118942
31
0
12
16.499998
22
-34.197375
32
0
13
16.499998
23
-34.197375
33
0
39
0
210
0
220
0
230
1
0
SOLID
5
14E
100
AcDbEntity
8
2
62
256
6
ByLayer
370
18
48
1
60
0
100
AcDbTrace
10
6.5
20
-34.658159
30
0
11
9.999998
21
-34.197375
31
0
12
10.000002
22
-35.118942
32
0
13
10.000002
23
-35.118942
33
0
39
0
210
0
220
0
230
1
0
ENDBLK
5
150
100
AcDbEntity
8
0
100
AcDbBlockEnd
0
ENDSEC
0
SECTION
2
ENTITIES
0
ARC
5
B9
100
AcDbEntity
8
2
62
256
6
ByLayer
370
13
48
1
60
0
100
AcDbCircle
39
0
10
20
20
0
30
0
40
22
210
0
220
0
230
1
100
AcDbArc
50
7.83748
51
61.596605
0
ARC
5
BA
100
AcDbEntity
8
2
62
256
6
ByLayer
370
13
48
1
60
0
100
AcDbCircle
39
0
10
20
20
0
30
0
40
22
210
0
220
0
230
1
100
AcDbArc
50
298.403395
51
352.16252
0
POINT
5
70
100
AcDbEntity
8
81
62
256
6
ByLayer
370
18
48
1
60
0
100
AcDbPoint
10
20
20
0
30
0
39
0
210
0
220
0
230
1
50
360
0
POINT
5
72
100
AcDbEntity
8
80
62
256
6
ByLayer
370
18
48
1
60
0
100
AcDbPoint
10
0
20
0
30
0
39
0
210
0
220
0
230
1
50
360
0
POINT
5
74
100
AcDbEntity
8
1
62
256
6
ByLayer
370
18
48
1
60
1
100
AcDbPoint
10
-20
20
-0.75
30
0
39
0
210
0
220
0
230
1
50
360
0
POINT
5
76
100
AcDbEntity
8
1
62
256
6
ByLayer
370
18
48
1
60
1
100
AcDbPoint
10
20
20
0
30
0
39
0
210
0
220
0
230
1
50
360
0
POINT
5
77
100
AcDbEntity
8
1
62
256
6
ByLayer
370
18
48
1
60
1
100
AcDbPoint
10
20
20
0
30
0
39
0
210
0
220
0
230
1
50
360
0
POINT
5
78
100
AcDbEntity
8
1
62
256
6
ByLayer
370
18
48
1
60
1
100
AcDbPoint
10
2
20
-0.75
30
0
39
0
210
0
220
0
230
1
50
360
0
POINT
5
79
100
AcDbEntity
8
1
62
256
6
ByLayer
370
18
48
1
60
1
100
AcDbPoint
10
-20
20
-0.75
30
0
39
0
210
0
220
0
230
1
50
360
0
POINT
5
7A
100
AcDbEntity
8
1
62
256
6
ByLayer
370
18
48
1
60
1
100
AcDbPoint
10
0
20
-0.75
30
0
39
0
210
0
220
0
230
1
50
360
0
POINT
5
7B
100
AcDbEntity
8
1
62
256
6
ByLayer
370
18
48
1
60
1
100
AcDbPoint
10
20
20
0
30
0
39
0
210
0
220
0
230
1
50
360
0
POINT
5
7C
100
AcDbEntity
8
1
62
256
6
ByLayer
370
18
48
1
60
1
100
AcDbPoint
10
6.5
20
-0.75
30
0
39
0
210
0
220
0
230
1
50
360
0
SPLINE
5
BB
100
AcDbEntity
8
CUT
62
256
6
ByLayer
370
18
48
1
60
0
100
AcDbSpline
70
2053
71
3
72
17
73
13
40
0
40
0
40
0
40
0
40
0.478856700810133
40
0.478856700810133
40
0.478856700810133
40
0.505285674455972
40
0.505285674455972
40
0.505285674455972
40
0.969756101241858
40
0.969756101241858
40
0.969756101241858
40
1
40
1
40
1
40
1
41
1
10
20
20
0
30
0
41
1
10
15.5
20
0
30
0
41
1
10
11
20
0
30
0
41
1
10
6.5
20
0
30
0
41
1
10
6.5
20
0.248363197605499
30
0
41
1
10
6.5
20
0.496726395211027
30
0
41
1
10
6.49999999999986
20
0.745089592816527
30
0
41
1
10
10.8648063607237
20
0.746726395201705
30
0
41
1
10
15.2296127214476
20
0.748363197586883
30
0
41
1
10
19.5944190821715
20
0.749999999972061
30
0
41
1
10
19.7296127214477
20
0.499999999981355
30
0
41
1
10
19.8648063607238
20
0.249999999990678
30
0
41
1
10
20
20
0
30
0
0
SPLINE
5
BD
100
AcDbEntity
8
NOCUT
62
256
6
ByLayer
370
18
48
1
60
0
100
AcDbSpline
70
2053
71
3
72
26
73
22
40
0
40
0
40
0
40
0
40
0.362668215457763
40
0.362668215457763
40
0.362668215457763
40
0.370478727776497
40
0.370478727776497
40
0.370478727776497
40
0.378763027114407
40
0.378763027114407
40
0.378763027114407
40
0.866616210345029
40
0.866616210345029
40
0.866616210345029
40
0.880332977501288
40
0.880332977501288
40
0.880332977501288
40
0.998154131924748
40
0.998154131924748
40
0.998154131924748
40
1
40
1
40
1
40
1
41
1
10
0
20
0.75
30
0
41
1
10
-6.56666666666666
20
0.75
30
0
41
1
10
-13.1333333333333
20
0.75
30
0
41
1
10
-19.7
20
0.75
30
0
41
1
10
-19.8
20
0.650000000000006
30
0
41
1
10
-19.9
20
0.550000000000011
30
0
41
1
10
-20
20
0.449999999999989
30
0
41
1
10
-20
20
0.300000000000011
30
0
41
1
10
-20
20
0.150000000000006
30
0
41
1
10
-20
20
0
30
0
41
1
10
-11.1666666666667
20
0
30
0
41
1
10
-2.33333333333334
20
0
30
0
41
1
10
6.5
20
0
30
0
41
1
10
6.5
20
0.248363197605499
30
0
41
1
10
6.5
20
0.496726395211027
30
0
41
1
10
6.5
20
0.745089592816527
30
0
41
1
10
4.36666666666659
20
0.744289592816585
30
0
41
1
10
2.23333333333318
20
0.743489592816644
30
0
41
1
10
0.100000000013353
20
0.742689592815708
30
0
41
1
10
0.0666666666846254
20
0.745126395209809
30
0
41
1
10
0.0333333333423127
20
0.747563197604904
30
0
41
1
10
0
20
0.75
30
0
0
SPLINE
5
BF
100
AcDbEntity
8
1
62
256
6
ByLayer
370
18
48
1
60
0
100
AcDbSpline
70
4
71
3
72
54
73
50
40
0
40
0
40
0
40
0
40
0.125000000000024
40
0.125000000000024
40
0.187500000000036
40
0.187500000000036
40
0.250000000000048
40
0.250000000000048
40
0.281250000000051
40
0.281250000000051
40
0.312500000000054
40
0.312500000000054
40
0.375000000000055
40
0.375000000000055
40
0.437500000000055
40
0.437500000000055
40
0.468750000000058
40
0.468750000000058
40
0.484375000000059
40
0.484375000000059
40
0.492187500000058
40
0.492187500000058
40
0.500000000000057
40
0.500000000000057
40
0.507812500000056
40
0.507812500000056
40
0.515625000000055
40
0.515625000000055
40
0.523437500000053
40
0.523437500000053
40
0.531250000000052
40
0.531250000000052
40
0.562500000000052
40
0.562500000000052
40
0.593750000000051
40
0.593750000000051
40
0.62500000000005
40
0.62500000000005
40
0.687500000000043
40
0.687500000000043
40
0.750000000000036
40
0.750000000000036
40
0.781250000000029
40
0.781250000000029
40
0.812500000000022
40
0.812500000000022
40
0.875000000000015
40
0.875000000000015
40
1
40
1
40
1
40
1
41
1
10
19.5944190821715
20
0.72577117805298
30
0
41
1
10
19.6252399556404
20
0.668527023936889
30
0
41
1
10
19.6558961947149
20
0.611076808320576
30
0
41
1
10
19.7014649476623
20
0.524577714815678
30
0
41
1
10
19.7165834590337
20
0.495689226208668
30
0
41
1
10
19.7465964978555
20
0.437763080530232
30
0
41
1
10
19.7614834744797
20
0.408722230490838
30
0
41
1
10
19.7835355440999
20
0.365015610429111
30
0
41
1
10
19.7908424952746
20
0.350424864269257
30
0
41
1
10
19.8054015733516
20
0.321234415231231
30
0
41
1
10
19.8126553421201
20
0.306635873157461
30
0
41
1
10
19.8343497513442
20
0.262846676839246
30
0
41
1
10
19.8487175461288
20
0.23369089320073
30
0
41
1
10
19.876880765717
20
0.175394747467607
30
0
41
1
10
19.8907275621665
20
0.146232114983434
30
0
41
1
10
19.9101861035968
20
0.102276502173339
30
0
41
1
10
19.9164665288617
20
0.0875850533892617
30
0
41
1
10
19.9251876878642
20
0.0653913967240101
30
0
41
1
10
19.9280224074958
20
0.0579639392805689
30
0
41
1
10
19.9315405185056
20
0.0464680368269512
30
0
41
1
10
19.932575051219
20
0.0425786348787369
30
0
41
1
10
19.9341678557683
20
0.0345949859597567
30
0
41
1
10
19.9347182758844
20
0.0304879850748421
30
0
41
1
10
19.9351598290211
20
0.022444188743691
30
0
41
1
10
19.9350555101198
20
0.0184141302149214
30
0
41
1
10
19.9342394367005
20
0.0106620780194078
30
0
41
1
10
19.9335441229213
20
0.0069769937201727
30
0
41
1
10
19.9317941518116
20
-0.0001741476565087
30
0
41
1
10
19.9307398861997
20
-0.0036525017033
30
0
41
1
10
19.9284657087189
20
-0.0104705442677187
30
0
41
1
10
19.9272432478888
20
-0.0138163547421755
30
0
41
1
10
19.9208570971132
20
-0.0304039677889989
30
0
41
1
10
19.9148928000845
20
-0.0432263541337363
30
0
41
1
10
19.9021295204293
20
-0.068210938297085
30
0
41
1
10
19.8952951212658
20
-0.0803822100772607
30
0
41
1
10
19.8812431611444
20
-0.103982742221916
30
0
41
1
10
19.8740289161917
20
-0.115405078053982
30
0
41
1
10
19.8521027589553
20
-0.148703914471326
30
0
41
1
10
19.8371200053861
20
-0.169621950105068
30
0
41
1
10
19.806922881493
20
-0.209206437780864
30
0
41
1
10
19.7916913104045
20
-0.227863151712569
30
0
41
1
10
19.7687217599291
20
-0.254186619658753
30
0
41
1
10
19.7610433219148
20
-0.262683032747191
30
0
41
1
10
19.7456431682164
20
-0.279120119192982
30
0
41
1
10
19.7379154798539
20
-0.287065047525317
30
0
41
1
10
19.7148767613339
20
-0.309854624639456
30
0
41
1
10
19.6996395707369
20
-0.323734880377032
30
0
41
1
10
19.6542001714464
20
-0.361590686595122
30
0
41
1
10
19.6242702923756
20
-0.381816860025054
30
0
41
1
10
19.5944190821715
20
-0.396976725517646
30
0
0
SPLINE
5
C0
100
AcDbEntity
8
1
62
256
6
ByLayer
370
18
48
1
60
0
100
AcDbSpline
70
4
71
3
72
60
73
56
40
0
40
0
40
0
40
0
40
0.0418795527778493
40
0.0418795527778493
40
0.0837591055556985
40
0.0837591055556985
40
0.125638658333548
40
0.125638658333548
40
0.167518211111397
40
0.167518211111397
40
0.209397763889246
40
0.209397763889246
40
0.251277316667096
40
0.251277316667096
40
0.293156869444945
40
0.293156869444945
40
0.314096645833867
40
0.314096645833867
40
0.335036422222789
40
0.335036422222789
40
0.376915975000638
40
0.376915975000638
40
0.418795527778487
40
0.418795527778487
40
0.460675080556336
40
0.460675080556336
40
0.502554633334185
40
0.502554633334185
40
0.544434186112035
40
0.544434186112035
40
0.586313738889884
40
0.586313738889884
40
0.628193291667733
40
0.628193291667733
40
0.649133068056657
40
0.649133068056657
40
0.670072844445582
40
0.670072844445582
40
0.711952397223431
40
0.711952397223431
40
0.75383195000128
40
0.75383195000128
40
0.79571150277913
40
0.79571150277913
40
0.837591055556979
40
0.837591055556979
40
0.879470608334828
40
0.879470608334828
40
0.921350161112678
40
0.921350161112678
40
0.963229713890527
40
0.963229713890527
40
0.984169490279451
40
0.984169490279451
40
1
40
1
40
1
40
1
41
1
10
19.5944190821711
20
-0.396976725517447
30
0
41
1
10
19.5538264702716
20
-0.377923418169644
30
0
41
1
10
19.513394885173
20
-0.358381648315287
30
0
41
1
10
19.4328487806658
20
-0.318330504689072
30
0
41
1
10
19.3927147763723
20
-0.297852698412925
30
0
41
1
10
19.3124543836217
20
-0.256466912117048
30
0
41
1
10
19.2723428972576
20
-0.235535025405113
30
0
41
1
10
19.192227806809
20
-0.193076070015053
30
0
41
1
10
19.1522232150536
20
-0.171549529389779
30
0
41
1
10
19.0721764299371
20
-0.128159355997923
30
0
41
1
10
19.0321301513476
20
-0.106304076182425
30
0
41
1
10
18.9520234951902
20
-0.0622129560336191
30
0
41
1
10
18.9119860896664
20
-0.0399336796498631
30
0
41
1
10
18.8317560739891
20
0.004754567854917
30
0
41
1
10
18.7915277799179
20
0.027096134165987
30
0
41
1
10
18.7309569439096
20
0.0604926144903004
30
0
41
1
10
18.7107339315014
20
0.0716155713792546
30
0
41
1
10
18.6702300833017
20
0.0938587132582711
30
0
41
1
10
18.6499263780618
20
0.104995246111855
30
0
41
1
10
18.5891151147973
20
0.138239240370751
30
0
41
1
10
18.5487109757062
20
0.160159280669404
30
0
41
1
10
18.4680910749883
20
0.203374869304099
30
0
41
1
10
18.4278901305056
20
0.224699120470916
30
0
41
1
10
18.3477279013563
20
0.266816981574408
30
0
41
1
10
18.3077534943057
20
0.287583561729775
30
0
41
1
10
18.2277439293703
20
0.328070599087908
30
0
41
1
10
18.1877080196723
20
0.347794332463991
30
0
41
1
10
18.1076497583718
20
0.386339034004834
30
0
41
1
10
18.0676347044839
20
0.405168927902679
30
0
41
1
10
17.9874917045884
20
0.441716943358671
30
0
41
1
10
17.9473555682616
20
0.459424619315143
30
0
41
1
10
17.8669709605689
20
0.493722864645093
30
0
41
1
10
17.826746424062
20
0.510345980024965
30
0
41
1
10
17.7662493556955
20
0.534311693546755
30
0
41
1
10
17.7460531151797
20
0.542133578929594
30
0
41
1
10
17.7055645034538
20
0.557396271041824
30
0
41
1
10
17.6852531510461
20
0.564840286731254
30
0
41
1
10
17.6244622769169
20
0.586514328718238
30
0
41
1
10
17.5840566706032
20
0.600131332566264
30
0
41
1
10
17.5034903783384
20
0.625731876046586
30
0
41
1
10
17.4633068445956
20
0.637687598576633
30
0
41
1
10
17.3830362763509
20
0.659834210534257
30
0
41
1
10
17.3429611771608
20
0.670039784497988
30
0
41
1
10
17.2629685372226
20
0.688735086379097
30
0
41
1
10
17.2230469908729
20
0.697213896861825
30
0
41
1
10
17.1430843231306
20
0.712246099783215
30
0
41
1
10
17.1030270507522
20
0.718797962257639
30
0
41
1
10
17.0228293962206
20
0.730029711766576
30
0
41
1
10
16.9827030100133
20
0.734711210870699
30
0
41
1
10
16.9022665597759
20
0.742130321233446
30
0
41
1
10
16.8619441523001
20
0.744867418196037
30
0
41
1
10
16.8013025669188
20
0.747493031096155
30
0
41
1
10
16.7810638480268
20
0.748121485765154
30
0
41
1
10
16.7454838297139
20
0.748783781098865
30
0
41
1
10
16.7301582842639
20
0.748924478973237
30
0
41
1
10
16.71485634248
20
0.748920047659595
30
0
0
SPLINE
5
C1
100
AcDbEntity
8
1
62
256
6
ByLayer
370
18
48
1
60
0
100
AcDbSpline
70
4
71
3
72
100
73
96
40
0
40
0
40
0
40
0
40
0.030097557361956
40
0.030097557361956
40
0.0519707811854277
40
0.0519707811854277
40
0.0738440050088991
40
0.0738440050088991
40
0.0957172288323706
40
0.0957172288323706
40
0.117590452655842
40
0.117590452655842
40
0.139463676479314
40
0.139463676479314
40
0.150400288391049
40
0.150400288391049
40
0.161336900302785
40
0.161336900302785
40
0.183210124126254
40
0.183210124126254
40
0.205083347949723
40
0.205083347949723
40
0.226956571773192
40
0.226956571773192
40
0.24882979559666
40
0.24882979559666
40
0.270703019420129
40
0.270703019420129
40
0.292576243243598
40
0.292576243243598
40
0.314449467067066
40
0.314449467067066
40
0.325386078978801
40
0.325386078978801
40
0.336322690890535
40
0.336322690890535
40
0.380069138537478
40
0.380069138537478
40
0.401942362360951
40
0.401942362360951
40
0.423815586184424
40
0.423815586184424
40
0.445688810007897
40
0.445688810007897
40
0.467562033831369
40
0.467562033831369
40
0.48943525765484
40
0.48943525765484
40
0.511308481478312
40
0.511308481478312
40
0.533181705301783
40
0.533181705301783
40
0.555054929125255
40
0.555054929125255
40
0.576928152948727
40
0.576928152948727
40
0.598801376772198
40
0.598801376772198
40
0.62067460059567
40
0.62067460059567
40
0.642547824419142
40
0.642547824419142
40
0.664421048242614
40
0.664421048242614
40
0.686294272066085
40
0.686294272066085
40
0.708167495889557
40
0.708167495889557
40
0.730040719713028
40
0.730040719713028
40
0.7519139435365
40
0.7519139435365
40
0.773787167359972
40
0.773787167359972
40
0.795660391183444
40
0.795660391183444
40
0.817533615006915
40
0.817533615006915
40
0.828470226918651
40
0.828470226918651
40
0.839406838830387
40
0.839406838830387
40
0.861280062653857
40
0.861280062653857
40
0.883153286477327
40
0.883153286477327
40
0.905026510300797
40
0.905026510300797
40
0.948772957947739
40
0.948772957947739
40
0.97064618177121
40
0.97064618177121
40
0.992519405594681
40
0.992519405594681
40
1
40
1
40
1
40
1
41
1
10
13.7294085193094
20
-0.444058669428017
30
0
41
1
10
13.6739542308205
20
-0.468659672718616
30
0
41
1
10
13.6186908084829
20
-0.492073528040464
30
0
41
1
10
13.5233886216087
20
-0.530191523740541
30
0
41
1
10
13.4833381292586
20
-0.545560358300122
30
0
41
1
10
13.4033598294464
20
-0.574935886780963
30
0
41
1
10
13.3634134358363
20
-0.588914131976708
30
0
41
1
10
13.2833381087327
20
-0.615150824688413
30
0
41
1
10
13.2432214706503
20
-0.627429992518017
30
0
41
1
10
13.1629051711596
20
-0.650389875137193
30
0
41
1
10
13.122706579511
20
-0.661066921244924
30
0
41
1
10
13.0420810679974
20
-0.680660210593203
30
0
41
1
10
13.0016494409898
20
-0.689576426785834
30
0
41
1
10
12.9408427048569
20
-0.701620151833197
30
0
41
1
10
12.9205324828951
20
-0.705416026571612
30
0
41
1
10
12.8800442137528
20
-0.712520846310923
30
0
41
1
10
12.8598435321776
20
-0.715832195237539
30
0
41
1
10
12.7993218086624
20
-0.72501941670393
30
0
41
1
10
12.759056324925
20
-0.730136758071666
30
0
41
1
10
12.6786060253456
20
-0.738389374718963
30
0
41
1
10
12.6384542433267
20
-0.741537714109739
30
0
41
1
10
12.5582721734746
20
-0.745884121394084
30
0
41
1
10
12.5182191227347
20
-0.747076406531647
30
0
41
1
10
12.438106492816
20
-0.747505504010292
30
0
41
1
10
12.3980613280685
20
-0.746745576351032
30
0
41
1
10
12.3180194448327
20
-0.74324320493804
30
0
41
1
10
12.2780105577695
20
-0.74049431507288
30
0
41
1
10
12.1977461489456
20
-0.733056036958317
30
0
41
1
10
12.1574871274616
20
-0.7283775101576
30
0
41
1
10
12.0767928991652
20
-0.717068925525552
30
0
41
1
10
12.036365671963
20
-0.710428674041481
30
0
41
1
10
11.9754955031356
20
-0.699018854350243
30
0
41
1
10
11.9551753285815
20
-0.694975993975277
30
0
41
1
10
11.914646558265
20
-0.686452518486931
30
0
41
1
10
11.8944153680135
20
-0.681966761239778
30
0
41
1
10
11.7934376294968
20
-0.658413710424924
30
0
41
1
10
11.7133348560407
20
-0.635840858889821
30
0
41
1
10
11.5930487139804
20
-0.597589091820623
30
0
41
1
10
11.5529766104762
20
-0.58406964555445
30
0
41
1
10
11.4728850851565
20
-0.555488287333731
30
0
41
1
10
11.4328430058544
20
-0.540451215005675
30
0
41
1
10
11.3526639570738
20
-0.50901489565743
30
0
41
1
10
11.3125387615937
20
-0.492603075093996
30
0
41
1
10
11.2322538912831
20
-0.458310902102397
30
0
41
1
10
11.1920911971096
20
-0.440428347366492
30
0
41
1
10
11.1114565187387
20
-0.40357503817188
30
0
41
1
10
11.0709683972063
20
-0.384637166782738
30
0
41
1
10
10.9897177712646
20
-0.345621865760364
30
0
41
1
10
10.9492115584339
20
-0.325633048814183
30
0
41
1
10
10.8684552470954
20
-0.28500147655592
30
0
41
1
10
10.8281679822315
20
-0.264369604211026
30
0
41
1
10
10.7477758550441
20
-0.222476904299271
30
0
41
1
10
10.7076950076629
20
-0.201172906089909
30
0
41
1
10
10.6276559015906
20
-0.158040075599956
30
0
41
1
10
10.58766457697
20
-0.136270592248167
30
0
41
1
10
10.5075630148103
20
-0.092649855155031
30
0
41
1
10
10.4674858795511
20
-0.0707389484101384
30
0
41
1
10
10.3873124955515
20
-0.0266534133382095
30
0
41
1
10
10.3471954452509
20
-0.0045166974074391
30
0
41
1
10
10.2667817589179
20
0.0397243915668923
30
0
41
1
10
10.2264940447934
20
0.0618448319056881
30
0
41
1
10
10.1457938166617
20
0.106162718889351
30
0
41
1
10
10.1053679447232
20
0.12838741254987
30
0
41
1
10
10.0242277310944
20
0.172397321574607
30
0
41
1
10
9.98374171194374
20
0.193999675442711
30
0
41
1
10
9.90297906184966
20
0.236515700663261
30
0
41
1
10
9.86272269786173
20
0.257464011035722
30
0
41
1
10
9.7823466694922
20
0.298547935065414
30
0
41
1
10
9.74221102615351
20
0.318657105969379
30
0
41
1
10
9.66202791951633
20
0.35799136954293
30
0
41
1
10
9.6220029071917
20
0.377252897376934
30
0
41
1
10
9.54201814612819
20
0.414839788978782
30
0
41
1
10
9.50202891993797
20
0.433116721603056
30
0
41
1
10
9.42184039220626
20
0.468319366280866
30
0
41
1
10
9.38167076546583
20
0.485293032181261
30
0
41
1
10
9.30123470135712
20
0.518056002061996
30
0
41
1
10
9.26095130619979
20
0.533818917659318
30
0
41
1
10
9.20032992401488
20
0.556393087952671
30
0
41
1
10
9.18009100544828
20
0.563740986448181
30
0
41
1
10
9.13955472969093
20
0.578087189599501
30
0
41
1
10
9.11923414155507
20
0.585093237650597
30
0
41
1
10
9.05837346695554
20
0.605525126036355
30
0
41
1
10
9.01800041646018
20
0.61836288387849
30
0
41
1
10
8.93740788818846
20
0.642217216230989
30
0
41
1
10
8.8971578538945
20
0.653210083894635
30
0
41
1
10
8.81676515829295
20
0.673400215645444
30
0
41
1
10
8.77664778378542
20
0.682616238199358
30
0
41
1
10
8.65640059372529
20
0.707531773972107
30
0
41
1
10
8.57627641854361
20
0.720458927117448
30
0
41
1
10
8.45612715358703
20
0.734219390875069
30
0
41
1
10
8.4160541479535
20
0.737844673937843
30
0
41
1
10
8.33561334683384
20
0.743101837934717
30
0
41
1
10
8.29526926901332
20
0.744747629789231
30
0
41
1
10
8.24100531115937
20
0.745630979659097
30
0
41
1
10
8.22716501111148
20
0.745740008718002
30
0
41
1
10
8.21330984488662
20
0.745732010460586
30
0
0
SPLINE
5
C2
100
AcDbEntity
8
1
62
256
6
ByLayer
370
18
48
1
60
0
100
AcDbSpline
70
4
71
3
72
26
73
22
40
0
40
0
40
0
40
0
40
0.0011094778954697
40
0.0011094778954697
40
0.112097313684862
40
0.112097313684862
40
0.223085149474254
40
0.223085149474254
40
0.334072985263646
40
0.334072985263646
40
0.445060821053039
40
0.445060821053039
40
0.556048656842431
40
0.556048656842431
40
0.667036492631825
40
0.667036492631825
40
0.778024328421217
40
0.778024328421217
40
0.889012164210609
40
0.889012164210609
40
1
40
1
40
1
40
1
41
1
10
5.23637399193666
20
-0.438458578926486
30
0
41
1
10
5.23596928683963
20
-0.438639109163432
30
0
41
1
10
5.23556460552905
20
-0.438819579980901
30
0
41
1
10
5.19467963525324
20
-0.457047624953532
30
0
41
1
10
5.15437508822617
20
-0.474511141695842
30
0
41
1
10
5.07384492176979
20
-0.507890679272549
30
0
41
1
10
5.03360818794025
20
-0.523798907741536
30
0
41
1
10
4.953261793466
20
-0.554187631110722
30
0
41
1
10
4.91316322328558
20
-0.568677720697082
30
0
41
1
10
4.83298164528901
20
-0.596089934313653
30
0
41
1
10
4.79288839328089
20
-0.609003331113399
30
0
41
1
10
4.71270405603639
20
-0.633252877555776
30
0
41
1
10
4.6726346992368
20
-0.644608815882748
30
0
41
1
10
4.59243502621419
20
-0.665645895387627
30
0
41
1
10
4.55227888587785
20
-0.675302462275909
30
0
41
1
10
4.47168132123386
20
-0.692753893909639
30
0
41
1
10
4.43125677294341
20
-0.700564474655181
30
0
41
1
10
4.35011402574156
20
-0.714322561190983
30
0
41
1
10
4.30935952559193
20
-0.720274592164685
30
0
41
1
10
4.22806347591634
20
-0.730250368295742
30
0
41
1
10
4.18747260389483
20
-0.73428697245447
30
0
41
1
10
4.14700949482753
20
-0.737344159702275
30
0
0
SPLINE
5
C3
100
AcDbEntity
8
1
62
256
6
ByLayer
370
18
48
1
60
0
100
AcDbSpline
70
4
71
3
72
48
73
44
40
0
40
0
40
0
40
0
40
0.0513241642996677
40
0.0513241642996677
40
0.102648328599335
40
0.102648328599335
40
0.153972492899003
40
0.153972492899003
40
0.205296657198671
40
0.205296657198671
40
0.256620821498339
40
0.256620821498339
40
0.307944985798006
40
0.307944985798006
40
0.359269150097674
40
0.359269150097674
40
0.384931232247508
40
0.384931232247508
40
0.410593314397342
40
0.410593314397342
40
0.461917478697006
40
0.461917478697006
40
0.51324164299667
40
0.51324164299667
40
0.564565807296335
40
0.564565807296335
40
0.615889971595999
40
0.615889971595999
40
0.667214135895663
40
0.667214135895663
40
0.718538300195328
40
0.718538300195328
40
0.769862464494992
40
0.769862464494992
40
0.821186628794656
40
0.821186628794656
40
0.872510793094321
40
0.872510793094321
40
0.923834957393985
40
0.923834957393985
40
0.975159121693649
40
0.975159121693649
40
1
40
1
40
1
40
1
41
1
10
4.14700949482753
20
0.125573846066004
30
0
41
1
10
4.18734415829661
20
0.102941307690116
30
0
41
1
10
4.22776006653712
20
0.0806632007389396
30
0
41
1
10
4.30861474679477
20
0.0365059191982482
30
0
41
1
10
4.34905194273807
20
0.0146236658553107
30
0
41
1
10
4.42974570683899
20
-0.0291407363010023
30
0
41
1
10
4.46998500821758
20
-0.0510544716606773
30
0
41
1
10
4.55021940604564
20
-0.0949903536339605
30
0
41
1
10
4.59019812335757
20
-0.117041700979826
30
0
41
1
10
4.67009019434335
20
-0.160910418365177
30
0
41
1
10
4.71002470674091
20
-0.182688817111938
30
0
41
1
10
4.79016033087964
20
-0.225415119638427
30
0
41
1
10
4.83037234021364
20
-0.246344457930093
30
0
41
1
10
4.91116618022656
20
-0.287206220159447
30
0
41
1
10
4.95170379651373
20
-0.307218448595933
30
0
41
1
10
5.01252329256414
20
-0.336948896901617
30
0
41
1
10
5.03280407496527
20
-0.346801213429643
30
0
41
1
10
5.07338637277891
20
-0.366377775000643
30
0
41
1
10
5.0937075703547
20
-0.376111778059567
30
0
41
1
10
5.15444217515926
20
-0.404973304511543
30
0
41
1
10
5.19469684594219
20
-0.423777340332805
30
0
41
1
10
5.27507515945149
20
-0.459971110865496
30
0
41
1
10
5.31520492268325
20
-0.477354118875468
30
0
41
1
10
5.39558678641691
20
-0.5104216339397
30
0
41
1
10
5.43587190021216
20
-0.526070147665251
30
0
41
1
10
5.51638464661357
20
-0.555991166656185
30
0
41
1
10
5.55657844577703
20
-0.570302740284063
30
0
41
1
10
5.63678254929974
20
-0.59764698947339
30
0
41
1
10
5.67678626169027
20
-0.610682345490488
30
0
41
1
10
5.75677855074838
20
-0.635211968182034
30
0
41
1
10
5.7967898453816
20
-0.646680065683796
30
0
41
1
10
5.877152641772
20
-0.667729916041225
30
0
41
1
10
5.91750883688826
20
-0.677311027464299
30
0
41
1
10
5.99870832796134
20
-0.694533575825091
30
0
41
1
10
6.03960303628298
20
-0.702228619214139
30
0
41
1
10
6.12086702713665
20
-0.715813167673161
30
0
41
1
10
6.16128974100971
20
-0.72169665670458
30
0
41
1
10
6.24174171508037
20
-0.731571068190561
30
0
41
1
10
6.28176661032086
20
-0.735555089651172
30
0
41
1
10
6.36174828632639
20
-0.741487248578409
30
0
41
1
10
6.40171352569425
20
-0.743436184328317
30
0
41
1
10
6.46116496945868
20
-0.744853631606389
30
0
41
1
10
6.48058582562575
20
-0.745085261266269
30
0
41
1
10
6.50002654071776
20
-0.745090956800993
30
0
0
SPLINE
5
C4
100
AcDbEntity
8
1
62
256
6
ByLayer
370
18
48
1
60
0
100
AcDbSpline
70
4
71
3
72
104
73
100
40
0
40
0
40
0
40
0
40
0.0395784736334652
40
0.0395784736334652
40
0.0614449987526576
40
0.0614449987526576
40
0.0723782613122544
40
0.0723782613122544
40
0.0833115238718513
40
0.0833115238718513
40
0.105178048991047
40
0.105178048991047
40
0.127044574110242
40
0.127044574110242
40
0.148911099229437
40
0.148911099229437
40
0.170777624348633
40
0.170777624348633
40
0.192644149467828
40
0.192644149467828
40
0.214510674587023
40
0.214510674587023
40
0.236377199706219
40
0.236377199706219
40
0.247310462265817
40
0.247310462265817
40
0.258243724825416
40
0.258243724825416
40
0.280110249944611
40
0.280110249944611
40
0.301976775063806
40
0.301976775063806
40
0.323843300183002
40
0.323843300183002
40
0.345709825302197
40
0.345709825302197
40
0.367576350421392
40
0.367576350421392
40
0.389442875540587
40
0.389442875540587
40
0.411309400659783
40
0.411309400659783
40
0.433175925778978
40
0.433175925778978
40
0.455042450898173
40
0.455042450898173
40
0.476908976017369
40
0.476908976017369
40
0.498775501136564
40
0.498775501136564
40
0.520642026255759
40
0.520642026255759
40
0.542508551374955
40
0.542508551374955
40
0.56437507649415
40
0.56437507649415
40
0.586241601613345
40
0.586241601613345
40
0.608108126732541
40
0.608108126732541
40
0.629974651851736
40
0.629974651851736
40
0.651841176970931
40
0.651841176970931
40
0.673707702090127
40
0.673707702090127
40
0.695574227209322
40
0.695574227209322
40
0.717440752328517
40
0.717440752328517
40
0.739307277447713
40
0.739307277447713
40
0.75024054000731
40
0.75024054000731
40
0.761173802566908
40
0.761173802566908
40
0.783040327686103
40
0.783040327686103
40
0.804906852805299
40
0.804906852805299
40
0.826773377924494
40
0.826773377924494
40
0.84863990304369
40
0.84863990304369
40
0.870506428162885
40
0.870506428162885
40
0.89237295328208
40
0.89237295328208
40
0.914239478401275
40
0.914239478401275
40
0.925172740960872
40
0.925172740960872
40
0.936106003520468
40
0.936106003520468
40
0.957972528639663
40
0.957972528639663
40
0.979839053758858
40
0.979839053758858
40
1
40
1
40
1
40
1
41
1
10
9.48264904693204
20
0.440927230642501
30
0
41
1
10
9.55507122552734
20
0.473373383880244
30
0
41
1
10
9.62726339946661
20
0.504429211394523
30
0
41
1
10
9.74037818163657
20
0.548427871422064
30
0
41
1
10
9.7808555129894
20
0.563246502013726
30
0
41
1
10
9.84190143935956
20
0.584251320505786
30
0
41
1
10
9.86231391439014
20
0.591065888451936
30
0
41
1
10
9.90301321794976
20
0.604294950597136
30
0
41
1
10
9.92331524431859
20
0.610719110236801
30
0
41
1
10
9.98406606892456
20
0.629427280983464
30
0
41
1
10
10.0243626448639
20
0.641143179634611
30
0
41
1
10
10.1045961537461
20
0.662951674649605
30
0
41
1
10
10.1445498551086
20
0.673021304351124
30
0
41
1
10
10.2244677065735
20
0.691214271495056
30
0
41
1
10
10.2644322591799
20
0.699340394186521
30
0
41
1
10
10.3446012091994
20
0.713588997060697
30
0
41
1
10
10.3848243648489
20
0.719713593537136
30
0
41
1
10
10.4652554547859
20
0.730164145780918
30
0
41
1
10
10.5054392743675
20
0.734493679692292
30
0
41
1
10
10.5857347045936
20
0.741276479022389
30
0
41
1
10
10.6258304497477
20
0.743727750789617
30
0
41
1
10
10.706158330096
20
0.746601323653692
30
0
41
1
10
10.7464109308141
20
0.74701905579937
30
0
41
1
10
10.8071441294748
20
0.74611204939805
30
0
41
1
10
10.8274496879353
20
0.745554487608729
30
0
41
1
10
10.8680061872559
20
0.743952459368018
30
0
41
1
10
10.8882864028865
20
0.74290928104864
30
0
41
1
10
10.9490962898308
20
0.739073103218686
30
0
41
1
10
10.9895807106123
20
0.735576801499576
30
0
41
1
10
11.0701862982468
20
0.726632927898464
30
0
41
1
10
11.1103294665296
20
0.721186290410174
30
0
41
1
10
11.1903272872426
20
0.708288814923407
30
0
41
1
10
11.2301919199046
20
0.700835724417459
30
0
41
1
10
11.3099861898547
20
0.684108737219276
30
0
41
1
10
11.3499206107548
20
0.674840857496491
30
0
41
1
10
11.4300932584343
20
0.654744271896845
30
0
41
1
10
11.47036183199
20
0.643953556968683
30
0
41
1
10
11.5510049963833
20
0.620698947297626
30
0
41
1
10
11.5913480046921
20
0.608198340155326
30
0
41
1
10
11.6720365527136
20
0.58131435301263
30
0
41
1
10
11.7123732387402
20
0.566914278822566
30
0
41
1
10
11.7932380157724
20
0.536336327787069
30
0
41
1
10
11.8336065727137
20
0.520253719575038
30
0
41
1
10
11.9141851272288
20
0.487099136946995
30
0
41
1
10
11.9544573528324
20
0.470020944456763
30
0
41
1
10
12.035096891315
20
0.435114788311779
30
0
41
1
10
12.075422385858
20
0.417229164960617
30
0
41
1
10
12.1558024617897
20
0.380162319434333
30
0
41
1
10
12.1958754642344
20
0.361006223259977
30
0
41
1
10
12.2758132120806
20
0.321452284587622
30
0
41
1
10
12.3156768169729
20
0.301048769723337
30
0
41
1
10
12.3955257711929
20
0.25952829363689
30
0
41
1
10
12.4355189056175
20
0.238425871993371
30
0
41
1
10
12.5158782950294
20
0.195978112782626
30
0
41
1
10
12.5562795008654
20
0.17470129392845
30
0
41
1
10
12.6373154770347
20
0.131682479279306
30
0
41
1
10
12.6779196279071
20
0.109863234786843
30
0
41
1
10
12.7591799340678
20
0.0654374786286667
30
0
41
1
10
12.7995575189212
20
0.0429795451325106
30
0
41
1
10
12.8799626862421
20
-0.0021150994633103
30
0
41
1
10
12.9200138803905
20
-0.0247057538657316
30
0
41
1
10
13.0001376103979
20
-0.0693736122091764
30
0
41
1
10
13.040211142168
20
-0.0914499810560585
30
0
41
1
10
13.1205586867175
20
-0.134788704872847
30
0
41
1
10
13.1607987146629
20
-0.156116114307594
30
0
41
1
10
13.2411098014247
20
-0.198634976533413
30
0
41
1
10
13.2811896067335
20
-0.219808741717088
30
0
41
1
10
13.3612273407452
20
-0.261910979784886
30
0
41
1
10
13.401172620094
20
-0.282859744938946
30
0
41
1
10
13.4812418375997
20
-0.32397171641793
30
0
41
1
10
13.5213761421584
20
-0.344117569800574
30
0
41
1
10
13.5819125316909
20
-0.373413791932052
30
0
41
1
10
13.6021479873096
20
-0.383024319698762
30
0
41
1
10
13.6427465771831
20
-0.40191432411774
30
0
41
1
10
13.6631277864706
20
-0.411211883403638
30
0
41
1
10
13.7242122838177
20
-0.438646729280066
30
0
41
1
10
13.7647867476098
20
-0.456342748471684
30
0
41
1
10
13.8455117139527
20
-0.490722387228061
30
0
41
1
10
13.8856688707691
20
-0.507390414554465
30
0
41
1
10
13.9656894259772
20
-0.539465242142626
30
0
41
1
10
14.0055763366865
20
-0.554835965065564
30
0
41
1
10
14.0854356658854
20
-0.583842937745857
30
0
41
1
10
14.1254046068508
20
-0.597486164478852
30
0
41
1
10
14.2056323277732
20
-0.622898412340419
30
0
41
1
10
14.2458699760644
20
-0.634701128828794
30
0
41
1
10
14.3262874670219
20
-0.656818923384606
30
0
41
1
10
14.3664618171061
20
-0.667132028246783
30
0
41
1
10
14.4467737047172
20
-0.686154877721009
30
0
41
1
10
14.4868921955576
20
-0.694873575248721
30
0
41
1
10
14.5472440588945
20
-0.706537341647021
30
0
41
1
10
14.5673921530814
20
-0.71018932608726
30
0
41
1
10
14.6077894356014
20
-0.716996442760262
30
0
41
1
10
14.6280612764839
20
-0.720155268614889
30
0
41
1
10
14.6888164306169
20
-0.728837477101536
30
0
41
1
10
14.7293143535328
20
-0.733564194593043
30
0
41
1
10
14.8102275575455
20
-0.741062875257569
30
0
41
1
10
14.85059627779
20
-0.743851832629503
30
0
41
1
10
14.927851723027
20
-0.747380121199768
30
0
41
1
10
14.9647770547754
20
-0.748254452631841
30
0
41
1
10
15.0015992316242
20
-0.748277610871099
30
0
0
SPLINE
5
C5
100
AcDbEntity
8
1
62
256
6
ByLayer
370
18
48
1
60
0
100
AcDbSpline
70
4
71
3
72
34
73
30
40
0
40
0
40
0
40
0
40
0.0301401347441864
40
0.0301401347441864
40
0.104744739763864
40
0.104744739763864
40
0.179349344783542
40
0.179349344783542
40
0.25395394980322
40
0.25395394980322
40
0.328558554822898
40
0.328558554822898
40
0.403163159842576
40
0.403163159842576
40
0.477767764862254
40
0.477767764862254
40
0.552372369881932
40
0.552372369881932
40
0.626976974901611
40
0.626976974901611
40
0.701581579921289
40
0.701581579921289
40
0.776186184940967
40
0.776186184940967
40
0.850790789960645
40
0.850790789960645
40
0.925395394980323
40
0.925395394980323
40
1
40
1
40
1
40
1
41
1
10
17.9762976236268
20
0.441166895634098
30
0
41
1
10
17.9924734506909
20
0.448384409703863
30
0
41
1
10
18.0086681656358
20
0.455482069913131
30
0
41
1
10
18.0650292080381
20
0.479716726331674
30
0
41
1
10
18.1052728971878
20
0.496283011363204
30
0
41
1
10
18.1856762838332
20
0.52841478712142
30
0
41
1
10
18.2258532646189
20
0.543952007087313
30
0
41
1
10
18.3061924356636
20
0.573857264407735
30
0
41
1
10
18.34635169949
20
0.588223752539534
30
0
41
1
10
18.426992549301
20
0.615323821063839
30
0
41
1
10
18.4675086935925
20
0.628051450936738
30
0
41
1
10
18.5483305553813
20
0.65141214641767
30
0
41
1
10
18.588770565946
20
0.662056810612143
30
0
41
1
10
18.6695096813132
20
0.681570848811162
30
0
41
1
10
18.7097703095006
20
0.690468702550987
30
0
41
1
10
18.7899843153622
20
0.706569019628461
30
0
41
1
10
18.8299368772774
20
0.713765741937237
30
0
41
1
10
18.9096823517737
20
0.726289394902125
30
0
41
1
10
18.9494987608224
20
0.731599755475372
30
0
41
1
10
19.0293381462458
20
0.740193685110143
30
0
41
1
10
19.0693606581277
20
0.743481050563361
30
0
41
1
10
19.1497902740902
20
0.748076248918068
30
0
41
1
10
19.1901656921063
20
0.749403148942946
30
0
41
1
10
19.270938969253
20
0.750134734104336
30
0
41
1
10
19.3113431406873
20
0.749530521049678
30
0
41
1
10
19.3922271450521
20
0.74625787362325
30
0
41
1
10
19.4326709391679
20
0.743575697487188
30
0
41
1
10
19.5134496011133
20
0.736163021073963
30
0
41
1
10
19.5538579243135
20
0.731436363837304
30
0
41
1
10
19.5944190821711
20
0.725771178053037
30
0
0
SPLINE
5
C6
100
AcDbEntity
8
1
62
256
6
ByLayer
370
18
48
1
60
0
100
AcDbSpline
70
4
71
3
72
104
73
100
40
0
40
0
40
0
40
0
40
0.0125623368201665
40
0.0125623368201665
40
0.0344480045961045
40
0.0344480045961045
40
0.0453908384840721
40
0.0453908384840721
40
0.0563336723720396
40
0.0563336723720396
40
0.0782193401479747
40
0.0782193401479747
40
0.10010500792391
40
0.10010500792391
40
0.121990675699845
40
0.121990675699845
40
0.14387634347578
40
0.14387634347578
40
0.165762011251715
40
0.165762011251715
40
0.18764767902765
40
0.18764767902765
40
0.209533346803585
40
0.209533346803585
40
0.220476180691553
40
0.220476180691553
40
0.23141901457952
40
0.23141901457952
40
0.253304682355456
40
0.253304682355456
40
0.275190350131391
40
0.275190350131391
40
0.297076017907326
40
0.297076017907326
40
0.318961685683261
40
0.318961685683261
40
0.340847353459196
40
0.340847353459196
40
0.362733021235131
40
0.362733021235131
40
0.384618689011066
40
0.384618689011066
40
0.406504356787001
40
0.406504356787001
40
0.428390024562936
40
0.428390024562936
40
0.450275692338872
40
0.450275692338872
40
0.472161360114807
40
0.472161360114807
40
0.494047027890742
40
0.494047027890742
40
0.515932695666677
40
0.515932695666677
40
0.537818363442612
40
0.537818363442612
40
0.559704031218547
40
0.559704031218547
40
0.581589698994483
40
0.581589698994483
40
0.625361034546353
40
0.625361034546353
40
0.647246702322288
40
0.647246702322288
40
0.669132370098223
40
0.669132370098223
40
0.691018037874158
40
0.691018037874158
40
0.712903705650094
40
0.712903705650094
40
0.734789373426029
40
0.734789373426029
40
0.745732207313995
40
0.745732207313995
40
0.756675041201961
40
0.756675041201961
40
0.800446376753834
40
0.800446376753834
40
0.822332044529769
40
0.822332044529769
40
0.844217712305704
40
0.844217712305704
40
0.86610338008164
40
0.86610338008164
40
0.887989047857575
40
0.887989047857575
40
0.90987471563351
40
0.90987471563351
40
0.920817549521477
40
0.920817549521477
40
0.931760383409445
40
0.931760383409445
40
0.953646051185383
40
0.953646051185383
40
0.975531718961321
40
0.975531718961321
40
0.997417386737259
40
0.997417386737259
40
1
40
1
40
1
40
1
41
1
10
17.9763170918013
20
-0.446489480959968
30
0
41
1
10
17.9532853894883
20
-0.456702577500238
30
0
41
1
10
17.9302335798229
20
-0.466730174157846
30
0
41
1
10
17.8669709605689
20
-0.493722864645093
30
0
41
1
10
17.826746424062
20
-0.510345980024994
30
0
41
1
10
17.7662493556955
20
-0.534311693546755
30
0
41
1
10
17.7460531151797
20
-0.542133578929594
30
0
41
1
10
17.7055645034538
20
-0.557396271041853
30
0
41
1
10
17.6852531510461
20
-0.564840286731254
30
0
41
1
10
17.6244622769169
20
-0.586514328718238
30
0
41
1
10
17.5840566706032
20
-0.600131332566264
30
0
41
1
10
17.5034903783384
20
-0.625731876046558
30
0
41
1
10
17.4633068445956
20
-0.637687598576633
30
0
41
1
10
17.3830362763509
20
-0.659834210534257
30
0
41
1
10
17.3429611771608
20
-0.670039784497988
30
0
41
1
10
17.2629685372225
20
-0.688735086379097
30
0
41
1
10
17.2230469908728
20
-0.697213896861825
30
0
41
1
10
17.1430843231306
20
-0.712246099783215
30
0
41
1
10
17.1030270507522
20
-0.718797962257639
30
0
41
1
10
17.0228293962206
20
-0.730029711766576
30
0
41
1
10
16.9827030100133
20
-0.734711210870699
30
0
41
1
10
16.9022665597759
20
-0.742130321233446
30
0
41
1
10
16.8619441523001
20
-0.744867418196037
30
0
41
1
10
16.8013025669188
20
-0.747493031096155
30
0
41
1
10
16.7810638480268
20
-0.748121485765154
30
0
41
1
10
16.7405399519022
20
-0.748875807673329
30
0
41
1
10
16.7202649247638
20
-0.749000253491829
30
0
41
1
10
16.6596163894234
20
-0.748610636182576
30
0
41
1
10
16.6193094068712
20
-0.747334851256966
30
0
41
1
10
16.5387680418341
20
-0.742837556673777
30
0
41
1
10
16.4985667031703
20
-0.739615287129453
30
0
41
1
10
16.4183343995338
20
-0.731235299447889
30
0
41
1
10
16.3782824068441
20
-0.726080962021172
30
0
41
1
10
16.298188090124
20
-0.71391008724936
30
0
41
1
10
16.2581547354889
20
-0.706893086565856
30
0
41
1
10
16.1781557217263
20
-0.69095411535713
30
0
41
1
10
16.1381982832428
20
-0.682018888954275
30
0
41
1
10
16.0581047267949
20
-0.662392564043074
30
0
41
1
10
16.0179433109424
20
-0.651730136707585
30
0
41
1
10
15.9374344060234
20
-0.628680336932121
30
0
41
1
10
15.8971073569795
20
-0.616268999255738
30
0
41
1
10
15.8161981966924
20
-0.58975160920258
30
0
41
1
10
15.7755178744611
20
-0.575634019025898
30
0
41
1
10
15.6945601437197
20
-0.546006883110209
30
0
41
1
10
15.6542418803087
20
-0.530450243633254
30
0
41
1
10
15.573858784095
20
-0.49794009088356
30
0
41
1
10
15.5337645922121
20
-0.481024835946073
30
0
41
1
10
15.4535536393565
20
-0.446208732504488
30
0
41
1
10
15.4134663002766
20
-0.428268715535182
30
0
41
1
10
15.3333839279389
20
-0.391247567116835
30
0
41
1
10
15.2933719994519
20
-0.372189939085757
30
0
41
1
10
15.213276525737
20
-0.33318828489729
30
0
41
1
10
15.173196730287
20
-0.313240555427171
30
0
41
1
10
15.0930137938237
20
-0.272369889176275
30
0
41
1
10
15.0529268237679
20
-0.251415201643596
30
0
41
1
10
14.9725165730863
20
-0.208877388871201
30
0
41
1
10
14.9321621958355
20
-0.187353864651357
30
0
41
1
10
14.8511608391864
20
-0.143788782971086
30
0
41
1
10
14.8104922463961
20
-0.12167003591739
30
0
41
1
10
14.6891473299568
20
-0.0552368548271147
30
0
41
1
10
14.6086673660737
20
-0.0108472233094687
30
0
41
1
10
14.488538269151
20
0.0558364585056665
30
0
41
1
10
14.4485658227898
20
0.0780269878261493
30
0
41
1
10
14.3685129040741
20
0.121879207796781
30
0
41
1
10
14.3284552380256
20
0.143584112249812
30
0
41
1
10
14.2483479142396
20
0.186680801543275
30
0
41
1
10
14.2082891631614
20
0.208055224701468
30
0
41
1
10
14.1280214376207
20
0.250203513208589
30
0
41
1
10
14.0878113230766
20
0.270976191122117
30
0
41
1
10
14.0072747733357
20
0.311976734672498
30
0
41
1
10
13.9669690218777
20
0.332239512932375
30
0
41
1
10
13.9062890131251
20
0.361983676579712
30
0
41
1
10
13.8859978942086
20
0.371796660643327
30
0
41
1
10
13.8454530408584
20
0.391077961850129
30
0
41
1
10
13.8252033710871
20
0.400552358371016
30
0
41
1
10
13.7240915833543
20
0.447148529892331
30
0
41
1
10
13.6437196624446
20
0.482062742569696
30
0
41
1
10
13.5233886216087
20
0.530191523740541
30
0
41
1
10
13.4833381292586
20
0.545560358300122
30
0
41
1
10
13.4033598294464
20
0.574935886780963
30
0
41
1
10
13.3634134358363
20
0.588914131976708
30
0
41
1
10
13.2833381087327
20
0.615150824688413
30
0
41
1
10
13.2432214706503
20
0.627429992518017
30
0
41
1
10
13.1629051711596
20
0.650389875137193
30
0
41
1
10
13.122706579511
20
0.661066921244924
30
0
41
1
10
13.0420810679974
20
0.680660210593203
30
0
41
1
10
13.0016494409898
20
0.689576426785834
30
0
41
1
10
12.9408427048569
20
0.701620151833197
30
0
41
1
10
12.9205324828952
20
0.705416026571612
30
0
41
1
10
12.8800442137528
20
0.712520846310923
30
0
41
1
10
12.8598435321776
20
0.715832195237539
30
0
41
1
10
12.7993218086623
20
0.72501941670393
30
0
41
1
10
12.759056324925
20
0.730136758071666
30
0
41
1
10
12.6786060253456
20
0.738389374718963
30
0
41
1
10
12.6384542433267
20
0.741537714109739
30
0
41
1
10
12.5582721734746
20
0.745884121394084
30
0
41
1
10
12.5182191227347
20
0.747076406531647
30
0
41
1
10
12.4734359714124
20
0.747316273046295
30
0
41
1
10
12.4687092903176
20
0.747328021114498
30
0
41
1
10
12.4639827859727
20
0.747326171899459
30
0
0
SPLINE
5
C7
100
AcDbEntity
8
1
62
256
6
ByLayer
370
18
48
1
60
0
100
AcDbSpline
70
4
71
3
72
96
73
92
40
0
40
0
40
0
40
0
40
0.0039839804481663
40
0.0039839804481663
40
0.0266207081652563
40
0.0266207081652563
40
0.0492574358823463
40
0.0492574358823463
40
0.0605757997408906
40
0.0605757997408906
40
0.071894163599435
40
0.071894163599435
40
0.0945308913165221
40
0.0945308913165221
40
0.117167619033609
40
0.117167619033609
40
0.139804346750696
40
0.139804346750696
40
0.18507780218487
40
0.18507780218487
40
0.207714529901958
40
0.207714529901958
40
0.230351257619045
40
0.230351257619045
40
0.241669621477588
40
0.241669621477588
40
0.252987985336132
40
0.252987985336132
40
0.275624713053219
40
0.275624713053219
40
0.298261440770306
40
0.298261440770306
40
0.320898168487393
40
0.320898168487393
40
0.366171623921567
40
0.366171623921567
40
0.388808351638655
40
0.388808351638655
40
0.411445079355742
40
0.411445079355742
40
0.422763443214285
40
0.422763443214285
40
0.434081807072829
40
0.434081807072829
40
0.456718534789914
40
0.456718534789914
40
0.479355262507
40
0.479355262507
40
0.501991990224086
40
0.501991990224086
40
0.547265445658259
40
0.547265445658259
40
0.569902173375346
40
0.569902173375346
40
0.592538901092433
40
0.592538901092433
40
0.61517562880952
40
0.61517562880952
40
0.637812356526607
40
0.637812356526607
40
0.660449084243694
40
0.660449084243694
40
0.683085811960781
40
0.683085811960781
40
0.705722539677868
40
0.705722539677868
40
0.728359267394955
40
0.728359267394955
40
0.750995995112042
40
0.750995995112042
40
0.773632722829129
40
0.773632722829129
40
0.796269450546216
40
0.796269450546216
40
0.818906178263303
40
0.818906178263303
40
0.841542905980391
40
0.841542905980391
40
0.864179633697478
40
0.864179633697478
40
0.886816361414565
40
0.886816361414565
40
0.909453089131652
40
0.909453089131652
40
0.932089816848739
40
0.932089816848739
40
0.954726544565826
40
0.954726544565826
40
0.977363272282913
40
0.977363272282913
40
1
40
1
40
1
40
1
41
1
10
9.48309481228586
20
-0.441362827658423
30
0
41
1
10
9.47604428719072
20
-0.444501581707101
30
0
41
1
10
9.46899109838665
20
-0.447620276237331
30
0
41
1
10
9.42184039220626
20
-0.468319366280866
30
0
41
1
10
9.3816707654658
20
-0.485293032181261
30
0
41
1
10
9.30123470135712
20
-0.518056002061996
30
0
41
1
10
9.26095130619979
20
-0.533818917659318
30
0
41
1
10
9.20032992401488
20
-0.556393087952671
30
0
41
1
10
9.18009100544828
20
-0.563740986448181
30
0
41
1
10
9.13955472969096
20
-0.578087189599501
30
0
41
1
10
9.11923414155507
20
-0.585093237650568
30
0
41
1
10
9.05837346695554
20
-0.605525126036355
30
0
41
1
10
9.01800041646021
20
-0.61836288387849
30
0
41
1
10
8.93740788818849
20
-0.642217216230989
30
0
41
1
10
8.8971578538945
20
-0.653210083894635
30
0
41
1
10
8.81676515829292
20
-0.673400215645444
30
0
41
1
10
8.77664778378542
20
-0.682616238199358
30
0
41
1
10
8.65640059372529
20
-0.707531773972107
30
0
41
1
10
8.57627641854359
20
-0.720458927117448
30
0
41
1
10
8.45612715358706
20
-0.734219390875069
30
0
41
1
10
8.4160541479535
20
-0.737844673937843
30
0
41
1
10
8.33561334683387
20
-0.743101837934717
30
0
41
1
10
8.29526926901332
20
-0.744747629789231
30
0
41
1
10
8.23461645956775
20
-0.745734982231795
30
0
41
1
10
8.21437417224374
20
-0.745815973487083
30
0
41
1
10
8.1738194941818
20
-0.745475819511597
30
0
41
1
10
8.15348500821148
20
-0.745053681911116
30
0
41
1
10
8.0926133099118
20
-0.743040195609382
30
0
41
1
10
8.05215276009352
20
-0.740707464036717
30
0
41
1
10
7.97151008946676
20
-0.734077067212326
30
0
41
1
10
7.93134802453247
20
-0.729766606758659
30
0
41
1
10
7.8511189001004
20
-0.719239190549501
30
0
41
1
10
7.81101783710653
20
-0.713042664265345
30
0
41
1
10
7.69072190601423
20
-0.691741860636256
30
0
41
1
10
7.6106743315284
20
-0.673828899072248
30
0
41
1
10
7.49027899043216
20
-0.641780329323808
30
0
41
1
10
7.45011646488842
20
-0.63021733336393
30
0
41
1
10
7.36972690960505
20
-0.605285796349591
30
0
41
1
10
7.32948001313355
20
-0.591931079027489
30
0
41
1
10
7.26883038071068
20
-0.570785637780546
30
0
41
1
10
7.24857068961836
20
-0.563549056175106
30
0
41
1
10
7.20797508596445
20
-0.54868648495858
30
0
41
1
10
7.18763075223205
20
-0.54105668825315
30
0
41
1
10
7.12678442783803
20
-0.517675364526269
30
0
41
1
10
7.08637441492482
20
-0.501397361196354
30
0
41
1
10
7.00571596428301
20
-0.467682857979639
30
0
41
1
10
6.96546375104674
20
-0.450254176998868
30
0
41
1
10
6.88514664539875
20
-0.414212000208664
30
0
41
1
10
6.84510459872695
20
-0.39556072277415
30
0
41
1
10
6.72503951159695
20
-0.338158585628946
30
0
41
1
10
6.64488388599571
20
-0.298290299893551
30
0
41
1
10
6.52449033799857
20
-0.236104655200705
30
0
41
1
10
6.48430582925786
20
-0.215021886475057
30
0
41
1
10
6.40374934371388
20
-0.17228677867891
30
0
41
1
10
6.36339280720313
20
-0.150607568278957
30
0
41
1
10
6.28253951985292
20
-0.106566440295126
30
0
41
1
10
6.24193159768907
20
-0.0841747707872571
30
0
41
1
10
6.1609095605574
20
-0.039629084947137
30
0
41
1
10
6.12047379456925
20
-0.0174569351144669
30
0
41
1
10
6.0398222690346
20
0.0268331946754756
30
0
41
1
10
5.99961207911019
20
0.0489602824006283
30
0
41
1
10
5.91927805054723
20
0.0929098251630762
30
0
41
1
10
5.87914698960316
20
0.114719906165647
30
0
41
1
10
5.79898066884471
20
0.158056852280964
30
0
41
1
10
5.75896945776512
20
0.179626490158057
30
0
41
1
10
5.67893424955443
20
0.222278135910784
30
0
41
1
10
5.63887482200966
20
0.243297056325645
30
0
41
1
10
5.55855919292873
20
0.284527266865297
30
0
41
1
10
5.51833733725408
20
0.304799388133574
30
0
41
1
10
5.43776423368979
20
0.344649268183389
30
0
41
1
10
5.39738953166869
20
0.364186265650005
30
0
41
1
10
5.3163631317943
20
0.402308305805946
30
0
41
1
10
5.27564026166007
20
0.420952357445685
30
0
41
1
10
5.19467963525324
20
0.457047624953532
30
0
41
1
10
5.15437508822617
20
0.474511141695842
30
0
41
1
10
5.07384492176979
20
0.507890679272549
30
0
41
1
10
5.03360818794022
20
0.523798907741536
30
0
41
1
10
4.953261793466
20
0.554187631110722
30
0
41
1
10
4.91316322328558
20
0.568677720697082
30
0
41
1
10
4.83298164528901
20
0.596089934313653
30
0
41
1
10
4.79288839328089
20
0.609003331113399
30
0
41
1
10
4.71270405603639
20
0.633252877555805
30
0
41
1
10
4.6726346992368
20
0.644608815882748
30
0
41
1
10
4.59243502621419
20
0.665645895387627
30
0
41
1
10
4.55227888587785
20
0.675302462275909
30
0
41
1
10
4.47168132123386
20
0.692753893909639
30
0
41
1
10
4.43125677294341
20
0.700564474655181
30
0
41
1
10
4.35011402574156
20
0.714322561190983
30
0
41
1
10
4.30935952559193
20
0.720274592164685
30
0
41
1
10
4.22806347591634
20
0.730250368295742
30
0
41
1
10
4.18747260389483
20
0.73428697245447
30
0
41
1
10
4.14700949482753
20
0.737344159702275
30
0
0
SPLINE
5
C8
100
AcDbEntity
8
1
62
256
6
ByLayer
370
18
48
1
60
0
100
AcDbSpline
70
4
71
3
72
8
73
4
40
0
40
0
40
0
40
0
40
1
40
1
40
1
40
1
41
1
10
4.14700949482753
20
0.737344159702275
30
0
41
1
10
4.05615944267183
20
0.741285712689916
30
0
41
1
10
3.96592668654185
20
0.743674800221612
30
0
41
1
10
3.87621673102049
20
0.744041622816752
30
0
0
SPLINE
5
C9
100
AcDbEntity
8
1
62
256
6
ByLayer
370
18
48
1
60
0
100
AcDbSpline
70
4
71
3
72
100
73
96
40
0
40
0
40
0
40
0
40
0.0217533535875983
40
0.0217533535875983
40
0.043638065232005
40
0.043638065232005
40
0.0655227768764117
40
0.0655227768764117
40
0.0874074885208184
40
0.0874074885208184
40
0.109292200165225
40
0.109292200165225
40
0.131176911809632
40
0.131176911809632
40
0.153061623454038
40
0.153061623454038
40
0.174946335098445
40
0.174946335098445
40
0.196831046742852
40
0.196831046742852
40
0.218715758387259
40
0.218715758387259
40
0.240600470031665
40
0.240600470031665
40
0.262485181676072
40
0.262485181676072
40
0.284369893320479
40
0.284369893320479
40
0.306254604964885
40
0.306254604964885
40
0.328139316609292
40
0.328139316609292
40
0.350024028253699
40
0.350024028253699
40
0.371908739898106
40
0.371908739898106
40
0.393793451542512
40
0.393793451542512
40
0.415678163186919
40
0.415678163186919
40
0.437562874831326
40
0.437562874831326
40
0.459447586475733
40
0.459447586475733
40
0.481332298120139
40
0.481332298120139
40
0.503217009764546
40
0.503217009764546
40
0.525101721408953
40
0.525101721408953
40
0.54698643305336
40
0.54698643305336
40
0.568871144697766
40
0.568871144697766
40
0.590755856342173
40
0.590755856342173
40
0.61264056798658
40
0.61264056798658
40
0.634525279630986
40
0.634525279630986
40
0.656409991275393
40
0.656409991275393
40
0.667352347097597
40
0.667352347097597
40
0.6782947029198
40
0.6782947029198
40
0.700179414564206
40
0.700179414564206
40
0.722064126208611
40
0.722064126208611
40
0.743948837853016
40
0.743948837853016
40
0.765833549497421
40
0.765833549497421
40
0.809602972786232
40
0.809602972786232
40
0.831487684430637
40
0.831487684430637
40
0.84243004025284
40
0.84243004025284
40
0.853372396075043
40
0.853372396075043
40
0.875257107719447
40
0.875257107719447
40
0.897141819363851
40
0.897141819363851
40
0.919026531008255
40
0.919026531008255
40
0.940911242652658
40
0.940911242652658
40
0.962795954297062
40
0.962795954297062
40
0.984680665941466
40
0.984680665941466
40
1
40
1
40
1
40
1
41
1
10
5.23560967541178
20
0.442200015856798
30
0
41
1
10
5.27555690140159
20
0.460179755456863
30
0
41
1
10
5.31544615970739
20
0.477453359034371
30
0
41
1
10
5.39558678641691
20
0.5104216339397
30
0
41
1
10
5.43587190021219
20
0.526070147665251
30
0
41
1
10
5.51638464661357
20
0.555991166656185
30
0
41
1
10
5.55657844577703
20
0.570302740284063
30
0
41
1
10
5.63678254929974
20
0.59764698947339
30
0
41
1
10
5.67678626169027
20
0.610682345490488
30
0
41
1
10
5.75677855074838
20
0.635211968182034
30
0
41
1
10
5.7967898453816
20
0.646680065683796
30
0
41
1
10
5.87715264177197
20
0.667729916041225
30
0
41
1
10
5.91750883688826
20
0.677311027464299
30
0
41
1
10
5.99870832796134
20
0.694533575825091
30
0
41
1
10
6.03960303628298
20
0.702228619214139
30
0
41
1
10
6.12086702713668
20
0.715813167673161
30
0
41
1
10
6.16128974100971
20
0.72169665670458
30
0
41
1
10
6.24174171508037
20
0.731571068190561
30
0
41
1
10
6.28176661032086
20
0.735555089651172
30
0
41
1
10
6.36174828632639
20
0.741487248578409
30
0
41
1
10
6.40171352569425
20
0.743436184328317
30
0
41
1
10
6.48183678337833
20
0.745346491064765
30
0
41
1
10
6.5220309223275
20
0.745316975653168
30
0
41
1
10
6.60248696603182
20
0.743372045948632
30
0
41
1
10
6.64270918045446
20
0.741450641901679
30
0
41
1
10
6.7230448875176
20
0.735621804983055
30
0
41
1
10
6.7631603767754
20
0.731708378172385
30
0
41
1
10
6.84343316765182
20
0.721822253884369
30
0
41
1
10
6.88361419739155
20
0.715853970862895
30
0
41
1
10
6.96438714334641
20
0.702012076254448
30
0
41
1
10
7.00505813048545
20
0.694122569639177
30
0
41
1
10
7.08627293656582
20
0.676799401315407
30
0
41
1
10
7.12685346486077
20
0.667345459403577
30
0
41
1
10
7.20766522322506
20
0.646636804245446
30
0
41
1
10
7.24790268939995
20
0.635380409117317
30
0
41
1
10
7.32806758445048
20
0.611036872594411
30
0
41
1
10
7.3679810112277
20
0.597929184983826
30
0
41
1
10
7.44779242096368
20
0.570163291548624
30
0
41
1
10
7.4877013539467
20
0.555519287386289
30
0
41
1
10
7.56777804738945
20
0.525066263363101
30
0
41
1
10
7.60798032552344
20
0.509309432569353
30
0
41
1
10
7.68857658357894
20
0.476614713322419
30
0
41
1
10
7.72892612405803
20
0.459614659528938
30
0
41
1
10
7.80959059574713
20
0.424049831151819
30
0
41
1
10
7.84991575282655
20
0.405495541528921
30
0
41
1
10
7.93066814669126
20
0.36693143256116
30
0
41
1
10
7.97118139746874
20
0.346922488752426
30
0
41
1
10
8.05192054568971
20
0.306450262561185
30
0
41
1
10
8.09222796934398
20
0.285944162287336
30
0
41
1
10
8.1729400632961
20
0.244802927488365
30
0
41
1
10
8.21332587969312
20
0.224136517160218
30
0
41
1
10
8.29385645078858
20
0.182081648384468
30
0
41
1
10
8.33399470735014
20
0.160680111996669
30
0
41
1
10
8.41404404455992
20
0.117165913813523
30
0
41
1
10
8.4539354083098
20
0.0950161738663837
30
0
41
1
10
8.53375347728783
20
0.0504764685929899
30
0
41
1
10
8.57369420631991
20
0.0281125638303195
30
0
41
1
10
8.65390392450374
20
-0.0163034937664861
30
0
41
1
10
8.69420240516587
20
-0.0382989886360861
30
0
41
1
10
8.77511592828043
20
-0.0819862394335757
30
0
41
1
10
8.81568331712919
20
-0.10376796912783
30
0
41
1
10
8.87656932675395
20
-0.136607478087711
30
0
41
1
10
8.89690061080472
20
-0.147583281908084
30
0
41
1
10
8.93746064809358
20
-0.169488941773267
30
0
41
1
10
8.95767892642502
20
-0.18041914596509
30
0
41
1
10
9.01818295155897
20
-0.213071078116258
30
0
41
1
10
9.05832595860466
20
-0.234635452107
30
0
41
1
10
9.13856220760772
20
-0.276760529546237
30
0
41
1
10
9.17865268336746
20
-0.297327976734152
30
0
41
1
10
9.25900787442248
20
-0.337137524229718
30
0
41
1
10
9.29927242007585
20
-0.356387447458758
30
0
41
1
10
9.37967132234905
20
-0.394100948691431
30
0
41
1
10
9.419789467388
20
-0.412585904384002
30
0
41
1
10
9.53992247579629
20
-0.466823568895478
30
0
41
1
10
9.61961519314855
20
-0.501454261320333
30
0
41
1
10
9.74037818163657
20
-0.548427871422064
30
0
41
1
10
9.78085551298938
20
-0.563246502013726
30
0
41
1
10
9.84190143935953
20
-0.584251320505786
30
0
41
1
10
9.86231391439011
20
-0.591065888451936
30
0
41
1
10
9.90301321794976
20
-0.604294950597136
30
0
41
1
10
9.92331524431859
20
-0.610719110236801
30
0
41
1
10
9.98406606892456
20
-0.629427280983464
30
0
41
1
10
10.0243626448639
20
-0.641143179634611
30
0
41
1
10
10.1045961537461
20
-0.662951674649605
30
0
41
1
10
10.1445498551086
20
-0.673021304351124
30
0
41
1
10
10.2244677065735
20
-0.691214271495056
30
0
41
1
10
10.2644322591799
20
-0.699340394186521
30
0
41
1
10
10.3446012091994
20
-0.713588997060697
30
0
41
1
10
10.3848243648489
20
-0.719713593537136
30
0
41
1
10
10.4652554547859
20
-0.730164145780918
30
0
41
1
10
10.5054392743675
20
-0.734493679692292
30
0
41
1
10
10.5857347045936
20
-0.741276479022389
30
0
41
1
10
10.6258304497477
20
-0.743727750789617
30
0
41
1
10
10.6941092139429
20
-0.746170290081494
30
0
41
1
10
10.7222674818342
20
-0.746676704000208
30
0
41
1
10
10.7505197994325
20
-0.746682630333453
30
0
0
SPLINE
5
CA
100
AcDbEntity
8
1
62
256
6
ByLayer
370
18
48
1
60
0
100
AcDbSpline
70
4
71
3
72
104
73
100
40
0
40
0
40
0
40
0
40
0.013622732245198
40
0.013622732245198
40
0.0354539348075604
40
0.0354539348075604
40
0.0572851373699227
40
0.0572851373699227
40
0.0791163399322847
40
0.0791163399322847
40
0.100947542494647
40
0.100947542494647
40
0.122778745057009
40
0.122778745057009
40
0.144609947619371
40
0.144609947619371
40
0.155525548900551
40
0.155525548900551
40
0.166441150181731
40
0.166441150181731
40
0.188272352744087
40
0.188272352744087
40
0.210103555306443
40
0.210103555306443
40
0.231934757868799
40
0.231934757868799
40
0.253765960431156
40
0.253765960431156
40
0.275597162993512
40
0.275597162993512
40
0.297428365555868
40
0.297428365555868
40
0.319259568118224
40
0.319259568118224
40
0.330175169399403
40
0.330175169399403
40
0.341090770680581
40
0.341090770680581
40
0.362921973242934
40
0.362921973242934
40
0.384753175805288
40
0.384753175805288
40
0.406584378367641
40
0.406584378367641
40
0.428415580929995
40
0.428415580929995
40
0.450246783492348
40
0.450246783492348
40
0.472077986054702
40
0.472077986054702
40
0.493909188617055
40
0.493909188617055
40
0.515740391179409
40
0.515740391179409
40
0.537571593741762
40
0.537571593741762
40
0.559402796304116
40
0.559402796304116
40
0.581233998866469
40
0.581233998866469
40
0.603065201428823
40
0.603065201428823
40
0.624896403991176
40
0.624896403991176
40
0.64672760655353
40
0.64672760655353
40
0.668558809115883
40
0.668558809115883
40
0.690390011678237
40
0.690390011678237
40
0.71222121424059
40
0.71222121424059
40
0.734052416802943
40
0.734052416802943
40
0.755883619365297
40
0.755883619365297
40
0.77771482192765
40
0.77771482192765
40
0.799546024490004
40
0.799546024490004
40
0.821377227052357
40
0.821377227052357
40
0.843208429614711
40
0.843208429614711
40
0.865039632177064
40
0.865039632177064
40
0.886870834739418
40
0.886870834739418
40
0.908702037301771
40
0.908702037301771
40
0.930533239864125
40
0.930533239864125
40
0.952364442426478
40
0.952364442426478
40
0.974195644988832
40
0.974195644988832
40
0.996026847551185
40
0.996026847551185
40
1
40
1
40
1
40
1
41
1
10
13.7293581122733
20
0.440740464808215
30
0
41
1
10
13.7546940821794
20
0.451882472022504
30
0
41
1
10
13.7799629269381
20
0.462806071860285
30
0
41
1
10
13.8455117139527
20
0.490722387228061
30
0
41
1
10
13.8856688707691
20
0.507390414554465
30
0
41
1
10
13.9656894259773
20
0.539465242142626
30
0
41
1
10
14.0055763366865
20
0.554835965065564
30
0
41
1
10
14.0854356658854
20
0.583842937745857
30
0
41
1
10
14.1254046068508
20
0.597486164478852
30
0
41
1
10
14.2056323277732
20
0.622898412340419
30
0
41
1
10
14.2458699760645
20
0.634701128828794
30
0
41
1
10
14.3262874670219
20
0.656818923384606
30
0
41
1
10
14.3664618171061
20
0.667132028246783
30
0
41
1
10
14.4467737047172
20
0.686154877721009
30
0
41
1
10
14.4868921955576
20
0.694873575248721
30
0
41
1
10
14.5472440588946
20
0.706537341647021
30
0
41
1
10
14.5673921530814
20
0.71018932608726
30
0
41
1
10
14.6077894356015
20
0.716996442760291
30
0
41
1
10
14.6280612764839
20
0.720155268614889
30
0
41
1
10
14.6888164306169
20
0.728837477101536
30
0
41
1
10
14.7293143535328
20
0.733564194593072
30
0
41
1
10
14.8102275575455
20
0.741062875257569
30
0
41
1
10
14.85059627779
20
0.743851832629503
30
0
41
1
10
14.9309869403348
20
0.747523307888542
30
0
41
1
10
14.9710237201211
20
0.748396530413174
30
0
41
1
10
15.0508608814404
20
0.748133855988044
30
0
41
1
10
15.0906828642158
20
0.746991226878407
30
0
41
1
10
15.1704719500029
20
0.742716003590203
30
0
41
1
10
15.2104358572648
20
0.739585963226034
30
0
41
1
10
15.2907256348095
20
0.731487955285132
30
0
41
1
10
15.3310511878961
20
0.72653438886698
30
0
41
1
10
15.4117575579285
20
0.71471098635115
30
0
41
1
10
15.4521226678597
20
0.707824581328651
30
0
41
1
10
15.5127045192653
20
0.695955781694835
30
0
41
1
10
15.5329027070201
20
0.691741372935752
30
0
41
1
10
15.5733280073779
20
0.682793258250683
30
0
41
1
10
15.5935689997232
20
0.678057723127978
30
0
41
1
10
15.6541114202038
20
0.663187399207004
30
0
41
1
10
15.6943328974384
20
0.652373476872469
30
0
41
1
10
15.7747786857962
20
0.629268464711402
30
0
41
1
10
15.8150276552535
20
0.617007651222679
30
0
41
1
10
15.8955708322539
20
0.591152699738672
30
0
41
1
10
15.9358173666912
20
0.577509736997314
30
0
41
1
10
16.0160444779251
20
0.548523984331297
30
0
41
1
10
16.0560458883099
20
0.533201457821235
30
0
41
1
10
16.1358767762227
20
0.500899270525366
30
0
41
1
10
16.1757234667073
20
0.483936895259546
30
0
41
1
10
16.25562143572
20
0.448849089331333
30
0
41
1
10
16.2956732218984
20
0.430726550477061
30
0
41
1
10
16.3762075581103
20
0.393716057610987
30
0
41
1
10
16.4167089196404
20
0.374868320921792
30
0
41
1
10
16.4978875352307
20
0.33602942057658
30
0
41
1
10
16.5386326701526
20
0.315944488631857
30
0
41
1
10
16.619576969962
20
0.27480085554032
30
0
41
1
10
16.6598026125215
20
0.253693831893258
30
0
41
1
10
16.7399953151194
20
0.210823901751922
30
0
41
1
10
16.7799821071993
20
0.189096275212364
30
0
41
1
10
16.8600310842269
20
0.145592080628063
30
0
41
1
10
16.9001091693005
20
0.123844881418904
30
0
41
1
10
16.9804347152478
20
0.0804838026177777
30
0
41
1
10
17.0206359946949
20
0.0587864324797067
30
0
41
1
10
17.1008595963582
20
0.0148870137999211
30
0
41
1
10
17.1409042851631
20
-0.0072745983500511
30
0
41
1
10
17.2208953176895
20
-0.0519647863006014
30
0
41
1
10
17.2608510579802
20
-0.0744767331139258
30
0
41
1
10
17.3410256995504
20
-0.1192009439917
30
0
41
1
10
17.3812497757391
20
-0.141403277422484
30
0
41
1
10
17.4622004914917
20
-0.185053403504497
30
0
41
1
10
17.503017736526
20
-0.206474325113305
30
0
41
1
10
17.5842158784905
20
-0.248554234770694
30
0
41
1
10
17.6246477025378
20
-0.269315049350524
30
0
41
1
10
17.7051293597824
20
-0.310338262900103
30
0
41
1
10
17.7451691766074
20
-0.330614171367188
30
0
41
1
10
17.8250399065354
20
-0.370332953581624
30
0
41
1
10
17.8648928981644
20
-0.389737892015319
30
0
41
1
10
17.9447409356563
20
-0.427172397440955
30
0
41
1
10
17.9847427265136
20
-0.445194382317652
30
0
41
1
10
18.0650292080381
20
-0.479716726331674
30
0
41
1
10
18.1052728971878
20
-0.496283011363232
30
0
41
1
10
18.1856762838332
20
-0.528414787121449
30
0
41
1
10
18.2258532646189
20
-0.543952007087313
30
0
41
1
10
18.3061924356636
20
-0.573857264407764
30
0
41
1
10
18.3463516994899
20
-0.588223752539534
30
0
41
1
10
18.4269925493011
20
-0.615323821063839
30
0
41
1
10
18.4675086935925
20
-0.628051450936738
30
0
41
1
10
18.5483305553813
20
-0.65141214641767
30
0
41
1
10
18.588770565946
20
-0.662056810612143
30
0
41
1
10
18.6695096813132
20
-0.681570848811162
30
0
41
1
10
18.7097703095006
20
-0.690468702550987
30
0
41
1
10
18.7899843153622
20
-0.706569019628461
30
0
41
1
10
18.8299368772774
20
-0.713765741937237
30
0
41
1
10
18.9096823517737
20
-0.726289394902125
30
0
41
1
10
18.9494987608224
20
-0.731599755475372
30
0
41
1
10
19.0293381462458
20
-0.740193685110143
30
0
41
1
10
19.0693606581277
20
-0.743481050563361
30
0
41
1
10
19.1497902740902
20
-0.748076248918068
30
0
41
1
10
19.1901656921063
20
-0.749403148942946
30
0
41
1
10
19.2379024650338
20
-0.749835513655142
30
0
41
1
10
19.2452531801096
20
-0.749869957364524
30
0
41
1
10
19.2526045982624
20
-0.749871898283175
30
0
0
SPLINE
5
CB
100
AcDbEntity
8
1
62
256
6
ByLayer
370
18
48
1
60
0
100
AcDbSpline
70
4
71
5
72
126
73
120
40
0
40
0
40
0
40
0
40
0
40
0
40
0.021278505452243
40
0.0634187150747623
40
0.105655482842769
40
0.147978240525704
40
0.190371271987986
40
0.232445048167544
40
0.271187585940546
40
0.306400345983403
40
0.345619379415089
40
0.38574181759143
40
0.421930560458091
40
0.450602231132356
40
0.453635804397916
40
0.457014101898198
40
0.46342597266404
40
0.467954560419629
40
0.470218854297423
40
0.472483148175218
40
0.473529642946182
40
0.474105215070212
40
0.475727281965206
40
0.4773493488602
40
0.478971415755194
40
0.480240375945819
40
0.481509336136444
40
0.482778296327069
40
0.484047256517694
40
0.484406084785605
40
0.48509010117131
40
0.486132945824925
40
0.48717579047854
40
0.488218635132155
40
0.491696853755084
40
0.491730434815399
40
0.493258373059689
40
0.494819892364294
40
0.495616230435345
40
0.496412568506396
40
0.497208906577447
40
0.497799738049517
40
0.498005244648498
40
0.498852662589032
40
0.499700080529566
40
0.500547498470099
40
0.501394916410633
40
0.502249400329989
40
0.503103884249346
40
0.503958368168702
40
0.50433507613315
40
0.504812852088059
40
0.505626112884311
40
0.506439373680564
40
0.507252634476816
40
0.508065895273069
40
0.508849657656582
40
0.509633420040095
40
0.510417182423609
40
0.510526740606251
40
0.511200944807122
40
0.512014274654765
40
0.512827604502408
40
0.513640934350051
40
0.514454264197694
40
0.51537694894062
40
0.516299633683546
40
0.517073498306645
40
0.517222318426472
40
0.517683660797935
40
0.518145003169398
40
0.518799458670635
40
0.519453914171873
40
0.519781141922491
40
0.52010836967311
40
0.520762825174347
40
0.522071736176822
40
0.523380647179296
40
0.528340217998369
40
0.529580110703137
40
0.529673435960485
40
0.530820003407905
40
0.532059896112673
40
0.532679842465057
40
0.533299788817441
40
0.53443412464236
40
0.535568460467278
40
0.536702796292198
40
0.537837132117116
40
0.538971467942035
40
0.540105803766954
40
0.541240139591873
40
0.542374475416792
40
0.54464314706663
40
0.546911818716468
40
0.549180490366305
40
0.551449162016143
40
0.557685355247496
40
0.56392154847885
40
0.565396776985191
40
0.576393934941556
40
0.611810611981343
40
0.647315046401946
40
0.677912711008003
40
0.706872407759413
40
0.734635979339862
40
0.761697069502207
40
0.788484745821339
40
0.814944056758571
40
0.840541008469317
40
0.86575742508435
40
0.891065899560403
40
0.91633114819056
40
0.941502197060781
40
0.966568576709588
40
0.99152155683833
40
1
40
1
40
1
40
1
40
1
40
1
41
1
10
4.14700949482753
20
-0.737344159702303
30
0
41
1
10
4.14700949482753
20
-0.731618901866199
30
0
41
1
10
4.14700949482753
20
-0.71456357761636
30
0
41
1
10
4.14700949482753
20
-0.686190498226125
30
0
41
1
10
4.1470094948275
20
-0.646546423644111
30
0
41
1
10
4.14700949482756
20
-0.595716155369814
30
0
41
1
10
4.1470094948275
20
-0.53954659444392
30
0
41
1
10
4.1470094948275
20
-0.484490834264477
30
0
41
1
10
4.14700949482753
20
-0.431493895580758
30
0
41
1
10
4.14700949482753
20
-0.379495304760667
30
0
41
1
10
4.14700949482753
20
-0.328266907493941
30
0
41
1
10
4.14700949482753
20
-0.27893472380029
30
0
41
1
10
4.14700949482756
20
-0.232564254737042
30
0
41
1
10
4.14700949482753
20
-0.194769786124141
30
0
41
1
10
4.14700949482753
20
-0.166359489197731
30
0
41
1
10
4.14700949482753
20
-0.14660047447336
30
0
41
1
10
4.1470094948275
20
-0.134898279173512
30
0
41
1
10
4.1470094948275
20
-0.129910303326483
30
0
41
1
10
4.1470094948275
20
-0.125116453347488
30
0
41
1
10
4.14700949482753
20
-0.120914132120277
30
0
41
1
10
4.14700949482753
20
-0.11819635327825
30
0
41
1
10
4.14700949482753
20
-0.116218183637443
30
0
41
1
10
4.14700949482753
20
-0.114403580294919
30
0
41
1
10
4.14700949482753
20
-0.112752669671806
30
0
41
1
10
4.14700949482753
20
-0.111045745219684
30
0
41
1
10
4.14700949482753
20
-0.109163870721801
30
0
41
1
10
4.14700949482756
20
-0.10737377328536
30
0
41
1
10
4.14700949482756
20
-0.105675930962064
30
0
41
1
10
4.14700949482756
20
-0.10430097893726
30
0
41
1
10
4.14700949482756
20
-0.103076582683713
30
0
41
1
10
4.14700949482756
20
-0.101911821472385
30
0
41
1
10
4.14700949482759
20
-0.100806641536337
30
0
41
1
10
4.14700949482759
20
-0.0997608990591345
30
0
41
1
10
4.14700949482759
20
-0.0979396424753816
30
0
41
1
10
4.14700949482761
20
-0.09629290105309
30
0
41
1
10
4.14700949482761
20
-0.0945398429862223
30
0
41
1
10
4.14700949482764
20
-0.0926785067784692
30
0
41
1
10
4.14700949482764
20
-0.090900949288681
30
0
41
1
10
4.14700949482764
20
-0.0897776389851686
30
0
41
1
10
4.14700949482764
20
-0.0884876845984763
30
0
41
1
10
4.14700949482767
20
-0.0874297056259365
30
0
41
1
10
4.14700949482767
20
-0.0866939357167951
30
0
41
1
10
4.14700949482767
20
-0.0859517298181913
30
0
41
1
10
4.14700949482767
20
-0.0852035401127296
30
0
41
1
10
4.14700949482767
20
-0.0844498412712369
30
0
41
1
10
4.14700949482767
20
-0.0836457159878989
30
0
41
1
10
4.14700949482767
20
-0.0827077956820688
30
0
41
1
10
4.14700949482767
20
-0.0817801409630761
30
0
41
1
10
4.14700949482764
20
-0.0808632260069828
30
0
41
1
10
4.14700949482764
20
-0.0800589655051169
30
0
41
1
10
4.14700949482764
20
-0.0793422484227051
30
0
41
1
10
4.14700949482761
20
-0.0786421510333639
30
0
41
1
10
4.14700949482761
20
-0.0779584891141383
30
0
41
1
10
4.14700949482761
20
-0.0772910676965637
30
0
41
1
10
4.14700949482759
20
-0.0765457830839296
30
0
41
1
10
4.14700949482759
20
-0.0757524159108698
30
0
41
1
10
4.14700949482756
20
-0.0749779320080677
30
0
41
1
10
4.14700949482756
20
-0.0742222528821799
30
0
41
1
10
4.14700949482756
20
-0.0736111179920726
30
0
41
1
10
4.14700949482753
20
-0.0730341400116288
30
0
41
1
10
4.14700949482753
20
-0.0724596998281868
30
0
41
1
10
4.1470094948275
20
-0.0718881082551093
30
0
41
1
10
4.1470094948275
20
-0.0713196773900791
30
0
41
1
10
4.1470094948275
20
-0.0706405590706254
30
0
41
1
10
4.14700949482747
20
-0.0699334478156857
30
0
41
1
10
4.14700949482744
20
-0.0692237431574938
30
0
41
1
10
4.14700949482744
20
-0.0685368557219022
30
0
41
1
10
4.14700949482744
20
-0.067970991600788
30
0
41
1
10
4.14700949482742
20
-0.067470497626573
30
0
41
1
10
4.14700949482742
20
-0.0670484139557175
30
0
41
1
10
4.14700949482742
20
-0.0666721880128307
30
0
41
1
10
4.14700949482742
20
-0.0663183200659603
30
0
41
1
10
4.14700949482739
20
-0.065943964191149
30
0
41
1
10
4.14700949482739
20
-0.0655945263944204
30
0
41
1
10
4.14700949482739
20
-0.0652225248940113
30
0
41
1
10
4.14700949482739
20
-0.0647640058421075
30
0
41
1
10
4.14700949482739
20
-0.0642239646652172
30
0
41
1
10
4.14700949482739
20
-0.0630762016581343
30
0
41
1
10
4.14700949482739
20
-0.061875814435183
30
0
41
1
10
4.14700949482742
20
-0.0608052548067519
30
0
41
1
10
4.14700949482742
20
-0.0597937920541654
30
0
41
1
10
4.14700949482744
20
-0.0588207456056011
30
0
41
1
10
4.14700949482744
20
-0.0583410424437147
30
0
41
1
10
4.14700949482744
20
-0.0579341954305335
30
0
41
1
10
4.14700949482747
20
-0.0574190210485312
30
0
41
1
10
4.14700949482747
20
-0.0569099505997031
30
0
41
1
10
4.14700949482747
20
-0.0564161490478341
30
0
41
1
10
4.1470094948275
20
-0.0558718444236206
30
0
41
1
10
4.1470094948275
20
-0.0552773862331719
30
0
41
1
10
4.1470094948275
20
-0.054686125668411
30
0
41
1
10
4.1470094948275
20
-0.0540972587379258
30
0
41
1
10
4.1470094948275
20
-0.0535101229753536
30
0
41
1
10
4.14700949482753
20
-0.0528069858367815
30
0
41
1
10
4.14700949482753
20
-0.0519880409484017
30
0
41
1
10
4.14700949482753
20
-0.0510529723240438
30
0
41
1
10
4.14700949482753
20
-0.0500008967642316
30
0
41
1
10
4.14700949482756
20
-0.0484212050369308
30
0
41
1
10
4.14700949482756
20
-0.0464275560340184
30
0
41
1
10
4.14700949482756
20
-0.0445093068542803
30
0
41
1
10
4.14700949482756
20
-0.0416770174219323
30
0
41
1
10
4.14700949482756
20
-0.0353716039914502
30
0
41
1
10
4.14700949482753
20
-0.0259636357563693
30
0
41
1
10
4.14700949482753
20
-0.0139755322110204
30
0
41
1
10
4.14700949482753
20
0.0008578046886214
30
0
41
1
10
4.14700949482753
20
0.017451160060034
30
0
41
1
10
4.14700949482753
20
0.0331810051430921
30
0
41
1
10
4.14700949482753
20
0.048105832178635
30
0
41
1
10
4.14700949482753
20
0.0622259382164145
30
0
41
1
10
4.14700949482753
20
0.074751704999187
30
0
41
1
10
4.14700949482753
20
0.0857823934111934
30
0
41
1
10
4.14700949482753
20
0.0954401442188271
30
0
41
1
10
4.1470094948275
20
0.103744966130932
30
0
41
1
10
4.14700949482753
20
0.110686275305426
30
0
41
1
10
4.14700949482753
20
0.116332843394332
30
0
41
1
10
4.14700949482753
20
0.120699441875274
30
0
41
1
10
4.14700949482753
20
0.123380007219396
30
0
41
1
10
4.14700949482753
20
0.124723650146962
30
0
41
1
10
4.14700949482753
20
0.125308699790622
30
0
41
1
10
4.14700949482753
20
0.125526215950771
30
0
41
1
10
4.14700949482753
20
0.125573846066004
30
0
0
SPLINE
5
CC
100
AcDbEntity
8
1
62
256
6
ByLayer
370
18
48
1
60
0
100
AcDbSpline
70
4
71
3
72
99
73
95
40
0
40
0
40
0
40
0
40
0.124999999999966
40
0.124999999999966
40
0.187499999999949
40
0.187499999999949
40
0.21874999999994
40
0.21874999999994
40
0.249999999999932
40
0.249999999999932
40
0.312499999999915
40
0.312499999999915
40
0.343749999999907
40
0.343749999999907
40
0.374999999999898
40
0.374999999999898
40
0.390624999999894
40
0.390624999999894
40
0.406249999999889
40
0.406249999999889
40
0.437499999999883
40
0.437499999999883
40
0.45312499999988
40
0.45312499999988
40
0.468749999999877
40
0.468749999999877
40
0.476562499999876
40
0.476562499999876
40
0.484374999999875
40
0.484374999999875
40
0.492187499999873
40
0.492187499999873
40
0.499999999999872
40
0.499999999999872
40
0.507812499999871
40
0.507812499999871
40
0.51171874999987
40
0.51171874999987
40
0.51562499999987
40
0.523437499999869
40
0.523437499999869
40
0.527343749999868
40
0.527343749999868
40
0.531249999999868
40
0.539062499999868
40
0.539062499999868
40
0.546874999999867
40
0.546874999999867
40
0.562499999999868
40
0.562499999999868
40
0.570312499999868
40
0.570312499999868
40
0.578124999999868
40
0.578124999999868
40
0.593749999999867
40
0.593749999999867
40
0.609374999999865
40
0.609374999999865
40
0.624999999999864
40
0.624999999999864
40
0.656249999999859
40
0.656249999999859
40
0.687499999999855
40
0.687499999999855
40
0.703124999999854
40
0.703124999999854
40
0.718749999999852
40
0.718749999999852
40
0.726562499999852
40
0.726562499999852
40
0.734374999999851
40
0.734374999999851
40
0.738281249999852
40
0.738281249999852
40
0.742187499999853
40
0.742187499999853
40
0.749999999999856
40
0.749999999999856
40
0.75781249999986
40
0.75781249999986
40
0.765624999999863
40
0.765624999999863
40
0.781249999999872
40
0.81249999999989
40
0.81249999999989
40
0.843749999999909
40
0.843749999999909
40
0.874999999999927
40
0.874999999999927
40
0.906249999999945
40
0.906249999999945
40
0.937499999999963
40
0.937499999999963
40
1
40
1
40
1
40
1
41
1
10
4.14700949482753
20
-0.737344159702275
30
0
41
1
10
3.94924084677757
20
-0.745924403599645
30
0
41
1
10
3.75439741518665
20
-0.747147889451071
30
0
41
1
10
3.46505791936568
20
-0.730678547415948
30
0
41
1
10
3.36909242985982
20
-0.722149846534194
30
0
41
1
10
3.2256558866774
20
-0.703829763489722
30
0
41
1
10
3.17800586711485
20
-0.696807524317279
30
0
41
1
10
3.08338054063455
20
-0.680838018704833
30
0
41
1
10
3.03635125939527
20
-0.671884776327687
30
0
41
1
10
2.8961102134302
20
-0.641867981718661
30
0
41
1
10
2.80373125334296
20
-0.617697010563518
30
0
41
1
10
2.6669955897315
20
-0.57360626490086
30
0
41
1
10
2.62172502657361
20
-0.557594992753536
30
0
41
1
10
2.53188784522601
20
-0.522453832475406
30
0
41
1
10
2.48731899862383
20
-0.503332522063744
30
0
41
1
10
2.42112538175462
20
-0.471696225944328
30
0
41
1
10
2.39914094411762
20
-0.460638649052015
30
0
41
1
10
2.35557247472772
20
-0.437438375391878
30
0
41
1
10
2.33405575604527
20
-0.425333654586382
30
0
41
1
10
2.27044468875812
20
-0.38725972467509
30
0
41
1
10
2.22924706734585
20
-0.359602990252711
30
0
41
1
10
2.1703164105397
20
-0.312861028687451
30
0
41
1
10
2.15120201847088
20
-0.29641312108177
30
0
41
1
10
2.1148266148692
20
-0.261654960249757
30
0
41
1
10
2.09750120746782
20
-0.243310766619658
30
0
41
1
10
2.0733501303292
20
-0.21376676065276
30
0
41
1
10
2.06558404594571
20
-0.203540690429349
30
0
41
1
10
2.05094738300875
20
-0.182424617937357
30
0
41
1
10
2.04409979898165
20
-0.17157423398362
30
0
41
1
10
2.03153423309453
20
-0.149176393408993
30
0
41
1
10
2.02581481274382
20
-0.13762978927798
30
0
41
1
10
2.01577555834302
20
-0.113678489858557
30
0
41
1
10
2.0114640834322
20
-0.101246023888052
30
0
41
1
10
2.00479782403619
20
-0.0761029752789568
30
0
41
1
10
2.00240304534754
20
-0.0633115220736897
30
0
41
1
10
2.00044476339764
20
-0.0437442348578543
30
0
41
1
10
2.00006527030311
20
-0.0371227406233174
30
0
41
1
10
1.99990007094897
20
-0.023930767155349
30
0
41
1
10
2.00053315880066
20
-0.0042721198025504
30
0
41
1
10
2.00377460695086
20
0.0150037279773017
30
0
41
1
10
2.0087246355385
20
0.0340289607673867
30
0
41
1
10
2.01066930110701
20
0.0403552338057693
30
0
41
1
10
2.01507783940991
20
0.0527945821347373
30
0
41
1
10
2.02243478612849
20
0.0710591696861798
30
0
41
1
10
2.03182977912732
20
0.0882455820208463
30
0
41
1
10
2.04590687130065
20
0.110343646584738
30
0
41
1
10
2.05368328620983
20
0.120910125640734
30
0
41
1
10
2.07838783251253
20
0.150903515711548
30
0
41
1
10
2.09683224291564
20
0.16891166530624
30
0
41
1
10
2.1265162719931
20
0.193914515627682
30
0
41
1
10
2.13676947937697
20
0.20191448375823
30
0
41
1
10
2.15759323097629
20
0.217145297273333
30
0
41
1
10
2.16819711621338
20
0.224405387852187
30
0
41
1
10
2.20048904217211
20
0.245303340159154
30
0
41
1
10
2.22265259401169
20
0.258068024511033
30
0
41
1
10
2.26792112791372
20
0.281893964441139
30
0
41
1
10
2.29102906078416
20
0.292949530625776
30
0
41
1
10
2.33799066997045
20
0.313730927560812
30
0
41
1
10
2.36187509277499
20
0.323463429207692
30
0
41
1
10
2.4339396601502
20
0.350860737062732
30
0
41
1
10
2.48268682967404
20
0.366831015991181
30
0
41
1
10
2.58117576415071
20
0.395675764523134
30
0
41
1
10
2.63092140667376
20
0.408534442565951
30
0
41
1
10
2.70613077677032
20
0.426067938259592
30
0
41
1
10
2.73130152580052
20
0.431612883128054
30
0
41
1
10
2.7818234747738
20
0.442179370628679
30
0
41
1
10
2.80716273071639
20
0.447192329457692
30
0
41
1
10
2.84520453327301
20
0.45448464437041
30
0
41
1
10
2.85788698468033
20
0.45689716560716
30
0
41
1
10
2.88328844861809
20
0.461570856948612
30
0
41
1
10
2.8959955748644
20
0.463872038237582
30
0
41
1
10
2.91546012657071
20
0.46589766689786
30
0
41
1
10
2.92206599627133
20
0.46632242829952
30
0
41
1
10
2.93507916038291
20
0.466570883765371
30
0
41
1
10
2.94151178678371
20
0.466406180879204
30
0
41
1
10
2.9606101889992
20
0.465131245068903
30
0
41
1
10
2.97306070564653
20
0.463177847051526
30
0
41
1
10
2.99774788366304
20
0.458404442732586
30
0
41
1
10
3.01001507576311
20
0.455704209152458
30
0
41
1
10
3.03458692268706
20
0.450422835548153
30
0
41
1
10
3.04687742557078
20
0.447786663618842
30
0
41
1
10
3.08376310115045
20
0.439895108062018
30
0
41
1
10
3.15757797933998
20
0.424118061094987
30
0
41
1
10
3.23139593835498
20
0.407962749431789
30
0
41
1
10
3.3298247050628
20
0.386098181627489
30
0
41
1
10
3.37905452189739
20
0.37504491771017
30
0
41
1
10
3.47750607024471
20
0.352577547112901
30
0
41
1
10
3.52669043097041
20
0.341052730059516
30
0
41
1
10
3.62442096909786
20
0.315505391127374
30
0
41
1
10
3.67304973601748
20
0.301587498770061
30
0
41
1
10
3.76958555939808
20
0.27165154186207
30
0
41
1
10
3.81748271031259
20
0.255642874523176
30
0
41
1
10
3.96019144120544
20
0.204653234829578
30
0
41
1
10
4.05401195487758
20
0.166680812294089
30
0
41
1
10
4.1470094948275
20
0.125573846066004
30
0
0
LINE
5
7D
100
AcDbEntity
8
4
62
256
6
ByLayer
370
18
48
0.05
60
0
100
AcDbLine
10
-5
20
0
30
0
11
25
21
0
31
0
39
0
210
0
220
0
230
1
0
LINE
5
7F
100
AcDbEntity
8
81
62
256
6
ByLayer
370
18
48
1
60
0
100
AcDbLine
10
20
20
0
30
0
11
25
21
0
31
0
39
0
210
0
220
0
230
1
0
LINE
5
80
100
AcDbEntity
8
SK4
62
256
6
ByLayer
370
18
48
0.05
60
0
100
AcDbLine
10
-25
20
0
30
0
11
25
21
0
31
0
39
0
210
0
220
0
230
1
0
LINE
5
82
100
AcDbEntity
8
80
62
256
6
ByLayer
370
18
48
1
60
0
100
AcDbLine
10
0
20
0
30
0
11
-5
21
0
31
0
39
0
210
0
220
0
230
1
0
LINE
5
83
100
AcDbEntity
8
1
62
256
6
ByLayer
370
18
48
1
60
0
100
AcDbLine
10
0
20
0.75
30
0
11
0
21
-0.75
31
0
39
0
210
0
220
0
230
1
0
LINE
5
84
100
AcDbEntity
8
1
62
256
6
ByLayer
370
18
48
1
60
0
100
AcDbLine
10
19.594419
20
-0.75
30
0
11
19.594419
21
-0.396977
31
0
39
0
210
0
220
0
230
1
0
LINE
5
85
100
AcDbEntity
8
1
62
256
6
ByLayer
370
18
48
1
60
0
100
AcDbLine
10
19.594419
20
0.75
30
0
11
19.594419
21
0.725771
31
0
39
0
210
0
220
0
230
1
0
LINE
5
86
100
AcDbEntity
8
1
62
256
6
ByLayer
370
18
48
1
60
0
100
AcDbLine
10
0.1
20
-0.74269
30
0
11
0.1
21
0.74269
31
0
39
0
210
0
220
0
230
1
0
LINE
5
87
100
AcDbEntity
8
SK1
62
256
6
ByLayer
370
18
48
1
60
0
100
AcDbLine
10
-20
20
-0.45
30
0
11
-20
21
0.45
31
0
39
0
210
0
220
0
230
1
0
LINE
5
89
100
AcDbEntity
8
SK1
62
256
6
ByLayer
370
18
48
1
60
0
100
AcDbLine
10
0
20
0.75
30
0
11
0
21
-0.75
31
0
39
0
210
0
220
0
230
1
0
LINE
5
8A
100
AcDbEntity
8
SK1
62
256
6
ByLayer
370
18
48
1
60
0
100
AcDbLine
10
-19.7
20
-0.75
30
0
11
-19.7
21
0.75
31
0
39
0
210
0
220
0
230
1
0
LINE
5
8B
100
AcDbEntity
8
1
62
256
6
ByLayer
370
18
48
1
60
0
100
AcDbLine
10
20
20
0
30
0
11
19.594419
21
0.75
31
0
39
0
210
0
220
0
230
1
0
LINE
5
8C
100
AcDbEntity
8
1
62
256
6
ByLayer
370
18
48
1
60
0
100
AcDbLine
10
19.594419
20
-0.75
30
0
11
20
21
0
31
0
39
0
210
0
220
0
230
1
0
LINE
5
8D
100
AcDbEntity
8
1
62
256
6
ByLayer
370
18
48
1
60
0
100
AcDbLine
10
0.1
20
0.74269
30
0
11
0
21
0.75
31
0
39
0
210
0
220
0
230
1
0
LINE
5
8E
100
AcDbEntity
8
1
62
256
6
ByLayer
370
18
48
1
60
0
100
AcDbLine
10
0
20
-0.75
30
0
11
0.1
21
-0.74269
31
0
39
0
210
0
220
0
230
1
0
LINE
5
8F
100
AcDbEntity
8
1
62
256
6
ByLayer
370
18
48
1
60
0
100
AcDbLine
10
0.1
20
-0.74269
30
0
11
3.878995
21
-0.744107
31
0
39
0
210
0
220
0
230
1
0
LINE
5
90
100
AcDbEntity
8
1
62
256
6
ByLayer
370
18
48
1
60
0
100
AcDbLine
10
6.499854
20
-0.74509
30
0
11
8.21331
21
-0.745732
31
0
39
0
210
0
220
0
230
1
0
LINE
5
91
100
AcDbEntity
8
1
62
256
6
ByLayer
370
18
48
1
60
0
100
AcDbLine
10
10.749977
20
-0.746683
30
0
11
12.464027
21
-0.747326
31
0
39
0
210
0
220
0
230
1
0
LINE
5
92
100
AcDbEntity
8
1
62
256
6
ByLayer
370
18
48
1
60
0
100
AcDbLine
10
15.00101
20
-0.748277
30
0
11
16.714769
21
-0.74892
31
0
39
0
210
0
220
0
230
1
0
LINE
5
93
100
AcDbEntity
8
1
62
256
6
ByLayer
370
18
48
1
60
0
100
AcDbLine
10
19.252471
20
-0.749872
30
0
11
19.594419
21
-0.75
31
0
39
0
210
0
220
0
230
1
0
LINE
5
94
100
AcDbEntity
8
1
62
256
6
ByLayer
370
18
48
1
60
0
100
AcDbLine
10
19.594419
20
0.75
30
0
11
19.252471
21
0.749872
31
0
39
0
210
0
220
0
230
1
0
LINE
5
95
100
AcDbEntity
8
1
62
256
6
ByLayer
370
18
48
1
60
0
100
AcDbLine
10
16.714769
20
0.74892
30
0
11
15.00101
21
0.748277
31
0
39
0
210
0
220
0
230
1
0
LINE
5
96
100
AcDbEntity
8
1
62
256
6
ByLayer
370
18
48
1
60
0
100
AcDbLine
10
12.464027
20
0.747326
30
0
11
10.749977
21
0.746683
31
0
39
0
210
0
220
0
230
1
0
LINE
5
97
100
AcDbEntity
8
1
62
256
6
ByLayer
370
18
48
1
60
0
100
AcDbLine
10
8.21331
20
0.745732
30
0
11
6.499854
21
0.74509
31
0
39
0
210
0
220
0
230
1
0
LINE
5
98
100
AcDbEntity
8
1
62
256
6
ByLayer
370
18
48
1
60
0
100
AcDbLine
10
3.878995
20
0.744107
30
0
11
0.1
21
0.74269
31
0
39
0
210
0
220
0
230
1
0
LINE
5
99
100
AcDbEntity
8
SK1
62
256
6
ByLayer
370
18
48
1
60
0
100
AcDbLine
10
-20
20
-0.45
30
0
11
-19.7
21
-0.75
31
0
39
0
210
0
220
0
230
1
0
LINE
5
9A
100
AcDbEntity
8
SK1
62
256
6
ByLayer
370
18
48
1
60
0
100
AcDbLine
10
-19.7
20
0.75
30
0
11
-20
21
0.45
31
0
39
0
210
0
220
0
230
1
0
LINE
5
9B
100
AcDbEntity
8
SK1
62
256
6
ByLayer
370
18
48
1
60
0
100
AcDbLine
10
-19.7
20
-0.75
30
0
11
0
21
-0.75
31
0
39
0
210
0
220
0
230
1
0
LINE
5
9C
100
AcDbEntity
8
SK1
62
256
6
ByLayer
370
18
48
1
60
0
100
AcDbLine
10
0
20
0.75
30
0
11
-19.7
21
0.75
31
0
39
0
210
0
220
0
230
1
0
LINE
5
9D
100
AcDbEntity
8
SK2
62
256
6
ByLayer
370
13
48
1
60
0
100
AcDbLine
10
-26.5
20
26.782855
30
0
11
-26.5
21
-8.25
31
0
39
0
210
0
220
0
230
1
0
LINE
5
9F
100
AcDbEntity
8
SK2
62
256
6
ByLayer
370
13
48
1
60
0
100
AcDbLine
10
-21.5875
20
0.75
30
0
11
-28.5
21
0.75
31
0
39
0
210
0
220
0
230
1
0
LINE
5
A0
100
AcDbEntity
8
SK2
62
256
6
ByLayer
370
13
48
1
60
0
100
AcDbLine
10
-21.5875
20
-0.75
30
0
11
-28.5
21
-0.75
31
0
39
0
210
0
220
0
230
1
0
LINE
5
A1
100
AcDbEntity
8
1
62
256
6
ByLayer
370
18
48
1
60
1
100
AcDbLine
10
-26.5
20
0.75
30
0
11
-26.960784
21
4.249998
31
0
39
0
210
0
220
0
230
1
0
LINE
5
A2
100
AcDbEntity
8
1
62
256
6
ByLayer
370
18
48
1
60
1
100
AcDbLine
10
-26.960784
20
4.249998
30
0
11
-26.039216
21
4.250002
31
0
39
0
210
0
220
0
230
1
0
LINE
5
A3
100
AcDbEntity
8
1
62
256
6
ByLayer
370
18
48
1
60
1
100
AcDbLine
10
-26.039216
20
4.250002
30
0
11
-26.5
21
0.75
31
0
39
0
210
0
220
0
230
1
0
LINE
5
A4
100
AcDbEntity
8
1
62
256
6
ByLayer
370
18
48
1
60
1
100
AcDbLine
10
-26.5
20
-0.75
30
0
11
-26.039216
21
-4.249998
31
0
39
0
210
0
220
0
230
1
0
LINE
5
A5
100
AcDbEntity
8
1
62
256
6
ByLayer
370
18
48
1
60
1
100
AcDbLine
10
-26.039216
20
-4.249998
30
0
11
-26.960784
21
-4.250002
31
0
39
0
210
0
220
0
230
1
0
LINE
5
A6
100
AcDbEntity
8
1
62
256
6
ByLayer
370
18
48
1
60
1
100
AcDbLine
10
-26.960784
20
-4.250002
30
0
11
-26.5
21
-0.75
31
0
39
0
210
0
220
0
230
1
0
LINE
5
A7
100
AcDbEntity
8
2
62
256
6
ByLayer
370
13
48
1
60
0
100
AcDbLine
10
29.094419
20
26.782855
30
0
11
29.094419
21
-8.25
31
0
39
0
210
0
220
0
230
1
0
LINE
5
A9
100
AcDbEntity
8
2
62
256
6
ByLayer
370
13
48
1
60
0
100
AcDbLine
10
21.181919
20
0.75
30
0
11
31.094419
21
0.75
31
0
39
0
210
0
220
0
230
1
0
LINE
5
AA
100
AcDbEntity
8
2
62
256
6
ByLayer
370
13
48
1
60
0
100
AcDbLine
10
21.181919
20
-0.75
30
0
11
31.094419
21
-0.75
31
0
39
0
210
0
220
0
230
1
0
LINE
5
AB
100
AcDbEntity
8
1
62
256
6
ByLayer
370
18
48
1
60
1
100
AcDbLine
10
29.094419
20
0.75
30
0
11
28.633635
21
4.249998
31
0
39
0
210
0
220
0
230
1
0
LINE
5
AC
100
AcDbEntity
8
1
62
256
6
ByLayer
370
18
48
1
60
1
100
AcDbLine
10
28.633635
20
4.249998
30
0
11
29.555203
21
4.250002
31
0
39
0
210
0
220
0
230
1
0
LINE
5
AD
100
AcDbEntity
8
1
62
256
6
ByLayer
370
18
48
1
60
1
100
AcDbLine
10
29.555203
20
4.250002
30
0
11
29.094419
21
0.75
31
0
39
0
210
0
220
0
230
1
0
LINE
5
AE
100
AcDbEntity
8
1
62
256
6
ByLayer
370
18
48
1
60
1
100
AcDbLine
10
29.094419
20
-0.75
30
0
11
29.555203
21
-4.249998
31
0
39
0
210
0
220
0
230
1
0
LINE
5
AF
100
AcDbEntity
8
1
62
256
6
ByLayer
370
18
48
1
60
1
100
AcDbLine
10
29.555203
20
-4.249998
30
0
11
28.633635
21
-4.250002
31
0
39
0
210
0
220
0
230
1
0
LINE
5
B0
100
AcDbEntity
8
1
62
256
6
ByLayer
370
18
48
1
60
1
100
AcDbLine
10
28.633635
20
-4.250002
30
0
11
29.094419
21
-0.75
31
0
39
0
210
0
220
0
230
1
0
LINE
5
B1
100
AcDbEntity
8
2
62
256
6
ByLayer
370
13
48
1
60
0
100
AcDbLine
10
20.755136
20
-1.396397
30
0
11
31.416232
21
-21.110889
31
0
39
0
210
0
220
0
230
1
0
LINE
5
B2
100
AcDbEntity
8
2
62
256
6
ByLayer
370
13
48
1
60
0
100
AcDbLine
10
20.755136
20
1.396397
30
0
11
31.416232
21
21.110889
31
0
39
0
210
0
220
0
230
1
0
LINE
5
B3
100
AcDbEntity
8
1
62
256
6
ByLayer
370
18
48
1
60
1
100
AcDbLine
10
30.464879
20
-19.351649
30
0
11
33.239971
21
-17.169637
31
0
39
0
210
0
220
0
230
1
0
LINE
5
B4
100
AcDbEntity
8
1
62
256
6
ByLayer
370
18
48
1
60
1
100
AcDbLine
10
33.239971
20
-17.169637
30
0
11
33.710161
21
-17.962233
31
0
39
0
210
0
220
0
230
1
0
LINE
5
B5
100
AcDbEntity
8
1
62
256
6
ByLayer
370
18
48
1
60
1
100
AcDbLine
10
33.710161
20
-17.962233
30
0
11
30.464879
21
-19.351649
31
0
39
0
210
0
220
0
230
1
0
LINE
5
B6
100
AcDbEntity
8
1
62
256
6
ByLayer
370
18
48
1
60
1
100
AcDbLine
10
30.464879
20
19.351649
30
0
11
33.710158
21
17.962234
31
0
39
0
210
0
220
0
230
1
0
LINE
5
B7
100
AcDbEntity
8
1
62
256
6
ByLayer
370
18
48
1
60
1
100
AcDbLine
10
33.710158
20
17.962234
30
0
11
33.239974
21
17.169635
31
0
39
0
210
0
220
0
230
1
0
LINE
5
B8
100
AcDbEntity
8
1
62
256
6
ByLayer
370
18
48
1
60
1
100
AcDbLine
10
33.239974
20
17.169635
30
0
11
30.464879
21
19.351649
31
0
39
0
210
0
220
0
230
1
0
LINE
5
D1
100
AcDbEntity
8
1
62
256
6
ByLayer
370
18
48
1
60
1
100
AcDbLine
10
-26.5
20
0.75
30
0
11
-26.960784
21
4.249998
31
0
39
0
210
0
220
0
230
1
0
LINE
5
D2
100
AcDbEntity
8
1
62
256
6
ByLayer
370
18
48
1
60
1
100
AcDbLine
10
-26.960784
20
4.249998
30
0
11
-26.039216
21
4.250002
31
0
39
0
210
0
220
0
230
1
0
LINE
5
D3
100
AcDbEntity
8
1
62
256
6
ByLayer
370
18
48
1
60
1
100
AcDbLine
10
-26.039216
20
4.250002
30
0
11
-26.5
21
0.75
31
0
39
0
210
0
220
0
230
1
0
LINE
5
D5
100
AcDbEntity
8
1
62
256
6
ByLayer
370
18
48
1
60
1
100
AcDbLine
10
-26.5
20
-0.75
30
0
11
-26.039216
21
-4.249998
31
0
39
0
210
0
220
0
230
1
0
LINE
5
D6
100
AcDbEntity
8
1
62
256
6
ByLayer
370
18
48
1
60
1
100
AcDbLine
10
-26.039216
20
-4.249998
30
0
11
-26.960784
21
-4.250002
31
0
39
0
210
0
220
0
230
1
0
LINE
5
D7
100
AcDbEntity
8
1
62
256
6
ByLayer
370
18
48
1
60
1
100
AcDbLine
10
-26.960784
20
-4.250002
30
0
11
-26.5
21
-0.75
31
0
39
0
210
0
220
0
230
1
0
LINE
5
DB
100
AcDbEntity
8
1
62
256
6
ByLayer
370
18
48
1
60
1
100
AcDbLine
10
29.094419
20
0.75
30
0
11
28.633635
21
4.249998
31
0
39
0
210
0
220
0
230
1
0
LINE
5
DC
100
AcDbEntity
8
1
62
256
6
ByLayer
370
18
48
1
60
1
100
AcDbLine
10
28.633635
20
4.249998
30
0
11
29.555203
21
4.250002
31
0
39
0
210
0
220
0
230
1
0
LINE
5
DD
100
AcDbEntity
8
1
62
256
6
ByLayer
370
18
48
1
60
1
100
AcDbLine
10
29.555203
20
4.250002
30
0
11
29.094419
21
0.75
31
0
39
0
210
0
220
0
230
1
0
LINE
5
DF
100
AcDbEntity
8
1
62
256
6
ByLayer
370
18
48
1
60
1
100
AcDbLine
10
29.094419
20
-0.75
30
0
11
29.555203
21
-4.249998
31
0
39
0
210
0
220
0
230
1
0
LINE
5
E0
100
AcDbEntity
8
1
62
256
6
ByLayer
370
18
48
1
60
1
100
AcDbLine
10
29.555203
20
-4.249998
30
0
11
28.633635
21
-4.250002
31
0
39
0
210
0
220
0
230
1
0
LINE
5
E1
100
AcDbEntity
8
1
62
256
6
ByLayer
370
18
48
1
60
1
100
AcDbLine
10
28.633635
20
-4.250002
30
0
11
29.094419
21
-0.75
31
0
39
0
210
0
220
0
230
1
0
LINE
5
E4
100
AcDbEntity
8
1
62
256
6
ByLayer
370
18
48
1
60
1
100
AcDbLine
10
30.464879
20
-19.351649
30
0
11
33.239971
21
-17.169637
31
0
39
0
210
0
220
0
230
1
0
LINE
5
E5
100
AcDbEntity
8
1
62
256
6
ByLayer
370
18
48
1
60
1
100
AcDbLine
10
33.239971
20
-17.169637
30
0
11
33.710161
21
-17.962233
31
0
39
0
210
0
220
0
230
1
0
LINE
5
E6
100
AcDbEntity
8
1
62
256
6
ByLayer
370
18
48
1
60
1
100
AcDbLine
10
33.710161
20
-17.962233
30
0
11
30.464879
21
-19.351649
31
0
39
0
210
0
220
0
230
1
0
LINE
5
E8
100
AcDbEntity
8
1
62
256
6
ByLayer
370
18
48
1
60
1
100
AcDbLine
10
30.464879
20
19.351649
30
0
11
33.710158
21
17.962234
31
0
39
0
210
0
220
0
230
1
0
LINE
5
E9
100
AcDbEntity
8
1
62
256
6
ByLayer
370
18
48
1
60
1
100
AcDbLine
10
33.710158
20
17.962234
30
0
11
33.239974
21
17.169635
31
0
39
0
210
0
220
0
230
1
0
LINE
5
EA
100
AcDbEntity
8
1
62
256
6
ByLayer
370
18
48
1
60
1
100
AcDbLine
10
33.239974
20
17.169635
30
0
11
30.464879
21
19.351649
31
0
39
0
210
0
220
0
230
1
0
MTEXT
5
CD
100
AcDbEntity
8
SK2
62
256
6
ByLayer
370
18
48
1
60
0
100
AcDbMText
10
-27.841114
20
12.408437
30
0
210
0
220
0
230
1
1
%%c
40
3
41
0
44
1.084337
50
90
71
7
72
5
7
iso_b_vert
0
MTEXT
5
D0
100
AcDbEntity
8
SK2
62
256
6
ByLayer
370
18
48
1
60
0
100
AcDbMText
10
-27.841114
20
18.385
30
0
210
0
220
0
230
1
1
\W0.6864;1.500
40
3
41
0
44
1.084337
50
90
71
7
72
5
7
iso_b_vert
0
MTEXT
5
D9
100
AcDbEntity
8
2
62
256
6
ByLayer
370
18
48
1
60
0
100
AcDbMText
10
27.753305
20
12.408437
30
0
210
0
220
0
230
1
1
%%c
40
3
41
0
44
1.084337
50
90
71
7
72
5
7
iso_b_vert
0
MTEXT
5
DA
100
AcDbEntity
8
2
62
256
6
ByLayer
370
18
48
1
60
0
100
AcDbMText
10
27.753305
20
18.385
30
0
210
0
220
0
230
1
1
\W0.6864;1.500
40
3
41
0
44
1.084337
50
90
71
7
72
5
7
iso_b_vert
0
MTEXT
5
E3
100
AcDbEntity
8
2
62
256
6
ByLayer
370
18
48
1
60
0
100
AcDbMText
10
39.092229
20
-2.114886
30
0
210
0
220
0
230
1
1
\W0.6008;118%%d
40
3
41
0
44
1.084337
50
0
71
7
72
5
7
iso_b_vert
0
MTEXT
5
EC
100
AcDbEntity
8
SK6
62
256
6
ByLayer
370
18
48
1
60
0
100
AcDbMText
10
-6.507199
20
-67.114886
30
0
210
0
220
0
230
1
1
\W0.7280;R0031.5
40
3
41
0
44
1.084337
50
0
71
7
72
5
7
iso_b_vert
0
HATCH
5
D4
100
AcDbEntity
8
SK2
62
256
6
ByLayer
370
13
48
1
60
0
100
AcDbHatch
10
0
20
0
30
0
210
0
220
0
230
1
2
ANSI31
70
0
71
0
91
1
92
5
93
3
72
1
10
-26.5
20
0.75
11
-26.9607837415528
21
4.24999830744682
72
1
10
-26.9607837415528
20
4.24999830744682
11
-26.0392162584472
21
4.25000169255318
72
1
10
-26.0392162584472
20
4.25000169255318
11
-26.5
21
0.75
97
0
75
0
76
1
52
0
41
0.0062
77
0
78
1
53
45
43
0
44
0
45
-0.0139193969876572
46
0.0139193969876572
79
0
47
0
98
1
10
0
20
0
0
HATCH
5
D8
100
AcDbEntity
8
SK2
62
256
6
ByLayer
370
13
48
1
60
0
100
AcDbHatch
10
0
20
0
30
0
210
0
220
0
230
1
2
ANSI31
70
0
71
0
91
1
92
5
93
3
72
1
10
-26.5
20
-0.75
11
-26.0392162584472
21
-4.24999830744682
72
1
10
-26.0392162584472
20
-4.24999830744682
11
-26.9607837415528
21
-4.25000169255318
72
1
10
-26.9607837415528
20
-4.25000169255318
11
-26.5
21
-0.75
97
0
75
0
76
1
52
0
41
0.0062
77
0
78
1
53
45
43
0
44
0
45
-0.0139193969876572
46
0.0139193969876572
79
0
47
0
98
1
10
0
20
0
0
HATCH
5
DE
100
AcDbEntity
8
2
62
256
6
ByLayer
370
13
48
1
60
0
100
AcDbHatch
10
0
20
0
30
0
210
0
220
0
230
1
2
ANSI31
70
0
71
0
91
1
92
5
93
3
72
1
10
29.0944190821564
20
0.75
11
28.6336353406036
21
4.24999830744682
72
1
10
28.6336353406036
20
4.24999830744682
11
29.5552028237092
21
4.25000169255318
72
1
10
29.5552028237092
20
4.25000169255318
11
29.0944190821564
21
0.75
97
0
75
0
76
1
52
0
41
0.0062
77
0
78
1
53
45
43
0
44
0
45
-0.0139193969876572
46
0.0139193969876572
79
0
47
0
98
1
10
0
20
0
0
HATCH
5
E2
100
AcDbEntity
8
2
62
256
6
ByLayer
370
13
48
1
60
0
100
AcDbHatch
10
0
20
0
30
0
210
0
220
0
230
1
2
ANSI31
70
0
71
0
91
1
92
5
93
3
72
1
10
29.0944190821564
20
-0.75
11
29.5552028237092
21
-4.24999830744682
72
1
10
29.5552028237092
20
-4.24999830744682
11
28.6336353406036
21
-4.25000169255318
72
1
10
28.6336353406036
20
-4.25000169255318
11
29.0944190821564
21
-0.75
97
0
75
0
76
1
52
0
41
0.0062
77
0
78
1
53
45
43
0
44
0
45
-0.0139193969876572
46
0.0139193969876572
79
0
47
0
98
1
10
0
20
0
0
HATCH
5
E7
100
AcDbEntity
8
2
62
256
6
ByLayer
370
13
48
1
60
0
100
AcDbHatch
10
0
20
0
30
0
210
0
220
0
230
1
2
ANSI31
70
0
71
0
91
1
92
5
93
3
72
1
10
30.4648791987518
20
-19.3516485952885
11
33.239971107838
21
-17.1696369764528
72
1
10
33.239971107838
20
-17.1696369764528
11
33.7101613929248
21
-17.9622325364574
72
1
10
33.7101613929248
20
-17.9622325364574
11
30.4648791987518
21
-19.3516485952885
97
0
75
0
76
1
52
0
41
0.0062
77
0
78
1
53
45
43
0
44
0
45
-0.0139193969876572
46
0.0139193969876572
79
0
47
0
98
1
10
0
20
0
0
HATCH
5
EB
100
AcDbEntity
8
2
62
256
6
ByLayer
370
13
48
1
60
0
100
AcDbHatch
10
0
20
0
30
0
210
0
220
0
230
1
2
ANSI31
70
0
71
0
91
1
92
5
93
3
72
1
10
30.4648791987518
20
19.3516485952885
11
33.7101584815524
21
17.962234263552
72
1
10
33.7101584815524
20
17.962234263552
11
33.2399740192104
21
17.1696352493582
72
1
10
33.2399740192104
20
17.1696352493582
11
30.4648791987518
21
19.3516485952885
97
0
75
0
76
1
52
0
41
0.0062
77
0
78
1
53
45
43
0
44
0
45
-0.0139193969876572
46
0.0139193969876572
79
0
47
0
98
1
10
0
20
0
0
DIMENSION
5
EF
100
AcDbEntity
8
SK2
62
256
6
ByLayer
370
18
48
1
60
0
100
AcDbDimension
2
_U0
10
20
20
-51.658159
30
0
11
0
21
-51.658159
31
0
70
32
71
1
72
1
41
1
210
0
220
0
230
1
3
Standard
100
AcDbAlignedDimension
13
-20
23
-0.75
33
0
14
20
24
0
34
0
50
0
100
AcDbRotatedDimension
1001
ACAD
1000
DSTYLE
1002
{
1070
   371
1070
    13
1070
   372
1070
    13
1070
     3
1000

1070
   170
1070
     0
1070
   144
1040
1.0
1070
   277
1070
     2
1070
   284
1070
     8
1070
   278
1070
    46
1070
   146
1040
1.166667
1070
   345
1005
16
1070
   347
1005
16
1070
   346
1005
16
1070
   344
1005
0
1070
   343
1005
0
1070
   172
1070
     1
1070
    76
1070
     0
1070
    75
1070
     0
1070
   282
1070
     0
1070
   281
1070
     0
1070
    71
1070
     0
1070
    74
1070
     0
1070
   279
1070
     0
1070
   173
1070
     1
1070
   340
1005
CE
1070
   271
1070
     2
1070
   272
1070
     3
1070
    77
1070
     1
1070
    73
1070
     1
1070
   171
1070
     3
1070
   274
1070
     4
1070
   177
1070
     2
1070
   176
1070
     2
1070
   178
1070
     2
1070
    78
1070
     8
1070
    48
1040
-0.1
1070
    41
1040
3.5
1070
   147
1040
1.5
1070
    42
1040
1.5875
1070
    44
1040
2.0
1070
   140
1040
3.0
1002
}
1001
ACAD_DSTYLE_DIM_LINETYPE
1070
   380
1005
16
1001
ACAD_DSTYLE_DIM_EXT1_LINETYPE
1070
   381
1005
16
1001
ACAD_DSTYLE_DIM_EXT2_LINETYPE
1070
   382
1005
16
0
DIMENSION
5
108
100
AcDbEntity
8
2
62
256
6
ByLayer
370
18
48
1
60
0
100
AcDbDimension
2
_U1
10
2
20
-41.658159
30
0
11
11
21
-41.658159
31
0
70
32
71
1
72
1
41
1
210
0
220
0
230
1
3
Standard
100
AcDbAlignedDimension
13
20
23
0
33
0
14
2
24
-0.75
34
0
50
0
100
AcDbRotatedDimension
1001
ACAD
1000
DSTYLE
1002
{
1070
   371
1070
    13
1070
   372
1070
    13
1070
     3
1000

1070
   170
1070
     0
1070
   144
1040
1.0
1070
   277
1070
     2
1070
   284
1070
     8
1070
   278
1070
    46
1070
   146
1040
1.166667
1070
   345
1005
16
1070
   347
1005
16
1070
   346
1005
16
1070
   344
1005
0
1070
   343
1005
0
1070
   172
1070
     1
1070
    76
1070
     0
1070
    75
1070
     0
1070
   282
1070
     0
1070
   281
1070
     0
1070
    71
1070
     0
1070
    74
1070
     0
1070
   279
1070
     0
1070
   173
1070
     1
1070
   340
1005
CE
1070
   271
1070
     2
1070
   272
1070
     3
1070
    77
1070
     1
1070
    73
1070
     1
1070
   171
1070
     3
1070
   274
1070
     4
1070
   177
1070
     2
1070
   176
1070
     2
1070
   178
1070
     2
1070
    78
1070
     8
1070
    48
1040
-0.1
1070
    41
1040
3.5
1070
   147
1040
1.5
1070
    42
1040
1.5875
1070
    44
1040
2.0
1070
   140
1040
3.0
1002
}
1001
ACAD_DSTYLE_DIM_LINETYPE
1070
   380
1005
16
1001
ACAD_DSTYLE_DIM_EXT1_LINETYPE
1070
   381
1005
16
1001
ACAD_DSTYLE_DIM_EXT2_LINETYPE
1070
   382
1005
16
0
DIMENSION
5
120
100
AcDbEntity
8
SK2
62
256
6
ByLayer
370
18
48
1
60
0
100
AcDbDimension
2
_U2
10
0
20
-36.658159
30
0
11
-10
21
-36.658159
31
0
70
32
71
1
72
1
41
1
210
0
220
0
230
1
3
Standard
100
AcDbAlignedDimension
13
-20
23
-0.75
33
0
14
0
24
-0.75
34
0
50
0
100
AcDbRotatedDimension
1001
ACAD
1000
DSTYLE
1002
{
1070
   371
1070
    13
1070
   372
1070
    13
1070
     3
1000

1070
   170
1070
     0
1070
   144
1040
1.0
1070
   277
1070
     2
1070
   284
1070
     8
1070
   278
1070
    46
1070
   146
1040
1.166667
1070
   345
1005
16
1070
   347
1005
16
1070
   346
1005
16
1070
   344
1005
0
1070
   343
1005
0
1070
   172
1070
     1
1070
    76
1070
     0
1070
    75
1070
     0
1070
   282
1070
     0
1070
   281
1070
     0
1070
    71
1070
     0
1070
    74
1070
     0
1070
   279
1070
     0
1070
   173
1070
     1
1070
   340
1005
CE
1070
   271
1070
     2
1070
   272
1070
     3
1070
    77
1070
     1
1070
    73
1070
     1
1070
   171
1070
     3
1070
   274
1070
     4
1070
   177
1070
     2
1070
   176
1070
     2
1070
   178
1070
     2
1070
    78
1070
     8
1070
    48
1040
-0.1
1070
    41
1040
3.5
1070
   147
1040
1.5
1070
    42
1040
1.5875
1070
    44
1040
2.0
1070
   140
1040
3.0
1002
}
1001
ACAD_DSTYLE_DIM_LINETYPE
1070
   380
1005
16
1001
ACAD_DSTYLE_DIM_EXT1_LINETYPE
1070
   381
1005
16
1001
ACAD_DSTYLE_DIM_EXT2_LINETYPE
1070
   382
1005
16
0
DIMENSION
5
138
100
AcDbEntity
8
2
62
256
6
ByLayer
370
18
48
1
60
0
100
AcDbDimension
2
_U3
10
6.5
20
-34.658159
30
0
11
13.25
21
-34.658159
31
0
70
32
71
1
72
1
41
1
210
0
220
0
230
1
3
Standard
100
AcDbAlignedDimension
13
20
23
0
33
0
14
6.5
24
-0.75
34
0
50
0
100
AcDbRotatedDimension
1001
ACAD
1000
DSTYLE
1002
{
1070
   371
1070
    13
1070
   372
1070
    13
1070
     3
1000

1070
   170
1070
     0
1070
   144
1040
1.0
1070
   277
1070
     2
1070
   284
1070
     8
1070
   278
1070
    46
1070
   146
1040
1.166667
1070
   345
1005
16
1070
   347
1005
16
1070
   346
1005
16
1070
   344
1005
0
1070
   343
1005
0
1070
   172
1070
     1
1070
    76
1070
     0
1070
    75
1070
     0
1070
   282
1070
     0
1070
   281
1070
     0
1070
    71
1070
     0
1070
    74
1070
     0
1070
   279
1070
     0
1070
   173
1070
     1
1070
   340
1005
CE
1070
   271
1070
     2
1070
   272
1070
     3
1070
    77
1070
     1
1070
    73
1070
     1
1070
   171
1070
     3
1070
   274
1070
     4
1070
   177
1070
     2
1070
   176
1070
     2
1070
   178
1070
     2
1070
    78
1070
     8
1070
    48
1040
-0.1
1070
    41
1040
3.5
1070
   147
1040
1.5
1070
    42
1040
1.5875
1070
    44
1040
2.0
1070
   140
1040
3.0
1002
}
1001
ACAD_DSTYLE_DIM_LINETYPE
1070
   380
1005
16
1001
ACAD_DSTYLE_DIM_EXT1_LINETYPE
1070
   381
1005
16
1001
ACAD_DSTYLE_DIM_EXT2_LINETYPE
1070
   382
1005
16
0
ENDSEC
0
SECTION
2
OBJECTS
0
DICTIONARY
5
1c3
330
0
100
AcDbDictionary
280
0
281
1
3
ACAD_GROUP
350
1c4
3
ACAD_MLINESTYLE
350
1c5
0
DICTIONARY
5
1c4
330
0
100
AcDbDictionary
280
0
281
1
0
DICTIONARY
5
1c5
330
0
100
AcDbDictionary
280
0
281
1
3
Standard
350
18
0
MLINESTYLE
5
18
330
1c5
100
AcDbMlineStyle
2
Standard
70
0
3

62
256
51
90
52
90
71
2
49
-0.5
62
256
6
ByLayer
49
0.5
62
256
6
ByLayer
0
RASTERVARIABLES
5
1af
330

100
AcDbRasterVariables
90
0
70
1
71
1
72
1
0
ENDSEC
0
EOF
