0
SECTION
2
HEADER
9
$ACADVER
1
AC1015
9
$DWGCODEPAGE
3
ANSI_1252
9
$HANDSEED
5
1d1
9
$ANGBASE
50
0
9
$ANGDIR
70
0
9
$ATTMODE
70
1
9
$AUNITS
70
0
9
$AUPREC
70
0
9
$CECOLOR
62
256
9
$CELTSCALE
40
1
9
$CELTYPE
6
ByLayer
9
$CELWEIGHT
370
18
9
$CLAYER
8
0
9
$CMLJUST
70
0
9
$CMLSCALE
40
1
9
$CMLSTYLE
2
Standard
9
$DIMSTYLE
2
Standard
9
$TEXTSIZE
40
0.2
9
$TEXTSTYLE
7
Standard
9
$LUNITS
70
2
9
$LUPREC
70
4
9
$EXTNAMES
290
1
9
$INSUNITS
70
4
9
$LTSCALE
40
1
9
$LWDISPLAY
290
1
9
$PDMODE
70
0
9
$PDSIZE
40
0
9
$PLINEGEN
70
0
0
ENDSEC
0
SECTION
2
CLASSES
0
CLASS
1
RASTERVARIABLES
2
AcDbRasterVariables
3
ISM
90
0
280
0
281
0
0
ENDSEC
0
SECTION
2
TABLES
0
TABLE
2
VPORT
5
1c7
100
AcDbSymbolTable
0
VPORT
5
1
100
AcDbSymbolTableRecord
100
AcDbViewportTableRecord
2
*Active
70
0
10
0
20
0
11
1
21
1
12
-1
22
1
13
0
23
0
14
0.5
24
0.5
15
10
25
10
16
0
26
0
36
1
17
0
27
0
37
0
0
ENDTAB
0
TABLE
2
LTYPE
5
1c8
100
AcDbSymbolTable
0
LTYPE
5
14
100
AcDbSymbolTableRecord
100
AcDbLinetypeTableRecord
70
0
2
ByBlock
3

72
65
73
0
40
0
0
LTYPE
5
15
100
AcDbSymbolTableRecord
100
AcDbLinetypeTableRecord
70
0
2
ByLayer
3

72
65
73
0
40
0
0
LTYPE
5
16
100
AcDbSymbolTableRecord
100
AcDbLinetypeTableRecord
70
0
2
Continuous
3
Solid line
72
65
73
0
40
0
0
LTYPE
5
6E
100
AcDbSymbolTableRecord
100
AcDbLinetypeTableRecord
70
0
2
CENTER
3
____ _ ____ _ ____ _ ____
72
65
73
4
40
47.5
49
22
74
0
49
-8.5
74
0
49
8.5
74
0
49
-8.5
74
0
0
LTYPE
5
6F
100
AcDbSymbolTableRecord
100
AcDbLinetypeTableRecord
70
0
2
DASHED
3
__ __ __ __ __ __ __ __ __
72
65
73
2
40
25.72
49
12.86
74
0
49
-12.86
74
0
0
ENDTAB
0
TABLE
2
LAYER
5
1c9
100
AcDbSymbolTable
0
LAYER
5
10
100
AcDbSymbolTableRecord
100
AcDbLayerTableRecord
2
0
70
0
62
7
6
Continuous
290
1
370
-3
390
0
0
LAYER
5
71
100
AcDbSymbolTableRecord
100
AcDbLayerTableRecord
2
81
70
0
62
-3
6
Continuous
290
1
370
-3
390
0
0
LAYER
5
73
100
AcDbSymbolTableRecord
100
AcDbLayerTableRecord
2
80
70
0
62
-6
6
Continuous
290
1
370
-3
390
0
0
LAYER
5
75
100
AcDbSymbolTableRecord
100
AcDbLayerTableRecord
2
1
70
0
62
4
6
Continuous
290
1
370
-3
390
0
0
LAYER
5
7F
100
AcDbSymbolTableRecord
100
AcDbLayerTableRecord
2
4
70
0
62
-2
6
CENTER
290
1
370
-3
390
0
0
LAYER
5
AA
100
AcDbSymbolTableRecord
100
AcDbLayerTableRecord
2
2
70
0
62
7
6
Continuous
290
1
370
-3
390
0
0
LAYER
5
F3
100
AcDbSymbolTableRecord
100
AcDbLayerTableRecord
2
Defpoints
70
0
62
7
6
Continuous
290
0
370
-3
390
0
0
LAYER
5
1b1
100
AcDbSymbolTableRecord
100
AcDbLayerTableRecord
2
SK4
70
0
62
2
6
CENTER
290
1
370
-3
390
0
0
LAYER
5
1b2
100
AcDbSymbolTableRecord
100
AcDbLayerTableRecord
2
SK1
70
0
62
4
6
Continuous
290
1
370
-3
390
0
0
LAYER
5
1b3
100
AcDbSymbolTableRecord
100
AcDbLayerTableRecord
2
SK2
70
0
62
7
6
Continuous
290
1
370
-3
390
0
0
LAYER
5
1b4
100
AcDbSymbolTableRecord
100
AcDbLayerTableRecord
2
CUT
70
0
62
-1
6
Continuous
290
1
370
-3
390
0
0
LAYER
5
1b5
100
AcDbSymbolTableRecord
100
AcDbLayerTableRecord
2
NOCUT
70
0
62
-7
6
Continuous
290
1
370
-3
390
0
0
LAYER
5
1b6
100
AcDbSymbolTableRecord
100
AcDbLayerTableRecord
2
SK6
70
0
62
5
6
Continuous
290
1
370
-3
390
0
0
ENDTAB
0
TABLE
2
STYLE
5
1ca
100
AcDbSymbolTable
0
STYLE
5
11
100
AcDbSymbolTableRecord
100
AcDbTextStyleTableRecord
2
Standard
3
txt
70
0
71
0
40
0
41
1
42
0
50
0
0
STYLE
5
CF
100
AcDbSymbolTableRecord
100
AcDbTextStyleTableRecord
2
iso_b_vert
3
simplex.shx
70
0
71
0
40
0
41
1
42
0
50
0
0
STYLE
5
D0
100
AcDbSymbolTableRecord
100
AcDbTextStyleTableRecord
2
DWGDirectTextStyle
3
simplex
70
0
71
0
40
0
41
1
42
0
50
0
0
ENDTAB
0
TABLE
2
DIMSTYLE
5
1cb
100
AcDbSymbolTable
100
AcDbDimStyleTable
0
DIMSTYLE
105
27
100
AcDbSymbolTableRecord
100
AcDbDimStyleTableRecord
2
Standard
70
0
3
<>
41
0.18
42
0.0625
44
0.18
140
0.18
147
0.09
73
0
74
0
77
1
271
2
275
0
278
52
280
0
340
11
0
ENDTAB
0
TABLE
2
VIEW
5
1cc
100
AcDbSymbolTable
0
ENDTAB
0
TABLE
2
UCS
5
1cd
100
AcDbSymbolTable
0
ENDTAB
0
TABLE
2
APPID
5
1ce
100
AcDbSymbolTable
0
APPID
5
12
100
AcDbSymbolTableRecord
100
AcDbRegAppTableRecord
2
ACAD
70
0
0
APPID
5
EF
100
AcDbSymbolTableRecord
100
AcDbRegAppTableRecord
2
ACAD_DSTYLE_DIMBREAK
70
0
0
APPID
5
170
100
AcDbSymbolTableRecord
100
AcDbRegAppTableRecord
2
ACAD_DSTYLE_DIM_LINETYPE
70
0
0
APPID
5
171
100
AcDbSymbolTableRecord
100
AcDbRegAppTableRecord
2
ACAD_DSTYLE_DIM_EXT1_LINETYPE
70
0
0
APPID
5
172
100
AcDbSymbolTableRecord
100
AcDbRegAppTableRecord
2
ACAD_DSTYLE_DIM_EXT2_LINETYPE
70
0
0
APPID
5
1AD
100
AcDbSymbolTableRecord
100
AcDbRegAppTableRecord
2
ACAD_MLEADERVER
70
0
0
ENDTAB
0
TABLE
2
BLOCK_RECORD
5
1cf
100
AcDbSymbolTable
0
BLOCK_RECORD
5
1F
100
AcDbSymbolTableRecord
100
AcDbBlockTableRecord
2
*Model_Space
340
0
70
0
0
BLOCK_RECORD
5
1B
100
AcDbSymbolTableRecord
100
AcDbBlockTableRecord
2
*Paper_Space
340
0
70
0
0
BLOCK_RECORD
5
23
100
AcDbSymbolTableRecord
100
AcDbBlockTableRecord
2
*Paper_Space0
340
0
70
0
0
BLOCK_RECORD
5
F4
100
AcDbSymbolTableRecord
100
AcDbBlockTableRecord
2
*D1
340
0
70
0
0
BLOCK_RECORD
5
100
100
AcDbSymbolTableRecord
100
AcDbBlockTableRecord
2
_U0
340
0
70
0
0
BLOCK_RECORD
5
10C
100
AcDbSymbolTableRecord
100
AcDbBlockTableRecord
2
*D3
340
0
70
0
0
BLOCK_RECORD
5
118
100
AcDbSymbolTableRecord
100
AcDbBlockTableRecord
2
_U1
340
0
70
0
0
BLOCK_RECORD
5
124
100
AcDbSymbolTableRecord
100
AcDbBlockTableRecord
2
*D5
340
0
70
0
0
BLOCK_RECORD
5
130
100
AcDbSymbolTableRecord
100
AcDbBlockTableRecord
2
_U2
340
0
70
0
0
BLOCK_RECORD
5
13C
100
AcDbSymbolTableRecord
100
AcDbBlockTableRecord
2
*D7
340
0
70
0
0
BLOCK_RECORD
5
149
100
AcDbSymbolTableRecord
100
AcDbBlockTableRecord
2
_U3
340
0
70
0
0
ENDTAB
0
ENDSEC
0
SECTION
2
BLOCKS
0
BLOCK
5
20
100
AcDbEntity
8
0
100
AcDbBlockBegin
2
*Model_Space
70
0
10
0
20
0
30
0
3
*Model_Space
0
ENDBLK
5
21
100
AcDbEntity
8
0
100
AcDbBlockEnd
0
BLOCK
5
1C
100
AcDbEntity
8
0
100
AcDbBlockBegin
2
*Paper_Space
70
0
10
0
20
0
30
0
3
*Paper_Space
0
ENDBLK
5
1D
100
AcDbEntity
8
0
100
AcDbBlockEnd
0
BLOCK
5
24
100
AcDbEntity
8
0
100
AcDbBlockBegin
2
*Paper_Space0
70
0
10
0
20
0
30
0
3
*Paper_Space0
0
ENDBLK
5
25
100
AcDbEntity
8
0
100
AcDbBlockEnd
0
BLOCK
5
F5
100
AcDbEntity
8
0
100
AcDbBlockBegin
2
*D1
70
1
10
0
20
0
30
0
3
*D1
0
LINE
5
F7
100
AcDbEntity
8
0
62
256
6
ByLayer
370
-2
48
1
60
0
100
AcDbLine
10
-20
20
-2.2875
30
0
11
-20
21
-49.933582
31
0
39
0
210
0
220
0
230
1
0
LINE
5
F8
100
AcDbEntity
8
0
62
256
6
ByLayer
370
-2
48
1
60
0
100
AcDbLine
10
20
20
-1.5875
30
0
11
20
21
-49.933582
31
0
39
0
210
0
220
0
230
1
0
LINE
5
F9
100
AcDbEntity
8
0
62
256
6
ByLayer
370
-2
48
1
60
0
100
AcDbLine
10
-16.5
20
-47.933582
30
0
11
16.5
21
-47.933582
31
0
39
0
210
0
220
0
230
1
0
SOLID
5
FA
100
AcDbEntity
8
0
62
256
6
ByLayer
370
-1
48
1
60
0
100
AcDbTrace
10
-16.5
20
-47.350249
30
0
11
-16.5
21
-48.516916
31
0
12
-20
22
-47.933582
32
0
13
-20
23
-47.933582
33
0
39
0
210
0
220
0
230
1
0
SOLID
5
FB
100
AcDbEntity
8
0
62
256
6
ByLayer
370
-1
48
1
60
0
100
AcDbTrace
10
16.5
20
-48.516916
30
0
11
16.5
21
-47.350249
31
0
12
20
22
-47.933582
32
0
13
20
23
-47.933582
33
0
39
0
210
0
220
0
230
1
0
MTEXT
5
FC
100
AcDbEntity
8
0
62
256
6
ByLayer
370
18
48
1
60
0
100
AcDbMText
10
0
20
-41.933582
30
0
210
0
220
0
230
1
1
\A1;40
40
3
41
0
44
1
50
0
71
5
72
5
7
iso_b_vert
0
POINT
5
FD
100
AcDbEntity
8
Defpoints
62
0
6
ByLayer
370
-1
48
1
60
0
100
AcDbPoint
10
-20
20
-0.7
30
0
39
0
210
0
220
0
230
1
50
360
0
POINT
5
FE
100
AcDbEntity
8
Defpoints
62
0
6
ByLayer
370
-1
48
1
60
0
100
AcDbPoint
10
20
20
0
30
0
39
0
210
0
220
0
230
1
50
360
0
POINT
5
FF
100
AcDbEntity
8
Defpoints
62
0
6
ByLayer
370
-1
48
1
60
0
100
AcDbPoint
10
20
20
-47.933582
30
0
39
0
210
0
220
0
230
1
50
360
0
ENDBLK
5
F6
100
AcDbEntity
8
0
100
AcDbBlockEnd
0
BLOCK
5
107
100
AcDbEntity
8
0
100
AcDbBlockBegin
2
_U0
70
0
10
0
20
0
30
0
3
_U0
0
MTEXT
5
101
100
AcDbEntity
8
SK2
62
256
6
ByLayer
370
18
48
1
60
0
100
AcDbMText
10
-4.640313
20
-47.048468
30
0
210
0
220
0
230
1
1
\W0.7694;40.00
40
3
41
0
44
1.084337
50
0
71
7
72
5
7
iso_b_vert
0
LINE
5
102
100
AcDbEntity
8
SK2
62
256
6
ByLayer
370
13
48
1
60
0
100
AcDbLine
10
-20
20
-2.2875
30
0
11
-20
21
-49.933582
31
0
39
0
210
0
220
0
230
1
0
LINE
5
103
100
AcDbEntity
8
SK2
62
256
6
ByLayer
370
13
48
1
60
0
100
AcDbLine
10
20
20
-1.5875
30
0
11
20
21
-49.933582
31
0
39
0
210
0
220
0
230
1
0
LINE
5
104
100
AcDbEntity
8
SK2
62
256
6
ByLayer
370
13
48
1
60
0
100
AcDbLine
10
-20
20
-47.933582
30
0
11
20
21
-47.933582
31
0
39
0
210
0
220
0
230
1
0
SOLID
5
105
100
AcDbEntity
8
SK2
62
256
6
ByLayer
370
18
48
1
60
0
100
AcDbTrace
10
-20
20
-47.933582
30
0
11
-16.500002
21
-47.472799
31
0
12
-16.499998
22
-48.394366
32
0
13
-16.499998
23
-48.394366
33
0
39
0
210
0
220
0
230
1
0
SOLID
5
106
100
AcDbEntity
8
SK2
62
256
6
ByLayer
370
18
48
1
60
0
100
AcDbTrace
10
20
20
-47.933582
30
0
11
16.500002
21
-48.394366
31
0
12
16.499998
22
-47.472799
32
0
13
16.499998
23
-47.472799
33
0
39
0
210
0
220
0
230
1
0
ENDBLK
5
108
100
AcDbEntity
8
0
100
AcDbBlockEnd
0
BLOCK
5
10D
100
AcDbEntity
8
0
100
AcDbBlockBegin
2
*D3
70
1
10
0
20
0
30
0
3
*D3
0
LINE
5
10F
100
AcDbEntity
8
0
62
256
6
ByLayer
370
-2
48
1
60
0
100
AcDbLine
10
20
20
-1.5875
30
0
11
20
21
-39.933582
31
0
39
0
210
0
220
0
230
1
0
LINE
5
110
100
AcDbEntity
8
0
62
256
6
ByLayer
370
-2
48
1
60
0
100
AcDbLine
10
2
20
-2.2875
30
0
11
2
21
-39.933582
31
0
39
0
210
0
220
0
230
1
0
LINE
5
111
100
AcDbEntity
8
0
62
256
6
ByLayer
370
-2
48
1
60
0
100
AcDbLine
10
16.5
20
-37.933582
30
0
11
5.5
21
-37.933582
31
0
39
0
210
0
220
0
230
1
0
SOLID
5
112
100
AcDbEntity
8
0
62
256
6
ByLayer
370
-1
48
1
60
0
100
AcDbTrace
10
16.5
20
-38.516916
30
0
11
16.5
21
-37.350249
31
0
12
20
22
-37.933582
32
0
13
20
23
-37.933582
33
0
39
0
210
0
220
0
230
1
0
SOLID
5
113
100
AcDbEntity
8
0
62
256
6
ByLayer
370
-1
48
1
60
0
100
AcDbTrace
10
5.5
20
-37.350249
30
0
11
5.5
21
-38.516916
31
0
12
2
22
-37.933582
32
0
13
2
23
-37.933582
33
0
39
0
210
0
220
0
230
1
0
MTEXT
5
114
100
AcDbEntity
8
0
62
256
6
ByLayer
370
18
48
1
60
0
100
AcDbMText
10
11
20
-31.933582
30
0
210
0
220
0
230
1
1
\A1;18
40
3
41
0
44
1
50
0
71
5
72
5
7
iso_b_vert
0
POINT
5
115
100
AcDbEntity
8
Defpoints
62
0
6
ByLayer
370
-1
48
1
60
0
100
AcDbPoint
10
20
20
0
30
0
39
0
210
0
220
0
230
1
50
360
0
POINT
5
116
100
AcDbEntity
8
Defpoints
62
0
6
ByLayer
370
-1
48
1
60
0
100
AcDbPoint
10
2
20
-0.7
30
0
39
0
210
0
220
0
230
1
50
360
0
POINT
5
117
100
AcDbEntity
8
Defpoints
62
0
6
ByLayer
370
-1
48
1
60
0
100
AcDbPoint
10
2
20
-37.933582
30
0
39
0
210
0
220
0
230
1
50
360
0
ENDBLK
5
10E
100
AcDbEntity
8
0
100
AcDbBlockEnd
0
BLOCK
5
11F
100
AcDbEntity
8
0
100
AcDbBlockBegin
2
_U1
70
0
10
0
20
0
30
0
3
_U1
0
MTEXT
5
119
100
AcDbEntity
8
2
62
256
6
ByLayer
370
18
48
1
60
0
100
AcDbMText
10
6.892572
20
-37.048468
30
0
210
0
220
0
230
1
1
\W0.6864;18.00
40
3
41
0
44
1.084337
50
0
71
7
72
5
7
iso_b_vert
0
LINE
5
11A
100
AcDbEntity
8
2
62
256
6
ByLayer
370
13
48
1
60
0
100
AcDbLine
10
20
20
-1.5875
30
0
11
20
21
-39.933582
31
0
39
0
210
0
220
0
230
1
0
LINE
5
11B
100
AcDbEntity
8
2
62
256
6
ByLayer
370
13
48
1
60
0
100
AcDbLine
10
2
20
-2.2875
30
0
11
2
21
-39.933582
31
0
39
0
210
0
220
0
230
1
0
LINE
5
11C
100
AcDbEntity
8
2
62
256
6
ByLayer
370
13
48
1
60
0
100
AcDbLine
10
20
20
-37.933582
30
0
11
2
21
-37.933582
31
0
39
0
210
0
220
0
230
1
0
SOLID
5
11D
100
AcDbEntity
8
2
62
256
6
ByLayer
370
18
48
1
60
0
100
AcDbTrace
10
20
20
-37.933582
30
0
11
16.500002
21
-38.394366
31
0
12
16.499998
22
-37.472799
32
0
13
16.499998
23
-37.472799
33
0
39
0
210
0
220
0
230
1
0
SOLID
5
11E
100
AcDbEntity
8
2
62
256
6
ByLayer
370
18
48
1
60
0
100
AcDbTrace
10
2
20
-37.933582
30
0
11
5.499998
21
-37.472799
31
0
12
5.500002
22
-38.394366
32
0
13
5.500002
23
-38.394366
33
0
39
0
210
0
220
0
230
1
0
ENDBLK
5
120
100
AcDbEntity
8
0
100
AcDbBlockEnd
0
BLOCK
5
125
100
AcDbEntity
8
0
100
AcDbBlockBegin
2
*D5
70
1
10
0
20
0
30
0
3
*D5
0
LINE
5
127
100
AcDbEntity
8
0
62
256
6
ByLayer
370
-2
48
1
60
0
100
AcDbLine
10
-20
20
-2.2875
30
0
11
-20
21
-34.933582
31
0
39
0
210
0
220
0
230
1
0
LINE
5
128
100
AcDbEntity
8
0
62
256
6
ByLayer
370
-2
48
1
60
0
100
AcDbLine
10
0
20
-2.2875
30
0
11
0
21
-34.933582
31
0
39
0
210
0
220
0
230
1
0
LINE
5
129
100
AcDbEntity
8
0
62
256
6
ByLayer
370
-2
48
1
60
0
100
AcDbLine
10
-16.5
20
-32.933582
30
0
11
-3.5
21
-32.933582
31
0
39
0
210
0
220
0
230
1
0
SOLID
5
12A
100
AcDbEntity
8
0
62
256
6
ByLayer
370
-1
48
1
60
0
100
AcDbTrace
10
-16.5
20
-32.350249
30
0
11
-16.5
21
-33.516916
31
0
12
-20
22
-32.933582
32
0
13
-20
23
-32.933582
33
0
39
0
210
0
220
0
230
1
0
SOLID
5
12B
100
AcDbEntity
8
0
62
256
6
ByLayer
370
-1
48
1
60
0
100
AcDbTrace
10
-3.5
20
-33.516916
30
0
11
-3.5
21
-32.350249
31
0
12
0
22
-32.933582
32
0
13
0
23
-32.933582
33
0
39
0
210
0
220
0
230
1
0
MTEXT
5
12C
100
AcDbEntity
8
0
62
256
6
ByLayer
370
18
48
1
60
0
100
AcDbMText
10
-10
20
-26.933582
30
0
210
0
220
0
230
1
1
\A1;20
40
3
41
0
44
1
50
0
71
5
72
5
7
iso_b_vert
0
POINT
5
12D
100
AcDbEntity
8
Defpoints
62
0
6
ByLayer
370
-1
48
1
60
0
100
AcDbPoint
10
-20
20
-0.7
30
0
39
0
210
0
220
0
230
1
50
360
0
POINT
5
12E
100
AcDbEntity
8
Defpoints
62
0
6
ByLayer
370
-1
48
1
60
0
100
AcDbPoint
10
0
20
-0.7
30
0
39
0
210
0
220
0
230
1
50
360
0
POINT
5
12F
100
AcDbEntity
8
Defpoints
62
0
6
ByLayer
370
-1
48
1
60
0
100
AcDbPoint
10
0
20
-32.933582
30
0
39
0
210
0
220
0
230
1
50
360
0
ENDBLK
5
126
100
AcDbEntity
8
0
100
AcDbBlockEnd
0
BLOCK
5
137
100
AcDbEntity
8
0
100
AcDbBlockBegin
2
_U2
70
0
10
0
20
0
30
0
3
_U2
0
MTEXT
5
131
100
AcDbEntity
8
SK2
62
256
6
ByLayer
370
18
48
1
60
0
100
AcDbMText
10
-14.48237
20
-32.048468
30
0
210
0
220
0
230
1
1
\W0.7468;20.00
40
3
41
0
44
1.084337
50
0
71
7
72
5
7
iso_b_vert
0
LINE
5
132
100
AcDbEntity
8
SK2
62
256
6
ByLayer
370
13
48
1
60
0
100
AcDbLine
10
-20
20
-2.2875
30
0
11
-20
21
-34.933582
31
0
39
0
210
0
220
0
230
1
0
LINE
5
133
100
AcDbEntity
8
SK2
62
256
6
ByLayer
370
13
48
1
60
0
100
AcDbLine
10
0
20
-2.2875
30
0
11
0
21
-34.933582
31
0
39
0
210
0
220
0
230
1
0
LINE
5
134
100
AcDbEntity
8
SK2
62
256
6
ByLayer
370
13
48
1
60
0
100
AcDbLine
10
-20
20
-32.933582
30
0
11
0
21
-32.933582
31
0
39
0
210
0
220
0
230
1
0
SOLID
5
135
100
AcDbEntity
8
SK2
62
256
6
ByLayer
370
18
48
1
60
0
100
AcDbTrace
10
-20
20
-32.933582
30
0
11
-16.500002
21
-32.472799
31
0
12
-16.499998
22
-33.394366
32
0
13
-16.499998
23
-33.394366
33
0
39
0
210
0
220
0
230
1
0
SOLID
5
136
100
AcDbEntity
8
SK2
62
256
6
ByLayer
370
18
48
1
60
0
100
AcDbTrace
10
0
20
-32.933582
30
0
11
-3.499998
21
-33.394366
31
0
12
-3.500002
22
-32.472799
32
0
13
-3.500002
23
-32.472799
33
0
39
0
210
0
220
0
230
1
0
ENDBLK
5
138
100
AcDbEntity
8
0
100
AcDbBlockEnd
0
BLOCK
5
13D
100
AcDbEntity
8
0
100
AcDbBlockBegin
2
*D7
70
1
10
0
20
0
30
0
3
*D7
0
LINE
5
13F
100
AcDbEntity
8
0
62
256
6
ByLayer
370
-2
48
1
60
0
100
AcDbLine
10
20
20
-1.5875
30
0
11
20
21
-32.933582
31
0
39
0
210
0
220
0
230
1
0
LINE
5
140
100
AcDbEntity
8
0
62
256
6
ByLayer
370
-2
48
1
60
0
100
AcDbLine
10
6.5
20
-2.2875
30
0
11
6.5
21
-32.933582
31
0
39
0
210
0
220
0
230
1
0
LINE
5
141
100
AcDbEntity
8
0
62
256
6
ByLayer
370
-2
48
1
60
0
100
AcDbLine
10
23.5
20
-30.933582
30
0
11
27
21
-30.933582
31
0
39
0
210
0
220
0
230
1
0
LINE
5
142
100
AcDbEntity
8
0
62
256
6
ByLayer
370
-2
48
1
60
0
100
AcDbLine
10
3
20
-30.933582
30
0
11
-0.5
21
-30.933582
31
0
39
0
210
0
220
0
230
1
0
SOLID
5
143
100
AcDbEntity
8
0
62
256
6
ByLayer
370
-1
48
1
60
0
100
AcDbTrace
10
23.5
20
-30.350249
30
0
11
23.5
21
-31.516916
31
0
12
20
22
-30.933582
32
0
13
20
23
-30.933582
33
0
39
0
210
0
220
0
230
1
0
SOLID
5
144
100
AcDbEntity
8
0
62
256
6
ByLayer
370
-1
48
1
60
0
100
AcDbTrace
10
3
20
-31.516916
30
0
11
3
21
-30.350249
31
0
12
6.5
22
-30.933582
32
0
13
6.5
23
-30.933582
33
0
39
0
210
0
220
0
230
1
0
MTEXT
5
145
100
AcDbEntity
8
0
62
256
6
ByLayer
370
18
48
1
60
0
100
AcDbMText
10
13.25
20
-24.933582
30
0
210
0
220
0
230
1
1
\A1;13.5
40
3
41
0
44
1
50
0
71
5
72
5
7
iso_b_vert
0
POINT
5
146
100
AcDbEntity
8
Defpoints
62
0
6
ByLayer
370
-1
48
1
60
0
100
AcDbPoint
10
20
20
0
30
0
39
0
210
0
220
0
230
1
50
360
0
POINT
5
147
100
AcDbEntity
8
Defpoints
62
0
6
ByLayer
370
-1
48
1
60
0
100
AcDbPoint
10
6.5
20
-0.7
30
0
39
0
210
0
220
0
230
1
50
360
0
POINT
5
148
100
AcDbEntity
8
Defpoints
62
0
6
ByLayer
370
-1
48
1
60
0
100
AcDbPoint
10
6.5
20
-30.933582
30
0
39
0
210
0
220
0
230
1
50
360
0
ENDBLK
5
13E
100
AcDbEntity
8
0
100
AcDbBlockEnd
0
BLOCK
5
150
100
AcDbEntity
8
0
100
AcDbBlockBegin
2
_U3
70
0
10
0
20
0
30
0
3
_U3
0
MTEXT
5
14A
100
AcDbEntity
8
2
62
256
6
ByLayer
370
18
48
1
60
0
100
AcDbMText
10
9.142572
20
-30.048468
30
0
210
0
220
0
230
1
1
\W0.6864;13.50
40
3
41
0
44
1.084337
50
0
71
7
72
5
7
iso_b_vert
0
LINE
5
14B
100
AcDbEntity
8
2
62
256
6
ByLayer
370
13
48
1
60
0
100
AcDbLine
10
20
20
-1.5875
30
0
11
20
21
-32.933582
31
0
39
0
210
0
220
0
230
1
0
LINE
5
14C
100
AcDbEntity
8
2
62
256
6
ByLayer
370
13
48
1
60
0
100
AcDbLine
10
6.5
20
-2.2875
30
0
11
6.5
21
-32.933582
31
0
39
0
210
0
220
0
230
1
0
LINE
5
14D
100
AcDbEntity
8
2
62
256
6
ByLayer
370
13
48
1
60
0
100
AcDbLine
10
20
20
-30.933582
30
0
11
6.5
21
-30.933582
31
0
39
0
210
0
220
0
230
1
0
SOLID
5
14E
100
AcDbEntity
8
2
62
256
6
ByLayer
370
18
48
1
60
0
100
AcDbTrace
10
20
20
-30.933582
30
0
11
16.500002
21
-31.394366
31
0
12
16.499998
22
-30.472799
32
0
13
16.499998
23
-30.472799
33
0
39
0
210
0
220
0
230
1
0
SOLID
5
14F
100
AcDbEntity
8
2
62
256
6
ByLayer
370
18
48
1
60
0
100
AcDbTrace
10
6.5
20
-30.933582
30
0
11
9.999998
21
-30.472799
31
0
12
10.000002
22
-31.394366
32
0
13
10.000002
23
-31.394366
33
0
39
0
210
0
220
0
230
1
0
ENDBLK
5
151
100
AcDbEntity
8
0
100
AcDbBlockEnd
0
ENDSEC
0
SECTION
2
ENTITIES
0
ARC
5
BB
100
AcDbEntity
8
2
62
256
6
ByLayer
370
13
48
1
60
0
100
AcDbCircle
39
0
10
20
20
0
30
0
40
22
210
0
220
0
230
1
100
AcDbArc
50
7.83748
51
61.596605
0
ARC
5
BC
100
AcDbEntity
8
2
62
256
6
ByLayer
370
13
48
1
60
0
100
AcDbCircle
39
0
10
20
20
0
30
0
40
22
210
0
220
0
230
1
100
AcDbArc
50
298.403395
51
352.16252
0
POINT
5
70
100
AcDbEntity
8
81
62
256
6
ByLayer
370
18
48
1
60
0
100
AcDbPoint
10
20
20
0
30
0
39
0
210
0
220
0
230
1
50
360
0
POINT
5
72
100
AcDbEntity
8
80
62
256
6
ByLayer
370
18
48
1
60
0
100
AcDbPoint
10
0
20
0
30
0
39
0
210
0
220
0
230
1
50
360
0
POINT
5
74
100
AcDbEntity
8
1
62
256
6
ByLayer
370
18
48
1
60
1
100
AcDbPoint
10
-20
20
-0.7
30
0
39
0
210
0
220
0
230
1
50
360
0
POINT
5
76
100
AcDbEntity
8
1
62
256
6
ByLayer
370
18
48
1
60
1
100
AcDbPoint
10
20
20
0
30
0
39
0
210
0
220
0
230
1
50
360
0
POINT
5
77
100
AcDbEntity
8
1
62
256
6
ByLayer
370
18
48
1
60
1
100
AcDbPoint
10
20
20
0
30
0
39
0
210
0
220
0
230
1
50
360
0
POINT
5
78
100
AcDbEntity
8
1
62
256
6
ByLayer
370
18
48
1
60
1
100
AcDbPoint
10
2
20
-0.7
30
0
39
0
210
0
220
0
230
1
50
360
0
POINT
5
79
100
AcDbEntity
8
1
62
256
6
ByLayer
370
18
48
1
60
1
100
AcDbPoint
10
-20
20
-0.7
30
0
39
0
210
0
220
0
230
1
50
360
0
POINT
5
7A
100
AcDbEntity
8
1
62
256
6
ByLayer
370
18
48
1
60
1
100
AcDbPoint
10
0
20
-0.7
30
0
39
0
210
0
220
0
230
1
50
360
0
POINT
5
7B
100
AcDbEntity
8
1
62
256
6
ByLayer
370
18
48
1
60
1
100
AcDbPoint
10
20
20
0
30
0
39
0
210
0
220
0
230
1
50
360
0
POINT
5
7C
100
AcDbEntity
8
1
62
256
6
ByLayer
370
18
48
1
60
1
100
AcDbPoint
10
6.5
20
-0.7
30
0
39
0
210
0
220
0
230
1
50
360
0
SPLINE
5
BD
100
AcDbEntity
8
CUT
62
256
6
ByLayer
370
18
48
1
60
0
100
AcDbSpline
70
2053
71
3
72
17
73
13
40
0
40
0
40
0
40
0
40
0.480216229323674
40
0.480216229323674
40
0.480216229323674
40
0.504941298516158
40
0.504941298516158
40
0.504941298516158
40
0.971692219689643
40
0.971692219689643
40
0.971692219689643
40
1
40
1
40
1
40
1
41
1
10
20
20
0
30
0
41
1
10
15.5
20
0
30
0
41
1
10
11
20
0
30
0
41
1
10
6.5
20
0
30
0
41
1
10
6.5
20
0.231693151097602
30
0
41
1
10
6.5
20
0.463386302195175
30
0
41
1
10
6.49999999999989
20
0.695079453292777
30
0
41
1
10
10.8738192700092
20
0.696719635518917
30
0
41
1
10
15.2476385400187
20
0.698359817745086
30
0
41
1
10
19.6214578100282
20
0.699999999971226
30
0
41
1
10
19.7476385400188
20
0.466666666647484
30
0
41
1
10
19.8738192700094
20
0.233333333323742
30
0
41
1
10
20
20
0
30
0
0
SPLINE
5
BF
100
AcDbEntity
8
NOCUT
62
256
6
ByLayer
370
18
48
1
60
0
100
AcDbSpline
70
2053
71
3
72
26
73
22
40
0
40
0
40
0
40
0
40
0.48769922391768
40
0.48769922391768
40
0.48769922391768
40
0.500491288441757
40
0.500491288441757
40
0.500491288441757
40
0.618275260236081
40
0.618275260236081
40
0.618275260236081
40
0.620120559397518
40
0.620120559397518
40
0.620120559397518
40
0.986355070942789
40
0.986355070942789
40
0.986355070942789
40
0.98895775342069
40
0.98895775342069
40
0.98895775342069
40
1
40
1
40
1
40
1
41
1
10
-20
20
0
30
0
41
1
10
-11.1666666666667
20
0
30
0
41
1
10
-2.33333333333334
20
0
30
0
41
1
10
6.5
20
0
30
0
41
1
10
6.5
20
0.231693151097602
30
0
41
1
10
6.5
20
0.463386302195175
30
0
41
1
10
6.5
20
0.695079453292777
30
0
41
1
10
4.36666666666667
20
0.694279453292836
30
0
41
1
10
2.23333333333332
20
0.693479453292866
30
0
41
1
10
0.100000000009373
20
0.692679453292243
30
0
41
1
10
0.0666666666791969
20
0.695119635527703
30
0
41
1
10
0.0333333333395842
20
0.697559817763846
30
0
41
1
10
0
20
0.699999999999989
30
0
41
1
10
-6.63333333333333
20
0.699999999999989
30
0
41
1
10
-13.2666666666666
20
0.699999999999989
30
0
41
1
10
-19.9
20
0.699999999999989
30
0
41
1
10
-19.9333333333333
20
0.666666666666657
30
0
41
1
10
-19.9666666666667
20
0.633333333333326
30
0
41
1
10
-20
20
0.599999999999994
30
0
41
1
10
-20
20
0.400000000000006
30
0
41
1
10
-20
20
0.199999999999989
30
0
41
1
10
-20
20
0
30
0
0
SPLINE
5
C1
100
AcDbEntity
8
1
62
256
6
ByLayer
370
18
48
1
60
0
100
AcDbSpline
70
4
71
3
72
50
73
46
40
0
40
0
40
0
40
0
40
0.124999999999974
40
0.124999999999974
40
0.249999999999948
40
0.249999999999948
40
0.312499999999935
40
0.312499999999935
40
0.374999999999921
40
0.374999999999921
40
0.437499999999908
40
0.437499999999908
40
0.453124999999908
40
0.453124999999908
40
0.468749999999907
40
0.468749999999907
40
0.484374999999907
40
0.484374999999907
40
0.492187499999907
40
0.492187499999907
40
0.499999999999906
40
0.499999999999906
40
0.507812499999906
40
0.507812499999906
40
0.515624999999906
40
0.515624999999906
40
0.531249999999909
40
0.531249999999909
40
0.562499999999914
40
0.562499999999914
40
0.59374999999992
40
0.59374999999992
40
0.624999999999926
40
0.624999999999926
40
0.687499999999937
40
0.687499999999937
40
0.749999999999948
40
0.749999999999948
40
0.812499999999959
40
0.812499999999959
40
0.843749999999965
40
0.843749999999965
40
0.874999999999971
40
0.874999999999971
40
1
40
1
40
1
40
1
41
1
10
19.6214578100282
20
0.677693220884265
30
0
41
1
10
19.65047589696
20
0.624711510562179
30
0
41
1
10
19.6793370664207
20
0.571340261028837
30
0
41
1
10
19.7366099006025
20
0.463993894003011
30
0
41
1
10
19.7650660371411
20
0.410013601841939
30
0
41
1
10
19.8067475802048
20
0.328477163427351
30
0
41
1
10
19.8204365092858
20
0.301170913406935
30
0
41
1
10
19.8474917554661
20
0.24645337712434
30
0
41
1
10
19.8608990049927
20
0.219096134383705
30
0
41
1
10
19.8871820159761
20
0.164329665681265
30
0
41
1
10
19.9000954957727
20
0.136899984397928
30
0
41
1
10
19.9151466530327
20
0.102371590681941
30
0
41
1
10
19.9180996405435
20
0.0954511078865323
30
0
41
1
10
19.9238476734275
20
0.0815717739834554
30
0
41
1
10
19.9266487718833
20
0.0746247639662556
30
0
41
1
10
19.9319626974332
20
0.0606250712633596
30
0
41
1
10
19.9345245553997
20
0.0535480793786576
30
0
41
1
10
19.9373946377715
20
0.0425702511270174
30
0
41
1
10
19.9381798298047
20
0.0388192006344923
30
0
41
1
10
19.939201831219
20
0.0312388055400277
30
0
41
1
10
19.9394277354347
20
0.0274997150121692
30
0
41
1
10
19.9392944866227
20
0.0201214530381435
30
0
41
1
10
19.938927093654
20
0.0164841755701275
30
0
41
1
10
19.9377927574157
20
0.0095830925085068
30
0
41
1
10
19.9370304489281
20
0.0062630649726714
30
0
41
1
10
19.9344165753857
20
-0.0035312031754415
30
0
41
1
10
19.9322610926774
20
-0.0098851285245871
30
0
41
1
10
19.9252636748983
20
-0.0286534746339555
30
0
41
1
10
19.9198091022129
20
-0.0407347301913603
30
0
41
1
10
19.9081041366666
20
-0.064213875955403
30
0
41
1
10
19.9018446907054
20
-0.0756100502455581
30
0
41
1
10
19.8888960238841
20
-0.0978441777265289
30
0
41
1
10
19.882201665408
20
-0.108681429162118
30
0
41
1
10
19.8617306000547
20
-0.140459191464515
30
0
41
1
10
19.8477443860819
20
-0.16042374994538
30
0
41
1
10
19.8196164800447
20
-0.198221272894159
30
0
41
1
10
19.8054537034667
20
-0.216048328065653
30
0
41
1
10
19.777041570798
20
-0.24967627938139
30
0
41
1
10
19.762788249348
20
-0.265475755439752
30
0
41
1
10
19.7413359802089
20
-0.287664627350836
30
0
41
1
10
19.7341610961771
20
-0.2948189919247
30
0
41
1
10
19.7198823001465
20
-0.308524079428793
30
0
41
1
10
19.7127693168916
20
-0.315085022074101
30
0
41
1
10
19.6773189587913
20
-0.346457282554752
30
0
41
1
10
19.6493274698475
20
-0.367005651709491
30
0
41
1
10
19.6214578100282
20
-0.382989655327151
30
0
0
SPLINE
5
C2
100
AcDbEntity
8
1
62
256
6
ByLayer
370
18
48
1
60
0
100
AcDbSpline
70
4
71
5
72
123
73
117
40
0
40
0
40
0
40
0
40
0
40
0
40
0.0054191964917197
40
0.0535041554255233
40
0.0993738503846354
40
0.138376893387729
40
0.18103139706388
40
0.229295236610106
40
0.278220421276547
40
0.326773457333481
40
0.375036026708522
40
0.420193498923944
40
0.451451699983158
40
0.457020805867583
40
0.459805358809796
40
0.463982188223115
40
0.468159017636434
40
0.471842572747611
40
0.4736843503032
40
0.475526127858789
40
0.477367905414377
40
0.479209682969966
40
0.481051460525555
40
0.482893238081143
40
0.484211615257342
40
0.484870803845441
40
0.48552999243354
40
0.486189181021639
40
0.486848369609738
40
0.486911149475272
40
0.488166746785937
40
0.489485123962135
40
0.490803501138334
40
0.492121878314532
40
0.493440255490731
40
0.496701937029345
40
0.49996361856796
40
0.501054899097409
40
0.501834385189872
40
0.502146179626858
40
0.503237460156307
40
0.504328740685756
40
0.505221339176759
40
0.506113937667762
40
0.507006536158765
40
0.507899134649768
40
0.508735475568692
40
0.509492164971527
40
0.509571816487615
40
0.510408157406539
40
0.511244498325463
40
0.51209510868224
40
0.512945719039017
40
0.513796329395794
40
0.51464693975257
40
0.515541753761979
40
0.516436567771387
40
0.516521788153235
40
0.517331381780795
40
0.518226195790203
40
0.518721236404434
40
0.519216277018666
40
0.519711317632898
40
0.52020635824713
40
0.520701398861362
40
0.521196439475594
40
0.521691480089826
40
0.522186520704058
40
0.522877738383939
40
0.52356895606382
40
0.524951391423582
40
0.525346372954943
40
0.527716262143107
40
0.530246776708927
40
0.531512033991836
40
0.532777291274746
40
0.534042548557656
40
0.534675177199111
40
0.535307805840566
40
0.53594043448202
40
0.536573063123475
40
0.53720569176493
40
0.537838320406385
40
0.538937278535307
40
0.540036236664229
40
0.54113519479315
40
0.542234152922072
40
0.543333111050993
40
0.544432069179915
40
0.546629985437758
40
0.548723239016657
40
0.548827901695602
40
0.551025817953446
40
0.553223734211289
40
0.555421650469133
40
0.561210572282587
40
0.566999494096042
40
0.578577337722952
40
0.59375380460764
40
0.631783048166741
40
0.66221749913507
40
0.691060017903491
40
0.719138403309658
40
0.746850071881798
40
0.774396801579019
40
0.801835226817085
40
0.829357449898804
40
0.856497520782758
40
0.882733068031577
40
0.908660450039116
40
0.934464840595352
40
0.96014187282745
40
0.985680819986257
40
1
40
1
40
1
40
1
40
1
40
1
41
1
10
4.17164811581031
20
-0.548709248408784
30
0
41
1
10
4.17164811581031
20
-0.547604771123986
30
0
41
1
10
4.17164811581031
20
-0.536693751385712
30
0
41
1
10
4.17164811581031
20
-0.516310742353483
30
0
41
1
10
4.17164811581034
20
-0.487623555175446
30
0
41
1
10
4.17164811581031
20
-0.44954739576022
30
0
41
1
10
4.17164811581029
20
-0.401553281054277
30
0
41
1
10
4.17164811581034
20
-0.352671313091406
30
0
41
1
10
4.17164811581031
20
-0.302575696168901
30
0
41
1
10
4.17164811581034
20
-0.249712673042495
30
0
41
1
10
4.17164811581031
20
-0.195549051706649
30
0
41
1
10
4.17164811581029
20
-0.144559288350081
30
0
41
1
10
4.17164811581031
20
-0.103110837184374
30
0
41
1
10
4.17164811581031
20
-0.0720300895916353
30
0
41
1
10
4.17164811581031
20
-0.0511638388753681
30
0
41
1
10
4.17164811581031
20
-0.0398918575607752
30
0
41
1
10
4.17164811581029
20
-0.0350967668148598
30
0
41
1
10
4.17164811581029
20
-0.031175847113559
30
0
41
1
10
4.17164811581029
20
-0.0274744102537738
30
0
41
1
10
4.17164811581031
20
-0.0243206615309077
30
0
41
1
10
4.17164811581031
20
-0.0217153562956867
30
0
41
1
10
4.17164811581031
20
-0.0195429065115036
30
0
41
1
10
4.17164811581031
20
-0.0173687622681484
30
0
41
1
10
4.17164811581034
20
-0.0153161899844179
30
0
41
1
10
4.17164811581034
20
-0.0135410815567525
30
0
41
1
10
4.17164811581034
20
-0.0120440608943682
30
0
41
1
10
4.17164811581034
20
-0.010825882749657
30
0
41
1
10
4.17164811581037
20
-0.0098873123987744
30
0
41
1
10
4.17164811581037
20
-0.0092462376959759
30
0
41
1
10
4.17164811581037
20
-0.0084630588211212
30
0
41
1
10
4.17164811581037
20
-0.007522474518936
30
0
41
1
10
4.1716481158104
20
-0.0064239190180047
30
0
41
1
10
4.1716481158104
20
-0.0051666147400908
30
0
41
1
10
4.1716481158104
20
-0.0036065981024933
30
0
41
1
10
4.17164811581043
20
-0.001562295509757
30
0
41
1
10
4.17164811581046
20
0.0009566991851955
30
0
41
1
10
4.17164811581046
20
0.0034340620950104
30
0
41
1
10
4.17164811581048
20
0.0057950250526346
30
0
41
1
10
4.17164811581048
20
0.0079241417246578
30
0
41
1
10
4.17164811581048
20
0.0095289580145845
30
0
41
1
10
4.17164811581048
20
0.0106034365227856
30
0
41
1
10
4.17164811581048
20
0.0116314961896364
30
0
41
1
10
4.17164811581048
20
0.0126900756193606
30
0
41
1
10
4.17164811581046
20
0.0138956869456592
30
0
41
1
10
4.17164811581046
20
0.0150549428086606
30
0
41
1
10
4.17164811581046
20
0.0161532680925518
30
0
41
1
10
4.17164811581043
20
0.0172198930875993
30
0
41
1
10
4.17164811581043
20
0.0180850184417238
30
0
41
1
10
4.17164811581043
20
0.0189370848007684
30
0
41
1
10
4.1716481158104
20
0.01977594622997
30
0
41
1
10
4.1716481158104
20
0.0206191827041664
30
0
41
1
10
4.1716481158104
20
0.0214867337297164
30
0
41
1
10
4.1716481158104
20
0.0225488707262969
30
0
41
1
10
4.17164811581037
20
0.0236152529636229
30
0
41
1
10
4.17164811581037
20
0.0246967429964684
30
0
41
1
10
4.17164811581037
20
0.0257894909285028
30
0
41
1
10
4.17164811581034
20
0.0266894766197083
30
0
41
1
10
4.17164811581034
20
0.0275788847313265
30
0
41
1
10
4.17164811581034
20
0.0284790484554378
30
0
41
1
10
4.17164811581034
20
0.0292782556584541
30
0
41
1
10
4.17164811581034
20
0.0299765999685633
30
0
41
1
10
4.17164811581034
20
0.0307772983015013
30
0
41
1
10
4.17164811581031
20
0.0314984875382152
30
0
41
1
10
4.17164811581031
20
0.0321189715255059
30
0
41
1
10
4.17164811581031
20
0.0327390061136725
30
0
41
1
10
4.17164811581031
20
0.0333585677705628
30
0
41
1
10
4.17164811581031
20
0.033977637502943
30
0
41
1
10
4.17164811581031
20
0.0346452260913281
30
0
41
1
10
4.17164811581031
20
0.035361182152883
30
0
41
1
10
4.17164811581031
20
0.0362977473079127
30
0
41
1
10
4.17164811581031
20
0.0372080820438327
30
0
41
1
10
4.17164811581031
20
0.0385835398508618
30
0
41
1
10
4.17164811581029
20
0.0404127868874298
30
0
41
1
10
4.17164811581029
20
0.04237927344235
30
0
41
1
10
4.17164811581029
20
0.0443119763858988
30
0
41
1
10
4.17164811581029
20
0.0464542034118267
30
0
41
1
10
4.17164811581031
20
0.0481651393932339
30
0
41
1
10
4.17164811581031
20
0.0494079140838437
30
0
41
1
10
4.17164811581031
20
0.050494285464282
30
0
41
1
10
4.17164811581031
20
0.0514247655928557
30
0
41
1
10
4.17164811581031
20
0.0521997315769056
30
0
41
1
10
4.17164811581031
20
0.0529742929600729
30
0
41
1
10
4.17164811581031
20
0.0538626135193567
30
0
41
1
10
4.17164811581031
20
0.0548645357024782
30
0
41
1
10
4.17164811581031
20
0.0559799107276149
30
0
41
1
10
4.17164811581031
20
0.0572086119910864
30
0
41
1
10
4.17164811581031
20
0.0585505461243656
30
0
41
1
10
4.17164811581031
20
0.0598918773179662
30
0
41
1
10
4.17164811581031
20
0.0615008694607013
30
0
41
1
10
4.17164811581031
20
0.0633517670455888
30
0
41
1
10
4.17164811581031
20
0.0649595615012686
30
0
41
1
10
4.17164811581031
20
0.066834923649111
30
0
41
1
10
4.17164811581031
20
0.0689777984768796
30
0
41
1
10
4.17164811581031
20
0.0711204017319744
30
0
41
1
10
4.17164811581031
20
0.0741634402775162
30
0
41
1
10
4.17164811581031
20
0.0785914236443546
30
0
41
1
10
4.17164811581031
20
0.0853052984182341
30
0
41
1
10
4.17164811581031
20
0.0951833391460752
30
0
41
1
10
4.17164811581031
20
0.113799193745052
30
0
41
1
10
4.17164811581031
20
0.138432163231471
30
0
41
1
10
4.17164811581029
20
0.168684399372069
30
0
41
1
10
4.17164811581031
20
0.202964756008328
30
0
41
1
10
4.17164811581031
20
0.240323155297915
30
0
41
1
10
4.17164811581031
20
0.2751330076741
30
0
41
1
10
4.17164811581031
20
0.308838617221028
30
0
41
1
10
4.17164811581031
20
0.341638960416191
30
0
41
1
10
4.17164811581031
20
0.373662467774636
30
0
41
1
10
4.17164811581031
20
0.404801623943627
30
0
41
1
10
4.17164811581031
20
0.434952955204096
30
0
41
1
10
4.17164811581031
20
0.463824662251341
30
0
41
1
10
4.17164811581034
20
0.491329562542063
30
0
41
1
10
4.17164811581031
20
0.517561081226489
30
0
41
1
10
4.17164811581031
20
0.540521813201309
30
0
41
1
10
4.17164811581031
20
0.557811490421471
30
0
41
1
10
4.17164811581031
20
0.569904491020083
30
0
41
1
10
4.17164811581031
20
0.577140639586702
30
0
41
1
10
4.17164811581031
20
0.579724665954217
30
0
0
SPLINE
5
C3
100
AcDbEntity
8
1
62
256
6
ByLayer
370
18
48
1
60
0
100
AcDbSpline
70
4
71
3
72
52
73
48
40
0
40
0
40
0
40
0
40
0.0444325964478195
40
0.0444325964478195
40
0.088865192895639
40
0.088865192895639
40
0.133297789343459
40
0.133297789343459
40
0.177730385791278
40
0.177730385791278
40
0.222162982239097
40
0.222162982239097
40
0.266595578686917
40
0.266595578686917
40
0.311028175134737
40
0.311028175134737
40
0.333244473358643
40
0.333244473358643
40
0.35546077158255
40
0.35546077158255
40
0.39989336803037
40
0.39989336803037
40
0.444325964478189
40
0.444325964478189
40
0.533191157373828
40
0.533191157373828
40
0.622056350269467
40
0.622056350269467
40
0.644272648493376
40
0.644272648493376
40
0.666488946717284
40
0.666488946717284
40
0.710921543165106
40
0.710921543165106
40
0.755354139612929
40
0.755354139612929
40
0.799786736060751
40
0.799786736060751
40
0.844219332508574
40
0.844219332508574
40
0.888651928956396
40
0.888651928956396
40
0.933084525404219
40
0.933084525404219
40
0.977517121852041
40
0.977517121852041
40
1
40
1
40
1
40
1
41
1
10
19.6214578100282
20
-0.382989655327151
30
0
41
1
10
19.5808683722472
20
-0.36418492715049
30
0
41
1
10
19.5404740582128
20
-0.344798980029054
30
0
41
1
10
19.4599661316084
20
-0.30504847407903
30
0
41
1
10
19.4198130889176
20
-0.284749892803603
30
0
41
1
10
19.3395251990659
20
-0.24363517770152
30
0
41
1
10
19.2994311217975
20
-0.222750003747677
30
0
41
1
10
19.2193654628512
20
-0.180286024338756
30
0
41
1
10
19.1793653981003
20
-0.158756506350869
30
0
41
1
10
19.09929793231
20
-0.115341955505613
30
0
41
1
10
19.0592452439766
20
-0.0934314923680404
30
0
41
1
10
18.979140484079
20
-0.049125097298429
30
0
41
1
10
18.9390808850211
20
-0.0267407431220477
30
0
41
1
10
18.8586432049074
20
0.0179270922878914
30
0
41
1
10
18.8182582107506
20
0.0401947692552369
30
0
41
1
10
18.7574998507219
20
0.0736297770826582
30
0
41
1
10
18.7371927175346
20
0.0847985309086425
30
0
41
1
10
18.6966656220895
20
0.10702286786227
30
0
41
1
10
18.676440465664
20
0.118079081511752
30
0
41
1
10
18.6158490342646
20
0.151024915276565
30
0
41
1
10
18.5755566374103
20
0.172674394213203
30
0
41
1
10
18.4952000374739
20
0.215404157850116
30
0
41
1
10
18.4551631778495
20
0.236530530831203
30
0
41
1
10
18.3351690159808
20
0.298645712080003
30
0
41
1
10
18.2551178210374
20
0.338032929879063
30
0
41
1
10
18.0949122287762
20
0.412825146475171
30
0
41
1
10
18.0145528642768
20
0.447907612227795
30
0
41
1
10
17.9137060888917
20
0.488662162199205
30
0
41
1
10
17.8935116149539
20
0.496649626143153
30
0
41
1
10
17.8530343503888
20
0.512242641980379
30
0
41
1
10
17.8327428165757
20
0.519846943581058
30
0
41
1
10
17.7720055568786
20
0.541917879296562
30
0
41
1
10
17.731611521649
20
0.555712771522082
30
0
41
1
10
17.6510926600125
20
0.581595352147247
30
0
41
1
10
17.6109513557685
20
0.593657861448918
30
0
41
1
10
17.5307374777447
20
0.615880316065358
30
0
41
1
10
17.4906685856747
20
0.626049502274014
30
0
41
1
10
17.4106529337447
20
0.644540758477234
30
0
41
1
10
17.3707226133806
20
0.652866812869803
30
0
41
1
10
17.2907406448193
20
0.667473942309329
30
0
41
1
10
17.2506559004395
20
0.673743586931636
30
0
41
1
10
17.1703457217378
20
0.684260068506973
30
0
41
1
10
17.1301477555252
20
0.688514206542919
30
0
41
1
10
17.0495293919449
20
0.694925668449315
30
0
41
1
10
17.0090886485266
20
0.697080643335312
30
0
41
1
10
16.9479684536572
20
0.698713340268199
30
0
41
1
10
16.9274675855588
20
0.698985566488517
30
0
41
1
10
16.9070064744555
20
0.69898156887561
30
0
0
SPLINE
5
C4
100
AcDbEntity
8
1
62
256
6
ByLayer
370
18
48
1
60
0
100
AcDbSpline
70
4
71
3
72
90
73
86
40
0
40
0
40
0
40
0
40
0.0126582775325664
40
0.0126582775325664
40
0.0360129422964487
40
0.0360129422964487
40
0.0593676070603309
40
0.0593676070603309
40
0.082722271824213
40
0.082722271824213
40
0.106076936588095
40
0.106076936588095
40
0.129431601351978
40
0.129431601351978
40
0.15278626611586
40
0.15278626611586
40
0.176140930879742
40
0.176140930879742
40
0.199495595643624
40
0.199495595643624
40
0.246204925171392
40
0.246204925171392
40
0.292914254699159
40
0.292914254699159
40
0.316268919463041
40
0.316268919463041
40
0.339623584226924
40
0.339623584226924
40
0.362978248990806
40
0.362978248990806
40
0.386332913754688
40
0.386332913754688
40
0.40968757851857
40
0.40968757851857
40
0.433042243282452
40
0.433042243282452
40
0.456396908046334
40
0.456396908046334
40
0.479751572810216
40
0.479751572810216
40
0.491428905192157
40
0.491428905192157
40
0.503106237574099
40
0.503106237574099
40
0.526460902337981
40
0.526460902337981
40
0.549815567101863
40
0.549815567101863
40
0.573170231865745
40
0.573170231865745
40
0.596524896629627
40
0.596524896629627
40
0.619879561393509
40
0.619879561393509
40
0.64323422615739
40
0.64323422615739
40
0.654911558539329
40
0.654911558539329
40
0.666588890921269
40
0.666588890921269
40
0.68994355568515
40
0.68994355568515
40
0.71329822044903
40
0.71329822044903
40
0.76000754997679
40
0.76000754997679
40
0.80671687950455
40
0.80671687950455
40
0.830071544268429
40
0.830071544268429
40
0.853426209032308
40
0.853426209032308
40
0.876780873796187
40
0.876780873796187
40
0.900135538560066
40
0.900135538560066
40
0.923490203323945
40
0.923490203323945
40
0.946844868087824
40
0.946844868087824
40
0.970199532851703
40
0.970199532851703
40
0.993554197615582
40
0.993554197615582
40
1
40
1
40
1
40
1
41
1
10
14.1381093909372
20
-0.406551220707769
30
0
41
1
10
14.1162998885475
20
-0.416372849806862
30
0
41
1
10
14.0945100727854
20
-0.425982576897212
30
0
41
1
10
14.0325334875182
20
-0.452670010557114
30
0
41
1
10
13.9924009716154
20
-0.469260902459723
30
0
41
1
10
13.9122737972161
20
-0.50104343855304
30
0
41
1
10
13.872250366069
20
-0.51619344085384
30
0
41
1
10
13.792153449041
20
-0.544855255116232
30
0
41
1
10
13.7520952283491
20
-0.558389117345598
30
0
41
1
10
13.6719969715669
20
-0.583878230918373
30
0
41
1
10
13.6319481141105
20
-0.595816407547289
30
0
41
1
10
13.5515473276524
20
-0.617764976563706
30
0
41
1
10
13.5111907993161
20
-0.627780185521516
30
0
41
1
10
13.4302574177977
20
-0.645962680466852
30
0
41
1
10
13.3895946344879
20
-0.654141621745282
30
0
41
1
10
13.3086296252919
20
-0.668353295688433
30
0
41
1
10
13.2682589792888
20
-0.674405787853118
30
0
41
1
10
13.187767654913
20
-0.684452724342037
30
0
41
1
10
13.147674022241
20
-0.688451339275503
30
0
41
1
10
13.0275324095298
20
-0.6972586644128
30
0
41
1
10
12.9474228709199
20
-0.698884134152877
30
0
41
1
10
12.7871833064515
20
-0.693781241873211
30
0
41
1
10
12.7068463732696
20
-0.687069137852177
30
0
41
1
10
12.585929505225
20
-0.670560834532893
30
0
41
1
10
12.5454884923075
20
-0.663975381325827
30
0
41
1
10
12.4643050995598
20
-0.648823573354349
30
0
41
1
10
12.4238237856091
20
-0.640293899075118
30
0
41
1
10
12.3431521781516
20
-0.621312428675651
30
0
41
1
10
12.3029437893916
20
-0.610869529714648
30
0
41
1
10
12.2226155598263
20
-0.588251328064416
30
0
41
1
10
12.1825008596976
20
-0.576075974927022
30
0
41
1
10
12.1024167584263
20
-0.549944737864848
30
0
41
1
10
12.0624619768245
20
-0.535965450171631
30
0
41
1
10
11.9824462559608
20
-0.506496932138106
30
0
41
1
10
11.942354086442
20
-0.491053711465185
30
0
41
1
10
11.8620570407926
20
-0.458695447735977
30
0
41
1
10
11.8218778995538
20
-0.441740767196336
30
0
41
1
10
11.741315223695
20
-0.406456201086428
30
0
41
1
10
11.7009123813549
20
-0.388158415232255
30
0
41
1
10
11.6401124806972
20
-0.359729450389182
30
0
41
1
10
11.6197894933728
20
-0.350073067912859
30
0
41
1
10
11.5792583109771
20
-0.330493456390485
30
0
41
1
10
11.5590434279046
20
-0.320567082248715
30
0
41
1
10
11.4984977221731
20
-0.290470073981538
30
0
41
1
10
11.4582456585068
20
-0.270016254039973
30
0
41
1
10
11.3777933185152
20
-0.228642902559756
30
0
41
1
10
11.3376342577604
20
-0.207651766299762
30
0
41
1
10
11.2574606223997
20
-0.165044475082112
30
0
41
1
10
11.2174172955471
20
-0.143479113655161
30
0
41
1
10
11.1372926564912
20
-0.100053406297832
30
0
41
1
10
11.0972272822147
20
-0.0781648511759272
30
0
41
1
10
11.0171260149957
20
-0.0339649553190497
30
0
41
1
10
10.9770795186925
20
-0.011671504727417
30
0
41
1
10
10.8966925382433
20
0.0327397553688229
30
0
41
1
10
10.8563510292439
20
0.0548535330110269
30
0
41
1
10
10.7956874415722
20
0.0880223481844098
30
0
41
1
10
10.7754425855665
20
0.0990815793091997
30
0
41
1
10
10.7348814168924
20
0.121160987568743
30
0
41
1
10
10.7145556364518
20
0.132184561867149
30
0
41
1
10
10.6537508108557
20
0.16496697304737
30
0
41
1
10
10.6133332982618
20
0.186477058767167
30
0
41
1
10
10.5327646616677
20
0.228878260283523
30
0
41
1
10
10.4926402034605
20
0.249813774199367
30
0
41
1
10
10.3724168696192
20
0.311241074303155
30
0
41
1
10
10.2922777996123
20
0.350054429069473
30
0
41
1
10
10.1320177282001
20
0.423482736542695
30
0
41
1
10
10.0516919565631
20
0.457779567008515
30
0
41
1
10
9.93083030831295
20
0.505378590445162
30
0
41
1
10
9.89044995929586
20
0.520554422291781
30
0
41
1
10
9.80923831880139
20
0.549172057151537
30
0
41
1
10
9.7686566670466
20
0.562580779053576
30
0
41
1
10
9.68789091143407
20
0.587623931417141
30
0
41
1
10
9.64764211449489
20
0.599245534035617
30
0
41
1
10
9.56724670500131
20
0.62055585336276
30
0
41
1
10
9.52710676872417
20
0.630256607532004
30
0
41
1
10
9.44698872653831
20
0.647786863937228
30
0
41
1
10
9.40702327937217
20
0.655616423603647
30
0
41
1
10
9.32699318408331
20
0.669209996518362
30
0
41
1
10
9.28689928989465
20
0.674966996475519
30
0
41
1
10
9.20661579004218
20
0.68445591686455
30
0
41
1
10
9.16644972902645
20
0.6881915097876
30
0
41
1
10
9.08592058243946
20
0.693565216889368
30
0
41
1
10
9.04553954172832
20
0.695203195026295
30
0
41
1
10
8.99385782462113
20
0.695934442254355
30
0
41
1
10
8.98266676434665
20
0.696010763235279
30
0
41
1
10
8.97147186247742
20
0.69600507079241
30
0
0
SPLINE
5
C5
100
AcDbEntity
8
1
62
256
6
ByLayer
370
18
48
1
60
0
100
AcDbSpline
70
4
71
3
72
38
73
34
40
0
40
0
40
0
40
0
40
0.0488645511717322
40
0.0488645511717322
40
0.108310516723499
40
0.108310516723499
40
0.167756482275265
40
0.167756482275265
40
0.227202447827033
40
0.227202447827033
40
0.2866484133788
40
0.2866484133788
40
0.346094378930566
40
0.346094378930566
40
0.405540344482333
40
0.405540344482333
40
0.4649863100341
40
0.4649863100341
40
0.524432275585866
40
0.524432275585866
40
0.583878241137634
40
0.583878241137634
40
0.6433242066894
40
0.6433242066894
40
0.762216137792933
40
0.762216137792933
40
0.821662103344699
40
0.821662103344699
40
0.881108068896467
40
0.881108068896467
40
0.940554034448233
40
0.940554034448233
40
1
40
1
40
1
40
1
41
1
10
6.20559450061899
20
-0.403708163543996
30
0
41
1
10
6.17235090355592
20
-0.418661343512127
30
0
41
1
10
6.13917841427553
20
-0.433117870103757
30
0
41
1
10
6.06572033588947
20
-0.4639675559213
30
0
41
1
10
6.02549168976725
20
-0.480165970644009
30
0
41
1
10
5.94519999598222
20
-0.511091710825781
30
0
41
1
10
5.90510760825498
20
-0.525778172065316
30
0
41
1
10
5.82491877809954
20
-0.553477351505592
30
0
41
1
10
5.78484067527052
20
-0.566514702337713
30
0
41
1
10
5.70474162745396
20
-0.590965908858635
30
0
41
1
10
5.66470483036142
20
-0.602355730926632
30
0
41
1
10
5.58435563596336
20
-0.623175418747451
30
0
41
1
10
5.54405339438773
20
-0.632623782365926
30
0
41
1
10
5.46328603078578
20
-0.649662319747335
30
0
41
1
10
5.42281991802727
20
-0.657244899387337
30
0
41
1
10
5.34153654197556
20
-0.670374215712144
30
0
41
1
10
5.30097583949117
20
-0.67588178251691
30
0
41
1
10
5.22021119311304
20
-0.684811226954565
30
0
41
1
10
5.18000550151419
20
-0.688237873710364
30
0
41
1
10
5.09970478593692
20
-0.692950136743178
30
0
41
1
10
5.05956957561614
20
-0.694234939858376
30
0
41
1
10
4.97932115064441
20
-0.694718743498925
30
0
41
1
10
4.93924240636468
20
-0.693915765383338
30
0
41
1
10
4.81899777139165
20
-0.688368259746966
30
0
41
1
10
4.73870099018239
20
-0.68053845435665
30
0
41
1
10
4.617973703129
20
-0.662443957610833
30
0
41
1
10
4.57765132761341
20
-0.655357896323437
30
0
41
1
10
4.49661534278545
20
-0.639203018237623
30
0
41
1
10
4.45588618688282
20
-0.630113509306028
30
0
41
1
10
4.37458223203444
20
-0.610098337100936
30
0
41
1
10
4.33393903702003
20
-0.599167580389178
30
0
41
1
10
4.2527116849088
20
-0.575416346635734
30
0
41
1
10
4.21212839171261
20
-0.562597900807248
30
0
41
1
10
4.17164811581029
20
-0.548709248408784
30
0
0
SPLINE
5
C6
100
AcDbEntity
8
1
62
256
6
ByLayer
370
18
48
1
60
0
100
AcDbSpline
70
4
71
3
72
96
73
92
40
0
40
0
40
0
40
0
40
0.124999999999998
40
0.124999999999998
40
0.187499999999998
40
0.187499999999998
40
0.249999999999997
40
0.249999999999997
40
0.312499999999996
40
0.312499999999996
40
0.343749999999995
40
0.343749999999995
40
0.374999999999993
40
0.374999999999993
40
0.390624999999994
40
0.390624999999994
40
0.406249999999994
40
0.406249999999994
40
0.437499999999994
40
0.437499999999994
40
0.453124999999995
40
0.453124999999995
40
0.468749999999996
40
0.468749999999996
40
0.476562499999997
40
0.476562499999997
40
0.484374999999997
40
0.484374999999997
40
0.492187499999998
40
0.492187499999998
40
0.499999999999998
40
0.499999999999998
40
0.507812499999999
40
0.507812499999999
40
0.511718749999999
40
0.511718749999999
40
0.515625
40
0.5234375
40
0.5234375
40
0.527343750000001
40
0.527343750000001
40
0.531250000000001
40
0.535156250000002
40
0.535156250000002
40
0.539062500000003
40
0.539062500000003
40
0.546875000000003
40
0.546875000000003
40
0.554687500000003
40
0.554687500000003
40
0.562500000000003
40
0.562500000000003
40
0.578125000000003
40
0.578125000000003
40
0.593750000000003
40
0.593750000000003
40
0.609375000000003
40
0.609375000000003
40
0.625000000000003
40
0.625000000000003
40
0.656250000000005
40
0.656250000000005
40
0.687500000000007
40
0.687500000000007
40
0.718750000000009
40
0.718750000000009
40
0.750000000000011
40
0.750000000000011
40
0.757812500000012
40
0.757812500000012
40
0.765625000000013
40
0.765625000000013
40
0.769531250000013
40
0.769531250000013
40
0.773437500000012
40
0.773437500000012
40
0.781250000000011
40
0.781250000000011
40
0.796875000000011
40
0.796875000000011
40
0.812500000000011
40
0.812500000000011
40
0.843750000000011
40
0.843750000000011
40
0.85937500000001
40
0.85937500000001
40
0.875000000000009
40
0.875000000000009
40
0.937500000000004
40
0.937500000000004
40
1
40
1
40
1
40
1
41
1
10
4.17164811581031
20
-0.548709248408784
30
0
41
1
10
3.97323383464828
20
-0.514164682646879
30
0
41
1
10
3.77753443298826
20
-0.47004774256601
30
0
41
1
10
3.48690431060359
20
-0.387023806010518
30
0
41
1
10
3.39050707391684
20
-0.356559986687017
30
0
41
1
10
3.19842143311246
20
-0.28970288960457
30
0
41
1
10
3.1033615520771
20
-0.253533235085513
30
0
41
1
10
2.9153951277188
20
-0.175608655415147
30
0
41
1
10
2.82244002446515
20
-0.13386153958308
30
0
41
1
10
2.68465616284215
20
-0.0665035211137592
30
0
41
1
10
2.63900494382546
20
-0.0432559528777574
30
0
41
1
10
2.54832244715004
20
0.0050589090934352
30
0
41
1
10
2.50328933733152
20
0.0301210017153153
30
0
41
1
10
2.43630774930017
20
0.0694018787264383
30
0
41
1
10
2.41406940275127
20
0.0827845824414339
30
0
41
1
10
2.3701362722978
20
0.110004279238552
30
0
41
1
10
2.34840350834202
20
0.123862465836765
30
0
41
1
10
2.28402350561538
20
0.166308003980873
30
0
41
1
10
2.24215737348962
20
0.195724222273299
30
0
41
1
10
2.18184761437118
20
0.242530545956271
30
0
41
1
10
2.16231727264994
20
0.258472957693641
30
0
41
1
10
2.12481750105201
20
0.291223238016016
30
0
41
1
10
2.10683124786098
20
0.308032155873406
30
0
41
1
10
2.0815000839419
20
0.334211547324486
30
0
41
1
10
2.07331545281534
20
0.343125638168402
30
0
41
1
10
2.0578487132826
20
0.361123929110761
30
0
41
1
10
2.05054364728605
20
0.370228475967622
30
0
41
1
10
2.03698250392165
20
0.388706693760781
30
0
41
1
10
2.03072458548115
20
0.398079781554458
30
0
41
1
10
2.01954441650759
20
0.417183011653549
30
0
41
1
10
2.0146849474479
20
0.426823421609356
30
0
41
1
10
2.00687908851955
20
0.44602180612705
30
0
41
1
10
2.00390513367893
20
0.455622135826786
30
0
41
1
10
2.00114592370912
20
0.470044455216907
30
0
41
1
10
2.00051965951263
20
0.474830318735656
30
0
41
1
10
1.99989271304989
20
0.484193647483465
30
0
41
1
10
1.99987585596648
20
0.497998973709855
30
0
41
1
10
2.00265209669749
20
0.511096793093031
30
0
41
1
10
2.00734127155979
20
0.52373428989543
30
0
41
1
10
2.00921630572026
20
0.527841750074657
30
0
41
1
10
2.01349300500783
20
0.535738908080361
30
0
41
1
10
2.0183106126951
20
0.543358841551282
30
0
41
1
10
2.0241277569028
20
0.550474260523544
30
0
41
1
10
2.0304094653292
20
0.557358813014019
30
0
41
1
10
2.03379540913542
20
0.560695638810103
30
0
41
1
10
2.04444936310412
20
0.57025699597736
30
0
41
1
10
2.0522361980548
20
0.576075224496719
30
0
41
1
10
2.0688855594446
20
0.586860197334602
30
0
41
1
10
2.0777499018738
20
0.591825304639968
30
0
41
1
10
2.09636143531128
20
0.601074976789533
30
0
41
1
10
2.10614000037654
20
0.605368129870897
30
0
41
1
10
2.13612803393477
20
0.617241537202972
30
0
41
1
10
2.15710389987797
20
0.623907835105314
30
0
41
1
10
2.20038985450466
20
0.635639114813216
30
0
41
1
10
2.22270823322626
20
0.640692148912819
30
0
41
1
10
2.26835113345618
20
0.649656804503081
30
0
41
1
10
2.29170290812908
20
0.653564348504233
30
0
41
1
10
2.33863691579754
20
0.660454648313703
30
0
41
1
10
2.36229814582418
20
0.663451866123552
30
0
41
1
10
2.43374572612726
20
0.671447615901286
30
0
41
1
10
2.4819901729295
20
0.675467497699401
30
0
41
1
10
2.57934469638101
20
0.681934492752674
30
0
41
1
10
2.6284593097262
20
0.684367911584758
30
0
41
1
10
2.72736718810671
20
0.688205232630423
30
0
41
1
10
2.77716066901567
20
0.689604429763051
30
0
41
1
10
2.87732243776603
20
0.691713396327003
30
0
41
1
10
2.92774376830684
20
0.69242203479655
30
0
41
1
10
2.9908322905751
20
0.693041745914257
30
0
41
1
10
3.00344438901908
20
0.693152786873185
30
0
41
1
10
3.0288631118654
20
0.693284690675029
30
0
41
1
10
3.0416914881641
20
0.693302963983768
30
0
41
1
10
3.06118493954659
20
0.693236987985443
30
0
41
1
10
3.06775177154702
20
0.693198656647724
30
0
41
1
10
3.08068373347646
20
0.693091183388447
30
0
41
1
10
3.08708198610316
20
0.693022350625625
30
0
41
1
10
3.10620552168186
20
0.692783906744637
30
0
41
1
10
3.11888645750608
20
0.692587006407678
30
0
41
1
10
3.15700541743982
20
0.691933083927694
30
0
41
1
10
3.18244990239083
20
0.691403773737278
30
0
41
1
10
3.23334593497259
20
0.690154055697235
30
0
41
1
10
3.25879786839695
20
0.689432814900613
30
0
41
1
10
3.33515829248375
20
0.686980280378407
30
0
41
1
10
3.38608976603268
20
0.684970594693567
30
0
41
1
10
3.46248360658993
20
0.68137975743042
30
0
41
1
10
3.4879388709968
20
0.680082463342103
30
0
41
1
10
3.53871023421689
20
0.67717034873786
30
0
41
1
10
3.56402488358367
20
0.675551189135575
30
0
41
1
10
3.68981849294246
20
0.666438500620785
30
0
41
1
10
3.78828219874168
20
0.655912675405375
30
0
41
1
10
3.98199214001883
20
0.625398564559873
30
0
41
1
10
4.07722153568895
20
0.605358867334644
30
0
41
1
10
4.17164811581031
20
0.579724665954586
30
0
0
SPLINE
5
C7
100
AcDbEntity
8
1
62
256
6
ByLayer
370
18
48
1
60
0
100
AcDbSpline
70
4
71
3
72
62
73
58
40
0
40
0
40
0
40
0
40
0.0373719981998967
40
0.0373719981998967
40
0.0747439963997935
40
0.0747439963997935
40
0.11211599459969
40
0.11211599459969
40
0.149487992799587
40
0.149487992799587
40
0.186859990999484
40
0.186859990999484
40
0.224231989199381
40
0.224231989199381
40
0.261603987399277
40
0.261603987399277
40
0.280289986499224
40
0.280289986499224
40
0.298975985599171
40
0.298975985599171
40
0.336347983799066
40
0.336347983799066
40
0.37371998199896
40
0.37371998199896
40
0.411091980198854
40
0.411091980198854
40
0.448463978398749
40
0.448463978398749
40
0.485835976598643
40
0.485835976598643
40
0.523207974798537
40
0.523207974798537
40
0.560579972998431
40
0.560579972998431
40
0.597951971198326
40
0.597951971198326
40
0.63532396939822
40
0.63532396939822
40
0.672695967598114
40
0.672695967598114
40
0.710067965798009
40
0.710067965798009
40
0.747439963997903
40
0.747439963997903
40
0.784811962197797
40
0.784811962197797
40
0.822183960397691
40
0.822183960397691
40
0.859555958597585
40
0.859555958597585
40
0.89692795679748
40
0.89692795679748
40
0.934299954997374
40
0.934299954997374
40
0.971671953197268
40
0.971671953197268
40
1
40
1
40
1
40
1
41
1
10
4.17164811581031
20
0.579724665954615
30
0
41
1
10
4.21195308957522
20
0.567070111825643
30
0
41
1
10
4.25236754876496
20
0.553810299189792
30
0
41
1
10
4.33323650394564
20
0.526044000110744
30
0
41
1
10
4.37368874670472
20
0.511534868519362
30
0
41
1
10
4.45438479000336
20
0.481002296843826
30
0
41
1
10
4.49461221818439
20
0.464953190301401
30
0
41
1
10
4.5747985707583
20
0.431208124685327
30
0
41
1
10
4.6147305002533
20
0.413467485996676
30
0
41
1
10
4.6946041170682
20
0.376693556123712
30
0
41
1
10
4.73457366105609
20
0.357703434777107
30
0
41
1
10
4.81487418804392
20
0.319022467333497
30
0
41
1
10
4.85522961107765
20
0.299378266965164
30
0
41
1
10
4.93627278495475
20
0.259405811092535
30
0
41
1
10
4.97690768296093
20
0.238987878394795
30
0
41
1
10
5.03788439007047
20
0.207405238592514
30
0
41
1
10
5.05823426091797
20
0.196721212058208
30
0
41
1
10
5.09875578834991
20
0.17515800505106
30
0
41
1
10
5.11894658486119
20
0.164259695604386
30
0
41
1
10
5.1793650565802
20
0.131320521280713
30
0
41
1
10
5.21945029542024
20
0.109057384472095
30
0
41
1
10
5.2996549833081
20
0.0647095231011576
30
0
41
1
10
5.33976687814962
20
0.0426103516047363
30
0
41
1
10
5.42021825373143
20
-0.001058278376405
30
0
41
1
10
5.46052943251831
20
-0.0226810595401901
30
0
41
1
10
5.54097840360404
20
-0.0661419540449231
30
0
41
1
10
5.58112157156211
20
-0.0879696200617559
30
0
41
1
10
5.66125704096177
20
-0.131791605172879
30
0
41
1
10
5.70123431977328
20
-0.153812884854972
30
0
41
1
10
5.78143236980463
20
-0.197294077127026
30
0
41
1
10
5.82166832203302
20
-0.218726490475745
30
0
41
1
10
5.90266321249388
20
-0.260524030572697
30
0
41
1
10
5.94354309322949
20
-0.280865809764805
30
0
41
1
10
6.02490957102481
20
-0.320442866058357
30
0
41
1
10
6.06542244916153
20
-0.339785472917413
30
0
41
1
10
6.14601560396466
20
-0.377697335789293
30
0
41
1
10
6.18608163224951
20
-0.396282843074715
30
0
41
1
10
6.2659902784288
20
-0.43228443701878
30
0
41
1
10
6.30586785008472
20
-0.449645715671721
30
0
41
1
10
6.38583341512745
20
-0.482606463683965
30
0
41
1
10
6.42592884969943
20
-0.49820153972135
30
0
41
1
10
6.50641983268076
20
-0.527607584212973
30
0
41
1
10
6.54676439114564
20
-0.541489904738114
30
0
41
1
10
6.62736219754146
20
-0.567930282618107
30
0
41
1
10
6.66763738824602
20
-0.580457215417681
30
0
41
1
10
6.74817755228116
20
-0.603980341604625
30
0
41
1
10
6.78850042420265
20
-0.614956050493618
30
0
41
1
10
6.86945502373555
20
-0.634822153338035
30
0
41
1
10
6.90984268357755
20
-0.643660299802235
30
0
41
1
10
6.99068078686028
20
-0.659127102944979
30
0
41
1
10
7.03114414859468
20
-0.665764269163731
30
0
41
1
10
7.11182664160265
20
-0.67711854258161
30
0
41
1
10
7.15202681474534
20
-0.681834860845385
30
0
41
1
10
7.23213469888941
20
-0.689261486446071
30
0
41
1
10
7.27201504843256
20
-0.691969510481073
30
0
41
1
10
7.34213748980449
20
-0.694821189582029
30
0
41
1
10
7.37239153461431
20
-0.695425838982487
30
0
41
1
10
7.40272975036962
20
-0.69541676131638
30
0
0
SPLINE
5
C8
100
AcDbEntity
8
1
62
256
6
ByLayer
370
18
48
1
60
0
100
AcDbSpline
70
4
71
3
72
102
73
98
40
0
40
0
40
0
40
0
40
0.0070119754853613
40
0.0070119754853613
40
0.0303851976922281
40
0.0303851976922281
40
0.0537584198990951
40
0.0537584198990951
40
0.077131642105962
40
0.077131642105962
40
0.100504864312829
40
0.100504864312829
40
0.123878086519696
40
0.123878086519696
40
0.147251308726563
40
0.147251308726563
40
0.170624530933429
40
0.170624530933429
40
0.193997753140296
40
0.193997753140296
40
0.205684364243728
40
0.205684364243728
40
0.217370975347159
40
0.217370975347159
40
0.240744197554019
40
0.240744197554019
40
0.26411741976088
40
0.26411741976088
40
0.287490641967741
40
0.287490641967741
40
0.310863864174602
40
0.310863864174602
40
0.334237086381462
40
0.334237086381462
40
0.357610308588323
40
0.357610308588323
40
0.380983530795183
40
0.380983530795183
40
0.392670141898614
40
0.392670141898614
40
0.404356753002044
40
0.404356753002044
40
0.427729975208905
40
0.427729975208905
40
0.451103197415766
40
0.451103197415766
40
0.474476419622627
40
0.474476419622627
40
0.497849641829488
40
0.497849641829488
40
0.521222864036349
40
0.521222864036349
40
0.54459608624321
40
0.54459608624321
40
0.556282697346642
40
0.556282697346642
40
0.567969308450073
40
0.567969308450073
40
0.591342530656934
40
0.591342530656934
40
0.614715752863795
40
0.614715752863795
40
0.638088975070656
40
0.638088975070656
40
0.661462197277517
40
0.661462197277517
40
0.684835419484378
40
0.684835419484378
40
0.708208641691239
40
0.708208641691239
40
0.7315818638981
40
0.7315818638981
40
0.754955086104961
40
0.754955086104961
40
0.778328308311822
40
0.778328308311822
40
0.801701530518683
40
0.801701530518683
40
0.825074752725543
40
0.825074752725543
40
0.848447974932404
40
0.848447974932404
40
0.871821197139265
40
0.871821197139265
40
0.895194419346126
40
0.895194419346126
40
0.906881030449557
40
0.906881030449557
40
0.918567641552987
40
0.918567641552987
40
0.941940863759848
40
0.941940863759848
40
0.965314085966709
40
0.965314085966709
40
0.98868730817357
40
0.98868730817357
40
1
40
1
40
1
40
1
41
1
10
10.1723192880756
20
0.406615936854081
30
0
41
1
10
10.1844207556123
20
0.411954992591859
30
0
41
1
10
10.1965367509234
20
0.41723133658985
30
0
41
1
10
10.2490951163097
20
0.43983708629122
30
0
41
1
10
10.2896161945016
20
0.456642096733731
30
0
41
1
10
10.3706768712365
20
0.4892813880723
30
0
41
1
10
10.4113002649733
20
0.5051312630155
30
0
41
1
10
10.4919265891762
20
0.535246614330646
30
0
41
1
10
10.5320450900236
20
0.549493254247125
30
0
41
1
10
10.6123027698029
20
0.575933079005324
30
0
41
1
10
10.652436821414
20
0.588138786506846
30
0
41
1
10
10.7328975190219
20
0.610473730545749
30
0
41
1
10
10.7731874154382
20
0.620651084090241
30
0
41
1
10
10.8535501344666
20
0.639327628752937
30
0
41
1
10
10.8936362238694
20
0.647807409753682
30
0
41
1
10
10.973627398588
20
0.662937639036301
30
0
41
1
10
11.0135267610351
20
0.669580264168161
30
0
41
1
10
11.0935647079668
20
0.68072348834346
30
0
41
1
10
11.1337151647111
20
0.685223464958796
30
0
41
1
10
11.1943172165428
20
0.690346134353234
30
0
41
1
10
11.2145845528307
20
0.691782829965831
30
0
41
1
10
11.2552384057873
20
0.69412940049304
30
0
41
1
10
11.2756458722172
20
0.695041190311684
30
0
41
1
10
11.3367681930526
20
0.696992669484644
30
0
41
1
10
11.3773213873584
20
0.697254391552065
30
0
41
1
10
11.4579684608963
20
0.695647796177582
30
0
41
1
10
11.4980429177119
20
0.693768016927663
30
0
41
1
10
11.5779646016352
20
0.687827050121115
30
0
41
1
10
11.6178454566629
20
0.683772367798355
30
0
41
1
10
11.6977972953549
20
0.673680542734587
30
0
41
1
10
11.7378813059966
20
0.667657797763781
30
0
41
1
10
11.8183005081753
20
0.653797106961775
30
0
41
1
10
11.8585826458582
20
0.64593628589796
30
0
41
1
10
11.9390229650393
20
0.628127875193144
30
0
41
1
10
11.9792019092469
20
0.6181875136933
30
0
41
1
10
12.0595279370087
20
0.596136389347294
30
0
41
1
10
12.099700472576
20
0.584037333717305
30
0
41
1
10
12.1602995394078
20
0.564574059293193
30
0
41
1
10
12.1805742373883
20
0.557860776897229
30
0
41
1
10
12.221063771057
20
0.544106488502223
30
0
41
1
10
12.2412987913041
20
0.537059459210099
30
0
41
1
10
12.3020183880245
20
0.515482201884254
30
0
41
1
10
12.342520529083
20
0.50052745557673
30
0
41
1
10
12.4232334027624
20
0.469080582237069
30
0
41
1
10
12.4634305764577
20
0.452564207937172
30
0
41
1
10
12.5435052216754
20
0.417895305998826
30
0
41
1
10
12.5833558025656
20
0.399697450230462
30
0
41
1
10
12.6630672644824
20
0.362113087486222
30
0
41
1
10
12.7029516533809
20
0.342764698886754
30
0
41
1
10
12.7830634940742
20
0.303454358038295
30
0
41
1
10
12.823323084763
20
0.283552355301708
30
0
41
1
10
12.9041109914326
20
0.243069779528184
30
0
41
1
10
12.9445885173075
20
0.222400995144284
30
0
41
1
10
13.0053114625355
20
0.190500370596737
30
0
41
1
10
13.0255592010848
20
0.179726727568607
30
0
41
1
10
13.0660711102203
20
0.157892523421879
30
0
41
1
10
13.0863216090237
20
0.146830293110156
30
0
41
1
10
13.1468409806714
20
0.113494445192998
30
0
41
1
10
13.1869895012342
20
0.0910347221949905
30
0
41
1
10
13.2672929003407
20
0.0463956922551461
30
0
41
1
10
13.3074439540176
20
0.024208278403222
30
0
41
1
10
13.3879162519365
20
-0.0195999912022842
30
0
41
1
10
13.4281987611994
20
-0.0412945585835018
30
0
41
1
10
13.5085262996869
20
-0.0848758683640938
30
0
41
1
10
13.5485865487758
20
-0.106733467265656
30
0
41
1
10
13.6285104904753
20
-0.150549437329914
30
0
41
1
10
13.6683718203165
20
-0.17251058141045
30
0
41
1
10
13.7483314723145
20
-0.215740059391862
30
0
41
1
10
13.7884409092371
20
-0.23698910611003
30
0
41
1
10
13.8691573134448
20
-0.278339663487913
30
0
41
1
10
13.909797860865
20
-0.298384121754623
30
0
41
1
10
13.9913574780202
20
-0.337717992763686
30
0
41
1
10
14.0319357502215
20
-0.356919430683121
30
0
41
1
10
14.1126242007562
20
-0.394461428445197
30
0
41
1
10
14.1527138709872
20
-0.412827146911297
30
0
41
1
10
14.2326604359353
20
-0.448270957510175
30
0
41
1
10
14.2725501011749
20
-0.465299794114799
30
0
41
1
10
14.3525045061079
20
-0.497544996620917
30
0
41
1
10
14.3925840003596
20
-0.512748543784397
30
0
41
1
10
14.472969893576
20
-0.541379953033896
30
0
41
1
10
14.5132232018403
20
-0.554877940622617
30
0
41
1
10
14.5935901004008
20
-0.580500396331445
30
0
41
1
10
14.6337236973821
20
-0.592596784130905
30
0
41
1
10
14.7139483850265
20
-0.615194807935239
30
0
41
1
10
14.7540664390991
20
-0.625661793008618
30
0
41
1
10
14.8145816968971
20
-0.639798378683366
30
0
41
1
10
14.8348325571878
20
-0.644258138969974
30
0
41
1
10
14.87534645981
20
-0.652620496992341
30
0
41
1
10
14.8955930306113
20
-0.656520513262222
30
0
41
1
10
14.9563459098497
20
-0.66738423027914
30
0
41
1
10
14.9968652167167
20
-0.67352609310521
30
0
41
1
10
15.0776007157853
20
-0.683866611521751
30
0
41
1
10
15.1178047678647
20
-0.68805990072272
30
0
41
1
10
15.1978842303817
20
-0.694407367832184
30
0
41
1
10
15.2377333727728
20
-0.696557219974437
30
0
41
1
10
15.2968718778694
20
-0.698128426308699
30
0
41
1
10
15.3161653159098
20
-0.698385554865126
30
0
41
1
10
15.335480236399
20
-0.698391661159974
30
0
0
SPLINE
5
C9
100
AcDbEntity
8
1
62
256
6
ByLayer
370
18
48
1
60
0
100
AcDbSpline
70
4
71
3
72
34
73
30
40
0
40
0
40
0
40
0
40
0.0441291156260537
40
0.0441291156260537
40
0.123785022657216
40
0.123785022657216
40
0.163612976172797
40
0.163612976172797
40
0.203440929688378
40
0.203440929688378
40
0.283096836719539
40
0.283096836719539
40
0.362752743750702
40
0.362752743750702
40
0.442408650781865
40
0.442408650781865
40
0.522064557813026
40
0.522064557813026
40
0.601720464844189
40
0.601720464844189
40
0.681376371875351
40
0.681376371875351
40
0.761032278906513
40
0.761032278906513
40
0.840688185937676
40
0.840688185937676
40
0.920344092968837
40
0.920344092968837
40
1
40
1
40
1
40
1
41
1
10
18.1044269132012
20
0.407813055230235
30
0
41
1
10
18.1266840855843
20
0.41772663338719
30
0
41
1
10
18.1489911042456
20
0.427410284466902
30
0
41
1
10
18.2116673467159
20
0.45399380779898
30
0
41
1
10
18.2520701367814
20
0.470500308683
30
0
41
1
10
18.312666364693
20
0.494485604349904
30
0
41
1
10
18.3328692412608
20
0.50234328085574
30
0
41
1
10
18.3732859064851
20
0.517769879292786
30
0
41
1
10
18.3935227567626
20
0.525352203807756
30
0
41
1
10
18.4540989713611
20
0.547485928238615
30
0
41
1
10
18.4942778513557
20
0.561395067316994
30
0
41
1
10
18.5746252176931
20
0.587121732316263
30
0
41
1
10
18.6147907713268
20
0.598949744734199
30
0
41
1
10
18.6952704877463
20
0.620516941858284
30
0
41
1
10
18.7355443791105
20
0.630305725962614
30
0
41
1
10
18.8158334617092
20
0.648171772208627
30
0
41
1
10
18.8558651970516
20
0.656227669467455
30
0
41
1
10
18.9357122806759
20
0.67047289684217
30
0
41
1
10
18.9755279245411
20
0.676650261506097
30
0
41
1
10
19.0553823872672
20
0.686841371878671
30
0
41
1
10
19.0954316540156
20
0.690856024427148
30
0
41
1
10
19.1760110959605
20
0.69671819696373
30
0
41
1
10
19.2165740522524
20
0.698572792486971
30
0
41
1
10
19.2979563714179
20
0.70021893828951
30
0
41
1
10
19.3386791226412
20
0.700001217820045
30
0
41
1
10
19.419692679563
20
0.697394156757355
30
0
41
1
10
19.4600235521942
20
0.694993831707166
30
0
41
1
10
19.5406373343701
20
0.687961217848027
30
0
41
1
10
19.5809546923034
20
0.683337073376833
30
0
41
1
10
19.6214578100283
20
0.677693220884237
30
0
0
SPLINE
5
CA
100
AcDbEntity
8
1
62
256
6
ByLayer
370
18
48
1
60
0
100
AcDbSpline
70
4
71
3
72
92
73
88
40
0
40
0
40
0
40
0
40
0.0330732664155319
40
0.0330732664155319
40
0.0447516897387955
40
0.0447516897387955
40
0.056430113062059
40
0.056430113062059
40
0.0797869597085862
40
0.0797869597085862
40
0.103143806355113
40
0.103143806355113
40
0.126500653001641
40
0.126500653001641
40
0.149857499648168
40
0.149857499648168
40
0.173214346294695
40
0.173214346294695
40
0.196571192941222
40
0.196571192941222
40
0.219928039587749
40
0.219928039587749
40
0.243284886234276
40
0.243284886234276
40
0.266641732880804
40
0.266641732880804
40
0.289998579527331
40
0.289998579527331
40
0.313355426173858
40
0.313355426173858
40
0.336712272820385
40
0.336712272820385
40
0.360069119466912
40
0.360069119466912
40
0.383425966113439
40
0.383425966113439
40
0.406782812759966
40
0.406782812759966
40
0.430139659406494
40
0.430139659406494
40
0.453496506053021
40
0.453496506053021
40
0.500210199346075
40
0.500210199346075
40
0.54692389263913
40
0.54692389263913
40
0.558602315962395
40
0.558602315962395
40
0.570280739285661
40
0.570280739285661
40
0.593637585932196
40
0.593637585932196
40
0.616994432578731
40
0.616994432578731
40
0.640351279225265
40
0.640351279225265
40
0.6637081258718
40
0.6637081258718
40
0.687064972518335
40
0.687064972518335
40
0.71042181916487
40
0.71042181916487
40
0.733778665811405
40
0.733778665811405
40
0.745457089134674
40
0.745457089134674
40
0.757135512457943
40
0.757135512457943
40
0.780492359104477
40
0.780492359104477
40
0.803849205751012
40
0.803849205751012
40
0.827206052397547
40
0.827206052397547
40
0.850562899044082
40
0.850562899044082
40
0.873919745690617
40
0.873919745690617
40
0.897276592337152
40
0.897276592337152
40
0.920633438983686
40
0.920633438983686
40
0.943990285630221
40
0.943990285630221
40
0.967347132276756
40
0.967347132276756
40
1
40
1
40
1
40
1
41
1
10
18.1047776699362
20
-0.407592171009839
30
0
41
1
10
18.0479551432509
20
-0.433101993703929
30
0
41
1
10
17.9909950084362
20
-0.45742789494787
30
0
41
1
10
17.9137060888917
20
-0.488662162199205
30
0
41
1
10
17.8935116149539
20
-0.496649626143153
30
0
41
1
10
17.8530343503888
20
-0.512242641980379
30
0
41
1
10
17.8327428165757
20
-0.519846943581058
30
0
41
1
10
17.7720055568786
20
-0.541917879296591
30
0
41
1
10
17.731611521649
20
-0.555712771522082
30
0
41
1
10
17.6510926600125
20
-0.581595352147247
30
0
41
1
10
17.6109513557685
20
-0.593657861448918
30
0
41
1
10
17.5307374777447
20
-0.615880316065358
30
0
41
1
10
17.4906685856747
20
-0.626049502274014
30
0
41
1
10
17.4106529337447
20
-0.644540758477234
30
0
41
1
10
17.3707226133806
20
-0.652866812869803
30
0
41
1
10
17.2907406448193
20
-0.667473942309329
30
0
41
1
10
17.2506559004396
20
-0.673743586931636
30
0
41
1
10
17.1703457217378
20
-0.684260068506973
30
0
41
1
10
17.1301477555253
20
-0.688514206542919
30
0
41
1
10
17.0495293919449
20
-0.694925668449315
30
0
41
1
10
17.0090886485267
20
-0.697080643335312
30
0
41
1
10
16.9279197120482
20
-0.699248900061548
30
0
41
1
10
16.8874713909928
20
-0.699253716397038
30
0
41
1
10
16.8069226636915
20
-0.697106554617591
30
0
41
1
10
16.7667525872581
20
-0.694957058459835
30
0
41
1
10
16.6864362465017
20
-0.688607152028851
30
0
41
1
10
16.6463306694527
20
-0.684401564591354
30
0
41
1
10
16.5662448155686
20
-0.673931497096874
30
0
41
1
10
16.5262363474899
20
-0.667675066671535
30
0
41
1
10
16.4461574496458
20
-0.65319848600987
30
0
41
1
10
16.4061017853161
20
-0.644974202673694
30
0
41
1
10
16.3259967781562
20
-0.626491935894506
30
0
41
1
10
16.2859395767065
20
-0.616230323099245
30
0
41
1
10
16.2055140017645
20
-0.593907707956447
30
0
41
1
10
16.1651392241801
20
-0.581864314912849
30
0
41
1
10
16.0841593397997
20
-0.555903492951501
30
0
41
1
10
16.0435124747132
20
-0.541947060803011
30
0
41
1
10
15.9626450425096
20
-0.512608192752026
30
0
41
1
10
15.9223184530538
20
-0.497211730269356
30
0
41
1
10
15.8419039627237
20
-0.464949933856985
30
0
41
1
10
15.8018434904212
20
-0.448043329636732
30
0
41
1
10
15.6817910415828
20
-0.39543069764099
30
0
41
1
10
15.6017192275877
20
-0.358165211766732
30
0
41
1
10
15.4414955112212
20
-0.279333499731678
30
0
41
1
10
15.3611409875454
20
-0.238098787858433
30
0
41
1
10
15.2603231140095
20
-0.184304772657356
30
0
41
1
10
15.240135433461
20
-0.173441917773261
30
0
41
1
10
15.1996740408415
20
-0.151575687639706
30
0
41
1
10
15.179372818513
20
-0.140563073358862
30
0
41
1
10
15.1185621019835
20
-0.107543035187263
30
0
41
1
10
15.0781250992442
20
-0.0854966515721287
30
0
41
1
10
14.9975334990873
20
-0.0411871691549095
30
0
41
1
10
14.957361761355
20
-0.0189576553922279
30
0
41
1
10
14.8770974816045
20
0.0253374683182699
30
0
41
1
10
14.837009063917
20
0.047411705874481
30
0
41
1
10
14.7569657831738
20
0.091498714767738
30
0
41
1
10
14.7170269123774
20
0.113539532613771
30
0
41
1
10
14.6370356198151
20
0.157103493705307
30
0
41
1
10
14.5969505924987
20
0.178568853495193
30
0
41
1
10
14.5166495225272
20
0.220955859302421
30
0
41
1
10
14.4764600425585
20
0.241924239506432
30
0
41
1
10
14.3958651795749
20
0.283159919935315
30
0
41
1
10
14.3554400129433
20
0.303392886989116
30
0
41
1
10
14.2945947630523
20
0.333133292520301
30
0
41
1
10
14.274279427445
20
0.342949183062018
30
0
41
1
10
14.2337985134944
20
0.362290887796803
30
0
41
1
10
14.2136073575398
20
0.371830213515437
30
0
41
1
10
14.1531291054774
20
0.399968467251512
30
0
41
1
10
14.1129180537228
20
0.418056006435791
30
0
41
1
10
14.0325334875182
20
0.452670010557114
30
0
41
1
10
13.9924009716154
20
0.469260902459723
30
0
41
1
10
13.9122737972161
20
0.50104343855304
30
0
41
1
10
13.872250366069
20
0.51619344085384
30
0
41
1
10
13.792153449041
20
0.544855255116232
30
0
41
1
10
13.7520952283491
20
0.558389117345598
30
0
41
1
10
13.6719969715669
20
0.583878230918373
30
0
41
1
10
13.6319481141105
20
0.595816407547289
30
0
41
1
10
13.5515473276524
20
0.617764976563706
30
0
41
1
10
13.5111907993161
20
0.627780185521516
30
0
41
1
10
13.4302574177977
20
0.645962680466852
30
0
41
1
10
13.3895946344879
20
0.654141621745282
30
0
41
1
10
13.3086296252918
20
0.668353295688433
30
0
41
1
10
13.2682589792887
20
0.674405787853146
30
0
41
1
10
13.1877676549129
20
0.684452724342037
30
0
41
1
10
13.1476740222411
20
0.688451339275503
30
0
41
1
10
13.0516408331479
20
0.695491327346502
30
0
41
1
10
12.9956474556941
20
0.697520901760015
30
0
41
1
10
12.9396483545425
20
0.697499459440621
30
0
0
SPLINE
5
CB
100
AcDbEntity
8
1
62
256
6
ByLayer
370
18
48
1
60
0
100
AcDbSpline
70
4
71
3
72
96
73
92
40
0
40
0
40
0
40
0
40
0.0390654595080863
40
0.0390654595080863
40
0.0624299438209287
40
0.0624299438209287
40
0.0857944281337708
40
0.0857944281337708
40
0.109158912446613
40
0.109158912446613
40
0.132523396759455
40
0.132523396759455
40
0.155887881072297
40
0.155887881072297
40
0.17925236538514
40
0.17925236538514
40
0.202616849697982
40
0.202616849697982
40
0.225981334010824
40
0.225981334010824
40
0.249345818323666
40
0.249345818323666
40
0.272710302636508
40
0.272710302636508
40
0.29607478694935
40
0.29607478694935
40
0.319439271262192
40
0.319439271262192
40
0.342803755575035
40
0.342803755575035
40
0.366168239887877
40
0.366168239887877
40
0.389532724200719
40
0.389532724200719
40
0.40121496635714
40
0.40121496635714
40
0.412897208513561
40
0.412897208513561
40
0.436261692826402
40
0.436261692826402
40
0.459626177139242
40
0.459626177139242
40
0.482990661452083
40
0.482990661452083
40
0.506355145764923
40
0.506355145764923
40
0.553084114390605
40
0.553084114390605
40
0.576448598703445
40
0.576448598703445
40
0.588130840859865
40
0.588130840859865
40
0.599813083016284
40
0.599813083016284
40
0.623177567329124
40
0.623177567329124
40
0.646542051641963
40
0.646542051641963
40
0.669906535954802
40
0.669906535954802
40
0.693271020267641
40
0.693271020267641
40
0.71663550458048
40
0.71663550458048
40
0.739999988893319
40
0.739999988893319
40
0.751682231049739
40
0.751682231049739
40
0.763364473206159
40
0.763364473206159
40
0.786728957518996
40
0.786728957518996
40
0.810093441831834
40
0.810093441831834
40
0.833457926144671
40
0.833457926144671
40
0.856822410457509
40
0.856822410457509
40
0.880186894770346
40
0.880186894770346
40
0.903551379083184
40
0.903551379083184
40
0.926915863396021
40
0.926915863396021
40
0.950280347708859
40
0.950280347708859
40
0.973644832021696
40
0.973644832021696
40
0.997009316334533
40
0.997009316334533
40
1
40
1
40
1
40
1
41
1
10
10.1727079742362
20
-0.404636153586921
30
0
41
1
10
10.1056643306919
20
-0.43466307109145
30
0
41
1
10
10.0384778216546
20
-0.462983698561516
30
0
41
1
10
9.93083030831298
20
-0.505378590445162
30
0
41
1
10
9.89044995929589
20
-0.520554422291781
30
0
41
1
10
9.80923831880136
20
-0.549172057151537
30
0
41
1
10
9.7686566670466
20
-0.562580779053576
30
0
41
1
10
9.68789091143407
20
-0.587623931417141
30
0
41
1
10
9.64764211449489
20
-0.599245534035617
30
0
41
1
10
9.56724670500131
20
-0.62055585336276
30
0
41
1
10
9.52710676872417
20
-0.630256607532004
30
0
41
1
10
9.44698872653831
20
-0.647786863937228
30
0
41
1
10
9.40702327937217
20
-0.655616423603647
30
0
41
1
10
9.32699318408328
20
-0.669209996518362
30
0
41
1
10
9.28689928989465
20
-0.674966996475519
30
0
41
1
10
9.20661579004218
20
-0.68445591686455
30
0
41
1
10
9.16644972902645
20
-0.6881915097876
30
0
41
1
10
9.08592058243943
20
-0.693565216889368
30
0
41
1
10
9.04553954172832
20
-0.695203195026295
30
0
41
1
10
8.96453348424251
20
-0.696349353828822
30
0
41
1
10
8.92386803903116
20
-0.695847960866644
30
0
41
1
10
8.84302380916986
20
-0.692680383559235
30
0
41
1
10
8.80271631261553
20
-0.690024279224133
30
0
41
1
10
8.72217385381018
20
-0.682676588296772
30
0
41
1
10
8.68198057497258
20
-0.677976242653386
30
0
41
1
10
8.60175229507138
20
-0.666532889089723
30
0
41
1
10
8.56168782698308
20
-0.659800657735047
30
0
41
1
10
8.48153771469151
20
-0.644399202650732
30
0
41
1
10
8.44146913913374
20
-0.635723108034369
30
0
41
1
10
8.36137620236164
20
-0.616365572400724
30
0
41
1
10
8.32133898914884
20
-0.605685245210225
30
0
41
1
10
8.24097861520275
20
-0.582587998667066
30
0
41
1
10
8.20065953470015
20
-0.570178282497466
30
0
41
1
10
8.14004099308823
20
-0.550191245288971
30
0
41
1
10
8.11981264742627
20
-0.543297354953637
30
0
41
1
10
8.07928655006972
20
-0.529069217357346
30
0
41
1
10
8.0589630346457
20
-0.521725983037641
30
0
41
1
10
7.99806230505638
20
-0.499145567291379
30
0
41
1
10
7.9575876101579
20
-0.483389045868535
30
0
41
1
10
7.87692151442343
20
-0.450444389371768
30
0
41
1
10
7.83675576685221
20
-0.433216009445005
30
0
41
1
10
7.75652989694001
20
-0.397582378793146
30
0
41
1
10
7.71642842706115
20
-0.37924227190959
30
0
41
1
10
7.63622467340389
20
-0.34157819799637
30
0
41
1
10
7.59615930671305
20
-0.32219474338774
30
0
41
1
10
7.4759469334256
20
-0.262585715446193
30
0
41
1
10
7.39564258004708
20
-0.22115284351969
30
0
41
1
10
7.27486045444843
20
-0.156512354888605
30
0
41
1
10
7.23451020811581
20
-0.134608569542593
30
0
41
1
10
7.1736586817558
20
-0.101576343871983
30
0
41
1
10
7.15330812124986
20
-0.0905121490024214
30
0
41
1
10
7.11272017784023
20
-0.068381907915807
30
0
41
1
10
7.09246424735539
20
-0.057303120546834
30
0
41
1
10
7.03181179975712
20
-0.0240224446270645
30
0
41
1
10
6.99151494918752
20
-0.0018071421029049
30
0
41
1
10
6.91103643198639
20
0.0423808668141703
30
0
41
1
10
6.87086325676975
20
0.0643709332475169
30
0
41
1
10
6.79069543484172
20
0.108229917689613
30
0
41
1
10
6.75071014856547
20
0.13011401453474
30
0
41
1
10
6.67064721711316
20
0.173260881456002
30
0
41
1
10
6.63054352323908
20
0.194478756847474
30
0
41
1
10
6.55026566157932
20
0.236341472062463
30
0
41
1
10
6.51011281493595
20
0.257022675739023
30
0
41
1
10
6.42962214652758
20
0.297602076204697
30
0
41
1
10
6.38926774145634
20
0.317472512573687
30
0
41
1
10
6.32856945123402
20
0.346638978163781
30
0
41
1
10
6.30831078759911
20
0.356257703671446
30
0
41
1
10
6.26774468438975
20
0.375290885407537
30
0
41
1
10
6.24744222615024
20
0.384699321657394
30
0
41
1
10
6.1867191179179
20
0.412375085808605
30
0
41
1
10
6.14635491375572
20
0.430104004793151
30
0
41
1
10
6.06572033588947
20
0.4639675559213
30
0
41
1
10
6.02549168976725
20
0.480165970644009
30
0
41
1
10
5.94519999598219
20
0.511091710825781
30
0
41
1
10
5.90510760825498
20
0.525778172065316
30
0
41
1
10
5.82491877809952
20
0.553477351505592
30
0
41
1
10
5.78484067527052
20
0.566514702337713
30
0
41
1
10
5.70474162745396
20
0.590965908858635
30
0
41
1
10
5.66470483036142
20
0.602355730926632
30
0
41
1
10
5.58435563596336
20
0.623175418747422
30
0
41
1
10
5.54405339438773
20
0.632623782365926
30
0
41
1
10
5.46328603078581
20
0.649662319747335
30
0
41
1
10
5.42281991802727
20
0.657244899387337
30
0
41
1
10
5.34153654197556
20
0.670374215712144
30
0
41
1
10
5.30097583949117
20
0.67588178251691
30
0
41
1
10
5.22021119311302
20
0.684811226954565
30
0
41
1
10
5.18000550151416
20
0.688237873710364
30
0
41
1
10
5.09970478593692
20
0.692950136743178
30
0
41
1
10
5.05956957561614
20
0.694234939858376
30
0
41
1
10
5.01430941297343
20
0.69450780541888
30
0
41
1
10
5.00917420778248
20
0.694521649506498
30
0
41
1
10
5.0040396463271
20
0.694518371193141
30
0
0
SPLINE
5
CC
100
AcDbEntity
8
1
62
256
6
ByLayer
370
18
48
1
60
0
100
AcDbSpline
70
4
71
3
72
100
73
96
40
0
40
0
40
0
40
0
40
0.0039283907398189
40
0.0039283907398189
40
0.0273114534873757
40
0.0273114534873757
40
0.0506945162349325
40
0.0506945162349325
40
0.0740775789824894
40
0.0740775789824894
40
0.0974606417300461
40
0.0974606417300461
40
0.120843704477603
40
0.120843704477603
40
0.14422676722516
40
0.14422676722516
40
0.167609829972717
40
0.167609829972717
40
0.190992892720273
40
0.190992892720273
40
0.21437595546783
40
0.21437595546783
40
0.237759018215387
40
0.237759018215387
40
0.261142080962944
40
0.261142080962944
40
0.284525143710501
40
0.284525143710501
40
0.296216675084279
40
0.296216675084279
40
0.307908206458057
40
0.307908206458057
40
0.331291269205616
40
0.331291269205616
40
0.354674331953174
40
0.354674331953174
40
0.378057394700733
40
0.378057394700733
40
0.401440457448291
40
0.401440457448291
40
0.424823520195849
40
0.424823520195849
40
0.448206582943407
40
0.448206582943407
40
0.459898114317187
40
0.459898114317187
40
0.471589645690967
40
0.471589645690967
40
0.494972708438527
40
0.494972708438527
40
0.518355771186087
40
0.518355771186087
40
0.541738833933647
40
0.541738833933647
40
0.565121896681207
40
0.565121896681207
40
0.588504959428767
40
0.588504959428767
40
0.611888022176327
40
0.611888022176327
40
0.635271084923886
40
0.635271084923886
40
0.658654147671446
40
0.658654147671446
40
0.682037210419006
40
0.682037210419006
40
0.705420273166566
40
0.705420273166566
40
0.728803335914126
40
0.728803335914126
40
0.752186398661686
40
0.752186398661686
40
0.775569461409246
40
0.775569461409246
40
0.798952524156806
40
0.798952524156806
40
0.822335586904365
40
0.822335586904365
40
0.845718649651925
40
0.845718649651925
40
0.869101712399485
40
0.869101712399485
40
0.892484775147045
40
0.892484775147045
40
0.915867837894605
40
0.915867837894605
40
0.939250900642165
40
0.939250900642165
40
0.962633963389725
40
0.962633963389725
40
0.974325494763504
40
0.974325494763504
40
0.986017026137282
40
0.986017026137282
40
1
40
1
40
1
40
1
41
1
10
6.20588876894132
20
0.405162661364443
30
0
41
1
10
6.21260802625261
20
0.408218813363732
30
0
41
1
10
6.21932356720865
20
0.411259478289224
30
0
41
1
10
6.2659902784288
20
0.43228443701878
30
0
41
1
10
6.30586785008472
20
0.449645715671721
30
0
41
1
10
6.38583341512745
20
0.482606463683965
30
0
41
1
10
6.42592884969946
20
0.49820153972135
30
0
41
1
10
6.50641983268076
20
0.527607584212973
30
0
41
1
10
6.54676439114562
20
0.541489904738114
30
0
41
1
10
6.62736219754146
20
0.567930282618107
30
0
41
1
10
6.66763738824602
20
0.580457215417653
30
0
41
1
10
6.74817755228113
20
0.603980341604625
30
0
41
1
10
6.78850042420262
20
0.614956050493618
30
0
41
1
10
6.86945502373555
20
0.634822153338035
30
0
41
1
10
6.90984268357752
20
0.643660299802235
30
0
41
1
10
6.99068078686025
20
0.659127102944979
30
0
41
1
10
7.03114414859465
20
0.665764269163731
30
0
41
1
10
7.11182664160265
20
0.67711854258161
30
0
41
1
10
7.15202681474534
20
0.681834860845385
30
0
41
1
10
7.23213469888941
20
0.689261486446071
30
0
41
1
10
7.27201504843259
20
0.691969510481073
30
0
41
1
10
7.3517902069616
20
0.695213737976616
30
0
41
1
10
7.39171117259329
20
0.695748222202269
30
0
41
1
10
7.47191831440892
20
0.694693313007548
30
0
41
1
10
7.51223305955878
20
0.693117006393834
30
0
41
1
10
7.59318309377244
20
0.687946091467239
30
0
41
1
10
7.6337655733335
20
0.68434265859841
30
0
41
1
10
7.69466605438171
20
0.677291526024419
30
0
41
1
10
7.71500319666822
20
0.674663308274887
30
0
41
1
10
7.755540189557
20
0.668862288904705
30
0
41
1
10
7.77573751942148
20
0.665687710663974
30
0
41
1
10
7.8361777497266
20
0.655364262756706
30
0
41
1
10
7.87627905979593
20
0.647414992245473
30
0
41
1
10
7.95650649093795
20
0.629703540341723
30
0
41
1
10
7.99662646476142
20
0.619942640625737
30
0
41
1
10
8.07707063465455
20
0.598889250830609
30
0
41
1
10
8.11736167619836
20
0.587579438531236
30
0
41
1
10
8.19774373311745
20
0.563076426056085
30
0
41
1
10
8.2378448783937
20
0.549885555400323
30
0
41
1
10
8.31787989831363
20
0.521540870206223
30
0
41
1
10
8.35780365636657
20
0.506364655495531
30
0
41
1
10
8.43789843739509
20
0.474491365791607
30
0
41
1
10
8.47808297590007
20
0.457816672298037
30
0
41
1
10
8.53874920054795
20
0.43199989844868
30
0
41
1
10
8.55903966447426
20
0.423266745441367
30
0
41
1
10
8.59974779515977
20
0.405541431845023
30
0
41
1
10
8.62017112960933
20
0.39653783141776
30
0
41
1
10
8.68125049333526
20
0.369152889510161
30
0
41
1
10
8.72178852610966
20
0.350314434064529
30
0
41
1
10
8.80242096941126
20
0.311327282640292
30
0
41
1
10
8.84249837400299
20
0.291147445978794
30
0
41
1
10
8.92242805902325
20
0.249823458641799
30
0
41
1
10
8.96231418790978
20
0.228736901320275
30
0
41
1
10
9.04228087752946
20
0.186345529350405
30
0
41
1
10
9.08237214037351
20
0.165061964348325
30
0
41
1
10
9.16282190487956
20
0.122443112459649
30
0
41
1
10
9.20312841459864
20
0.101015963343457
30
0
41
1
10
9.28362905768742
20
0.0574072929810541
30
0
41
1
10
9.32384456586658
20
0.0352632033937539
30
0
41
1
10
9.40425259472224
20
-0.0096561015228644
30
0
41
1
10
9.44446871433252
20
-0.0323896755412818
30
0
41
1
10
9.52536631399838
20
-0.0775666666119719
30
0
41
1
10
9.56584429655601
20
-0.0999004979647111
30
0
41
1
10
9.64674553264368
20
-0.143460353630161
30
0
41
1
10
9.68723193238901
20
-0.16471208949082
30
0
41
1
10
9.76793858848322
20
-0.206819736356749
30
0
41
1
10
9.8081429239098
20
-0.227700095462467
30
0
41
1
10
9.88824725193126
20
-0.269088058726595
30
0
41
1
10
9.92812018966924
20
-0.289638044326494
30
0
41
1
10
10.0078771307769
20
-0.329789115352838
30
0
41
1
10
10.0477854120497
20
-0.349350828093549
30
0
41
1
10
10.127949615436
20
-0.387007460867153
30
0
41
1
10
10.1682361161185
20
-0.405059019926512
30
0
41
1
10
10.2490951163096
20
-0.43983708629122
30
0
41
1
10
10.2896161945016
20
-0.456642096733731
30
0
41
1
10
10.3706768712364
20
-0.489281388072328
30
0
41
1
10
10.4113002649733
20
-0.5051312630155
30
0
41
1
10
10.4919265891762
20
-0.535246614330646
30
0
41
1
10
10.5320450900236
20
-0.549493254247125
30
0
41
1
10
10.6123027698029
20
-0.575933079005324
30
0
41
1
10
10.652436821414
20
-0.588138786506846
30
0
41
1
10
10.7328975190219
20
-0.610473730545749
30
0
41
1
10
10.7731874154382
20
-0.620651084090241
30
0
41
1
10
10.8535501344666
20
-0.639327628752937
30
0
41
1
10
10.8936362238694
20
-0.647807409753682
30
0
41
1
10
10.973627398588
20
-0.662937639036301
30
0
41
1
10
11.013526761035
20
-0.669580264168161
30
0
41
1
10
11.0935647079668
20
-0.68072348834346
30
0
41
1
10
11.1337151647111
20
-0.685223464958796
30
0
41
1
10
11.1943172165428
20
-0.690346134353234
30
0
41
1
10
11.2145845528308
20
-0.691782829965831
30
0
41
1
10
11.2552384057873
20
-0.69412940049304
30
0
41
1
10
11.2756458722171
20
-0.695041190311656
30
0
41
1
10
11.3203872408821
20
-0.69646966763267
30
0
41
1
10
11.3446847637925
20
-0.696876012106685
30
0
41
1
10
11.3689051408201
20
-0.696905209121184
30
0
0
SPLINE
5
CD
100
AcDbEntity
8
1
62
256
6
ByLayer
370
18
48
1
60
0
100
AcDbSpline
70
4
71
3
72
102
73
98
40
0
40
0
40
0
40
0
40
0.0105990972096299
40
0.0105990972096299
40
0.0339450378046853
40
0.0339450378046853
40
0.0572909783997403
40
0.0572909783997403
40
0.0806369189947957
40
0.0806369189947957
40
0.103982859589851
40
0.103982859589851
40
0.127328800184906
40
0.127328800184906
40
0.139001770482434
40
0.139001770482434
40
0.150674740779962
40
0.150674740779962
40
0.174020681375014
40
0.174020681375014
40
0.197366621970066
40
0.197366621970066
40
0.220712562565119
40
0.220712562565119
40
0.244058503160171
40
0.244058503160171
40
0.267404443755223
40
0.267404443755223
40
0.290750384350275
40
0.290750384350275
40
0.3024233546478
40
0.3024233546478
40
0.314096324945324
40
0.314096324945324
40
0.337442265540371
40
0.337442265540371
40
0.360788206135417
40
0.360788206135417
40
0.384134146730463
40
0.384134146730463
40
0.407480087325509
40
0.407480087325509
40
0.430826027920556
40
0.430826027920556
40
0.454171968515602
40
0.454171968515602
40
0.477517909110648
40
0.477517909110648
40
0.489190879408173
40
0.489190879408173
40
0.500863849705697
40
0.500863849705697
40
0.524209790300746
40
0.524209790300746
40
0.547555730895796
40
0.547555730895796
40
0.570901671490845
40
0.570901671490845
40
0.594247612085894
40
0.594247612085894
40
0.617593552680944
40
0.617593552680944
40
0.640939493275993
40
0.640939493275993
40
0.664285433871042
40
0.664285433871042
40
0.687631374466091
40
0.687631374466091
40
0.71097731506114
40
0.71097731506114
40
0.73432325565619
40
0.73432325565619
40
0.757669196251239
40
0.757669196251239
40
0.781015136846288
40
0.781015136846288
40
0.804361077441337
40
0.804361077441337
40
0.816034047738864
40
0.816034047738864
40
0.82770701803639
40
0.82770701803639
40
0.851052958631445
40
0.851052958631445
40
0.8743988992265
40
0.8743988992265
40
0.897744839821556
40
0.897744839821556
40
0.921090780416611
40
0.921090780416611
40
0.944436721011666
40
0.944436721011666
40
0.967782661606721
40
0.967782661606721
40
0.991128602201776
40
0.991128602201776
40
1
40
1
40
1
40
1
41
1
10
14.1381584382813
20
0.406035943442959
30
0
41
1
10
14.1563672858221
20
0.414324799997615
30
0
41
1
10
14.174539214422
20
0.42250327670456
30
0
41
1
10
14.2326604359353
20
0.448270957510175
30
0
41
1
10
14.2725501011749
20
0.465299794114799
30
0
41
1
10
14.3525045061079
20
0.497544996620917
30
0
41
1
10
14.3925840003596
20
0.512748543784397
30
0
41
1
10
14.472969893576
20
0.541379953033896
30
0
41
1
10
14.5132232018403
20
0.554877940622617
30
0
41
1
10
14.5935901004007
20
0.580500396331473
30
0
41
1
10
14.6337236973821
20
0.592596784130905
30
0
41
1
10
14.7139483850265
20
0.615194807935239
30
0
41
1
10
14.7540664390991
20
0.625661793008589
30
0
41
1
10
14.8145816968971
20
0.639798378683366
30
0
41
1
10
14.8348325571878
20
0.644258138969974
30
0
41
1
10
14.87534645981
20
0.652620496992341
30
0
41
1
10
14.8955930306113
20
0.656520513262222
30
0
41
1
10
14.9563459098497
20
0.66738423027914
30
0
41
1
10
14.9968652167167
20
0.67352609310521
30
0
41
1
10
15.0776007157853
20
0.683866611521751
30
0
41
1
10
15.1178047678647
20
0.68805990072272
30
0
41
1
10
15.1978842303817
20
0.694407367832184
30
0
41
1
10
15.2377333727728
20
0.696557219974437
30
0
41
1
10
15.3174347419959
20
0.6986747455353
30
0
41
1
10
15.3573094067972
20
0.698643621022939
30
0
41
1
10
15.437386546616
20
0.696477319407109
30
0
41
1
10
15.4776218161063
20
0.694357633640095
30
0
41
1
10
15.5583382444877
20
0.688107618214246
30
0
41
1
10
15.5987695463046
20
0.683964569636856
30
0
41
1
10
15.6594129830998
20
0.676104112416567
30
0
41
1
10
15.6796323776703
20
0.673210416909683
30
0
41
1
10
15.7200840187869
20
0.666855448488036
30
0
41
1
10
15.7403347160382
20
0.663387040462965
30
0
41
1
10
15.8008747647377
20
0.652193668463411
30
0
41
1
10
15.8410335814712
20
0.643671381751346
30
0
41
1
10
15.9213540135568
20
0.624857086268122
30
0
41
1
10
15.9615122568364
20
0.61456860319305
30
0
41
1
10
16.0419928944962
20
0.592499083137227
30
0
41
1
10
16.0822751302984
20
0.580691424460014
30
0
41
1
10
16.1625933992882
20
0.555205351470505
30
0
41
1
10
16.2026457201789
20
0.541536834827525
30
0
41
1
10
16.2825446267938
20
0.512268428701162
30
0
41
1
10
16.3223909075569
20
0.496658287306104
30
0
41
1
10
16.4023101705758
20
0.463995870218156
30
0
41
1
10
16.4423935392809
20
0.44696202832921
30
0
41
1
10
16.5230428255651
20
0.411883812627224
30
0
41
1
10
16.5636412795099
20
0.393901071606138
30
0
41
1
10
16.6247341509996
20
0.3659474043572
30
0
41
1
10
16.6451084505577
20
0.356465252183824
30
0
41
1
10
16.6856885194406
20
0.337204352888449
30
0
41
1
10
16.7059205341038
20
0.327420089371969
30
0
41
1
10
16.766443666161
20
0.29760495577267
30
0
41
1
10
16.8065305411593
20
0.277057049073988
30
0
41
1
10
16.8864664849113
20
0.235096348057198
30
0
41
1
10
16.9263485062018
20
0.213740564109997
30
0
41
1
10
17.0062851379781
20
0.170898901885323
30
0
41
1
10
17.0463553054064
20
0.149442574618661
30
0
41
1
10
17.1267163484487
20
0.106515260523196
30
0
41
1
10
17.1669536635034
20
0.0849489479463159
30
0
41
1
10
17.2472821937402
20
0.0411270659544414
30
0
41
1
10
17.2873931500055
20
0.0189061410921738
30
0
41
1
10
17.3675652629001
20
-0.0260786762499663
30
0
41
1
10
17.4076537670811
20
-0.0487935755091655
30
0
41
1
10
17.4882695345119
20
-0.0938532813565303
30
0
41
1
10
17.5288629774747
20
-0.116244629654318
30
0
41
1
10
17.6099003067368
20
-0.159818737938338
30
0
41
1
10
17.6504274390607
20
-0.181064610166487
30
0
41
1
10
17.7311633121422
20
-0.223130820287622
30
0
41
1
10
17.7713606312534
20
-0.243966632577582
30
0
41
1
10
17.8514150357661
20
-0.285200463256928
30
0
41
1
10
17.8912458253587
20
-0.305638267333251
30
0
41
1
10
17.970906823458
20
-0.345465897436895
30
0
41
1
10
18.010759519711
20
-0.364820535804171
30
0
41
1
10
18.0907908412917
20
-0.402000749107998
30
0
41
1
10
18.1310027746037
20
-0.419780708061296
30
0
41
1
10
18.2116673467159
20
-0.453993807799009
30
0
41
1
10
18.2520701367814
20
-0.470500308683
30
0
41
1
10
18.312666364693
20
-0.494485604349904
30
0
41
1
10
18.3328692412608
20
-0.50234328085574
30
0
41
1
10
18.373285906485
20
-0.517769879292786
30
0
41
1
10
18.3935227567626
20
-0.525352203807756
30
0
41
1
10
18.4540989713611
20
-0.547485928238615
30
0
41
1
10
18.4942778513557
20
-0.561395067316994
30
0
41
1
10
18.5746252176931
20
-0.587121732316263
30
0
41
1
10
18.6147907713268
20
-0.598949744734199
30
0
41
1
10
18.6952704877463
20
-0.620516941858284
30
0
41
1
10
18.7355443791105
20
-0.630305725962614
30
0
41
1
10
18.8158334617093
20
-0.648171772208627
30
0
41
1
10
18.8558651970516
20
-0.656227669467455
30
0
41
1
10
18.935712280676
20
-0.67047289684217
30
0
41
1
10
18.9755279245411
20
-0.676650261506097
30
0
41
1
10
19.0553823872672
20
-0.686841371878671
30
0
41
1
10
19.0954316540156
20
-0.690856024427148
30
0
41
1
10
19.1760110959605
20
-0.69671819696373
30
0
41
1
10
19.2165740522524
20
-0.698572792486971
30
0
41
1
10
19.2727277485472
20
-0.699708630988539
30
0
41
1
10
19.2881948470309
20
-0.699871108046352
30
0
41
1
10
19.3036529232062
20
-0.699880826455683
30
0
0
LINE
5
7D
100
AcDbEntity
8
80
62
256
6
ByLayer
370
18
48
1
60
0
100
AcDbLine
10
0
20
0
30
0
11
-5
21
0
31
0
39
0
210
0
220
0
230
1
0
LINE
5
7E
100
AcDbEntity
8
4
62
256
6
ByLayer
370
18
48
0.05
60
0
100
AcDbLine
10
-5
20
0
30
0
11
25
21
0
31
0
39
0
210
0
220
0
230
1
0
LINE
5
80
100
AcDbEntity
8
81
62
256
6
ByLayer
370
18
48
1
60
0
100
AcDbLine
10
20
20
0
30
0
11
25
21
0
31
0
39
0
210
0
220
0
230
1
0
LINE
5
81
100
AcDbEntity
8
SK4
62
256
6
ByLayer
370
18
48
0.05
60
0
100
AcDbLine
10
-25
20
0
30
0
11
25
21
0
31
0
39
0
210
0
220
0
230
1
0
LINE
5
83
100
AcDbEntity
8
1
62
256
6
ByLayer
370
18
48
1
60
0
100
AcDbLine
10
0
20
0.7
30
0
11
0
21
-0.7
31
0
39
0
210
0
220
0
230
1
0
LINE
5
84
100
AcDbEntity
8
1
62
256
6
ByLayer
370
18
48
1
60
0
100
AcDbLine
10
19.621458
20
-0.7
30
0
11
19.621458
21
-0.38299
31
0
39
0
210
0
220
0
230
1
0
LINE
5
85
100
AcDbEntity
8
1
62
256
6
ByLayer
370
18
48
1
60
0
100
AcDbLine
10
19.621458
20
0.7
30
0
11
19.621458
21
0.677693
31
0
39
0
210
0
220
0
230
1
0
LINE
5
86
100
AcDbEntity
8
1
62
256
6
ByLayer
370
18
48
1
60
0
100
AcDbLine
10
0.1
20
-0.692679
30
0
11
0.1
21
0.692679
31
0
39
0
210
0
220
0
230
1
0
LINE
5
87
100
AcDbEntity
8
SK1
62
256
6
ByLayer
370
18
48
1
60
0
100
AcDbLine
10
-20
20
-0.6
30
0
11
-20
21
0.6
31
0
39
0
210
0
220
0
230
1
0
LINE
5
89
100
AcDbEntity
8
SK1
62
256
6
ByLayer
370
18
48
1
60
0
100
AcDbLine
10
0
20
0.7
30
0
11
0
21
-0.7
31
0
39
0
210
0
220
0
230
1
0
LINE
5
8A
100
AcDbEntity
8
SK1
62
256
6
ByLayer
370
18
48
1
60
0
100
AcDbLine
10
-19.9
20
-0.7
30
0
11
-19.9
21
0.7
31
0
39
0
210
0
220
0
230
1
0
LINE
5
8B
100
AcDbEntity
8
1
62
256
6
ByLayer
370
18
48
1
60
0
100
AcDbLine
10
20
20
0
30
0
11
19.621458
21
0.7
31
0
39
0
210
0
220
0
230
1
0
LINE
5
8C
100
AcDbEntity
8
1
62
256
6
ByLayer
370
18
48
1
60
0
100
AcDbLine
10
19.621458
20
-0.7
30
0
11
20
21
0
31
0
39
0
210
0
220
0
230
1
0
LINE
5
8D
100
AcDbEntity
8
1
62
256
6
ByLayer
370
18
48
1
60
0
100
AcDbLine
10
0.1
20
0.692679
30
0
11
0
21
0.7
31
0
39
0
210
0
220
0
230
1
0
LINE
5
8E
100
AcDbEntity
8
1
62
256
6
ByLayer
370
18
48
1
60
0
100
AcDbLine
10
0
20
-0.7
30
0
11
0.1
21
-0.692679
31
0
39
0
210
0
220
0
230
1
0
LINE
5
8F
100
AcDbEntity
8
1
62
256
6
ByLayer
370
18
48
1
60
0
100
AcDbLine
10
0.1
20
-0.692679
30
0
11
3.066999
21
-0.693792
31
0
39
0
210
0
220
0
230
1
0
LINE
5
90
100
AcDbEntity
8
1
62
256
6
ByLayer
370
18
48
1
60
0
100
AcDbLine
10
3.066999
20
-0.693792
30
0
11
5.004054
21
-0.694518
31
0
39
0
210
0
220
0
230
1
0
LINE
5
91
100
AcDbEntity
8
1
62
256
6
ByLayer
370
18
48
1
60
0
100
AcDbLine
10
7.403316
20
-0.695418
30
0
11
8.971487
21
-0.696006
31
0
39
0
210
0
220
0
230
1
0
LINE
5
92
100
AcDbEntity
8
1
62
256
6
ByLayer
370
18
48
1
60
0
100
AcDbLine
10
11.368609
20
-0.696905
30
0
11
12.939753
21
-0.697494
31
0
39
0
210
0
220
0
230
1
0
LINE
5
93
100
AcDbEntity
8
1
62
256
6
ByLayer
370
18
48
1
60
0
100
AcDbLine
10
15.336029
20
-0.698393
30
0
11
16.906945
21
-0.698982
31
0
39
0
210
0
220
0
230
1
0
LINE
5
94
100
AcDbEntity
8
1
62
256
6
ByLayer
370
18
48
1
60
0
100
AcDbLine
10
19.303674
20
-0.699881
30
0
11
19.621458
21
-0.7
31
0
39
0
210
0
220
0
230
1
0
LINE
5
95
100
AcDbEntity
8
1
62
256
6
ByLayer
370
18
48
1
60
0
100
AcDbLine
10
19.621458
20
0.7
30
0
11
19.303674
21
0.699881
31
0
39
0
210
0
220
0
230
1
0
LINE
5
96
100
AcDbEntity
8
1
62
256
6
ByLayer
370
18
48
1
60
0
100
AcDbLine
10
16.906945
20
0.698982
30
0
11
15.336029
21
0.698393
31
0
39
0
210
0
220
0
230
1
0
LINE
5
97
100
AcDbEntity
8
1
62
256
6
ByLayer
370
18
48
1
60
0
100
AcDbLine
10
12.939753
20
0.697494
30
0
11
11.368609
21
0.696905
31
0
39
0
210
0
220
0
230
1
0
LINE
5
98
100
AcDbEntity
8
1
62
256
6
ByLayer
370
18
48
1
60
0
100
AcDbLine
10
8.971487
20
0.696006
30
0
11
7.403316
21
0.695418
31
0
39
0
210
0
220
0
230
1
0
LINE
5
99
100
AcDbEntity
8
1
62
256
6
ByLayer
370
18
48
1
60
0
100
AcDbLine
10
5.004054
20
0.694518
30
0
11
3.066999
21
0.693792
31
0
39
0
210
0
220
0
230
1
0
LINE
5
9A
100
AcDbEntity
8
1
62
256
6
ByLayer
370
18
48
1
60
0
100
AcDbLine
10
3.066999
20
0.693792
30
0
11
0.1
21
0.692679
31
0
39
0
210
0
220
0
230
1
0
LINE
5
9B
100
AcDbEntity
8
SK1
62
256
6
ByLayer
370
18
48
1
60
0
100
AcDbLine
10
-20
20
-0.6
30
0
11
-19.9
21
-0.7
31
0
39
0
210
0
220
0
230
1
0
LINE
5
9C
100
AcDbEntity
8
SK1
62
256
6
ByLayer
370
18
48
1
60
0
100
AcDbLine
10
-19.9
20
0.7
30
0
11
-20
21
0.6
31
0
39
0
210
0
220
0
230
1
0
LINE
5
9D
100
AcDbEntity
8
SK1
62
256
6
ByLayer
370
18
48
1
60
0
100
AcDbLine
10
-19.9
20
-0.7
30
0
11
0
21
-0.7
31
0
39
0
210
0
220
0
230
1
0
LINE
5
9E
100
AcDbEntity
8
SK1
62
256
6
ByLayer
370
18
48
1
60
0
100
AcDbLine
10
0
20
0.7
30
0
11
-19.9
21
0.7
31
0
39
0
210
0
220
0
230
1
0
LINE
5
9F
100
AcDbEntity
8
SK2
62
256
6
ByLayer
370
13
48
1
60
0
100
AcDbLine
10
-26.5
20
27.048741
30
0
11
-26.5
21
-8.2
31
0
39
0
210
0
220
0
230
1
0
LINE
5
A1
100
AcDbEntity
8
SK2
62
256
6
ByLayer
370
13
48
1
60
0
100
AcDbLine
10
-21.5875
20
0.7
30
0
11
-28.5
21
0.7
31
0
39
0
210
0
220
0
230
1
0
LINE
5
A2
100
AcDbEntity
8
SK2
62
256
6
ByLayer
370
13
48
1
60
0
100
AcDbLine
10
-21.5875
20
-0.7
30
0
11
-28.5
21
-0.7
31
0
39
0
210
0
220
0
230
1
0
LINE
5
A3
100
AcDbEntity
8
1
62
256
6
ByLayer
370
18
48
1
60
1
100
AcDbLine
10
-26.5
20
0.7
30
0
11
-26.960784
21
4.199998
31
0
39
0
210
0
220
0
230
1
0
LINE
5
A4
100
AcDbEntity
8
1
62
256
6
ByLayer
370
18
48
1
60
1
100
AcDbLine
10
-26.960784
20
4.199998
30
0
11
-26.039216
21
4.200002
31
0
39
0
210
0
220
0
230
1
0
LINE
5
A5
100
AcDbEntity
8
1
62
256
6
ByLayer
370
18
48
1
60
1
100
AcDbLine
10
-26.039216
20
4.200002
30
0
11
-26.5
21
0.7
31
0
39
0
210
0
220
0
230
1
0
LINE
5
A6
100
AcDbEntity
8
1
62
256
6
ByLayer
370
18
48
1
60
1
100
AcDbLine
10
-26.5
20
-0.7
30
0
11
-26.039216
21
-4.199998
31
0
39
0
210
0
220
0
230
1
0
LINE
5
A7
100
AcDbEntity
8
1
62
256
6
ByLayer
370
18
48
1
60
1
100
AcDbLine
10
-26.039216
20
-4.199998
30
0
11
-26.960784
21
-4.200002
31
0
39
0
210
0
220
0
230
1
0
LINE
5
A8
100
AcDbEntity
8
1
62
256
6
ByLayer
370
18
48
1
60
1
100
AcDbLine
10
-26.960784
20
-4.200002
30
0
11
-26.5
21
-0.7
31
0
39
0
210
0
220
0
230
1
0
LINE
5
A9
100
AcDbEntity
8
2
62
256
6
ByLayer
370
13
48
1
60
0
100
AcDbLine
10
29.121458
20
27.048741
30
0
11
29.121458
21
-8.2
31
0
39
0
210
0
220
0
230
1
0
LINE
5
AB
100
AcDbEntity
8
2
62
256
6
ByLayer
370
13
48
1
60
0
100
AcDbLine
10
21.208958
20
0.7
30
0
11
31.121458
21
0.7
31
0
39
0
210
0
220
0
230
1
0
LINE
5
AC
100
AcDbEntity
8
2
62
256
6
ByLayer
370
13
48
1
60
0
100
AcDbLine
10
21.208958
20
-0.7
30
0
11
31.121458
21
-0.7
31
0
39
0
210
0
220
0
230
1
0
LINE
5
AD
100
AcDbEntity
8
1
62
256
6
ByLayer
370
18
48
1
60
1
100
AcDbLine
10
29.121458
20
0.7
30
0
11
28.660674
21
4.199998
31
0
39
0
210
0
220
0
230
1
0
LINE
5
AE
100
AcDbEntity
8
1
62
256
6
ByLayer
370
18
48
1
60
1
100
AcDbLine
10
28.660674
20
4.199998
30
0
11
29.582242
21
4.200002
31
0
39
0
210
0
220
0
230
1
0
LINE
5
AF
100
AcDbEntity
8
1
62
256
6
ByLayer
370
18
48
1
60
1
100
AcDbLine
10
29.582242
20
4.200002
30
0
11
29.121458
21
0.7
31
0
39
0
210
0
220
0
230
1
0
LINE
5
B0
100
AcDbEntity
8
1
62
256
6
ByLayer
370
18
48
1
60
1
100
AcDbLine
10
29.121458
20
-0.7
30
0
11
29.582242
21
-4.199998
31
0
39
0
210
0
220
0
230
1
0
LINE
5
B1
100
AcDbEntity
8
1
62
256
6
ByLayer
370
18
48
1
60
1
100
AcDbLine
10
29.582242
20
-4.199998
30
0
11
28.660674
21
-4.200002
31
0
39
0
210
0
220
0
230
1
0
LINE
5
B2
100
AcDbEntity
8
1
62
256
6
ByLayer
370
18
48
1
60
1
100
AcDbLine
10
28.660674
20
-4.200002
30
0
11
29.121458
21
-0.7
31
0
39
0
210
0
220
0
230
1
0
LINE
5
B3
100
AcDbEntity
8
2
62
256
6
ByLayer
370
13
48
1
60
0
100
AcDbLine
10
20.755136
20
-1.396397
30
0
11
31.416232
21
-21.110889
31
0
39
0
210
0
220
0
230
1
0
LINE
5
B4
100
AcDbEntity
8
2
62
256
6
ByLayer
370
13
48
1
60
0
100
AcDbLine
10
20.755136
20
1.396397
30
0
11
31.416232
21
21.110889
31
0
39
0
210
0
220
0
230
1
0
LINE
5
B5
100
AcDbEntity
8
1
62
256
6
ByLayer
370
18
48
1
60
1
100
AcDbLine
10
30.464879
20
-19.351649
30
0
11
33.239971
21
-17.169637
31
0
39
0
210
0
220
0
230
1
0
LINE
5
B6
100
AcDbEntity
8
1
62
256
6
ByLayer
370
18
48
1
60
1
100
AcDbLine
10
33.239971
20
-17.169637
30
0
11
33.710161
21
-17.962233
31
0
39
0
210
0
220
0
230
1
0
LINE
5
B7
100
AcDbEntity
8
1
62
256
6
ByLayer
370
18
48
1
60
1
100
AcDbLine
10
33.710161
20
-17.962233
30
0
11
30.464879
21
-19.351649
31
0
39
0
210
0
220
0
230
1
0
LINE
5
B8
100
AcDbEntity
8
1
62
256
6
ByLayer
370
18
48
1
60
1
100
AcDbLine
10
30.464879
20
19.351649
30
0
11
33.710158
21
17.962234
31
0
39
0
210
0
220
0
230
1
0
LINE
5
B9
100
AcDbEntity
8
1
62
256
6
ByLayer
370
18
48
1
60
1
100
AcDbLine
10
33.710158
20
17.962234
30
0
11
33.239974
21
17.169635
31
0
39
0
210
0
220
0
230
1
0
LINE
5
BA
100
AcDbEntity
8
1
62
256
6
ByLayer
370
18
48
1
60
1
100
AcDbLine
10
33.239974
20
17.169635
30
0
11
30.464879
21
19.351649
31
0
39
0
210
0
220
0
230
1
0
LINE
5
D2
100
AcDbEntity
8
1
62
256
6
ByLayer
370
18
48
1
60
1
100
AcDbLine
10
-26.5
20
0.7
30
0
11
-26.960784
21
4.199998
31
0
39
0
210
0
220
0
230
1
0
LINE
5
D3
100
AcDbEntity
8
1
62
256
6
ByLayer
370
18
48
1
60
1
100
AcDbLine
10
-26.960784
20
4.199998
30
0
11
-26.039216
21
4.200002
31
0
39
0
210
0
220
0
230
1
0
LINE
5
D4
100
AcDbEntity
8
1
62
256
6
ByLayer
370
18
48
1
60
1
100
AcDbLine
10
-26.039216
20
4.200002
30
0
11
-26.5
21
0.7
31
0
39
0
210
0
220
0
230
1
0
LINE
5
D6
100
AcDbEntity
8
1
62
256
6
ByLayer
370
18
48
1
60
1
100
AcDbLine
10
-26.5
20
-0.7
30
0
11
-26.039216
21
-4.199998
31
0
39
0
210
0
220
0
230
1
0
LINE
5
D7
100
AcDbEntity
8
1
62
256
6
ByLayer
370
18
48
1
60
1
100
AcDbLine
10
-26.039216
20
-4.199998
30
0
11
-26.960784
21
-4.200002
31
0
39
0
210
0
220
0
230
1
0
LINE
5
D8
100
AcDbEntity
8
1
62
256
6
ByLayer
370
18
48
1
60
1
100
AcDbLine
10
-26.960784
20
-4.200002
30
0
11
-26.5
21
-0.7
31
0
39
0
210
0
220
0
230
1
0
LINE
5
DC
100
AcDbEntity
8
1
62
256
6
ByLayer
370
18
48
1
60
1
100
AcDbLine
10
29.121458
20
0.7
30
0
11
28.660674
21
4.199998
31
0
39
0
210
0
220
0
230
1
0
LINE
5
DD
100
AcDbEntity
8
1
62
256
6
ByLayer
370
18
48
1
60
1
100
AcDbLine
10
28.660674
20
4.199998
30
0
11
29.582242
21
4.200002
31
0
39
0
210
0
220
0
230
1
0
LINE
5
DE
100
AcDbEntity
8
1
62
256
6
ByLayer
370
18
48
1
60
1
100
AcDbLine
10
29.582242
20
4.200002
30
0
11
29.121458
21
0.7
31
0
39
0
210
0
220
0
230
1
0
LINE
5
E0
100
AcDbEntity
8
1
62
256
6
ByLayer
370
18
48
1
60
1
100
AcDbLine
10
29.121458
20
-0.7
30
0
11
29.582242
21
-4.199998
31
0
39
0
210
0
220
0
230
1
0
LINE
5
E1
100
AcDbEntity
8
1
62
256
6
ByLayer
370
18
48
1
60
1
100
AcDbLine
10
29.582242
20
-4.199998
30
0
11
28.660674
21
-4.200002
31
0
39
0
210
0
220
0
230
1
0
LINE
5
E2
100
AcDbEntity
8
1
62
256
6
ByLayer
370
18
48
1
60
1
100
AcDbLine
10
28.660674
20
-4.200002
30
0
11
29.121458
21
-0.7
31
0
39
0
210
0
220
0
230
1
0
LINE
5
E5
100
AcDbEntity
8
1
62
256
6
ByLayer
370
18
48
1
60
1
100
AcDbLine
10
30.464879
20
-19.351649
30
0
11
33.239971
21
-17.169637
31
0
39
0
210
0
220
0
230
1
0
LINE
5
E6
100
AcDbEntity
8
1
62
256
6
ByLayer
370
18
48
1
60
1
100
AcDbLine
10
33.239971
20
-17.169637
30
0
11
33.710161
21
-17.962233
31
0
39
0
210
0
220
0
230
1
0
LINE
5
E7
100
AcDbEntity
8
1
62
256
6
ByLayer
370
18
48
1
60
1
100
AcDbLine
10
33.710161
20
-17.962233
30
0
11
30.464879
21
-19.351649
31
0
39
0
210
0
220
0
230
1
0
LINE
5
E9
100
AcDbEntity
8
1
62
256
6
ByLayer
370
18
48
1
60
1
100
AcDbLine
10
30.464879
20
19.351649
30
0
11
33.710158
21
17.962234
31
0
39
0
210
0
220
0
230
1
0
LINE
5
EA
100
AcDbEntity
8
1
62
256
6
ByLayer
370
18
48
1
60
1
100
AcDbLine
10
33.710158
20
17.962234
30
0
11
33.239974
21
17.169635
31
0
39
0
210
0
220
0
230
1
0
LINE
5
EB
100
AcDbEntity
8
1
62
256
6
ByLayer
370
18
48
1
60
1
100
AcDbLine
10
33.239974
20
17.169635
30
0
11
30.464879
21
19.351649
31
0
39
0
210
0
220
0
230
1
0
MTEXT
5
CE
100
AcDbEntity
8
SK2
62
256
6
ByLayer
370
18
48
1
60
0
100
AcDbMText
10
-27.841114
20
12.358437
30
0
210
0
220
0
230
1
1
%%c
40
3
41
0
44
1.084337
50
90
71
7
72
5
7
iso_b_vert
0
MTEXT
5
D1
100
AcDbEntity
8
SK2
62
256
6
ByLayer
370
18
48
1
60
0
100
AcDbMText
10
-27.841114
20
18.335
30
0
210
0
220
0
230
1
1
\W0.7091;1.400
40
3
41
0
44
1.084337
50
90
71
7
72
5
7
iso_b_vert
0
MTEXT
5
DA
100
AcDbEntity
8
2
62
256
6
ByLayer
370
18
48
1
60
0
100
AcDbMText
10
27.780343
20
12.358437
30
0
210
0
220
0
230
1
1
%%c
40
3
41
0
44
1.084337
50
90
71
7
72
5
7
iso_b_vert
0
MTEXT
5
DB
100
AcDbEntity
8
2
62
256
6
ByLayer
370
18
48
1
60
0
100
AcDbMText
10
27.780343
20
18.335
30
0
210
0
220
0
230
1
1
\W0.7091;1.400
40
3
41
0
44
1.084337
50
90
71
7
72
5
7
iso_b_vert
0
MTEXT
5
E4
100
AcDbEntity
8
2
62
256
6
ByLayer
370
18
48
1
60
0
100
AcDbMText
10
39.092229
20
-2.114886
30
0
210
0
220
0
230
1
1
\W0.6008;118%%d
40
3
41
0
44
1.084337
50
0
71
7
72
5
7
iso_b_vert
0
MTEXT
5
ED
100
AcDbEntity
8
SK6
62
256
6
ByLayer
370
18
48
1
60
0
100
AcDbMText
10
-6.665142
20
-67.114886
30
0
210
0
220
0
230
1
1
\W0.7402;R0031.4
40
3
41
0
44
1.084337
50
0
71
7
72
5
7
iso_b_vert
0
HATCH
5
D5
100
AcDbEntity
8
SK2
62
256
6
ByLayer
370
13
48
1
60
0
100
AcDbHatch
10
0
20
0
30
0
210
0
220
0
230
1
2
ANSI31
70
0
71
0
91
1
92
5
93
3
72
1
10
-26.5
20
0.699999999999989
11
-26.9607837415528
21
4.1999983074468
72
1
10
-26.9607837415528
20
4.1999983074468
11
-26.0392162584472
21
4.20000169255317
72
1
10
-26.0392162584472
20
4.20000169255317
11
-26.5
21
0.699999999999989
97
0
75
0
76
1
52
0
41
0.0062
77
0
78
1
53
45
43
0
44
0
45
-0.0139193969876572
46
0.0139193969876572
79
0
47
0
98
1
10
0
20
0
0
HATCH
5
D9
100
AcDbEntity
8
SK2
62
256
6
ByLayer
370
13
48
1
60
0
100
AcDbHatch
10
0
20
0
30
0
210
0
220
0
230
1
2
ANSI31
70
0
71
0
91
1
92
5
93
3
72
1
10
-26.5
20
-0.700000000000017
11
-26.0392162584472
21
-4.19999830744683
72
1
10
-26.0392162584472
20
-4.19999830744683
11
-26.9607837415528
21
-4.2000016925532
72
1
10
-26.9607837415528
20
-4.2000016925532
11
-26.5
21
-0.700000000000017
97
0
75
0
76
1
52
0
41
0.0062
77
0
78
1
53
45
43
0
44
0
45
-0.0139193969876572
46
0.0139193969876572
79
0
47
0
98
1
10
0
20
0
0
HATCH
5
DF
100
AcDbEntity
8
2
62
256
6
ByLayer
370
13
48
1
60
0
100
AcDbHatch
10
0
20
0
30
0
210
0
220
0
230
1
2
ANSI31
70
0
71
0
91
1
92
5
93
3
72
1
10
29.1214578100126
20
0.699999999999989
11
28.6606740684599
21
4.1999983074468
72
1
10
28.6606740684599
20
4.1999983074468
11
29.5822415515654
21
4.20000169255317
72
1
10
29.5822415515654
20
4.20000169255317
11
29.1214578100126
21
0.699999999999989
97
0
75
0
76
1
52
0
41
0.0062
77
0
78
1
53
45
43
0
44
0
45
-0.0139193969876572
46
0.0139193969876572
79
0
47
0
98
1
10
0
20
0
0
HATCH
5
E3
100
AcDbEntity
8
2
62
256
6
ByLayer
370
13
48
1
60
0
100
AcDbHatch
10
0
20
0
30
0
210
0
220
0
230
1
2
ANSI31
70
0
71
0
91
1
92
5
93
3
72
1
10
29.1214578100126
20
-0.700000000000017
11
29.5822415515654
21
-4.19999830744683
72
1
10
29.5822415515654
20
-4.19999830744683
11
28.6606740684599
21
-4.2000016925532
72
1
10
28.6606740684599
20
-4.2000016925532
11
29.1214578100126
21
-0.700000000000017
97
0
75
0
76
1
52
0
41
0.0062
77
0
78
1
53
45
43
0
44
0
45
-0.0139193969876572
46
0.0139193969876572
79
0
47
0
98
1
10
0
20
0
0
HATCH
5
E8
100
AcDbEntity
8
2
62
256
6
ByLayer
370
13
48
1
60
0
100
AcDbHatch
10
0
20
0
30
0
210
0
220
0
230
1
2
ANSI31
70
0
71
0
91
1
92
5
93
3
72
1
10
30.4648791987522
20
-19.3516485952883
11
33.2399711078384
21
-17.1696369764524
72
1
10
33.2399711078384
20
-17.1696369764524
11
33.7101613929252
21
-17.962232536457
72
1
10
33.7101613929252
20
-17.962232536457
11
30.4648791987522
21
-19.3516485952883
97
0
75
0
76
1
52
0
41
0.0062
77
0
78
1
53
45
43
0
44
0
45
-0.0139193969876572
46
0.0139193969876572
79
0
47
0
98
1
10
0
20
0
0
HATCH
5
EC
100
AcDbEntity
8
2
62
256
6
ByLayer
370
13
48
1
60
0
100
AcDbHatch
10
0
20
0
30
0
210
0
220
0
230
1
2
ANSI31
70
0
71
0
91
1
92
5
93
3
72
1
10
30.4648791987519
20
19.3516485952884
11
33.7101584815525
21
17.9622342635519
72
1
10
33.7101584815525
20
17.9622342635519
11
33.2399740192105
21
17.169635249358
72
1
10
33.2399740192105
20
17.169635249358
11
30.4648791987519
21
19.3516485952884
97
0
75
0
76
1
52
0
41
0.0062
77
0
78
1
53
45
43
0
44
0
45
-0.0139193969876572
46
0.0139193969876572
79
0
47
0
98
1
10
0
20
0
0
DIMENSION
5
F0
100
AcDbEntity
8
SK2
62
256
6
ByLayer
370
18
48
1
60
0
100
AcDbDimension
2
_U0
10
20
20
-47.933582
30
0
11
0
21
-47.933582
31
0
70
32
71
1
72
1
41
1
210
0
220
0
230
1
3
Standard
100
AcDbAlignedDimension
13
-20
23
-0.7
33
0
14
20
24
0
34
0
50
0
100
AcDbRotatedDimension
1001
ACAD
1000
DSTYLE
1002
{
1070
   371
1070
    13
1070
   372
1070
    13
1070
     3
1000

1070
   170
1070
     0
1070
   144
1040
1.0
1070
   277
1070
     2
1070
   284
1070
     8
1070
   278
1070
    46
1070
   146
1040
1.166667
1070
   345
1005
16
1070
   347
1005
16
1070
   346
1005
16
1070
   344
1005
0
1070
   343
1005
0
1070
   172
1070
     1
1070
    76
1070
     0
1070
    75
1070
     0
1070
   282
1070
     0
1070
   281
1070
     0
1070
    71
1070
     0
1070
    74
1070
     0
1070
   279
1070
     0
1070
   173
1070
     1
1070
   340
1005
CF
1070
   271
1070
     2
1070
   272
1070
     3
1070
    77
1070
     1
1070
    73
1070
     1
1070
   171
1070
     3
1070
   274
1070
     4
1070
   177
1070
     2
1070
   176
1070
     2
1070
   178
1070
     2
1070
    78
1070
     8
1070
    48
1040
-0.1
1070
    41
1040
3.5
1070
   147
1040
1.5
1070
    42
1040
1.5875
1070
    44
1040
2.0
1070
   140
1040
3.0
1002
}
1001
ACAD_DSTYLE_DIM_LINETYPE
1070
   380
1005
16
1001
ACAD_DSTYLE_DIM_EXT1_LINETYPE
1070
   381
1005
16
1001
ACAD_DSTYLE_DIM_EXT2_LINETYPE
1070
   382
1005
16
0
DIMENSION
5
109
100
AcDbEntity
8
2
62
256
6
ByLayer
370
18
48
1
60
0
100
AcDbDimension
2
_U1
10
2
20
-37.933582
30
0
11
11
21
-37.933582
31
0
70
32
71
1
72
1
41
1
210
0
220
0
230
1
3
Standard
100
AcDbAlignedDimension
13
20
23
0
33
0
14
2
24
-0.7
34
0
50
0
100
AcDbRotatedDimension
1001
ACAD
1000
DSTYLE
1002
{
1070
   371
1070
    13
1070
   372
1070
    13
1070
     3
1000

1070
   170
1070
     0
1070
   144
1040
1.0
1070
   277
1070
     2
1070
   284
1070
     8
1070
   278
1070
    46
1070
   146
1040
1.166667
1070
   345
1005
16
1070
   347
1005
16
1070
   346
1005
16
1070
   344
1005
0
1070
   343
1005
0
1070
   172
1070
     1
1070
    76
1070
     0
1070
    75
1070
     0
1070
   282
1070
     0
1070
   281
1070
     0
1070
    71
1070
     0
1070
    74
1070
     0
1070
   279
1070
     0
1070
   173
1070
     1
1070
   340
1005
CF
1070
   271
1070
     2
1070
   272
1070
     3
1070
    77
1070
     1
1070
    73
1070
     1
1070
   171
1070
     3
1070
   274
1070
     4
1070
   177
1070
     2
1070
   176
1070
     2
1070
   178
1070
     2
1070
    78
1070
     8
1070
    48
1040
-0.1
1070
    41
1040
3.5
1070
   147
1040
1.5
1070
    42
1040
1.5875
1070
    44
1040
2.0
1070
   140
1040
3.0
1002
}
1001
ACAD_DSTYLE_DIM_LINETYPE
1070
   380
1005
16
1001
ACAD_DSTYLE_DIM_EXT1_LINETYPE
1070
   381
1005
16
1001
ACAD_DSTYLE_DIM_EXT2_LINETYPE
1070
   382
1005
16
0
DIMENSION
5
121
100
AcDbEntity
8
SK2
62
256
6
ByLayer
370
18
48
1
60
0
100
AcDbDimension
2
_U2
10
0
20
-32.933582
30
0
11
-10
21
-32.933582
31
0
70
32
71
1
72
1
41
1
210
0
220
0
230
1
3
Standard
100
AcDbAlignedDimension
13
-20
23
-0.7
33
0
14
0
24
-0.7
34
0
50
0
100
AcDbRotatedDimension
1001
ACAD
1000
DSTYLE
1002
{
1070
   371
1070
    13
1070
   372
1070
    13
1070
     3
1000

1070
   170
1070
     0
1070
   144
1040
1.0
1070
   277
1070
     2
1070
   284
1070
     8
1070
   278
1070
    46
1070
   146
1040
1.166667
1070
   345
1005
16
1070
   347
1005
16
1070
   346
1005
16
1070
   344
1005
0
1070
   343
1005
0
1070
   172
1070
     1
1070
    76
1070
     0
1070
    75
1070
     0
1070
   282
1070
     0
1070
   281
1070
     0
1070
    71
1070
     0
1070
    74
1070
     0
1070
   279
1070
     0
1070
   173
1070
     1
1070
   340
1005
CF
1070
   271
1070
     2
1070
   272
1070
     3
1070
    77
1070
     1
1070
    73
1070
     1
1070
   171
1070
     3
1070
   274
1070
     4
1070
   177
1070
     2
1070
   176
1070
     2
1070
   178
1070
     2
1070
    78
1070
     8
1070
    48
1040
-0.1
1070
    41
1040
3.5
1070
   147
1040
1.5
1070
    42
1040
1.5875
1070
    44
1040
2.0
1070
   140
1040
3.0
1002
}
1001
ACAD_DSTYLE_DIM_LINETYPE
1070
   380
1005
16
1001
ACAD_DSTYLE_DIM_EXT1_LINETYPE
1070
   381
1005
16
1001
ACAD_DSTYLE_DIM_EXT2_LINETYPE
1070
   382
1005
16
0
DIMENSION
5
139
100
AcDbEntity
8
2
62
256
6
ByLayer
370
18
48
1
60
0
100
AcDbDimension
2
_U3
10
6.5
20
-30.933582
30
0
11
13.25
21
-30.933582
31
0
70
32
71
1
72
1
41
1
210
0
220
0
230
1
3
Standard
100
AcDbAlignedDimension
13
20
23
0
33
0
14
6.5
24
-0.7
34
0
50
0
100
AcDbRotatedDimension
1001
ACAD
1000
DSTYLE
1002
{
1070
   371
1070
    13
1070
   372
1070
    13
1070
     3
1000

1070
   170
1070
     0
1070
   144
1040
1.0
1070
   277
1070
     2
1070
   284
1070
     8
1070
   278
1070
    46
1070
   146
1040
1.166667
1070
   345
1005
16
1070
   347
1005
16
1070
   346
1005
16
1070
   344
1005
0
1070
   343
1005
0
1070
   172
1070
     1
1070
    76
1070
     0
1070
    75
1070
     0
1070
   282
1070
     0
1070
   281
1070
     0
1070
    71
1070
     0
1070
    74
1070
     0
1070
   279
1070
     0
1070
   173
1070
     1
1070
   340
1005
CF
1070
   271
1070
     2
1070
   272
1070
     3
1070
    77
1070
     1
1070
    73
1070
     1
1070
   171
1070
     3
1070
   274
1070
     4
1070
   177
1070
     2
1070
   176
1070
     2
1070
   178
1070
     2
1070
    78
1070
     8
1070
    48
1040
-0.1
1070
    41
1040
3.5
1070
   147
1040
1.5
1070
    42
1040
1.5875
1070
    44
1040
2.0
1070
   140
1040
3.0
1002
}
1001
ACAD_DSTYLE_DIM_LINETYPE
1070
   380
1005
16
1001
ACAD_DSTYLE_DIM_EXT1_LINETYPE
1070
   381
1005
16
1001
ACAD_DSTYLE_DIM_EXT2_LINETYPE
1070
   382
1005
16
0
ENDSEC
0
SECTION
2
OBJECTS
0
DICTIONARY
5
1c4
330
0
100
AcDbDictionary
280
0
281
1
3
ACAD_GROUP
350
1c5
3
ACAD_MLINESTYLE
350
1c6
0
DICTIONARY
5
1c5
330
0
100
AcDbDictionary
280
0
281
1
0
DICTIONARY
5
1c6
330
0
100
AcDbDictionary
280
0
281
1
3
Standard
350
18
0
MLINESTYLE
5
18
330
1c6
100
AcDbMlineStyle
2
Standard
70
0
3

62
256
51
90
52
90
71
2
49
-0.5
62
256
6
ByLayer
49
0.5
62
256
6
ByLayer
0
RASTERVARIABLES
5
1b0
330

100
AcDbRasterVariables
90
0
70
1
71
1
72
1
0
ENDSEC
0
EOF
