0
SECTION
2
HEADER
9
$ACADVER
1
AC1015
9
$DWGCODEPAGE
3
ANSI_1252
9
$HANDSEED
5
1d0
9
$ANGBASE
50
0
9
$ANGDIR
70
0
9
$ATTMODE
70
1
9
$AUNITS
70
0
9
$AUPREC
70
0
9
$CECOLOR
62
256
9
$CELTSCALE
40
1
9
$CELTYPE
6
ByLayer
9
$CELWEIGHT
370
18
9
$CLAYER
8
0
9
$CMLJUST
70
0
9
$CMLSCALE
40
1
9
$CMLSTYLE
2
Standard
9
$DIMSTYLE
2
Standard
9
$TEXTSIZE
40
0.2
9
$TEXTSTYLE
7
Standard
9
$LUNITS
70
2
9
$LUPREC
70
4
9
$EXTNAMES
290
1
9
$INSUNITS
70
4
9
$LTSCALE
40
1
9
$LWDISPLAY
290
1
9
$PDMODE
70
0
9
$PDSIZE
40
0
9
$PLINEGEN
70
0
0
ENDSEC
0
SECTION
2
CLASSES
0
CLASS
1
RASTERVARIABLES
2
AcDbRasterVariables
3
ISM
90
0
280
0
281
0
0
ENDSEC
0
SECTION
2
TABLES
0
TABLE
2
VPORT
5
1c6
100
AcDbSymbolTable
0
VPORT
5
1
100
AcDbSymbolTableRecord
100
AcDbViewportTableRecord
2
*Active
70
0
10
0
20
0
11
1
21
1
12
-1
22
1
13
0
23
0
14
0.5
24
0.5
15
10
25
10
16
0
26
0
36
1
17
0
27
0
37
0
0
ENDTAB
0
TABLE
2
LTYPE
5
1c7
100
AcDbSymbolTable
0
LTYPE
5
14
100
AcDbSymbolTableRecord
100
AcDbLinetypeTableRecord
70
0
2
ByBlock
3

72
65
73
0
40
0
0
LTYPE
5
15
100
AcDbSymbolTableRecord
100
AcDbLinetypeTableRecord
70
0
2
ByLayer
3

72
65
73
0
40
0
0
LTYPE
5
16
100
AcDbSymbolTableRecord
100
AcDbLinetypeTableRecord
70
0
2
Continuous
3
Solid line
72
65
73
0
40
0
0
LTYPE
5
6E
100
AcDbSymbolTableRecord
100
AcDbLinetypeTableRecord
70
0
2
CENTER
3
____ _ ____ _ ____ _ ____
72
65
73
4
40
47.5
49
22
74
0
49
-8.5
74
0
49
8.5
74
0
49
-8.5
74
0
0
LTYPE
5
6F
100
AcDbSymbolTableRecord
100
AcDbLinetypeTableRecord
70
0
2
DASHED
3
__ __ __ __ __ __ __ __ __
72
65
73
2
40
25.72
49
12.86
74
0
49
-12.86
74
0
0
ENDTAB
0
TABLE
2
LAYER
5
1c8
100
AcDbSymbolTable
0
LAYER
5
10
100
AcDbSymbolTableRecord
100
AcDbLayerTableRecord
2
0
70
0
62
7
6
Continuous
290
1
370
-3
390
0
0
LAYER
5
71
100
AcDbSymbolTableRecord
100
AcDbLayerTableRecord
2
81
70
0
62
-3
6
Continuous
290
1
370
-3
390
0
0
LAYER
5
73
100
AcDbSymbolTableRecord
100
AcDbLayerTableRecord
2
80
70
0
62
-6
6
Continuous
290
1
370
-3
390
0
0
LAYER
5
75
100
AcDbSymbolTableRecord
100
AcDbLayerTableRecord
2
1
70
0
62
4
6
Continuous
290
1
370
-3
390
0
0
LAYER
5
7F
100
AcDbSymbolTableRecord
100
AcDbLayerTableRecord
2
4
70
0
62
-2
6
CENTER
290
1
370
-3
390
0
0
LAYER
5
A8
100
AcDbSymbolTableRecord
100
AcDbLayerTableRecord
2
2
70
0
62
7
6
Continuous
290
1
370
-3
390
0
0
LAYER
5
F2
100
AcDbSymbolTableRecord
100
AcDbLayerTableRecord
2
Defpoints
70
0
62
7
6
Continuous
290
0
370
-3
390
0
0
LAYER
5
1b0
100
AcDbSymbolTableRecord
100
AcDbLayerTableRecord
2
SK4
70
0
62
2
6
CENTER
290
1
370
-3
390
0
0
LAYER
5
1b1
100
AcDbSymbolTableRecord
100
AcDbLayerTableRecord
2
SK1
70
0
62
4
6
Continuous
290
1
370
-3
390
0
0
LAYER
5
1b2
100
AcDbSymbolTableRecord
100
AcDbLayerTableRecord
2
SK2
70
0
62
7
6
Continuous
290
1
370
-3
390
0
0
LAYER
5
1b3
100
AcDbSymbolTableRecord
100
AcDbLayerTableRecord
2
CUT
70
0
62
-1
6
Continuous
290
1
370
-3
390
0
0
LAYER
5
1b4
100
AcDbSymbolTableRecord
100
AcDbLayerTableRecord
2
NOCUT
70
0
62
-7
6
Continuous
290
1
370
-3
390
0
0
LAYER
5
1b5
100
AcDbSymbolTableRecord
100
AcDbLayerTableRecord
2
SK6
70
0
62
5
6
Continuous
290
1
370
-3
390
0
0
ENDTAB
0
TABLE
2
STYLE
5
1c9
100
AcDbSymbolTable
0
STYLE
5
11
100
AcDbSymbolTableRecord
100
AcDbTextStyleTableRecord
2
Standard
3
txt
70
0
71
0
40
0
41
1
42
0
50
0
0
STYLE
5
CE
100
AcDbSymbolTableRecord
100
AcDbTextStyleTableRecord
2
iso_b_vert
3
simplex.shx
70
0
71
0
40
0
41
1
42
0
50
0
0
STYLE
5
CF
100
AcDbSymbolTableRecord
100
AcDbTextStyleTableRecord
2
DWGDirectTextStyle
3
simplex
70
0
71
0
40
0
41
1
42
0
50
0
0
ENDTAB
0
TABLE
2
DIMSTYLE
5
1ca
100
AcDbSymbolTable
100
AcDbDimStyleTable
0
DIMSTYLE
105
27
100
AcDbSymbolTableRecord
100
AcDbDimStyleTableRecord
2
Standard
70
0
3
<>
41
0.18
42
0.0625
44
0.18
140
0.18
147
0.09
73
0
74
0
77
1
271
2
275
0
278
52
280
0
340
11
0
ENDTAB
0
TABLE
2
VIEW
5
1cb
100
AcDbSymbolTable
0
ENDTAB
0
TABLE
2
UCS
5
1cc
100
AcDbSymbolTable
0
ENDTAB
0
TABLE
2
APPID
5
1cd
100
AcDbSymbolTable
0
APPID
5
12
100
AcDbSymbolTableRecord
100
AcDbRegAppTableRecord
2
ACAD
70
0
0
APPID
5
EE
100
AcDbSymbolTableRecord
100
AcDbRegAppTableRecord
2
ACAD_DSTYLE_DIMBREAK
70
0
0
APPID
5
16F
100
AcDbSymbolTableRecord
100
AcDbRegAppTableRecord
2
ACAD_DSTYLE_DIM_LINETYPE
70
0
0
APPID
5
170
100
AcDbSymbolTableRecord
100
AcDbRegAppTableRecord
2
ACAD_DSTYLE_DIM_EXT1_LINETYPE
70
0
0
APPID
5
171
100
AcDbSymbolTableRecord
100
AcDbRegAppTableRecord
2
ACAD_DSTYLE_DIM_EXT2_LINETYPE
70
0
0
APPID
5
1AC
100
AcDbSymbolTableRecord
100
AcDbRegAppTableRecord
2
ACAD_MLEADERVER
70
0
0
ENDTAB
0
TABLE
2
BLOCK_RECORD
5
1ce
100
AcDbSymbolTable
0
BLOCK_RECORD
5
1F
100
AcDbSymbolTableRecord
100
AcDbBlockTableRecord
2
*Model_Space
340
0
70
0
0
BLOCK_RECORD
5
1B
100
AcDbSymbolTableRecord
100
AcDbBlockTableRecord
2
*Paper_Space
340
0
70
0
0
BLOCK_RECORD
5
23
100
AcDbSymbolTableRecord
100
AcDbBlockTableRecord
2
*Paper_Space0
340
0
70
0
0
BLOCK_RECORD
5
F3
100
AcDbSymbolTableRecord
100
AcDbBlockTableRecord
2
*D1
340
0
70
0
0
BLOCK_RECORD
5
FF
100
AcDbSymbolTableRecord
100
AcDbBlockTableRecord
2
_U0
340
0
70
0
0
BLOCK_RECORD
5
10B
100
AcDbSymbolTableRecord
100
AcDbBlockTableRecord
2
*D3
340
0
70
0
0
BLOCK_RECORD
5
117
100
AcDbSymbolTableRecord
100
AcDbBlockTableRecord
2
_U1
340
0
70
0
0
BLOCK_RECORD
5
123
100
AcDbSymbolTableRecord
100
AcDbBlockTableRecord
2
*D5
340
0
70
0
0
BLOCK_RECORD
5
12F
100
AcDbSymbolTableRecord
100
AcDbBlockTableRecord
2
_U2
340
0
70
0
0
BLOCK_RECORD
5
13B
100
AcDbSymbolTableRecord
100
AcDbBlockTableRecord
2
*D7
340
0
70
0
0
BLOCK_RECORD
5
148
100
AcDbSymbolTableRecord
100
AcDbBlockTableRecord
2
_U3
340
0
70
0
0
ENDTAB
0
ENDSEC
0
SECTION
2
BLOCKS
0
BLOCK
5
20
100
AcDbEntity
8
0
100
AcDbBlockBegin
2
*Model_Space
70
0
10
0
20
0
30
0
3
*Model_Space
0
ENDBLK
5
21
100
AcDbEntity
8
0
100
AcDbBlockEnd
0
BLOCK
5
1C
100
AcDbEntity
8
0
100
AcDbBlockBegin
2
*Paper_Space
70
0
10
0
20
0
30
0
3
*Paper_Space
0
ENDBLK
5
1D
100
AcDbEntity
8
0
100
AcDbBlockEnd
0
BLOCK
5
24
100
AcDbEntity
8
0
100
AcDbBlockBegin
2
*Paper_Space0
70
0
10
0
20
0
30
0
3
*Paper_Space0
0
ENDBLK
5
25
100
AcDbEntity
8
0
100
AcDbBlockEnd
0
BLOCK
5
F4
100
AcDbEntity
8
0
100
AcDbBlockBegin
2
*D1
70
1
10
0
20
0
30
0
3
*D1
0
LINE
5
F6
100
AcDbEntity
8
0
62
256
6
ByLayer
370
-2
48
1
60
0
100
AcDbLine
10
-20
20
-2.2375
30
0
11
-20
21
-53.076667
31
0
39
0
210
0
220
0
230
1
0
LINE
5
F7
100
AcDbEntity
8
0
62
256
6
ByLayer
370
-2
48
1
60
0
100
AcDbLine
10
18
20
-1.5875
30
0
11
18
21
-53.076667
31
0
39
0
210
0
220
0
230
1
0
LINE
5
F8
100
AcDbEntity
8
0
62
256
6
ByLayer
370
-2
48
1
60
0
100
AcDbLine
10
-16.5
20
-51.076667
30
0
11
14.5
21
-51.076667
31
0
39
0
210
0
220
0
230
1
0
SOLID
5
F9
100
AcDbEntity
8
0
62
256
6
ByLayer
370
-1
48
1
60
0
100
AcDbTrace
10
-16.5
20
-50.493333
30
0
11
-16.5
21
-51.66
31
0
12
-20
22
-51.076667
32
0
13
-20
23
-51.076667
33
0
39
0
210
0
220
0
230
1
0
SOLID
5
FA
100
AcDbEntity
8
0
62
256
6
ByLayer
370
-1
48
1
60
0
100
AcDbTrace
10
14.5
20
-51.66
30
0
11
14.5
21
-50.493333
31
0
12
18
22
-51.076667
32
0
13
18
23
-51.076667
33
0
39
0
210
0
220
0
230
1
0
MTEXT
5
FB
100
AcDbEntity
8
0
62
256
6
ByLayer
370
18
48
1
60
0
100
AcDbMText
10
-1
20
-45.076667
30
0
210
0
220
0
230
1
1
\A1;38
40
3
41
0
44
1
50
0
71
5
72
5
7
iso_b_vert
0
POINT
5
FC
100
AcDbEntity
8
Defpoints
62
0
6
ByLayer
370
-1
48
1
60
0
100
AcDbPoint
10
-20
20
-0.65
30
0
39
0
210
0
220
0
230
1
50
360
0
POINT
5
FD
100
AcDbEntity
8
Defpoints
62
0
6
ByLayer
370
-1
48
1
60
0
100
AcDbPoint
10
18
20
0
30
0
39
0
210
0
220
0
230
1
50
360
0
POINT
5
FE
100
AcDbEntity
8
Defpoints
62
0
6
ByLayer
370
-1
48
1
60
0
100
AcDbPoint
10
18
20
-51.076667
30
0
39
0
210
0
220
0
230
1
50
360
0
ENDBLK
5
F5
100
AcDbEntity
8
0
100
AcDbBlockEnd
0
BLOCK
5
106
100
AcDbEntity
8
0
100
AcDbBlockBegin
2
_U0
70
0
10
0
20
0
30
0
3
_U0
0
MTEXT
5
100
100
AcDbEntity
8
SK2
62
256
6
ByLayer
370
18
48
1
60
0
100
AcDbMText
10
-5.48237
20
-50.191552
30
0
210
0
220
0
230
1
1
\W0.7468;38.00
40
3
41
0
44
1.084337
50
0
71
7
72
5
7
iso_b_vert
0
LINE
5
101
100
AcDbEntity
8
SK2
62
256
6
ByLayer
370
13
48
1
60
0
100
AcDbLine
10
-20
20
-2.2375
30
0
11
-20
21
-53.076667
31
0
39
0
210
0
220
0
230
1
0
LINE
5
102
100
AcDbEntity
8
SK2
62
256
6
ByLayer
370
13
48
1
60
0
100
AcDbLine
10
18
20
-1.5875
30
0
11
18
21
-53.076667
31
0
39
0
210
0
220
0
230
1
0
LINE
5
103
100
AcDbEntity
8
SK2
62
256
6
ByLayer
370
13
48
1
60
0
100
AcDbLine
10
-20
20
-51.076667
30
0
11
18
21
-51.076667
31
0
39
0
210
0
220
0
230
1
0
SOLID
5
104
100
AcDbEntity
8
SK2
62
256
6
ByLayer
370
18
48
1
60
0
100
AcDbTrace
10
-20
20
-51.076667
30
0
11
-16.500002
21
-50.615883
31
0
12
-16.499998
22
-51.53745
32
0
13
-16.499998
23
-51.53745
33
0
39
0
210
0
220
0
230
1
0
SOLID
5
105
100
AcDbEntity
8
SK2
62
256
6
ByLayer
370
18
48
1
60
0
100
AcDbTrace
10
18
20
-51.076667
30
0
11
14.500002
21
-51.53745
31
0
12
14.499998
22
-50.615883
32
0
13
14.499998
23
-50.615883
33
0
39
0
210
0
220
0
230
1
0
ENDBLK
5
107
100
AcDbEntity
8
0
100
AcDbBlockEnd
0
BLOCK
5
10C
100
AcDbEntity
8
0
100
AcDbBlockBegin
2
*D3
70
1
10
0
20
0
30
0
3
*D3
0
LINE
5
10E
100
AcDbEntity
8
0
62
256
6
ByLayer
370
-2
48
1
60
0
100
AcDbLine
10
18
20
-1.5875
30
0
11
18
21
-43.076667
31
0
39
0
210
0
220
0
230
1
0
LINE
5
10F
100
AcDbEntity
8
0
62
256
6
ByLayer
370
-2
48
1
60
0
100
AcDbLine
10
2
20
-2.2375
30
0
11
2
21
-43.076667
31
0
39
0
210
0
220
0
230
1
0
LINE
5
110
100
AcDbEntity
8
0
62
256
6
ByLayer
370
-2
48
1
60
0
100
AcDbLine
10
14.5
20
-41.076667
30
0
11
5.5
21
-41.076667
31
0
39
0
210
0
220
0
230
1
0
SOLID
5
111
100
AcDbEntity
8
0
62
256
6
ByLayer
370
-1
48
1
60
0
100
AcDbTrace
10
14.5
20
-41.66
30
0
11
14.5
21
-40.493333
31
0
12
18
22
-41.076667
32
0
13
18
23
-41.076667
33
0
39
0
210
0
220
0
230
1
0
SOLID
5
112
100
AcDbEntity
8
0
62
256
6
ByLayer
370
-1
48
1
60
0
100
AcDbTrace
10
5.5
20
-40.493333
30
0
11
5.5
21
-41.66
31
0
12
2
22
-41.076667
32
0
13
2
23
-41.076667
33
0
39
0
210
0
220
0
230
1
0
MTEXT
5
113
100
AcDbEntity
8
0
62
256
6
ByLayer
370
18
48
1
60
0
100
AcDbMText
10
10
20
-35.076667
30
0
210
0
220
0
230
1
1
\A1;16
40
3
41
0
44
1
50
0
71
5
72
5
7
iso_b_vert
0
POINT
5
114
100
AcDbEntity
8
Defpoints
62
0
6
ByLayer
370
-1
48
1
60
0
100
AcDbPoint
10
18
20
0
30
0
39
0
210
0
220
0
230
1
50
360
0
POINT
5
115
100
AcDbEntity
8
Defpoints
62
0
6
ByLayer
370
-1
48
1
60
0
100
AcDbPoint
10
2
20
-0.65
30
0
39
0
210
0
220
0
230
1
50
360
0
POINT
5
116
100
AcDbEntity
8
Defpoints
62
0
6
ByLayer
370
-1
48
1
60
0
100
AcDbPoint
10
2
20
-41.076667
30
0
39
0
210
0
220
0
230
1
50
360
0
ENDBLK
5
10D
100
AcDbEntity
8
0
100
AcDbBlockEnd
0
BLOCK
5
11E
100
AcDbEntity
8
0
100
AcDbBlockBegin
2
_U1
70
0
10
0
20
0
30
0
3
_U1
0
MTEXT
5
118
100
AcDbEntity
8
2
62
256
6
ByLayer
370
18
48
1
60
0
100
AcDbMText
10
5.892572
20
-40.191552
30
0
210
0
220
0
230
1
1
\W0.6864;16.00
40
3
41
0
44
1.084337
50
0
71
7
72
5
7
iso_b_vert
0
LINE
5
119
100
AcDbEntity
8
2
62
256
6
ByLayer
370
13
48
1
60
0
100
AcDbLine
10
18
20
-1.5875
30
0
11
18
21
-43.076667
31
0
39
0
210
0
220
0
230
1
0
LINE
5
11A
100
AcDbEntity
8
2
62
256
6
ByLayer
370
13
48
1
60
0
100
AcDbLine
10
2
20
-2.2375
30
0
11
2
21
-43.076667
31
0
39
0
210
0
220
0
230
1
0
LINE
5
11B
100
AcDbEntity
8
2
62
256
6
ByLayer
370
13
48
1
60
0
100
AcDbLine
10
18
20
-41.076667
30
0
11
2
21
-41.076667
31
0
39
0
210
0
220
0
230
1
0
SOLID
5
11C
100
AcDbEntity
8
2
62
256
6
ByLayer
370
18
48
1
60
0
100
AcDbTrace
10
18
20
-41.076667
30
0
11
14.500002
21
-41.53745
31
0
12
14.499998
22
-40.615883
32
0
13
14.499998
23
-40.615883
33
0
39
0
210
0
220
0
230
1
0
SOLID
5
11D
100
AcDbEntity
8
2
62
256
6
ByLayer
370
18
48
1
60
0
100
AcDbTrace
10
2
20
-41.076667
30
0
11
5.499998
21
-40.615883
31
0
12
5.500002
22
-41.53745
32
0
13
5.500002
23
-41.53745
33
0
39
0
210
0
220
0
230
1
0
ENDBLK
5
11F
100
AcDbEntity
8
0
100
AcDbBlockEnd
0
BLOCK
5
124
100
AcDbEntity
8
0
100
AcDbBlockBegin
2
*D5
70
1
10
0
20
0
30
0
3
*D5
0
LINE
5
126
100
AcDbEntity
8
0
62
256
6
ByLayer
370
-2
48
1
60
0
100
AcDbLine
10
-20
20
-2.2375
30
0
11
-20
21
-38.076667
31
0
39
0
210
0
220
0
230
1
0
LINE
5
127
100
AcDbEntity
8
0
62
256
6
ByLayer
370
-2
48
1
60
0
100
AcDbLine
10
0
20
-2.2375
30
0
11
0
21
-38.076667
31
0
39
0
210
0
220
0
230
1
0
LINE
5
128
100
AcDbEntity
8
0
62
256
6
ByLayer
370
-2
48
1
60
0
100
AcDbLine
10
-16.5
20
-36.076667
30
0
11
-3.5
21
-36.076667
31
0
39
0
210
0
220
0
230
1
0
SOLID
5
129
100
AcDbEntity
8
0
62
256
6
ByLayer
370
-1
48
1
60
0
100
AcDbTrace
10
-16.5
20
-35.493333
30
0
11
-16.5
21
-36.66
31
0
12
-20
22
-36.076667
32
0
13
-20
23
-36.076667
33
0
39
0
210
0
220
0
230
1
0
SOLID
5
12A
100
AcDbEntity
8
0
62
256
6
ByLayer
370
-1
48
1
60
0
100
AcDbTrace
10
-3.5
20
-36.66
30
0
11
-3.5
21
-35.493333
31
0
12
0
22
-36.076667
32
0
13
0
23
-36.076667
33
0
39
0
210
0
220
0
230
1
0
MTEXT
5
12B
100
AcDbEntity
8
0
62
256
6
ByLayer
370
18
48
1
60
0
100
AcDbMText
10
-10
20
-30.076667
30
0
210
0
220
0
230
1
1
\A1;20
40
3
41
0
44
1
50
0
71
5
72
5
7
iso_b_vert
0
POINT
5
12C
100
AcDbEntity
8
Defpoints
62
0
6
ByLayer
370
-1
48
1
60
0
100
AcDbPoint
10
-20
20
-0.65
30
0
39
0
210
0
220
0
230
1
50
360
0
POINT
5
12D
100
AcDbEntity
8
Defpoints
62
0
6
ByLayer
370
-1
48
1
60
0
100
AcDbPoint
10
0
20
-0.65
30
0
39
0
210
0
220
0
230
1
50
360
0
POINT
5
12E
100
AcDbEntity
8
Defpoints
62
0
6
ByLayer
370
-1
48
1
60
0
100
AcDbPoint
10
0
20
-36.076667
30
0
39
0
210
0
220
0
230
1
50
360
0
ENDBLK
5
125
100
AcDbEntity
8
0
100
AcDbBlockEnd
0
BLOCK
5
136
100
AcDbEntity
8
0
100
AcDbBlockBegin
2
_U2
70
0
10
0
20
0
30
0
3
_U2
0
MTEXT
5
130
100
AcDbEntity
8
SK2
62
256
6
ByLayer
370
18
48
1
60
0
100
AcDbMText
10
-14.48237
20
-35.191552
30
0
210
0
220
0
230
1
1
\W0.7468;20.00
40
3
41
0
44
1.084337
50
0
71
7
72
5
7
iso_b_vert
0
LINE
5
131
100
AcDbEntity
8
SK2
62
256
6
ByLayer
370
13
48
1
60
0
100
AcDbLine
10
-20
20
-2.2375
30
0
11
-20
21
-38.076667
31
0
39
0
210
0
220
0
230
1
0
LINE
5
132
100
AcDbEntity
8
SK2
62
256
6
ByLayer
370
13
48
1
60
0
100
AcDbLine
10
0
20
-2.2375
30
0
11
0
21
-38.076667
31
0
39
0
210
0
220
0
230
1
0
LINE
5
133
100
AcDbEntity
8
SK2
62
256
6
ByLayer
370
13
48
1
60
0
100
AcDbLine
10
-20
20
-36.076667
30
0
11
0
21
-36.076667
31
0
39
0
210
0
220
0
230
1
0
SOLID
5
134
100
AcDbEntity
8
SK2
62
256
6
ByLayer
370
18
48
1
60
0
100
AcDbTrace
10
-20
20
-36.076667
30
0
11
-16.500002
21
-35.615883
31
0
12
-16.499998
22
-36.53745
32
0
13
-16.499998
23
-36.53745
33
0
39
0
210
0
220
0
230
1
0
SOLID
5
135
100
AcDbEntity
8
SK2
62
256
6
ByLayer
370
18
48
1
60
0
100
AcDbTrace
10
0
20
-36.076667
30
0
11
-3.499998
21
-36.53745
31
0
12
-3.500002
22
-35.615883
32
0
13
-3.500002
23
-35.615883
33
0
39
0
210
0
220
0
230
1
0
ENDBLK
5
137
100
AcDbEntity
8
0
100
AcDbBlockEnd
0
BLOCK
5
13C
100
AcDbEntity
8
0
100
AcDbBlockBegin
2
*D7
70
1
10
0
20
0
30
0
3
*D7
0
LINE
5
13E
100
AcDbEntity
8
0
62
256
6
ByLayer
370
-2
48
1
60
0
100
AcDbLine
10
18
20
-1.5875
30
0
11
18
21
-36.076667
31
0
39
0
210
0
220
0
230
1
0
LINE
5
13F
100
AcDbEntity
8
0
62
256
6
ByLayer
370
-2
48
1
60
0
100
AcDbLine
10
6
20
-2.2375
30
0
11
6
21
-36.076667
31
0
39
0
210
0
220
0
230
1
0
LINE
5
140
100
AcDbEntity
8
0
62
256
6
ByLayer
370
-2
48
1
60
0
100
AcDbLine
10
21.5
20
-34.076667
30
0
11
25
21
-34.076667
31
0
39
0
210
0
220
0
230
1
0
LINE
5
141
100
AcDbEntity
8
0
62
256
6
ByLayer
370
-2
48
1
60
0
100
AcDbLine
10
2.5
20
-34.076667
30
0
11
-1
21
-34.076667
31
0
39
0
210
0
220
0
230
1
0
SOLID
5
142
100
AcDbEntity
8
0
62
256
6
ByLayer
370
-1
48
1
60
0
100
AcDbTrace
10
21.5
20
-33.493333
30
0
11
21.5
21
-34.66
31
0
12
18
22
-34.076667
32
0
13
18
23
-34.076667
33
0
39
0
210
0
220
0
230
1
0
SOLID
5
143
100
AcDbEntity
8
0
62
256
6
ByLayer
370
-1
48
1
60
0
100
AcDbTrace
10
2.5
20
-34.66
30
0
11
2.5
21
-33.493333
31
0
12
6
22
-34.076667
32
0
13
6
23
-34.076667
33
0
39
0
210
0
220
0
230
1
0
MTEXT
5
144
100
AcDbEntity
8
0
62
256
6
ByLayer
370
18
48
1
60
0
100
AcDbMText
10
12
20
-28.076667
30
0
210
0
220
0
230
1
1
\A1;12
40
3
41
0
44
1
50
0
71
5
72
5
7
iso_b_vert
0
POINT
5
145
100
AcDbEntity
8
Defpoints
62
0
6
ByLayer
370
-1
48
1
60
0
100
AcDbPoint
10
18
20
0
30
0
39
0
210
0
220
0
230
1
50
360
0
POINT
5
146
100
AcDbEntity
8
Defpoints
62
0
6
ByLayer
370
-1
48
1
60
0
100
AcDbPoint
10
6
20
-0.65
30
0
39
0
210
0
220
0
230
1
50
360
0
POINT
5
147
100
AcDbEntity
8
Defpoints
62
0
6
ByLayer
370
-1
48
1
60
0
100
AcDbPoint
10
6
20
-34.076667
30
0
39
0
210
0
220
0
230
1
50
360
0
ENDBLK
5
13D
100
AcDbEntity
8
0
100
AcDbBlockEnd
0
BLOCK
5
14F
100
AcDbEntity
8
0
100
AcDbBlockBegin
2
_U3
70
0
10
0
20
0
30
0
3
_U3
0
MTEXT
5
149
100
AcDbEntity
8
2
62
256
6
ByLayer
370
18
48
1
60
0
100
AcDbMText
10
7.892572
20
-33.191552
30
0
210
0
220
0
230
1
1
\W0.6864;12.00
40
3
41
0
44
1.084337
50
0
71
7
72
5
7
iso_b_vert
0
LINE
5
14A
100
AcDbEntity
8
2
62
256
6
ByLayer
370
13
48
1
60
0
100
AcDbLine
10
18
20
-1.5875
30
0
11
18
21
-36.076667
31
0
39
0
210
0
220
0
230
1
0
LINE
5
14B
100
AcDbEntity
8
2
62
256
6
ByLayer
370
13
48
1
60
0
100
AcDbLine
10
6
20
-2.2375
30
0
11
6
21
-36.076667
31
0
39
0
210
0
220
0
230
1
0
LINE
5
14C
100
AcDbEntity
8
2
62
256
6
ByLayer
370
13
48
1
60
0
100
AcDbLine
10
18
20
-34.076667
30
0
11
6
21
-34.076667
31
0
39
0
210
0
220
0
230
1
0
SOLID
5
14D
100
AcDbEntity
8
2
62
256
6
ByLayer
370
18
48
1
60
0
100
AcDbTrace
10
18
20
-34.076667
30
0
11
14.500002
21
-34.53745
31
0
12
14.499998
22
-33.615883
32
0
13
14.499998
23
-33.615883
33
0
39
0
210
0
220
0
230
1
0
SOLID
5
14E
100
AcDbEntity
8
2
62
256
6
ByLayer
370
18
48
1
60
0
100
AcDbTrace
10
6
20
-34.076667
30
0
11
9.499998
21
-33.615883
31
0
12
9.500002
22
-34.53745
32
0
13
9.500002
23
-34.53745
33
0
39
0
210
0
220
0
230
1
0
ENDBLK
5
150
100
AcDbEntity
8
0
100
AcDbBlockEnd
0
ENDSEC
0
SECTION
2
ENTITIES
0
ARC
5
B9
100
AcDbEntity
8
2
62
256
6
ByLayer
370
13
48
1
60
0
100
AcDbCircle
39
0
10
18
20
0
30
0
40
22
210
0
220
0
230
1
100
AcDbArc
50
7.83748
51
61.596605
0
ARC
5
BA
100
AcDbEntity
8
2
62
256
6
ByLayer
370
13
48
1
60
0
100
AcDbCircle
39
0
10
18
20
0
30
0
40
22
210
0
220
0
230
1
100
AcDbArc
50
298.403395
51
352.16252
0
POINT
5
70
100
AcDbEntity
8
81
62
256
6
ByLayer
370
18
48
1
60
0
100
AcDbPoint
10
18
20
0
30
0
39
0
210
0
220
0
230
1
50
360
0
POINT
5
72
100
AcDbEntity
8
80
62
256
6
ByLayer
370
18
48
1
60
0
100
AcDbPoint
10
0
20
0
30
0
39
0
210
0
220
0
230
1
50
360
0
POINT
5
74
100
AcDbEntity
8
1
62
256
6
ByLayer
370
18
48
1
60
1
100
AcDbPoint
10
-20
20
-0.65
30
0
39
0
210
0
220
0
230
1
50
360
0
POINT
5
76
100
AcDbEntity
8
1
62
256
6
ByLayer
370
18
48
1
60
1
100
AcDbPoint
10
18
20
0
30
0
39
0
210
0
220
0
230
1
50
360
0
POINT
5
77
100
AcDbEntity
8
1
62
256
6
ByLayer
370
18
48
1
60
1
100
AcDbPoint
10
18
20
0
30
0
39
0
210
0
220
0
230
1
50
360
0
POINT
5
78
100
AcDbEntity
8
1
62
256
6
ByLayer
370
18
48
1
60
1
100
AcDbPoint
10
2
20
-0.65
30
0
39
0
210
0
220
0
230
1
50
360
0
POINT
5
79
100
AcDbEntity
8
1
62
256
6
ByLayer
370
18
48
1
60
1
100
AcDbPoint
10
-20
20
-0.65
30
0
39
0
210
0
220
0
230
1
50
360
0
POINT
5
7A
100
AcDbEntity
8
1
62
256
6
ByLayer
370
18
48
1
60
1
100
AcDbPoint
10
0
20
-0.65
30
0
39
0
210
0
220
0
230
1
50
360
0
POINT
5
7B
100
AcDbEntity
8
1
62
256
6
ByLayer
370
18
48
1
60
1
100
AcDbPoint
10
18
20
0
30
0
39
0
210
0
220
0
230
1
50
360
0
POINT
5
7C
100
AcDbEntity
8
1
62
256
6
ByLayer
370
18
48
1
60
1
100
AcDbPoint
10
6
20
-0.65
30
0
39
0
210
0
220
0
230
1
50
360
0
SPLINE
5
BB
100
AcDbEntity
8
CUT
62
256
6
ByLayer
370
18
48
1
60
0
100
AcDbSpline
70
2053
71
3
72
17
73
13
40
0
40
0
40
0
40
0
40
0.479365620951635
40
0.479365620951635
40
0.479365620951635
40
0.505156762225219
40
0.505156762225219
40
0.505156762225219
40
0.970480859616084
40
0.970480859616084
40
0.970480859616084
40
1
40
1
40
1
40
1
41
1
10
18
20
0
30
0
41
1
10
14
20
0
30
0
41
1
10
10
20
0
30
0
41
1
10
6
20
0
30
0
41
1
10
6
20
0.215210604589686
30
0
41
1
10
6
20
0.430421209179343
30
0
41
1
10
5.99999999999994
20
0.645631813769029
30
0
41
1
10
9.88283217929487
20
0.647087875836178
30
0
41
1
10
13.7656643585899
20
0.648543937903327
30
0
41
1
10
17.6484965378848
20
0.649999999970476
30
0
41
1
10
17.7656643585899
20
0.433333333313641
30
0
41
1
10
17.882832179295
20
0.216666666656835
30
0
41
1
10
18
20
0
30
0
0
SPLINE
5
BD
100
AcDbEntity
8
NOCUT
62
256
6
ByLayer
370
18
48
1
60
0
100
AcDbSpline
70
2053
71
3
72
26
73
22
40
0
40
0
40
0
40
0
40
0.373798281647717
40
0.373798281647717
40
0.373798281647717
40
0.376454716820386
40
0.376454716820386
40
0.376454716820386
40
0.386785825105305
40
0.386785825105305
40
0.386785825105305
40
0.875165489572113
40
0.875165489572113
40
0.875165489572113
40
0.887292929900724
40
0.887292929900724
40
0.887292929900724
40
0.998117553859726
40
0.998117553859726
40
0.998117553859726
40
1
40
1
40
1
40
1
41
1
10
0
20
0.650000000000006
30
0
41
1
10
-6.63333333333333
20
0.650000000000006
30
0
41
1
10
-13.2666666666666
20
0.650000000000006
30
0
41
1
10
-19.9
20
0.650000000000006
30
0
41
1
10
-19.9333333333333
20
0.616666666666674
30
0
41
1
10
-19.9666666666667
20
0.583333333333343
30
0
41
1
10
-20
20
0.550000000000011
30
0
41
1
10
-20
20
0.366666666666674
30
0
41
1
10
-20
20
0.183333333333337
30
0
41
1
10
-20
20
0
30
0
41
1
10
-11.3333333333333
20
0
30
0
41
1
10
-2.66666666666666
20
0
30
0
41
1
10
6
20
0
30
0
41
1
10
6
20
0.215210604589686
30
0
41
1
10
6
20
0.430421209179343
30
0
41
1
10
6
20
0.645631813769029
30
0
41
1
10
4.03333333333333
20
0.644894313769072
30
0
41
1
10
2.06666666666666
20
0.644156813769115
30
0
41
1
10
0.0999999999952479
20
0.643419313769471
30
0
41
1
10
0.0666666666603248
20
0.645612875846524
30
0
41
1
10
0.0333333333301766
20
0.647806437923265
30
0
41
1
10
0
20
0.650000000000006
30
0
0
SPLINE
5
BF
100
AcDbEntity
8
1
62
256
6
ByLayer
370
18
48
1
60
0
100
AcDbSpline
70
4
71
3
72
46
73
42
40
0
40
0
40
0
40
0
40
0.125000000000003
40
0.125000000000003
40
0.250000000000007
40
0.250000000000007
40
0.312500000000009
40
0.312500000000009
40
0.37500000000001
40
0.37500000000001
40
0.437500000000012
40
0.437500000000012
40
0.453125000000015
40
0.453125000000015
40
0.468750000000019
40
0.468750000000019
40
0.484375000000022
40
0.484375000000022
40
0.492187500000022
40
0.492187500000022
40
0.500000000000022
40
0.500000000000022
40
0.515625000000021
40
0.515625000000021
40
0.531250000000021
40
0.531250000000021
40
0.56250000000002
40
0.56250000000002
40
0.593750000000019
40
0.593750000000019
40
0.625000000000018
40
0.625000000000018
40
0.687500000000016
40
0.687500000000016
40
0.718750000000012
40
0.718750000000012
40
0.750000000000007
40
0.750000000000007
40
0.875000000000004
40
0.875000000000004
40
1
40
1
40
1
40
1
41
1
10
17.6484965378848
20
0.62910002451423
30
0
41
1
10
17.6753933996391
20
0.579485013984367
30
0
41
1
10
17.7021504309068
20
0.52963848259418
30
0
41
1
10
17.755197520592
20
0.429493039963063
30
0
41
1
10
17.7815195400187
20
0.379192570958139
30
0
41
1
10
17.8200425411692
20
0.303207850584158
30
0
41
1
10
17.8327102663983
20
0.27778362075847
30
0
41
1
10
17.857851264497
20
0.226923802201981
30
0
41
1
10
17.870332149513
20
0.201510270921773
30
0
41
1
10
17.8947762448389
20
0.150677840095028
30
0
41
1
10
17.9067841220974
20
0.125232543010526
30
0
41
1
10
17.9208013559647
20
0.0932462815196402
30
0
41
1
10
17.9235526720548
20
0.0868375654672775
30
0
41
1
10
17.9289107354361
20
0.0739905573666988
30
0
41
1
10
17.9315229286313
20
0.067562876863235
30
0
41
1
10
17.9364828193038
20
0.0546135447875997
30
0
41
1
10
17.9388812356293
20
0.0480625693702734
30
0
41
1
10
17.9416201064848
20
0.037880626015891
30
0
41
1
10
17.942370867505
20
0.0344429911523605
30
0
41
1
10
17.9433904456062
20
0.0274377160250481
30
0
41
1
10
17.9436508528985
20
0.0238484737168108
30
0
41
1
10
17.9435912293864
20
0.0135166304861229
30
0
41
1
10
17.9424215883839
20
0.0069497544442925
30
0
41
1
10
17.9392237240639
20
-0.0054322635579354
30
0
41
1
10
17.9372463443672
20
-0.0113954732952948
30
0
41
1
10
17.9307818702056
20
-0.0291226423926503
30
0
41
1
10
17.9256697331313
20
-0.0406487697886178
30
0
41
1
10
17.9147302252611
20
-0.0629918785911912
30
0
41
1
10
17.9088990091244
20
-0.073806696532813
30
0
41
1
10
17.896876551573
20
-0.0948716998560428
30
0
41
1
10
17.8906801233507
20
-0.105121009677049
30
0
41
1
10
17.8717870489728
20
-0.135144308165991
30
0
41
1
10
17.8587988505156
20
-0.154202314917654
30
0
41
1
10
17.8390776741674
20
-0.181527014027978
30
0
41
1
10
17.8324588537955
20
-0.190421964079007
30
0
41
1
10
17.81915000752
20
-0.207791755617137
30
0
41
1
10
17.812459081664
20
-0.21626578695674
30
0
41
1
10
17.7791681846763
20
-0.257201289684275
30
0
41
1
10
17.7528229269837
20
-0.285731325096236
30
0
41
1
10
17.7005064523763
20
-0.335056428019186
30
0
41
1
10
17.674521554815
20
-0.355849079509483
30
0
41
1
10
17.648496537885
20
-0.372696213072601
30
0
0
SPLINE
5
C0
100
AcDbEntity
8
1
62
256
6
ByLayer
370
18
48
1
60
0
100
AcDbSpline
70
4
71
3
72
54
73
50
40
0
40
0
40
0
40
0
40
0.0414834561487253
40
0.0414834561487253
40
0.0829669122974506
40
0.0829669122974506
40
0.124450368446176
40
0.124450368446176
40
0.165933824594901
40
0.165933824594901
40
0.248900736892352
40
0.248900736892352
40
0.290384193041077
40
0.290384193041077
40
0.31112592111544
40
0.31112592111544
40
0.331867649189802
40
0.331867649189802
40
0.373351105338528
40
0.373351105338528
40
0.414834561487253
40
0.414834561487253
40
0.456318017635978
40
0.456318017635978
40
0.497801473784704
40
0.497801473784704
40
0.580768386082148
40
0.580768386082148
40
0.622251842230867
40
0.622251842230867
40
0.663735298379586
40
0.663735298379586
40
0.705218754528305
40
0.705218754528305
40
0.746702210677024
40
0.746702210677024
40
0.788185666825743
40
0.788185666825743
40
0.829669122974462
40
0.829669122974462
40
0.871152579123181
40
0.871152579123181
40
0.9126360352719
40
0.9126360352719
40
0.954119491420619
40
0.954119491420619
40
0.995602947569338
40
0.995602947569338
40
1
40
1
40
1
40
1
41
1
10
17.6484965378849
20
-0.372696213072771
30
0
41
1
10
17.6127941274916
20
-0.35650650847586
30
0
41
1
10
17.5772108042341
20
-0.339879899204192
30
0
41
1
10
17.5063226663681
20
-0.3056918507246
30
0
41
1
10
17.4710214704349
20
-0.288122304284968
30
0
41
1
10
17.4004672492588
20
-0.252435659670965
30
0
41
1
10
17.3651937153461
20
-0.234355630128164
30
0
41
1
10
17.2947177508371
20
-0.197622298746012
30
0
41
1
10
17.2595343285377
20
-0.178934510385261
30
0
41
1
10
17.1539608008998
20
-0.122234521399747
30
0
41
1
10
17.0834839283489
20
-0.0837073701406155
30
0
41
1
10
16.9775814460962
20
-0.0248756667127452
30
0
41
1
10
16.9422089131208
20
-0.0051648550459618
30
0
41
1
10
16.8889100469314
20
0.0243003861319835
30
0
41
1
10
16.8711101144867
20
0.0341172218243173
30
0
41
1
10
16.8354529100205
20
0.0537610107386683
30
0
41
1
10
16.8175822529558
20
0.0635983981027266
30
0
41
1
10
16.7641361922278
20
0.0929936815552992
30
0
41
1
10
16.7286422213409
20
0.112448122508368
30
0
41
1
10
16.6577849942656
20
0.1508174692637
30
0
41
1
10
16.622428177515
20
0.169746618770063
30
0
41
1
10
16.5519010365115
20
0.207175954716547
30
0
41
1
10
16.516742088325
20
0.225693161422328
30
0
41
1
10
16.4464071176257
20
0.261937605819298
30
0
41
1
10
16.4112045640887
20
0.279622626026111
30
0
41
1
10
16.3055517041628
20
0.331486154102009
30
0
41
1
10
16.2351403716028
20
0.364599693707817
30
0
41
1
10
16.128964632409
20
0.411104867394585
30
0
41
1
10
16.0935137374028
20
0.426132185078416
30
0
41
1
10
16.0224545097728
20
0.455155109431047
30
0
41
1
10
15.9867497793236
20
0.469136077045022
30
0
41
1
10
15.9155731841739
20
0.495471185041083
30
0
41
1
10
15.8800659341621
20
0.507892120823755
30
0
41
1
10
15.8092795466658
20
0.531347830013118
30
0
41
1
10
15.7739855830166
20
0.5423600625966
30
0
41
1
10
15.7034482514834
20
0.562815786965984
30
0
41
1
10
15.668205959882
20
0.572265210546334
30
0
41
1
10
15.5978179728681
20
0.589648127850893
30
0
41
1
10
15.5626889608474
20
0.597589031476218
30
0
41
1
10
15.4923532245423
20
0.61179880340697
30
0
41
1
10
15.4571159797999
20
0.618052540422639
30
0
41
1
10
15.3865094573298
20
0.628880885830171
30
0
41
1
10
15.3511683038521
20
0.633468104079952
30
0
41
1
10
15.2803347788337
20
0.640924254875586
30
0
41
1
10
15.2448201692021
20
0.643785507242171
30
0
41
1
10
15.1735351093769
20
0.647737445520875
30
0
41
1
10
15.1377991929485
20
0.648828450033221
30
0
41
1
10
15.098439904105
20
0.649032283671545
30
0
41
1
10
15.0946685181676
20
0.649041608123895
30
0
41
1
10
15.0908976846838
20
0.649040748121678
30
0
0
SPLINE
5
C1
100
AcDbEntity
8
1
62
256
6
ByLayer
370
18
48
1
60
0
100
AcDbSpline
70
4
71
3
72
100
73
96
40
0
40
0
40
0
40
0
40
0.0183967912644427
40
0.0183967912644427
40
0.0404552926657514
40
0.0404552926657514
40
0.06251379406706
40
0.06251379406706
40
0.0845722954683687
40
0.0845722954683687
40
0.106630796869677
40
0.106630796869677
40
0.128689298270986
40
0.128689298270986
40
0.150747799672295
40
0.150747799672295
40
0.172806301073604
40
0.172806301073604
40
0.194864802474912
40
0.194864802474912
40
0.216923303876221
40
0.216923303876221
40
0.227952554576875
40
0.227952554576875
40
0.238981805277529
40
0.238981805277529
40
0.261040306678838
40
0.261040306678838
40
0.283098808080147
40
0.283098808080147
40
0.305157309481456
40
0.305157309481456
40
0.327215810882764
40
0.327215810882764
40
0.349274312284073
40
0.349274312284073
40
0.371332813685382
40
0.371332813685382
40
0.39339131508669
40
0.39339131508669
40
0.415449816487999
40
0.415449816487999
40
0.437508317889308
40
0.437508317889308
40
0.459566819290616
40
0.459566819290616
40
0.481625320691925
40
0.481625320691925
40
0.503683822093234
40
0.503683822093234
40
0.525742323494542
40
0.525742323494542
40
0.547800824895851
40
0.547800824895851
40
0.558830075596505
40
0.558830075596505
40
0.569859326297158
40
0.569859326297158
40
0.591917827698465
40
0.591917827698465
40
0.613976329099772
40
0.613976329099772
40
0.636034830501079
40
0.636034830501079
40
0.658093331902387
40
0.658093331902387
40
0.680151833303694
40
0.680151833303694
40
0.702210334705001
40
0.702210334705001
40
0.724268836106308
40
0.724268836106308
40
0.746327337507615
40
0.746327337507615
40
0.768385838908922
40
0.768385838908922
40
0.790444340310229
40
0.790444340310229
40
0.812502841711536
40
0.812502841711536
40
0.834561343112843
40
0.834561343112843
40
0.85661984451415
40
0.85661984451415
40
0.878678345915458
40
0.878678345915458
40
0.900736847316765
40
0.900736847316765
40
0.922795348718072
40
0.922795348718072
40
0.966912351520688
40
0.966912351520688
40
0.988970852921996
40
0.988970852921996
40
1
40
1
40
1
40
1
41
1
10
12.536501951441
20
-0.36990640612629
30
0
41
1
10
12.5070442034268
20
-0.383229732116377
30
0
41
1
10
12.477547919594
20
-0.396221082701885
30
0
41
1
10
12.4125978038558
20
-0.424048209535357
30
0
41
1
10
12.3771022739098
20
-0.43869904106856
30
0
41
1
10
12.3058388262141
20
-0.46678917813054
30
0
41
1
10
12.2700534614787
20
-0.480258120762358
30
0
41
1
10
12.1989636280848
20
-0.505800061461088
30
0
41
1
10
12.1635679993123
20
-0.51789103220716
30
0
41
1
10
12.0928335311341
20
-0.540461152155046
30
0
41
1
10
12.0574862665579
20
-0.550939758206027
30
0
41
1
10
11.9869131107017
20
-0.570400476520291
30
0
41
1
10
11.951699360923
20
-0.579387902153428
30
0
41
1
10
11.8812697370917
20
-0.595748476028433
30
0
41
1
10
11.8460415535121
20
-0.603116015409455
30
0
41
1
10
11.7755666747921
20
-0.616233611335048
30
0
41
1
10
11.7403432898136
20
-0.621995350206987
30
0
41
1
10
11.6698160347927
20
-0.631828995084476
30
0
41
1
10
11.6344802417823
20
-0.635885174786068
30
0
41
1
10
11.5635345815902
20
-0.642234593356335
30
0
41
1
10
11.5279576994043
20
-0.644542298070064
30
0
41
1
10
11.4744499978034
20
-0.646677464052004
30
0
41
1
10
11.4565810518483
20
-0.647166042285164
30
0
41
1
10
11.420941197889
20
-0.647691299281888
30
0
41
1
10
11.4031480633558
20
-0.647729177261226
30
0
41
1
10
11.3498333616523
20
-0.647177645561072
30
0
41
1
10
11.3143825646039
20
-0.645925996170462
30
0
41
1
10
11.2437078292372
20
-0.641657723613747
30
0
41
1
10
11.2084837068707
20
-0.638633475050995
30
0
41
1
10
11.1380255060343
20
-0.630885997818439
30
0
41
1
10
11.1027736763959
20
-0.626177609077786
30
0
41
1
10
11.0322975164218
20
-0.615086915565882
30
0
41
1
10
10.997090647976
20
-0.608689947370323
30
0
41
1
10
10.9266068242886
20
-0.594257919206427
30
0
41
1
10
10.8913141869189
20
-0.586236890958276
30
0
41
1
10
10.8206174399736
20
-0.568585437803307
30
0
41
1
10
10.7852363570482
20
-0.558933717356354
30
0
41
1
10
10.7143282023049
20
-0.538001729128979
30
0
41
1
10
10.6787597597371
20
-0.526745622879901
30
0
41
1
10
10.6072999890899
20
-0.502851554755892
30
0
41
1
10
10.5716785144159
20
-0.490262196837506
30
0
41
1
10
10.5006908889338
20
-0.463766854074777
30
0
41
1
10
10.4653038424497
20
-0.449885100951576
30
0
41
1
10
10.3946075426786
20
-0.421051946624743
30
0
41
1
10
10.3593067126333
20
-0.406091569984653
30
0
41
1
10
10.2888439048996
20
-0.375019926681688
30
0
41
1
10
10.2536901731909
20
-0.358892334087813
30
0
41
1
10
10.1833085301879
20
-0.325801476257084
30
0
41
1
10
10.1480564873949
20
-0.308880342094966
30
0
41
1
10
10.0774833216982
20
-0.27421190071081
30
0
41
1
10
10.0421844794698
20
-0.256425123105771
30
0
41
1
10
9.97144912036885
20
-0.220123684469598
30
0
41
1
10
9.93599386744609
20
-0.201643141647509
30
0
41
1
10
9.88265727261805
20
-0.173460397720561
30
0
41
1
10
9.86485518019308
20
-0.163984709288826
30
0
41
1
10
9.82920905468166
20
-0.144857766564058
30
0
41
1
10
9.81134807398928
20
-0.135191952533035
30
0
41
1
10
9.75790909881485
20
-0.106113785136898
30
0
41
1
10
9.72241169035078
20
-0.0866130412257462
30
0
41
1
10
9.65148001527098
20
-0.0477426093996769
30
0
41
1
10
9.61607341937412
20
-0.0283194703923186
30
0
41
1
10
9.54543683728053
20
0.0106148199228073
30
0
41
1
10
9.51018926170707
20
0.0300922574873539
30
0
41
1
10
9.43969260383508
20
0.0688038713932144
30
0
41
1
10
9.40444743369378
20
0.0880459956414938
30
0
41
1
10
9.33400854871996
20
0.126384818137836
30
0
41
1
10
9.29882905234714
20
0.145506484418291
30
0
41
1
10
9.22833351002257
20
0.183258638699925
30
0
41
1
10
9.19298889449823
20
0.201838548445522
30
0
41
1
10
9.12213187195988
20
0.238454121513513
30
0
41
1
10
9.08664585001651
20
0.256536285249069
30
0
41
1
10
9.01546593585442
20
0.292079318115327
30
0
41
1
10
8.97967116700434
20
0.30953962147521
30
0
41
1
10
8.90839481639762
20
0.343388220108437
30
0
41
1
10
8.87288972407069
20
0.359836551659129
30
0
41
1
10
8.80211843966845
20
0.391738237370731
30
0
41
1
10
8.76682875170678
20
0.407151281693501
30
0
41
1
10
8.69622582758356
20
0.436615604797396
30
0
41
1
10
8.66093586128869
20
0.450705846347944
30
0
41
1
10
8.59045127530507
20
0.477708874898156
30
0
41
1
10
8.55524453272488
20
0.490601410738492
30
0
41
1
10
8.48475326045724
20
0.514985739239989
30
0
41
1
10
8.44946775570142
20
0.526480397037062
30
0
41
1
10
8.37885980106614
20
0.548110622248174
30
0
41
1
10
8.34355541572631
20
0.558259907827477
30
0
41
1
10
8.27274690833036
20
0.577003665105877
30
0
41
1
10
8.23721142463694
20
0.585573731381771
30
0
41
1
10
8.165872825245
20
0.601107542907982
30
0
41
1
10
8.1300862696198
20
0.608089887557412
30
0
41
1
10
8.02335279876223
20
0.626397661658245
30
0
41
1
10
7.95254197408497
20
0.635108404838547
30
0
41
1
10
7.84681233454461
20
0.643003795122183
30
0
41
1
10
7.81163374733742
20
0.644758071848855
30
0
41
1
10
7.75878868669591
20
0.646063563393739
30
0
41
1
10
7.7411651618404
20
0.646280259555226
30
0
41
1
10
7.72353793203206
20
0.646278789707338
30
0
0
SPLINE
5
C2
100
AcDbEntity
8
1
62
256
6
ByLayer
370
18
48
1
60
0
100
AcDbSpline
70
4
71
3
72
26
73
22
40
0
40
0
40
0
40
0
40
0.0434285551756744
40
0.0434285551756744
40
0.139085699658106
40
0.139085699658106
40
0.234742844140538
40
0.234742844140538
40
0.330399988622971
40
0.330399988622971
40
0.426057133105403
40
0.426057133105403
40
0.521714277587835
40
0.521714277587835
40
0.617371422070266
40
0.617371422070266
40
0.713028566552698
40
0.713028566552698
40
0.80868571103513
40
0.80868571103513
40
1
40
1
40
1
40
1
41
1
10
5.16994883016881
20
-0.36763086199764
30
0
41
1
10
5.15393654207134
20
-0.374865987890473
30
0
41
1
10
5.13791644185369
20
-0.381998169444586
30
0
41
1
10
5.08656762245053
20
-0.404483690201317
30
0
41
1
10
5.05120097712029
20
-0.419430217729087
30
0
41
1
10
4.980404995502
20
-0.448325370142499
30
0
41
1
10
4.94497106803624
20
-0.462263393719468
30
0
41
1
10
4.87379093978527
20
-0.488779559659122
30
0
41
1
10
4.83795441878624
20
-0.501370720659196
30
0
41
1
10
4.76661430365368
20
-0.525065902481316
30
0
41
1
10
4.73108204657478
20
-0.536199299816246
30
0
41
1
10
4.66014944737987
20
-0.556898801101141
30
0
41
1
10
4.62473621879008
20
-0.566455936152494
30
0
41
1
10
4.55401755351954
20
-0.584008590979238
30
0
41
1
10
4.51873354656516
20
-0.592019738309517
30
0
41
1
10
4.44822665485154
20
-0.606424807868677
30
0
41
1
10
4.41297988548035
20
-0.612800784437667
30
0
41
1
10
4.34235075185865
20
-0.62382920028773
30
0
41
1
10
4.30698472382741
20
-0.628493332313326
30
0
41
1
10
4.20068428143927
20
-0.639925043777453
30
0
41
1
10
4.12950342588832
20
-0.644172081979633
30
0
41
1
10
4.05826131824657
20
-0.644813062156743
30
0
0
SPLINE
5
C3
100
AcDbEntity
8
1
62
256
6
ByLayer
370
18
48
1
60
0
100
AcDbSpline
70
4
71
3
72
48
73
44
40
0
40
0
40
0
40
0
40
0.0947508093741346
40
0.0947508093741346
40
0.142126214061204
40
0.142126214061204
40
0.189501618748273
40
0.189501618748273
40
0.236877023435342
40
0.236877023435342
40
0.284252428122411
40
0.284252428122411
40
0.33162783280948
40
0.33162783280948
40
0.379003237496549
40
0.379003237496549
40
0.426378642183618
40
0.426378642183618
40
0.473754046870688
40
0.473754046870688
40
0.521129451557757
40
0.521129451557757
40
0.568504856244826
40
0.568504856244826
40
0.615880260931895
40
0.615880260931895
40
0.663255665618964
40
0.663255665618964
40
0.710631070306033
40
0.710631070306033
40
0.758006474993102
40
0.758006474993102
40
0.805381879680171
40
0.805381879680171
40
0.85275728436724
40
0.85275728436724
40
0.900132689054309
40
0.900132689054309
40
0.947508093741379
40
0.947508093741379
40
0.994883498428448
40
0.994883498428448
40
1
40
1
40
1
40
1
41
1
10
4.05826131824659
20
0.216506887040026
30
0
41
1
10
4.12919928269105
20
0.178411224086773
30
0
41
1
10
4.2004882049776
20
0.14097880602526
30
0
41
1
10
4.30697833017473
20
0.084020962414769
30
0
41
1
10
4.34237978960209
20
0.0648605174038437
30
0
41
1
10
4.41295899977288
20
0.0261290868986066
30
0
41
1
10
4.4481192615107
20
0.0065256412979693
30
0
41
1
10
4.51838571388154
20
-0.032776588277585
30
0
41
1
10
4.55351424295012
20
-0.0524338935444177
30
0
41
1
10
4.62402843054926
20
-0.0912662095799703
30
0
41
1
10
4.65942211932361
20
-0.110426331198852
30
0
41
1
10
4.73054161817691
20
-0.148125360439536
30
0
41
1
10
4.76622803793902
20
-0.166737387357699
30
0
41
1
10
4.83762035626307
20
-0.203920244075334
30
0
41
1
10
4.87343167109532
20
-0.222500857122782
30
0
41
1
10
4.94459136631309
20
-0.259206259469607
30
0
41
1
10
4.97996094197478
20
-0.277318096922755
30
0
41
1
10
5.05060874809064
20
-0.312487594023764
30
0
41
1
10
5.08589266512743
20
-0.329538346214605
30
0
41
1
10
5.15658656861021
20
-0.362301156293967
30
0
41
1
10
5.19202432417771
20
-0.377977222695336
30
0
41
1
10
5.26285041893848
20
-0.408318227346541
30
0
41
1
10
5.29821063535707
20
-0.423021249347357
30
0
41
1
10
5.3687723344004
20
-0.451525167711537
30
0
41
1
10
5.403963294466
20
-0.465336317389387
30
0
41
1
10
5.47434688239028
20
-0.491782162103306
30
0
41
1
10
5.50956329059613
20
-0.504384919252686
30
0
41
1
10
5.58033188186764
20
-0.528012641638725
30
0
41
1
10
5.61588760930394
20
-0.539036893911032
30
0
41
1
10
5.68744170463765
20
-0.559445305861544
30
0
41
1
10
5.72341392041042
20
-0.568873638586609
30
0
41
1
10
5.79479615144874
20
-0.58623291763638
30
0
41
1
10
5.83030697652259
20
-0.59416804326392
30
0
41
1
10
5.90097841310205
20
-0.608478618189338
30
0
41
1
10
5.93613960705699
20
-0.614844822929769
30
0
41
1
10
6.00643808080892
20
-0.625787059178634
30
0
41
1
10
6.04158369986376
20
-0.630362367956707
30
0
41
1
10
6.11207473911162
20
-0.637712885632226
30
0
41
1
10
6.14745104120638
20
-0.640488265788974
30
0
41
1
10
6.21826607975044
20
-0.644362268028402
30
0
41
1
10
6.25367223327282
20
-0.645463838544828
30
0
41
1
10
6.29285740361272
20
-0.645723542165911
30
0
41
1
10
6.29667634667243
20
-0.645738669761641
30
0
41
1
10
6.30049486483961
20
-0.645743550318116
30
0
0
SPLINE
5
C4
100
AcDbEntity
8
1
62
256
6
ByLayer
370
18
48
1
60
0
100
AcDbSpline
70
4
71
3
72
102
73
98
40
0
40
0
40
0
40
0
40
0.0186957950884693
40
0.0186957950884693
40
0.0407426238554261
40
0.0407426238554261
40
0.062789452622383
40
0.062789452622383
40
0.08483628138934
40
0.08483628138934
40
0.106883110156297
40
0.106883110156297
40
0.128929938923254
40
0.128929938923254
40
0.150976767690211
40
0.150976767690211
40
0.173023596457167
40
0.173023596457167
40
0.195070425224124
40
0.195070425224124
40
0.217117253991081
40
0.217117253991081
40
0.239164082758038
40
0.239164082758038
40
0.261210911524995
40
0.261210911524995
40
0.283257740291952
40
0.283257740291952
40
0.305304569058909
40
0.305304569058909
40
0.327351397825865
40
0.327351397825865
40
0.349398226592822
40
0.349398226592822
40
0.371445055359779
40
0.371445055359779
40
0.382468469743258
40
0.382468469743258
40
0.393491884126736
40
0.393491884126736
40
0.415538712893693
40
0.415538712893693
40
0.43758554166065
40
0.43758554166065
40
0.459632370427607
40
0.459632370427607
40
0.481679199194563
40
0.481679199194563
40
0.50372602796152
40
0.50372602796152
40
0.525772856728477
40
0.525772856728477
40
0.547819685495434
40
0.547819685495434
40
0.569866514262391
40
0.569866514262391
40
0.591913343029348
40
0.591913343029348
40
0.613960171796305
40
0.613960171796305
40
0.636007000563261
40
0.636007000563261
40
0.658053829330218
40
0.658053829330218
40
0.680100658097175
40
0.680100658097175
40
0.702147486864132
40
0.702147486864132
40
0.71317090124761
40
0.71317090124761
40
0.724194315631088
40
0.724194315631088
40
0.746241144398045
40
0.746241144398045
40
0.768287973165002
40
0.768287973165002
40
0.790334801931959
40
0.790334801931959
40
0.812381630698916
40
0.812381630698916
40
0.834428459465873
40
0.834428459465873
40
0.85647528823283
40
0.85647528823283
40
0.878522116999786
40
0.878522116999786
40
0.900568945766743
40
0.900568945766743
40
0.9226157745337
40
0.9226157745337
40
0.944662603300657
40
0.944662603300657
40
0.966709432067614
40
0.966709432067614
40
0.988756260834571
40
0.988756260834571
40
1
40
1
40
1
40
1
41
1
10
8.85353380912292
20
0.368526163107163
30
0
41
1
10
8.88346037628483
20
0.382334918029585
30
0
41
1
10
8.91345873761469
20
0.395786159624748
30
0
41
1
10
8.97918105219401
20
0.424012961568707
30
0
41
1
10
9.01505572629799
20
0.438611727919579
30
0
41
1
10
9.08658741167579
20
0.466303968683917
30
0
41
1
10
9.12225539319894
20
0.479483240929824
30
0
41
1
10
9.19323242905543
20
0.504708359866981
30
0
41
1
10
9.2285534681964
20
0.516733501575857
30
0
41
1
10
9.29892402725682
20
0.539473919537045
30
0
41
1
10
9.33399545316297
20
0.550159232577528
30
0
41
1
10
9.40423208426074
20
0.569845359808227
30
0
41
1
10
9.43939288306416
20
0.578853577320871
30
0
41
1
10
9.50999042585022
20
0.595115883903162
30
0
41
1
10
9.54542662950411
20
0.60238169595948
30
0
41
1
10
9.61629967596437
20
0.615398786465647
30
0
41
1
10
9.65172308230581
20
0.62115195642653
30
0
41
1
10
9.72255174622376
20
0.631054357458453
30
0
41
1
10
9.75793665078763
20
0.635206498521228
30
0
41
1
10
9.82892032525206
20
0.641712443116631
30
0
41
1
10
9.8645519073801
20
0.644055187287648
30
0
41
1
10
9.93560839026924
20
0.646877359711851
30
0
41
1
10
9.97114304881853
20
0.647372277666278
30
0
41
1
10
10.0422109034358
20
0.646654941069926
30
0
41
1
10
10.0777019313353
20
0.645445405986123
30
0
41
1
10
10.1484056692204
20
0.641283779444933
30
0
41
1
10
10.1836349598832
20
0.638328694423592
30
0
41
1
10
10.2538892218325
20
0.630603010757596
30
0
41
1
10
10.2889327682603
20
0.625831493378996
30
0
41
1
10
10.3591774462023
20
0.614604026105354
30
0
41
1
10
10.3943773493891
20
0.608150989688568
30
0
41
1
10
10.4651230677093
20
0.593754765826503
30
0
41
1
10
10.5006822839141
20
0.585833627291635
30
0
41
1
10
10.5719070045089
20
0.568362992482662
30
0
41
1
10
10.6075536714269
20
0.558790403275481
30
0
41
1
10
10.6610726294413
20
0.54308992837727
30
0
41
1
10
10.6789160779179
20
0.537632457421182
30
0
41
1
10
10.7144544408849
20
0.526324027846044
30
0
41
1
10
10.7321738408763
20
0.520469607114819
30
0
41
1
10
10.785243383949
20
0.502372980190387
30
0
41
1
10
10.8205135120166
20
0.489605173376276
30
0
41
1
10
10.8911041824997
20
0.463035374826006
30
0
41
1
10
10.9264394378301
20
0.449256310763758
30
0
41
1
10
10.9972195584422
20
0.420817641188535
30
0
41
1
10
11.0326227066949
20
0.406104682082486
30
0
41
1
10
11.1032338766337
20
0.375364720448062
30
0
41
1
10
11.1384610170815
20
0.359361903000092
30
0
41
1
10
11.2087835743036
20
0.326073581794418
30
0
41
1
10
11.2438923853902
20
0.308803988821012
30
0
41
1
10
11.3143317552016
20
0.273522568387165
30
0
41
1
10
11.3496654098334
20
0.255518047214167
30
0
41
1
10
11.4207529904856
20
0.219148602038985
30
0
41
1
10
11.4565668329196
20
0.200812120756041
30
0
41
1
10
11.5282516757174
20
0.163519510866678
30
0
41
1
10
11.5639227592181
20
0.144606646902275
30
0
41
1
10
11.6348864435739
20
0.106183189632247
30
0
41
1
10
11.6701636458112
20
0.0866442205561953
30
0
41
1
10
11.7405159508696
20
0.0473015215844725
30
0
41
1
10
11.7756137659811
20
0.0275401434805644
30
0
41
1
10
11.8459336386411
20
-0.0116446757632502
30
0
41
1
10
11.8811635673281
20
-0.0310539051996273
30
0
41
1
10
11.9518395803634
20
-0.0693716346646625
30
0
41
1
10
11.9872462531362
20
-0.0883531636210932
30
0
41
1
10
12.0579518753107
20
-0.126409928953791
30
0
41
1
10
12.0932691121276
20
-0.14545128496249
30
0
41
1
10
12.1638511277515
20
-0.183519538696004
30
0
41
1
10
12.199121484495
20
-0.202535735876808
30
0
41
1
10
12.2522418584025
20
-0.230584434544482
30
0
41
1
10
12.2699856324559
20
-0.239852705074327
30
0
41
1
10
12.3055737311249
20
-0.258178840966309
30
0
41
1
10
12.3234292460086
20
-0.267242358255345
30
0
41
1
10
12.3769236392065
20
-0.2939304828584
30
0
41
1
10
12.4126011582605
20
-0.311047969294975
30
0
41
1
10
12.4837747610114
20
-0.344362874353351
30
0
41
1
10
12.5192413323624
20
-0.360605202098867
30
0
41
1
10
12.5898738780732
20
-0.392321960276348
30
0
41
1
10
12.625030140638
20
-0.407806659804919
30
0
41
1
10
12.6951954417972
20
-0.437727699848011
30
0
41
1
10
12.7302286823875
20
-0.452127755303593
30
0
41
1
10
12.800489707851
20
-0.479432421335673
30
0
41
1
10
12.8357189803726
20
-0.492338462159182
30
0
41
1
10
12.9064933864967
20
-0.516575704828796
30
0
41
1
10
12.9420036052104
20
-0.527955228774488
30
0
41
1
10
13.0130094091905
20
-0.549511598297926
30
0
41
1
10
13.0485186048613
20
-0.559668880005489
30
0
41
1
10
13.1195717783519
20
-0.578636839856102
30
0
41
1
10
13.1551836833479
20
-0.58745759681986
30
0
41
1
10
13.2261022460033
20
-0.603266770932294
30
0
41
1
10
13.2614791005444
20
-0.610271046403909
30
0
41
1
10
13.3322833024136
20
-0.622438932834967
30
0
41
1
10
13.3677419717839
20
-0.627595394372776
30
0
41
1
10
13.4385930038269
20
-0.636236132845596
30
0
41
1
10
13.473951472246
20
-0.639731651319238
30
0
41
1
10
13.5444444289308
20
-0.645051690797914
30
0
41
1
10
13.5795763425047
20
-0.646870726004266
30
0
41
1
10
13.6325567226777
20
-0.648266411554573
30
0
41
1
10
13.6504453154709
20
-0.648503271964358
30
0
41
1
10
13.6683489717194
20
-0.648506120356871
30
0
0
SPLINE
5
C5
100
AcDbEntity
8
1
62
256
6
ByLayer
370
18
48
1
60
0
100
AcDbSpline
70
4
71
3
72
34
73
30
40
0
40
0
40
0
40
0
40
0.0315851274895641
40
0.0315851274895641
40
0.106078579221136
40
0.106078579221136
40
0.180572030952708
40
0.180572030952708
40
0.25506548268428
40
0.25506548268428
40
0.329558934415852
40
0.329558934415852
40
0.404052386147425
40
0.404052386147425
40
0.478545837878997
40
0.478545837878997
40
0.553039289610568
40
0.553039289610568
40
0.627532741342141
40
0.627532741342141
40
0.702026193073713
40
0.702026193073713
40
0.776519644805285
40
0.776519644805285
40
0.851013096536856
40
0.851013096536856
40
0.925506548268429
40
0.925506548268429
40
1
40
1
40
1
40
1
41
1
10
16.2212297220112
20
0.370757354730188
30
0
41
1
10
16.2362322393872
20
0.377518891731455
30
0
41
1
10
16.2512615166963
20
0.384171527874486
30
0
41
1
10
16.3018234299305
20
0.406158619300697
30
0
41
1
10
16.3374308216553
20
0.421075513705489
30
0
41
1
10
16.4086628775503
20
0.45010431986816
30
0
41
1
10
16.4443917195766
20
0.464222408646549
30
0
41
1
10
16.5153874569024
20
0.491241443437531
30
0
41
1
10
16.5506919249627
20
0.504119778644338
30
0
41
1
10
16.621246301252
20
0.52822892106596
30
0
41
1
10
16.6564940782889
20
0.539466125712408
30
0
41
1
10
16.7271314254831
20
0.560192867808439
30
0
41
1
10
16.7625314853144
20
0.569683707619078
30
0
41
1
10
16.8332238728033
20
0.587217348197044
30
0
41
1
10
16.8684983110733
20
0.595268649177967
30
0
41
1
10
16.938892402751
20
0.609882016789982
30
0
41
1
10
16.9739927883169
20
0.616451116817672
30
0
41
1
10
17.0442410938136
20
0.627893211918433
30
0
41
1
10
17.0794094840666
20
0.632754425037575
30
0
41
1
10
17.1500968063081
20
0.640657974818197
30
0
41
1
10
17.185629664297
20
0.643701216270898
30
0
41
1
10
17.2570955976453
20
0.648028261425225
30
0
41
1
10
17.2930042658467
20
0.649324667323242
30
0
41
1
10
17.3644127618702
20
0.650159181785284
30
0
41
1
10
17.3999934290643
20
0.649694650890098
30
0
41
1
10
17.4709367485974
20
0.646919912946174
30
0
41
1
10
17.5063151846131
20
0.644603031718049
30
0
41
1
10
17.5772325347675
20
0.638162730662373
30
0
41
1
10
17.6127728668974
20
0.634043555906857
30
0
41
1
10
17.6484965378849
20
0.629100024514202
30
0
0
SPLINE
5
C6
100
AcDbEntity
8
1
62
256
6
ByLayer
370
18
48
1
60
0
100
AcDbSpline
70
4
71
3
72
98
73
94
40
0
40
0
40
0
40
0
40
0.0119110064797163
40
0.0119110064797163
40
0.0339685336721418
40
0.0339685336721418
40
0.0560260608645673
40
0.0560260608645673
40
0.0780835880569928
40
0.0780835880569928
40
0.100141115249418
40
0.100141115249418
40
0.122198642441844
40
0.122198642441844
40
0.144256169634269
40
0.144256169634269
40
0.166313696826695
40
0.166313696826695
40
0.18837122401912
40
0.18837122401912
40
0.210428751211546
40
0.210428751211546
40
0.232486278403972
40
0.232486278403972
40
0.254543805596397
40
0.254543805596397
40
0.276601332788822
40
0.276601332788822
40
0.298658859981248
40
0.298658859981248
40
0.320716387173674
40
0.320716387173674
40
0.342773914366099
40
0.342773914366099
40
0.364831441558525
40
0.364831441558525
40
0.408946495943376
40
0.408946495943376
40
0.431004023135801
40
0.431004023135801
40
0.453061550328227
40
0.453061550328227
40
0.464090313924438
40
0.464090313924438
40
0.475119077520649
40
0.475119077520649
40
0.497176604713074
40
0.497176604713074
40
0.5192341319055
40
0.5192341319055
40
0.541291659097925
40
0.541291659097925
40
0.585406713482776
40
0.585406713482776
40
0.6074642406752
40
0.6074642406752
40
0.629521767867624
40
0.629521767867624
40
0.651579295060048
40
0.651579295060048
40
0.673636822252471
40
0.673636822252471
40
0.695694349444895
40
0.695694349444895
40
0.717751876637319
40
0.717751876637319
40
0.739809403829743
40
0.739809403829743
40
0.761866931022167
40
0.761866931022167
40
0.78392445821459
40
0.78392445821459
40
0.805981985407014
40
0.805981985407014
40
0.828039512599438
40
0.828039512599438
40
0.850097039791862
40
0.850097039791862
40
0.872154566984286
40
0.872154566984286
40
0.89421209417671
40
0.89421209417671
40
0.916269621369133
40
0.916269621369133
40
0.938327148561557
40
0.938327148561557
40
0.960384675753981
40
0.960384675753981
40
0.982442202946405
40
0.982442202946405
40
0.993470966542618
40
0.993470966542618
40
1
40
1
40
1
40
1
41
1
10
16.2216175031659
20
-0.370041752787216
30
0
41
1
10
16.2025524702871
20
-0.378707538022553
30
0
41
1
10
16.1834680851383
20
-0.38723225247378
30
0
41
1
10
16.128964632409
20
-0.411104867394556
30
0
41
1
10
16.0935137374028
20
-0.426132185078416
30
0
41
1
10
16.0224545097728
20
-0.455155109431047
30
0
41
1
10
15.9867497793236
20
-0.469136077045022
30
0
41
1
10
15.9155731841739
20
-0.495471185041083
30
0
41
1
10
15.8800659341621
20
-0.507892120823755
30
0
41
1
10
15.8092795466658
20
-0.531347830013118
30
0
41
1
10
15.7739855830166
20
-0.5423600625966
30
0
41
1
10
15.7034482514834
20
-0.562815786965984
30
0
41
1
10
15.668205959882
20
-0.572265210546334
30
0
41
1
10
15.5978179728681
20
-0.589648127850893
30
0
41
1
10
15.5626889608474
20
-0.597589031476218
30
0
41
1
10
15.4923532245423
20
-0.61179880340697
30
0
41
1
10
15.4571159797998
20
-0.618052540422639
30
0
41
1
10
15.3865094573298
20
-0.628880885830171
30
0
41
1
10
15.3511683038521
20
-0.633468104079952
30
0
41
1
10
15.2803347788337
20
-0.640924254875586
30
0
41
1
10
15.2448201692021
20
-0.643785507242171
30
0
41
1
10
15.173535109377
20
-0.647737445520875
30
0
41
1
10
15.1377991929485
20
-0.648828450033221
30
0
41
1
10
15.0666247712457
20
-0.649197047682151
30
0
41
1
10
15.0310991584469
20
-0.648472547812531
30
0
41
1
10
14.959936674418
20
-0.645249460363544
30
0
41
1
10
14.924320844629
20
-0.642756401621199
30
0
41
1
10
14.8531015727429
20
-0.635989249521174
30
0
41
1
10
14.8174886616167
20
-0.631711494900856
30
0
41
1
10
14.7460966882003
20
-0.621415315342773
30
0
41
1
10
14.7104368827581
20
-0.61541914841419
30
0
41
1
10
14.6394473629772
20
-0.601765908442275
30
0
41
1
10
14.6041022536954
20
-0.594085418186069
30
0
41
1
10
14.5335157642922
20
-0.577165598137753
30
0
41
1
10
14.4982421388707
20
-0.567956623622734
30
0
41
1
10
14.3924590426021
20
-0.538158875304248
30
0
41
1
10
14.3221356600865
20
-0.515241678774373
30
0
41
1
10
14.2163537786023
20
-0.476921870544658
30
0
41
1
10
14.1810662776842
20
-0.463468656757755
30
0
41
1
10
14.1104436037078
20
-0.435160959114341
30
0
41
1
10
14.0750907296078
20
-0.420324618142786
30
0
41
1
10
14.0218208399352
20
-0.397294504634346
30
0
41
1
10
14.004027268979
20
-0.389485087110131
30
0
41
1
10
13.9683771838947
20
-0.373583513866322
30
0
41
1
10
13.9504989795695
20
-0.365481154825716
30
0
41
1
10
13.8969853193032
20
-0.340816378297092
30
0
41
1
10
13.8614617897529
20
-0.323892345336958
30
0
41
1
10
13.7905594916169
20
-0.289354036100974
30
0
41
1
10
13.7551751636136
20
-0.271750466763251
30
0
41
1
10
13.684572985816
20
-0.235823851976903
30
0
41
1
10
13.6493767201375
20
-0.217462273292824
30
0
41
1
10
13.5438486334857
20
-0.161620633698732
30
0
41
1
10
13.4734013278126
20
-0.123704616697467
30
0
41
1
10
13.3676340336897
20
-0.0657259731908937
30
0
41
1
10
13.3323326306071
20
-0.0462680133179845
30
0
41
1
10
13.2615472419176
20
-0.0072567669131445
30
0
41
1
10
13.2260794122063
20
0.0123261069200851
30
0
41
1
10
13.1550150965588
20
0.0517005513603124
30
0
41
1
10
13.1193196883646
20
0.0715153050235244
30
0
41
1
10
13.0481072420444
20
0.110522822081464
30
0
41
1
10
13.0125682462394
20
0.129739761189825
30
0
41
1
10
12.9417032618894
20
0.167768357262219
30
0
41
1
10
12.9063837465693
20
0.186588834880752
30
0
41
1
10
12.835813744479
20
0.223564075148175
30
0
41
1
10
12.8005543849152
20
0.241705389728907
30
0
41
1
10
12.7301099173675
20
0.277340377102433
30
0
41
1
10
12.6949477210892
20
0.294870896663866
30
0
41
1
10
12.6246042893371
20
0.329116231339952
30
0
41
1
10
12.589389934803
20
0.345777916903529
30
0
41
1
10
12.518784565225
20
0.378044760699879
30
0
41
1
10
12.4834267176824
20
0.393702379568339
30
0
41
1
10
12.4125978038558
20
0.424048209535357
30
0
41
1
10
12.3771022739098
20
0.438699041068531
30
0
41
1
10
12.3058388262141
20
0.46678917813054
30
0
41
1
10
12.2700534614787
20
0.480258120762329
30
0
41
1
10
12.1989636280848
20
0.505800061461088
30
0
41
1
10
12.1635679993123
20
0.51789103220716
30
0
41
1
10
12.0928335311342
20
0.540461152155046
30
0
41
1
10
12.0574862665579
20
0.550939758206027
30
0
41
1
10
11.9869131107017
20
0.570400476520291
30
0
41
1
10
11.951699360923
20
0.579387902153428
30
0
41
1
10
11.8812697370917
20
0.595748476028433
30
0
41
1
10
11.8460415535121
20
0.603116015409455
30
0
41
1
10
11.7755666747921
20
0.616233611335048
30
0
41
1
10
11.7403432898136
20
0.621995350206987
30
0
41
1
10
11.6698160347926
20
0.631828995084476
30
0
41
1
10
11.6344802417823
20
0.635885174786068
30
0
41
1
10
11.5635345815902
20
0.642234593356335
30
0
41
1
10
11.5279576994043
20
0.644542298070064
30
0
41
1
10
11.4744499978034
20
0.646677464052004
30
0
41
1
10
11.4565810518483
20
0.647166042285164
30
0
41
1
10
11.4282117193579
20
0.647584146983348
30
0
41
1
10
11.4176717036507
20
0.647660856086759
30
0
41
1
10
11.4071399936585
20
0.647659426461416
30
0
0
SPLINE
5
C7
100
AcDbEntity
8
1
62
256
6
ByLayer
370
18
48
1
60
0
100
AcDbSpline
70
4
71
3
72
94
73
90
40
0
40
0
40
0
40
0
40
0.0033222230896365
40
0.0033222230896365
40
0.0254706181320893
40
0.0254706181320893
40
0.0476190131745424
40
0.0476190131745424
40
0.0697674082169952
40
0.0697674082169952
40
0.091915803259448
40
0.091915803259448
40
0.114064198301901
40
0.114064198301901
40
0.136212593344354
40
0.136212593344354
40
0.158360988386807
40
0.158360988386807
40
0.202657778471715
40
0.202657778471715
40
0.224806173514168
40
0.224806173514168
40
0.246954568556622
40
0.246954568556622
40
0.269102963599076
40
0.269102963599076
40
0.29125135864153
40
0.29125135864153
40
0.313399753683984
40
0.313399753683984
40
0.324473951205211
40
0.324473951205211
40
0.335548148726438
40
0.335548148726438
40
0.379844938811344
40
0.379844938811344
40
0.401993333853797
40
0.401993333853797
40
0.42414172889625
40
0.42414172889625
40
0.446290123938703
40
0.446290123938703
40
0.468438518981155
40
0.468438518981155
40
0.490586914023608
40
0.490586914023608
40
0.512735309066061
40
0.512735309066061
40
0.534883704108514
40
0.534883704108514
40
0.557032099150967
40
0.557032099150967
40
0.57918049419342
40
0.57918049419342
40
0.601328889235873
40
0.601328889235873
40
0.623477284278326
40
0.623477284278326
40
0.645625679320779
40
0.645625679320779
40
0.656699876842004
40
0.656699876842004
40
0.66777407436323
40
0.66777407436323
40
0.689922469405682
40
0.689922469405682
40
0.734219259490584
40
0.734219259490584
40
0.756367654533036
40
0.756367654533036
40
0.778516049575487
40
0.778516049575487
40
0.800664444617938
40
0.800664444617938
40
0.82281283966039
40
0.82281283966039
40
0.844961234702841
40
0.844961234702841
40
0.867109629745292
40
0.867109629745292
40
0.889258024787744
40
0.889258024787744
40
0.911406419830195
40
0.911406419830195
40
0.933554814872646
40
0.933554814872646
40
0.955703209915098
40
0.955703209915098
40
1
40
1
40
1
40
1
41
1
10
8.85343555623078
20
-0.368576086244502
30
0
41
1
10
8.84812234653484
20
-0.370991000499401
30
0
41
1
10
8.84281187041756
20
-0.373394794133134
30
0
41
1
10
8.80211843966845
20
-0.391738237370731
30
0
41
1
10
8.76682875170675
20
-0.407151281693501
30
0
41
1
10
8.69622582758356
20
-0.436615604797396
30
0
41
1
10
8.66093586128869
20
-0.450705846347915
30
0
41
1
10
8.59045127530507
20
-0.477708874898156
30
0
41
1
10
8.55524453272488
20
-0.490601410738492
30
0
41
1
10
8.48475326045724
20
-0.514985739239989
30
0
41
1
10
8.44946775570142
20
-0.526480397037062
30
0
41
1
10
8.37885980106614
20
-0.548110622248174
30
0
41
1
10
8.34355541572631
20
-0.558259907827477
30
0
41
1
10
8.27274690833036
20
-0.577003665105877
30
0
41
1
10
8.23721142463694
20
-0.585573731381743
30
0
41
1
10
8.16587282524503
20
-0.601107542907982
30
0
41
1
10
8.13008626961982
20
-0.608089887557412
30
0
41
1
10
8.0233527987622
20
-0.626397661658245
30
0
41
1
10
7.95254197408497
20
-0.635108404838547
30
0
41
1
10
7.84681233454461
20
-0.643003795122183
30
0
41
1
10
7.81163374733742
20
-0.644758071848855
30
0
41
1
10
7.74117344581782
20
-0.646498732693374
30
0
41
1
10
7.70590883451524
20
-0.646495186850558
30
0
41
1
10
7.63538925337502
20
-0.644745125997332
30
0
41
1
10
7.60013047131488
20
-0.642992410296927
30
0
41
1
10
7.52945922812279
20
-0.637742496804918
30
0
41
1
10
7.49404234864082
20
-0.634251899155601
30
0
41
1
10
7.42308129473471
20
-0.625503463504856
30
0
41
1
10
7.38755766792295
20
-0.620230631278616
30
0
41
1
10
7.33407255099178
20
-0.611000549276667
30
0
41
1
10
7.31620870575114
20
-0.607705345036436
30
0
41
1
10
7.28055655576497
20
-0.600734171661372
30
0
41
1
10
7.26274891373905
20
-0.597053175196521
30
0
41
1
10
7.17382862795571
20
-0.577667846019011
30
0
41
1
10
7.10317174104915
20
-0.558928317862893
30
0
41
1
10
6.99730707207294
20
-0.526598070106985
30
0
41
1
10
6.9620577427736
20
-0.515103254532676
30
0
41
1
10
6.89165493510694
20
-0.490642537491112
30
0
41
1
10
6.85648637232697
20
-0.477688584996997
30
0
41
1
10
6.78597345971551
20
-0.450637099190743
30
0
41
1
10
6.75063738137027
20
-0.436535865167997
30
0
41
1
10
6.67988665819342
20
-0.407071437298498
30
0
41
1
10
6.64447581260097
20
-0.391697574574465
30
0
41
1
10
6.57342475187539
20
-0.359879415960961
30
0
41
1
10
6.53775874307172
20
-0.343442006350159
30
0
41
1
10
6.46628294247452
20
-0.309498126383829
30
0
41
1
10
6.43071930738822
20
-0.292058296007724
30
0
41
1
10
6.35978615954338
20
-0.256510291068395
30
0
41
1
10
6.32438291281539
20
-0.23846119638992
30
0
41
1
10
6.25363393380837
20
-0.2019443486966
30
0
41
1
10
6.21832105771881
20
-0.183418729829043
30
0
41
1
10
6.14779992860389
20
-0.145866435374558
30
0
41
1
10
6.11256699186356
20
-0.126883747430384
30
0
41
1
10
6.04205738350046
20
-0.0886870244468696
30
0
41
1
10
6.00679587792123
20
-0.0694459231572466
30
0
41
1
10
5.9362921831077
20
-0.0306128108428538
30
0
41
1
10
5.90103954197053
20
-0.0110388309789471
30
0
41
1
10
5.83029085405698
20
0.0279726312701598
30
0
41
1
10
5.79479163141093
20
0.047402443665078
30
0
41
1
10
5.7414165322291
20
0.0765507117613424
30
0
41
1
10
5.72360558737262
20
0.0862710654973284
30
0
41
1
10
5.68792786231464
20
0.105688110084856
30
0
41
1
10
5.67004196556994
20
0.115392578084197
30
0
41
1
10
5.61650955267558
20
0.144282261374229
30
0
41
1
10
5.58091981794763
20
0.163255863265732
30
0
41
1
10
5.47446761379825
20
0.219386012949201
30
0
41
1
10
5.40403511860828
20
0.25593081165448
30
0
41
1
10
5.29820309045257
20
0.30777348781632
30
0
41
1
10
5.26294003810432
20
0.324639702307991
30
0
41
1
10
5.19245001155286
20
0.35755032444942
30
0
41
1
10
5.15719862835158
20
0.373554547765025
30
0
41
1
10
5.0865676224505
20
0.404483690201317
30
0
41
1
10
5.05120097712026
20
0.419430217729087
30
0
41
1
10
4.980404995502
20
0.448325370142499
30
0
41
1
10
4.94497106803624
20
0.462263393719468
30
0
41
1
10
4.87379093978527
20
0.488779559659122
30
0
41
1
10
4.83795441878624
20
0.501370720659196
30
0
41
1
10
4.76661430365368
20
0.525065902481316
30
0
41
1
10
4.73108204657478
20
0.536199299816246
30
0
41
1
10
4.66014944737987
20
0.556898801101141
30
0
41
1
10
4.62473621879008
20
0.566455936152494
30
0
41
1
10
4.55401755351954
20
0.584008590979238
30
0
41
1
10
4.51873354656519
20
0.592019738309517
30
0
41
1
10
4.44822665485154
20
0.606424807868677
30
0
41
1
10
4.41297988548035
20
0.612800784437667
30
0
41
1
10
4.34235075185865
20
0.62382920028773
30
0
41
1
10
4.30698472382741
20
0.628493332313326
30
0
41
1
10
4.20068428143929
20
0.639925043777453
30
0
41
1
10
4.12950342588832
20
0.644172081979633
30
0
41
1
10
4.05826131824657
20
0.644813062156743
30
0
0
SPLINE
5
C8
100
AcDbEntity
8
1
62
256
6
ByLayer
370
18
48
1
60
0
100
AcDbSpline
70
4
71
3
72
8
73
4
40
0
40
0
40
0
40
0
40
1
40
1
40
1
40
1
41
1
10
4.05826131824696
20
0.644813062156743
30
0
41
1
10
4.04732955959145
20
0.644859184493725
30
0
41
1
10
4.03640596876792
20
0.644884765094474
30
0
41
1
10
4.02549042619319
20
0.644888942117376
30
0
0
SPLINE
5
C9
100
AcDbEntity
8
1
62
256
6
ByLayer
370
18
48
1
60
0
100
AcDbSpline
70
4
71
3
72
100
73
96
40
0
40
0
40
0
40
0
40
0.0120439555827533
40
0.0120439555827533
40
0.0341024539354358
40
0.0341024539354358
40
0.0561609522881183
40
0.0561609522881183
40
0.0782194506408009
40
0.0782194506408009
40
0.100277948993483
40
0.100277948993483
40
0.122336447346166
40
0.122336447346166
40
0.144394945698849
40
0.144394945698849
40
0.166453444051531
40
0.166453444051531
40
0.188511942404214
40
0.188511942404214
40
0.210570440756896
40
0.210570440756896
40
0.232628939109579
40
0.232628939109579
40
0.254687437462261
40
0.254687437462261
40
0.276745935814944
40
0.276745935814944
40
0.287775184991286
40
0.287775184991286
40
0.298804434167628
40
0.298804434167628
40
0.32086293252031
40
0.32086293252031
40
0.342921430872993
40
0.342921430872993
40
0.364979929225676
40
0.364979929225676
40
0.387038427578358
40
0.387038427578358
40
0.409096925931041
40
0.409096925931041
40
0.431155424283723
40
0.431155424283723
40
0.453213922636406
40
0.453213922636406
40
0.475272420989088
40
0.475272420989088
40
0.497330919341771
40
0.497330919341771
40
0.519389417694453
40
0.519389417694453
40
0.541447916047136
40
0.541447916047136
40
0.563506414399818
40
0.563506414399818
40
0.585564912752501
40
0.585564912752501
40
0.607623411105183
40
0.607623411105183
40
0.618652660281524
40
0.618652660281524
40
0.629681909457864
40
0.629681909457864
40
0.651740407810547
40
0.651740407810547
40
0.673798906163229
40
0.673798906163229
40
0.695857404515912
40
0.695857404515912
40
0.717915902868595
40
0.717915902868595
40
0.739974401221277
40
0.739974401221277
40
0.784091397926642
40
0.784091397926642
40
0.806149896279325
40
0.806149896279325
40
0.828208394632007
40
0.828208394632007
40
0.85026689298469
40
0.85026689298469
40
0.872325391337372
40
0.872325391337372
40
0.894383889690055
40
0.894383889690055
40
0.916442388042737
40
0.916442388042737
40
0.93850088639542
40
0.93850088639542
40
0.960559384748103
40
0.960559384748103
40
0.982617883100785
40
0.982617883100785
40
1
40
1
40
1
40
1
41
1
10
5.16942742972566
20
0.367813741188115
30
0
41
1
10
5.18875890818316
20
0.376430798058436
30
0
41
1
10
5.20810182283307
20
0.384864620103457
30
0
41
1
10
5.26285041893848
20
0.408318227346541
30
0
41
1
10
5.29821063535707
20
0.423021249347357
30
0
41
1
10
5.3687723344004
20
0.451525167711537
30
0
41
1
10
5.403963294466
20
0.465336317389387
30
0
41
1
10
5.47434688239028
20
0.491782162103306
30
0
41
1
10
5.50956329059613
20
0.504384919252686
30
0
41
1
10
5.58033188186761
20
0.528012641638725
30
0
41
1
10
5.61588760930394
20
0.539036893911032
30
0
41
1
10
5.68744170463765
20
0.559445305861544
30
0
41
1
10
5.72341392041042
20
0.568873638586609
30
0
41
1
10
5.79479615144874
20
0.58623291763638
30
0
41
1
10
5.83030697652262
20
0.59416804326392
30
0
41
1
10
5.90097841310205
20
0.608478618189338
30
0
41
1
10
5.93613960705699
20
0.614844822929769
30
0
41
1
10
6.00643808080892
20
0.625787059178634
30
0
41
1
10
6.04158369986379
20
0.630362367956707
30
0
41
1
10
6.11207473911162
20
0.637712885632226
30
0
41
1
10
6.14745104120638
20
0.640488265788974
30
0
41
1
10
6.21826607975044
20
0.644362268028402
30
0
41
1
10
6.25367223327285
20
0.645463838544828
30
0
41
1
10
6.32440364445225
20
0.645932618020538
30
0
41
1
10
6.35972462275345
20
0.645293683404418
30
0
41
1
10
6.43043081128786
20
0.642172709692318
30
0
41
1
10
6.4658408710194
20
0.639689640745956
30
0
41
1
10
6.51926500667278
20
0.634626840864371
30
0
41
1
10
6.53712341124523
20
0.632716159989485
30
0
41
1
10
6.57278633423249
20
0.628489400433438
30
0
41
1
10
6.59061588891802
20
0.626172918926443
30
0
41
1
10
6.6441031356014
20
0.618640355116469
30
0
41
1
10
6.67974238902775
20
0.612840467103723
30
0
41
1
10
6.75072099293084
20
0.59955362790447
30
0
41
1
10
6.78607096309503
20
0.592066656272067
30
0
41
1
10
6.85650414725652
20
0.575353473842114
30
0
41
1
10
6.89157849659642
20
0.566112793595352
30
0
41
1
10
6.96176317696543
20
0.546110789396863
30
0
41
1
10
6.99688405508368
20
0.535362050625309
30
0
41
1
10
7.06739631478956
20
0.512641726293765
30
0
41
1
10
7.10281858996888
20
0.500712703638243
30
0
41
1
10
7.17383660026539
20
0.475590382671783
30
0
41
1
10
7.20939576750422
20
0.462350944606641
30
0
41
1
10
7.2805108842966
20
0.434310850656829
30
0
41
1
10
7.31607600329863
20
0.419504000568821
30
0
41
1
10
7.38730785245068
20
0.388416549235444
30
0
41
1
10
7.42274574840062
20
0.372282648626282
30
0
41
1
10
7.49357637778698
20
0.339339783079595
30
0
41
1
10
7.52896571164499
20
0.322526880835539
30
0
41
1
10
7.59986235099819
20
0.288534419625279
30
0
41
1
10
7.63534463836501
20
0.27131727202331
30
0
41
1
10
7.70610626781493
20
0.235992750678122
30
0
41
1
10
7.74138825885069
20
0.217887366109664
30
0
41
1
10
7.81176924958879
20
0.180790427747439
30
0
41
1
10
7.84685220534033
20
0.161767975847312
30
0
41
1
10
7.91711316858232
20
0.123311503447894
30
0
41
1
10
7.95230430062674
20
0.103902038143588
30
0
41
1
10
8.02303199137609
20
0.0651491086570957
30
0
41
1
10
8.0585970533125
20
0.0458621160340442
30
0
41
1
10
8.11215951926803
20
0.0169160561705439
30
0
41
1
10
8.13004387767612
20
0.0072537517815192
30
0
41
1
10
8.16584019393775
20
-0.0121641907147136
30
0
41
1
10
8.18376879966044
20
-0.0219310484397397
30
0
41
1
10
8.2373587738679
20
-0.0512415580028858
30
0
41
1
10
8.27287226293038
20
-0.0708489630503948
30
0
41
1
10
8.34356230062821
20
-0.110004766665782
30
0
41
1
10
8.37876260897986
20
-0.129506097488871
30
0
41
1
10
8.44919084088929
20
-0.167780720455113
30
0
41
1
10
8.4844134197044
20
-0.186565210367348
30
0
41
1
10
8.5550616459283
20
-0.223135333122087
30
0
41
1
10
8.59047195827802
20
-0.24095246866591
30
0
41
1
10
8.66119132660401
20
-0.276131445540017
30
0
41
1
10
8.69649367813207
20
-0.293501775881822
30
0
41
1
10
8.80225131437766
20
-0.344868189189839
30
0
41
1
10
8.87248920381137
20
-0.378190325944729
30
0
41
1
10
8.97918105219401
20
-0.424012961568707
30
0
41
1
10
9.01505572629796
20
-0.438611727919579
30
0
41
1
10
9.08658741167579
20
-0.466303968683917
30
0
41
1
10
9.12225539319894
20
-0.479483240929852
30
0
41
1
10
9.19323242905546
20
-0.504708359866981
30
0
41
1
10
9.2285534681964
20
-0.516733501575857
30
0
41
1
10
9.29892402725682
20
-0.539473919537045
30
0
41
1
10
9.33399545316297
20
-0.550159232577528
30
0
41
1
10
9.40423208426074
20
-0.569845359808227
30
0
41
1
10
9.43939288306419
20
-0.578853577320871
30
0
41
1
10
9.50999042585022
20
-0.595115883903162
30
0
41
1
10
9.54542662950411
20
-0.602381695959451
30
0
41
1
10
9.61629967596437
20
-0.615398786465647
30
0
41
1
10
9.65172308230581
20
-0.62115195642653
30
0
41
1
10
9.72255174622376
20
-0.631054357458453
30
0
41
1
10
9.75793665078763
20
-0.635206498521228
30
0
41
1
10
9.82892032525206
20
-0.641712443116631
30
0
41
1
10
9.8645519073801
20
-0.644055187287648
30
0
41
1
10
9.92807643561349
20
-0.646578210726915
30
0
41
1
10
9.95607670707429
20
-0.647121257449413
30
0
41
1
10
9.98407746548176
20
-0.647126035391437
30
0
0
SPLINE
5
CA
100
AcDbEntity
8
1
62
256
6
ByLayer
370
18
48
1
60
0
100
AcDbSpline
70
4
71
3
72
100
73
96
40
0
40
0
40
0
40
0
40
0.0037022710547062
40
0.0037022710547062
40
0.0257393828939246
40
0.0257393828939246
40
0.0477764947331433
40
0.0477764947331433
40
0.0698136065723624
40
0.0698136065723624
40
0.0918507184115811
40
0.0918507184115811
40
0.1138878302508
40
0.1138878302508
40
0.135924942090019
40
0.135924942090019
40
0.157962053929238
40
0.157962053929238
40
0.179999165768457
40
0.179999165768457
40
0.202036277607675
40
0.202036277607675
40
0.224073389446894
40
0.224073389446894
40
0.246110501286113
40
0.246110501286113
40
0.268147613125332
40
0.268147613125332
40
0.290184724964551
40
0.290184724964551
40
0.301203280884159
40
0.301203280884159
40
0.312221836803766
40
0.312221836803766
40
0.334258948642982
40
0.334258948642982
40
0.356296060482197
40
0.356296060482197
40
0.400370284160628
40
0.400370284160628
40
0.422407395999842
40
0.422407395999842
40
0.444444507839055
40
0.444444507839055
40
0.466481619678269
40
0.466481619678269
40
0.488518731517483
40
0.488518731517483
40
0.510555843356697
40
0.510555843356697
40
0.532592955195911
40
0.532592955195911
40
0.554630067035125
40
0.554630067035125
40
0.576667178874338
40
0.576667178874338
40
0.598704290713552
40
0.598704290713552
40
0.620741402552766
40
0.620741402552766
40
0.631759958472373
40
0.631759958472373
40
0.64277851439198
40
0.64277851439198
40
0.664815626231191
40
0.664815626231191
40
0.686852738070401
40
0.686852738070401
40
0.708889849909611
40
0.708889849909611
40
0.752964073588029
40
0.752964073588029
40
0.775001185427237
40
0.775001185427237
40
0.797038297266446
40
0.797038297266446
40
0.819075409105655
40
0.819075409105655
40
0.841112520944864
40
0.841112520944864
40
0.863149632784073
40
0.863149632784073
40
0.885186744623281
40
0.885186744623281
40
0.90722385646249
40
0.90722385646249
40
0.929260968301699
40
0.929260968301699
40
0.951298080140908
40
0.951298080140908
40
0.973335191980117
40
0.973335191980117
40
0.995372303819326
40
0.995372303819326
40
1
40
1
40
1
40
1
41
1
10
12.5367454455966
20
0.368438221666452
30
0
41
1
10
12.542686979193
20
0.371124276839396
30
0
41
1
10
12.5486244132593
20
0.373799347403093
30
0
41
1
10
12.5898738780732
20
0.392321960276348
30
0
41
1
10
12.6250301406381
20
0.407806659804919
30
0
41
1
10
12.6951954417972
20
0.437727699848011
30
0
41
1
10
12.7302286823875
20
0.452127755303593
30
0
41
1
10
12.800489707851
20
0.479432421335673
30
0
41
1
10
12.8357189803726
20
0.492338462159182
30
0
41
1
10
12.9064933864967
20
0.516575704828796
30
0
41
1
10
12.9420036052104
20
0.527955228774488
30
0
41
1
10
13.0130094091906
20
0.549511598297926
30
0
41
1
10
13.0485186048613
20
0.559668880005489
30
0
41
1
10
13.1195717783519
20
0.578636839856102
30
0
41
1
10
13.1551836833479
20
0.58745759681986
30
0
41
1
10
13.2261022460033
20
0.603266770932294
30
0
41
1
10
13.2614791005444
20
0.610271046403909
30
0
41
1
10
13.3322833024136
20
0.622438932834967
30
0
41
1
10
13.3677419717839
20
0.627595394372776
30
0
41
1
10
13.4385930038269
20
0.636236132845596
30
0
41
1
10
13.473951472246
20
0.639731651319238
30
0
41
1
10
13.5444444289308
20
0.645051690797914
30
0
41
1
10
13.5795763425047
20
0.646870726004266
30
0
41
1
10
13.6497493339691
20
0.648719324105855
30
0
41
1
10
13.6848154845161
20
0.648741923516582
30
0
41
1
10
13.7552140040818
20
0.646991474106642
30
0
41
1
10
13.79054319541
20
0.645222317172284
30
0
41
1
10
13.8616131934654
20
0.640001822901809
30
0
41
1
10
13.8973255790188
20
0.636555691700863
30
0
41
1
10
13.9509591221557
20
0.630046756169179
30
0
41
1
10
13.9688689778321
20
0.62764894111254
30
0
41
1
10
14.0045634333181
20
0.622413424143559
30
0
41
1
10
14.0223595676141
20
0.619574837468406
30
0
41
1
10
14.0755958449657
20
0.610387795301364
30
0
41
1
10
14.1108712067723
20
0.603353995072069
30
0
41
1
10
14.1813039846597
20
0.58766086802973
30
0
41
1
10
14.2164731057106
20
0.579012830468656
30
0
41
1
10
14.3221709979115
20
0.551037753376818
30
0
41
1
10
14.3930434718101
20
0.529920103973978
30
0
41
1
10
14.4988450432206
20
0.493477214294387
30
0
41
1
10
14.5340438496626
20
0.48053053811077
30
0
41
1
10
14.6044108385374
20
0.453086130365961
30
0
41
1
10
14.639603875147
20
0.438615300927665
30
0
41
1
10
14.7103284623443
20
0.408601455477651
30
0
41
1
10
14.74585457451
20
0.393053770661851
30
0
41
1
10
14.8174085920525
20
0.361197670637864
30
0
41
1
10
14.8532092986856
20
0.344959120806124
30
0
41
1
10
14.9244404425923
20
0.311509310400567
30
0
41
1
10
14.9598919116721
20
0.294279140940375
30
0
41
1
10
15.0304767215245
20
0.258809678238805
30
0
41
1
10
15.0655912109564
20
0.240536322059029
30
0
41
1
10
15.1357596605039
20
0.203409082770946
30
0
41
1
10
15.170828050949
20
0.184580839202681
30
0
41
1
10
15.2411647441042
20
0.146819531842425
30
0
41
1
10
15.2764595520954
20
0.127936016318159
30
0
41
1
10
15.3472183705366
20
0.090033374395972
30
0
41
1
10
15.3826416800181
20
0.0709404221028365
30
0
41
1
10
15.4534208225338
20
0.0321684754519822
30
0
41
1
10
15.4887883283167
20
0.0125096934766589
30
0
41
1
10
15.541866102423
20
-0.0172979678301601
30
0
41
1
10
15.5595686751674
20
-0.0272765731011191
30
0
41
1
10
15.5950354984174
20
-0.0472410620075436
30
0
41
1
10
15.612822387467
20
-0.0572381759989753
30
0
41
1
10
15.666149126635
20
-0.0870202440958678
30
0
41
1
10
15.7016318592222
20
-0.106590969767524
30
0
41
1
10
15.7726632353412
20
-0.144835191038737
30
0
41
1
10
15.8082063187821
20
-0.163524755431354
30
0
41
1
10
15.879076594744
20
-0.200558101903113
30
0
41
1
10
15.9143923103781
20
-0.218919065210827
30
0
41
1
10
16.0199867705937
20
-0.273482608658298
30
0
41
1
10
16.0898239042141
20
-0.309274713507335
30
0
41
1
10
16.195445084097
20
-0.359248210422777
30
0
41
1
10
16.230809442552
20
-0.375277844955804
30
0
41
1
10
16.3018234299305
20
-0.406158619300726
30
0
41
1
10
16.3374308216553
20
-0.421075513705489
30
0
41
1
10
16.4086628775503
20
-0.45010431986816
30
0
41
1
10
16.4443917195766
20
-0.464222408646549
30
0
41
1
10
16.5153874569024
20
-0.491241443437531
30
0
41
1
10
16.5506919249627
20
-0.504119778644338
30
0
41
1
10
16.621246301252
20
-0.528228921065988
30
0
41
1
10
16.6564940782889
20
-0.539466125712408
30
0
41
1
10
16.727131425483
20
-0.560192867808439
30
0
41
1
10
16.7625314853144
20
-0.569683707619049
30
0
41
1
10
16.8332238728033
20
-0.587217348197044
30
0
41
1
10
16.8684983110733
20
-0.595268649177967
30
0
41
1
10
16.938892402751
20
-0.609882016789982
30
0
41
1
10
16.9739927883169
20
-0.616451116817672
30
0
41
1
10
17.0442410938136
20
-0.627893211918433
30
0
41
1
10
17.0794094840666
20
-0.632754425037575
30
0
41
1
10
17.1500968063081
20
-0.640657974818197
30
0
41
1
10
17.185629664297
20
-0.643701216270898
30
0
41
1
10
17.2570955976453
20
-0.648028261425225
30
0
41
1
10
17.2930042658467
20
-0.649324667323242
30
0
41
1
10
17.3362062482877
20
-0.649829546730331
30
0
41
1
10
17.3436985330321
20
-0.649878283685354
30
0
41
1
10
17.3511855030472
20
-0.649887755279678
30
0
0
SPLINE
5
CB
100
AcDbEntity
8
1
62
256
6
ByLayer
370
18
48
1
60
0
100
AcDbSpline
70
4
71
5
72
139
73
133
40
0
40
0
40
0
40
0
40
0
40
0
40
0.0127377596657735
40
0.0545061361377527
40
0.093402893176269
40
0.140412034342661
40
0.190278913937554
40
0.239872844010588
40
0.285322635705135
40
0.327792325328357
40
0.373571898211243
40
0.414939347890971
40
0.439330932205865
40
0.448177250495109
40
0.451968529761928
40
0.457023568784353
40
0.46373080863229
40
0.467084428556258
40
0.470438048480226
40
0.472687179120231
40
0.474936309760238
40
0.476468684482
40
0.477185440400243
40
0.478310005720246
40
0.479434571040249
40
0.480215075929929
40
0.480995580819611
40
0.481776085709291
40
0.482556590598972
40
0.483337095488652
40
0.484117600378333
40
0.484898105268014
40
0.485678610157694
40
0.486276983916024
40
0.486875357674354
40
0.487473731432684
40
0.488072105191014
40
0.488677054485149
40
0.489268852707673
40
0.490465600224333
40
0.494348718863559
40
0.49606179936699
40
0.496344175274148
40
0.496918339618705
40
0.49777487987042
40
0.498635366308512
40
0.499495852746605
40
0.500356339184697
40
0.50121682562279
40
0.502121380893782
40
0.503025936164774
40
0.503165098514158
40
0.503930491435767
40
0.504835046706759
40
0.505734437327396
40
0.506633827948033
40
0.507533218568671
40
0.508432609189308
40
0.509274963415691
40
0.510098804362372
40
0.510117317642074
40
0.510959671868456
40
0.511802026094839
40
0.512621742471036
40
0.513441458847233
40
0.51426117522343
40
0.515080891599627
40
0.515560345450841
40
0.516039799302055
40
0.516519253153269
40
0.516809032953454
40
0.516998707004483
40
0.517478160855697
40
0.517717887781304
40
0.517957614706912
40
0.518197341632519
40
0.518437068558126
40
0.518676795483733
40
0.518916522409341
40
0.519301233912815
40
0.519685945416289
40
0.520455368423238
40
0.521224791430187
40
0.521994214437136
40
0.523533060451034
40
0.525071906464931
40
0.52819451888117
40
0.52975582508929
40
0.530150440944089
40
0.53053647819335
40
0.53131713129741
40
0.532097784401469
40
0.532878437505529
40
0.533659090609589
40
0.534439743713648
40
0.535220396817709
40
0.536001049921768
40
0.536781703025828
40
0.537562356129888
40
0.538980888917848
40
0.540399421705809
40
0.541817954493769
40
0.54323648728173
40
0.54465502006969
40
0.546073552857651
40
0.547492085645611
40
0.548910618433571
40
0.551747684009492
40
0.554584749585413
40
0.557421815161334
40
0.560258880737255
40
0.567744782951538
40
0.57111755208105
40
0.575230685165821
40
0.590202489594386
40
0.625383941771361
40
0.661537831096924
40
0.691057366854308
40
0.719779412590091
40
0.748169587450294
40
0.776380679485988
40
0.804452295871029
40
0.832377206459991
40
0.860141110930963
40
0.887684434978596
40
0.913983279648667
40
0.936805751068881
40
0.960153639264423
40
0.985814606174212
40
1
40
1
40
1
40
1
40
1
40
1
41
1
10
4.05826131824659
20
-0.644813062156743
30
0
41
1
10
4.05826131824657
20
-0.641782953224265
30
0
41
1
10
4.05826131824657
20
-0.628815219362309
30
0
41
1
10
4.05826131824657
20
-0.606581751303167
30
0
41
1
10
4.05826131824657
20
-0.573130114811761
30
0
41
1
10
4.05826131824659
20
-0.52778239018167
30
0
41
1
10
4.05826131824659
20
-0.47383937133398
30
0
41
1
10
4.05826131824654
20
-0.419179348988365
30
0
41
1
10
4.05826131824659
20
-0.363848957403604
30
0
41
1
10
4.05826131824659
20
-0.308963256148502
30
0
41
1
10
4.05826131824657
20
-0.256236344965742
30
0
41
1
10
4.05826131824659
20
-0.209636957706437
30
0
41
1
10
4.05826131824659
20
-0.171737998719891
30
0
41
1
10
4.05826131824657
20
-0.142949600985474
30
0
41
1
10
4.05826131824657
20
-0.1236416568469
30
0
41
1
10
4.05826131824657
20
-0.112359793491748
30
0
41
1
10
4.05826131824657
20
-0.105943081105352
30
0
41
1
10
4.05826131824657
20
-0.100795826713977
30
0
41
1
10
4.05826131824657
20
-0.0960036909063433
30
0
41
1
10
4.05826131824657
20
-0.0918588367683526
30
0
41
1
10
4.05826131824657
20
-0.0889103851614834
30
0
41
1
10
4.05826131824659
20
-0.0865716575268038
30
0
41
1
10
4.05826131824659
20
-0.084748769757482
30
0
41
1
10
4.05826131824659
20
-0.0831861999397177
30
0
41
1
10
4.05826131824659
20
-0.0819637325594158
30
0
41
1
10
4.05826131824659
20
-0.0809154294506698
30
0
41
1
10
4.05826131824659
20
-0.0798524828164773
30
0
41
1
10
4.05826131824659
20
-0.0788693731044816
30
0
41
1
10
4.05826131824659
20
-0.0779661237111497
30
0
41
1
10
4.05826131824659
20
-0.0770631630672369
30
0
41
1
10
4.05826131824662
20
-0.0761605875185296
30
0
41
1
10
4.05826131824662
20
-0.0752585094610367
30
0
41
1
10
4.05826131824662
20
-0.0743991289291159
30
0
41
1
10
4.05826131824662
20
-0.073582479884692
30
0
41
1
10
4.05826131824662
20
-0.0728085706599302
30
0
41
1
10
4.05826131824662
20
-0.072077384638277
30
0
41
1
10
4.05826131824662
20
-0.0713873683777706
30
0
41
1
10
4.05826131824665
20
-0.0706996933679136
30
0
41
1
10
4.05826131824665
20
-0.0698756041106208
30
0
41
1
10
4.05826131824665
20
-0.0683005681720203
30
0
41
1
10
4.05826131824665
20
-0.0664786004045652
30
0
41
1
10
4.05826131824665
20
-0.0647429366879351
30
0
41
1
10
4.05826131824665
20
-0.0630272053639374
30
0
41
1
10
4.05826131824668
20
-0.0614045045393539
30
0
41
1
10
4.05826131824665
20
-0.060458449680425
30
0
41
1
10
4.05826131824665
20
-0.0597040896632564
30
0
41
1
10
4.05826131824665
20
-0.0588280875379041
30
0
41
1
10
4.05826131824665
20
-0.0578962170593513
30
0
41
1
10
4.05826131824665
20
-0.0569610576374373
30
0
41
1
10
4.05826131824665
20
-0.056024093592896
30
0
41
1
10
4.05826131824665
20
-0.0552478891871147
30
0
41
1
10
4.05826131824665
20
-0.0544973443511481
30
0
41
1
10
4.05826131824662
20
-0.0537431417694449
30
0
41
1
10
4.05826131824662
20
-0.0529957631086972
30
0
41
1
10
4.05826131824659
20
-0.0522553368570584
30
0
41
1
10
4.05826131824659
20
-0.0513683490604535
30
0
41
1
10
4.05826131824657
20
-0.0504646341362331
30
0
41
1
10
4.05826131824657
20
-0.0495840676857426
30
0
41
1
10
4.05826131824654
20
-0.0487291149602811
30
0
41
1
10
4.05826131824654
20
-0.0480552536378411
30
0
41
1
10
4.05826131824654
20
-0.0473988400382268
30
0
41
1
10
4.05826131824654
20
-0.0467596132144195
30
0
41
1
10
4.05826131824651
20
-0.0461309872810602
30
0
41
1
10
4.05826131824651
20
-0.0455095095666991
30
0
41
1
10
4.05826131824651
20
-0.044749667485604
30
0
41
1
10
4.05826131824651
20
-0.0440046095800426
30
0
41
1
10
4.05826131824651
20
-0.0433349174967361
30
0
41
1
10
4.05826131824651
20
-0.0427338979242506
30
0
41
1
10
4.05826131824651
20
-0.0421991568977376
30
0
41
1
10
4.05826131824651
20
-0.0417611476929096
30
0
41
1
10
4.05826131824651
20
-0.0414341419869118
30
0
41
1
10
4.05826131824651
20
-0.0411093771230924
30
0
41
1
10
4.05826131824651
20
-0.0408271676130028
30
0
41
1
10
4.05826131824651
20
-0.0405866718595291
30
0
41
1
10
4.05826131824651
20
-0.0403558356397014
30
0
41
1
10
4.05826131824651
20
-0.0401180682164295
30
0
41
1
10
4.05826131824651
20
-0.0399208536327933
30
0
41
1
10
4.05826131824651
20
-0.0397245608314449
30
0
41
1
10
4.05826131824651
20
-0.0395055533231812
30
0
41
1
10
4.05826131824651
20
-0.0392642182021348
30
0
41
1
10
4.05826131824651
20
-0.0389389925679495
30
0
41
1
10
4.05826131824654
20
-0.0385319426342789
30
0
41
1
10
4.05826131824654
20
-0.0380456988427795
30
0
41
1
10
4.05826131824654
20
-0.0373855812644024
30
0
41
1
10
4.05826131824654
20
-0.036560255637994
30
0
41
1
10
4.05826131824654
20
-0.0353984613173566
30
0
41
1
10
4.05826131824654
20
-0.0341548869923258
30
0
41
1
10
4.05826131824654
20
-0.032999969031323
30
0
41
1
10
4.05826131824654
20
-0.0320290338613063
30
0
41
1
10
4.05826131824657
20
-0.0311760272747108
30
0
41
1
10
4.05826131824657
20
-0.0306470719328047
30
0
41
1
10
4.05826131824657
20
-0.0302262527073367
30
0
41
1
10
4.05826131824657
20
-0.0297562237621776
30
0
41
1
10
4.05826131824657
20
-0.0292365437435649
30
0
41
1
10
4.05826131824657
20
-0.0287197248389361
30
0
41
1
10
4.05826131824657
20
-0.0282054376538667
30
0
41
1
10
4.05826131824657
20
-0.0276933769599168
30
0
41
1
10
4.05826131824657
20
-0.0271832619131942
30
0
41
1
10
4.05826131824657
20
-0.0265917517107823
30
0
41
1
10
4.05826131824657
20
-0.0259194912710257
30
0
41
1
10
4.05826131824657
20
-0.0251669741250566
30
0
41
1
10
4.05826131824659
20
-0.0243344544511785
30
0
41
1
10
4.05826131824659
20
-0.0234218938102231
30
0
41
1
10
4.05826131824659
20
-0.0225108325280701
30
0
41
1
10
4.05826131824659
20
-0.0216006867462966
30
0
41
1
10
4.05826131824659
20
-0.0206910014161963
30
0
41
1
10
4.05826131824659
20
-0.0195995548231167
30
0
41
1
10
4.05826131824659
20
-0.0183260512376933
30
0
41
1
10
4.05826131824659
20
-0.0168698188007568
30
0
41
1
10
4.05826131824659
20
-0.0152298841578045
30
0
41
1
10
4.05826131824659
20
-0.0128073420672763
30
0
41
1
10
4.05826131824659
20
-0.0103111954506119
30
0
41
1
10
4.05826131824659
20
-0.0076458253968212
30
0
41
1
10
4.05826131824659
20
-0.0034072372648666
30
0
41
1
10
4.05826131824659
20
0.0050310020662891
30
0
41
1
10
4.05826131824659
20
0.0172128144419901
30
0
41
1
10
4.05826131824659
20
0.0327938866215618
30
0
41
1
10
4.05826131824657
20
0.0515542826190938
30
0
41
1
10
4.05826131824659
20
0.072075745684316
30
0
41
1
10
4.05826131824657
20
0.0917756648626948
30
0
41
1
10
4.05826131824657
20
0.110095395530067
30
0
41
1
10
4.05826131824657
20
0.127096635616482
30
0
41
1
10
4.05826131824659
20
0.142771264025725
30
0
41
1
10
4.05826131824659
20
0.157157189381962
30
0
41
1
10
4.05826131824657
20
0.170179403623877
30
0
41
1
10
4.05826131824654
20
0.18157055108216
30
0
41
1
10
4.05826131824657
20
0.191490513548843
30
0
41
1
10
4.05826131824657
20
0.200184183813491
30
0
41
1
10
4.05826131824659
20
0.206940105927572
30
0
41
1
10
4.05826131824659
20
0.21139436648491
30
0
41
1
10
4.05826131824659
20
0.214275389783182
30
0
41
1
10
4.05826131824659
20
0.215935669217515
30
0
41
1
10
4.05826131824659
20
0.21650688703798
30
0
0
SPLINE
5
CC
100
AcDbEntity
8
1
62
256
6
ByLayer
370
18
48
1
60
0
100
AcDbSpline
70
4
71
3
72
96
73
92
40
0
40
0
40
0
40
0
40
0.124999999999998
40
0.124999999999998
40
0.187499999999996
40
0.187499999999996
40
0.218749999999995
40
0.218749999999995
40
0.249999999999995
40
0.249999999999995
40
0.312499999999991
40
0.312499999999991
40
0.343749999999989
40
0.343749999999989
40
0.374999999999987
40
0.374999999999987
40
0.390624999999986
40
0.390624999999986
40
0.406249999999985
40
0.406249999999985
40
0.437499999999981
40
0.437499999999981
40
0.453124999999979
40
0.453124999999979
40
0.468749999999977
40
0.468749999999977
40
0.484374999999975
40
0.484374999999975
40
0.492187499999974
40
0.492187499999974
40
0.499999999999973
40
0.499999999999973
40
0.503906249999973
40
0.503906249999973
40
0.507812499999973
40
0.507812499999973
40
0.515624999999973
40
0.515624999999973
40
0.519531249999973
40
0.519531249999973
40
0.523437499999973
40
0.523437499999973
40
0.531249999999972
40
0.531249999999972
40
0.546874999999972
40
0.546874999999972
40
0.554687499999972
40
0.554687499999972
40
0.562499999999973
40
0.562499999999973
40
0.570312499999973
40
0.570312499999973
40
0.578124999999974
40
0.578124999999974
40
0.593749999999975
40
0.593749999999975
40
0.624999999999977
40
0.624999999999977
40
0.656249999999978
40
0.656249999999978
40
0.68749999999998
40
0.68749999999998
40
0.718749999999982
40
0.718749999999982
40
0.749999999999984
40
0.749999999999984
40
0.757812499999984
40
0.757812499999984
40
0.765624999999985
40
0.765624999999985
40
0.773437499999985
40
0.773437499999985
40
0.777343749999985
40
0.777343749999985
40
0.781249999999985
40
0.781249999999985
40
0.789062499999986
40
0.789062499999986
40
0.796874999999986
40
0.796874999999986
40
0.812499999999987
40
0.812499999999987
40
0.843749999999989
40
0.843749999999989
40
0.874999999999991
40
0.874999999999991
40
0.906249999999993
40
0.906249999999993
40
0.937499999999994
40
0.937499999999994
40
1
40
1
40
1
40
1
41
1
10
4.05826131824696
20
-0.644813062156743
30
0
41
1
10
3.8713938634632
20
-0.645601477268656
30
0
41
1
10
3.68691308797963
20
-0.640387499494608
30
0
41
1
10
3.41287597608695
20
-0.617105662953747
30
0
41
1
10
3.32197185453762
20
-0.606772987438717
30
0
41
1
10
3.18612905026134
20
-0.58653645828204
30
0
41
1
10
3.14093003981125
20
-0.57899658314949
30
0
41
1
10
3.05115669954742
20
-0.562262950518004
30
0
41
1
10
3.00652468031242
20
-0.553061823822787
30
0
41
1
10
2.87339518511428
20
-0.522726014516394
30
0
41
1
10
2.78565418679327
20
-0.498898765498041
30
0
41
1
10
2.65569126736457
20
-0.456364864915543
30
0
41
1
10
2.61264682900654
20
-0.441047789558496
30
0
41
1
10
2.52717740384293
20
-0.407724584018467
30
0
41
1
10
2.48475078366329
20
-0.389725163516687
30
0
41
1
10
2.42167367402064
20
-0.360203839075979
30
0
41
1
10
2.40074240684984
20
-0.349940447629138
30
0
41
1
10
2.35909782501665
20
-0.328431637109844
30
0
41
1
10
2.3383499434151
20
-0.317165471631199
30
0
41
1
10
2.27699080370306
20
-0.281897174683792
30
0
41
1
10
2.23711311005374
20
-0.256429360918588
30
0
41
1
10
2.17966438127004
20
-0.213774248131472
30
0
41
1
10
2.16093397220715
20
-0.198805379224808
30
0
41
1
10
2.12507452552441
20
-0.167338269883658
30
0
41
1
10
2.10788010538232
20
-0.150804680107711
30
0
41
1
10
2.07553669948183
20
-0.115528539058005
30
0
41
1
10
2.06036703256999
20
-0.0968076579183048
30
0
41
1
10
2.04001204799161
20
-0.0661569641613653
30
0
41
1
10
2.03367570660245
20
-0.0555503296947677
30
0
41
1
10
2.0223580378094
20
-0.0337799675009762
30
0
41
1
10
2.01734104462042
20
-0.0225682495078843
30
0
41
1
10
2.01103465880632
20
-0.0051317562570716
30
0
41
1
10
2.00913839234639
20
0.0007888603456365
30
0
41
1
10
2.0058635399551
20
0.0126478033480169
30
0
41
1
10
2.00447527033302
20
0.0186106630935967
30
0
41
1
10
2.00110640153898
20
0.036606230472529
30
0
41
1
10
1.99991834425788
20
0.0487454486139143
30
0
41
1
10
1.99996896379906
20
0.0672021376319663
30
0
41
1
10
2.00029809532299
20
0.0734034633166232
30
0
41
1
10
2.00156559766847
20
0.0855637253889938
30
0
41
1
10
2.00250242084778
20
0.0915639444594376
30
0
41
1
10
2.00619040214281
20
0.109334439465215
30
0
41
1
10
2.00982199291028
20
0.120884493868999
30
0
41
1
10
2.02399279495009
20
0.154619870452677
30
0
41
1
10
2.03713198527368
20
0.174567886361302
30
0
41
1
10
2.06048178223716
20
0.202024054740946
30
0
41
1
10
2.06880990541993
20
0.210658628827474
30
0
41
1
10
2.08613266362087
20
0.226935110242948
30
0
41
1
10
2.09516018018491
20
0.234612657455301
30
0
41
1
10
2.11380411265745
20
0.249233167823519
30
0
41
1
10
2.12342126916545
20
0.256175160281884
30
0
41
1
10
2.14314597925176
20
0.269452668377568
30
0
41
1
10
2.15328098734921
20
0.275803238186285
30
0
41
1
10
2.18410519317595
20
0.293965730454005
30
0
41
1
10
2.20513641695152
20
0.304871405956135
30
0
41
1
10
2.2692536154193
20
0.335092646403069
30
0
41
1
10
2.31334463042361
20
0.351960668179913
30
0
41
1
10
2.40317425277141
20
0.381878944070252
30
0
41
1
10
2.44893316477535
20
0.394875517721857
30
0
41
1
10
2.54165530018449
20
0.418208128290729
30
0
41
1
10
2.58844973895543
20
0.428484790931492
30
0
41
1
10
2.68245628565813
20
0.44698783339021
30
0
41
1
10
2.72971532191684
20
0.455221035434335
30
0
41
1
10
2.82466071637282
20
0.470111813473949
30
0
41
1
10
2.87236953448362
20
0.476708048505714
30
0
41
1
10
2.93215490899735
20
0.484382334551611
30
0
41
1
10
2.94411508026059
20
0.485906455740434
30
0
41
1
10
2.96804539165129
20
0.488829452023481
30
0
41
1
10
2.98001312720191
20
0.490257631142754
30
0
41
1
10
3.00413266719042
20
0.491520948941712
30
0
41
1
10
3.01629113344941
20
0.491303244090972
30
0
41
1
10
3.0346927757839
20
0.489556891175425
30
0
41
1
10
3.04086159496722
20
0.488743372218352
30
0
41
1
10
3.05304013752937
20
0.486882805369674
30
0
41
1
10
3.05908516754863
20
0.485839122225542
30
0
41
1
10
3.07719514602286
20
0.482631601260948
30
0
41
1
10
3.0892416687027
20
0.480408308622515
30
0
41
1
10
3.11336935127403
20
0.476013382140877
30
0
41
1
10
3.1254409759801
20
0.473818152987235
30
0
41
1
10
3.16166707910833
20
0.467210311255599
30
0
41
1
10
3.18583057072266
20
0.462769921527638
30
0
41
1
10
3.25832438819532
20
0.449257148043614
30
0
41
1
10
3.30665996266563
20
0.439996312886393
30
0
41
1
10
3.40337651630298
20
0.421071992399703
30
0
41
1
10
3.45183691811164
20
0.411527619216457
30
0
41
1
10
3.54798980380823
20
0.390300944312344
30
0
41
1
10
3.59562217415359
20
0.378523266241785
30
0
41
1
10
3.69003333495337
20
0.352485060659063
30
0
41
1
10
3.73682643748791
20
0.338255077320127
30
0
41
1
10
3.87614355500631
20
0.291982034255255
30
0
41
1
10
3.96759122567144
20
0.256302987197842
30
0
41
1
10
4.05826131824696
20
0.216506887039856
30
0
0
LINE
5
7D
100
AcDbEntity
8
80
62
256
6
ByLayer
370
18
48
1
60
0
100
AcDbLine
10
0
20
0
30
0
11
-5
21
0
31
0
39
0
210
0
220
0
230
1
0
LINE
5
7E
100
AcDbEntity
8
4
62
256
6
ByLayer
370
18
48
0.05
60
0
100
AcDbLine
10
-5
20
0
30
0
11
23
21
0
31
0
39
0
210
0
220
0
230
1
0
LINE
5
80
100
AcDbEntity
8
81
62
256
6
ByLayer
370
18
48
1
60
0
100
AcDbLine
10
18
20
0
30
0
11
23
21
0
31
0
39
0
210
0
220
0
230
1
0
LINE
5
81
100
AcDbEntity
8
SK4
62
256
6
ByLayer
370
18
48
0.05
60
0
100
AcDbLine
10
-25
20
0
30
0
11
23
21
0
31
0
39
0
210
0
220
0
230
1
0
LINE
5
83
100
AcDbEntity
8
1
62
256
6
ByLayer
370
18
48
1
60
0
100
AcDbLine
10
0
20
0.65
30
0
11
0
21
-0.65
31
0
39
0
210
0
220
0
230
1
0
LINE
5
84
100
AcDbEntity
8
1
62
256
6
ByLayer
370
18
48
1
60
0
100
AcDbLine
10
17.648497
20
-0.65
30
0
11
17.648497
21
-0.372696
31
0
39
0
210
0
220
0
230
1
0
LINE
5
85
100
AcDbEntity
8
1
62
256
6
ByLayer
370
18
48
1
60
0
100
AcDbLine
10
17.648497
20
0.65
30
0
11
17.648497
21
0.6291
31
0
39
0
210
0
220
0
230
1
0
LINE
5
86
100
AcDbEntity
8
1
62
256
6
ByLayer
370
18
48
1
60
0
100
AcDbLine
10
0.1
20
-0.643419
30
0
11
0.1
21
0.643419
31
0
39
0
210
0
220
0
230
1
0
LINE
5
87
100
AcDbEntity
8
SK1
62
256
6
ByLayer
370
18
48
1
60
0
100
AcDbLine
10
-20
20
-0.55
30
0
11
-20
21
0.55
31
0
39
0
210
0
220
0
230
1
0
LINE
5
89
100
AcDbEntity
8
SK1
62
256
6
ByLayer
370
18
48
1
60
0
100
AcDbLine
10
0
20
0.65
30
0
11
0
21
-0.65
31
0
39
0
210
0
220
0
230
1
0
LINE
5
8A
100
AcDbEntity
8
SK1
62
256
6
ByLayer
370
18
48
1
60
0
100
AcDbLine
10
-19.9
20
-0.65
30
0
11
-19.9
21
0.65
31
0
39
0
210
0
220
0
230
1
0
LINE
5
8B
100
AcDbEntity
8
1
62
256
6
ByLayer
370
18
48
1
60
0
100
AcDbLine
10
18
20
0
30
0
11
17.648497
21
0.65
31
0
39
0
210
0
220
0
230
1
0
LINE
5
8C
100
AcDbEntity
8
1
62
256
6
ByLayer
370
18
48
1
60
0
100
AcDbLine
10
17.648497
20
-0.65
30
0
11
18
21
0
31
0
39
0
210
0
220
0
230
1
0
LINE
5
8D
100
AcDbEntity
8
1
62
256
6
ByLayer
370
18
48
1
60
0
100
AcDbLine
10
0.1
20
0.643419
30
0
11
0
21
0.65
31
0
39
0
210
0
220
0
230
1
0
LINE
5
8E
100
AcDbEntity
8
1
62
256
6
ByLayer
370
18
48
1
60
0
100
AcDbLine
10
0
20
-0.65
30
0
11
0.1
21
-0.643419
31
0
39
0
210
0
220
0
230
1
0
LINE
5
8F
100
AcDbEntity
8
1
62
256
6
ByLayer
370
18
48
1
60
0
100
AcDbLine
10
0.1
20
-0.643419
30
0
11
4.065754
21
-0.644906
31
0
39
0
210
0
220
0
230
1
0
LINE
5
90
100
AcDbEntity
8
1
62
256
6
ByLayer
370
18
48
1
60
0
100
AcDbLine
10
6.299719
20
-0.645744
30
0
11
7.723252
21
-0.646278
31
0
39
0
210
0
220
0
230
1
0
LINE
5
91
100
AcDbEntity
8
1
62
256
6
ByLayer
370
18
48
1
60
0
100
AcDbLine
10
9.984283
20
-0.647126
30
0
11
11.407034
21
-0.647659
31
0
39
0
210
0
220
0
230
1
0
LINE
5
92
100
AcDbEntity
8
1
62
256
6
ByLayer
370
18
48
1
60
0
100
AcDbLine
10
13.669101
20
-0.648508
30
0
11
15.090794
21
-0.649041
31
0
39
0
210
0
220
0
230
1
0
LINE
5
93
100
AcDbEntity
8
1
62
256
6
ByLayer
370
18
48
1
60
0
100
AcDbLine
10
17.351159
20
-0.649888
30
0
11
17.648497
21
-0.65
31
0
39
0
210
0
220
0
230
1
0
LINE
5
94
100
AcDbEntity
8
1
62
256
6
ByLayer
370
18
48
1
60
0
100
AcDbLine
10
17.648497
20
0.65
30
0
11
17.351159
21
0.649888
31
0
39
0
210
0
220
0
230
1
0
LINE
5
95
100
AcDbEntity
8
1
62
256
6
ByLayer
370
18
48
1
60
0
100
AcDbLine
10
15.090794
20
0.649041
30
0
11
13.669101
21
0.648508
31
0
39
0
210
0
220
0
230
1
0
LINE
5
96
100
AcDbEntity
8
1
62
256
6
ByLayer
370
18
48
1
60
0
100
AcDbLine
10
11.407034
20
0.647659
30
0
11
9.984283
21
0.647126
31
0
39
0
210
0
220
0
230
1
0
LINE
5
97
100
AcDbEntity
8
1
62
256
6
ByLayer
370
18
48
1
60
0
100
AcDbLine
10
7.723252
20
0.646278
30
0
11
6.299719
21
0.645744
31
0
39
0
210
0
220
0
230
1
0
LINE
5
98
100
AcDbEntity
8
1
62
256
6
ByLayer
370
18
48
1
60
0
100
AcDbLine
10
4.025912
20
0.644892
30
0
11
0.1
21
0.643419
31
0
39
0
210
0
220
0
230
1
0
LINE
5
99
100
AcDbEntity
8
SK1
62
256
6
ByLayer
370
18
48
1
60
0
100
AcDbLine
10
-20
20
-0.55
30
0
11
-19.9
21
-0.65
31
0
39
0
210
0
220
0
230
1
0
LINE
5
9A
100
AcDbEntity
8
SK1
62
256
6
ByLayer
370
18
48
1
60
0
100
AcDbLine
10
-19.9
20
0.65
30
0
11
-20
21
0.55
31
0
39
0
210
0
220
0
230
1
0
LINE
5
9B
100
AcDbEntity
8
SK1
62
256
6
ByLayer
370
18
48
1
60
0
100
AcDbLine
10
-19.9
20
-0.65
30
0
11
0
21
-0.65
31
0
39
0
210
0
220
0
230
1
0
LINE
5
9C
100
AcDbEntity
8
SK1
62
256
6
ByLayer
370
18
48
1
60
0
100
AcDbLine
10
0
20
0.65
30
0
11
-19.9
21
0.65
31
0
39
0
210
0
220
0
230
1
0
LINE
5
9D
100
AcDbEntity
8
SK2
62
256
6
ByLayer
370
13
48
1
60
0
100
AcDbLine
10
-26.5
20
26.682855
30
0
11
-26.5
21
-8.15
31
0
39
0
210
0
220
0
230
1
0
LINE
5
9F
100
AcDbEntity
8
SK2
62
256
6
ByLayer
370
13
48
1
60
0
100
AcDbLine
10
-21.5875
20
0.65
30
0
11
-28.5
21
0.65
31
0
39
0
210
0
220
0
230
1
0
LINE
5
A0
100
AcDbEntity
8
SK2
62
256
6
ByLayer
370
13
48
1
60
0
100
AcDbLine
10
-21.5875
20
-0.65
30
0
11
-28.5
21
-0.65
31
0
39
0
210
0
220
0
230
1
0
LINE
5
A1
100
AcDbEntity
8
1
62
256
6
ByLayer
370
18
48
1
60
1
100
AcDbLine
10
-26.5
20
0.65
30
0
11
-26.960784
21
4.149998
31
0
39
0
210
0
220
0
230
1
0
LINE
5
A2
100
AcDbEntity
8
1
62
256
6
ByLayer
370
18
48
1
60
1
100
AcDbLine
10
-26.960784
20
4.149998
30
0
11
-26.039216
21
4.150002
31
0
39
0
210
0
220
0
230
1
0
LINE
5
A3
100
AcDbEntity
8
1
62
256
6
ByLayer
370
18
48
1
60
1
100
AcDbLine
10
-26.039216
20
4.150002
30
0
11
-26.5
21
0.65
31
0
39
0
210
0
220
0
230
1
0
LINE
5
A4
100
AcDbEntity
8
1
62
256
6
ByLayer
370
18
48
1
60
1
100
AcDbLine
10
-26.5
20
-0.65
30
0
11
-26.039216
21
-4.149998
31
0
39
0
210
0
220
0
230
1
0
LINE
5
A5
100
AcDbEntity
8
1
62
256
6
ByLayer
370
18
48
1
60
1
100
AcDbLine
10
-26.039216
20
-4.149998
30
0
11
-26.960784
21
-4.150002
31
0
39
0
210
0
220
0
230
1
0
LINE
5
A6
100
AcDbEntity
8
1
62
256
6
ByLayer
370
18
48
1
60
1
100
AcDbLine
10
-26.960784
20
-4.150002
30
0
11
-26.5
21
-0.65
31
0
39
0
210
0
220
0
230
1
0
LINE
5
A7
100
AcDbEntity
8
2
62
256
6
ByLayer
370
13
48
1
60
0
100
AcDbLine
10
27.148497
20
26.682855
30
0
11
27.148497
21
-8.15
31
0
39
0
210
0
220
0
230
1
0
LINE
5
A9
100
AcDbEntity
8
2
62
256
6
ByLayer
370
13
48
1
60
0
100
AcDbLine
10
19.235997
20
0.65
30
0
11
29.148497
21
0.65
31
0
39
0
210
0
220
0
230
1
0
LINE
5
AA
100
AcDbEntity
8
2
62
256
6
ByLayer
370
13
48
1
60
0
100
AcDbLine
10
19.235997
20
-0.65
30
0
11
29.148497
21
-0.65
31
0
39
0
210
0
220
0
230
1
0
LINE
5
AB
100
AcDbEntity
8
1
62
256
6
ByLayer
370
18
48
1
60
1
100
AcDbLine
10
27.148497
20
0.65
30
0
11
26.687713
21
4.149998
31
0
39
0
210
0
220
0
230
1
0
LINE
5
AC
100
AcDbEntity
8
1
62
256
6
ByLayer
370
18
48
1
60
1
100
AcDbLine
10
26.687713
20
4.149998
30
0
11
27.60928
21
4.150002
31
0
39
0
210
0
220
0
230
1
0
LINE
5
AD
100
AcDbEntity
8
1
62
256
6
ByLayer
370
18
48
1
60
1
100
AcDbLine
10
27.60928
20
4.150002
30
0
11
27.148497
21
0.65
31
0
39
0
210
0
220
0
230
1
0
LINE
5
AE
100
AcDbEntity
8
1
62
256
6
ByLayer
370
18
48
1
60
1
100
AcDbLine
10
27.148497
20
-0.65
30
0
11
27.60928
21
-4.149998
31
0
39
0
210
0
220
0
230
1
0
LINE
5
AF
100
AcDbEntity
8
1
62
256
6
ByLayer
370
18
48
1
60
1
100
AcDbLine
10
27.60928
20
-4.149998
30
0
11
26.687713
21
-4.150002
31
0
39
0
210
0
220
0
230
1
0
LINE
5
B0
100
AcDbEntity
8
1
62
256
6
ByLayer
370
18
48
1
60
1
100
AcDbLine
10
26.687713
20
-4.150002
30
0
11
27.148497
21
-0.65
31
0
39
0
210
0
220
0
230
1
0
LINE
5
B1
100
AcDbEntity
8
2
62
256
6
ByLayer
370
13
48
1
60
0
100
AcDbLine
10
18.755136
20
-1.396397
30
0
11
29.416232
21
-21.110889
31
0
39
0
210
0
220
0
230
1
0
LINE
5
B2
100
AcDbEntity
8
2
62
256
6
ByLayer
370
13
48
1
60
0
100
AcDbLine
10
18.755136
20
1.396397
30
0
11
29.416232
21
21.110889
31
0
39
0
210
0
220
0
230
1
0
LINE
5
B3
100
AcDbEntity
8
1
62
256
6
ByLayer
370
18
48
1
60
1
100
AcDbLine
10
28.464879
20
-19.351649
30
0
11
31.239971
21
-17.169637
31
0
39
0
210
0
220
0
230
1
0
LINE
5
B4
100
AcDbEntity
8
1
62
256
6
ByLayer
370
18
48
1
60
1
100
AcDbLine
10
31.239971
20
-17.169637
30
0
11
31.710161
21
-17.962233
31
0
39
0
210
0
220
0
230
1
0
LINE
5
B5
100
AcDbEntity
8
1
62
256
6
ByLayer
370
18
48
1
60
1
100
AcDbLine
10
31.710161
20
-17.962233
30
0
11
28.464879
21
-19.351649
31
0
39
0
210
0
220
0
230
1
0
LINE
5
B6
100
AcDbEntity
8
1
62
256
6
ByLayer
370
18
48
1
60
1
100
AcDbLine
10
28.464879
20
19.351649
30
0
11
31.710158
21
17.962234
31
0
39
0
210
0
220
0
230
1
0
LINE
5
B7
100
AcDbEntity
8
1
62
256
6
ByLayer
370
18
48
1
60
1
100
AcDbLine
10
31.710158
20
17.962234
30
0
11
31.239974
21
17.169635
31
0
39
0
210
0
220
0
230
1
0
LINE
5
B8
100
AcDbEntity
8
1
62
256
6
ByLayer
370
18
48
1
60
1
100
AcDbLine
10
31.239974
20
17.169635
30
0
11
28.464879
21
19.351649
31
0
39
0
210
0
220
0
230
1
0
LINE
5
D1
100
AcDbEntity
8
1
62
256
6
ByLayer
370
18
48
1
60
1
100
AcDbLine
10
-26.5
20
0.65
30
0
11
-26.960784
21
4.149998
31
0
39
0
210
0
220
0
230
1
0
LINE
5
D2
100
AcDbEntity
8
1
62
256
6
ByLayer
370
18
48
1
60
1
100
AcDbLine
10
-26.960784
20
4.149998
30
0
11
-26.039216
21
4.150002
31
0
39
0
210
0
220
0
230
1
0
LINE
5
D3
100
AcDbEntity
8
1
62
256
6
ByLayer
370
18
48
1
60
1
100
AcDbLine
10
-26.039216
20
4.150002
30
0
11
-26.5
21
0.65
31
0
39
0
210
0
220
0
230
1
0
LINE
5
D5
100
AcDbEntity
8
1
62
256
6
ByLayer
370
18
48
1
60
1
100
AcDbLine
10
-26.5
20
-0.65
30
0
11
-26.039216
21
-4.149998
31
0
39
0
210
0
220
0
230
1
0
LINE
5
D6
100
AcDbEntity
8
1
62
256
6
ByLayer
370
18
48
1
60
1
100
AcDbLine
10
-26.039216
20
-4.149998
30
0
11
-26.960784
21
-4.150002
31
0
39
0
210
0
220
0
230
1
0
LINE
5
D7
100
AcDbEntity
8
1
62
256
6
ByLayer
370
18
48
1
60
1
100
AcDbLine
10
-26.960784
20
-4.150002
30
0
11
-26.5
21
-0.65
31
0
39
0
210
0
220
0
230
1
0
LINE
5
DB
100
AcDbEntity
8
1
62
256
6
ByLayer
370
18
48
1
60
1
100
AcDbLine
10
27.148497
20
0.65
30
0
11
26.687713
21
4.149998
31
0
39
0
210
0
220
0
230
1
0
LINE
5
DC
100
AcDbEntity
8
1
62
256
6
ByLayer
370
18
48
1
60
1
100
AcDbLine
10
26.687713
20
4.149998
30
0
11
27.60928
21
4.150002
31
0
39
0
210
0
220
0
230
1
0
LINE
5
DD
100
AcDbEntity
8
1
62
256
6
ByLayer
370
18
48
1
60
1
100
AcDbLine
10
27.60928
20
4.150002
30
0
11
27.148497
21
0.65
31
0
39
0
210
0
220
0
230
1
0
LINE
5
DF
100
AcDbEntity
8
1
62
256
6
ByLayer
370
18
48
1
60
1
100
AcDbLine
10
27.148497
20
-0.65
30
0
11
27.60928
21
-4.149998
31
0
39
0
210
0
220
0
230
1
0
LINE
5
E0
100
AcDbEntity
8
1
62
256
6
ByLayer
370
18
48
1
60
1
100
AcDbLine
10
27.60928
20
-4.149998
30
0
11
26.687713
21
-4.150002
31
0
39
0
210
0
220
0
230
1
0
LINE
5
E1
100
AcDbEntity
8
1
62
256
6
ByLayer
370
18
48
1
60
1
100
AcDbLine
10
26.687713
20
-4.150002
30
0
11
27.148497
21
-0.65
31
0
39
0
210
0
220
0
230
1
0
LINE
5
E4
100
AcDbEntity
8
1
62
256
6
ByLayer
370
18
48
1
60
1
100
AcDbLine
10
28.464879
20
-19.351649
30
0
11
31.239971
21
-17.169637
31
0
39
0
210
0
220
0
230
1
0
LINE
5
E5
100
AcDbEntity
8
1
62
256
6
ByLayer
370
18
48
1
60
1
100
AcDbLine
10
31.239971
20
-17.169637
30
0
11
31.710161
21
-17.962233
31
0
39
0
210
0
220
0
230
1
0
LINE
5
E6
100
AcDbEntity
8
1
62
256
6
ByLayer
370
18
48
1
60
1
100
AcDbLine
10
31.710161
20
-17.962233
30
0
11
28.464879
21
-19.351649
31
0
39
0
210
0
220
0
230
1
0
LINE
5
E8
100
AcDbEntity
8
1
62
256
6
ByLayer
370
18
48
1
60
1
100
AcDbLine
10
28.464879
20
19.351649
30
0
11
31.710158
21
17.962234
31
0
39
0
210
0
220
0
230
1
0
LINE
5
E9
100
AcDbEntity
8
1
62
256
6
ByLayer
370
18
48
1
60
1
100
AcDbLine
10
31.710158
20
17.962234
30
0
11
31.239974
21
17.169635
31
0
39
0
210
0
220
0
230
1
0
LINE
5
EA
100
AcDbEntity
8
1
62
256
6
ByLayer
370
18
48
1
60
1
100
AcDbLine
10
31.239974
20
17.169635
30
0
11
28.464879
21
19.351649
31
0
39
0
210
0
220
0
230
1
0
MTEXT
5
CD
100
AcDbEntity
8
SK2
62
256
6
ByLayer
370
18
48
1
60
0
100
AcDbMText
10
-27.841114
20
12.308437
30
0
210
0
220
0
230
1
1
%%c
40
3
41
0
44
1.084337
50
90
71
7
72
5
7
iso_b_vert
0
MTEXT
5
D0
100
AcDbEntity
8
SK2
62
256
6
ByLayer
370
18
48
1
60
0
100
AcDbMText
10
-27.841114
20
18.285
30
0
210
0
220
0
230
1
1
\W0.6864;1.300
40
3
41
0
44
1.084337
50
90
71
7
72
5
7
iso_b_vert
0
MTEXT
5
D9
100
AcDbEntity
8
2
62
256
6
ByLayer
370
18
48
1
60
0
100
AcDbMText
10
25.807382
20
12.308437
30
0
210
0
220
0
230
1
1
%%c
40
3
41
0
44
1.084337
50
90
71
7
72
5
7
iso_b_vert
0
MTEXT
5
DA
100
AcDbEntity
8
2
62
256
6
ByLayer
370
18
48
1
60
0
100
AcDbMText
10
25.807382
20
18.285
30
0
210
0
220
0
230
1
1
\W0.6864;1.300
40
3
41
0
44
1.084337
50
90
71
7
72
5
7
iso_b_vert
0
MTEXT
5
E3
100
AcDbEntity
8
2
62
256
6
ByLayer
370
18
48
1
60
0
100
AcDbMText
10
37.092229
20
-2.114886
30
0
210
0
220
0
230
1
1
\W0.6008;118%%d
40
3
41
0
44
1.084337
50
0
71
7
72
5
7
iso_b_vert
0
MTEXT
5
EC
100
AcDbEntity
8
SK6
62
256
6
ByLayer
370
18
48
1
60
0
100
AcDbMText
10
-7.507199
20
-67.114886
30
0
210
0
220
0
230
1
1
\W0.7280;R0031.3
40
3
41
0
44
1.084337
50
0
71
7
72
5
7
iso_b_vert
0
HATCH
5
D4
100
AcDbEntity
8
SK2
62
256
6
ByLayer
370
13
48
1
60
0
100
AcDbHatch
10
0
20
0
30
0
210
0
220
0
230
1
2
ANSI31
70
0
71
0
91
1
92
5
93
3
72
1
10
-26.5
20
0.649999999999977
11
-26.9607837415528
21
4.14999830744679
72
1
10
-26.9607837415528
20
4.14999830744679
11
-26.0392162584472
21
4.15000169255316
72
1
10
-26.0392162584472
20
4.15000169255316
11
-26.5
21
0.649999999999977
97
0
75
0
76
1
52
0
41
0.0062
77
0
78
1
53
45
43
0
44
0
45
-0.0139193969876572
46
0.0139193969876572
79
0
47
0
98
1
10
0
20
0
0
HATCH
5
D8
100
AcDbEntity
8
SK2
62
256
6
ByLayer
370
13
48
1
60
0
100
AcDbHatch
10
0
20
0
30
0
210
0
220
0
230
1
2
ANSI31
70
0
71
0
91
1
92
5
93
3
72
1
10
-26.5
20
-0.650000000000006
11
-26.0392162584472
21
-4.14999830744682
72
1
10
-26.0392162584472
20
-4.14999830744682
11
-26.9607837415528
21
-4.15000169255319
72
1
10
-26.9607837415528
20
-4.15000169255319
11
-26.5
21
-0.650000000000006
97
0
75
0
76
1
52
0
41
0.0062
77
0
78
1
53
45
43
0
44
0
45
-0.0139193969876572
46
0.0139193969876572
79
0
47
0
98
1
10
0
20
0
0
HATCH
5
DE
100
AcDbEntity
8
2
62
256
6
ByLayer
370
13
48
1
60
0
100
AcDbHatch
10
0
20
0
30
0
210
0
220
0
230
1
2
ANSI31
70
0
71
0
91
1
92
5
93
3
72
1
10
27.1484965378689
20
0.649999999999977
11
26.6877127963161
21
4.14999830744679
72
1
10
26.6877127963161
20
4.14999830744679
11
27.6092802794217
21
4.15000169255316
72
1
10
27.6092802794217
20
4.15000169255316
11
27.1484965378689
21
0.649999999999977
97
0
75
0
76
1
52
0
41
0.0062
77
0
78
1
53
45
43
0
44
0
45
-0.0139193969876572
46
0.0139193969876572
79
0
47
0
98
1
10
0
20
0
0
HATCH
5
E2
100
AcDbEntity
8
2
62
256
6
ByLayer
370
13
48
1
60
0
100
AcDbHatch
10
0
20
0
30
0
210
0
220
0
230
1
2
ANSI31
70
0
71
0
91
1
92
5
93
3
72
1
10
27.1484965378689
20
-0.650000000000006
11
27.6092802794217
21
-4.14999830744682
72
1
10
27.6092802794217
20
-4.14999830744682
11
26.6877127963161
21
-4.15000169255319
72
1
10
26.6877127963161
20
-4.15000169255319
11
27.1484965378689
21
-0.650000000000006
97
0
75
0
76
1
52
0
41
0.0062
77
0
78
1
53
45
43
0
44
0
45
-0.0139193969876572
46
0.0139193969876572
79
0
47
0
98
1
10
0
20
0
0
HATCH
5
E7
100
AcDbEntity
8
2
62
256
6
ByLayer
370
13
48
1
60
0
100
AcDbHatch
10
0
20
0
30
0
210
0
220
0
230
1
2
ANSI31
70
0
71
0
91
1
92
5
93
3
72
1
10
28.4648791987522
20
-19.3516485952883
11
31.2399711078383
21
-17.1696369764526
72
1
10
31.2399711078383
20
-17.1696369764526
11
31.7101613929252
21
-17.9622325364571
72
1
10
31.7101613929252
20
-17.9622325364571
11
28.4648791987522
21
-19.3516485952883
97
0
75
0
76
1
52
0
41
0.0062
77
0
78
1
53
45
43
0
44
0
45
-0.0139193969876572
46
0.0139193969876572
79
0
47
0
98
1
10
0
20
0
0
HATCH
5
EB
100
AcDbEntity
8
2
62
256
6
ByLayer
370
13
48
1
60
0
100
AcDbHatch
10
0
20
0
30
0
210
0
220
0
230
1
2
ANSI31
70
0
71
0
91
1
92
5
93
3
72
1
10
28.4648791987518
20
19.3516485952885
11
31.7101584815525
21
17.962234263552
72
1
10
31.7101584815525
20
17.962234263552
11
31.2399740192104
21
17.1696352493581
72
1
10
31.2399740192104
20
17.1696352493581
11
28.4648791987518
21
19.3516485952885
97
0
75
0
76
1
52
0
41
0.0062
77
0
78
1
53
45
43
0
44
0
45
-0.0139193969876572
46
0.0139193969876572
79
0
47
0
98
1
10
0
20
0
0
DIMENSION
5
EF
100
AcDbEntity
8
SK2
62
256
6
ByLayer
370
18
48
1
60
0
100
AcDbDimension
2
_U0
10
18
20
-51.076667
30
0
11
-1
21
-51.076667
31
0
70
32
71
1
72
1
41
1
210
0
220
0
230
1
3
Standard
100
AcDbAlignedDimension
13
-20
23
-0.65
33
0
14
18
24
0
34
0
50
0
100
AcDbRotatedDimension
1001
ACAD
1000
DSTYLE
1002
{
1070
   371
1070
    13
1070
   372
1070
    13
1070
     3
1000

1070
   170
1070
     0
1070
   144
1040
1.0
1070
   277
1070
     2
1070
   284
1070
     8
1070
   278
1070
    46
1070
   146
1040
1.166667
1070
   345
1005
16
1070
   347
1005
16
1070
   346
1005
16
1070
   344
1005
0
1070
   343
1005
0
1070
   172
1070
     1
1070
    76
1070
     0
1070
    75
1070
     0
1070
   282
1070
     0
1070
   281
1070
     0
1070
    71
1070
     0
1070
    74
1070
     0
1070
   279
1070
     0
1070
   173
1070
     1
1070
   340
1005
CE
1070
   271
1070
     2
1070
   272
1070
     3
1070
    77
1070
     1
1070
    73
1070
     1
1070
   171
1070
     3
1070
   274
1070
     4
1070
   177
1070
     2
1070
   176
1070
     2
1070
   178
1070
     2
1070
    78
1070
     8
1070
    48
1040
-0.1
1070
    41
1040
3.5
1070
   147
1040
1.5
1070
    42
1040
1.5875
1070
    44
1040
2.0
1070
   140
1040
3.0
1002
}
1001
ACAD_DSTYLE_DIM_LINETYPE
1070
   380
1005
16
1001
ACAD_DSTYLE_DIM_EXT1_LINETYPE
1070
   381
1005
16
1001
ACAD_DSTYLE_DIM_EXT2_LINETYPE
1070
   382
1005
16
0
DIMENSION
5
108
100
AcDbEntity
8
2
62
256
6
ByLayer
370
18
48
1
60
0
100
AcDbDimension
2
_U1
10
2
20
-41.076667
30
0
11
10
21
-41.076667
31
0
70
32
71
1
72
1
41
1
210
0
220
0
230
1
3
Standard
100
AcDbAlignedDimension
13
18
23
0
33
0
14
2
24
-0.65
34
0
50
0
100
AcDbRotatedDimension
1001
ACAD
1000
DSTYLE
1002
{
1070
   371
1070
    13
1070
   372
1070
    13
1070
     3
1000

1070
   170
1070
     0
1070
   144
1040
1.0
1070
   277
1070
     2
1070
   284
1070
     8
1070
   278
1070
    46
1070
   146
1040
1.166667
1070
   345
1005
16
1070
   347
1005
16
1070
   346
1005
16
1070
   344
1005
0
1070
   343
1005
0
1070
   172
1070
     1
1070
    76
1070
     0
1070
    75
1070
     0
1070
   282
1070
     0
1070
   281
1070
     0
1070
    71
1070
     0
1070
    74
1070
     0
1070
   279
1070
     0
1070
   173
1070
     1
1070
   340
1005
CE
1070
   271
1070
     2
1070
   272
1070
     3
1070
    77
1070
     1
1070
    73
1070
     1
1070
   171
1070
     3
1070
   274
1070
     4
1070
   177
1070
     2
1070
   176
1070
     2
1070
   178
1070
     2
1070
    78
1070
     8
1070
    48
1040
-0.1
1070
    41
1040
3.5
1070
   147
1040
1.5
1070
    42
1040
1.5875
1070
    44
1040
2.0
1070
   140
1040
3.0
1002
}
1001
ACAD_DSTYLE_DIM_LINETYPE
1070
   380
1005
16
1001
ACAD_DSTYLE_DIM_EXT1_LINETYPE
1070
   381
1005
16
1001
ACAD_DSTYLE_DIM_EXT2_LINETYPE
1070
   382
1005
16
0
DIMENSION
5
120
100
AcDbEntity
8
SK2
62
256
6
ByLayer
370
18
48
1
60
0
100
AcDbDimension
2
_U2
10
0
20
-36.076667
30
0
11
-10
21
-36.076667
31
0
70
32
71
1
72
1
41
1
210
0
220
0
230
1
3
Standard
100
AcDbAlignedDimension
13
-20
23
-0.65
33
0
14
0
24
-0.65
34
0
50
0
100
AcDbRotatedDimension
1001
ACAD
1000
DSTYLE
1002
{
1070
   371
1070
    13
1070
   372
1070
    13
1070
     3
1000

1070
   170
1070
     0
1070
   144
1040
1.0
1070
   277
1070
     2
1070
   284
1070
     8
1070
   278
1070
    46
1070
   146
1040
1.166667
1070
   345
1005
16
1070
   347
1005
16
1070
   346
1005
16
1070
   344
1005
0
1070
   343
1005
0
1070
   172
1070
     1
1070
    76
1070
     0
1070
    75
1070
     0
1070
   282
1070
     0
1070
   281
1070
     0
1070
    71
1070
     0
1070
    74
1070
     0
1070
   279
1070
     0
1070
   173
1070
     1
1070
   340
1005
CE
1070
   271
1070
     2
1070
   272
1070
     3
1070
    77
1070
     1
1070
    73
1070
     1
1070
   171
1070
     3
1070
   274
1070
     4
1070
   177
1070
     2
1070
   176
1070
     2
1070
   178
1070
     2
1070
    78
1070
     8
1070
    48
1040
-0.1
1070
    41
1040
3.5
1070
   147
1040
1.5
1070
    42
1040
1.5875
1070
    44
1040
2.0
1070
   140
1040
3.0
1002
}
1001
ACAD_DSTYLE_DIM_LINETYPE
1070
   380
1005
16
1001
ACAD_DSTYLE_DIM_EXT1_LINETYPE
1070
   381
1005
16
1001
ACAD_DSTYLE_DIM_EXT2_LINETYPE
1070
   382
1005
16
0
DIMENSION
5
138
100
AcDbEntity
8
2
62
256
6
ByLayer
370
18
48
1
60
0
100
AcDbDimension
2
_U3
10
6
20
-34.076667
30
0
11
12
21
-34.076667
31
0
70
32
71
1
72
1
41
1
210
0
220
0
230
1
3
Standard
100
AcDbAlignedDimension
13
18
23
0
33
0
14
6
24
-0.65
34
0
50
0
100
AcDbRotatedDimension
1001
ACAD
1000
DSTYLE
1002
{
1070
   371
1070
    13
1070
   372
1070
    13
1070
     3
1000

1070
   170
1070
     0
1070
   144
1040
1.0
1070
   277
1070
     2
1070
   284
1070
     8
1070
   278
1070
    46
1070
   146
1040
1.166667
1070
   345
1005
16
1070
   347
1005
16
1070
   346
1005
16
1070
   344
1005
0
1070
   343
1005
0
1070
   172
1070
     1
1070
    76
1070
     0
1070
    75
1070
     0
1070
   282
1070
     0
1070
   281
1070
     0
1070
    71
1070
     0
1070
    74
1070
     0
1070
   279
1070
     0
1070
   173
1070
     1
1070
   340
1005
CE
1070
   271
1070
     2
1070
   272
1070
     3
1070
    77
1070
     1
1070
    73
1070
     1
1070
   171
1070
     3
1070
   274
1070
     4
1070
   177
1070
     2
1070
   176
1070
     2
1070
   178
1070
     2
1070
    78
1070
     8
1070
    48
1040
-0.1
1070
    41
1040
3.5
1070
   147
1040
1.5
1070
    42
1040
1.5875
1070
    44
1040
2.0
1070
   140
1040
3.0
1002
}
1001
ACAD_DSTYLE_DIM_LINETYPE
1070
   380
1005
16
1001
ACAD_DSTYLE_DIM_EXT1_LINETYPE
1070
   381
1005
16
1001
ACAD_DSTYLE_DIM_EXT2_LINETYPE
1070
   382
1005
16
0
ENDSEC
0
SECTION
2
OBJECTS
0
DICTIONARY
5
1c3
330
0
100
AcDbDictionary
280
0
281
1
3
ACAD_GROUP
350
1c4
3
ACAD_MLINESTYLE
350
1c5
0
DICTIONARY
5
1c4
330
0
100
AcDbDictionary
280
0
281
1
0
DICTIONARY
5
1c5
330
0
100
AcDbDictionary
280
0
281
1
3
Standard
350
18
0
MLINESTYLE
5
18
330
1c5
100
AcDbMlineStyle
2
Standard
70
0
3

62
256
51
90
52
90
71
2
49
-0.5
62
256
6
ByLayer
49
0.5
62
256
6
ByLayer
0
RASTERVARIABLES
5
1af
330

100
AcDbRasterVariables
90
0
70
1
71
1
72
1
0
ENDSEC
0
EOF
