0
SECTION
2
HEADER
9
$ACADVER
1
AC1015
9
$DWGCODEPAGE
3
ANSI_1252
9
$HANDSEED
5
1d2
9
$ANGBASE
50
0
9
$ANGDIR
70
0
9
$ATTMODE
70
1
9
$AUNITS
70
0
9
$AUPREC
70
0
9
$CECOLOR
62
256
9
$CELTSCALE
40
1
9
$CELTYPE
6
ByLayer
9
$CELWEIGHT
370
18
9
$CLAYER
8
0
9
$CMLJUST
70
0
9
$CMLSCALE
40
1
9
$CMLSTYLE
2
Standard
9
$DIMSTYLE
2
Standard
9
$TEXTSIZE
40
0.2
9
$TEXTSTYLE
7
Standard
9
$LUNITS
70
2
9
$LUPREC
70
4
9
$EXTNAMES
290
1
9
$INSUNITS
70
4
9
$LTSCALE
40
1
9
$LWDISPLAY
290
1
9
$PDMODE
70
0
9
$PDSIZE
40
0
9
$PLINEGEN
70
0
0
ENDSEC
0
SECTION
2
CLASSES
0
CLASS
1
RASTERVARIABLES
2
AcDbRasterVariables
3
ISM
90
0
280
0
281
0
0
ENDSEC
0
SECTION
2
TABLES
0
TABLE
2
VPORT
5
1c8
100
AcDbSymbolTable
0
VPORT
5
1
100
AcDbSymbolTableRecord
100
AcDbViewportTableRecord
2
*Active
70
0
10
0
20
0
11
1
21
1
12
-1
22
1
13
0
23
0
14
0.5
24
0.5
15
10
25
10
16
0
26
0
36
1
17
0
27
0
37
0
0
ENDTAB
0
TABLE
2
LTYPE
5
1c9
100
AcDbSymbolTable
0
LTYPE
5
14
100
AcDbSymbolTableRecord
100
AcDbLinetypeTableRecord
70
0
2
ByBlock
3

72
65
73
0
40
0
0
LTYPE
5
15
100
AcDbSymbolTableRecord
100
AcDbLinetypeTableRecord
70
0
2
ByLayer
3

72
65
73
0
40
0
0
LTYPE
5
16
100
AcDbSymbolTableRecord
100
AcDbLinetypeTableRecord
70
0
2
Continuous
3
Solid line
72
65
73
0
40
0
0
LTYPE
5
6E
100
AcDbSymbolTableRecord
100
AcDbLinetypeTableRecord
70
0
2
CENTER
3
____ _ ____ _ ____ _ ____
72
65
73
4
40
47.5
49
22
74
0
49
-8.5
74
0
49
8.5
74
0
49
-8.5
74
0
0
LTYPE
5
6F
100
AcDbSymbolTableRecord
100
AcDbLinetypeTableRecord
70
0
2
DASHED
3
__ __ __ __ __ __ __ __ __
72
65
73
2
40
25.72
49
12.86
74
0
49
-12.86
74
0
0
ENDTAB
0
TABLE
2
LAYER
5
1ca
100
AcDbSymbolTable
0
LAYER
5
10
100
AcDbSymbolTableRecord
100
AcDbLayerTableRecord
2
0
70
0
62
7
6
Continuous
290
1
370
-3
390
0
0
LAYER
5
71
100
AcDbSymbolTableRecord
100
AcDbLayerTableRecord
2
81
70
0
62
-3
6
Continuous
290
1
370
-3
390
0
0
LAYER
5
73
100
AcDbSymbolTableRecord
100
AcDbLayerTableRecord
2
80
70
0
62
-6
6
Continuous
290
1
370
-3
390
0
0
LAYER
5
75
100
AcDbSymbolTableRecord
100
AcDbLayerTableRecord
2
1
70
0
62
4
6
Continuous
290
1
370
-3
390
0
0
LAYER
5
7F
100
AcDbSymbolTableRecord
100
AcDbLayerTableRecord
2
4
70
0
62
-2
6
CENTER
290
1
370
-3
390
0
0
LAYER
5
AA
100
AcDbSymbolTableRecord
100
AcDbLayerTableRecord
2
2
70
0
62
7
6
Continuous
290
1
370
-3
390
0
0
LAYER
5
F4
100
AcDbSymbolTableRecord
100
AcDbLayerTableRecord
2
Defpoints
70
0
62
7
6
Continuous
290
0
370
-3
390
0
0
LAYER
5
1b2
100
AcDbSymbolTableRecord
100
AcDbLayerTableRecord
2
SK4
70
0
62
2
6
CENTER
290
1
370
-3
390
0
0
LAYER
5
1b3
100
AcDbSymbolTableRecord
100
AcDbLayerTableRecord
2
SK1
70
0
62
4
6
Continuous
290
1
370
-3
390
0
0
LAYER
5
1b4
100
AcDbSymbolTableRecord
100
AcDbLayerTableRecord
2
SK2
70
0
62
7
6
Continuous
290
1
370
-3
390
0
0
LAYER
5
1b5
100
AcDbSymbolTableRecord
100
AcDbLayerTableRecord
2
CUT
70
0
62
-1
6
Continuous
290
1
370
-3
390
0
0
LAYER
5
1b6
100
AcDbSymbolTableRecord
100
AcDbLayerTableRecord
2
NOCUT
70
0
62
-7
6
Continuous
290
1
370
-3
390
0
0
LAYER
5
1b7
100
AcDbSymbolTableRecord
100
AcDbLayerTableRecord
2
SK6
70
0
62
5
6
Continuous
290
1
370
-3
390
0
0
ENDTAB
0
TABLE
2
STYLE
5
1cb
100
AcDbSymbolTable
0
STYLE
5
11
100
AcDbSymbolTableRecord
100
AcDbTextStyleTableRecord
2
Standard
3
txt
70
0
71
0
40
0
41
1
42
0
50
0
0
STYLE
5
D0
100
AcDbSymbolTableRecord
100
AcDbTextStyleTableRecord
2
iso_b_vert
3
simplex.shx
70
0
71
0
40
0
41
1
42
0
50
0
0
STYLE
5
D1
100
AcDbSymbolTableRecord
100
AcDbTextStyleTableRecord
2
DWGDirectTextStyle
3
simplex
70
0
71
0
40
0
41
1
42
0
50
0
0
ENDTAB
0
TABLE
2
DIMSTYLE
5
1cc
100
AcDbSymbolTable
100
AcDbDimStyleTable
0
DIMSTYLE
105
27
100
AcDbSymbolTableRecord
100
AcDbDimStyleTableRecord
2
Standard
70
0
3
<>
41
0.18
42
0.0625
44
0.18
140
0.18
147
0.09
73
0
74
0
77
1
271
2
275
0
278
52
280
0
340
11
0
ENDTAB
0
TABLE
2
VIEW
5
1cd
100
AcDbSymbolTable
0
ENDTAB
0
TABLE
2
UCS
5
1ce
100
AcDbSymbolTable
0
ENDTAB
0
TABLE
2
APPID
5
1cf
100
AcDbSymbolTable
0
APPID
5
12
100
AcDbSymbolTableRecord
100
AcDbRegAppTableRecord
2
ACAD
70
0
0
APPID
5
F0
100
AcDbSymbolTableRecord
100
AcDbRegAppTableRecord
2
ACAD_DSTYLE_DIMBREAK
70
0
0
APPID
5
171
100
AcDbSymbolTableRecord
100
AcDbRegAppTableRecord
2
ACAD_DSTYLE_DIM_LINETYPE
70
0
0
APPID
5
172
100
AcDbSymbolTableRecord
100
AcDbRegAppTableRecord
2
ACAD_DSTYLE_DIM_EXT1_LINETYPE
70
0
0
APPID
5
173
100
AcDbSymbolTableRecord
100
AcDbRegAppTableRecord
2
ACAD_DSTYLE_DIM_EXT2_LINETYPE
70
0
0
APPID
5
1AE
100
AcDbSymbolTableRecord
100
AcDbRegAppTableRecord
2
ACAD_MLEADERVER
70
0
0
ENDTAB
0
TABLE
2
BLOCK_RECORD
5
1d0
100
AcDbSymbolTable
0
BLOCK_RECORD
5
1F
100
AcDbSymbolTableRecord
100
AcDbBlockTableRecord
2
*Model_Space
340
0
70
0
0
BLOCK_RECORD
5
1B
100
AcDbSymbolTableRecord
100
AcDbBlockTableRecord
2
*Paper_Space
340
0
70
0
0
BLOCK_RECORD
5
23
100
AcDbSymbolTableRecord
100
AcDbBlockTableRecord
2
*Paper_Space0
340
0
70
0
0
BLOCK_RECORD
5
F5
100
AcDbSymbolTableRecord
100
AcDbBlockTableRecord
2
*D1
340
0
70
0
0
BLOCK_RECORD
5
101
100
AcDbSymbolTableRecord
100
AcDbBlockTableRecord
2
_U0
340
0
70
0
0
BLOCK_RECORD
5
10D
100
AcDbSymbolTableRecord
100
AcDbBlockTableRecord
2
*D3
340
0
70
0
0
BLOCK_RECORD
5
119
100
AcDbSymbolTableRecord
100
AcDbBlockTableRecord
2
_U1
340
0
70
0
0
BLOCK_RECORD
5
125
100
AcDbSymbolTableRecord
100
AcDbBlockTableRecord
2
*D5
340
0
70
0
0
BLOCK_RECORD
5
131
100
AcDbSymbolTableRecord
100
AcDbBlockTableRecord
2
_U2
340
0
70
0
0
BLOCK_RECORD
5
13D
100
AcDbSymbolTableRecord
100
AcDbBlockTableRecord
2
*D7
340
0
70
0
0
BLOCK_RECORD
5
14A
100
AcDbSymbolTableRecord
100
AcDbBlockTableRecord
2
_U3
340
0
70
0
0
ENDTAB
0
ENDSEC
0
SECTION
2
BLOCKS
0
BLOCK
5
20
100
AcDbEntity
8
0
100
AcDbBlockBegin
2
*Model_Space
70
0
10
0
20
0
30
0
3
*Model_Space
0
ENDBLK
5
21
100
AcDbEntity
8
0
100
AcDbBlockEnd
0
BLOCK
5
1C
100
AcDbEntity
8
0
100
AcDbBlockBegin
2
*Paper_Space
70
0
10
0
20
0
30
0
3
*Paper_Space
0
ENDBLK
5
1D
100
AcDbEntity
8
0
100
AcDbBlockEnd
0
BLOCK
5
24
100
AcDbEntity
8
0
100
AcDbBlockBegin
2
*Paper_Space0
70
0
10
0
20
0
30
0
3
*Paper_Space0
0
ENDBLK
5
25
100
AcDbEntity
8
0
100
AcDbBlockEnd
0
BLOCK
5
F6
100
AcDbEntity
8
0
100
AcDbBlockBegin
2
*D1
70
1
10
0
20
0
30
0
3
*D1
0
LINE
5
F8
100
AcDbEntity
8
0
62
256
6
ByLayer
370
-2
48
1
60
0
100
AcDbLine
10
-20
20
-2.1875
30
0
11
-20
21
-53.210686
31
0
39
0
210
0
220
0
230
1
0
LINE
5
F9
100
AcDbEntity
8
0
62
256
6
ByLayer
370
-2
48
1
60
0
100
AcDbLine
10
18
20
-1.5875
30
0
11
18
21
-53.210686
31
0
39
0
210
0
220
0
230
1
0
LINE
5
FA
100
AcDbEntity
8
0
62
256
6
ByLayer
370
-2
48
1
60
0
100
AcDbLine
10
-16.5
20
-51.210686
30
0
11
14.5
21
-51.210686
31
0
39
0
210
0
220
0
230
1
0
SOLID
5
FB
100
AcDbEntity
8
0
62
256
6
ByLayer
370
-1
48
1
60
0
100
AcDbTrace
10
-16.5
20
-50.627352
30
0
11
-16.5
21
-51.794019
31
0
12
-20
22
-51.210686
32
0
13
-20
23
-51.210686
33
0
39
0
210
0
220
0
230
1
0
SOLID
5
FC
100
AcDbEntity
8
0
62
256
6
ByLayer
370
-1
48
1
60
0
100
AcDbTrace
10
14.5
20
-51.794019
30
0
11
14.5
21
-50.627352
31
0
12
18
22
-51.210686
32
0
13
18
23
-51.210686
33
0
39
0
210
0
220
0
230
1
0
MTEXT
5
FD
100
AcDbEntity
8
0
62
256
6
ByLayer
370
18
48
1
60
0
100
AcDbMText
10
-1
20
-45.210686
30
0
210
0
220
0
230
1
1
\A1;38
40
3
41
0
44
1
50
0
71
5
72
5
7
iso_b_vert
0
POINT
5
FE
100
AcDbEntity
8
Defpoints
62
0
6
ByLayer
370
-1
48
1
60
0
100
AcDbPoint
10
-20
20
-0.6
30
0
39
0
210
0
220
0
230
1
50
360
0
POINT
5
FF
100
AcDbEntity
8
Defpoints
62
0
6
ByLayer
370
-1
48
1
60
0
100
AcDbPoint
10
18
20
0
30
0
39
0
210
0
220
0
230
1
50
360
0
POINT
5
100
100
AcDbEntity
8
Defpoints
62
0
6
ByLayer
370
-1
48
1
60
0
100
AcDbPoint
10
18
20
-51.210686
30
0
39
0
210
0
220
0
230
1
50
360
0
ENDBLK
5
F7
100
AcDbEntity
8
0
100
AcDbBlockEnd
0
BLOCK
5
108
100
AcDbEntity
8
0
100
AcDbBlockBegin
2
_U0
70
0
10
0
20
0
30
0
3
_U0
0
MTEXT
5
102
100
AcDbEntity
8
SK2
62
256
6
ByLayer
370
18
48
1
60
0
100
AcDbMText
10
-5.48237
20
-50.325571
30
0
210
0
220
0
230
1
1
\W0.7468;38.00
40
3
41
0
44
1.084337
50
0
71
7
72
5
7
iso_b_vert
0
LINE
5
103
100
AcDbEntity
8
SK2
62
256
6
ByLayer
370
13
48
1
60
0
100
AcDbLine
10
-20
20
-2.1875
30
0
11
-20
21
-53.210686
31
0
39
0
210
0
220
0
230
1
0
LINE
5
104
100
AcDbEntity
8
SK2
62
256
6
ByLayer
370
13
48
1
60
0
100
AcDbLine
10
18
20
-1.5875
30
0
11
18
21
-53.210686
31
0
39
0
210
0
220
0
230
1
0
LINE
5
105
100
AcDbEntity
8
SK2
62
256
6
ByLayer
370
13
48
1
60
0
100
AcDbLine
10
-20
20
-51.210686
30
0
11
18
21
-51.210686
31
0
39
0
210
0
220
0
230
1
0
SOLID
5
106
100
AcDbEntity
8
SK2
62
256
6
ByLayer
370
18
48
1
60
0
100
AcDbTrace
10
-20
20
-51.210686
30
0
11
-16.500002
21
-50.749902
31
0
12
-16.499998
22
-51.67147
32
0
13
-16.499998
23
-51.67147
33
0
39
0
210
0
220
0
230
1
0
SOLID
5
107
100
AcDbEntity
8
SK2
62
256
6
ByLayer
370
18
48
1
60
0
100
AcDbTrace
10
18
20
-51.210686
30
0
11
14.500002
21
-51.67147
31
0
12
14.499998
22
-50.749902
32
0
13
14.499998
23
-50.749902
33
0
39
0
210
0
220
0
230
1
0
ENDBLK
5
109
100
AcDbEntity
8
0
100
AcDbBlockEnd
0
BLOCK
5
10E
100
AcDbEntity
8
0
100
AcDbBlockBegin
2
*D3
70
1
10
0
20
0
30
0
3
*D3
0
LINE
5
110
100
AcDbEntity
8
0
62
256
6
ByLayer
370
-2
48
1
60
0
100
AcDbLine
10
18
20
-1.5875
30
0
11
18
21
-43.210686
31
0
39
0
210
0
220
0
230
1
0
LINE
5
111
100
AcDbEntity
8
0
62
256
6
ByLayer
370
-2
48
1
60
0
100
AcDbLine
10
2
20
-2.1875
30
0
11
2
21
-43.210686
31
0
39
0
210
0
220
0
230
1
0
LINE
5
112
100
AcDbEntity
8
0
62
256
6
ByLayer
370
-2
48
1
60
0
100
AcDbLine
10
14.5
20
-41.210686
30
0
11
5.5
21
-41.210686
31
0
39
0
210
0
220
0
230
1
0
SOLID
5
113
100
AcDbEntity
8
0
62
256
6
ByLayer
370
-1
48
1
60
0
100
AcDbTrace
10
14.5
20
-41.794019
30
0
11
14.5
21
-40.627352
31
0
12
18
22
-41.210686
32
0
13
18
23
-41.210686
33
0
39
0
210
0
220
0
230
1
0
SOLID
5
114
100
AcDbEntity
8
0
62
256
6
ByLayer
370
-1
48
1
60
0
100
AcDbTrace
10
5.5
20
-40.627352
30
0
11
5.5
21
-41.794019
31
0
12
2
22
-41.210686
32
0
13
2
23
-41.210686
33
0
39
0
210
0
220
0
230
1
0
MTEXT
5
115
100
AcDbEntity
8
0
62
256
6
ByLayer
370
18
48
1
60
0
100
AcDbMText
10
10
20
-35.210686
30
0
210
0
220
0
230
1
1
\A1;16
40
3
41
0
44
1
50
0
71
5
72
5
7
iso_b_vert
0
POINT
5
116
100
AcDbEntity
8
Defpoints
62
0
6
ByLayer
370
-1
48
1
60
0
100
AcDbPoint
10
18
20
0
30
0
39
0
210
0
220
0
230
1
50
360
0
POINT
5
117
100
AcDbEntity
8
Defpoints
62
0
6
ByLayer
370
-1
48
1
60
0
100
AcDbPoint
10
2
20
-0.6
30
0
39
0
210
0
220
0
230
1
50
360
0
POINT
5
118
100
AcDbEntity
8
Defpoints
62
0
6
ByLayer
370
-1
48
1
60
0
100
AcDbPoint
10
2
20
-41.210686
30
0
39
0
210
0
220
0
230
1
50
360
0
ENDBLK
5
10F
100
AcDbEntity
8
0
100
AcDbBlockEnd
0
BLOCK
5
120
100
AcDbEntity
8
0
100
AcDbBlockBegin
2
_U1
70
0
10
0
20
0
30
0
3
_U1
0
MTEXT
5
11A
100
AcDbEntity
8
2
62
256
6
ByLayer
370
18
48
1
60
0
100
AcDbMText
10
5.892572
20
-40.325571
30
0
210
0
220
0
230
1
1
\W0.6864;16.00
40
3
41
0
44
1.084337
50
0
71
7
72
5
7
iso_b_vert
0
LINE
5
11B
100
AcDbEntity
8
2
62
256
6
ByLayer
370
13
48
1
60
0
100
AcDbLine
10
18
20
-1.5875
30
0
11
18
21
-43.210686
31
0
39
0
210
0
220
0
230
1
0
LINE
5
11C
100
AcDbEntity
8
2
62
256
6
ByLayer
370
13
48
1
60
0
100
AcDbLine
10
2
20
-2.1875
30
0
11
2
21
-43.210686
31
0
39
0
210
0
220
0
230
1
0
LINE
5
11D
100
AcDbEntity
8
2
62
256
6
ByLayer
370
13
48
1
60
0
100
AcDbLine
10
18
20
-41.210686
30
0
11
2
21
-41.210686
31
0
39
0
210
0
220
0
230
1
0
SOLID
5
11E
100
AcDbEntity
8
2
62
256
6
ByLayer
370
18
48
1
60
0
100
AcDbTrace
10
18
20
-41.210686
30
0
11
14.500002
21
-41.67147
31
0
12
14.499998
22
-40.749902
32
0
13
14.499998
23
-40.749902
33
0
39
0
210
0
220
0
230
1
0
SOLID
5
11F
100
AcDbEntity
8
2
62
256
6
ByLayer
370
18
48
1
60
0
100
AcDbTrace
10
2
20
-41.210686
30
0
11
5.499998
21
-40.749902
31
0
12
5.500002
22
-41.67147
32
0
13
5.500002
23
-41.67147
33
0
39
0
210
0
220
0
230
1
0
ENDBLK
5
121
100
AcDbEntity
8
0
100
AcDbBlockEnd
0
BLOCK
5
126
100
AcDbEntity
8
0
100
AcDbBlockBegin
2
*D5
70
1
10
0
20
0
30
0
3
*D5
0
LINE
5
128
100
AcDbEntity
8
0
62
256
6
ByLayer
370
-2
48
1
60
0
100
AcDbLine
10
-20
20
-2.1875
30
0
11
-20
21
-38.210686
31
0
39
0
210
0
220
0
230
1
0
LINE
5
129
100
AcDbEntity
8
0
62
256
6
ByLayer
370
-2
48
1
60
0
100
AcDbLine
10
0
20
-2.1875
30
0
11
0
21
-38.210686
31
0
39
0
210
0
220
0
230
1
0
LINE
5
12A
100
AcDbEntity
8
0
62
256
6
ByLayer
370
-2
48
1
60
0
100
AcDbLine
10
-16.5
20
-36.210686
30
0
11
-3.5
21
-36.210686
31
0
39
0
210
0
220
0
230
1
0
SOLID
5
12B
100
AcDbEntity
8
0
62
256
6
ByLayer
370
-1
48
1
60
0
100
AcDbTrace
10
-16.5
20
-35.627352
30
0
11
-16.5
21
-36.794019
31
0
12
-20
22
-36.210686
32
0
13
-20
23
-36.210686
33
0
39
0
210
0
220
0
230
1
0
SOLID
5
12C
100
AcDbEntity
8
0
62
256
6
ByLayer
370
-1
48
1
60
0
100
AcDbTrace
10
-3.5
20
-36.794019
30
0
11
-3.5
21
-35.627352
31
0
12
0
22
-36.210686
32
0
13
0
23
-36.210686
33
0
39
0
210
0
220
0
230
1
0
MTEXT
5
12D
100
AcDbEntity
8
0
62
256
6
ByLayer
370
18
48
1
60
0
100
AcDbMText
10
-10
20
-30.210686
30
0
210
0
220
0
230
1
1
\A1;20
40
3
41
0
44
1
50
0
71
5
72
5
7
iso_b_vert
0
POINT
5
12E
100
AcDbEntity
8
Defpoints
62
0
6
ByLayer
370
-1
48
1
60
0
100
AcDbPoint
10
-20
20
-0.6
30
0
39
0
210
0
220
0
230
1
50
360
0
POINT
5
12F
100
AcDbEntity
8
Defpoints
62
0
6
ByLayer
370
-1
48
1
60
0
100
AcDbPoint
10
0
20
-0.6
30
0
39
0
210
0
220
0
230
1
50
360
0
POINT
5
130
100
AcDbEntity
8
Defpoints
62
0
6
ByLayer
370
-1
48
1
60
0
100
AcDbPoint
10
0
20
-36.210686
30
0
39
0
210
0
220
0
230
1
50
360
0
ENDBLK
5
127
100
AcDbEntity
8
0
100
AcDbBlockEnd
0
BLOCK
5
138
100
AcDbEntity
8
0
100
AcDbBlockBegin
2
_U2
70
0
10
0
20
0
30
0
3
_U2
0
MTEXT
5
132
100
AcDbEntity
8
SK2
62
256
6
ByLayer
370
18
48
1
60
0
100
AcDbMText
10
-14.48237
20
-35.325571
30
0
210
0
220
0
230
1
1
\W0.7468;20.00
40
3
41
0
44
1.084337
50
0
71
7
72
5
7
iso_b_vert
0
LINE
5
133
100
AcDbEntity
8
SK2
62
256
6
ByLayer
370
13
48
1
60
0
100
AcDbLine
10
-20
20
-2.1875
30
0
11
-20
21
-38.210686
31
0
39
0
210
0
220
0
230
1
0
LINE
5
134
100
AcDbEntity
8
SK2
62
256
6
ByLayer
370
13
48
1
60
0
100
AcDbLine
10
0
20
-2.1875
30
0
11
0
21
-38.210686
31
0
39
0
210
0
220
0
230
1
0
LINE
5
135
100
AcDbEntity
8
SK2
62
256
6
ByLayer
370
13
48
1
60
0
100
AcDbLine
10
-20
20
-36.210686
30
0
11
0
21
-36.210686
31
0
39
0
210
0
220
0
230
1
0
SOLID
5
136
100
AcDbEntity
8
SK2
62
256
6
ByLayer
370
18
48
1
60
0
100
AcDbTrace
10
-20
20
-36.210686
30
0
11
-16.500002
21
-35.749902
31
0
12
-16.499998
22
-36.67147
32
0
13
-16.499998
23
-36.67147
33
0
39
0
210
0
220
0
230
1
0
SOLID
5
137
100
AcDbEntity
8
SK2
62
256
6
ByLayer
370
18
48
1
60
0
100
AcDbTrace
10
0
20
-36.210686
30
0
11
-3.499998
21
-36.67147
31
0
12
-3.500002
22
-35.749902
32
0
13
-3.500002
23
-35.749902
33
0
39
0
210
0
220
0
230
1
0
ENDBLK
5
139
100
AcDbEntity
8
0
100
AcDbBlockEnd
0
BLOCK
5
13E
100
AcDbEntity
8
0
100
AcDbBlockBegin
2
*D7
70
1
10
0
20
0
30
0
3
*D7
0
LINE
5
140
100
AcDbEntity
8
0
62
256
6
ByLayer
370
-2
48
1
60
0
100
AcDbLine
10
18
20
-1.5875
30
0
11
18
21
-36.210686
31
0
39
0
210
0
220
0
230
1
0
LINE
5
141
100
AcDbEntity
8
0
62
256
6
ByLayer
370
-2
48
1
60
0
100
AcDbLine
10
6
20
-2.1875
30
0
11
6
21
-36.210686
31
0
39
0
210
0
220
0
230
1
0
LINE
5
142
100
AcDbEntity
8
0
62
256
6
ByLayer
370
-2
48
1
60
0
100
AcDbLine
10
21.5
20
-34.210686
30
0
11
25
21
-34.210686
31
0
39
0
210
0
220
0
230
1
0
LINE
5
143
100
AcDbEntity
8
0
62
256
6
ByLayer
370
-2
48
1
60
0
100
AcDbLine
10
2.5
20
-34.210686
30
0
11
-1
21
-34.210686
31
0
39
0
210
0
220
0
230
1
0
SOLID
5
144
100
AcDbEntity
8
0
62
256
6
ByLayer
370
-1
48
1
60
0
100
AcDbTrace
10
21.5
20
-33.627352
30
0
11
21.5
21
-34.794019
31
0
12
18
22
-34.210686
32
0
13
18
23
-34.210686
33
0
39
0
210
0
220
0
230
1
0
SOLID
5
145
100
AcDbEntity
8
0
62
256
6
ByLayer
370
-1
48
1
60
0
100
AcDbTrace
10
2.5
20
-34.794019
30
0
11
2.5
21
-33.627352
31
0
12
6
22
-34.210686
32
0
13
6
23
-34.210686
33
0
39
0
210
0
220
0
230
1
0
MTEXT
5
146
100
AcDbEntity
8
0
62
256
6
ByLayer
370
18
48
1
60
0
100
AcDbMText
10
12
20
-28.210686
30
0
210
0
220
0
230
1
1
\A1;12
40
3
41
0
44
1
50
0
71
5
72
5
7
iso_b_vert
0
POINT
5
147
100
AcDbEntity
8
Defpoints
62
0
6
ByLayer
370
-1
48
1
60
0
100
AcDbPoint
10
18
20
0
30
0
39
0
210
0
220
0
230
1
50
360
0
POINT
5
148
100
AcDbEntity
8
Defpoints
62
0
6
ByLayer
370
-1
48
1
60
0
100
AcDbPoint
10
6
20
-0.6
30
0
39
0
210
0
220
0
230
1
50
360
0
POINT
5
149
100
AcDbEntity
8
Defpoints
62
0
6
ByLayer
370
-1
48
1
60
0
100
AcDbPoint
10
6
20
-34.210686
30
0
39
0
210
0
220
0
230
1
50
360
0
ENDBLK
5
13F
100
AcDbEntity
8
0
100
AcDbBlockEnd
0
BLOCK
5
151
100
AcDbEntity
8
0
100
AcDbBlockBegin
2
_U3
70
0
10
0
20
0
30
0
3
_U3
0
MTEXT
5
14B
100
AcDbEntity
8
2
62
256
6
ByLayer
370
18
48
1
60
0
100
AcDbMText
10
7.892572
20
-33.325571
30
0
210
0
220
0
230
1
1
\W0.6864;12.00
40
3
41
0
44
1.084337
50
0
71
7
72
5
7
iso_b_vert
0
LINE
5
14C
100
AcDbEntity
8
2
62
256
6
ByLayer
370
13
48
1
60
0
100
AcDbLine
10
18
20
-1.5875
30
0
11
18
21
-36.210686
31
0
39
0
210
0
220
0
230
1
0
LINE
5
14D
100
AcDbEntity
8
2
62
256
6
ByLayer
370
13
48
1
60
0
100
AcDbLine
10
6
20
-2.1875
30
0
11
6
21
-36.210686
31
0
39
0
210
0
220
0
230
1
0
LINE
5
14E
100
AcDbEntity
8
2
62
256
6
ByLayer
370
13
48
1
60
0
100
AcDbLine
10
18
20
-34.210686
30
0
11
6
21
-34.210686
31
0
39
0
210
0
220
0
230
1
0
SOLID
5
14F
100
AcDbEntity
8
2
62
256
6
ByLayer
370
18
48
1
60
0
100
AcDbTrace
10
18
20
-34.210686
30
0
11
14.500002
21
-34.67147
31
0
12
14.499998
22
-33.749902
32
0
13
14.499998
23
-33.749902
33
0
39
0
210
0
220
0
230
1
0
SOLID
5
150
100
AcDbEntity
8
2
62
256
6
ByLayer
370
18
48
1
60
0
100
AcDbTrace
10
6
20
-34.210686
30
0
11
9.499998
21
-33.749902
31
0
12
9.500002
22
-34.67147
32
0
13
9.500002
23
-34.67147
33
0
39
0
210
0
220
0
230
1
0
ENDBLK
5
152
100
AcDbEntity
8
0
100
AcDbBlockEnd
0
ENDSEC
0
SECTION
2
ENTITIES
0
ARC
5
BB
100
AcDbEntity
8
2
62
256
6
ByLayer
370
13
48
1
60
0
100
AcDbCircle
39
0
10
18
20
0
30
0
40
22
210
0
220
0
230
1
100
AcDbArc
50
7.83748
51
61.596605
0
ARC
5
BC
100
AcDbEntity
8
2
62
256
6
ByLayer
370
13
48
1
60
0
100
AcDbCircle
39
0
10
18
20
0
30
0
40
22
210
0
220
0
230
1
100
AcDbArc
50
298.403395
51
352.16252
0
POINT
5
70
100
AcDbEntity
8
81
62
256
6
ByLayer
370
18
48
1
60
0
100
AcDbPoint
10
18
20
0
30
0
39
0
210
0
220
0
230
1
50
360
0
POINT
5
72
100
AcDbEntity
8
80
62
256
6
ByLayer
370
18
48
1
60
0
100
AcDbPoint
10
0
20
0
30
0
39
0
210
0
220
0
230
1
50
360
0
POINT
5
74
100
AcDbEntity
8
1
62
256
6
ByLayer
370
18
48
1
60
1
100
AcDbPoint
10
-20
20
-0.6
30
0
39
0
210
0
220
0
230
1
50
360
0
POINT
5
76
100
AcDbEntity
8
1
62
256
6
ByLayer
370
18
48
1
60
1
100
AcDbPoint
10
18
20
0
30
0
39
0
210
0
220
0
230
1
50
360
0
POINT
5
77
100
AcDbEntity
8
1
62
256
6
ByLayer
370
18
48
1
60
1
100
AcDbPoint
10
18
20
0
30
0
39
0
210
0
220
0
230
1
50
360
0
POINT
5
78
100
AcDbEntity
8
1
62
256
6
ByLayer
370
18
48
1
60
1
100
AcDbPoint
10
2
20
-0.6
30
0
39
0
210
0
220
0
230
1
50
360
0
POINT
5
79
100
AcDbEntity
8
1
62
256
6
ByLayer
370
18
48
1
60
1
100
AcDbPoint
10
-20
20
-0.6
30
0
39
0
210
0
220
0
230
1
50
360
0
POINT
5
7A
100
AcDbEntity
8
1
62
256
6
ByLayer
370
18
48
1
60
1
100
AcDbPoint
10
0
20
-0.6
30
0
39
0
210
0
220
0
230
1
50
360
0
POINT
5
7B
100
AcDbEntity
8
1
62
256
6
ByLayer
370
18
48
1
60
1
100
AcDbPoint
10
18
20
0
30
0
39
0
210
0
220
0
230
1
50
360
0
POINT
5
7C
100
AcDbEntity
8
1
62
256
6
ByLayer
370
18
48
1
60
1
100
AcDbPoint
10
6
20
-0.6
30
0
39
0
210
0
220
0
230
1
50
360
0
SPLINE
5
BD
100
AcDbEntity
8
CUT
62
256
6
ByLayer
370
18
48
1
60
0
100
AcDbSpline
70
2053
71
3
72
17
73
13
40
0
40
0
40
0
40
0
40
0.48089889258196
40
0.48089889258196
40
0.48089889258196
40
0.504768376212883
40
0.504768376212883
40
0.504768376212883
40
0.972664407412336
40
0.972664407412336
40
0.972664407412336
40
1
40
1
40
1
40
1
41
1
10
18
20
0
30
0
41
1
10
14
20
0
30
0
41
1
10
10
20
0
30
0
41
1
10
6
20
0
30
0
41
1
10
6
20
0.198540558115354
30
0
41
1
10
6
20
0.397081116230709
30
0
41
1
10
6
20
0.595621674346035
30
0
41
1
10
9.89184508856215
20
0.597081116254458
30
0
41
1
10
13.7836901771244
20
0.59854055816291
30
0
41
1
10
17.6755352656866
20
0.600000000071333
30
0
41
1
10
17.7836901771244
20
0.400000000047555
30
0
41
1
10
17.8918450885622
20
0.200000000023778
30
0
41
1
10
18
20
0
30
0
0
SPLINE
5
BF
100
AcDbEntity
8
NOCUT
62
256
6
ByLayer
370
18
48
1
60
0
100
AcDbSpline
70
2053
71
3
72
26
73
22
40
0
40
0
40
0
40
0
40
0.48929884232041
40
0.48929884232041
40
0.48929884232041
40
0.500507957539484
40
0.500507957539484
40
0.500507957539484
40
0.611541164179929
40
0.611541164179929
40
0.611541164179929
40
0.613427165803595
40
0.613427165803595
40
0.613427165803595
40
0.987928972039257
40
0.987928972039257
40
0.987928972039257
40
0.990590406880336
40
0.990590406880336
40
0.990590406880336
40
1
40
1
40
1
40
1
41
1
10
-20
20
0
30
0
41
1
10
-11.3333333333333
20
0
30
0
41
1
10
-2.66666666666666
20
0
30
0
41
1
10
6
20
0
30
0
41
1
10
6
20
0.198540558115354
30
0
41
1
10
6
20
0.397081116230709
30
0
41
1
10
6
20
0.595621674346035
30
0
41
1
10
4.03333333333333
20
0.594884174345935
30
0
41
1
10
2.06666666666666
20
0.594146674345836
30
0
41
1
10
0.0999999999693841
20
0.593409174347755
30
0
41
1
10
0.0666666666258493
20
0.595606116233171
30
0
41
1
10
0.0333333333129247
20
0.597803058116597
30
0
41
1
10
0
20
0.599999999999994
30
0
41
1
10
-6.63333333333333
20
0.599999999999994
30
0
41
1
10
-13.2666666666666
20
0.599999999999994
30
0
41
1
10
-19.9
20
0.599999999999994
30
0
41
1
10
-19.9333333333333
20
0.566666666666663
30
0
41
1
10
-19.9666666666667
20
0.533333333333331
30
0
41
1
10
-20
20
0.5
30
0
41
1
10
-20
20
0.333333333333343
30
0
41
1
10
-20
20
0.166666666666657
30
0
41
1
10
-20
20
0
30
0
0
SPLINE
5
C1
100
AcDbEntity
8
1
62
256
6
ByLayer
370
18
48
1
60
0
100
AcDbSpline
70
4
71
3
72
44
73
40
40
0
40
0
40
0
40
0
40
0.125
40
0.125
40
0.187499999999996
40
0.187499999999996
40
0.249999999999992
40
0.249999999999992
40
0.312499999999989
40
0.312499999999989
40
0.374999999999985
40
0.374999999999985
40
0.437499999999981
40
0.437499999999981
40
0.468749999999979
40
0.468749999999979
40
0.484374999999978
40
0.484374999999978
40
0.49218749999998
40
0.49218749999998
40
0.499999999999982
40
0.499999999999982
40
0.515624999999985
40
0.515624999999985
40
0.531249999999988
40
0.531249999999988
40
0.562499999999988
40
0.562499999999988
40
0.593749999999989
40
0.593749999999989
40
0.62499999999999
40
0.62499999999999
40
0.687499999999992
40
0.687499999999992
40
0.749999999999993
40
0.749999999999993
40
0.874999999999997
40
0.874999999999997
40
1
40
1
40
1
40
1
41
1
10
17.6755352656865
20
0.581273900360344
30
0
41
1
10
17.7001825360209
20
0.535311937780421
30
0
41
1
10
17.7246798712612
20
0.489197030634188
30
0
41
1
10
17.7610609745358
20
0.419775788960408
30
0
41
1
10
17.7731267496885
20
0.396593964119319
30
0
41
1
10
17.7970700447086
20
0.350117604898514
30
0
41
1
10
17.8089390011178
20
0.326815882092745
30
0
41
1
10
17.832410534391
20
0.280090415200419
30
0
41
1
10
17.8440295428788
20
0.256680910565365
30
0
41
1
10
17.8671407132439
20
0.209891130731449
30
0
41
1
10
17.8786300939974
20
0.186508486385151
30
0
41
1
10
17.9011437815276
20
0.139804910307532
30
0
41
1
10
17.9122137591906
20
0.116448285226056
30
0
41
1
10
17.9277828226015
20
0.0812623341846006
30
0
41
1
10
17.9328157647905
20
0.0695151078056426
30
0
41
1
10
17.9397876661078
20
0.0517676762312078
30
0
41
1
10
17.942039267072
20
0.0458489665577986
30
0
41
1
10
17.94484963492
20
0.0366013375217733
30
0
41
1
10
17.945689527298
20
0.0334185338055875
30
0
41
1
10
17.9469577689155
20
0.026993736983286
30
0
41
1
10
17.9473866394785
20
0.0237540642110616
30
0
41
1
10
17.947900984111
20
0.0139322700700006
30
0
41
1
10
17.9471211690746
20
0.0076310089455376
30
0
41
1
10
17.944473595824
20
-0.004184333497733
30
0
41
1
10
17.9427107979612
20
-0.0097881763474277
30
0
41
1
10
17.9369326025352
20
-0.0264763611246792
30
0
41
1
10
17.9323087904002
20
-0.037311011406473
30
0
41
1
10
17.9223105364622
20
-0.0584404937259251
30
0
41
1
10
17.9169559808406
20
-0.0686716535715846
30
0
41
1
10
17.9058961577906
20
-0.0886134563953647
30
0
41
1
10
17.9001856665009
20
-0.0983229420007206
30
0
41
1
10
17.8827615941736
20
-0.126785773131132
30
0
41
1
10
17.8707676253112
20
-0.144882197109581
30
0
41
1
10
17.8464890312466
20
-0.179546573766686
30
0
41
1
10
17.8341736045502
20
-0.196124209427211
30
0
41
1
10
17.7970051380536
20
-0.243477800025858
30
0
41
1
10
17.7724960696611
20
-0.271189414541425
30
0
41
1
10
17.7238514429536
20
-0.319635053075643
30
0
41
1
10
17.6997016491778
20
-0.340374712987625
30
0
41
1
10
17.6755352656866
20
-0.357572583384268
30
0
0
SPLINE
5
C2
100
AcDbEntity
8
1
62
256
6
ByLayer
370
18
48
1
60
0
100
AcDbSpline
70
4
71
3
72
52
73
48
40
0
40
0
40
0
40
0
40
0.0896780696747666
40
0.0896780696747666
40
0.134517104512147
40
0.134517104512147
40
0.179356139349526
40
0.179356139349526
40
0.224195174186906
40
0.224195174186906
40
0.269034209024286
40
0.269034209024286
40
0.313873243861666
40
0.313873243861666
40
0.358712278699046
40
0.358712278699046
40
0.403551313536426
40
0.403551313536426
40
0.448390348373806
40
0.448390348373806
40
0.493229383211186
40
0.493229383211186
40
0.538068418048566
40
0.538068418048566
40
0.627746487723319
40
0.627746487723319
40
0.650166005142013
40
0.650166005142013
40
0.672585522560706
40
0.672585522560706
40
0.717424557398086
40
0.717424557398086
40
0.762263592235465
40
0.762263592235465
40
0.807102627072845
40
0.807102627072845
40
0.851941661910225
40
0.851941661910225
40
0.896780696747605
40
0.896780696747605
40
0.941619731584985
40
0.941619731584985
40
0.964039249003671
40
0.964039249003671
40
0.986458766422358
40
0.986458766422358
40
1
40
1
40
1
40
1
41
1
10
17.6755352656868
20
-0.35757258338441
30
0
41
1
10
17.6033649524771
20
-0.32553131095986
30
0
41
1
10
17.5318654400955
20
-0.291224069224086
30
0
41
1
10
17.4248366207885
20
-0.237706880519482
30
0
41
1
10
17.3892339719352
20
-0.219465302700201
30
0
41
1
10
17.3181697689833
20
-0.182181968397373
30
0
41
1
10
17.2826760552799
20
-0.163194060737595
30
0
41
1
10
17.2115179273022
20
-0.124970325883652
30
0
41
1
10
17.1758871913949
20
-0.10567699276379
30
0
41
1
10
17.1045991869045
20
-0.0665823986698229
30
0
41
1
10
17.0689168420773
20
-0.0468249609014322
30
0
41
1
10
16.9972811158422
20
-0.0072481001558913
30
0
41
1
10
16.9613391060758
20
0.0125904102298477
30
0
41
1
10
16.8892756824877
20
0.0525165240606214
30
0
41
1
10
16.853369979331
20
0.0724948411869093
30
0
41
1
10
16.781753035124
20
0.111804014145775
30
0
41
1
10
16.7459855218536
20
0.131125799511892
30
0
41
1
10
16.6746269442506
20
0.169299460422394
30
0
41
1
10
16.6390523654592
20
0.18817734465452
30
0
41
1
10
16.5679107245512
20
0.225159720921283
30
0
41
1
10
16.5323270384421
20
0.243238346210262
30
0
41
1
10
16.4611727457734
20
0.27864058412456
30
0
41
1
10
16.4256337148352
20
0.296013972702696
30
0
41
1
10
16.3188602125349
20
0.346685813200224
30
0
41
1
10
16.2472630104125
20
0.378229539620946
30
0
41
1
10
16.1572406945143
20
0.414805032394156
30
0
41
1
10
16.1391968402539
20
0.421964629248208
30
0
41
1
10
16.1032090142382
20
0.435863701507287
30
0
41
1
10
16.0852395819757
20
0.442611757386004
30
0
41
1
10
16.0314148002171
20
0.462275018905245
30
0
41
1
10
15.9956573007336
20
0.474628170328572
30
0
41
1
10
15.9243763599253
20
0.497797681911408
30
0
41
1
10
15.8888190037072
20
0.508570821706513
30
0
41
1
10
15.8176307978744
20
0.528292709370049
30
0
41
1
10
15.7820356401925
20
0.537282880987419
30
0
41
1
10
15.7109105314956
20
0.553574882476028
30
0
41
1
10
15.6753539397242
20
0.560849431126542
30
0
41
1
10
15.6040659588677
20
0.573529081747267
30
0
41
1
10
15.5683473814586
20
0.5789491528067
30
0
41
1
10
15.4968338612338
20
0.587951449086091
30
0
41
1
10
15.461040537785
20
0.591523859101841
30
0
41
1
10
15.4070763636779
20
0.59538550075186
30
0
41
1
10
15.3890173584094
20
0.59642479041392
30
0
41
1
10
15.3529828165386
20
0.598002901328044
30
0
41
1
10
15.3349949104401
20
0.598543392113356
30
0
41
1
10
15.3061989814233
20
0.599016329733558
30
0
41
1
10
15.2953698854392
20
0.599104381801567
30
0
41
1
10
15.2845520969766
20
0.59910278286975
30
0
0
SPLINE
5
C3
100
AcDbEntity
8
1
62
256
6
ByLayer
370
18
48
1
60
0
100
AcDbSpline
70
4
71
3
72
96
73
92
40
0
40
0
40
0
40
0
40
0.0201656306580162
40
0.0201656306580162
40
0.0442295433144365
40
0.0442295433144365
40
0.0682934559708567
40
0.0682934559708567
40
0.0923573686272771
40
0.0923573686272771
40
0.116421281283697
40
0.116421281283697
40
0.128453237611907
40
0.128453237611907
40
0.140485193940118
40
0.140485193940118
40
0.164549106596538
40
0.164549106596538
40
0.188613019252958
40
0.188613019252958
40
0.212676931909379
40
0.212676931909379
40
0.236740844565799
40
0.236740844565799
40
0.260804757222219
40
0.260804757222219
40
0.284868669878639
40
0.284868669878639
40
0.296900626206849
40
0.296900626206849
40
0.30893258253506
40
0.30893258253506
40
0.33299649519148
40
0.33299649519148
40
0.3570604078479
40
0.3570604078479
40
0.38112432050432
40
0.38112432050432
40
0.405188233160739
40
0.405188233160739
40
0.429252145817157
40
0.429252145817157
40
0.453316058473575
40
0.453316058473575
40
0.477379971129994
40
0.477379971129994
40
0.501443883786412
40
0.501443883786412
40
0.525507796442831
40
0.525507796442831
40
0.573635621755666
40
0.573635621755666
40
0.597699534412084
40
0.597699534412084
40
0.621763447068501
40
0.621763447068501
40
0.645827359724918
40
0.645827359724918
40
0.669891272381336
40
0.669891272381336
40
0.693955185037754
40
0.693955185037754
40
0.718019097694171
40
0.718019097694171
40
0.742083010350589
40
0.742083010350589
40
0.766146923007006
40
0.766146923007006
40
0.790210835663424
40
0.790210835663424
40
0.814274748319841
40
0.814274748319841
40
0.826306704648051
40
0.826306704648051
40
0.838338660976261
40
0.838338660976261
40
0.862402573632678
40
0.862402573632678
40
0.886466486289096
40
0.886466486289096
40
0.910530398945513
40
0.910530398945513
40
0.934594311601931
40
0.934594311601931
40
0.958658224258348
40
0.958658224258348
40
0.982722136914766
40
0.982722136914766
40
0.994754093242974
40
0.994754093242974
40
1
40
1
40
1
40
1
41
1
10
12.9408521511472
20
-0.334876084405209
30
0
41
1
10
12.9109089412425
20
-0.348592507813407
30
0
41
1
10
12.8810246774018
20
-0.361900870085037
30
0
41
1
10
12.8154957665
20
-0.390041030090202
30
0
41
1
10
12.779870923352
20
-0.40469939811257
30
0
41
1
10
12.708748294584
20
-0.432804213719891
30
0
41
1
10
12.6732442846132
20
-0.446234570405096
30
0
41
1
10
12.6020593792007
20
-0.471484094815509
30
0
41
1
10
12.5663716635199
20
-0.483303843555973
30
0
41
1
10
12.4949132747388
20
-0.505453913744816
30
0
41
1
10
12.4591514246868
20
-0.515786428519334
30
0
41
1
10
12.4052980718571
20
-0.529990131348569
30
0
41
1
10
12.3873104299751
20
-0.534508431957022
30
0
41
1
10
12.3512620129765
20
-0.543110901451882
30
0
41
1
10
12.3331888818727
20
-0.547198711668756
30
0
41
1
10
12.2791581145895
20
-0.558758820321401
30
0
41
1
10
12.2433293477409
20
-0.565562992965852
30
0
41
1
10
12.1718370826444
20
-0.577232767032996
30
0
41
1
10
12.1361309186976
20
-0.582081554783372
30
0
41
1
10
12.0647922778776
20
-0.589865135849266
30
0
41
1
10
12.0291989422537
20
-0.59281088766636
30
0
41
1
10
11.9580492328828
20
-0.596770695178662
30
0
41
1
10
11.9224613861413
20
-0.597780880774081
30
0
41
1
10
11.8512116158812
20
-0.597872184593882
30
0
41
1
10
11.8155823314665
20
-0.59695356656897
30
0
41
1
10
11.7442650463155
20
-0.593140788239936
30
0
41
1
10
11.7085382750784
20
-0.590248597173286
30
0
41
1
10
11.6546941723593
20
-0.584475901758566
30
0
41
1
10
11.636711784409
20
-0.582311033412225
30
0
41
1
10
11.600690850614
20
-0.577490356636559
30
0
41
1
10
11.5826306089116
20
-0.574828897275182
30
0
41
1
10
11.5285658439101
20
-0.56613185686615
30
0
41
1
10
11.4926708068413
20
-0.559396502583212
30
0
41
1
10
11.4210052265834
20
-0.54420761075886
30
0
41
1
10
11.3852531891193
20
-0.535746565528626
30
0
41
1
10
11.3139774013926
20
-0.517038456659151
30
0
41
1
10
11.2784437460861
20
-0.506791112969438
30
0
41
1
10
11.2072894902464
20
-0.484807878282766
30
0
41
1
10
11.1716690997833
20
-0.473081598354042
30
0
41
1
10
11.1004470492686
20
-0.448053799865988
30
0
41
1
10
11.0648502673332
20
-0.43473870910924
30
0
41
1
10
10.9934713520236
20
-0.406758660018397
30
0
41
1
10
10.9576800166607
20
-0.392112818280367
30
0
41
1
10
10.885952433081
20
-0.36140710187783
30
0
41
1
10
10.850023642514
20
-0.345291107512935
30
0
41
1
10
10.7779219598375
20
-0.311893094720176
30
0
41
1
10
10.7419608250996
20
-0.294800915952493
30
0
41
1
10
10.6702235997035
20
-0.259839362013707
30
0
41
1
10
10.6344854922619
20
-0.241904620506574
30
0
41
1
10
10.5274666662704
20
-0.187077116338315
30
0
41
1
10
10.4562404905989
20
-0.14941597363034
30
0
41
1
10
10.3495746140304
20
-0.0912673177820693
30
0
41
1
10
10.3139958002136
20
-0.0717007676016408
30
0
41
1
10
10.2426049999866
20
-0.0325480568155001
30
0
41
1
10
10.206835526204
20
-0.0128842408785204
30
0
41
1
10
10.1351736965604
20
0.0266750754685177
30
0
41
1
10
10.0992482488194
20
0.0465088739094881
30
0
41
1
10
10.0270477778834
20
0.0859806527764135
30
0
41
1
10
9.99099923523056
20
0.105545825803659
30
0
41
1
10
9.91930755299126
20
0.144321236149352
30
0
41
1
10
9.88361230974138
20
0.163522886339848
30
0
41
1
10
9.81222743062523
20
0.201031412520138
30
0
41
1
10
9.77654515187459
20
0.219357110167351
30
0
41
1
10
9.7053057766889
20
0.255345403182133
30
0
41
1
10
9.66974880508604
20
0.273003740173124
30
0
41
1
10
9.59854474584759
20
0.307289973379398
30
0
41
1
10
9.56289102580789
20
0.32391104883277
30
0
41
1
10
9.49154695775164
20
0.356209617288215
30
0
41
1
10
9.45588164443382
20
0.371921252089521
30
0
41
1
10
9.38432310102954
20
0.402086523474992
30
0
41
1
10
9.34839082264946
20
0.416487401044293
30
0
41
1
10
9.29428065536911
20
0.437090166815096
30
0
41
1
10
9.27620527336327
20
0.443798837550105
30
0
41
1
10
9.24018597592703
20
0.456823629639359
30
0
41
1
10
9.22221528659784
20
0.46314416500968
30
0
41
1
10
9.16837759285886
20
0.481483811549339
30
0
41
1
10
9.13256785725159
20
0.492863486380003
30
0
41
1
10
9.06108741486796
20
0.51394581510948
30
0
41
1
10
9.02545059953633
20
0.523680786580854
30
0
41
1
10
8.95429879817615
20
0.541442341256868
30
0
41
1
10
8.91874180917802
20
0.549431588559315
30
0
41
1
10
8.84750327287989
20
0.563540345500741
30
0
41
1
10
8.81186550755569
20
0.569694091827955
30
0
41
1
10
8.74056638147479
20
0.58018479975371
30
0
41
1
10
8.70487063322489
20
0.584499874633821
30
0
41
1
10
8.63323629857084
20
0.591201037709027
30
0
41
1
10
8.59732033569526
20
0.593600674647718
30
0
41
1
10
8.54333511955977
20
0.595736438762344
30
0
41
1
10
8.52529264940506
20
0.596202360938236
30
0
41
1
10
8.49943232101191
20
0.596509363153444
30
0
41
1
10
8.49158660499839
20
0.596554820909574
30
0
41
1
10
8.48374535539241
20
0.596552984327445
30
0
0
SPLINE
5
C4
100
AcDbEntity
8
1
62
256
6
ByLayer
370
18
48
1
60
0
100
AcDbSpline
70
4
71
3
72
46
73
42
40
0
40
0
40
0
40
0
40
0.0221962897407359
40
0.0221962897407359
40
0.0710864752537002
40
0.0710864752537002
40
0.119976660766664
40
0.119976660766664
40
0.168866846279629
40
0.168866846279629
40
0.217757031792592
40
0.217757031792592
40
0.266647217305556
40
0.266647217305556
40
0.315537402818521
40
0.315537402818521
40
0.364427588331485
40
0.364427588331485
40
0.413317773844449
40
0.413317773844449
40
0.462207959357412
40
0.462207959357412
40
0.511098144870377
40
0.511098144870377
40
0.559988330383341
40
0.559988330383341
40
0.608878515896305
40
0.608878515896305
40
0.706658886922229
40
0.706658886922229
40
0.755549072435191
40
0.755549072435191
40
0.804439257948153
40
0.804439257948153
40
0.853329443461115
40
0.853329443461115
40
0.902219628974076
40
0.902219628974076
40
0.951109814487039
40
0.951109814487039
40
1
40
1
40
1
40
1
41
1
10
6.14098090041742
20
-0.333094931442588
30
0
41
1
10
6.12468378966028
20
-0.340534967534865
30
0
41
1
10
6.10840237452257
20
-0.347840014627138
30
0
41
1
10
6.05629120222784
20
-0.370782869793686
30
0
41
1
10
6.02054518775265
20
-0.385947425229432
30
0
41
1
10
5.94921367198609
20
-0.415011650361493
30
0
41
1
10
5.91359265163157
20
-0.428859960050858
30
0
41
1
10
5.84231937873321
20
-0.45505144089293
30
0
41
1
10
5.80669369354027
20
-0.467431204084647
30
0
41
1
10
5.73549619125814
20
-0.49077068306849
30
0
41
1
10
5.6998999023786
20
-0.501696046658992
30
0
41
1
10
5.62843340165
20
-0.521772638813189
30
0
41
1
10
5.59258703040413
20
-0.530955781228045
30
0
41
1
10
5.52076018779277
20
-0.547671822371569
30
0
41
1
10
5.48471018363531
20
-0.555193124454803
30
0
41
1
10
5.41248184626053
20
-0.568316360754579
30
0
41
1
10
5.37639996435496
20
-0.57391512580071
30
0
41
1
10
5.3043810971397
20
-0.583235375472412
30
0
41
1
10
5.26845868691362
20
-0.586952094114366
30
0
41
1
10
5.19649959537333
20
-0.592388687624293
30
0
41
1
10
5.16043463404287
20
-0.594112712240388
30
0
41
1
10
5.0882224449887
20
-0.595601438199964
30
0
41
1
10
5.0521027678345
20
-0.595353846738703
30
0
41
1
10
4.98020724205983
20
-0.592890352830125
30
0
41
1
10
4.94433867583106
20
-0.590686535862204
30
0
41
1
10
4.87278213005288
20
-0.584370932734828
30
0
41
1
10
4.83712745867649
20
-0.580243502582988
30
0
41
1
10
4.73029566311885
20
-0.565024253963628
30
0
41
1
10
4.65901637339013
20
-0.551252767553109
30
0
41
1
10
4.55200510324289
20
-0.525209425732726
30
0
41
1
10
4.51627655358556
20
-0.515656470495941
30
0
41
1
10
4.44460677615388
20
-0.494892648763539
30
0
41
1
10
4.40869328673389
20
-0.483657270902711
30
0
41
1
10
4.336711832768
20
-0.459411073296906
30
0
41
1
10
4.30059268655819
20
-0.446410761723342
30
0
41
1
10
4.22848776658742
20
-0.419181298680996
30
0
41
1
10
4.19245048352215
20
-0.404909303043638
30
0
41
1
10
4.12036140184068
20
-0.375133744418719
30
0
41
1
10
4.08430381197653
20
-0.35963955016976
30
0
41
1
10
4.01218982112417
20
-0.327392232447011
30
0
41
1
10
3.97613426303352
20
-0.310640190694158
30
0
41
1
10
3.94014673136479
20
-0.293118218180439
30
0
0
SPLINE
5
C5
100
AcDbEntity
8
1
62
256
6
ByLayer
370
18
48
1
60
0
100
AcDbSpline
70
4
71
3
72
68
73
64
40
0
40
0
40
0
40
0
40
0.0329272263723238
40
0.0329272263723238
40
0.0658544527446477
40
0.0658544527446477
40
0.0987816791169715
40
0.0987816791169715
40
0.131708905489295
40
0.131708905489295
40
0.164636131861619
40
0.164636131861619
40
0.197563358233943
40
0.197563358233943
40
0.230490584606267
40
0.230490584606267
40
0.263417810978591
40
0.263417810978591
40
0.296345037350915
40
0.296345037350915
40
0.329272263723238
40
0.329272263723238
40
0.362199490095562
40
0.362199490095562
40
0.395126716467886
40
0.395126716467886
40
0.42805394284021
40
0.42805394284021
40
0.460981169212534
40
0.460981169212534
40
0.493908395584858
40
0.493908395584858
40
0.526835621957181
40
0.526835621957181
40
0.559762848329505
40
0.559762848329505
40
0.592690074701829
40
0.592690074701829
40
0.625617301074153
40
0.625617301074153
40
0.658544527446477
40
0.658544527446477
40
0.691471753818801
40
0.691471753818801
40
0.724398980191124
40
0.724398980191124
40
0.757326206563448
40
0.757326206563448
40
0.790253432935772
40
0.790253432935772
40
0.823180659308096
40
0.823180659308096
40
0.85610788568042
40
0.85610788568042
40
0.889035112052743
40
0.889035112052743
40
0.921962338425067
40
0.921962338425067
40
0.954889564797391
40
0.954889564797391
40
0.987816791169715
40
0.987816791169715
40
1
40
1
40
1
40
1
41
1
10
3.94014673136476
20
0.590057027561301
30
0
41
1
10
3.97592524401105
20
0.587479779267852
30
0
41
1
10
4.01180118011524
20
0.583937791571316
30
0
41
1
10
4.08359270876468
20
0.575107549365782
30
0
41
1
10
4.11950610766212
20
0.569818897124009
30
0
41
1
10
4.19113572620856
20
0.557434127891668
30
0
41
1
10
4.22683596078289
20
0.5503217654894
30
0
41
1
10
4.29800342404317
20
0.534189746663429
30
0
41
1
10
4.33344944453813
20
0.52514536051126
30
0
41
1
10
4.40437752816962
20
0.505303668295966
30
0
41
1
10
4.43987835652661
20
0.494524555102288
30
0
41
1
10
4.51123377952536
20
0.471586999408089
30
0
41
1
10
4.54712322747736
20
0.459478488558744
30
0
41
1
10
4.61918144779401
20
0.433885727690125
30
0
41
1
10
4.65531508062116
20
0.420325808782849
30
0
41
1
10
4.72754978282128
20
0.391448441480719
30
0
41
1
10
4.76341156934024
20
0.376229961044317
30
0
41
1
10
4.83478876099198
20
0.344449930311612
30
0
41
1
10
4.87033170761578
20
0.327927970564844
30
0
41
1
10
4.94148541048313
20
0.29420177688192
30
0
41
1
10
4.97710461106206
20
0.277013858613714
30
0
41
1
10
5.04856351206706
20
0.242264941457535
30
0
41
1
10
5.08435297620042
20
0.224625329214575
30
0
41
1
10
5.15574206467977
20
0.188281032116976
30
0
41
1
10
5.19136576420183
20
0.169614081329485
30
0
41
1
10
5.26251962545663
20
0.131328164236635
30
0
41
1
10
5.29806201883551
20
0.111727164442215
30
0
41
1
10
5.36945741781818
20
0.0722896937011228
30
0
41
1
10
5.40531234699029
20
0.0524583077081502
30
0
41
1
10
5.47757970274998
20
0.0130669131459058
30
0
41
1
10
5.51382096906192
20
-0.0063693015022181
30
0
41
1
10
5.58608784361743
20
-0.045349611359768
30
0
41
1
10
5.6221069925773
20
-0.0649327056672746
30
0
41
1
10
5.69394255614452
20
-0.104225561804697
30
0
41
1
10
5.72973783460975
20
-0.123972373980223
30
0
41
1
10
5.8014368042254
20
-0.16302138401835
30
0
41
1
10
5.83741814689233
20
-0.182321751861991
30
0
41
1
10
5.90927753748636
20
-0.219626615731499
30
0
41
1
10
5.94524462337563
20
-0.237596506474858
30
0
41
1
10
6.01707605125299
20
-0.272570619747114
30
0
41
1
10
6.0528894576004
20
-0.289660289149339
30
0
41
1
10
6.12420389894442
20
-0.32318872005402
30
0
41
1
10
6.15970415901773
20
-0.339623342002596
30
0
41
1
10
6.23057964706535
20
-0.371486553120548
30
0
41
1
10
6.26598165323293
20
-0.38687236473433
30
0
41
1
10
6.33705528272347
20
-0.416079059413733
30
0
41
1
10
6.37273918393083
20
-0.42988748752245
30
0
41
1
10
6.44449335117153
20
-0.455856322748588
30
0
41
1
10
6.48050979515736
20
-0.468092304370543
30
0
41
1
10
6.55254174673124
20
-0.49136818839969
30
0
41
1
10
6.58864589144457
20
-0.502389779769061
30
0
41
1
10
6.66044186061339
20
-0.522835414035711
30
0
41
1
10
6.69619548377432
20
-0.532249462039147
30
0
41
1
10
6.76781257518491
20
-0.549119406726419
30
0
41
1
10
6.80367461852845
20
-0.556580431603152
30
0
41
1
10
6.87576327963251
20
-0.569484884677649
30
0
41
1
10
6.91198329452311
20
-0.574949469565411
30
0
41
1
10
6.98440706920417
20
-0.584112102417407
30
0
41
1
10
7.0204209473728
20
-0.587778357511723
30
0
41
1
10
7.0920070901835
20
-0.593191250418272
30
0
41
1
10
7.12757356453918
20
-0.594934108465566
30
0
41
1
10
7.17622954359902
20
-0.595939429450311
30
0
41
1
10
7.18936517182016
20
-0.596073062655677
30
0
41
1
10
7.20250264622854
20
-0.596071442658172
30
0
0
SPLINE
5
C6
100
AcDbEntity
8
1
62
256
6
ByLayer
370
18
48
1
60
0
100
AcDbSpline
70
4
71
3
72
92
73
88
40
0
40
0
40
0
40
0
40
0.0201549296110666
40
0.0201549296110666
40
0.0442061083399003
40
0.0442061083399003
40
0.0682572870687341
40
0.0682572870687341
40
0.0923084657975679
40
0.0923084657975679
40
0.116359644526402
40
0.116359644526402
40
0.140410823255235
40
0.140410823255235
40
0.164462001984069
40
0.164462001984069
40
0.188513180712903
40
0.188513180712903
40
0.212564359441737
40
0.212564359441737
40
0.236615538170571
40
0.236615538170571
40
0.260666716899404
40
0.260666716899404
40
0.284717895628238
40
0.284717895628238
40
0.308769074357072
40
0.308769074357072
40
0.332820253085906
40
0.332820253085906
40
0.35687143181474
40
0.35687143181474
40
0.380922610543573
40
0.380922610543573
40
0.404973789272407
40
0.404973789272407
40
0.429024968001241
40
0.429024968001241
40
0.453076146730075
40
0.453076146730075
40
0.477127325458909
40
0.477127325458909
40
0.501178504187742
40
0.501178504187742
40
0.513204093552159
40
0.513204093552159
40
0.525229682916576
40
0.525229682916576
40
0.549280861645407
40
0.549280861645407
40
0.573332040374237
40
0.573332040374237
40
0.597383219103067
40
0.597383219103067
40
0.621434397831898
40
0.621434397831898
40
0.645485576560728
40
0.645485576560728
40
0.669536755289558
40
0.669536755289558
40
0.693587934018389
40
0.693587934018389
40
0.717639112747219
40
0.717639112747219
40
0.741690291476049
40
0.741690291476049
40
0.76574147020488
40
0.76574147020488
40
0.78979264893371
40
0.78979264893371
40
0.81384382766254
40
0.81384382766254
40
0.837895006391371
40
0.837895006391371
40
0.861946185120201
40
0.861946185120201
40
0.885997363849032
40
0.885997363849032
40
0.910048542577862
40
0.910048542577862
40
0.934099721306692
40
0.934099721306692
40
0.958150900035523
40
0.958150900035523
40
0.982202078764353
40
0.982202078764353
40
1
40
1
40
1
40
1
41
1
10
9.53978603173545
20
0.332074195415032
30
0
41
1
10
9.56980655132355
20
0.346001891252371
30
0
41
1
10
9.59999120137016
20
0.359491897234875
30
0
41
1
10
9.66638045874143
20
0.387774649921539
30
0
41
1
10
9.70256883741911
20
0.402355371840969
30
0
41
1
10
9.77471853783669
20
0.430425042060193
30
0
41
1
10
9.8106855888052
20
0.443897734965162
30
0
41
1
10
9.8824419602241
20
0.469593177738148
30
0
41
1
10
9.91822085348198
20
0.481820472828133
30
0
41
1
10
9.98996541749631
20
0.504558698818641
30
0
41
1
10
10.02588170019
20
0.515038018359178
30
0
41
1
10
10.097620060392
20
0.53393446607987
30
0
41
1
10
10.133543355639
20
0.542356910713323
30
0
41
1
10
10.2052210430856
20
0.557486679291458
30
0
41
1
10
10.2409375145139
20
0.564213828002522
30
0
41
1
10
10.3120906769343
20
0.575940842302487
30
0
41
1
10
10.3475129619274
20
0.580940011971364
30
0
41
1
10
10.4183111094567
20
0.589005116942587
30
0
41
1
10
10.4537111059372
20
0.59206021602273
30
0
41
1
10
10.5248324057216
20
0.59616789849764
30
0
41
1
10
10.5605791866501
20
0.597225674299864
30
0
41
1
10
10.6324229070933
20
0.597449687382692
30
0
41
1
10
10.6684613585131
20
0.596623024930835
30
0
41
1
10
10.7405614726101
20
0.592987019344974
30
0
41
1
10
10.7765868485175
20
0.590169154761441
30
0
41
1
10
10.8482386477334
20
0.582493921251398
30
0
41
1
10
10.8839561005658
20
0.577635086985964
30
0
41
1
10
10.9555586709151
20
0.566057573081196
30
0
41
1
10
10.9914434027638
20
0.559343648852774
30
0
41
1
10
11.0635932317642
20
0.544308410198113
30
0
41
1
10
11.0998902162446
20
0.535959529316358
30
0
41
1
10
11.1720593975155
20
0.517441818150104
30
0
41
1
10
11.2079282123488
20
0.507284614687023
30
0
41
1
10
11.2792660974671
20
0.48515154231643
30
0
41
1
10
11.3147326575466
20
0.473165641388249
30
0
41
1
10
11.3856391035211
20
0.447766273843968
30
0
41
1
10
11.4210871428666
20
0.434365263132236
30
0
41
1
10
11.4922329866385
20
0.406559891930158
30
0
41
1
10
11.5279632984193
20
0.392209753984105
30
0
41
1
10
11.5994315575448
20
0.362242600135915
30
0
41
1
10
11.6351355065915
20
0.346571041528506
30
0
41
1
10
11.7064660526271
20
0.31375205976596
30
0
41
1
10
11.7420766064633
20
0.296573282192668
30
0
41
1
10
11.7956221255031
20
0.269933846165117
30
0
41
1
10
11.8134957593438
20
0.260915388724698
30
0
41
1
10
11.8493410797639
20
0.242682480603406
30
0
41
1
10
11.8673315774688
20
0.233456807132285
30
0
41
1
10
11.92122659009
20
0.205712667032145
30
0
41
1
10
11.9571594110996
20
0.187161128444245
30
0
41
1
10
12.0289843473342
20
0.149872076822959
30
0
41
1
10
12.0648192650608
20
0.13103032165202
30
0
41
1
10
12.1361428099615
20
0.0926000386099304
30
0
41
1
10
12.1716457032001
20
0.0730371671012904
30
0
41
1
10
12.2424527634132
20
0.0334297205826601
30
0
41
1
10
12.2777833362554
20
0.0134334888261662
30
0
41
1
10
12.3486676213013
20
-0.0262596015511747
30
0
41
1
10
12.3842211405839
20
-0.0459565211976667
30
0
41
1
10
12.4557469052754
20
-0.0846795548670514
30
0
41
1
10
12.4916820106076
20
-0.103774110452434
30
0
41
1
10
12.5635603189322
20
-0.142061098222939
30
0
41
1
10
12.5995762395936
20
-0.161254739322402
30
0
41
1
10
12.671445943038
20
-0.199462349925881
30
0
41
1
10
12.7071305948177
20
-0.218383156668807
30
0
41
1
10
12.7783735210969
20
-0.255184948377234
30
0
41
1
10
12.8139393222206
20
-0.273055507996332
30
0
41
1
10
12.8852211667455
20
-0.307371934876471
30
0
41
1
10
12.920967787624
20
-0.323778398332593
30
0
41
1
10
12.9923621799462
20
-0.355624936947464
30
0
41
1
10
13.0279778831903
20
-0.371108266662077
30
0
41
1
10
13.0990339065144
20
-0.401156267372727
30
0
41
1
10
13.1344566357324
20
-0.415740341634717
30
0
41
1
10
13.2053796610562
20
-0.443578959208253
30
0
41
1
10
13.2409026239355
20
-0.456803373897998
30
0
41
1
10
13.3123815665944
20
-0.481498273856488
30
0
41
1
10
13.3483677103431
20
-0.492940985884417
30
0
41
1
10
13.420761573875
20
-0.514145005661447
30
0
41
1
10
13.4569015174728
20
-0.523909666580153
30
0
41
1
10
13.5288700003593
20
-0.541903905684762
30
0
41
1
10
13.5647123848967
20
-0.55011304384476
30
0
41
1
10
13.6362456235609
20
-0.56476200876287
30
0
41
1
10
13.6719646075393
20
-0.57117633657748
30
0
41
1
10
13.7436851677598
20
-0.581972547584257
30
0
41
1
10
13.7797406539227
20
-0.58635995310047
30
0
41
1
10
13.8517662649397
20
-0.593095879685137
30
0
41
1
10
13.8877539566358
20
-0.595485607393442
30
0
41
1
10
13.9500477784207
20
-0.598027667229019
30
0
41
1
10
13.9764490134419
20
-0.598592427557179
30
0
41
1
10
14.0027655680075
20
-0.59862227223752
30
0
0
SPLINE
5
C7
100
AcDbEntity
8
1
62
256
6
ByLayer
370
18
48
1
60
0
100
AcDbSpline
70
4
71
3
72
30
73
26
40
0
40
0
40
0
40
0
40
0.0345937462515361
40
0.0345937462515361
40
0.115044267397242
40
0.115044267397242
40
0.19549478854295
40
0.19549478854295
40
0.275945309688656
40
0.275945309688656
40
0.356395830834362
40
0.356395830834362
40
0.43684635198007
40
0.43684635198007
40
0.517296873125776
40
0.517296873125776
40
0.597747394271482
40
0.597747394271482
40
0.67819791541719
40
0.67819791541719
40
0.839098957708601
40
0.839098957708601
40
0.919549478854302
40
0.919549478854302
40
1
40
1
40
1
40
1
41
1
10
16.3409467816852
20
0.33271032166337
30
0
41
1
10
16.3563369209461
20
0.339858944962771
30
0
41
1
10
16.3717325890916
20
0.346942040215168
30
0
41
1
10
16.4229715567549
20
0.37023982605777
30
0
41
1
10
16.4587923154419
20
0.386016542680835
30
0
41
1
10
16.5304388947884
20
0.415881033547095
30
0
41
1
10
16.5663233974008
20
0.429989405147978
30
0
41
1
10
16.6383721458786
20
0.45645141067962
30
0
41
1
10
16.6744868856265
20
0.46887605386226
30
0
41
1
10
16.746571193098
20
0.492472179392223
30
0
41
1
10
16.7826357343156
20
0.50362908888971
30
0
41
1
10
16.8542631052108
20
0.524340409667445
30
0
41
1
10
16.8898487053324
20
0.533880694181534
30
0
41
1
10
16.9609489058086
20
0.550997928872533
30
0
41
1
10
16.9964661426945
20
0.558577394906933
30
0
41
1
10
17.0676923821791
20
0.571724892277643
30
0
41
1
10
17.1034174351031
20
0.577300292483443
30
0
41
1
10
17.1747484658988
20
0.586698589898958
30
0
41
1
10
17.2103330759807
20
0.59052064179042
30
0
41
1
10
17.316867985254
20
0.599198773353294
30
0
41
1
10
17.3875133747193
20
0.601160144930361
30
0
41
1
10
17.4949194919309
20
0.598028524530321
30
0
41
1
10
17.5310429837611
20
0.59600817535383
30
0
41
1
10
17.6033634740494
20
0.590094699933701
30
0
41
1
10
17.6394976870213
20
0.586189862069318
30
0
41
1
10
17.6755352656868
20
0.581273900360316
30
0
0
SPLINE
5
C8
100
AcDbEntity
8
1
62
256
6
ByLayer
370
18
48
1
60
0
100
AcDbSpline
70
4
71
3
72
92
73
88
40
0
40
0
40
0
40
0
40
0.0369568259728469
40
0.0369568259728469
40
0.0489870463845468
40
0.0489870463845468
40
0.0610172667962467
40
0.0610172667962467
40
0.085077707619643
40
0.085077707619643
40
0.109138148443039
40
0.109138148443039
40
0.133198589266435
40
0.133198589266435
40
0.157259030089832
40
0.157259030089832
40
0.181319470913228
40
0.181319470913228
40
0.205379911736624
40
0.205379911736624
40
0.217410132148321
40
0.217410132148321
40
0.229440352560017
40
0.229440352560017
40
0.25350079338341
40
0.25350079338341
40
0.277561234206802
40
0.277561234206802
40
0.301621675030195
40
0.301621675030195
40
0.325682115853588
40
0.325682115853588
40
0.373802997500377
40
0.373802997500377
40
0.397863438323769
40
0.397863438323769
40
0.421923879147162
40
0.421923879147162
40
0.445984319970555
40
0.445984319970555
40
0.470044760793948
40
0.470044760793948
40
0.49410520161734
40
0.49410520161734
40
0.518165642440733
40
0.518165642440733
40
0.542226083264126
40
0.542226083264126
40
0.566286524087519
40
0.566286524087519
40
0.590346964910911
40
0.590346964910911
40
0.614407405734304
40
0.614407405734304
40
0.638467846557697
40
0.638467846557697
40
0.66252828738109
40
0.66252828738109
40
0.710649169027871
40
0.710649169027871
40
0.734709609851262
40
0.734709609851262
40
0.758770050674653
40
0.758770050674653
40
0.782830491498044
40
0.782830491498044
40
0.806890932321435
40
0.806890932321435
40
0.830951373144826
40
0.830951373144826
40
0.855011813968217
40
0.855011813968217
40
0.879072254791608
40
0.879072254791608
40
0.891102475203303
40
0.891102475203303
40
0.903132695614999
40
0.903132695614999
40
0.927193136438389
40
0.927193136438389
40
0.951253577261781
40
0.951253577261781
40
0.975314018085171
40
0.975314018085171
40
0.999374458908562
40
0.999374458908562
40
1
40
1
40
1
40
1
41
1
10
16.3404325311374
20
-0.336054476914001
30
0
41
1
10
16.2856164364819
20
-0.361199218536029
30
0
41
1
10
16.2305548519218
20
-0.385017957848504
30
0
41
1
10
16.1572406945143
20
-0.414805032394156
30
0
41
1
10
16.1391968402539
20
-0.421964629248208
30
0
41
1
10
16.1032090142383
20
-0.435863701507287
30
0
41
1
10
16.0852395819757
20
-0.442611757386004
30
0
41
1
10
16.0314148002171
20
-0.462275018905245
30
0
41
1
10
15.9956573007336
20
-0.474628170328572
30
0
41
1
10
15.9243763599253
20
-0.497797681911408
30
0
41
1
10
15.8888190037072
20
-0.508570821706513
30
0
41
1
10
15.8176307978744
20
-0.528292709370049
30
0
41
1
10
15.7820356401925
20
-0.537282880987419
30
0
41
1
10
15.7109105314956
20
-0.553574882476028
30
0
41
1
10
15.6753539397242
20
-0.56084943112657
30
0
41
1
10
15.6040659588677
20
-0.573529081747267
30
0
41
1
10
15.5683473814586
20
-0.5789491528067
30
0
41
1
10
15.4968338612338
20
-0.587951449086091
30
0
41
1
10
15.461040537785
20
-0.591523859101841
30
0
41
1
10
15.4070763636779
20
-0.59538550075186
30
0
41
1
10
15.3890173584094
20
-0.59642479041392
30
0
41
1
10
15.3529828165386
20
-0.598002901328044
30
0
41
1
10
15.33499491044
20
-0.598543392113356
30
0
41
1
10
15.2811369557846
20
-0.599427942595838
30
0
41
1
10
15.2453871481134
20
-0.599030433454516
30
0
41
1
10
15.1739898321584
20
-0.596288908697943
30
0
41
1
10
15.1383270748924
20
-0.593954563666301
30
0
41
1
10
15.0671173706999
20
-0.587373017412688
30
0
41
1
10
15.0316013898285
20
-0.583109219444765
30
0
41
1
10
14.9605544117395
20
-0.572687331461395
30
0
41
1
10
14.9249793399204
20
-0.566555176654845
30
0
41
1
10
14.8180427524777
20
-0.545469702512662
30
0
41
1
10
14.7466637173654
20
-0.527669590431259
30
0
41
1
10
14.6386783565305
20
-0.495849716300711
30
0
41
1
10
14.6025428835261
20
-0.48433919046488
30
0
41
1
10
14.5307892157782
20
-0.45977986340921
30
0
41
1
10
14.4950414080785
20
-0.446743717522452
30
0
41
1
10
14.4235750388544
20
-0.419480603750714
30
0
41
1
10
14.3878940891329
20
-0.405209926935242
30
0
41
1
10
14.3166956460995
20
-0.375315657839764
30
0
41
1
10
14.2811493594956
20
-0.359728268279753
30
0
41
1
10
14.2099802702511
20
-0.327548938109288
30
0
41
1
10
14.1743721758875
20
-0.310939272475196
30
0
41
1
10
14.1031831381577
20
-0.276548915349196
30
0
41
1
10
14.0676002136467
20
-0.258764921142301
30
0
41
1
10
13.9961650563639
20
-0.222495066720796
30
0
41
1
10
13.9603008429126
20
-0.204037067317216
30
0
41
1
10
13.8883802382979
20
-0.166287044154103
30
0
41
1
10
13.8522601622169
20
-0.146927495231353
30
0
41
1
10
13.7803609385769
20
-0.108086879861503
30
0
41
1
10
13.7444973716307
20
-0.0885957713585981
30
0
41
1
10
13.6729893310002
20
-0.0493798100158642
30
0
41
1
10
13.6373748709448
20
-0.0295994705538192
30
0
41
1
10
13.5662199419089
20
0.0099227699683695
30
0
41
1
10
13.5306360949798
20
0.0295846692262103
30
0
41
1
10
13.4594368212963
20
0.0686791785994671
30
0
41
1
10
13.4238624580587
20
0.0881871235158087
30
0
41
1
10
13.3170649144104
20
0.14631440647679
30
0
41
1
10
13.2455918019855
20
0.184220835698966
30
0
41
1
10
13.1379533026201
20
0.239763860555257
30
0
41
1
10
13.1018647104858
20
0.258025704677834
30
0
41
1
10
13.029874679266
20
0.29326071236909
30
0
41
1
10
12.9939854939746
20
0.310323030448245
30
0
41
1
10
12.9224632683173
20
0.343429267195717
30
0
41
1
10
12.8868002327117
20
0.35942066633524
30
0
41
1
10
12.8154957665
20
0.390041030090202
30
0
41
1
10
12.779870923352
20
0.40469939811257
30
0
41
1
10
12.708748294584
20
0.432804213719891
30
0
41
1
10
12.6732442846132
20
0.446234570405096
30
0
41
1
10
12.6020593792007
20
0.471484094815509
30
0
41
1
10
12.5663716635199
20
0.483303843555973
30
0
41
1
10
12.4949132747388
20
0.505453913744816
30
0
41
1
10
12.4591514246868
20
0.515786428519334
30
0
41
1
10
12.4052980718572
20
0.529990131348569
30
0
41
1
10
12.3873104299751
20
0.534508431957022
30
0
41
1
10
12.3512620129765
20
0.543110901451882
30
0
41
1
10
12.3331888818727
20
0.547198711668756
30
0
41
1
10
12.2791581145895
20
0.558758820321401
30
0
41
1
10
12.243329347741
20
0.565562992965852
30
0
41
1
10
12.1718370826445
20
0.577232767032996
30
0
41
1
10
12.1361309186976
20
0.582081554783372
30
0
41
1
10
12.0647922778776
20
0.589865135849266
30
0
41
1
10
12.0291989422537
20
0.59281088766636
30
0
41
1
10
11.9580492328828
20
0.596770695178662
30
0
41
1
10
11.9224613861413
20
0.597780880774081
30
0
41
1
10
11.8859102989649
20
0.597827719576003
30
0
41
1
10
11.884984093945
20
0.597828254684856
30
0
41
1
10
11.8840578855127
20
0.597828137597503
30
0
0
SPLINE
5
C9
100
AcDbEntity
8
1
62
256
6
ByLayer
370
18
48
1
60
0
100
AcDbSpline
70
4
71
3
72
98
73
94
40
0
40
0
40
0
40
0
40
0.0027952769682001
40
0.0027952769682001
40
0.0268928214236661
40
0.0268928214236661
40
0.0509903658791321
40
0.0509903658791321
40
0.0630391381068651
40
0.0630391381068651
40
0.0750879103345981
40
0.0750879103345981
40
0.0991854547900624
40
0.0991854547900624
40
0.123282999245527
40
0.123282999245527
40
0.147380543700991
40
0.147380543700991
40
0.171478088156455
40
0.171478088156455
40
0.195575632611919
40
0.195575632611919
40
0.219673177067383
40
0.219673177067383
40
0.231721949295116
40
0.231721949295116
40
0.243770721522849
40
0.243770721522849
40
0.267868265978315
40
0.267868265978315
40
0.291965810433781
40
0.291965810433781
40
0.316063354889247
40
0.316063354889247
40
0.340160899344713
40
0.340160899344713
40
0.364258443800179
40
0.364258443800179
40
0.388355988255645
40
0.388355988255645
40
0.412453532711111
40
0.412453532711111
40
0.436551077166577
40
0.436551077166577
40
0.460648621622043
40
0.460648621622043
40
0.484746166077509
40
0.484746166077509
40
0.508843710532975
40
0.508843710532975
40
0.532941254988441
40
0.532941254988441
40
0.557038799443907
40
0.557038799443907
40
0.581136343899373
40
0.581136343899373
40
0.605233888354839
40
0.605233888354839
40
0.629331432810305
40
0.629331432810305
40
0.653428977265771
40
0.653428977265771
40
0.677526521721237
40
0.677526521721237
40
0.701624066176703
40
0.701624066176703
40
0.725721610632169
40
0.725721610632169
40
0.737770382859902
40
0.737770382859902
40
0.749819155087635
40
0.749819155087635
40
0.773916699543101
40
0.773916699543101
40
0.798014243998566
40
0.798014243998566
40
0.822111788454032
40
0.822111788454032
40
0.846209332909498
40
0.846209332909498
40
0.870306877364964
40
0.870306877364964
40
0.89440442182043
40
0.89440442182043
40
0.918501966275896
40
0.918501966275896
40
0.942599510731362
40
0.942599510731362
40
0.966697055186828
40
0.966697055186828
40
0.990794599642294
40
0.990794599642294
40
1
40
1
40
1
40
1
41
1
10
9.53963189865371
20
-0.334421335747578
30
0
41
1
10
9.53549454418535
20
-0.33630740205561
30
0
41
1
10
9.53135689119571
20
-0.338187041682687
30
0
41
1
10
9.49154695775164
20
-0.356209617288215
30
0
41
1
10
9.45588164443384
20
-0.371921252089521
30
0
41
1
10
9.38432310102957
20
-0.402086523474992
30
0
41
1
10
9.34839082264949
20
-0.416487401044293
30
0
41
1
10
9.29428065536911
20
-0.437090166815096
30
0
41
1
10
9.27620527336327
20
-0.443798837550105
30
0
41
1
10
9.24018597592703
20
-0.456823629639359
30
0
41
1
10
9.22221528659784
20
-0.46314416500968
30
0
41
1
10
9.16837759285886
20
-0.481483811549339
30
0
41
1
10
9.13256785725162
20
-0.492863486380003
30
0
41
1
10
9.06108741486798
20
-0.51394581510948
30
0
41
1
10
9.02545059953633
20
-0.523680786580854
30
0
41
1
10
8.95429879817615
20
-0.541442341256868
30
0
41
1
10
8.91874180917802
20
-0.549431588559315
30
0
41
1
10
8.84750327287989
20
-0.563540345500741
30
0
41
1
10
8.81186550755569
20
-0.569694091827955
30
0
41
1
10
8.74056638147482
20
-0.58018479975371
30
0
41
1
10
8.70487063322489
20
-0.584499874633821
30
0
41
1
10
8.63323629857084
20
-0.591201037709027
30
0
41
1
10
8.59732033569526
20
-0.593600674647718
30
0
41
1
10
8.54333511955977
20
-0.595736438762344
30
0
41
1
10
8.52529264940506
20
-0.596202360938236
30
0
41
1
10
8.48927542432062
20
-0.596629941273591
30
0
41
1
10
8.47129837423827
20
-0.596592517483742
30
0
41
1
10
8.41740640635504
20
-0.595743253004002
30
0
41
1
10
8.38154338309593
20
-0.594200998105748
30
0
41
1
10
8.31004508262993
20
-0.589187713482687
30
0
41
1
10
8.27440411246042
20
-0.585708614578806
30
0
41
1
10
8.20312668524804
20
-0.576892471391375
30
0
41
1
10
8.16748667401635
20
-0.571565185382212
30
0
41
1
10
8.09627658958962
20
-0.559038908553276
30
0
41
1
10
8.06072870358656
20
-0.551817446247554
30
0
41
1
10
7.98949524438694
20
-0.535601482894151
30
0
41
1
10
7.95377314915524
20
-0.526643592363996
30
0
41
1
10
7.88216312720749
20
-0.507001232445958
30
0
41
1
10
7.84630819106573
20
-0.49627967903271
30
0
41
1
10
7.77434018355814
20
-0.473148347973535
30
0
41
1
10
7.73814461516221
20
-0.460750217864529
30
0
41
1
10
7.66617339909209
20
-0.434610423656579
30
0
41
1
10
7.63034684368927
20
-0.420797874013545
30
0
41
1
10
7.55890661963201
20
-0.391826241895501
30
0
41
1
10
7.52324936881814
20
-0.376726972248036
30
0
41
1
10
7.45191821714076
20
-0.345535546434519
30
0
41
1
10
7.41628877904449
20
-0.329379591329911
30
0
41
1
10
7.34509538555704
20
-0.295952782686641
30
0
41
1
10
7.30949669623826
20
-0.278734703854127
30
0
41
1
10
7.23816081399727
20
-0.243513855490846
30
0
41
1
10
7.20244799975248
20
-0.225473218112711
30
0
41
1
10
7.13097644682608
20
-0.188430719347764
30
0
41
1
10
7.09519699775743
20
-0.169459970324084
30
0
41
1
10
7.02326367069003
20
-0.131134007787949
30
0
41
1
10
6.98704045941147
20
-0.111701450487828
30
0
41
1
10
6.91502966766078
20
-0.0725587752060903
30
0
41
1
10
6.87918194827483
20
-0.052845729921188
30
0
41
1
10
6.80758986020308
20
-0.0135353214427028
30
0
41
1
10
6.77184516519648
20
0.0060628370795257
30
0
41
1
10
6.7005330743014
20
0.0452878396876315
30
0
41
1
10
6.66498448261029
20
0.0649481262370841
30
0
41
1
10
6.59383671053462
20
0.103871338214162
30
0
41
1
10
6.55820442940643
20
0.123075013027005
30
0
41
1
10
6.48688479663699
20
0.161083140334029
30
0
41
1
10
6.45122659199524
20
0.17993921670373
30
0
41
1
10
6.37974453385937
20
0.217047255040512
30
0
41
1
10
6.34389572965262
20
0.235255639721487
30
0
41
1
10
6.28996040111966
20
0.262047040186047
30
0
41
1
10
6.27195773778826
20
0.27089549067
30
0
41
1
10
6.23591109743828
20
0.288439065946136
30
0
41
1
10
6.21785578736709
20
0.297136016196475
30
0
41
1
10
6.16385930648693
20
0.322760098928256
30
0
41
1
10
6.12797079730399
20
0.339224674193588
30
0
41
1
10
6.05629120222784
20
0.370782869793686
30
0
41
1
10
6.02054518775267
20
0.385947425229432
30
0
41
1
10
5.94921367198609
20
0.415011650361493
30
0
41
1
10
5.9135926516316
20
0.428859960050858
30
0
41
1
10
5.84231937873321
20
0.45505144089293
30
0
41
1
10
5.80669369354027
20
0.467431204084647
30
0
41
1
10
5.73549619125814
20
0.49077068306849
30
0
41
1
10
5.6998999023786
20
0.501696046658992
30
0
41
1
10
5.62843340165
20
0.521772638813189
30
0
41
1
10
5.59258703040413
20
0.530955781228045
30
0
41
1
10
5.52076018779277
20
0.547671822371569
30
0
41
1
10
5.48471018363534
20
0.555193124454803
30
0
41
1
10
5.41248184626056
20
0.568316360754579
30
0
41
1
10
5.37639996435496
20
0.57391512580071
30
0
41
1
10
5.3043810971397
20
0.583235375472412
30
0
41
1
10
5.26845868691365
20
0.586952094114366
30
0
41
1
10
5.19649959537335
20
0.592388687624293
30
0
41
1
10
5.16043463404287
20
0.594112712240388
30
0
41
1
10
5.11053580407386
20
0.595141426152821
30
0
41
1
10
5.09674108654104
20
0.595281022773747
30
0
41
1
10
5.08295472753105
20
0.595276299839071
30
0
0
SPLINE
5
CA
100
AcDbEntity
8
1
62
256
6
ByLayer
370
18
48
1
60
0
100
AcDbSpline
70
4
71
3
72
46
73
42
40
0
40
0
40
0
40
0
40
0.0842058615047067
40
0.0842058615047067
40
0.171829057096714
40
0.171829057096714
40
0.259452252688721
40
0.259452252688721
40
0.347075448280729
40
0.347075448280729
40
0.434698643872736
40
0.434698643872736
40
0.456604442770739
40
0.456604442770739
40
0.478510241668743
40
0.478510241668743
40
0.500416040566746
40
0.500416040566746
40
0.511368940015751
40
0.511368940015751
40
0.522321839464756
40
0.522321839464756
40
0.54422763836276
40
0.54422763836276
40
0.566133437260763
40
0.566133437260763
40
0.609945035056777
40
0.609945035056777
40
0.697568230648804
40
0.697568230648804
40
0.741379828444821
40
0.741379828444821
40
0.785191426240837
40
0.785191426240837
40
0.829003024036854
40
0.829003024036854
40
0.872814621832871
40
0.872814621832871
40
0.960437817424904
40
0.960437817424904
40
1
40
1
40
1
40
1
41
1
10
2.21820397775275
20
-0.594161895047677
30
0
41
1
10
2.25713809394568
20
-0.593935653405595
30
0
41
1
10
2.29712372209207
20
-0.592709142236572
30
0
41
1
10
2.3800342198156
20
-0.58926283054879
30
0
41
1
10
2.42303038357528
20
-0.586979466652139
30
0
41
1
10
2.51003813251396
20
-0.581903409527371
30
0
41
1
10
2.55411287352433
20
-0.579099860592152
30
0
41
1
10
2.64267737401053
20
-0.573295108314341
30
0
41
1
10
2.68718677495482
20
-0.57028985671954
30
0
41
1
10
2.77658221259628
20
-0.564265534626315
30
0
41
1
10
2.82148870367331
20
-0.561262286212667
30
0
41
1
10
2.87776901214525
20
-0.557529736148183
30
0
41
1
10
2.88902891595618
20
-0.556782035729356
30
0
41
1
10
2.91155187981386
20
-0.555273525024717
30
0
41
1
10
2.92280683285188
20
-0.554489867917113
30
0
41
1
10
2.94538398674075
20
-0.55308869843185
30
0
41
1
10
2.95672746772016
20
-0.552530378429879
30
0
41
1
10
2.97403862326922
20
-0.552524441506904
30
0
41
1
10
2.97985583158743
20
-0.552654073967631
30
0
41
1
10
2.99158433653858
20
-0.553174304546189
30
0
41
1
10
2.99738429703143
20
-0.553560040887447
30
0
41
1
10
3.01458517100997
20
-0.554926661603929
30
0
41
1
10
3.025865118051
20
-0.556076836645047
30
0
41
1
10
3.04847748184682
20
-0.558252900958649
30
0
41
1
10
3.05978440962508
20
-0.559316162185326
30
0
41
1
10
3.09373087718009
20
-0.562403997028923
30
0
41
1
10
3.11638279132367
20
-0.56434483949144
30
0
41
1
10
3.18433982256516
20
-0.5699009745924
30
0
41
1
10
3.22965017460007
20
-0.573241846552804
30
0
41
1
10
3.29763729557641
20
-0.577706514906026
30
0
41
1
10
3.32030441221087
20
-0.579102734594102
30
0
41
1
10
3.36564429251834
20
-0.581716609673464
30
0
41
1
10
3.38831858289265
20
-0.582934191010537
30
0
41
1
10
3.43360844320068
20
-0.585233012030898
30
0
41
1
10
3.45621998789636
20
-0.586317165131334
30
0
41
1
10
3.50131282023099
20
-0.588360483186449
30
0
41
1
10
3.52379566897361
20
-0.589318196092478
30
0
41
1
10
3.59092158972698
20
-0.591917351992038
30
0
41
1
10
3.63529092783136
20
-0.593282523605353
30
0
41
1
10
3.69922059531086
20
-0.594410975886717
30
0
41
1
10
3.71903902224545
20
-0.594640954885222
30
0
41
1
10
3.73879597039493
20
-0.594732148224864
30
0
0
SPLINE
5
CB
100
AcDbEntity
8
1
62
256
6
ByLayer
370
18
48
1
60
0
100
AcDbSpline
70
4
71
3
72
92
73
88
40
0
40
0
40
0
40
0
40
0.0122180094751191
40
0.0122180094751191
40
0.0362691887172936
40
0.0362691887172936
40
0.0603203679594681
40
0.0603203679594681
40
0.0843715472016426
40
0.0843715472016426
40
0.108422726443817
40
0.108422726443817
40
0.132473905685992
40
0.132473905685992
40
0.156525084928166
40
0.156525084928166
40
0.180576264170341
40
0.180576264170341
40
0.204627443412515
40
0.204627443412515
40
0.228678622654689
40
0.228678622654689
40
0.252729801896864
40
0.252729801896864
40
0.276780981139038
40
0.276780981139038
40
0.300832160381213
40
0.300832160381213
40
0.324883339623387
40
0.324883339623387
40
0.348934518865562
40
0.348934518865562
40
0.372985698107736
40
0.372985698107736
40
0.397036877349911
40
0.397036877349911
40
0.421088056592085
40
0.421088056592085
40
0.44513923583426
40
0.44513923583426
40
0.469190415076434
40
0.469190415076434
40
0.493241594318609
40
0.493241594318609
40
0.517292773560783
40
0.517292773560783
40
0.541343952802958
40
0.541343952802958
40
0.565395132045132
40
0.565395132045132
40
0.589446311287307
40
0.589446311287307
40
0.613497490529481
40
0.613497490529481
40
0.637548669771656
40
0.637548669771656
40
0.66159984901383
40
0.66159984901383
40
0.685651028256005
40
0.685651028256005
40
0.709702207498179
40
0.709702207498179
40
0.733753386740354
40
0.733753386740354
40
0.757804565982528
40
0.757804565982528
40
0.781855745224703
40
0.781855745224703
40
0.805906924466877
40
0.805906924466877
40
0.829958103709052
40
0.829958103709052
40
0.854009282951226
40
0.854009282951226
40
0.878060462193401
40
0.878060462193401
40
0.902111641435575
40
0.902111641435575
40
0.92616282067775
40
0.92616282067775
40
0.950213999919924
40
0.950213999919924
40
0.974265179162099
40
0.974265179162099
40
0.998316358404273
40
0.998316358404273
40
1
40
1
40
1
40
1
41
1
10
6.14107395419879
20
0.330908463247368
30
0
41
1
10
6.15912099123747
20
0.339238611866023
30
0
41
1
10
6.1771395137242
20
0.347461685035285
30
0
41
1
10
6.23057964706535
20
0.371486553120576
30
0
41
1
10
6.26598165323293
20
0.38687236473433
30
0
41
1
10
6.33705528272347
20
0.416079059413733
30
0
41
1
10
6.37273918393083
20
0.42988748752245
30
0
41
1
10
6.44449335117153
20
0.455856322748588
30
0
41
1
10
6.48050979515739
20
0.468092304370543
30
0
41
1
10
6.55254174673127
20
0.49136818839969
30
0
41
1
10
6.5886458914446
20
0.502389779769061
30
0
41
1
10
6.66044186061339
20
0.522835414035711
30
0
41
1
10
6.69619548377432
20
0.532249462039147
30
0
41
1
10
6.76781257518491
20
0.549119406726419
30
0
41
1
10
6.80367461852845
20
0.556580431603152
30
0
41
1
10
6.87576327963254
20
0.569484884677649
30
0
41
1
10
6.91198329452311
20
0.574949469565411
30
0
41
1
10
6.98440706920417
20
0.584112102417407
30
0
41
1
10
7.0204209473728
20
0.587778357511723
30
0
41
1
10
7.0920070901835
20
0.593191250418272
30
0
41
1
10
7.1275735645392
20
0.594934108465566
30
0
41
1
10
7.19860397821947
20
0.596401725946691
30
0
41
1
10
7.23408161103129
20
0.596128405530095
30
0
41
1
10
7.30523772225263
20
0.59367118232106
30
0
41
1
10
7.34095559749588
20
0.591506819833711
30
0
41
1
10
7.41244659133616
20
0.585353509067005
30
0
41
1
10
7.44817268130674
20
0.581346422867625
30
0
41
1
10
7.51950689697421
20
0.571347310042086
30
0
41
1
10
7.55511004781727
20
0.565343953030379
30
0
41
1
10
7.62641084996281
20
0.551332215510541
30
0
41
1
10
7.6621355137778
20
0.543337343700614
30
0
41
1
10
7.7340716520701
20
0.525632345054447
30
0
41
1
10
7.77016439197234
20
0.515979137562425
30
0
41
1
10
7.84243103717751
20
0.495298363504986
30
0
41
1
10
7.87858119105206
20
0.484211572394457
30
0
41
1
10
7.9506457296186
20
0.460235361406973
30
0
41
1
10
7.98658366058834
20
0.447364051766641
30
0
41
1
10
8.0583526534663
20
0.419856650550457
30
0
41
1
10
8.09427635705725
20
0.405211282342606
30
0
41
1
10
8.16594806371171
20
0.37491736965751
30
0
41
1
10
8.2017240115207
20
0.359260411217719
30
0
41
1
10
8.27340134285853
20
0.32736059873119
30
0
41
1
10
8.30928247841774
20
0.311093463683392
30
0
41
1
10
8.38078427401163
20
0.277392797015551
30
0
41
1
10
8.41640591210157
20
0.259956167425059
30
0
41
1
10
8.48742757417116
20
0.22393259567562
30
0
41
1
10
8.52281336500684
20
0.205317551407035
30
0
41
1
10
8.59370238215314
20
0.167493428669786
30
0
41
1
10
8.62921754216393
20
0.148306604501215
30
0
41
1
10
8.70065494964879
20
0.109891809985584
30
0
41
1
10
8.73661501154922
20
0.0907400739218076
30
0
41
1
10
8.80876087139666
20
0.0520896056102345
30
0
41
1
10
8.84499642350497
20
0.0324547278653142
30
0
41
1
10
8.9169290048344
20
-0.0071169071085535
30
0
41
1
10
8.95264580672963
20
-0.0270865024532441
30
0
41
1
10
9.02381676660772
20
-0.0669247220325815
30
0
41
1
10
9.05929587696497
20
-0.086745721259831
30
0
41
1
10
9.13036892543454
20
-0.125604805302601
30
0
41
1
10
9.16598565416308
20
-0.144604045862394
30
0
41
1
10
9.23739352416564
20
-0.181753698563938
30
0
41
1
10
9.27312723263398
20
-0.200008171958331
30
0
41
1
10
9.34441511292391
20
-0.236280180841476
30
0
41
1
10
9.37999077004631
20
-0.254257934416444
30
0
41
1
10
9.45109649336524
20
-0.289705851363692
30
0
41
1
10
9.48665011651187
20
-0.307133917780561
30
0
41
1
10
9.55813941230147
20
-0.340764015199028
30
0
41
1
10
9.59413976827247
20
-0.356999104850701
30
0
41
1
10
9.66638045874146
20
-0.387774649921539
30
0
41
1
10
9.70256883741914
20
-0.402355371840969
30
0
41
1
10
9.77471853783672
20
-0.430425042060222
30
0
41
1
10
9.81068558880523
20
-0.443897734965162
30
0
41
1
10
9.88244196022413
20
-0.469593177738176
30
0
41
1
10
9.91822085348201
20
-0.481820472828133
30
0
41
1
10
9.98996541749636
20
-0.504558698818641
30
0
41
1
10
10.02588170019
20
-0.515038018359178
30
0
41
1
10
10.0976200603921
20
-0.53393446607987
30
0
41
1
10
10.1335433556391
20
-0.542356910713323
30
0
41
1
10
10.2052210430856
20
-0.557486679291458
30
0
41
1
10
10.2409375145139
20
-0.564213828002522
30
0
41
1
10
10.3120906769343
20
-0.575940842302487
30
0
41
1
10
10.3475129619274
20
-0.580940011971364
30
0
41
1
10
10.4183111094567
20
-0.589005116942587
30
0
41
1
10
10.4537111059372
20
-0.592060216022759
30
0
41
1
10
10.5248324057217
20
-0.59616789849764
30
0
41
1
10
10.5605791866501
20
-0.597225674299864
30
0
41
1
10
10.5990156652801
20
-0.597345521574169
30
0
41
1
10
10.6015308550254
20
-0.597348762506357
30
0
41
1
10
10.6040465800938
20
-0.597347385569662
30
0
0
SPLINE
5
CC
100
AcDbEntity
8
1
62
256
6
ByLayer
370
18
48
1
60
0
100
AcDbSpline
70
4
71
3
72
90
73
86
40
0
40
0
40
0
40
0
40
0.0036037170408364
40
0.0036037170408364
40
0.027628316448304
40
0.027628316448304
40
0.0516529158557716
40
0.0516529158557716
40
0.0756775152632391
40
0.0756775152632391
40
0.0997021146707067
40
0.0997021146707067
40
0.123726714078174
40
0.123726714078174
40
0.147751313485642
40
0.147751313485642
40
0.171775912893109
40
0.171775912893109
40
0.195800512300577
40
0.195800512300577
40
0.219825111708044
40
0.219825111708044
40
0.243849711115512
40
0.243849711115512
40
0.26787431052298
40
0.26787431052298
40
0.291898909930447
40
0.291898909930447
40
0.315923509337915
40
0.315923509337915
40
0.339948108745383
40
0.339948108745383
40
0.36397270815285
40
0.36397270815285
40
0.387997307560318
40
0.387997307560318
40
0.412021906967785
40
0.412021906967785
40
0.436046506375253
40
0.436046506375253
40
0.46007110578272
40
0.46007110578272
40
0.484095705190188
40
0.484095705190188
40
0.508120304597656
40
0.508120304597656
40
0.532144904005123
40
0.532144904005123
40
0.556169503412591
40
0.556169503412591
40
0.580194102820058
40
0.580194102820058
40
0.604218702227526
40
0.604218702227526
40
0.628243301634993
40
0.628243301634993
40
0.652267901042461
40
0.652267901042461
40
0.676292500449929
40
0.676292500449929
40
0.700317099857396
40
0.700317099857396
40
0.724341699264864
40
0.724341699264864
40
0.748366298672331
40
0.748366298672331
40
0.772390898079799
40
0.772390898079799
40
0.796415497487266
40
0.796415497487266
40
0.820440096894734
40
0.820440096894734
40
0.844464696302201
40
0.844464696302201
40
0.868489295709669
40
0.868489295709669
40
0.892513895117137
40
0.892513895117137
40
0.916538494524604
40
0.916538494524604
40
0.940563093932072
40
0.940563093932072
40
0.964587693339539
40
0.964587693339539
40
1
40
1
40
1
40
1
41
1
10
12.9405983119142
20
0.33250262001522
30
0
41
1
10
12.945954632242
20
0.334913778853121
30
0
41
1
10
12.95131036405
20
0.337313159262578
30
0
41
1
10
12.9923621799463
20
0.355624936947464
30
0
41
1
10
13.0279778831904
20
0.371108266662077
30
0
41
1
10
13.0990339065144
20
0.401156267372727
30
0
41
1
10
13.1344566357324
20
0.415740341634717
30
0
41
1
10
13.2053796610562
20
0.443578959208253
30
0
41
1
10
13.2409026239355
20
0.456803373897998
30
0
41
1
10
13.3123815665944
20
0.481498273856488
30
0
41
1
10
13.3483677103431
20
0.492940985884417
30
0
41
1
10
13.420761573875
20
0.514145005661476
30
0
41
1
10
13.4569015174728
20
0.523909666580181
30
0
41
1
10
13.5288700003593
20
0.541903905684762
30
0
41
1
10
13.5647123848968
20
0.550113043844789
30
0
41
1
10
13.6362456235609
20
0.56476200876287
30
0
41
1
10
13.6719646075393
20
0.57117633657748
30
0
41
1
10
13.7436851677598
20
0.581972547584286
30
0
41
1
10
13.7797406539227
20
0.58635995310047
30
0
41
1
10
13.8517662649398
20
0.593095879685137
30
0
41
1
10
13.8877539566359
20
0.595485607393442
30
0
41
1
10
13.959355966845
20
0.598407511830914
30
0
41
1
10
13.9949897309797
20
0.598925541392788
30
0
41
1
10
14.0659568382072
20
0.597984111045804
30
0
41
1
10
14.1012946223357
20
0.596514472790915
30
0
41
1
10
14.172058007442
20
0.591602765359823
30
0
41
1
10
14.2074897138524
20
0.588165990510703
30
0
41
1
10
14.278705137068
20
0.579506352929087
30
0
41
1
10
14.3145156021486
20
0.57431188316616
30
0
41
1
10
14.3862171993011
20
0.562080323511623
30
0
41
1
10
14.42207972797
20
0.555016836706415
30
0
41
1
10
14.4938341787347
20
0.538867036687918
30
0
41
1
10
14.5297850879251
20
0.529731373390177
30
0
41
1
10
14.60125848565
20
0.509743024991138
30
0
41
1
10
14.6368706174969
20
0.498899754012996
30
0
41
1
10
14.7081535340623
20
0.475902126755244
30
0
41
1
10
14.7438581532263
20
0.463793390048806
30
0
41
1
10
14.8153010256282
20
0.438339213005435
30
0
41
1
10
14.8509832441599
20
0.42492663898625
30
0
41
1
10
14.9220999232852
20
0.396474870776188
30
0
41
1
10
14.9575453424114
20
0.381444242054954
30
0
41
1
10
15.0283493802004
20
0.349893732871834
30
0
41
1
10
15.0637354143909
20
0.33340912775563
30
0
41
1
10
15.1348412399591
20
0.299580122905525
30
0
41
1
10
15.1705631916091
20
0.282243029543764
30
0
41
1
10
15.242516669507
20
0.247075692218289
30
0
41
1
10
15.2787765997537
20
0.229144206783872
30
0
41
1
10
15.3509325333429
20
0.19229314613483
30
0
41
1
10
15.3868634081759
20
0.173400201499845
30
0
41
1
10
15.458467015855
20
0.134720121481763
30
0
41
1
10
15.4941458553603
20
0.114941310275157
30
0
41
1
10
15.565650835175
20
0.075194169888988
30
0
41
1
10
15.6014820927781
20
0.0552358561543542
30
0
41
1
10
15.6735613342783
20
0.0156384997224279
30
0
41
1
10
15.7097010912437
20
-0.0038866285676704
30
0
41
1
10
15.7815953156794
20
-0.0428956061281269
30
0
41
1
10
15.8173662151368
20
-0.0624465788478688
30
0
41
1
10
15.888562009439
20
-0.1016076040776
30
0
41
1
10
15.9239661902543
20
-0.121253296667788
30
0
41
1
10
15.9946997630441
20
-0.16008597665035
30
0
41
1
10
16.0300489808176
20
-0.179237495586364
30
0
41
1
10
16.1010107302879
20
-0.216503006755232
30
0
41
1
10
16.1366579564422
20
-0.234560149022513
30
0
41
1
10
16.2081683203313
20
-0.269753652577179
30
0
41
1
10
16.2439758170872
20
-0.286984548999897
30
0
41
1
10
16.3155413851117
20
-0.32094441032757
30
0
41
1
10
16.3513086787213
20
-0.337655516470107
30
0
41
1
10
16.4229715567549
20
-0.37023982605777
30
0
41
1
10
16.4587923154419
20
-0.386016542680835
30
0
41
1
10
16.5304388947884
20
-0.415881033547095
30
0
41
1
10
16.5663233974008
20
-0.429989405147978
30
0
41
1
10
16.6383721458786
20
-0.45645141067962
30
0
41
1
10
16.6744868856265
20
-0.46887605386226
30
0
41
1
10
16.746571193098
20
-0.492472179392223
30
0
41
1
10
16.7826357343156
20
-0.50362908888971
30
0
41
1
10
16.8542631052108
20
-0.524340409667445
30
0
41
1
10
16.8898487053324
20
-0.533880694181534
30
0
41
1
10
16.9609489058086
20
-0.550997928872533
30
0
41
1
10
16.9964661426945
20
-0.558577394906933
30
0
41
1
10
17.0676923821791
20
-0.571724892277643
30
0
41
1
10
17.1034174351031
20
-0.577300292483443
30
0
41
1
10
17.1747484658988
20
-0.586698589898958
30
0
41
1
10
17.2103330759807
20
-0.59052064179042
30
0
41
1
10
17.298188934165
20
-0.597677213294475
30
0
41
1
10
17.3503279008389
20
-0.599863963624529
30
0
41
1
10
17.4027966651464
20
-0.599883504302312
30
0
0
SPLINE
5
CD
100
AcDbEntity
8
1
62
256
6
ByLayer
370
18
48
1
60
0
100
AcDbSpline
70
4
71
5
72
148
73
142
40
0
40
0
40
0
40
0
40
0
40
0
40
0.0271524934637546
40
0.0814282729207325
40
0.135815855273362
40
0.189993230489769
40
0.242901217552945
40
0.295580982106555
40
0.346855870943276
40
0.393032178100754
40
0.43160582985277
40
0.437293656587592
40
0.441730161440753
40
0.451854493028736
40
0.455980092820068
40
0.460105692611401
40
0.464231292402734
40
0.468356892194067
40
0.469949549804918
40
0.471506417357098
40
0.471542207415769
40
0.473134865026621
40
0.474727522637472
40
0.476320180248324
40
0.477912837859175
40
0.479505495470027
40
0.480301824275452
40
0.481098153080878
40
0.481684865270368
40
0.482271577459858
40
0.482858289649347
40
0.483445001838837
40
0.484031714028327
40
0.484618426217816
40
0.485205138407306
40
0.485791850596796
40
0.486378562786285
40
0.486965274975775
40
0.487551987165264
40
0.488138699354754
40
0.489312123733734
40
0.490485548112713
40
0.491916174187796
40
0.493836224972775
40
0.497186901832837
40
0.498450511873092
40
0.499714121913348
40
0.500345926933476
40
0.500977731953604
40
0.501609536973732
40
0.50224134199386
40
0.50278787359314
40
0.503027364968106
40
0.503334405192421
40
0.503880936791702
40
0.504427468390983
40
0.504973999990264
40
0.505520531589544
40
0.506067063188825
40
0.506613594788106
40
0.507135094858418
40
0.507656594928731
40
0.508178094999043
40
0.508699595069356
40
0.509221095139668
40
0.50974259520998
40
0.510264095280293
40
0.510785595350605
40
0.511296269770021
40
0.511382338492394
40
0.511806944189436
40
0.512317618608852
40
0.512828293028267
40
0.513338967447683
40
0.513849641867099
40
0.514360316286515
40
0.51487099070593
40
0.515378039241398
40
0.515885087776867
40
0.516392136312335
40
0.516899184847803
40
0.517406233383271
40
0.51791328191874
40
0.518420330454208
40
0.518927378989676
40
0.519429067030238
40
0.519485506934801
40
0.520043634879926
40
0.520601762825051
40
0.521159890770176
40
0.521718018715301
40
0.522276146660426
40
0.523392402550675
40
0.52503262121513
40
0.526672839879585
40
0.529953277208495
40
0.530879745227089
40
0.531425699595189
40
0.532161910788536
40
0.532898121981883
40
0.53363433317523
40
0.534370544368577
40
0.535106755561924
40
0.535842966755271
40
0.536579177948618
40
0.537315389141965
40
0.538051600335311
40
0.538787811528658
40
0.539524022722006
40
0.540260233915352
40
0.540996445108699
40
0.541732656302046
40
0.542911155976307
40
0.544089655650568
40
0.545268155324828
40
0.546446654999089
40
0.548803654347611
40
0.551160653696133
40
0.553517653044655
40
0.555874652393177
40
0.560588651090219
40
0.561645754003625
40
0.566468786046036
40
0.572348921001852
40
0.584109190913485
40
0.608010777348708
40
0.648608357795007
40
0.684793230009747
40
0.718688792502213
40
0.750956641170652
40
0.782403467846863
40
0.812650695003408
40
0.839621794671528
40
0.866753858489337
40
0.895999558618561
40
0.92557665703931
40
0.955040314050178
40
0.984361618139066
40
1
40
1
40
1
40
1
40
1
40
1
41
1
10
3.94014673136479
20
-0.293118218180723
30
0
41
1
10
3.94014673136479
20
-0.289972624310877
30
0
41
1
10
3.94014673136479
20
-0.280492350768583
30
0
41
1
10
3.94014673136476
20
-0.264449568707562
30
0
41
1
10
3.94014673136476
20
-0.241495537748904
30
0
41
1
10
3.94014673136479
20
-0.211216945569163
30
0
41
1
10
3.94014673136476
20
-0.176612122791028
30
0
41
1
10
3.94014673136482
20
-0.141260232085528
30
0
41
1
10
3.94014673136476
20
-0.105947228238051
30
0
41
1
10
3.94014673136476
20
-0.0718910018283907
30
0
41
1
10
3.94014673136479
20
-0.043821517592761
30
0
41
1
10
3.94014673136479
20
-0.0223396239778424
30
0
41
1
10
3.94014673136476
20
-0.0067379859085293
30
0
41
1
10
3.94014673136473
20
0.0026685732883038
30
0
41
1
10
3.94014673136473
20
0.0069364540536867
30
0
41
1
10
3.94014673136473
20
0.0109772292566674
30
0
41
1
10
3.94014673136473
20
0.0149769427578121
30
0
41
1
10
3.94014673136473
20
0.0176975578147562
30
0
41
1
10
3.94014673136473
20
0.0200337220720712
30
0
41
1
10
3.94014673136473
20
0.0217557797265897
30
0
41
1
10
3.94014673136473
20
0.0230972146041495
30
0
41
1
10
3.94014673136476
20
0.0240574411656098
30
0
41
1
10
3.94014673136476
20
0.0250181450677758
30
0
41
1
10
3.94014673136476
20
0.0259848115171906
30
0
41
1
10
3.94014673136479
20
0.027187605237657
30
0
41
1
10
3.94014673136479
20
0.0282715422558795
30
0
41
1
10
3.94014673136482
20
0.029236474041852
30
0
41
1
10
3.94014673136482
20
0.0300503134610324
30
0
41
1
10
3.94014673136485
20
0.0307125047021657
30
0
41
1
10
3.94014673136485
20
0.031222469610924
30
0
41
1
10
3.94014673136485
20
0.0317011262695814
30
0
41
1
10
3.94014673136488
20
0.0321484018705576
30
0
41
1
10
3.94014673136488
20
0.0325962713090746
30
0
41
1
10
3.94014673136491
20
0.0330447937354279
30
0
41
1
10
3.94014673136491
20
0.033494033938922
30
0
41
1
10
3.94014673136491
20
0.0339440622055349
30
0
41
1
10
3.94014673136493
20
0.0343949543072029
30
0
41
1
10
3.94014673136493
20
0.0348467912332069
30
0
41
1
10
3.94014673136496
20
0.0352996592488921
30
0
41
1
10
3.94014673136496
20
0.0358444472416863
30
0
41
1
10
3.94014673136499
20
0.0364821648107636
30
0
41
1
10
3.94014673136499
20
0.0372543406529644
30
0
41
1
10
3.94014673136502
20
0.0382405272972051
30
0
41
1
10
3.94014673136505
20
0.0396735329394176
30
0
41
1
10
3.94014673136508
20
0.0411419210203405
30
0
41
1
10
3.9401467313651
20
0.0426506701918754
30
0
41
1
10
3.9401467313651
20
0.044055626759814
30
0
41
1
10
3.9401467313651
20
0.0452670153871964
30
0
41
1
10
3.9401467313651
20
0.0460252061606923
30
0
41
1
10
3.9401467313651
20
0.0466809966965229
30
0
41
1
10
3.9401467313651
20
0.0472166613433842
30
0
41
1
10
3.94014673136508
20
0.0476873303147158
30
0
41
1
10
3.94014673136508
20
0.0481035216509156
30
0
41
1
10
3.94014673136508
20
0.04850672500163
30
0
41
1
10
3.94014673136508
20
0.0488966989400126
30
0
41
1
10
3.94014673136505
20
0.0492885919122443
30
0
41
1
10
3.94014673136505
20
0.0497381401322912
30
0
41
1
10
3.94014673136502
20
0.050234104963863
30
0
41
1
10
3.94014673136502
20
0.0507333120706335
30
0
41
1
10
3.94014673136502
20
0.051231161179885
30
0
41
1
10
3.94014673136499
20
0.0517275522915668
30
0
41
1
10
3.94014673136499
20
0.0522223809303739
30
0
41
1
10
3.94014673136496
20
0.0527155389003156
30
0
41
1
10
3.94014673136496
20
0.0532069149922165
30
0
41
1
10
3.94014673136496
20
0.0537011744826827
30
0
41
1
10
3.94014673136493
20
0.0541982889521933
30
0
41
1
10
3.94014673136493
20
0.0546982257988873
30
0
41
1
10
3.94014673136491
20
0.0551988613651417
30
0
41
1
10
3.94014673136491
20
0.0556178104325227
30
0
41
1
10
3.94014673136491
20
0.0560196589987925
30
0
41
1
10
3.94014673136488
20
0.056420955497515
30
0
41
1
10
3.94014673136488
20
0.0568216548635974
30
0
41
1
10
3.94014673136488
20
0.0572238543853985
30
0
41
1
10
3.94014673136485
20
0.0577119299905746
30
0
41
1
10
3.94014673136485
20
0.0582194381042598
30
0
41
1
10
3.94014673136485
20
0.0587293025770634
30
0
41
1
10
3.94014673136482
20
0.0592407447964263
30
0
41
1
10
3.94014673136482
20
0.0597537022285621
30
0
41
1
10
3.94014673136482
20
0.0602681122563808
30
0
41
1
10
3.94014673136479
20
0.0607839123562712
30
0
41
1
10
3.94014673136479
20
0.0613010402491909
30
0
41
1
10
3.94014673136479
20
0.0618201799654514
30
0
41
1
10
3.94014673136479
20
0.0623412788241922
30
0
41
1
10
3.94014673136479
20
0.0628642841642773
30
0
41
1
10
3.94014673136476
20
0.063388033667394
30
0
41
1
10
3.94014673136476
20
0.0638199694126058
30
0
41
1
10
3.94014673136476
20
0.0642636557045364
30
0
41
1
10
3.94014673136476
20
0.064719160064584
30
0
41
1
10
3.94014673136476
20
0.0651865481257516
30
0
41
1
10
3.94014673136476
20
0.0656670122104401
30
0
41
1
10
3.94014673136473
20
0.0662546966664479
30
0
41
1
10
3.94014673136473
20
0.0669621323393415
30
0
41
1
10
3.94014673136473
20
0.0679016913977364
30
0
41
1
10
3.94014673136473
20
0.0690764921563698
30
0
41
1
10
3.94014673136473
20
0.0708416111642123
30
0
41
1
10
3.94014673136473
20
0.0727003452609836
30
0
41
1
10
3.94014673136473
20
0.0744467608344337
30
0
41
1
10
3.94014673136473
20
0.0760032532232628
30
0
41
1
10
3.94014673136473
20
0.0773663390820332
30
0
41
1
10
3.94014673136473
20
0.0781734614239156
30
0
41
1
10
3.94014673136473
20
0.078939748924455
30
0
41
1
10
3.94014673136473
20
0.0797486662821427
30
0
41
1
10
3.94014673136473
20
0.0805583296753127
30
0
41
1
10
3.94014673136473
20
0.0813686290404121
30
0
41
1
10
3.94014673136473
20
0.0821794634607897
30
0
41
1
10
3.94014673136476
20
0.0829907410959549
30
0
41
1
10
3.94014673136476
20
0.0838023789688407
30
0
41
1
10
3.94014673136476
20
0.0846143027790163
30
0
41
1
10
3.94014673136476
20
0.0854264465850179
30
0
41
1
10
3.94014673136476
20
0.0862387526032364
30
0
41
1
10
3.94014673136476
20
0.0870511707207413
30
0
41
1
10
3.94014673136476
20
0.0879612809978312
30
0
41
1
10
3.94014673136476
20
0.088969062139995
30
0
41
1
10
3.94014673136476
20
0.0900744704014755
30
0
41
1
10
3.94014673136476
20
0.0912774396813063
30
0
41
1
10
3.94014673136476
20
0.0928379710062472
30
0
41
1
10
3.94014673136476
20
0.0946582535972595
30
0
41
1
10
3.94014673136476
20
0.0967380145881407
30
0
41
1
10
3.94014673136476
20
0.0990769046690048
30
0
41
1
10
3.94014673136479
20
0.102194087462237
30
0
41
1
10
3.94014673136479
20
0.105023257446192
30
0
41
1
10
3.94014673136479
20
0.108394282976377
30
0
41
1
10
3.94014673136479
20
0.112539240786276
30
0
41
1
10
3.94014673136479
20
0.118750999531386
30
0
41
1
10
3.94014673136479
20
0.129178541086105
30
0
41
1
10
3.94014673136479
20
0.148290144058023
30
0
41
1
10
3.94014673136476
20
0.174292508306536
30
0
41
1
10
3.94014673136476
20
0.20646164279421
30
0
41
1
10
3.94014673136479
20
0.243138797201254
30
0
41
1
10
3.94014673136476
20
0.281471380916997
30
0
41
1
10
3.94014673136479
20
0.317523048728987
30
0
41
1
10
3.94014673136476
20
0.351610859263729
30
0
41
1
10
3.94014673136479
20
0.384309914609446
30
0
41
1
10
3.94014673136479
20
0.416427086129346
30
0
41
1
10
3.94014673136476
20
0.448041344153552
30
0
41
1
10
3.94014673136476
20
0.479220811594615
30
0
41
1
10
3.94014673136476
20
0.510632029696495
30
0
41
1
10
3.94014673136476
20
0.539285814149565
30
0
41
1
10
3.94014673136476
20
0.561472308526788
30
0
41
1
10
3.94014673136476
20
0.577255615129928
30
0
41
1
10
3.94014673136476
20
0.586756445471792
30
0
41
1
10
3.94014673136476
20
0.590057027561329
30
0
0
SPLINE
5
CE
100
AcDbEntity
8
1
62
256
6
ByLayer
370
18
48
1
60
0
100
AcDbSpline
70
4
71
3
72
101
73
97
40
0
40
0
40
0
40
0
40
0.124999999999973
40
0.124999999999973
40
0.18749999999996
40
0.18749999999996
40
0.218749999999953
40
0.218749999999953
40
0.249999999999946
40
0.249999999999946
40
0.312499999999933
40
0.312499999999933
40
0.343749999999927
40
0.343749999999927
40
0.374999999999922
40
0.374999999999922
40
0.406249999999916
40
0.406249999999916
40
0.421874999999913
40
0.421874999999913
40
0.437499999999911
40
0.437499999999911
40
0.453124999999908
40
0.453124999999908
40
0.468749999999905
40
0.468749999999905
40
0.484374999999902
40
0.484374999999902
40
0.492187499999901
40
0.492187499999901
40
0.499999999999899
40
0.499999999999899
40
0.503906249999899
40
0.503906249999899
40
0.507812499999899
40
0.507812499999899
40
0.515624999999899
40
0.515624999999899
40
0.523437499999898
40
0.523437499999898
40
0.531249999999898
40
0.531249999999898
40
0.535156249999898
40
0.535156249999898
40
0.539062499999898
40
0.546874999999898
40
0.546874999999898
40
0.554687499999898
40
0.554687499999898
40
0.562499999999898
40
0.562499999999898
40
0.578124999999899
40
0.578124999999899
40
0.5859374999999
40
0.5859374999999
40
0.593749999999901
40
0.593749999999901
40
0.62499999999991
40
0.62499999999991
40
0.656249999999919
40
0.656249999999919
40
0.687499999999928
40
0.687499999999928
40
0.718749999999937
40
0.718749999999937
40
0.749999999999947
40
0.749999999999947
40
0.757812499999949
40
0.757812499999949
40
0.765624999999952
40
0.765624999999952
40
0.773437499999955
40
0.773437499999955
40
0.777343749999957
40
0.777343749999957
40
0.781249999999958
40
0.781249999999958
40
0.789062499999959
40
0.789062499999959
40
0.796874999999959
40
0.796874999999959
40
0.812499999999961
40
0.812499999999961
40
0.843749999999965
40
0.843749999999965
40
0.859374999999969
40
0.859374999999969
40
0.874999999999972
40
0.874999999999972
40
0.890624999999976
40
0.890624999999976
40
0.906249999999979
40
0.906249999999979
40
0.937499999999986
40
0.937499999999986
40
1
40
1
40
1
40
1
41
1
10
3.94014673136479
20
-0.293118218180723
30
0
41
1
10
3.76475701276701
20
-0.252752940516274
30
0
41
1
10
3.59144883632141
20
-0.204962475777364
30
0
41
1
10
3.33393075583791
20
-0.122403140775617
30
0
41
1
10
3.24849396012163
20
-0.0930852166306693
30
0
41
1
10
3.12082714389715
20
-0.0465059075443719
30
0
41
1
10
3.07829545190816
20
-0.0305231614262595
30
0
41
1
10
2.99375107265018
20
0.002150523200811
30
0
41
1
10
2.95172588850082
20
0.0188443856521019
30
0
41
1
10
2.82640239799386
20
0.0699438275862008
30
0
41
1
10
2.74384669942484
20
0.105356091926779
30
0
41
1
10
2.62165951256876
20
0.160413260538235
30
0
41
1
10
2.58120651945902
20
0.179090774654327
30
0
41
1
10
2.50092070109926
20
0.217131692832453
30
0
41
1
10
2.46108637178969
20
0.236493365595152
30
0
41
1
10
2.38216617362002
20
0.276007969693239
30
0
41
1
10
2.34307610254516
20
0.296156011695558
30
0
41
1
10
2.28520133877697
20
0.327169488445833
30
0
41
1
10
2.26598583778488
20
0.337670191445739
30
0
41
1
10
2.22817164814893
20
0.358840993825026
30
0
41
1
10
2.20958241750003
20
0.369503457206832
30
0
41
1
10
2.17320171050494
20
0.391032632922588
30
0
41
1
10
2.15534540966846
20
0.401938837376349
30
0
41
1
10
2.12104514305741
20
0.42382328997482
30
0
41
1
10
2.10461421823865
20
0.434786113974155
30
0
41
1
10
2.07372190342136
20
0.456814145044888
30
0
41
1
10
2.05924297525021
20
0.467876650824621
30
0
41
1
10
2.03978313068271
20
0.484649672414974
30
0
41
1
10
2.03364728456845
20
0.490302837259975
30
0
41
1
10
2.02254290007298
20
0.501560925072084
30
0
41
1
10
2.01762421749959
20
0.507110760972864
30
0
41
1
10
2.01141741675758
20
0.515305965950461
30
0
41
1
10
2.00954453048411
20
0.51801607764466
30
0
41
1
10
2.00624132274004
20
0.523390774106133
30
0
41
1
10
2.00481227235053
20
0.526058546583386
30
0
41
1
10
2.00133850458801
20
0.533830185428343
30
0
41
1
10
2.00006905391643
20
0.538755478956574
30
0
41
1
10
1.99984302596417
20
0.548075099142636
30
0
41
1
10
2.00093198043061
20
0.552513790467287
30
0
41
1
10
2.00542886525898
20
0.560473289366541
30
0
41
1
10
2.00880527772387
20
0.56403575031996
30
0
41
1
10
2.01540001229836
20
0.5688392645107
30
0
41
1
10
2.01786473307584
20
0.570354301057563
30
0
41
1
10
2.02317530209498
20
0.573165413462505
30
0
41
1
10
2.03173739908948
20
0.577075227950701
30
0
41
1
10
2.0418729159756
20
0.580192767475182
30
0
41
1
10
2.05651742954407
20
0.583804362569168
30
0
41
1
10
2.06443630698132
20
0.585338684130136
30
0
41
1
10
2.08086228929832
20
0.587925215744519
30
0
41
1
10
2.08940720861986
20
0.588988231475099
30
0
41
1
10
2.11583175234782
20
0.591653526584963
30
0
41
1
10
2.13449081680366
20
0.592740536101758
30
0
41
1
10
2.16356214610826
20
0.593722018200367
30
0
41
1
10
2.17344332266598
20
0.593937793915615
30
0
41
1
10
2.19333111404794
20
0.594187311731815
30
0
41
1
10
2.20336282445504
20
0.594221966161172
30
0
41
1
10
2.25389366871409
20
0.594034443264235
30
0
41
1
10
2.29547479186866
20
0.592777682682254
30
0
41
1
10
2.38003421208057
20
0.589262830931091
30
0
41
1
10
2.42303037563983
20
0.586979467085399
30
0
41
1
10
2.51003812419157
20
0.581903410042571
30
0
41
1
10
2.55411286501845
20
0.57909986113782
30
0
41
1
10
2.64267736517365
20
0.57329510890537
30
0
41
1
10
2.68718676595438
20
0.570289857326685
30
0
41
1
10
2.77658220326924
20
0.564265535254265
30
0
41
1
10
2.82148869417358
20
0.561262286840957
30
0
41
1
10
2.87776900246377
20
0.557529736790684
30
0
41
1
10
2.88902890623882
20
0.556782036377058
30
0
41
1
10
2.91155187002465
20
0.555273525683475
30
0
41
1
10
2.92280682303456
20
0.554489868601252
30
0
41
1
10
2.94538397679045
20
0.553088698974534
30
0
41
1
10
2.95672745763943
20
0.55253037873851
30
0
41
1
10
2.97403861291954
20
0.552524441357861
30
0
41
1
10
2.97985582113813
20
0.55265407365448
30
0
41
1
10
2.99158432588337
20
0.553174303923242
30
0
41
1
10
2.99738428675821
20
0.553560040157549
30
0
41
1
10
3.01458516110506
20
0.554926660644327
30
0
41
1
10
3.02586510827717
20
0.556076835694199
30
0
41
1
10
3.04847747231241
20
0.558252900051372
30
0
41
1
10
3.05978440020135
20
0.559316161311131
30
0
41
1
10
3.09373086809947
20
0.562403996236924
30
0
41
1
10
3.11638278247719
20
0.564344838744631
30
0
41
1
10
3.18433981442257
20
0.569900973973745
30
0
41
1
10
3.22965016692774
20
0.57324184601012
30
0
41
1
10
3.29763728860706
20
0.577706514467792
30
0
41
1
10
3.3203044054755
20
0.579102734188922
30
0
41
1
10
3.36564428625275
20
0.581716609329106
30
0
41
1
10
3.38831857686367
20
0.58293419069318
30
0
41
1
10
3.43360843765117
20
0.58523301176055
30
0
41
1
10
3.4562199825892
20
0.586317164881478
30
0
41
1
10
3.50131281540681
20
0.588360482977208
30
0
41
1
10
3.52379566440817
20
0.589318195904411
30
0
41
1
10
3.59092158592972
20
0.591917351867579
30
0
41
1
10
3.63529092453311
20
0.593282523522419
30
0
41
1
10
3.76742219387717
20
0.595614834059091
30
0
41
1
10
3.85418554125084
20
0.594794760660079
30
0
41
1
10
3.94014673136476
20
0.590057027561301
30
0
0
LINE
5
7D
100
AcDbEntity
8
80
62
256
6
ByLayer
370
18
48
1
60
0
100
AcDbLine
10
0
20
0
30
0
11
-5
21
0
31
0
39
0
210
0
220
0
230
1
0
LINE
5
7E
100
AcDbEntity
8
4
62
256
6
ByLayer
370
18
48
0.05
60
0
100
AcDbLine
10
-5
20
0
30
0
11
23
21
0
31
0
39
0
210
0
220
0
230
1
0
LINE
5
80
100
AcDbEntity
8
81
62
256
6
ByLayer
370
18
48
1
60
0
100
AcDbLine
10
18
20
0
30
0
11
23
21
0
31
0
39
0
210
0
220
0
230
1
0
LINE
5
81
100
AcDbEntity
8
SK4
62
256
6
ByLayer
370
18
48
0.05
60
0
100
AcDbLine
10
-25
20
0
30
0
11
23
21
0
31
0
39
0
210
0
220
0
230
1
0
LINE
5
83
100
AcDbEntity
8
1
62
256
6
ByLayer
370
18
48
1
60
0
100
AcDbLine
10
0
20
0.6
30
0
11
0
21
-0.6
31
0
39
0
210
0
220
0
230
1
0
LINE
5
84
100
AcDbEntity
8
1
62
256
6
ByLayer
370
18
48
1
60
0
100
AcDbLine
10
17.675535
20
-0.6
30
0
11
17.675535
21
-0.357573
31
0
39
0
210
0
220
0
230
1
0
LINE
5
85
100
AcDbEntity
8
1
62
256
6
ByLayer
370
18
48
1
60
0
100
AcDbLine
10
17.675535
20
0.6
30
0
11
17.675535
21
0.581274
31
0
39
0
210
0
220
0
230
1
0
LINE
5
86
100
AcDbEntity
8
1
62
256
6
ByLayer
370
18
48
1
60
0
100
AcDbLine
10
0.1
20
-0.593409
30
0
11
0.1
21
0.593409
31
0
39
0
210
0
220
0
230
1
0
LINE
5
87
100
AcDbEntity
8
SK1
62
256
6
ByLayer
370
18
48
1
60
0
100
AcDbLine
10
-20
20
-0.5
30
0
11
-20
21
0.5
31
0
39
0
210
0
220
0
230
1
0
LINE
5
89
100
AcDbEntity
8
SK1
62
256
6
ByLayer
370
18
48
1
60
0
100
AcDbLine
10
0
20
0.6
30
0
11
0
21
-0.6
31
0
39
0
210
0
220
0
230
1
0
LINE
5
8A
100
AcDbEntity
8
SK1
62
256
6
ByLayer
370
18
48
1
60
0
100
AcDbLine
10
-19.9
20
-0.6
30
0
11
-19.9
21
0.6
31
0
39
0
210
0
220
0
230
1
0
LINE
5
8B
100
AcDbEntity
8
1
62
256
6
ByLayer
370
18
48
1
60
0
100
AcDbLine
10
18
20
0
30
0
11
17.675535
21
0.6
31
0
39
0
210
0
220
0
230
1
0
LINE
5
8C
100
AcDbEntity
8
1
62
256
6
ByLayer
370
18
48
1
60
0
100
AcDbLine
10
17.675535
20
-0.6
30
0
11
18
21
0
31
0
39
0
210
0
220
0
230
1
0
LINE
5
8D
100
AcDbEntity
8
1
62
256
6
ByLayer
370
18
48
1
60
0
100
AcDbLine
10
0.1
20
0.593409
30
0
11
0
21
0.6
31
0
39
0
210
0
220
0
230
1
0
LINE
5
8E
100
AcDbEntity
8
1
62
256
6
ByLayer
370
18
48
1
60
0
100
AcDbLine
10
0
20
-0.6
30
0
11
0.1
21
-0.593409
31
0
39
0
210
0
220
0
230
1
0
LINE
5
8F
100
AcDbEntity
8
1
62
256
6
ByLayer
370
18
48
1
60
0
100
AcDbLine
10
0.1
20
-0.593409
30
0
11
2.222064
21
-0.594205
31
0
39
0
210
0
220
0
230
1
0
LINE
5
90
100
AcDbEntity
8
1
62
256
6
ByLayer
370
18
48
1
60
0
100
AcDbLine
10
3.73628
20
-0.594773
30
0
11
5.082892
21
-0.595278
31
0
39
0
210
0
220
0
230
1
0
LINE
5
91
100
AcDbEntity
8
1
62
256
6
ByLayer
370
18
48
1
60
0
100
AcDbLine
10
7.202267
20
-0.596073
30
0
11
8.483525
21
-0.596553
31
0
39
0
210
0
220
0
230
1
0
LINE
5
92
100
AcDbEntity
8
1
62
256
6
ByLayer
370
18
48
1
60
0
100
AcDbLine
10
10.604124
20
-0.597348
30
0
11
11.884107
21
-0.597828
31
0
39
0
210
0
220
0
230
1
0
LINE
5
93
100
AcDbEntity
8
1
62
256
6
ByLayer
370
18
48
1
60
0
100
AcDbLine
10
14.002222
20
-0.598623
30
0
11
15.28456
21
-0.599103
31
0
39
0
210
0
220
0
230
1
0
LINE
5
94
100
AcDbEntity
8
1
62
256
6
ByLayer
370
18
48
1
60
0
100
AcDbLine
10
17.402918
20
-0.599898
30
0
11
17.675535
21
-0.6
31
0
39
0
210
0
220
0
230
1
0
LINE
5
95
100
AcDbEntity
8
1
62
256
6
ByLayer
370
18
48
1
60
0
100
AcDbLine
10
17.675535
20
0.6
30
0
11
17.402918
21
0.599898
31
0
39
0
210
0
220
0
230
1
0
LINE
5
96
100
AcDbEntity
8
1
62
256
6
ByLayer
370
18
48
1
60
0
100
AcDbLine
10
15.28456
20
0.599103
30
0
11
14.002222
21
0.598623
31
0
39
0
210
0
220
0
230
1
0
LINE
5
97
100
AcDbEntity
8
1
62
256
6
ByLayer
370
18
48
1
60
0
100
AcDbLine
10
11.884107
20
0.597828
30
0
11
10.604124
21
0.597348
31
0
39
0
210
0
220
0
230
1
0
LINE
5
98
100
AcDbEntity
8
1
62
256
6
ByLayer
370
18
48
1
60
0
100
AcDbLine
10
8.483525
20
0.596553
30
0
11
7.202267
21
0.596073
31
0
39
0
210
0
220
0
230
1
0
LINE
5
99
100
AcDbEntity
8
1
62
256
6
ByLayer
370
18
48
1
60
0
100
AcDbLine
10
5.082892
20
0.595278
30
0
11
3.73628
21
0.594773
31
0
39
0
210
0
220
0
230
1
0
LINE
5
9A
100
AcDbEntity
8
1
62
256
6
ByLayer
370
18
48
1
60
0
100
AcDbLine
10
2.222064
20
0.594205
30
0
11
0.1
21
0.593409
31
0
39
0
210
0
220
0
230
1
0
LINE
5
9B
100
AcDbEntity
8
SK1
62
256
6
ByLayer
370
18
48
1
60
0
100
AcDbLine
10
-20
20
-0.5
30
0
11
-19.9
21
-0.6
31
0
39
0
210
0
220
0
230
1
0
LINE
5
9C
100
AcDbEntity
8
SK1
62
256
6
ByLayer
370
18
48
1
60
0
100
AcDbLine
10
-19.9
20
0.6
30
0
11
-20
21
0.5
31
0
39
0
210
0
220
0
230
1
0
LINE
5
9D
100
AcDbEntity
8
SK1
62
256
6
ByLayer
370
18
48
1
60
0
100
AcDbLine
10
-19.9
20
-0.6
30
0
11
0
21
-0.6
31
0
39
0
210
0
220
0
230
1
0
LINE
5
9E
100
AcDbEntity
8
SK1
62
256
6
ByLayer
370
18
48
1
60
0
100
AcDbLine
10
0
20
0.6
30
0
11
-19.9
21
0.6
31
0
39
0
210
0
220
0
230
1
0
LINE
5
9F
100
AcDbEntity
8
SK2
62
256
6
ByLayer
370
13
48
1
60
0
100
AcDbLine
10
-26.5
20
26.632855
30
0
11
-26.5
21
-8.1
31
0
39
0
210
0
220
0
230
1
0
LINE
5
A1
100
AcDbEntity
8
SK2
62
256
6
ByLayer
370
13
48
1
60
0
100
AcDbLine
10
-21.5875
20
0.6
30
0
11
-28.5
21
0.6
31
0
39
0
210
0
220
0
230
1
0
LINE
5
A2
100
AcDbEntity
8
SK2
62
256
6
ByLayer
370
13
48
1
60
0
100
AcDbLine
10
-21.5875
20
-0.6
30
0
11
-28.5
21
-0.6
31
0
39
0
210
0
220
0
230
1
0
LINE
5
A3
100
AcDbEntity
8
1
62
256
6
ByLayer
370
18
48
1
60
1
100
AcDbLine
10
-26.5
20
0.6
30
0
11
-26.960784
21
4.099998
31
0
39
0
210
0
220
0
230
1
0
LINE
5
A4
100
AcDbEntity
8
1
62
256
6
ByLayer
370
18
48
1
60
1
100
AcDbLine
10
-26.960784
20
4.099998
30
0
11
-26.039216
21
4.100002
31
0
39
0
210
0
220
0
230
1
0
LINE
5
A5
100
AcDbEntity
8
1
62
256
6
ByLayer
370
18
48
1
60
1
100
AcDbLine
10
-26.039216
20
4.100002
30
0
11
-26.5
21
0.6
31
0
39
0
210
0
220
0
230
1
0
LINE
5
A6
100
AcDbEntity
8
1
62
256
6
ByLayer
370
18
48
1
60
1
100
AcDbLine
10
-26.5
20
-0.6
30
0
11
-26.039216
21
-4.099998
31
0
39
0
210
0
220
0
230
1
0
LINE
5
A7
100
AcDbEntity
8
1
62
256
6
ByLayer
370
18
48
1
60
1
100
AcDbLine
10
-26.039216
20
-4.099998
30
0
11
-26.960784
21
-4.100002
31
0
39
0
210
0
220
0
230
1
0
LINE
5
A8
100
AcDbEntity
8
1
62
256
6
ByLayer
370
18
48
1
60
1
100
AcDbLine
10
-26.960784
20
-4.100002
30
0
11
-26.5
21
-0.6
31
0
39
0
210
0
220
0
230
1
0
LINE
5
A9
100
AcDbEntity
8
2
62
256
6
ByLayer
370
13
48
1
60
0
100
AcDbLine
10
27.175535
20
26.632855
30
0
11
27.175535
21
-8.1
31
0
39
0
210
0
220
0
230
1
0
LINE
5
AB
100
AcDbEntity
8
2
62
256
6
ByLayer
370
13
48
1
60
0
100
AcDbLine
10
19.263035
20
0.6
30
0
11
29.175535
21
0.6
31
0
39
0
210
0
220
0
230
1
0
LINE
5
AC
100
AcDbEntity
8
2
62
256
6
ByLayer
370
13
48
1
60
0
100
AcDbLine
10
19.263035
20
-0.6
30
0
11
29.175535
21
-0.6
31
0
39
0
210
0
220
0
230
1
0
LINE
5
AD
100
AcDbEntity
8
1
62
256
6
ByLayer
370
18
48
1
60
1
100
AcDbLine
10
27.175535
20
0.6
30
0
11
26.714752
21
4.099998
31
0
39
0
210
0
220
0
230
1
0
LINE
5
AE
100
AcDbEntity
8
1
62
256
6
ByLayer
370
18
48
1
60
1
100
AcDbLine
10
26.714752
20
4.099998
30
0
11
27.636319
21
4.100002
31
0
39
0
210
0
220
0
230
1
0
LINE
5
AF
100
AcDbEntity
8
1
62
256
6
ByLayer
370
18
48
1
60
1
100
AcDbLine
10
27.636319
20
4.100002
30
0
11
27.175535
21
0.6
31
0
39
0
210
0
220
0
230
1
0
LINE
5
B0
100
AcDbEntity
8
1
62
256
6
ByLayer
370
18
48
1
60
1
100
AcDbLine
10
27.175535
20
-0.6
30
0
11
27.636319
21
-4.099998
31
0
39
0
210
0
220
0
230
1
0
LINE
5
B1
100
AcDbEntity
8
1
62
256
6
ByLayer
370
18
48
1
60
1
100
AcDbLine
10
27.636319
20
-4.099998
30
0
11
26.714752
21
-4.100002
31
0
39
0
210
0
220
0
230
1
0
LINE
5
B2
100
AcDbEntity
8
1
62
256
6
ByLayer
370
18
48
1
60
1
100
AcDbLine
10
26.714752
20
-4.100002
30
0
11
27.175535
21
-0.6
31
0
39
0
210
0
220
0
230
1
0
LINE
5
B3
100
AcDbEntity
8
2
62
256
6
ByLayer
370
13
48
1
60
0
100
AcDbLine
10
18.755136
20
-1.396397
30
0
11
29.416232
21
-21.110889
31
0
39
0
210
0
220
0
230
1
0
LINE
5
B4
100
AcDbEntity
8
2
62
256
6
ByLayer
370
13
48
1
60
0
100
AcDbLine
10
18.755136
20
1.396397
30
0
11
29.416232
21
21.110889
31
0
39
0
210
0
220
0
230
1
0
LINE
5
B5
100
AcDbEntity
8
1
62
256
6
ByLayer
370
18
48
1
60
1
100
AcDbLine
10
28.464879
20
-19.351649
30
0
11
31.239971
21
-17.169637
31
0
39
0
210
0
220
0
230
1
0
LINE
5
B6
100
AcDbEntity
8
1
62
256
6
ByLayer
370
18
48
1
60
1
100
AcDbLine
10
31.239971
20
-17.169637
30
0
11
31.710161
21
-17.962233
31
0
39
0
210
0
220
0
230
1
0
LINE
5
B7
100
AcDbEntity
8
1
62
256
6
ByLayer
370
18
48
1
60
1
100
AcDbLine
10
31.710161
20
-17.962233
30
0
11
28.464879
21
-19.351649
31
0
39
0
210
0
220
0
230
1
0
LINE
5
B8
100
AcDbEntity
8
1
62
256
6
ByLayer
370
18
48
1
60
1
100
AcDbLine
10
28.464879
20
19.351649
30
0
11
31.710158
21
17.962234
31
0
39
0
210
0
220
0
230
1
0
LINE
5
B9
100
AcDbEntity
8
1
62
256
6
ByLayer
370
18
48
1
60
1
100
AcDbLine
10
31.710158
20
17.962234
30
0
11
31.239974
21
17.169635
31
0
39
0
210
0
220
0
230
1
0
LINE
5
BA
100
AcDbEntity
8
1
62
256
6
ByLayer
370
18
48
1
60
1
100
AcDbLine
10
31.239974
20
17.169635
30
0
11
28.464879
21
19.351649
31
0
39
0
210
0
220
0
230
1
0
LINE
5
D3
100
AcDbEntity
8
1
62
256
6
ByLayer
370
18
48
1
60
1
100
AcDbLine
10
-26.5
20
0.6
30
0
11
-26.960784
21
4.099998
31
0
39
0
210
0
220
0
230
1
0
LINE
5
D4
100
AcDbEntity
8
1
62
256
6
ByLayer
370
18
48
1
60
1
100
AcDbLine
10
-26.960784
20
4.099998
30
0
11
-26.039216
21
4.100002
31
0
39
0
210
0
220
0
230
1
0
LINE
5
D5
100
AcDbEntity
8
1
62
256
6
ByLayer
370
18
48
1
60
1
100
AcDbLine
10
-26.039216
20
4.100002
30
0
11
-26.5
21
0.6
31
0
39
0
210
0
220
0
230
1
0
LINE
5
D7
100
AcDbEntity
8
1
62
256
6
ByLayer
370
18
48
1
60
1
100
AcDbLine
10
-26.5
20
-0.6
30
0
11
-26.039216
21
-4.099998
31
0
39
0
210
0
220
0
230
1
0
LINE
5
D8
100
AcDbEntity
8
1
62
256
6
ByLayer
370
18
48
1
60
1
100
AcDbLine
10
-26.039216
20
-4.099998
30
0
11
-26.960784
21
-4.100002
31
0
39
0
210
0
220
0
230
1
0
LINE
5
D9
100
AcDbEntity
8
1
62
256
6
ByLayer
370
18
48
1
60
1
100
AcDbLine
10
-26.960784
20
-4.100002
30
0
11
-26.5
21
-0.6
31
0
39
0
210
0
220
0
230
1
0
LINE
5
DD
100
AcDbEntity
8
1
62
256
6
ByLayer
370
18
48
1
60
1
100
AcDbLine
10
27.175535
20
0.6
30
0
11
26.714752
21
4.099998
31
0
39
0
210
0
220
0
230
1
0
LINE
5
DE
100
AcDbEntity
8
1
62
256
6
ByLayer
370
18
48
1
60
1
100
AcDbLine
10
26.714752
20
4.099998
30
0
11
27.636319
21
4.100002
31
0
39
0
210
0
220
0
230
1
0
LINE
5
DF
100
AcDbEntity
8
1
62
256
6
ByLayer
370
18
48
1
60
1
100
AcDbLine
10
27.636319
20
4.100002
30
0
11
27.175535
21
0.6
31
0
39
0
210
0
220
0
230
1
0
LINE
5
E1
100
AcDbEntity
8
1
62
256
6
ByLayer
370
18
48
1
60
1
100
AcDbLine
10
27.175535
20
-0.6
30
0
11
27.636319
21
-4.099998
31
0
39
0
210
0
220
0
230
1
0
LINE
5
E2
100
AcDbEntity
8
1
62
256
6
ByLayer
370
18
48
1
60
1
100
AcDbLine
10
27.636319
20
-4.099998
30
0
11
26.714752
21
-4.100002
31
0
39
0
210
0
220
0
230
1
0
LINE
5
E3
100
AcDbEntity
8
1
62
256
6
ByLayer
370
18
48
1
60
1
100
AcDbLine
10
26.714752
20
-4.100002
30
0
11
27.175535
21
-0.6
31
0
39
0
210
0
220
0
230
1
0
LINE
5
E6
100
AcDbEntity
8
1
62
256
6
ByLayer
370
18
48
1
60
1
100
AcDbLine
10
28.464879
20
-19.351649
30
0
11
31.239971
21
-17.169637
31
0
39
0
210
0
220
0
230
1
0
LINE
5
E7
100
AcDbEntity
8
1
62
256
6
ByLayer
370
18
48
1
60
1
100
AcDbLine
10
31.239971
20
-17.169637
30
0
11
31.710161
21
-17.962233
31
0
39
0
210
0
220
0
230
1
0
LINE
5
E8
100
AcDbEntity
8
1
62
256
6
ByLayer
370
18
48
1
60
1
100
AcDbLine
10
31.710161
20
-17.962233
30
0
11
28.464879
21
-19.351649
31
0
39
0
210
0
220
0
230
1
0
LINE
5
EA
100
AcDbEntity
8
1
62
256
6
ByLayer
370
18
48
1
60
1
100
AcDbLine
10
28.464879
20
19.351649
30
0
11
31.710158
21
17.962234
31
0
39
0
210
0
220
0
230
1
0
LINE
5
EB
100
AcDbEntity
8
1
62
256
6
ByLayer
370
18
48
1
60
1
100
AcDbLine
10
31.710158
20
17.962234
30
0
11
31.239974
21
17.169635
31
0
39
0
210
0
220
0
230
1
0
LINE
5
EC
100
AcDbEntity
8
1
62
256
6
ByLayer
370
18
48
1
60
1
100
AcDbLine
10
31.239974
20
17.169635
30
0
11
28.464879
21
19.351649
31
0
39
0
210
0
220
0
230
1
0
MTEXT
5
CF
100
AcDbEntity
8
SK2
62
256
6
ByLayer
370
18
48
1
60
0
100
AcDbMText
10
-27.841114
20
12.258437
30
0
210
0
220
0
230
1
1
%%c
40
3
41
0
44
1.084337
50
90
71
7
72
5
7
iso_b_vert
0
MTEXT
5
D2
100
AcDbEntity
8
SK2
62
256
6
ByLayer
370
18
48
1
60
0
100
AcDbMText
10
-27.841114
20
18.235
30
0
210
0
220
0
230
1
1
\W0.6864;1.200
40
3
41
0
44
1.084337
50
90
71
7
72
5
7
iso_b_vert
0
MTEXT
5
DB
100
AcDbEntity
8
2
62
256
6
ByLayer
370
18
48
1
60
0
100
AcDbMText
10
25.834421
20
12.258437
30
0
210
0
220
0
230
1
1
%%c
40
3
41
0
44
1.084337
50
90
71
7
72
5
7
iso_b_vert
0
MTEXT
5
DC
100
AcDbEntity
8
2
62
256
6
ByLayer
370
18
48
1
60
0
100
AcDbMText
10
25.834421
20
18.235
30
0
210
0
220
0
230
1
1
\W0.6864;1.200
40
3
41
0
44
1.084337
50
90
71
7
72
5
7
iso_b_vert
0
MTEXT
5
E5
100
AcDbEntity
8
2
62
256
6
ByLayer
370
18
48
1
60
0
100
AcDbMText
10
37.092229
20
-2.114886
30
0
210
0
220
0
230
1
1
\W0.6008;118%%d
40
3
41
0
44
1.084337
50
0
71
7
72
5
7
iso_b_vert
0
MTEXT
5
EE
100
AcDbEntity
8
SK6
62
256
6
ByLayer
370
18
48
1
60
0
100
AcDbMText
10
-7.507199
20
-67.114886
30
0
210
0
220
0
230
1
1
\W0.7280;R0031.2
40
3
41
0
44
1.084337
50
0
71
7
72
5
7
iso_b_vert
0
HATCH
5
D6
100
AcDbEntity
8
SK2
62
256
6
ByLayer
370
13
48
1
60
0
100
AcDbHatch
10
0
20
0
30
0
210
0
220
0
230
1
2
ANSI31
70
0
71
0
91
1
92
5
93
3
72
1
10
-26.5
20
0.599999999999994
11
-26.9607837415528
21
4.09999830744681
72
1
10
-26.9607837415528
20
4.09999830744681
11
-26.0392162584472
21
4.10000169255318
72
1
10
-26.0392162584472
20
4.10000169255318
11
-26.5
21
0.599999999999994
97
0
75
0
76
1
52
0
41
0.0062
77
0
78
1
53
45
43
0
44
0
45
-0.0139193969876572
46
0.0139193969876572
79
0
47
0
98
1
10
0
20
0
0
HATCH
5
DA
100
AcDbEntity
8
SK2
62
256
6
ByLayer
370
13
48
1
60
0
100
AcDbHatch
10
0
20
0
30
0
210
0
220
0
230
1
2
ANSI31
70
0
71
0
91
1
92
5
93
3
72
1
10
-26.5
20
-0.600000000000023
11
-26.0392162584472
21
-4.09999830744684
72
1
10
-26.0392162584472
20
-4.09999830744684
11
-26.9607837415528
21
-4.10000169255321
72
1
10
-26.9607837415528
20
-4.10000169255321
11
-26.5
21
-0.600000000000023
97
0
75
0
76
1
52
0
41
0.0062
77
0
78
1
53
45
43
0
44
0
45
-0.0139193969876572
46
0.0139193969876572
79
0
47
0
98
1
10
0
20
0
0
HATCH
5
E0
100
AcDbEntity
8
2
62
256
6
ByLayer
370
13
48
1
60
0
100
AcDbHatch
10
0
20
0
30
0
210
0
220
0
230
1
2
ANSI31
70
0
71
0
91
1
92
5
93
3
72
1
10
27.1755352657251
20
0.599999999999994
11
26.7147515241723
21
4.09999830744681
72
1
10
26.7147515241723
20
4.09999830744681
11
27.6363190072779
21
4.10000169255318
72
1
10
27.6363190072779
20
4.10000169255318
11
27.1755352657251
21
0.599999999999994
97
0
75
0
76
1
52
0
41
0.0062
77
0
78
1
53
45
43
0
44
0
45
-0.0139193969876572
46
0.0139193969876572
79
0
47
0
98
1
10
0
20
0
0
HATCH
5
E4
100
AcDbEntity
8
2
62
256
6
ByLayer
370
13
48
1
60
0
100
AcDbHatch
10
0
20
0
30
0
210
0
220
0
230
1
2
ANSI31
70
0
71
0
91
1
92
5
93
3
72
1
10
27.1755352657251
20
-0.600000000000023
11
27.6363190072779
21
-4.09999830744684
72
1
10
27.6363190072779
20
-4.09999830744684
11
26.7147515241723
21
-4.10000169255321
72
1
10
26.7147515241723
20
-4.10000169255321
11
27.1755352657251
21
-0.600000000000023
97
0
75
0
76
1
52
0
41
0.0062
77
0
78
1
53
45
43
0
44
0
45
-0.0139193969876572
46
0.0139193969876572
79
0
47
0
98
1
10
0
20
0
0
HATCH
5
E9
100
AcDbEntity
8
2
62
256
6
ByLayer
370
13
48
1
60
0
100
AcDbHatch
10
0
20
0
30
0
210
0
220
0
230
1
2
ANSI31
70
0
71
0
91
1
92
5
93
3
72
1
10
28.4648791987524
20
-19.3516485952882
11
31.2399711078385
21
-17.1696369764523
72
1
10
31.2399711078385
20
-17.1696369764523
11
31.7101613929254
21
-17.9622325364569
72
1
10
31.7101613929254
20
-17.9622325364569
11
28.4648791987524
21
-19.3516485952882
97
0
75
0
76
1
52
0
41
0.0062
77
0
78
1
53
45
43
0
44
0
45
-0.0139193969876572
46
0.0139193969876572
79
0
47
0
98
1
10
0
20
0
0
HATCH
5
ED
100
AcDbEntity
8
2
62
256
6
ByLayer
370
13
48
1
60
0
100
AcDbHatch
10
0
20
0
30
0
210
0
220
0
230
1
2
ANSI31
70
0
71
0
91
1
92
5
93
3
72
1
10
28.464879198752
20
19.3516485952884
11
31.7101584815526
21
17.9622342635518
72
1
10
31.7101584815526
20
17.9622342635518
11
31.2399740192106
21
17.169635249358
72
1
10
31.2399740192106
20
17.169635249358
11
28.464879198752
21
19.3516485952884
97
0
75
0
76
1
52
0
41
0.0062
77
0
78
1
53
45
43
0
44
0
45
-0.0139193969876572
46
0.0139193969876572
79
0
47
0
98
1
10
0
20
0
0
DIMENSION
5
F1
100
AcDbEntity
8
SK2
62
256
6
ByLayer
370
18
48
1
60
0
100
AcDbDimension
2
_U0
10
18
20
-51.210686
30
0
11
-1
21
-51.210686
31
0
70
32
71
1
72
1
41
1
210
0
220
0
230
1
3
Standard
100
AcDbAlignedDimension
13
-20
23
-0.6
33
0
14
18
24
0
34
0
50
0
100
AcDbRotatedDimension
1001
ACAD
1000
DSTYLE
1002
{
1070
   371
1070
    13
1070
   372
1070
    13
1070
     3
1000

1070
   170
1070
     0
1070
   144
1040
1.0
1070
   277
1070
     2
1070
   284
1070
     8
1070
   278
1070
    46
1070
   146
1040
1.166667
1070
   345
1005
16
1070
   347
1005
16
1070
   346
1005
16
1070
   344
1005
0
1070
   343
1005
0
1070
   172
1070
     1
1070
    76
1070
     0
1070
    75
1070
     0
1070
   282
1070
     0
1070
   281
1070
     0
1070
    71
1070
     0
1070
    74
1070
     0
1070
   279
1070
     0
1070
   173
1070
     1
1070
   340
1005
D0
1070
   271
1070
     2
1070
   272
1070
     3
1070
    77
1070
     1
1070
    73
1070
     1
1070
   171
1070
     3
1070
   274
1070
     4
1070
   177
1070
     2
1070
   176
1070
     2
1070
   178
1070
     2
1070
    78
1070
     8
1070
    48
1040
-0.1
1070
    41
1040
3.5
1070
   147
1040
1.5
1070
    42
1040
1.5875
1070
    44
1040
2.0
1070
   140
1040
3.0
1002
}
1001
ACAD_DSTYLE_DIM_LINETYPE
1070
   380
1005
16
1001
ACAD_DSTYLE_DIM_EXT1_LINETYPE
1070
   381
1005
16
1001
ACAD_DSTYLE_DIM_EXT2_LINETYPE
1070
   382
1005
16
0
DIMENSION
5
10A
100
AcDbEntity
8
2
62
256
6
ByLayer
370
18
48
1
60
0
100
AcDbDimension
2
_U1
10
2
20
-41.210686
30
0
11
10
21
-41.210686
31
0
70
32
71
1
72
1
41
1
210
0
220
0
230
1
3
Standard
100
AcDbAlignedDimension
13
18
23
0
33
0
14
2
24
-0.6
34
0
50
0
100
AcDbRotatedDimension
1001
ACAD
1000
DSTYLE
1002
{
1070
   371
1070
    13
1070
   372
1070
    13
1070
     3
1000

1070
   170
1070
     0
1070
   144
1040
1.0
1070
   277
1070
     2
1070
   284
1070
     8
1070
   278
1070
    46
1070
   146
1040
1.166667
1070
   345
1005
16
1070
   347
1005
16
1070
   346
1005
16
1070
   344
1005
0
1070
   343
1005
0
1070
   172
1070
     1
1070
    76
1070
     0
1070
    75
1070
     0
1070
   282
1070
     0
1070
   281
1070
     0
1070
    71
1070
     0
1070
    74
1070
     0
1070
   279
1070
     0
1070
   173
1070
     1
1070
   340
1005
D0
1070
   271
1070
     2
1070
   272
1070
     3
1070
    77
1070
     1
1070
    73
1070
     1
1070
   171
1070
     3
1070
   274
1070
     4
1070
   177
1070
     2
1070
   176
1070
     2
1070
   178
1070
     2
1070
    78
1070
     8
1070
    48
1040
-0.1
1070
    41
1040
3.5
1070
   147
1040
1.5
1070
    42
1040
1.5875
1070
    44
1040
2.0
1070
   140
1040
3.0
1002
}
1001
ACAD_DSTYLE_DIM_LINETYPE
1070
   380
1005
16
1001
ACAD_DSTYLE_DIM_EXT1_LINETYPE
1070
   381
1005
16
1001
ACAD_DSTYLE_DIM_EXT2_LINETYPE
1070
   382
1005
16
0
DIMENSION
5
122
100
AcDbEntity
8
SK2
62
256
6
ByLayer
370
18
48
1
60
0
100
AcDbDimension
2
_U2
10
0
20
-36.210686
30
0
11
-10
21
-36.210686
31
0
70
32
71
1
72
1
41
1
210
0
220
0
230
1
3
Standard
100
AcDbAlignedDimension
13
-20
23
-0.6
33
0
14
0
24
-0.6
34
0
50
0
100
AcDbRotatedDimension
1001
ACAD
1000
DSTYLE
1002
{
1070
   371
1070
    13
1070
   372
1070
    13
1070
     3
1000

1070
   170
1070
     0
1070
   144
1040
1.0
1070
   277
1070
     2
1070
   284
1070
     8
1070
   278
1070
    46
1070
   146
1040
1.166667
1070
   345
1005
16
1070
   347
1005
16
1070
   346
1005
16
1070
   344
1005
0
1070
   343
1005
0
1070
   172
1070
     1
1070
    76
1070
     0
1070
    75
1070
     0
1070
   282
1070
     0
1070
   281
1070
     0
1070
    71
1070
     0
1070
    74
1070
     0
1070
   279
1070
     0
1070
   173
1070
     1
1070
   340
1005
D0
1070
   271
1070
     2
1070
   272
1070
     3
1070
    77
1070
     1
1070
    73
1070
     1
1070
   171
1070
     3
1070
   274
1070
     4
1070
   177
1070
     2
1070
   176
1070
     2
1070
   178
1070
     2
1070
    78
1070
     8
1070
    48
1040
-0.1
1070
    41
1040
3.5
1070
   147
1040
1.5
1070
    42
1040
1.5875
1070
    44
1040
2.0
1070
   140
1040
3.0
1002
}
1001
ACAD_DSTYLE_DIM_LINETYPE
1070
   380
1005
16
1001
ACAD_DSTYLE_DIM_EXT1_LINETYPE
1070
   381
1005
16
1001
ACAD_DSTYLE_DIM_EXT2_LINETYPE
1070
   382
1005
16
0
DIMENSION
5
13A
100
AcDbEntity
8
2
62
256
6
ByLayer
370
18
48
1
60
0
100
AcDbDimension
2
_U3
10
6
20
-34.210686
30
0
11
12
21
-34.210686
31
0
70
32
71
1
72
1
41
1
210
0
220
0
230
1
3
Standard
100
AcDbAlignedDimension
13
18
23
0
33
0
14
6
24
-0.6
34
0
50
0
100
AcDbRotatedDimension
1001
ACAD
1000
DSTYLE
1002
{
1070
   371
1070
    13
1070
   372
1070
    13
1070
     3
1000

1070
   170
1070
     0
1070
   144
1040
1.0
1070
   277
1070
     2
1070
   284
1070
     8
1070
   278
1070
    46
1070
   146
1040
1.166667
1070
   345
1005
16
1070
   347
1005
16
1070
   346
1005
16
1070
   344
1005
0
1070
   343
1005
0
1070
   172
1070
     1
1070
    76
1070
     0
1070
    75
1070
     0
1070
   282
1070
     0
1070
   281
1070
     0
1070
    71
1070
     0
1070
    74
1070
     0
1070
   279
1070
     0
1070
   173
1070
     1
1070
   340
1005
D0
1070
   271
1070
     2
1070
   272
1070
     3
1070
    77
1070
     1
1070
    73
1070
     1
1070
   171
1070
     3
1070
   274
1070
     4
1070
   177
1070
     2
1070
   176
1070
     2
1070
   178
1070
     2
1070
    78
1070
     8
1070
    48
1040
-0.1
1070
    41
1040
3.5
1070
   147
1040
1.5
1070
    42
1040
1.5875
1070
    44
1040
2.0
1070
   140
1040
3.0
1002
}
1001
ACAD_DSTYLE_DIM_LINETYPE
1070
   380
1005
16
1001
ACAD_DSTYLE_DIM_EXT1_LINETYPE
1070
   381
1005
16
1001
ACAD_DSTYLE_DIM_EXT2_LINETYPE
1070
   382
1005
16
0
ENDSEC
0
SECTION
2
OBJECTS
0
DICTIONARY
5
1c5
330
0
100
AcDbDictionary
280
0
281
1
3
ACAD_GROUP
350
1c6
3
ACAD_MLINESTYLE
350
1c7
0
DICTIONARY
5
1c6
330
0
100
AcDbDictionary
280
0
281
1
0
DICTIONARY
5
1c7
330
0
100
AcDbDictionary
280
0
281
1
3
Standard
350
18
0
MLINESTYLE
5
18
330
1c7
100
AcDbMlineStyle
2
Standard
70
0
3

62
256
51
90
52
90
71
2
49
-0.5
62
256
6
ByLayer
49
0.5
62
256
6
ByLayer
0
RASTERVARIABLES
5
1b1
330

100
AcDbRasterVariables
90
0
70
1
71
1
72
1
0
ENDSEC
0
EOF
