0
SECTION
2
HEADER
9
$ACADVER
1
AC1015
9
$DWGCODEPAGE
3
ANSI_1252
9
$HANDSEED
5
1d0
9
$ANGBASE
50
0
9
$ANGDIR
70
0
9
$ATTMODE
70
1
9
$AUNITS
70
0
9
$AUPREC
70
0
9
$CECOLOR
62
256
9
$CELTSCALE
40
1
9
$CELTYPE
6
ByLayer
9
$CELWEIGHT
370
18
9
$CLAYER
8
0
9
$CMLJUST
70
0
9
$CMLSCALE
40
1
9
$CMLSTYLE
2
Standard
9
$DIMSTYLE
2
Standard
9
$TEXTSIZE
40
0.2
9
$TEXTSTYLE
7
Standard
9
$LUNITS
70
2
9
$LUPREC
70
4
9
$EXTNAMES
290
1
9
$INSUNITS
70
4
9
$LTSCALE
40
1
9
$LWDISPLAY
290
1
9
$PDMODE
70
0
9
$PDSIZE
40
0
9
$PLINEGEN
70
0
0
ENDSEC
0
SECTION
2
CLASSES
0
CLASS
1
RASTERVARIABLES
2
AcDbRasterVariables
3
ISM
90
0
280
0
281
0
0
ENDSEC
0
SECTION
2
TABLES
0
TABLE
2
VPORT
5
1c6
100
AcDbSymbolTable
0
VPORT
5
1
100
AcDbSymbolTableRecord
100
AcDbViewportTableRecord
2
*Active
70
0
10
0
20
0
11
1
21
1
12
-1
22
1
13
0
23
0
14
0.5
24
0.5
15
10
25
10
16
0
26
0
36
1
17
0
27
0
37
0
0
ENDTAB
0
TABLE
2
LTYPE
5
1c7
100
AcDbSymbolTable
0
LTYPE
5
14
100
AcDbSymbolTableRecord
100
AcDbLinetypeTableRecord
70
0
2
ByBlock
3

72
65
73
0
40
0
0
LTYPE
5
15
100
AcDbSymbolTableRecord
100
AcDbLinetypeTableRecord
70
0
2
ByLayer
3

72
65
73
0
40
0
0
LTYPE
5
16
100
AcDbSymbolTableRecord
100
AcDbLinetypeTableRecord
70
0
2
Continuous
3
Solid line
72
65
73
0
40
0
0
LTYPE
5
6E
100
AcDbSymbolTableRecord
100
AcDbLinetypeTableRecord
70
0
2
CENTER
3
____ _ ____ _ ____ _ ____
72
65
73
4
40
47.5
49
22
74
0
49
-8.5
74
0
49
8.5
74
0
49
-8.5
74
0
0
LTYPE
5
6F
100
AcDbSymbolTableRecord
100
AcDbLinetypeTableRecord
70
0
2
DASHED
3
__ __ __ __ __ __ __ __ __
72
65
73
2
40
25.72
49
12.86
74
0
49
-12.86
74
0
0
ENDTAB
0
TABLE
2
LAYER
5
1c8
100
AcDbSymbolTable
0
LAYER
5
10
100
AcDbSymbolTableRecord
100
AcDbLayerTableRecord
2
0
70
0
62
7
6
Continuous
290
1
370
-3
390
0
0
LAYER
5
71
100
AcDbSymbolTableRecord
100
AcDbLayerTableRecord
2
81
70
0
62
-3
6
Continuous
290
1
370
-3
390
0
0
LAYER
5
73
100
AcDbSymbolTableRecord
100
AcDbLayerTableRecord
2
80
70
0
62
-6
6
Continuous
290
1
370
-3
390
0
0
LAYER
5
75
100
AcDbSymbolTableRecord
100
AcDbLayerTableRecord
2
1
70
0
62
4
6
Continuous
290
1
370
-3
390
0
0
LAYER
5
7F
100
AcDbSymbolTableRecord
100
AcDbLayerTableRecord
2
4
70
0
62
-2
6
CENTER
290
1
370
-3
390
0
0
LAYER
5
A8
100
AcDbSymbolTableRecord
100
AcDbLayerTableRecord
2
2
70
0
62
7
6
Continuous
290
1
370
-3
390
0
0
LAYER
5
F1
100
AcDbSymbolTableRecord
100
AcDbLayerTableRecord
2
Defpoints
70
0
62
7
6
Continuous
290
0
370
-3
390
0
0
LAYER
5
1b0
100
AcDbSymbolTableRecord
100
AcDbLayerTableRecord
2
SK4
70
0
62
2
6
CENTER
290
1
370
-3
390
0
0
LAYER
5
1b1
100
AcDbSymbolTableRecord
100
AcDbLayerTableRecord
2
SK1
70
0
62
4
6
Continuous
290
1
370
-3
390
0
0
LAYER
5
1b2
100
AcDbSymbolTableRecord
100
AcDbLayerTableRecord
2
SK2
70
0
62
7
6
Continuous
290
1
370
-3
390
0
0
LAYER
5
1b3
100
AcDbSymbolTableRecord
100
AcDbLayerTableRecord
2
CUT
70
0
62
-1
6
Continuous
290
1
370
-3
390
0
0
LAYER
5
1b4
100
AcDbSymbolTableRecord
100
AcDbLayerTableRecord
2
NOCUT
70
0
62
-7
6
Continuous
290
1
370
-3
390
0
0
LAYER
5
1b5
100
AcDbSymbolTableRecord
100
AcDbLayerTableRecord
2
SK6
70
0
62
5
6
Continuous
290
1
370
-3
390
0
0
ENDTAB
0
TABLE
2
STYLE
5
1c9
100
AcDbSymbolTable
0
STYLE
5
11
100
AcDbSymbolTableRecord
100
AcDbTextStyleTableRecord
2
Standard
3
txt
70
0
71
0
40
0
41
1
42
0
50
0
0
STYLE
5
CD
100
AcDbSymbolTableRecord
100
AcDbTextStyleTableRecord
2
iso_b_vert
3
simplex.shx
70
0
71
0
40
0
41
1
42
0
50
0
0
STYLE
5
CE
100
AcDbSymbolTableRecord
100
AcDbTextStyleTableRecord
2
DWGDirectTextStyle
3
simplex
70
0
71
0
40
0
41
1
42
0
50
0
0
ENDTAB
0
TABLE
2
DIMSTYLE
5
1ca
100
AcDbSymbolTable
100
AcDbDimStyleTable
0
DIMSTYLE
105
27
100
AcDbSymbolTableRecord
100
AcDbDimStyleTableRecord
2
Standard
70
0
3
<>
41
0.18
42
0.0625
44
0.18
140
0.18
147
0.09
73
0
74
0
77
1
271
2
275
0
278
52
280
0
340
11
0
ENDTAB
0
TABLE
2
VIEW
5
1cb
100
AcDbSymbolTable
0
ENDTAB
0
TABLE
2
UCS
5
1cc
100
AcDbSymbolTable
0
ENDTAB
0
TABLE
2
APPID
5
1cd
100
AcDbSymbolTable
0
APPID
5
12
100
AcDbSymbolTableRecord
100
AcDbRegAppTableRecord
2
ACAD
70
0
0
APPID
5
ED
100
AcDbSymbolTableRecord
100
AcDbRegAppTableRecord
2
ACAD_DSTYLE_DIMBREAK
70
0
0
APPID
5
16F
100
AcDbSymbolTableRecord
100
AcDbRegAppTableRecord
2
ACAD_DSTYLE_DIM_LINETYPE
70
0
0
APPID
5
170
100
AcDbSymbolTableRecord
100
AcDbRegAppTableRecord
2
ACAD_DSTYLE_DIM_EXT1_LINETYPE
70
0
0
APPID
5
171
100
AcDbSymbolTableRecord
100
AcDbRegAppTableRecord
2
ACAD_DSTYLE_DIM_EXT2_LINETYPE
70
0
0
APPID
5
1AC
100
AcDbSymbolTableRecord
100
AcDbRegAppTableRecord
2
ACAD_MLEADERVER
70
0
0
ENDTAB
0
TABLE
2
BLOCK_RECORD
5
1ce
100
AcDbSymbolTable
0
BLOCK_RECORD
5
1F
100
AcDbSymbolTableRecord
100
AcDbBlockTableRecord
2
*Model_Space
340
0
70
0
0
BLOCK_RECORD
5
1B
100
AcDbSymbolTableRecord
100
AcDbBlockTableRecord
2
*Paper_Space
340
0
70
0
0
BLOCK_RECORD
5
23
100
AcDbSymbolTableRecord
100
AcDbBlockTableRecord
2
*Paper_Space0
340
0
70
0
0
BLOCK_RECORD
5
F2
100
AcDbSymbolTableRecord
100
AcDbBlockTableRecord
2
*D1
340
0
70
0
0
BLOCK_RECORD
5
FE
100
AcDbSymbolTableRecord
100
AcDbBlockTableRecord
2
_U0
340
0
70
0
0
BLOCK_RECORD
5
10A
100
AcDbSymbolTableRecord
100
AcDbBlockTableRecord
2
*D3
340
0
70
0
0
BLOCK_RECORD
5
117
100
AcDbSymbolTableRecord
100
AcDbBlockTableRecord
2
_U1
340
0
70
0
0
BLOCK_RECORD
5
123
100
AcDbSymbolTableRecord
100
AcDbBlockTableRecord
2
*D5
340
0
70
0
0
BLOCK_RECORD
5
12F
100
AcDbSymbolTableRecord
100
AcDbBlockTableRecord
2
_U2
340
0
70
0
0
BLOCK_RECORD
5
13B
100
AcDbSymbolTableRecord
100
AcDbBlockTableRecord
2
*D7
340
0
70
0
0
BLOCK_RECORD
5
148
100
AcDbSymbolTableRecord
100
AcDbBlockTableRecord
2
_U3
340
0
70
0
0
ENDTAB
0
ENDSEC
0
SECTION
2
BLOCKS
0
BLOCK
5
20
100
AcDbEntity
8
0
100
AcDbBlockBegin
2
*Model_Space
70
0
10
0
20
0
30
0
3
*Model_Space
0
ENDBLK
5
21
100
AcDbEntity
8
0
100
AcDbBlockEnd
0
BLOCK
5
1C
100
AcDbEntity
8
0
100
AcDbBlockBegin
2
*Paper_Space
70
0
10
0
20
0
30
0
3
*Paper_Space
0
ENDBLK
5
1D
100
AcDbEntity
8
0
100
AcDbBlockEnd
0
BLOCK
5
24
100
AcDbEntity
8
0
100
AcDbBlockBegin
2
*Paper_Space0
70
0
10
0
20
0
30
0
3
*Paper_Space0
0
ENDBLK
5
25
100
AcDbEntity
8
0
100
AcDbBlockEnd
0
BLOCK
5
F3
100
AcDbEntity
8
0
100
AcDbBlockBegin
2
*D1
70
1
10
0
20
0
30
0
3
*D1
0
LINE
5
F5
100
AcDbEntity
8
0
62
256
6
ByLayer
370
-2
48
1
60
0
100
AcDbLine
10
-20
20
-2.1375
30
0
11
-20
21
-51.034762
31
0
39
0
210
0
220
0
230
1
0
LINE
5
F6
100
AcDbEntity
8
0
62
256
6
ByLayer
370
-2
48
1
60
0
100
AcDbLine
10
16
20
-1.5875
30
0
11
16
21
-51.034762
31
0
39
0
210
0
220
0
230
1
0
LINE
5
F7
100
AcDbEntity
8
0
62
256
6
ByLayer
370
-2
48
1
60
0
100
AcDbLine
10
-16.5
20
-49.034762
30
0
11
12.5
21
-49.034762
31
0
39
0
210
0
220
0
230
1
0
SOLID
5
F8
100
AcDbEntity
8
0
62
256
6
ByLayer
370
-1
48
1
60
0
100
AcDbTrace
10
-16.5
20
-48.451428
30
0
11
-16.5
21
-49.618095
31
0
12
-20
22
-49.034762
32
0
13
-20
23
-49.034762
33
0
39
0
210
0
220
0
230
1
0
SOLID
5
F9
100
AcDbEntity
8
0
62
256
6
ByLayer
370
-1
48
1
60
0
100
AcDbTrace
10
12.5
20
-49.618095
30
0
11
12.5
21
-48.451428
31
0
12
16
22
-49.034762
32
0
13
16
23
-49.034762
33
0
39
0
210
0
220
0
230
1
0
MTEXT
5
FA
100
AcDbEntity
8
0
62
256
6
ByLayer
370
18
48
1
60
0
100
AcDbMText
10
-2
20
-43.034762
30
0
210
0
220
0
230
1
1
\A1;36
40
3
41
0
44
1
50
0
71
5
72
5
7
iso_b_vert
0
POINT
5
FB
100
AcDbEntity
8
Defpoints
62
0
6
ByLayer
370
-1
48
1
60
0
100
AcDbPoint
10
-20
20
-0.55
30
0
39
0
210
0
220
0
230
1
50
360
0
POINT
5
FC
100
AcDbEntity
8
Defpoints
62
0
6
ByLayer
370
-1
48
1
60
0
100
AcDbPoint
10
16
20
0
30
0
39
0
210
0
220
0
230
1
50
360
0
POINT
5
FD
100
AcDbEntity
8
Defpoints
62
0
6
ByLayer
370
-1
48
1
60
0
100
AcDbPoint
10
16
20
-49.034762
30
0
39
0
210
0
220
0
230
1
50
360
0
ENDBLK
5
F4
100
AcDbEntity
8
0
100
AcDbBlockEnd
0
BLOCK
5
105
100
AcDbEntity
8
0
100
AcDbBlockBegin
2
_U0
70
0
10
0
20
0
30
0
3
_U0
0
MTEXT
5
FF
100
AcDbEntity
8
SK2
62
256
6
ByLayer
370
18
48
1
60
0
100
AcDbMText
10
-6.48237
20
-48.149647
30
0
210
0
220
0
230
1
1
\W0.7468;36.00
40
3
41
0
44
1.084337
50
0
71
7
72
5
7
iso_b_vert
0
LINE
5
100
100
AcDbEntity
8
SK2
62
256
6
ByLayer
370
13
48
1
60
0
100
AcDbLine
10
-20
20
-2.1375
30
0
11
-20
21
-51.034762
31
0
39
0
210
0
220
0
230
1
0
LINE
5
101
100
AcDbEntity
8
SK2
62
256
6
ByLayer
370
13
48
1
60
0
100
AcDbLine
10
16
20
-1.5875
30
0
11
16
21
-51.034762
31
0
39
0
210
0
220
0
230
1
0
LINE
5
102
100
AcDbEntity
8
SK2
62
256
6
ByLayer
370
13
48
1
60
0
100
AcDbLine
10
-20
20
-49.034762
30
0
11
16
21
-49.034762
31
0
39
0
210
0
220
0
230
1
0
SOLID
5
103
100
AcDbEntity
8
SK2
62
256
6
ByLayer
370
18
48
1
60
0
100
AcDbTrace
10
-20
20
-49.034762
30
0
11
-16.500002
21
-48.573978
31
0
12
-16.499998
22
-49.495545
32
0
13
-16.499998
23
-49.495545
33
0
39
0
210
0
220
0
230
1
0
SOLID
5
104
100
AcDbEntity
8
SK2
62
256
6
ByLayer
370
18
48
1
60
0
100
AcDbTrace
10
16
20
-49.034762
30
0
11
12.500002
21
-49.495545
31
0
12
12.499998
22
-48.573978
32
0
13
12.499998
23
-48.573978
33
0
39
0
210
0
220
0
230
1
0
ENDBLK
5
106
100
AcDbEntity
8
0
100
AcDbBlockEnd
0
BLOCK
5
10B
100
AcDbEntity
8
0
100
AcDbBlockBegin
2
*D3
70
1
10
0
20
0
30
0
3
*D3
0
LINE
5
10D
100
AcDbEntity
8
0
62
256
6
ByLayer
370
-2
48
1
60
0
100
AcDbLine
10
16
20
-1.5875
30
0
11
16
21
-41.034762
31
0
39
0
210
0
220
0
230
1
0
LINE
5
10E
100
AcDbEntity
8
0
62
256
6
ByLayer
370
-2
48
1
60
0
100
AcDbLine
10
2
20
-2.1375
30
0
11
2
21
-41.034762
31
0
39
0
210
0
220
0
230
1
0
LINE
5
10F
100
AcDbEntity
8
0
62
256
6
ByLayer
370
-2
48
1
60
0
100
AcDbLine
10
19.5
20
-39.034762
30
0
11
23
21
-39.034762
31
0
39
0
210
0
220
0
230
1
0
LINE
5
110
100
AcDbEntity
8
0
62
256
6
ByLayer
370
-2
48
1
60
0
100
AcDbLine
10
-1.5
20
-39.034762
30
0
11
-5
21
-39.034762
31
0
39
0
210
0
220
0
230
1
0
SOLID
5
111
100
AcDbEntity
8
0
62
256
6
ByLayer
370
-1
48
1
60
0
100
AcDbTrace
10
19.5
20
-38.451428
30
0
11
19.5
21
-39.618095
31
0
12
16
22
-39.034762
32
0
13
16
23
-39.034762
33
0
39
0
210
0
220
0
230
1
0
SOLID
5
112
100
AcDbEntity
8
0
62
256
6
ByLayer
370
-1
48
1
60
0
100
AcDbTrace
10
-1.5
20
-39.618095
30
0
11
-1.5
21
-38.451428
31
0
12
2
22
-39.034762
32
0
13
2
23
-39.034762
33
0
39
0
210
0
220
0
230
1
0
MTEXT
5
113
100
AcDbEntity
8
0
62
256
6
ByLayer
370
18
48
1
60
0
100
AcDbMText
10
9
20
-33.034762
30
0
210
0
220
0
230
1
1
\A1;14
40
3
41
0
44
1
50
0
71
5
72
5
7
iso_b_vert
0
POINT
5
114
100
AcDbEntity
8
Defpoints
62
0
6
ByLayer
370
-1
48
1
60
0
100
AcDbPoint
10
16
20
0
30
0
39
0
210
0
220
0
230
1
50
360
0
POINT
5
115
100
AcDbEntity
8
Defpoints
62
0
6
ByLayer
370
-1
48
1
60
0
100
AcDbPoint
10
2
20
-0.55
30
0
39
0
210
0
220
0
230
1
50
360
0
POINT
5
116
100
AcDbEntity
8
Defpoints
62
0
6
ByLayer
370
-1
48
1
60
0
100
AcDbPoint
10
2
20
-39.034762
30
0
39
0
210
0
220
0
230
1
50
360
0
ENDBLK
5
10C
100
AcDbEntity
8
0
100
AcDbBlockEnd
0
BLOCK
5
11E
100
AcDbEntity
8
0
100
AcDbBlockBegin
2
_U1
70
0
10
0
20
0
30
0
3
_U1
0
MTEXT
5
118
100
AcDbEntity
8
2
62
256
6
ByLayer
370
18
48
1
60
0
100
AcDbMText
10
4.734629
20
-38.149647
30
0
210
0
220
0
230
1
1
\W0.7091;14.00
40
3
41
0
44
1.084337
50
0
71
7
72
5
7
iso_b_vert
0
LINE
5
119
100
AcDbEntity
8
2
62
256
6
ByLayer
370
13
48
1
60
0
100
AcDbLine
10
16
20
-1.5875
30
0
11
16
21
-41.034762
31
0
39
0
210
0
220
0
230
1
0
LINE
5
11A
100
AcDbEntity
8
2
62
256
6
ByLayer
370
13
48
1
60
0
100
AcDbLine
10
2
20
-2.1375
30
0
11
2
21
-41.034762
31
0
39
0
210
0
220
0
230
1
0
LINE
5
11B
100
AcDbEntity
8
2
62
256
6
ByLayer
370
13
48
1
60
0
100
AcDbLine
10
16
20
-39.034762
30
0
11
2
21
-39.034762
31
0
39
0
210
0
220
0
230
1
0
SOLID
5
11C
100
AcDbEntity
8
2
62
256
6
ByLayer
370
18
48
1
60
0
100
AcDbTrace
10
16
20
-39.034762
30
0
11
12.500002
21
-39.495545
31
0
12
12.499998
22
-38.573978
32
0
13
12.499998
23
-38.573978
33
0
39
0
210
0
220
0
230
1
0
SOLID
5
11D
100
AcDbEntity
8
2
62
256
6
ByLayer
370
18
48
1
60
0
100
AcDbTrace
10
2
20
-39.034762
30
0
11
5.499998
21
-38.573978
31
0
12
5.500002
22
-39.495545
32
0
13
5.500002
23
-39.495545
33
0
39
0
210
0
220
0
230
1
0
ENDBLK
5
11F
100
AcDbEntity
8
0
100
AcDbBlockEnd
0
BLOCK
5
124
100
AcDbEntity
8
0
100
AcDbBlockBegin
2
*D5
70
1
10
0
20
0
30
0
3
*D5
0
LINE
5
126
100
AcDbEntity
8
0
62
256
6
ByLayer
370
-2
48
1
60
0
100
AcDbLine
10
-20
20
-2.1375
30
0
11
-20
21
-36.034762
31
0
39
0
210
0
220
0
230
1
0
LINE
5
127
100
AcDbEntity
8
0
62
256
6
ByLayer
370
-2
48
1
60
0
100
AcDbLine
10
0
20
-2.1375
30
0
11
0
21
-36.034762
31
0
39
0
210
0
220
0
230
1
0
LINE
5
128
100
AcDbEntity
8
0
62
256
6
ByLayer
370
-2
48
1
60
0
100
AcDbLine
10
-16.5
20
-34.034762
30
0
11
-3.5
21
-34.034762
31
0
39
0
210
0
220
0
230
1
0
SOLID
5
129
100
AcDbEntity
8
0
62
256
6
ByLayer
370
-1
48
1
60
0
100
AcDbTrace
10
-16.5
20
-33.451428
30
0
11
-16.5
21
-34.618095
31
0
12
-20
22
-34.034762
32
0
13
-20
23
-34.034762
33
0
39
0
210
0
220
0
230
1
0
SOLID
5
12A
100
AcDbEntity
8
0
62
256
6
ByLayer
370
-1
48
1
60
0
100
AcDbTrace
10
-3.5
20
-34.618095
30
0
11
-3.5
21
-33.451428
31
0
12
0
22
-34.034762
32
0
13
0
23
-34.034762
33
0
39
0
210
0
220
0
230
1
0
MTEXT
5
12B
100
AcDbEntity
8
0
62
256
6
ByLayer
370
18
48
1
60
0
100
AcDbMText
10
-10
20
-28.034762
30
0
210
0
220
0
230
1
1
\A1;20
40
3
41
0
44
1
50
0
71
5
72
5
7
iso_b_vert
0
POINT
5
12C
100
AcDbEntity
8
Defpoints
62
0
6
ByLayer
370
-1
48
1
60
0
100
AcDbPoint
10
-20
20
-0.55
30
0
39
0
210
0
220
0
230
1
50
360
0
POINT
5
12D
100
AcDbEntity
8
Defpoints
62
0
6
ByLayer
370
-1
48
1
60
0
100
AcDbPoint
10
0
20
-0.55
30
0
39
0
210
0
220
0
230
1
50
360
0
POINT
5
12E
100
AcDbEntity
8
Defpoints
62
0
6
ByLayer
370
-1
48
1
60
0
100
AcDbPoint
10
0
20
-34.034762
30
0
39
0
210
0
220
0
230
1
50
360
0
ENDBLK
5
125
100
AcDbEntity
8
0
100
AcDbBlockEnd
0
BLOCK
5
136
100
AcDbEntity
8
0
100
AcDbBlockBegin
2
_U2
70
0
10
0
20
0
30
0
3
_U2
0
MTEXT
5
130
100
AcDbEntity
8
SK2
62
256
6
ByLayer
370
18
48
1
60
0
100
AcDbMText
10
-14.48237
20
-33.149647
30
0
210
0
220
0
230
1
1
\W0.7468;20.00
40
3
41
0
44
1.084337
50
0
71
7
72
5
7
iso_b_vert
0
LINE
5
131
100
AcDbEntity
8
SK2
62
256
6
ByLayer
370
13
48
1
60
0
100
AcDbLine
10
-20
20
-2.1375
30
0
11
-20
21
-36.034762
31
0
39
0
210
0
220
0
230
1
0
LINE
5
132
100
AcDbEntity
8
SK2
62
256
6
ByLayer
370
13
48
1
60
0
100
AcDbLine
10
0
20
-2.1375
30
0
11
0
21
-36.034762
31
0
39
0
210
0
220
0
230
1
0
LINE
5
133
100
AcDbEntity
8
SK2
62
256
6
ByLayer
370
13
48
1
60
0
100
AcDbLine
10
-20
20
-34.034762
30
0
11
0
21
-34.034762
31
0
39
0
210
0
220
0
230
1
0
SOLID
5
134
100
AcDbEntity
8
SK2
62
256
6
ByLayer
370
18
48
1
60
0
100
AcDbTrace
10
-20
20
-34.034762
30
0
11
-16.500002
21
-33.573978
31
0
12
-16.499998
22
-34.495545
32
0
13
-16.499998
23
-34.495545
33
0
39
0
210
0
220
0
230
1
0
SOLID
5
135
100
AcDbEntity
8
SK2
62
256
6
ByLayer
370
18
48
1
60
0
100
AcDbTrace
10
0
20
-34.034762
30
0
11
-3.499998
21
-34.495545
31
0
12
-3.500002
22
-33.573978
32
0
13
-3.500002
23
-33.573978
33
0
39
0
210
0
220
0
230
1
0
ENDBLK
5
137
100
AcDbEntity
8
0
100
AcDbBlockEnd
0
BLOCK
5
13C
100
AcDbEntity
8
0
100
AcDbBlockBegin
2
*D7
70
1
10
0
20
0
30
0
3
*D7
0
LINE
5
13E
100
AcDbEntity
8
0
62
256
6
ByLayer
370
-2
48
1
60
0
100
AcDbLine
10
16
20
-1.5875
30
0
11
16
21
-34.034762
31
0
39
0
210
0
220
0
230
1
0
LINE
5
13F
100
AcDbEntity
8
0
62
256
6
ByLayer
370
-2
48
1
60
0
100
AcDbLine
10
5.5
20
-2.1375
30
0
11
5.5
21
-34.034762
31
0
39
0
210
0
220
0
230
1
0
LINE
5
140
100
AcDbEntity
8
0
62
256
6
ByLayer
370
-2
48
1
60
0
100
AcDbLine
10
19.5
20
-32.034762
30
0
11
23
21
-32.034762
31
0
39
0
210
0
220
0
230
1
0
LINE
5
141
100
AcDbEntity
8
0
62
256
6
ByLayer
370
-2
48
1
60
0
100
AcDbLine
10
2
20
-32.034762
30
0
11
-1.5
21
-32.034762
31
0
39
0
210
0
220
0
230
1
0
SOLID
5
142
100
AcDbEntity
8
0
62
256
6
ByLayer
370
-1
48
1
60
0
100
AcDbTrace
10
19.5
20
-31.451428
30
0
11
19.5
21
-32.618095
31
0
12
16
22
-32.034762
32
0
13
16
23
-32.034762
33
0
39
0
210
0
220
0
230
1
0
SOLID
5
143
100
AcDbEntity
8
0
62
256
6
ByLayer
370
-1
48
1
60
0
100
AcDbTrace
10
2
20
-32.618095
30
0
11
2
21
-31.451428
31
0
12
5.5
22
-32.034762
32
0
13
5.5
23
-32.034762
33
0
39
0
210
0
220
0
230
1
0
MTEXT
5
144
100
AcDbEntity
8
0
62
256
6
ByLayer
370
18
48
1
60
0
100
AcDbMText
10
10.75
20
-26.034762
30
0
210
0
220
0
230
1
1
\A1;10.5
40
3
41
0
44
1
50
0
71
5
72
5
7
iso_b_vert
0
POINT
5
145
100
AcDbEntity
8
Defpoints
62
0
6
ByLayer
370
-1
48
1
60
0
100
AcDbPoint
10
16
20
0
30
0
39
0
210
0
220
0
230
1
50
360
0
POINT
5
146
100
AcDbEntity
8
Defpoints
62
0
6
ByLayer
370
-1
48
1
60
0
100
AcDbPoint
10
5.5
20
-0.55
30
0
39
0
210
0
220
0
230
1
50
360
0
POINT
5
147
100
AcDbEntity
8
Defpoints
62
0
6
ByLayer
370
-1
48
1
60
0
100
AcDbPoint
10
5.5
20
-32.034762
30
0
39
0
210
0
220
0
230
1
50
360
0
ENDBLK
5
13D
100
AcDbEntity
8
0
100
AcDbBlockEnd
0
BLOCK
5
14F
100
AcDbEntity
8
0
100
AcDbBlockBegin
2
_U3
70
0
10
0
20
0
30
0
3
_U3
0
MTEXT
5
149
100
AcDbEntity
8
2
62
256
6
ByLayer
370
18
48
1
60
0
100
AcDbMText
10
6.642572
20
-31.149647
30
0
210
0
220
0
230
1
1
\W0.6864;10.50
40
3
41
0
44
1.084337
50
0
71
7
72
5
7
iso_b_vert
0
LINE
5
14A
100
AcDbEntity
8
2
62
256
6
ByLayer
370
13
48
1
60
0
100
AcDbLine
10
16
20
-1.5875
30
0
11
16
21
-34.034762
31
0
39
0
210
0
220
0
230
1
0
LINE
5
14B
100
AcDbEntity
8
2
62
256
6
ByLayer
370
13
48
1
60
0
100
AcDbLine
10
5.5
20
-2.1375
30
0
11
5.5
21
-34.034762
31
0
39
0
210
0
220
0
230
1
0
LINE
5
14C
100
AcDbEntity
8
2
62
256
6
ByLayer
370
13
48
1
60
0
100
AcDbLine
10
16
20
-32.034762
30
0
11
5.5
21
-32.034762
31
0
39
0
210
0
220
0
230
1
0
SOLID
5
14D
100
AcDbEntity
8
2
62
256
6
ByLayer
370
18
48
1
60
0
100
AcDbTrace
10
16
20
-32.034762
30
0
11
12.500002
21
-32.495545
31
0
12
12.499998
22
-31.573978
32
0
13
12.499998
23
-31.573978
33
0
39
0
210
0
220
0
230
1
0
SOLID
5
14E
100
AcDbEntity
8
2
62
256
6
ByLayer
370
18
48
1
60
0
100
AcDbTrace
10
5.5
20
-32.034762
30
0
11
8.999998
21
-31.573978
31
0
12
9.000002
22
-32.495545
32
0
13
9.000002
23
-32.495545
33
0
39
0
210
0
220
0
230
1
0
ENDBLK
5
150
100
AcDbEntity
8
0
100
AcDbBlockEnd
0
ENDSEC
0
SECTION
2
ENTITIES
0
ARC
5
B9
100
AcDbEntity
8
2
62
256
6
ByLayer
370
13
48
1
60
0
100
AcDbCircle
39
0
10
16
20
0
30
0
40
22
210
0
220
0
230
1
100
AcDbArc
50
7.83748
51
61.596605
0
ARC
5
BA
100
AcDbEntity
8
2
62
256
6
ByLayer
370
13
48
1
60
0
100
AcDbCircle
39
0
10
16
20
0
30
0
40
22
210
0
220
0
230
1
100
AcDbArc
50
298.403395
51
352.16252
0
POINT
5
70
100
AcDbEntity
8
81
62
256
6
ByLayer
370
18
48
1
60
0
100
AcDbPoint
10
16
20
0
30
0
39
0
210
0
220
0
230
1
50
360
0
POINT
5
72
100
AcDbEntity
8
80
62
256
6
ByLayer
370
18
48
1
60
0
100
AcDbPoint
10
0
20
0
30
0
39
0
210
0
220
0
230
1
50
360
0
POINT
5
74
100
AcDbEntity
8
1
62
256
6
ByLayer
370
18
48
1
60
1
100
AcDbPoint
10
-20
20
-0.55
30
0
39
0
210
0
220
0
230
1
50
360
0
POINT
5
76
100
AcDbEntity
8
1
62
256
6
ByLayer
370
18
48
1
60
1
100
AcDbPoint
10
16
20
0
30
0
39
0
210
0
220
0
230
1
50
360
0
POINT
5
77
100
AcDbEntity
8
1
62
256
6
ByLayer
370
18
48
1
60
1
100
AcDbPoint
10
16
20
0
30
0
39
0
210
0
220
0
230
1
50
360
0
POINT
5
78
100
AcDbEntity
8
1
62
256
6
ByLayer
370
18
48
1
60
1
100
AcDbPoint
10
2
20
-0.55
30
0
39
0
210
0
220
0
230
1
50
360
0
POINT
5
79
100
AcDbEntity
8
1
62
256
6
ByLayer
370
18
48
1
60
1
100
AcDbPoint
10
-20
20
-0.55
30
0
39
0
210
0
220
0
230
1
50
360
0
POINT
5
7A
100
AcDbEntity
8
1
62
256
6
ByLayer
370
18
48
1
60
1
100
AcDbPoint
10
0
20
-0.55
30
0
39
0
210
0
220
0
230
1
50
360
0
POINT
5
7B
100
AcDbEntity
8
1
62
256
6
ByLayer
370
18
48
1
60
1
100
AcDbPoint
10
16
20
0
30
0
39
0
210
0
220
0
230
1
50
360
0
POINT
5
7C
100
AcDbEntity
8
1
62
256
6
ByLayer
370
18
48
1
60
1
100
AcDbPoint
10
5.5
20
-0.55
30
0
39
0
210
0
220
0
230
1
50
360
0
SPLINE
5
BB
100
AcDbEntity
8
CUT
62
256
6
ByLayer
370
18
48
1
60
0
100
AcDbSpline
70
2053
71
3
72
17
73
13
40
0
40
0
40
0
40
0
40
0.480021538523643
40
0.480021538523643
40
0.480021538523643
40
0.504990614755868
40
0.504990614755868
40
0.504990614755868
40
0.971414958530023
40
0.971414958530023
40
0.971414958530023
40
1
40
1
40
1
40
1
41
1
10
16
20
0
30
0
41
1
10
12.5
20
0
30
0
41
1
10
9
20
0
30
0
41
1
10
5.5
20
0
30
0
41
1
10
5.5
20
0.182058011573844
30
0
41
1
10
5.5
20
0.364116023147687
30
0
41
1
10
5.49999999999991
20
0.546174034721531
30
0
41
1
10
8.90085799786593
20
0.547449356470651
30
0
41
1
10
12.301715995732
20
0.54872467821977
30
0
41
1
10
15.7025739935982
20
0.54999999996889
30
0
41
1
10
15.8017159957321
20
0.366666666645926
30
0
41
1
10
15.9008579978661
20
0.183333333322963
30
0
41
1
10
16
20
0
30
0
0
SPLINE
5
BD
100
AcDbEntity
8
NOCUT
62
256
6
ByLayer
370
18
48
1
60
0
100
AcDbSpline
70
2053
71
3
72
26
73
22
40
0
40
0
40
0
40
0
40
0.382414565925932
40
0.382414565925932
40
0.382414565925932
40
0.385132233591468
40
0.385132233591468
40
0.385132233591468
40
0.39377979915265
40
0.39377979915265
40
0.39377979915265
40
0.883808514284411
40
0.883808514284411
40
0.883808514284411
40
0.894304238224153
40
0.894304238224153
40
0.894304238224153
40
0.998075032253047
40
0.998075032253047
40
0.998075032253047
40
1
40
1
40
1
40
1
41
1
10
0
20
0.550000000000011
30
0
41
1
10
-6.63333333333333
20
0.550000000000011
30
0
41
1
10
-13.2666666666666
20
0.550000000000011
30
0
41
1
10
-19.9
20
0.550000000000011
30
0
41
1
10
-19.9333333333333
20
0.51666666666668
30
0
41
1
10
-19.9666666666667
20
0.48333333333332
30
0
41
1
10
-20
20
0.449999999999989
30
0
41
1
10
-20
20
0.300000000000011
30
0
41
1
10
-20
20
0.150000000000006
30
0
41
1
10
-20
20
0
30
0
41
1
10
-11.5
20
0
30
0
41
1
10
-3.00000000000006
20
0
30
0
41
1
10
5.49999999999997
20
0
30
0
41
1
10
5.5
20
0.182058011573844
30
0
41
1
10
5.5
20
0.364116023147687
30
0
41
1
10
5.5
20
0.546174034721531
30
0
41
1
10
3.70000000000002
20
0.545499034721587
30
0
41
1
10
1.90000000000001
20
0.544824034721614
30
0
41
1
10
0.0999999999931447
20
0.544149034722068
30
0
41
1
10
0.0666666666575111
20
0.546099356481648
30
0
41
1
10
0.0333333333287555
20
0.54804967824083
30
0
41
1
10
0
20
0.550000000000011
30
0
0
SPLINE
5
BF
100
AcDbEntity
8
1
62
256
6
ByLayer
370
18
48
1
60
0
100
AcDbSpline
70
4
71
3
72
48
73
44
40
0
40
0
40
0
40
0
40
0.125000000000004
40
0.125000000000004
40
0.250000000000009
40
0.250000000000009
40
0.312500000000011
40
0.312500000000011
40
0.375000000000013
40
0.375000000000013
40
0.437500000000015
40
0.437500000000015
40
0.468750000000016
40
0.468750000000016
40
0.484375000000013
40
0.484375000000013
40
0.492187500000015
40
0.492187500000015
40
0.500000000000016
40
0.500000000000016
40
0.507812500000018
40
0.507812500000018
40
0.515625000000019
40
0.515625000000019
40
0.531250000000019
40
0.531250000000019
40
0.56250000000002
40
0.56250000000002
40
0.59375000000002
40
0.59375000000002
40
0.625000000000021
40
0.625000000000021
40
0.687500000000022
40
0.687500000000022
40
0.718750000000022
40
0.718750000000022
40
0.750000000000022
40
0.750000000000022
40
0.875000000000015
40
0.875000000000015
40
0.937500000000008
40
0.937500000000008
40
1
40
1
40
1
40
1
41
1
10
15.7025739935982
20
0.532761666742317
30
0
41
1
10
15.7250573889385
20
0.491437772709929
30
0
41
1
10
15.7474164307292
20
0.449884952691036
30
0
41
1
10
15.7917437265588
20
0.366359526080856
30
0
41
1
10
15.8137390499753
20
0.324383650286762
30
0
41
1
10
15.8459610034035
20
0.26099050758009
30
0
41
1
10
15.8565585654671
20
0.239778466682282
30
0
41
1
10
15.8775490569858
20
0.197302503946844
30
0
41
1
10
15.8879649688622
20
0.176049630157195
30
0
41
1
10
15.9084049749347
20
0.133564337561211
30
0
41
1
10
15.9184644517879
20
0.112292149831234
30
0
41
1
10
15.9326614610583
20
0.0802512817249408
30
0
41
1
10
15.9372498065654
20
0.0695572213223841
30
0
41
1
10
15.9436784239573
20
0.0534027779281985
30
0
41
1
10
15.9457616011012
20
0.0480115937781989
30
0
41
1
10
15.9485155825835
20
0.0397119168557083
30
0
41
1
10
15.9493657716533
20
0.0369050998087062
30
0
41
1
10
15.9508040911367
20
0.0311226685766997
30
0
41
1
10
15.9513954530596
20
0.0280897384292302
30
0
41
1
10
15.9521145255538
20
0.0220316382063288
30
0
41
1
10
15.9522422744888
20
0.0190466564600058
30
0
41
1
10
15.9520533299512
20
0.0131555013291234
30
0
41
1
10
15.9517326296314
20
0.0102288581438472
30
0
41
1
10
15.9503441925692
20
0.0018086224629883
30
0
41
1
10
15.9489089184021
20
-0.0034881558524376
30
0
41
1
10
15.9440762158402
20
-0.0192898214108084
30
0
41
1
10
15.9399966205593
20
-0.0295845719834062
30
0
41
1
10
15.9310974398327
20
-0.0494955428650883
30
0
41
1
10
15.9262571266116
20
-0.0591399516930551
30
0
41
1
10
15.9161886120164
20
-0.0779583226953378
30
0
41
1
10
15.9109547309755
20
-0.0871307778257631
30
0
41
1
10
15.894926767192
20
-0.114058830217573
30
0
41
1
10
15.8838195531974
20
-0.13123311703302
30
0
41
1
10
15.8669082136481
20
-0.156014314765144
30
0
41
1
10
15.8612115102293
20
-0.164125163070423
30
0
41
1
10
15.8498152727995
20
-0.179927665514612
30
0
41
1
10
15.8441167462842
20
-0.187618727580031
30
0
41
1
10
15.8156458827858
20
-0.225062243915232
30
0
41
1
10
15.792963083415
20
-0.251812329176573
30
0
41
1
10
15.7590328117252
20
-0.287345231240067
30
0
41
1
10
15.7477338817897
20
-0.298416415482137
30
0
41
1
10
15.7251194340731
20
-0.319001012524865
30
0
41
1
10
15.7138047867677
20
-0.328509851648931
30
0
41
1
10
15.7025739935982
20
-0.337147370898776
30
0
0
SPLINE
5
C0
100
AcDbEntity
8
1
62
256
6
ByLayer
370
18
48
1
60
0
100
AcDbSpline
70
4
71
3
72
50
73
46
40
0
40
0
40
0
40
0
40
0.083022018161277
40
0.083022018161277
40
0.124533027241919
40
0.124533027241919
40
0.166044036322561
40
0.166044036322561
40
0.207555045403203
40
0.207555045403203
40
0.249066054483845
40
0.249066054483845
40
0.290577063564487
40
0.290577063564487
40
0.33208807264513
40
0.33208807264513
40
0.415110090806406
40
0.415110090806406
40
0.456621099887049
40
0.456621099887049
40
0.498132108967691
40
0.498132108967691
40
0.539643118048333
40
0.539643118048333
40
0.581154127128975
40
0.581154127128975
40
0.622665136209617
40
0.622665136209617
40
0.664176145290259
40
0.664176145290259
40
0.747198163451543
40
0.747198163451543
40
0.788709172532185
40
0.788709172532185
40
0.830220181612827
40
0.830220181612827
40
0.871731190693469
40
0.871731190693469
40
0.913242199774111
40
0.913242199774111
40
0.954753208854753
40
0.954753208854753
40
0.996264217935395
40
0.996264217935395
40
1
40
1
40
1
40
1
41
1
10
15.7025739935983
20
-0.337147370898862
30
0
41
1
10
15.6407948581094
20
-0.310046060753052
30
0
41
1
10
15.5793894690358
20
-0.281335060754685
30
0
41
1
10
15.4877953771604
20
-0.235968400716047
30
0
41
1
10
15.4573350132759
20
-0.220484008075772
30
0
41
1
10
15.3963543103122
20
-0.189140870111458
30
0
41
1
10
15.3658515819904
20
-0.173254381110269
30
0
41
1
10
15.3049013236907
20
-0.140913535888842
30
0
41
1
10
15.2744467280752
20
-0.124469604258252
30
0
41
1
10
15.213420721007
20
-0.0913145502302655
30
0
41
1
10
15.1828454350738
20
-0.0746121749390909
30
0
41
1
10
15.1216077917389
20
-0.0408841411606886
30
0
41
1
10
15.0909633616335
20
-0.0238231691922408
30
0
41
1
10
15.0294571285716
20
0.010390771825854
30
0
41
1
10
14.9984965804453
20
0.0275224589746017
30
0
41
1
10
14.9060081553633
20
0.0784056196045242
30
0
41
1
10
14.8448528926502
20
0.112023714406519
30
0
41
1
10
14.7532494009423
20
0.160874497793145
30
0
41
1
10
14.7227592373527
20
0.176938900681108
30
0
41
1
10
14.6618750161068
20
0.208637366131171
30
0
41
1
10
14.6314645266468
20
0.224240714757229
30
0
41
1
10
14.5704993059536
20
0.254609619076405
30
0
41
1
10
14.539959058376
20
0.269402386577895
30
0
41
1
10
14.4788442117855
20
0.298333703201251
30
0
41
1
10
14.4482668756028
20
0.312465218136282
30
0
41
1
10
14.3869108217326
20
0.339797896832408
30
0
41
1
10
14.3561269692287
20
0.352993450159374
30
0
41
1
10
14.2943793565509
20
0.378479681394424
30
0
41
1
10
14.2635400719785
20
0.390748431242884
30
0
41
1
10
14.1714369849939
20
0.425598067648906
30
0
41
1
10
14.1102270892395
20
0.446173423231699
30
0
41
1
10
14.0187666049902
20
0.473254909671226
30
0
41
1
10
13.9883032556926
20
0.481608643420572
30
0
41
1
10
13.9273401335815
20
0.496906797722602
30
0
41
1
10
13.8968580443907
20
0.503868561761976
30
0
41
1
10
13.835908826402
20
0.516407390281302
30
0
41
1
10
13.805427158655
20
0.521968610788662
30
0
41
1
10
13.7442375867562
20
0.531545053706679
30
0
41
1
10
13.7135407163675
20
0.535573837059161
30
0
41
1
10
13.6520229089125
20
0.542132449523365
30
0
41
1
10
13.6211310726866
20
0.544659111267379
30
0
41
1
10
13.559423020617
20
0.548098525821757
30
0
41
1
10
13.5286515451336
20
0.549017197929203
30
0
41
1
10
13.4952164645758
20
0.549164854673819
30
0
41
1
10
13.4924568582604
20
0.549170662257211
30
0
41
1
10
13.48969814485
20
0.54917009031351
30
0
0
SPLINE
5
C1
100
AcDbEntity
8
1
62
256
6
ByLayer
370
18
48
1
60
0
100
AcDbSpline
70
4
71
3
72
96
73
92
40
0
40
0
40
0
40
0
40
0.0151555677449997
40
0.0151555677449997
40
0.0375750814136024
40
0.0375750814136024
40
0.0599945950822048
40
0.0599945950822048
40
0.0824141087508073
40
0.0824141087508073
40
0.10483362241941
40
0.10483362241941
40
0.127253136088013
40
0.127253136088013
40
0.149672649756615
40
0.149672649756615
40
0.172092163425217
40
0.172092163425217
40
0.19451167709382
40
0.19451167709382
40
0.216931190762423
40
0.216931190762423
40
0.239350704431025
40
0.239350704431025
40
0.261770218099628
40
0.261770218099628
40
0.28418973176823
40
0.28418973176823
40
0.29539948860253
40
0.29539948860253
40
0.30660924543683
40
0.30660924543683
40
0.329028759105431
40
0.329028759105431
40
0.351448272774032
40
0.351448272774032
40
0.373867786442633
40
0.373867786442633
40
0.396287300111233
40
0.396287300111233
40
0.418706813779833
40
0.418706813779833
40
0.441126327448434
40
0.441126327448434
40
0.463545841117034
40
0.463545841117034
40
0.485965354785635
40
0.485965354785635
40
0.508384868454235
40
0.508384868454235
40
0.530804382122836
40
0.530804382122836
40
0.553223895791436
40
0.553223895791436
40
0.575643409460036
40
0.575643409460036
40
0.598062923128637
40
0.598062923128637
40
0.620482436797238
40
0.620482436797238
40
0.642901950465838
40
0.642901950465838
40
0.665321464134438
40
0.665321464134438
40
0.687740977803039
40
0.687740977803039
40
0.73258000514024
40
0.73258000514024
40
0.754999518808841
40
0.754999518808841
40
0.777419032477441
40
0.777419032477441
40
0.799838546146042
40
0.799838546146042
40
0.822258059814642
40
0.822258059814642
40
0.844677573483243
40
0.844677573483243
40
0.867097087151843
40
0.867097087151843
40
0.889516600820443
40
0.889516600820443
40
0.911936114489044
40
0.911936114489044
40
0.934355628157644
40
0.934355628157644
40
0.956775141826245
40
0.956775141826245
40
0.979194655494845
40
0.979194655494845
40
1
40
1
40
1
40
1
41
1
10
11.3554269542226
20
-0.30061888786932
30
0
41
1
10
11.3347579752957
20
-0.310213759342815
30
0
41
1
10
11.3141197193073
20
-0.319601656954347
30
0
41
1
10
11.2629448994136
20
-0.342242627213068
30
0
41
1
10
11.2324058883563
20
-0.355198694091996
30
0
41
1
10
11.1714012439732
20
-0.38013781778821
30
0
41
1
10
11.1409438894306
20
-0.392127439444721
30
0
41
1
10
11.0799612593056
20
-0.414932559544354
30
0
41
1
10
11.0494255680883
20
-0.425738499049515
30
0
41
1
10
10.9882835438501
20
-0.446176350010319
30
0
41
1
10
10.9576986047896
20
-0.455829818021129
30
0
41
1
10
10.8963824326958
20
-0.473849947909372
30
0
41
1
10
10.8656204915354
20
-0.48218645616555
30
0
41
1
10
10.8038158535765
20
-0.497443595164754
30
0
41
1
10
10.7728882671944
20
-0.504370239852506
30
0
41
1
10
10.711394925138
20
-0.516723967876402
30
0
41
1
10
10.6807419806161
20
-0.522146164081221
30
0
41
1
10
10.6195110283058
20
-0.531446764757732
30
0
41
1
10
10.5889475915451
20
-0.535336963616743
30
0
41
1
10
10.5279605043086
20
-0.541609505675012
30
0
41
1
10
10.4975287454902
20
-0.543981955674525
30
0
41
1
10
10.436575517353
20
-0.547154614440188
30
0
41
1
10
10.4060499542871
20
-0.547962513737446
30
0
41
1
10
10.3449855510613
20
-0.548037550523105
30
0
41
1
10
10.3144571680819
20
-0.547297969464353
30
0
41
1
10
10.253252713282
20
-0.544252830682012
30
0
41
1
10
10.2225649880591
20
-0.541954092836306
30
0
41
1
10
10.1764135453607
20
-0.537327742336913
30
0
41
1
10
10.1610113213094
20
-0.535588331468517
30
0
41
1
10
10.1301720143549
20
-0.531706333324223
30
0
41
1
10
10.1147143418708
20
-0.529560950451383
30
0
41
1
10
10.0684404314128
20
-0.52256042473968
30
0
41
1
10
10.0376797027964
20
-0.517150339675482
30
0
41
1
10
9.97624979718003
20
-0.504946285634674
30
0
41
1
10
9.94561243908441
20
-0.498132396529059
30
0
41
1
10
9.88449371879483
20
-0.483083741518811
30
0
41
1
10
9.85398752883123
20
-0.474866851209043
30
0
41
1
10
9.79296460500785
20
-0.45716968171655
30
0
41
1
10
9.76246159262641
20
-0.447679678412186
30
0
41
1
10
9.70151222134777
20
-0.427363569767863
30
0
41
1
10
9.6710597865991
20
-0.416538356168957
30
0
41
1
10
9.60998772482719
20
-0.393800812028104
30
0
41
1
10
9.57935990516103
20
-0.381905728765503
30
0
41
1
10
9.51800344105578
20
-0.356951420932546
30
0
41
1
10
9.48728696857413
20
-0.343869499903718
30
0
41
1
10
9.42562374602568
20
-0.316690206266316
30
0
41
1
10
9.39462974345219
20
-0.302597836108163
30
0
41
1
10
9.33300047069707
20
-0.273707223005602
30
0
41
1
10
9.30231488104565
20
-0.258840570372683
30
0
41
1
10
9.2410986130582
20
-0.228437693015536
30
0
41
1
10
9.21053774637903
20
-0.212952688758662
30
0
41
1
10
9.14941831867918
20
-0.181585066565987
30
0
41
1
10
9.11889130239243
20
-0.165648375898428
30
0
41
1
10
9.05791401578571
20
-0.133247293378332
30
0
41
1
10
9.02743919768091
20
-0.116825641369218
30
0
41
1
10
8.96639454290334
20
-0.0837627268707308
30
0
41
1
10
8.93583755431197
20
-0.0670992335620895
30
0
41
1
10
8.87469551468371
20
-0.0334254844696034
30
0
41
1
10
8.84410654460231
20
-0.0164206698716782
30
0
41
1
10
8.78268116001524
20
0.0175300299806906
30
0
41
1
10
8.75183388711008
20
0.034452915214132
30
0
41
1
10
8.68994876719023
20
0.0683495278721011
30
0
41
1
10
8.65913018462271
20
0.0852364347401817
30
0
41
1
10
8.59766873962798
20
0.118565330203666
30
0
41
1
10
8.56699928263845
20
0.134990288362786
30
0
41
1
10
8.47517972695798
20
0.183576185478472
30
0
41
1
10
8.41434091756202
20
0.215248973628206
30
0
41
1
10
8.32278861784042
20
0.260229646614903
30
0
41
1
10
8.29225969254404
20
0.274869054441382
30
0
41
1
10
8.23119953026625
20
0.303464493842796
30
0
41
1
10
8.20064413238046
20
0.317380461488057
30
0
41
1
10
8.13935405485594
20
0.344247377130927
30
0
41
1
10
8.10863145844999
20
0.357218740964242
30
0
41
1
10
8.04707123523235
20
0.382278965966066
30
0
41
1
10
8.01615355723939
20
0.394388808527196
30
0
41
1
10
7.954464378534
20
0.417230314499676
30
0
41
1
10
7.92367408319461
20
0.427958015872434
30
0
41
1
10
7.86227695246527
20
0.448161759505695
30
0
41
1
10
7.83168530299935
20
0.457648852117586
30
0
41
1
10
7.77057047975148
20
0.475244980232958
30
0
41
1
10
7.74003276048052
20
0.483343703896651
30
0
41
1
10
7.67899681601492
20
0.49815907853926
30
0
41
1
10
7.64852069121997
20
0.504891617236979
30
0
41
1
10
7.58756771227203
20
0.516922993891569
30
0
41
1
10
7.55706199291171
20
0.522201895437831
30
0
41
1
10
7.49587823259506
20
0.531236292409972
30
0
41
1
10
7.46523107938688
20
0.535011213652297
30
0
41
1
10
7.4038530139492
20
0.541058468427906
30
0
41
1
10
7.37309830946489
20
0.543318192087412
30
0
41
1
10
7.31354755394486
20
0.546150114255283
30
0
41
1
10
7.28480670366227
20
0.546832891400868
30
0
41
1
10
7.25622455084931
20
0.546832484131642
30
0
0
SPLINE
5
C2
100
AcDbEntity
8
1
62
256
6
ByLayer
370
18
48
1
60
0
100
AcDbSpline
70
4
71
3
72
28
73
24
40
0
40
0
40
0
40
0
40
0.0681781848490816
40
0.0681781848490816
40
0.145830002778325
40
0.145830002778325
40
0.223481820707569
40
0.223481820707569
40
0.301133638636813
40
0.301133638636813
40
0.378785456566056
40
0.378785456566056
40
0.4564372744953
40
0.4564372744953
40
0.534089092424543
40
0.534089092424543
40
0.689392728283032
40
0.689392728283032
40
0.767044546212275
40
0.767044546212275
40
0.844696364141519
40
0.844696364141519
40
1
40
1
40
1
40
1
41
1
10
5.12191208745529
20
-0.299247464978123
30
0
41
1
10
5.09510697983413
20
-0.311622361019687
30
0
41
1
10
5.06827128625562
20
-0.323672148188166
30
0
41
1
10
5.01070267924723
20
-0.348587031794466
30
0
41
1
10
4.97997695146503
20
-0.361384087884261
30
0
41
1
10
4.91841726335201
20
-0.386072704475936
30
0
41
1
10
4.88749698318495
20
-0.397951966509794
30
0
41
1
10
4.82566670723728
20
-0.420423897476922
30
0
41
1
10
4.79484579258934
20
-0.431008041051513
30
0
41
1
10
4.73343442424135
20
-0.450940675702583
30
0
41
1
10
4.7028464698719
20
-0.460284940001117
30
0
41
1
10
4.64169818258213
20
-0.477528901694001
30
0
41
1
10
4.61112018092666
20
-0.485419193659084
30
0
41
1
10
4.55002734351632
20
-0.499826839595613
30
0
41
1
10
4.51953063146638
20
-0.506353275371282
30
0
41
1
10
4.42799107029097
20
-0.52373993369622
30
0
41
1
10
4.3668359800732
20
-0.532397462781631
30
0
41
1
10
4.27487248884594
20
-0.540859718085812
30
0
41
1
10
4.2441478539987
20
-0.542908206936659
30
0
41
1
10
4.18241730523877
20
-0.545420770529631
30
0
41
1
10
4.15140188851612
20
-0.545887598728655
30
0
41
1
10
4.05854459497365
20
-0.544917477856416
30
0
41
1
10
3.99664473996592
20
-0.541171942792261
30
0
41
1
10
3.93494886443938
20
-0.53413263589826
30
0
0
SPLINE
5
C3
100
AcDbEntity
8
1
62
256
6
ByLayer
370
18
48
1
60
0
100
AcDbSpline
70
4
71
3
72
50
73
46
40
0
40
0
40
0
40
0
40
0.0850051077798681
40
0.0850051077798681
40
0.1275076616698
40
0.1275076616698
40
0.170010215559733
40
0.170010215559733
40
0.212512769449665
40
0.212512769449665
40
0.255015323339597
40
0.255015323339597
40
0.297517877229529
40
0.297517877229529
40
0.340020431119462
40
0.340020431119462
40
0.382522985009394
40
0.382522985009394
40
0.425025538899326
40
0.425025538899326
40
0.467528092789258
40
0.467528092789258
40
0.510030646679191
40
0.510030646679191
40
0.595035754459055
40
0.595035754459055
40
0.637538308348987
40
0.637538308348987
40
0.680040862238919
40
0.680040862238919
40
0.722543416128852
40
0.722543416128852
40
0.765045970018784
40
0.765045970018784
40
0.807548523908716
40
0.807548523908716
40
0.850051077798648
40
0.850051077798648
40
0.892553631688581
40
0.892553631688581
40
0.935056185578513
40
0.935056185578513
40
0.977558739468445
40
0.977558739468445
40
1
40
1
40
1
40
1
41
1
10
3.93494886443938
20
0.315265825267971
30
0
41
1
10
3.9963044109972
20
0.286666572404272
30
0
41
1
10
4.05800233589551
20
0.257687785033454
30
0
41
1
10
4.15015727779817
20
0.212354431005338
30
0
41
1
10
4.18079111586459
20
0.196893105865541
30
0
41
1
10
4.24185697763807
20
0.165200308810142
30
0
41
1
10
4.27227119938777
20
0.148935822727765
30
0
41
1
10
4.33306156780768
20
0.115908584050828
30
0
41
1
10
4.36345965467427
20
0.0991850304620243
30
0
41
1
10
4.42450290914925
20
0.0657675894757972
30
0
41
1
10
4.45515593701322
20
0.0490898183219599
30
0
41
1
10
4.5167577357937
20
0.0158780345320508
30
0
41
1
10
4.54767004921618
20
-0.0007231182641476
30
0
41
1
10
4.60951332777813
20
-0.0343210861833825
30
0
41
1
10
4.64049704970978
20
-0.0513074548175041
30
0
41
1
10
4.70208842420735
20
-0.0853341921188928
30
0
41
1
10
4.73275846974514
20
-0.102375961302414
30
0
41
1
10
4.79417373833218
20
-0.135925983253486
30
0
41
1
10
4.82492166799904
20
-0.15243045475782
30
0
41
1
10
4.88667910790807
20
-0.184599409923493
30
0
41
1
10
4.91770846118152
20
-0.200232345691404
30
0
41
1
10
4.97982247838237
20
-0.231027532433387
30
0
41
1
10
5.01080853787772
20
-0.246185356034914
30
0
41
1
10
5.10312420883753
20
-0.290789178988973
30
0
41
1
10
5.16385588542369
20
-0.319554182427737
30
0
41
1
10
5.25529472830638
20
-0.358825696800039
30
0
41
1
10
5.2858408851186
20
-0.37127326537987
30
0
41
1
10
5.34710106653989
20
-0.394899516658313
30
0
41
1
10
5.37777793807302
20
-0.406131810513301
30
0
41
1
10
5.43901747948749
20
-0.427677499200428
30
0
41
1
10
5.46959709808357
20
-0.437966286011346
30
0
41
1
10
5.53069632819415
20
-0.457482752516853
30
0
41
1
10
5.56122831131026
20
-0.466690812612342
30
0
41
1
10
5.62257201127574
20
-0.483654876753406
30
0
41
1
10
5.65344251551932
20
-0.491422533445444
30
0
41
1
10
5.71531894074644
20
-0.505323693861044
30
0
41
1
10
5.74633765004779
20
-0.511454662099226
30
0
41
1
10
5.80829638966566
20
-0.522300537576911
30
0
41
1
10
5.83921441416609
20
-0.527022775767563
30
0
41
1
10
5.9008952508253
20
-0.535017513256037
30
0
41
1
10
5.93164112972556
20
-0.538290597538435
30
0
41
1
10
5.99316119557602
20
-0.543234606304253
30
0
41
1
10
6.02398704542276
20
-0.54489588109891
30
0
41
1
10
6.07098617942501
20
-0.546180500199256
30
0
41
1
10
6.08722600282033
20
-0.546398957204389
30
0
41
1
10
6.10346779128795
20
-0.546400482442408
30
0
0
SPLINE
5
C4
100
AcDbEntity
8
1
62
256
6
ByLayer
370
18
48
1
60
0
100
AcDbSpline
70
4
71
3
72
98
73
94
40
0
40
0
40
0
40
0
40
0.0055584800197464
40
0.0055584800197464
40
0.0279719613705974
40
0.0279719613705974
40
0.0503854427214487
40
0.0503854427214487
40
0.0727989240722998
40
0.0727989240722998
40
0.0952124054231509
40
0.0952124054231509
40
0.117625886774002
40
0.117625886774002
40
0.140039368124853
40
0.140039368124853
40
0.162452849475704
40
0.162452849475704
40
0.184866330826555
40
0.184866330826555
40
0.207279812177406
40
0.207279812177406
40
0.229693293528257
40
0.229693293528257
40
0.252106774879108
40
0.252106774879108
40
0.27452025622996
40
0.27452025622996
40
0.296933737580811
40
0.296933737580811
40
0.319347218931662
40
0.319347218931662
40
0.341760700282513
40
0.341760700282513
40
0.364174181633364
40
0.364174181633364
40
0.386587662984215
40
0.386587662984215
40
0.409001144335066
40
0.409001144335066
40
0.431414625685917
40
0.431414625685917
40
0.453828107036768
40
0.453828107036768
40
0.476241588387619
40
0.476241588387619
40
0.498655069738471
40
0.498655069738471
40
0.521068551089321
40
0.521068551089321
40
0.543482032440173
40
0.543482032440173
40
0.565895513791024
40
0.565895513791024
40
0.588308995141875
40
0.588308995141875
40
0.610722476492726
40
0.610722476492726
40
0.633135957843577
40
0.633135957843577
40
0.655549439194428
40
0.655549439194428
40
0.677962920545279
40
0.677962920545279
40
0.70037640189613
40
0.70037640189613
40
0.722789883246981
40
0.722789883246981
40
0.745203364597832
40
0.745203364597832
40
0.767616845948684
40
0.767616845948684
40
0.790030327299534
40
0.790030327299534
40
0.812443808650386
40
0.812443808650386
40
0.834857290001237
40
0.834857290001237
40
0.857270771352088
40
0.857270771352088
40
0.879684252702939
40
0.879684252702939
40
0.90209773405379
40
0.90209773405379
40
0.924511215404641
40
0.924511215404641
40
0.946924696755492
40
0.946924696755492
40
0.969338178106343
40
0.969338178106343
40
0.991751659457195
40
0.991751659457195
40
1
40
1
40
1
40
1
41
1
10
8.2380403775864
20
0.300168616409451
30
0
41
1
10
8.24567051942989
20
0.303619703610934
30
0
41
1
10
8.25329799287735
20
0.307041285328722
30
0
41
1
10
8.29166020817308
20
0.324126622360836
30
0
41
1
10
8.32230555511509
20
0.337420386295207
30
0
41
1
10
8.38336177727044
20
0.363249163044003
30
0
41
1
10
8.41375943486673
20
0.375798581106352
30
0
41
1
10
8.47447333170115
20
0.399872652966934
30
0
41
1
10
8.50481261833036
20
0.411365496285271
30
0
41
1
10
8.56571503564282
20
0.432958854813535
30
0
41
1
10
8.59628219071911
20
0.44305835358864
30
0
41
1
10
8.65771886348404
20
0.461839186209943
30
0
41
1
10
8.68855353802567
20
0.470563799317262
30
0
41
1
10
8.75023438581073
20
0.486876694239328
30
0
41
1
10
8.78116383377426
20
0.494460051651942
30
0
41
1
10
8.84275671593488
20
0.508271075025789
30
0
41
1
10
8.87335454855145
20
0.514472007554673
30
0
41
1
10
8.93446415794261
20
0.525253697498584
30
0
41
1
10
8.96498243706171
20
0.529835067275059
30
0
41
1
10
9.02612797462211
20
0.53738391670413
30
0
41
1
10
9.05678074122548
20
0.540351698012302
30
0
41
1
10
9.11803946472696
20
0.544813238806086
30
0
41
1
10
9.14861966638676
20
0.54630899718012
30
0
41
1
10
9.20962607587845
20
0.54777955469055
30
0
41
1
10
9.24004144526188
20
0.547749049906855
30
0
41
1
10
9.30086521903036
20
0.546073716989127
30
0
41
1
10
9.33129745991425
20
0.544427989848742
30
0
41
1
10
9.39246848910349
20
0.539580080143111
30
0
41
1
10
9.4232093815877
20
0.536383672614818
30
0
41
1
10
9.48508370447695
20
0.528544567422983
30
0
41
1
10
9.5162084433735
20
0.523887658012114
30
0
41
1
10
9.57795627406139
20
0.513068477226426
30
0
41
1
10
9.6086673765725
20
0.506901433002128
30
0
41
1
10
9.66976699964758
20
0.493004436080014
30
0
41
1
10
9.70015851095201
20
0.48526956533027
30
0
41
1
10
9.76093462384472
20
0.468477147091249
30
0
41
1
10
9.79132689502057
20
0.459429864232703
30
0
41
1
10
9.85230036387975
20
0.440275394533245
30
0
41
1
10
9.88290838355246
20
0.43020496891333
30
0
41
1
10
9.94417164355266
20
0.408908720323097
30
0
41
1
10
9.97479921811268
20
0.397647117724944
30
0
41
1
10
10.0359819002278
20
0.373758472151138
30
0
41
1
10
10.066528846114
20
0.361115510954818
30
0
41
1
10
10.1276931176583
20
0.334572836533425
30
0
41
1
10
10.1583349356477
20
0.320705994414027
30
0
41
1
10
10.2200091170087
20
0.292198515247463
30
0
41
1
10
10.2508244257865
20
0.277664554623328
30
0
41
1
10
10.3124644110422
20
0.248272646485589
30
0
41
1
10
10.3432666085629
20
0.233359588926078
30
0
41
1
10
10.4046031112698
20
0.202706478284199
30
0
41
1
10
10.4351507539457
20
0.186987764761113
30
0
41
1
10
10.4960085007638
20
0.154755585853451
30
0
41
1
10
10.5263174542639
20
0.138238025794863
30
0
41
1
10
10.5870040764913
20
0.104944043680376
30
0
41
1
10
10.6173905825283
20
0.0881844638423388
30
0
41
1
10
10.6784310771551
20
0.0547865014620186
30
0
41
1
10
10.7091124050465
20
0.0382011104659625
30
0
41
1
10
10.7706167724706
20
0.0049332124315811
30
0
41
1
10
10.8014103400742
20
-0.0118056301432148
30
0
41
1
10
10.8630096170881
20
-0.0456481211499522
30
0
41
1
10
10.8938884238815
20
-0.0628084758192244
30
0
41
1
10
10.9553049575124
20
-0.0969710767730305
30
0
41
1
10
10.9858761832509
20
-0.113928695084326
30
0
41
1
10
11.0470238063899
20
-0.147096956795281
30
0
41
1
10
11.0775996294903
20
-0.163310997389971
30
0
41
1
10
11.1388703477932
20
-0.194841876797909
30
0
41
1
10
11.1695352482363
20
-0.210215804464724
30
0
41
1
10
11.2306838975364
20
-0.240596289050956
30
0
41
1
10
11.2611788607558
20
-0.255580909772135
30
0
41
1
10
11.3220165687194
20
-0.285091828136331
30
0
41
1
10
11.3523534378052
20
-0.299623702611427
30
0
41
1
10
11.4131726930199
20
-0.327732979195105
30
0
41
1
10
11.4436650369605
20
-0.341296650206686
30
0
41
1
10
11.5049996944515
20
-0.367189707389315
30
0
41
1
10
11.5358692461928
20
-0.379484306468868
30
0
41
1
10
11.5978462734908
20
-0.403025450107435
30
0
41
1
10
11.6288748898764
20
-0.41429284118567
30
0
41
1
10
11.6904300210365
20
-0.435719016226415
30
0
41
1
10
11.7210215145098
20
-0.445904139015653
30
0
41
1
10
11.7819613417604
20
-0.465019813254031
30
0
41
1
10
11.8123341727282
20
-0.47392093554808
30
0
41
1
10
11.873167599193
20
-0.490172189307685
30
0
41
1
10
11.9036255001585
20
-0.497528944111622
30
0
41
1
10
11.9647492637857
20
-0.510691615691542
30
0
41
1
10
11.9953876655685
20
-0.516526852670808
30
0
41
1
10
12.0565722031052
20
-0.526862682112863
30
0
41
1
10
12.0871265150728
20
-0.531352278391267
30
0
41
1
10
12.1481697763232
20
-0.538882874119054
30
0
41
1
10
12.1786489178673
20
-0.541919768626741
30
0
41
1
10
12.2398313186204
20
-0.546371548528697
30
0
41
1
10
12.2705850606101
20
-0.547787143385222
30
0
41
1
10
12.3128304207455
20
-0.548615731759469
30
0
41
1
10
12.3242050697784
20
-0.548730201425457
30
0
41
1
10
12.335586055204
20
-0.548738311786394
30
0
0
SPLINE
5
C5
100
AcDbEntity
8
1
62
256
6
ByLayer
370
18
48
1
60
0
100
AcDbSpline
70
4
71
3
72
34
73
30
40
0
40
0
40
0
40
0
40
0.029271017736293
40
0.029271017736293
40
0.103942477910431
40
0.103942477910431
40
0.178613938084567
40
0.178613938084567
40
0.21594966817163
40
0.21594966817163
40
0.253285398258693
40
0.253285398258693
40
0.402628318606955
40
0.402628318606955
40
0.477299778781085
40
0.477299778781085
40
0.551971238955216
40
0.551971238955216
40
0.626642699129346
40
0.626642699129346
40
0.701314159303477
40
0.701314159303477
40
0.775985619477607
40
0.775985619477607
40
0.850657079651739
40
0.850657079651739
40
0.925328539825869
40
0.925328539825869
40
1
40
1
40
1
40
1
41
1
10
14.4709645208409
20
0.301152036470484
30
0
41
1
10
14.4829697434161
20
0.306606132333968
30
0
41
1
10
14.4949795825556
20
0.311999598369141
30
0
41
1
10
14.5376167762853
20
0.330978364038685
30
0
41
1
10
14.5682281985989
20
0.344291338545332
30
0
41
1
10
14.6294263581369
20
0.370210519178016
30
0
41
1
10
14.6599968772211
20
0.38283614023004
30
0
41
1
10
14.7060330892983
20
0.400932481071777
30
0
41
1
10
14.7214268989695
20
0.406828320789657
30
0
41
1
10
14.7521665058358
20
0.41824099624273
30
0
41
1
10
14.7675239894422
20
0.423764776884184
30
0
41
1
10
14.8443070998447
20
0.450433978192166
30
0
41
1
10
14.9058866904957
20
0.468634121107868
30
0
41
1
10
14.997483464635
20
0.492469172650743
30
0
41
1
10
15.0278975929682
20
0.49980252202576
30
0
41
1
10
15.0885735043908
20
0.513108009730843
30
0
41
1
10
15.1188590629787
20
0.519057454702846
30
0
41
1
10
15.179622019338
20
0.529364642230689
30
0
41
1
10
15.2100931686555
20
0.533729487042933
30
0
41
1
10
15.2713705615066
20
0.540877001778398
30
0
41
1
10
15.3021617027525
20
0.543676630828941
30
0
41
1
10
15.3638014148289
20
0.547804169697599
30
0
41
1
10
15.3946819651026
20
0.54912678439058
30
0
41
1
10
15.4563496200415
20
0.550175224324505
30
0
41
1
10
15.4870255382188
20
0.549893926645012
30
0
41
1
10
15.548360230813
20
0.547684913136465
30
0
41
1
10
15.5790349109622
20
0.545761413218116
30
0
41
1
10
15.640617247597
20
0.540379689104981
30
0
41
1
10
15.6715507313099
20
0.536937721585502
30
0
41
1
10
15.7025739935983
20
0.532761666742289
30
0
0
SPLINE
5
C6
100
AcDbEntity
8
1
62
256
6
ByLayer
370
18
48
1
60
0
100
AcDbSpline
70
4
71
3
72
92
73
88
40
0
40
0
40
0
40
0
40
0.012958560707146
40
0.012958560707146
40
0.0353780723002588
40
0.0353780723002588
40
0.0577975838933716
40
0.0577975838933716
40
0.102636607079601
40
0.102636607079601
40
0.125056118672714
40
0.125056118672714
40
0.147475630265827
40
0.147475630265827
40
0.16989514185894
40
0.16989514185894
40
0.192314653452052
40
0.192314653452052
40
0.214734165045165
40
0.214734165045165
40
0.237153676638278
40
0.237153676638278
40
0.259573188231391
40
0.259573188231391
40
0.281992699824503
40
0.281992699824503
40
0.326831723010729
40
0.326831723010729
40
0.349251234603842
40
0.349251234603842
40
0.371670746196955
40
0.371670746196955
40
0.394090257790068
40
0.394090257790068
40
0.41650976938318
40
0.41650976938318
40
0.438929280976293
40
0.438929280976293
40
0.461348792569406
40
0.461348792569406
40
0.506187815755631
40
0.506187815755631
40
0.528607327348746
40
0.528607327348746
40
0.551026838941861
40
0.551026838941861
40
0.573446350534975
40
0.573446350534975
40
0.59586586212809
40
0.59586586212809
40
0.618285373721205
40
0.618285373721205
40
0.64070488531432
40
0.64070488531432
40
0.663124396907434
40
0.663124396907434
40
0.685543908500549
40
0.685543908500549
40
0.707963420093664
40
0.707963420093664
40
0.730382931686778
40
0.730382931686778
40
0.752802443279893
40
0.752802443279893
40
0.775221954873008
40
0.775221954873008
40
0.797641466466119
40
0.797641466466119
40
0.82006097805923
40
0.82006097805923
40
0.84248048965234
40
0.84248048965234
40
0.864900001245451
40
0.864900001245451
40
0.887319512838562
40
0.887319512838562
40
0.909739024431673
40
0.909739024431673
40
0.932158536024784
40
0.932158536024784
40
0.954578047617895
40
0.954578047617895
40
0.976997559211006
40
0.976997559211006
40
0.999417070804116
40
0.999417070804116
40
1
40
1
40
1
40
1
41
1
10
14.4706995678707
20
-0.301993047002583
30
0
41
1
10
14.4530192353699
20
-0.310177758289342
30
0
41
1
10
14.4353208618189
20
-0.318232362742719
30
0
41
1
10
14.3869108217326
20
-0.339797896832408
30
0
41
1
10
14.3561269692287
20
-0.352993450159403
30
0
41
1
10
14.2943793565509
20
-0.378479681394424
30
0
41
1
10
14.2635400719785
20
-0.390748431242912
30
0
41
1
10
14.1714369849939
20
-0.425598067648906
30
0
41
1
10
14.1102270892395
20
-0.446173423231727
30
0
41
1
10
14.0187666049902
20
-0.473254909671226
30
0
41
1
10
13.9883032556926
20
-0.481608643420572
30
0
41
1
10
13.9273401335814
20
-0.496906797722602
30
0
41
1
10
13.8968580443907
20
-0.503868561761976
30
0
41
1
10
13.835908826402
20
-0.516407390281302
30
0
41
1
10
13.805427158655
20
-0.521968610788662
30
0
41
1
10
13.7442375867562
20
-0.531545053706679
30
0
41
1
10
13.7135407163675
20
-0.535573837059161
30
0
41
1
10
13.6520229089124
20
-0.542132449523365
30
0
41
1
10
13.6211310726866
20
-0.544659111267379
30
0
41
1
10
13.559423020617
20
-0.548098525821757
30
0
41
1
10
13.5286515451336
20
-0.549017197929203
30
0
41
1
10
13.4673024904264
20
-0.549288128985808
30
0
41
1
10
13.4367448759931
20
-0.548635403604806
30
0
41
1
10
13.3757153442228
20
-0.545764837166161
30
0
41
1
10
13.3452125624912
20
-0.543555194967837
30
0
41
1
10
13.2536921531259
20
-0.534670966642636
30
0
41
1
10
13.1928402073677
20
-0.525661336670112
30
0
41
1
10
13.1011965625836
20
-0.507774451592695
30
0
41
1
10
13.0706037341485
20
-0.501080051043544
30
0
41
1
10
13.0093494250678
20
-0.486174471979694
30
0
41
1
10
12.9786750359174
20
-0.477966956150453
30
0
41
1
10
12.917016426902
20
-0.460224424735401
30
0
41
1
10
12.8860268584197
20
-0.450681698684406
30
0
41
1
10
12.8244501720759
20
-0.430374627245584
30
0
41
1
10
12.7937894114632
20
-0.419580907427701
30
0
41
1
10
12.7325608017048
20
-0.396919780158328
30
0
41
1
10
12.7019851348656
20
-0.385065580317672
30
0
41
1
10
12.6409389772029
20
-0.360285233659226
30
0
41
1
10
12.6104889618664
20
-0.347328317088966
30
0
41
1
10
12.519152076277
20
-0.307037044257271
30
0
41
1
10
12.458112325348
20
-0.278549963015507
30
0
41
1
10
12.3664033211937
20
-0.23326000571447
30
0
41
1
10
12.3357784084789
20
-0.217781878896687
30
0
41
1
10
12.2743169198561
20
-0.186230388744235
30
0
41
1
10
12.2434837220819
20
-0.170123456000056
30
0
41
1
10
12.1817135454433
20
-0.137217259246341
30
0
41
1
10
12.1509729372111
20
-0.120548655849518
30
0
41
1
10
12.0895623138565
20
-0.0871882039954244
30
0
41
1
10
12.0588967555326
20
-0.0704873985270353
30
0
41
1
10
11.9977259417923
20
-0.036891629914436
30
0
41
1
10
11.9672264292043
20
-0.019986443586248
30
0
41
1
10
11.9062389654671
20
0.0137412602822451
30
0
41
1
10
11.8757419472227
20
0.0305473428815617
30
0
41
1
10
11.8147653956854
20
0.0640889109370733
30
0
41
1
10
11.7843068453984
20
0.0808627201135437
30
0
41
1
10
11.7233223998429
20
0.114182031891829
30
0
41
1
10
11.6927657464314
20
0.130671414342174
30
0
41
1
10
11.6314626262971
20
0.163199417288382
30
0
41
1
10
11.6007481537537
20
0.179296266628569
30
0
41
1
10
11.5391769326113
20
0.211123033107157
30
0
41
1
10
11.5082220198987
20
0.226841719650594
30
0
41
1
10
11.4465438220535
20
0.257363372141015
30
0
41
1
10
11.4158016087052
20
0.272214892484527
30
0
41
1
10
11.3545408798468
20
0.301155888253703
30
0
41
1
10
11.3240127417672
20
0.315224746048813
30
0
41
1
10
11.2629448994136
20
0.342242627213068
30
0
41
1
10
11.2324058883563
20
0.355198694091996
30
0
41
1
10
11.1714012439732
20
0.38013781778821
30
0
41
1
10
11.1409438894306
20
0.392127439444721
30
0
41
1
10
11.0799612593056
20
0.414932559544354
30
0
41
1
10
11.0494255680883
20
0.425738499049515
30
0
41
1
10
10.9882835438501
20
0.44617635001029
30
0
41
1
10
10.9576986047895
20
0.455829818021129
30
0
41
1
10
10.8963824326957
20
0.473849947909372
30
0
41
1
10
10.8656204915354
20
0.482186456165579
30
0
41
1
10
10.8038158535765
20
0.497443595164754
30
0
41
1
10
10.7728882671944
20
0.504370239852506
30
0
41
1
10
10.711394925138
20
0.516723967876402
30
0
41
1
10
10.6807419806161
20
0.522146164081221
30
0
41
1
10
10.6195110283058
20
0.531446764757732
30
0
41
1
10
10.5889475915451
20
0.535336963616743
30
0
41
1
10
10.5279605043086
20
0.541609505675012
30
0
41
1
10
10.4975287454902
20
0.543981955674525
30
0
41
1
10
10.4365755173529
20
0.547154614440188
30
0
41
1
10
10.4060499542871
20
0.547962513737446
30
0
41
1
10
10.3747238856151
20
0.548001007645126
30
0
41
1
10
10.3739300211376
20
0.548001457801263
30
0
41
1
10
10.3731361578765
20
0.548001382495215
30
0
0
SPLINE
5
C7
100
AcDbEntity
8
1
62
256
6
ByLayer
370
18
48
1
60
0
100
AcDbSpline
70
4
71
3
72
88
73
84
40
0
40
0
40
0
40
0
40
0.0166584703427197
40
0.0166584703427197
40
0.0391091923022127
40
0.0391091923022127
40
0.0615599142617056
40
0.0615599142617056
40
0.0840106362211985
40
0.0840106362211985
40
0.106461358180691
40
0.106461358180691
40
0.128912080140184
40
0.128912080140184
40
0.151362802099677
40
0.151362802099677
40
0.17381352405917
40
0.17381352405917
40
0.196264246018663
40
0.196264246018663
40
0.218714967978156
40
0.218714967978156
40
0.241165689937649
40
0.241165689937649
40
0.263616411897142
40
0.263616411897142
40
0.286067133856635
40
0.286067133856635
40
0.308517855816128
40
0.308517855816128
40
0.330968577775621
40
0.330968577775621
40
0.375870021694606
40
0.375870021694606
40
0.398320743654099
40
0.398320743654099
40
0.420771465613592
40
0.420771465613592
40
0.443222187573085
40
0.443222187573085
40
0.465672909532578
40
0.465672909532578
40
0.488123631492071
40
0.488123631492071
40
0.510574353451564
40
0.510574353451564
40
0.55547579737055
40
0.55547579737055
40
0.577926519330042
40
0.577926519330042
40
0.600377241289534
40
0.600377241289534
40
0.622827963249026
40
0.622827963249026
40
0.645278685208518
40
0.645278685208518
40
0.66772940716801
40
0.66772940716801
40
0.690180129127502
40
0.690180129127502
40
0.712630851086994
40
0.712630851086994
40
0.735081573046486
40
0.735081573046486
40
0.779983016965469
40
0.779983016965469
40
0.802433738924961
40
0.802433738924961
40
0.824884460884453
40
0.824884460884453
40
0.847335182843945
40
0.847335182843945
40
0.869785904803437
40
0.869785904803437
40
0.892236626762929
40
0.892236626762929
40
0.914687348722421
40
0.914687348722421
40
0.959588792641403
40
0.959588792641403
40
0.982039514600893
40
0.982039514600893
40
1
40
1
40
1
40
1
41
1
10
8.2380933098145
20
-0.300155180739182
30
0
41
1
10
8.2154270724871
20
-0.310612972794303
30
0
41
1
10
8.19273775967503
20
-0.32084627287378
30
0
41
1
10
8.13935405485591
20
-0.344247377130927
30
0
41
1
10
8.10863145844999
20
-0.357218740964242
30
0
41
1
10
8.04707123523235
20
-0.382278965966066
30
0
41
1
10
8.01615355723939
20
-0.394388808527196
30
0
41
1
10
7.954464378534
20
-0.417230314499676
30
0
41
1
10
7.92367408319461
20
-0.427958015872434
30
0
41
1
10
7.86227695246527
20
-0.448161759505695
30
0
41
1
10
7.83168530299935
20
-0.457648852117586
30
0
41
1
10
7.77057047975148
20
-0.475244980232958
30
0
41
1
10
7.74003276048052
20
-0.483343703896651
30
0
41
1
10
7.67899681601492
20
-0.49815907853926
30
0
41
1
10
7.64852069121997
20
-0.504891617236979
30
0
41
1
10
7.58756771227206
20
-0.516922993891541
30
0
41
1
10
7.55706199291174
20
-0.522201895437831
30
0
41
1
10
7.49587823259506
20
-0.531236292409972
30
0
41
1
10
7.46523107938688
20
-0.535011213652297
30
0
41
1
10
7.40385301394917
20
-0.541058468427906
30
0
41
1
10
7.37309830946489
20
-0.543318192087412
30
0
41
1
10
7.31132371800226
20
-0.546255868250341
30
0
41
1
10
7.28034655735541
20
-0.546934742052116
30
0
41
1
10
7.21880332960663
20
-0.546705360056023
30
0
41
1
10
7.18816243766506
20
-0.545794059905376
30
0
41
1
10
7.12693188045236
20
-0.542422783762873
30
0
41
1
10
7.09632710788947
20
-0.539973775995179
30
0
41
1
10
7.03521422369235
20
-0.533560194497113
30
0
41
1
10
7.00472261107774
20
-0.52958375267005
30
0
41
1
10
6.9437289256656
20
-0.520145365439589
30
0
41
1
10
6.91321136400515
20
-0.514695129871598
30
0
41
1
10
6.8215884412227
20
-0.496164811332136
30
0
41
1
10
6.7605530073813
20
-0.480766438557424
30
0
41
1
10
6.66821370327872
20
-0.453739213378071
30
0
41
1
10
6.63729195286507
20
-0.444040386643735
30
0
41
1
10
6.57546685474699
20
-0.423280052941578
30
0
41
1
10
6.54467893497687
20
-0.412290950133979
30
0
41
1
10
6.48321485318272
20
-0.389287916841482
30
0
41
1
10
6.45254921222772
20
-0.377263222240629
30
0
41
1
10
6.39139433578072
20
-0.352113318014659
30
0
41
1
10
6.36090659074009
20
-0.338982043544405
30
0
41
1
10
6.29990283837452
20
-0.311911938450834
30
0
41
1
10
6.26936965384573
20
-0.298003091655403
30
0
41
1
10
6.20831384467047
20
-0.269336836076349
30
0
41
1
10
6.17780920561535
20
-0.254547732347419
30
0
41
1
10
6.08616274599336
20
-0.209125510761879
30
0
41
1
10
6.02483061444011
20
-0.177552268321932
30
0
41
1
10
5.9324267004047
20
-0.12825883906018
30
0
41
1
10
5.90147014955951
20
-0.111552834644243
30
0
41
1
10
5.83963485414978
20
-0.0781172916531716
30
0
41
1
10
5.80874701233282
20
-0.0613098307079838
30
0
41
1
10
5.74706883733401
20
-0.0274464583195311
30
0
41
1
10
5.71625451887567
20
-0.0104340200697379
30
0
41
1
10
5.65453409695337
20
0.0234940616702204
30
0
41
1
10
5.62363906712
20
0.0404297252514993
30
0
41
1
10
5.56182531842353
20
0.0743295525256258
30
0
41
1
10
5.53094083506505
20
0.091276556242974
30
0
41
1
10
5.46939222438357
20
0.124560264554816
30
0
41
1
10
5.43865782497485
20
0.140899351927885
30
0
41
1
10
5.37734046320224
20
0.173124600463751
30
0
41
1
10
5.34677477371969
20
0.189039040715784
30
0
41
1
10
5.28569059752377
20
0.220226576515046
30
0
41
1
10
5.25515620025035
20
0.235473953063661
30
0
41
1
10
5.16356558954001
20
0.280169447972838
30
0
41
1
10
5.10266538043399
20
0.308786867863859
30
0
41
1
10
5.01070267924723
20
0.348587031794466
30
0
41
1
10
4.97997695146506
20
0.361384087884261
30
0
41
1
10
4.91841726335201
20
0.386072704475936
30
0
41
1
10
4.88749698318495
20
0.397951966509794
30
0
41
1
10
4.82566670723728
20
0.420423897476922
30
0
41
1
10
4.79484579258934
20
0.431008041051484
30
0
41
1
10
4.73343442424135
20
0.450940675702583
30
0
41
1
10
4.7028464698719
20
0.460284940001088
30
0
41
1
10
4.64169818258216
20
0.477528901694001
30
0
41
1
10
4.61112018092669
20
0.485419193659084
30
0
41
1
10
4.55002734351629
20
0.499826839595613
30
0
41
1
10
4.51953063146641
20
0.506353275371282
30
0
41
1
10
4.42799107029097
20
0.52373993369622
30
0
41
1
10
4.3668359800732
20
0.532397462781631
30
0
41
1
10
4.27487248884594
20
0.540859718085812
30
0
41
1
10
4.2441478539987
20
0.542908206936659
30
0
41
1
10
4.18859048682811
20
0.545169509012823
30
0
41
1
10
4.16380230392434
20
0.545669284175716
30
0
41
1
10
4.13902715070444
20
0.545663431136205
30
0
0
SPLINE
5
C8
100
AcDbEntity
8
1
62
256
6
ByLayer
370
18
48
1
60
0
100
AcDbSpline
70
4
71
3
72
94
73
90
40
0
40
0
40
0
40
0
40
0.0252556280020146
40
0.0252556280020146
40
0.0476852013868147
40
0.0476852013868147
40
0.0701147747716148
40
0.0701147747716148
40
0.0925443481564149
40
0.0925443481564149
40
0.114973921541215
40
0.114973921541215
40
0.137403494926015
40
0.137403494926015
40
0.159833068310815
40
0.159833068310815
40
0.182262641695616
40
0.182262641695616
40
0.204692215080415
40
0.204692215080415
40
0.227121788465216
40
0.227121788465216
40
0.249551361850016
40
0.249551361850016
40
0.271980935234816
40
0.271980935234816
40
0.294410508619616
40
0.294410508619616
40
0.316840082004416
40
0.316840082004416
40
0.339269655389216
40
0.339269655389216
40
0.361699228774016
40
0.361699228774016
40
0.384128802158817
40
0.384128802158817
40
0.428987948928417
40
0.428987948928417
40
0.451417522313216
40
0.451417522313216
40
0.473847095698015
40
0.473847095698015
40
0.496276669082814
40
0.496276669082814
40
0.518706242467613
40
0.518706242467613
40
0.541135815852413
40
0.541135815852413
40
0.563565389237212
40
0.563565389237212
40
0.585994962622011
40
0.585994962622011
40
0.60842453600681
40
0.60842453600681
40
0.630854109391609
40
0.630854109391609
40
0.653283682776408
40
0.653283682776408
40
0.675713256161208
40
0.675713256161208
40
0.698142829546007
40
0.698142829546007
40
0.720572402930806
40
0.720572402930806
40
0.743001976315605
40
0.743001976315605
40
0.765431549700404
40
0.765431549700404
40
0.787861123085204
40
0.787861123085204
40
0.810290696470003
40
0.810290696470003
40
0.832720269854802
40
0.832720269854802
40
0.855149843239601
40
0.855149843239601
40
0.8775794166244
40
0.8775794166244
40
0.900008990009199
40
0.900008990009199
40
0.922438563393998
40
0.922438563393998
40
0.944868136778798
40
0.944868136778798
40
0.967297710163597
40
0.967297710163597
40
0.989727283548396
40
0.989727283548396
40
1
40
1
40
1
40
1
41
1
10
5.12188611977012
20
0.299346332033707
30
0
41
1
10
5.15624734381748
20
0.315436417526968
30
0
41
1
10
5.19049516565409
20
0.33099532541965
30
0
41
1
10
5.25529472830638
20
0.358825696800039
30
0
41
1
10
5.2858408851186
20
0.37127326537987
30
0
41
1
10
5.34710106653992
20
0.394899516658313
30
0
41
1
10
5.37777793807305
20
0.406131810513301
30
0
41
1
10
5.43901747948749
20
0.427677499200428
30
0
41
1
10
5.46959709808357
20
0.437966286011346
30
0
41
1
10
5.53069632819413
20
0.457482752516881
30
0
41
1
10
5.56122831131026
20
0.46669081261237
30
0
41
1
10
5.62257201127574
20
0.483654876753406
30
0
41
1
10
5.65344251551932
20
0.491422533445444
30
0
41
1
10
5.71531894074644
20
0.505323693861044
30
0
41
1
10
5.74633765004779
20
0.511454662099254
30
0
41
1
10
5.80829638966566
20
0.522300537576911
30
0
41
1
10
5.83921441416609
20
0.527022775767563
30
0
41
1
10
5.9008952508253
20
0.535017513256037
30
0
41
1
10
5.93164112972556
20
0.538290597538435
30
0
41
1
10
5.99316119557602
20
0.543234606304253
30
0
41
1
10
6.02398704542276
20
0.54489588109891
30
0
41
1
10
6.08550431980845
20
0.546577321988309
30
0
41
1
10
6.11626054144173
20
0.546609375446906
30
0
41
1
10
6.17780400350949
20
0.545171774776037
30
0
41
1
10
6.20855407814105
20
0.543705173088881
30
0
41
1
10
6.26980805916315
20
0.539232689737304
30
0
41
1
10
6.30032850222182
20
0.536224877805466
30
0
41
1
10
6.3611733044342
20
0.52859546700742
30
0
41
1
10
6.39151092889446
20
0.523971235986608
30
0
41
1
10
6.45232830506623
20
0.513240491928144
30
0
41
1
10
6.48281060773368
20
0.507139324196316
30
0
41
1
10
6.54409271980885
20
0.493645264529789
30
0
41
1
10
6.57491225209677
20
0.486278746372818
30
0
41
1
10
6.63667648887957
20
0.470144480451211
30
0
41
1
10
6.66763399251278
20
0.461341283957637
30
0
41
1
10
6.76037906055211
20
0.432636439241776
30
0
41
1
10
6.82129622843044
20
0.410448232205908
30
0
41
1
10
6.91285659736062
20
0.37451279559437
30
0
41
1
10
6.94341757613105
20
0.362119971053261
30
0
41
1
10
7.00466460508011
20
0.336624847348389
30
0
41
1
10
7.03531395241768
20
0.323474296651
30
0
41
1
10
7.09645297948947
20
0.296044697055748
30
0
41
1
10
7.12695956463301
20
0.281787787698079
30
0
41
1
10
7.1878623754244
20
0.252160450902466
30
0
41
1
10
7.21826960101305
20
0.236802736180351
30
0
41
1
10
7.27930903870495
20
0.205501421936361
30
0
41
1
10
7.30994534433745
20
0.189567172565091
30
0
41
1
10
7.37162127602508
20
0.157466936020512
30
0
41
1
10
7.40274463059865
20
0.141313446184483
30
0
41
1
10
7.46465896925312
20
0.108751198286654
30
0
41
1
10
7.49547829286149
20
0.092272612857812
30
0
41
1
10
7.55680082928458
20
0.0588476787206673
30
0
41
1
10
7.58728897521496
20
0.0418735689219147
30
0
41
1
10
7.64810992205344
20
0.0077637056213291
30
0
41
1
10
7.67846515713404
20
-0.0093300975791237
30
0
41
1
10
7.73931986373833
20
-0.0431258153003853
30
0
41
1
10
7.76982579834316
20
-0.0598162159554647
30
0
41
1
10
7.83105173889993
20
-0.0926841927733904
30
0
41
1
10
7.86173592290777
20
-0.108928187936783
30
0
41
1
10
7.92302877377065
20
-0.141432978106678
30
0
41
1
10
7.95365403994327
20
-0.157663005142013
30
0
41
1
10
8.01487873868248
20
-0.190039948343895
30
0
41
1
10
8.04548667076256
20
-0.20617074158352
30
0
41
1
10
8.10700880459783
20
-0.237744526778954
30
0
41
1
10
8.1378285746213
20
-0.253124607799634
30
0
41
1
10
8.19937350704393
20
-0.282625951041155
30
0
41
1
10
8.23018215980053
20
-0.296746212537641
30
0
41
1
10
8.29166020817306
20
-0.324126622360836
30
0
41
1
10
8.32230555511507
20
-0.337420386295207
30
0
41
1
10
8.38336177727044
20
-0.363249163044003
30
0
41
1
10
8.41375943486673
20
-0.375798581106352
30
0
41
1
10
8.47447333170112
20
-0.399872652966934
30
0
41
1
10
8.50481261833036
20
-0.411365496285271
30
0
41
1
10
8.56571503564282
20
-0.432958854813535
30
0
41
1
10
8.59628219071908
20
-0.44305835358864
30
0
41
1
10
8.65771886348404
20
-0.461839186209943
30
0
41
1
10
8.68855353802567
20
-0.47056379931729
30
0
41
1
10
8.75023438581073
20
-0.486876694239328
30
0
41
1
10
8.78116383377426
20
-0.494460051651942
30
0
41
1
10
8.84275671593488
20
-0.508271075025789
30
0
41
1
10
8.87335454855145
20
-0.514472007554673
30
0
41
1
10
8.93446415794261
20
-0.525253697498584
30
0
41
1
10
8.96498243706168
20
-0.529835067275059
30
0
41
1
10
9.02612797462211
20
-0.53738391670413
30
0
41
1
10
9.05678074122548
20
-0.540351698012302
30
0
41
1
10
9.11803946472693
20
-0.544813238806086
30
0
41
1
10
9.14861966638674
20
-0.54630899718012
30
0
41
1
10
9.19309330061171
20
-0.547381032682125
30
0
41
1
10
9.20704530549489
20
-0.547557156491308
30
0
41
1
10
9.22098698965632
20
-0.547568672118871
30
0
0
SPLINE
5
C9
100
AcDbEntity
8
1
62
256
6
ByLayer
370
18
48
1
60
0
100
AcDbSpline
70
4
71
3
72
98
73
94
40
0
40
0
40
0
40
0
40
0.0068132880290452
40
0.0068132880290452
40
0.0292257684934963
40
0.0292257684934963
40
0.0516382489579475
40
0.0516382489579475
40
0.0740507294223986
40
0.0740507294223986
40
0.0964632098868498
40
0.0964632098868498
40
0.118875690351301
40
0.118875690351301
40
0.141288170815752
40
0.141288170815752
40
0.163700651280203
40
0.163700651280203
40
0.186113131744654
40
0.186113131744654
40
0.208525612209105
40
0.208525612209105
40
0.230938092673556
40
0.230938092673556
40
0.253350573138008
40
0.253350573138008
40
0.275763053602458
40
0.275763053602458
40
0.29817553406691
40
0.29817553406691
40
0.320588014531361
40
0.320588014531361
40
0.343000494995812
40
0.343000494995812
40
0.365412975460263
40
0.365412975460263
40
0.387825455924714
40
0.387825455924714
40
0.410237936389165
40
0.410237936389165
40
0.432650416853616
40
0.432650416853616
40
0.455062897318067
40
0.455062897318067
40
0.477475377782518
40
0.477475377782518
40
0.49988785824697
40
0.49988785824697
40
0.522300338711421
40
0.522300338711421
40
0.544712819175872
40
0.544712819175872
40
0.567125299640323
40
0.567125299640323
40
0.589537780104774
40
0.589537780104774
40
0.611950260569225
40
0.611950260569225
40
0.634362741033676
40
0.634362741033676
40
0.656775221498127
40
0.656775221498127
40
0.679187701962578
40
0.679187701962578
40
0.701600182427029
40
0.701600182427029
40
0.72401266289148
40
0.72401266289148
40
0.746425143355932
40
0.746425143355932
40
0.768837623820383
40
0.768837623820383
40
0.791250104284834
40
0.791250104284834
40
0.813662584749285
40
0.813662584749285
40
0.824868824981513
40
0.824868824981513
40
0.83607506521374
40
0.83607506521374
40
0.88090002614265
40
0.88090002614265
40
0.903312506607107
40
0.903312506607107
40
0.925724987071564
40
0.925724987071564
40
0.948137467536021
40
0.948137467536021
40
0.970549948000478
40
0.970549948000478
40
0.992962428464934
40
0.992962428464934
40
1
40
1
40
1
40
1
41
1
10
11.3550457409295
20
0.300735527466514
30
0
41
1
10
11.3642810234019
20
0.305089150918775
30
0
41
1
10
11.3735186824861
20
0.309405797354202
30
0
41
1
10
11.4131726930199
20
0.327732979195105
30
0
41
1
10
11.4436650369605
20
0.341296650206686
30
0
41
1
10
11.5049996944515
20
0.367189707389315
30
0
41
1
10
11.5358692461928
20
0.379484306468839
30
0
41
1
10
11.5978462734908
20
0.403025450107435
30
0
41
1
10
11.6288748898764
20
0.41429284118567
30
0
41
1
10
11.6904300210365
20
0.435719016226415
30
0
41
1
10
11.7210215145098
20
0.445904139015624
30
0
41
1
10
11.7819613417604
20
0.465019813254031
30
0
41
1
10
11.8123341727282
20
0.47392093554808
30
0
41
1
10
11.873167599193
20
0.490172189307685
30
0
41
1
10
11.9036255001585
20
0.497528944111622
30
0
41
1
10
11.9647492637857
20
0.510691615691542
30
0
41
1
10
11.9953876655684
20
0.516526852670808
30
0
41
1
10
12.0565722031052
20
0.526862682112863
30
0
41
1
10
12.0871265150728
20
0.531352278391267
30
0
41
1
10
12.1481697763232
20
0.538882874119054
30
0
41
1
10
12.1786489178673
20
0.541919768626741
30
0
41
1
10
12.2398313186204
20
0.546371548528697
30
0
41
1
10
12.2705850606101
20
0.547787143385222
30
0
41
1
10
12.3323469216527
20
0.548998522809313
30
0
41
1
10
12.3633033112818
20
0.548803584276158
30
0
41
1
10
12.4252111868516
20
0.546895505328507
30
0
41
1
10
12.4561286621703
20
0.545176926391434
30
0
41
1
10
12.5177926133873
20
0.540140231990591
30
0
41
1
10
12.5485363777231
20
0.536815165570516
30
0
41
1
10
12.6099789522848
20
0.528509777475648
30
0
41
1
10
12.640759095439
20
0.523524400020506
30
0
41
1
10
12.7022109117679
20
0.512151692198756
30
0
41
1
10
12.7329062611374
20
0.505766780707631
30
0
41
1
10
12.7943692404017
20
0.491794255984644
30
0
41
1
10
12.8251098025287
20
0.484193644646354
30
0
41
1
10
12.8863660481782
20
0.467569044183421
30
0
41
1
10
12.9168900500353
20
0.458547040916869
30
0
41
1
10
12.9777348379015
20
0.439030188854559
30
0
41
1
10
13.0080458754858
20
0.428518167918213
30
0
41
1
10
13.0687503840883
20
0.406297854531175
30
0
41
1
10
13.0991550073757
20
0.394605529760128
30
0
41
1
10
13.1602590645035
20
0.370342587010157
30
0
41
1
10
13.1909857094564
20
0.357816279674381
30
0
41
1
10
13.2526407249808
20
0.331811329695398
30
0
41
1
10
13.2835361407773
20
0.318283015321384
30
0
41
1
10
13.3453706359025
20
0.289962589524947
30
0
41
1
10
13.3761259662194
20
0.275247921886716
30
0
41
1
10
13.4372882931278
20
0.244944848263344
30
0
41
1
10
13.4677419111084
20
0.229386357039857
30
0
41
1
10
13.528683054288
20
0.197955725743952
30
0
41
1
10
13.559166454749
20
0.182077550261056
30
0
41
1
10
13.6202992827991
20
0.150263117330638
30
0
41
1
10
13.6509244045677
20
0.134286555749355
30
0
41
1
10
13.7120440537618
20
0.101756328936006
30
0
41
1
10
13.7425432138463
20
0.0852093900477087
30
0
41
1
10
13.8034286634542
20
0.0515478398160099
30
0
41
1
10
13.8338014448652
20
0.0344065202781394
30
0
41
1
10
13.8947092419277
20
4.8635273771E-05
30
0
41
1
10
13.9252567913156
20
-0.0171438075867627
30
0
41
1
10
13.9867345266434
20
-0.0511762021783113
30
0
41
1
10
14.017766294749
20
-0.068004130733442
30
0
41
1
10
14.0796614310363
20
-0.101193496104003
30
0
41
1
10
14.1105006884434
20
-0.117628223632835
30
0
41
1
10
14.1718510194567
20
-0.150375696762296
30
0
41
1
10
14.2023633295877
20
-0.166683300790737
30
0
41
1
10
14.2631609599126
20
-0.198959570720177
30
0
41
1
10
14.293470538899
20
-0.214883213090417
30
0
41
1
10
14.3542032808696
20
-0.245811168637516
30
0
41
1
10
14.3846208417651
20
-0.260826757080679
30
0
41
1
10
14.4457074186884
20
-0.289757566089634
30
0
41
1
10
14.4763563257453
20
-0.303709971494328
30
0
41
1
10
14.5376167762853
20
-0.330978364038685
30
0
41
1
10
14.5682281985989
20
-0.344291338545332
30
0
41
1
10
14.6294263581369
20
-0.370210519178016
30
0
41
1
10
14.6599968772211
20
-0.38283614023004
30
0
41
1
10
14.7060330892984
20
-0.400932481071777
30
0
41
1
10
14.7214268989694
20
-0.406828320789629
30
0
41
1
10
14.7521665058358
20
-0.41824099624273
30
0
41
1
10
14.7675239894422
20
-0.423764776884155
30
0
41
1
10
14.8443070998446
20
-0.450433978192166
30
0
41
1
10
14.9058866904957
20
-0.468634121107868
30
0
41
1
10
14.9974834646349
20
-0.492469172650743
30
0
41
1
10
15.0278975929681
20
-0.49980252202576
30
0
41
1
10
15.0885735043908
20
-0.513108009730843
30
0
41
1
10
15.1188590629787
20
-0.519057454702846
30
0
41
1
10
15.179622019338
20
-0.529364642230689
30
0
41
1
10
15.2100931686554
20
-0.533729487042933
30
0
41
1
10
15.2713705615066
20
-0.540877001778398
30
0
41
1
10
15.3021617027525
20
-0.543676630828941
30
0
41
1
10
15.3638014148289
20
-0.547804169697599
30
0
41
1
10
15.3946819651026
20
-0.54912678439058
30
0
41
1
10
15.4351976868568
20
-0.549815610659067
30
0
41
1
10
15.4448640116839
20
-0.54990079495397
30
0
41
1
10
15.4545193905157
20
-0.549906009518423
30
0
0
SPLINE
5
CA
100
AcDbEntity
8
1
62
256
6
ByLayer
370
18
48
1
60
0
100
AcDbSpline
70
4
71
5
72
150
73
144
40
0
40
0
40
0
40
0
40
0
40
0
40
0.0250128883093923
40
0.0865213519890087
40
0.147915770299062
40
0.208810330201213
40
0.269006598553224
40
0.323067490636438
40
0.37335467883055
40
0.401286532911406
40
0.429036669633316
40
0.441019299498963
40
0.45300192936461
40
0.457465992254173
40
0.461930055143735
40
0.466394118033297
40
0.47085818092286
40
0.472379059979851
40
0.473899939036841
40
0.475420818093832
40
0.476941697150823
40
0.478462576207814
40
0.479983455264804
40
0.4807438947933
40
0.481504334321795
40
0.482264773850291
40
0.483025213378786
40
0.48354965828644
40
0.484074103194095
40
0.484598548101749
40
0.485122993009403
40
0.485647437917057
40
0.486171882824712
40
0.486696327732366
40
0.48722077264002
40
0.487745217547674
40
0.488269662455328
40
0.488794107362983
40
0.489318552270637
40
0.489842997178291
40
0.490367442085945
40
0.490891886993599
40
0.491416331901253
40
0.497631748878028
40
0.498886962129147
40
0.500142175380266
40
0.501397388631385
40
0.502024995256944
40
0.502652601882504
40
0.503208017241605
40
0.503763432600706
40
0.504318847959808
40
0.504874263318909
40
0.50542967867801
40
0.505985094037111
40
0.506540509396213
40
0.507095924755314
40
0.507621736427574
40
0.508147548099833
40
0.508673359772092
40
0.509199171444351
40
0.50972498311661
40
0.510250794788869
40
0.510776606461128
40
0.511302418133388
40
0.511823675613035
40
0.512344933092683
40
0.512866190572331
40
0.513387448051979
40
0.513908705531627
40
0.514429963011275
40
0.514951220490923
40
0.515472477970571
40
0.516037458255052
40
0.516602438539534
40
0.517167418824016
40
0.517732399108498
40
0.51829737939298
40
0.51857986953522
40
0.518862359677461
40
0.519144849819701
40
0.519427339961942
40
0.519709830104183
40
0.519992320246424
40
0.520388074116168
40
0.520783827985911
40
0.521179581855654
40
0.521575335725398
40
0.522366843464886
40
0.523158351204373
40
0.52394985894386
40
0.524741366683348
40
0.526324382162322
40
0.532259329795579
40
0.533001198249736
40
0.533743066703894
40
0.534484935158051
40
0.535226803612208
40
0.535968672066365
40
0.536710540520522
40
0.5370814747476
40
0.537452408974679
40
0.537823343201757
40
0.538194277428836
40
0.538858933217281
40
0.539523589005725
40
0.540188244794169
40
0.540852900582614
40
0.541517556371059
40
0.542182212159503
40
0.543511523736392
40
0.544840835313281
40
0.54617014689017
40
0.547499458467059
40
0.548828770043948
40
0.550158081620837
40
0.551487393197726
40
0.552816704774615
40
0.554146016351504
40
0.556804639505282
40
0.55946326265906
40
0.563019127973309
40
0.566574993287559
40
0.573686723916057
40
0.580798454544555
40
0.587910185173054
40
0.601741798465662
40
0.61557341175827
40
0.637819027449567
40
0.67262266227275
40
0.704680280610297
40
0.736109624484984
40
0.767240863319854
40
0.798191721624539
40
0.828962413837821
40
0.859526423662053
40
0.889740132771283
40
0.919299066016509
40
0.948351363438988
40
0.977213351495244
40
1
40
1
40
1
40
1
40
1
40
1
41
1
10
3.93494886443938
20
-0.534132635989351
30
0
41
1
10
3.93494886443938
20
-0.529117843728898
30
0
41
1
10
3.93494886443938
20
-0.511763118596605
30
0
41
1
10
3.93494886443938
20
-0.482044714421249
30
0
41
1
10
3.93494886443935
20
-0.439971971426758
30
0
41
1
10
3.93494886443938
20
-0.385630018681468
30
0
41
1
10
3.93494886443938
20
-0.325353269499715
30
0
41
1
10
3.93494886443935
20
-0.267244427782828
30
0
41
1
10
3.93494886443938
20
-0.215837082089223
30
0
41
1
10
3.93494886443941
20
-0.171098009509564
30
0
41
1
10
3.93494886443938
20
-0.136160848941103
30
0
41
1
10
3.93494886443929
20
-0.109776819601223
30
0
41
1
10
3.93494886443915
20
-0.0927001037861999
30
0
41
1
10
3.93494886443904
20
-0.0803866419596773
30
0
41
1
10
3.93494886443898
20
-0.0727990800309328
30
0
41
1
10
3.93494886443901
20
-0.0667358079742542
30
0
41
1
10
3.93494886443904
20
-0.062796561396766
30
0
41
1
10
3.93494886443912
20
-0.0594538601324075
30
0
41
1
10
3.93494886443921
20
-0.0567083606038068
30
0
41
1
10
3.93494886443932
20
-0.0545608621894473
30
0
41
1
10
3.93494886443938
20
-0.0530121030740816
30
0
41
1
10
3.93494886443949
20
-0.0514628304973996
30
0
41
1
10
3.93494886443958
20
-0.0500680190336595
30
0
41
1
10
3.93494886443969
20
-0.0488278330261096
30
0
41
1
10
3.93494886443978
20
-0.0477424198120389
30
0
41
1
10
3.93494886443986
20
-0.0468119003147081
30
0
41
1
10
3.93494886443995
20
-0.0460845012613049
30
0
41
1
10
3.93494886444
20
-0.0454051646671871
30
0
41
1
10
3.93494886444006
20
-0.0447739163647043
30
0
41
1
10
3.93494886444015
20
-0.0441907779434416
30
0
41
1
10
3.9349488644402
20
-0.0436557667909767
30
0
41
1
10
3.93494886444026
20
-0.0431207447549866
30
0
41
1
10
3.93494886444034
20
-0.0425857234954208
30
0
41
1
10
3.9349488644404
20
-0.0420507164561457
30
0
41
1
10
3.93494886444046
20
-0.0415157390204683
30
0
41
1
10
3.93494886444054
20
-0.0409808085264842
30
0
41
1
10
3.9349488644406
20
-0.0404459444324345
30
0
41
1
10
3.93494886444069
20
-0.0399111682577029
30
0
41
1
10
3.93494886444074
20
-0.039376503907647
30
0
41
1
10
3.93494886444083
20
-0.0388419772915825
30
0
41
1
10
3.93494886444091
20
-0.0383076172439019
30
0
41
1
10
3.93494886444097
20
-0.0377734540103916
30
0
41
1
10
3.9349488644412
20
-0.0360807385960698
30
0
41
1
10
3.93494886444142
20
-0.0342426240921156
30
0
41
1
10
3.93494886444159
20
-0.0322628384537893
30
0
41
1
10
3.93494886444165
20
-0.0301466564916382
30
0
41
1
10
3.93494886444151
20
-0.0280267331518758
30
0
41
1
10
3.93494886444142
20
-0.027027380805464
30
0
41
1
10
3.93494886444134
20
-0.0261704922342005
30
0
41
1
10
3.93494886444125
20
-0.0254546880671569
30
0
41
1
10
3.93494886444117
20
-0.0248787138934574
30
0
41
1
10
3.93494886444108
20
-0.0243184530017118
30
0
41
1
10
3.934948864441
20
-0.0237738395392171
30
0
41
1
10
3.93494886444091
20
-0.0232307337030591
30
0
41
1
10
3.9349488644408
20
-0.0226891914620069
30
0
41
1
10
3.93494886444071
20
-0.0221492693293897
30
0
41
1
10
3.93494886444063
20
-0.0216167619218197
30
0
41
1
10
3.93494886444051
20
-0.0210916668837626
30
0
41
1
10
3.93494886444043
20
-0.0205739785180583
30
0
41
1
10
3.93494886444034
20
-0.020063687814627
30
0
41
1
10
3.93494886444023
20
-0.0195607824844046
30
0
41
1
10
3.93494886444015
20
-0.0190596291959082
30
0
41
1
10
3.93494886444006
20
-0.0185602763595227
30
0
41
1
10
3.93494886443997
20
-0.0180627720114899
30
0
41
1
10
3.93494886443989
20
-0.0175680221934158
30
0
41
1
10
3.9349488644398
20
-0.0170760628363666
30
0
41
1
10
3.93494886443975
20
-0.0165869284896019
30
0
41
1
10
3.93494886443966
20
-0.0161006521567231
30
0
41
1
10
3.93494886443961
20
-0.0156172651190047
30
0
41
1
10
3.93494886443955
20
-0.0151359603891876
30
0
41
1
10
3.93494886443949
20
-0.0146567775682911
30
0
41
1
10
3.93494886443943
20
-0.0141797543734583
30
0
41
1
10
3.93494886443941
20
-0.0136969606773221
30
0
41
1
10
3.93494886443935
20
-0.0132085526378489
30
0
41
1
10
3.93494886443932
20
-0.0127146897160912
30
0
41
1
10
3.93494886443926
20
-0.0122155339645929
30
0
41
1
10
3.93494886443924
20
-0.0117112492103217
30
0
41
1
10
3.93494886443921
20
-0.0112598621227562
30
0
41
1
10
3.93494886443918
20
-0.0108605638166921
30
0
41
1
10
3.93494886443915
20
-0.0105126351769798
30
0
41
1
10
3.93494886443915
20
-0.0102154542729238
30
0
41
1
10
3.93494886443915
20
-0.0099685000950274
30
0
41
1
10
3.93494886443912
20
-0.0097222424523977
30
0
41
1
10
3.93494886443912
20
-0.0094569890882497
30
0
41
1
10
3.93494886443909
20
-0.0091729305519266
30
0
41
1
10
3.93494886443909
20
-0.0088702716325031
30
0
41
1
10
3.93494886443909
20
-0.0085492301202805
30
0
41
1
10
3.93494886443907
20
-0.0081421961029093
30
0
41
1
10
3.93494886443907
20
-0.0076696424316367
30
0
41
1
10
3.93494886443904
20
-0.0071327121411571
30
0
41
1
10
3.93494886443904
20
-0.0065326798693661
30
0
41
1
10
3.93494886443904
20
-0.0057385661523313
30
0
41
1
10
3.93494886443904
20
-0.0040992526694197
30
0
41
1
10
3.93494886443904
20
-0.0025003854749173
30
0
41
1
10
3.93494886443907
20
-0.0009362516853457
30
0
41
1
10
3.93494886443909
20
0.0005989062710512
30
0
41
1
10
3.93494886443915
20
0.0019879709248585
30
0
41
1
10
3.93494886443915
20
0.0025648659202488
30
0
41
1
10
3.93494886443918
20
0.0031400462878821
30
0
41
1
10
3.93494886443918
20
0.0036563120425512
30
0
41
1
10
3.93494886443921
20
0.0041142378432255
30
0
41
1
10
3.93494886443921
20
0.0045142556142537
30
0
41
1
10
3.93494886443921
20
0.004856687094275
30
0
41
1
10
3.93494886443921
20
0.0051869174970136
30
0
41
1
10
3.93494886443924
20
0.0055618837470206
30
0
41
1
10
3.93494886443924
20
0.0059814486040466
30
0
41
1
10
3.93494886443926
20
0.0064454809315748
30
0
41
1
10
3.93494886443926
20
0.0069538636947755
30
0
41
1
10
3.93494886443926
20
0.0074616750983978
30
0
41
1
10
3.93494886443929
20
0.0080704368942861
30
0
41
1
10
3.93494886443929
20
0.0087798615950589
30
0
41
1
10
3.93494886443932
20
0.0095896990506503
30
0
41
1
10
3.93494886443932
20
0.0104997806888036
30
0
41
1
10
3.93494886443935
20
0.0115100471012397
30
0
41
1
10
3.93494886443935
20
0.0125196474966174
30
0
41
1
10
3.93494886443938
20
0.0135288068868817
30
0
41
1
10
3.93494886443938
20
0.0145377069287349
30
0
41
1
10
3.93494886443938
20
0.0155464918465782
30
0
41
1
10
3.93494886443938
20
0.0167570192163566
30
0
41
1
10
3.93494886443938
20
0.0181694168058755
30
0
41
1
10
3.93494886443941
20
0.0199201731031451
30
0
41
1
10
3.93494886443941
20
0.0220098632480017
30
0
41
1
10
3.93494886443941
20
0.0249796840677448
30
0
41
1
10
3.93494886443941
20
0.0286294398696896
30
0
41
1
10
3.93494886443941
20
0.0329608471288338
30
0
41
1
10
3.93494886443941
20
0.038862372780244
30
0
41
1
10
3.93494886443938
20
0.0463366287132772
30
0
41
1
10
3.93494886443938
20
0.0561254996416665
30
0
41
1
10
3.93494886443938
20
0.0701451438336278
30
0
41
1
10
3.93494886443938
20
0.0879753653352395
30
0
41
1
10
3.93494886443938
20
0.108504099915535
30
0
41
1
10
3.93494886443938
20
0.131717972076046
30
0
41
1
10
3.93494886443938
20
0.156164253226393
30
0
41
1
10
3.93494886443938
20
0.179233612198289
30
0
41
1
10
3.93494886443938
20
0.201044761075508
30
0
41
1
10
3.93494886443938
20
0.221665922511306
30
0
41
1
10
3.93494886443935
20
0.24107468215297
30
0
41
1
10
3.93494886443935
20
0.259243457074064
30
0
41
1
10
3.93494886443938
20
0.276106170482848
30
0
41
1
10
3.93494886443938
20
0.290887717215099
30
0
41
1
10
3.93494886443938
20
0.301558329238276
30
0
41
1
10
3.93494886443938
20
0.30886539366071
30
0
41
1
10
3.93494886443938
20
0.313334590617273
30
0
41
1
10
3.93494886443938
20
0.315265824972272
30
0
0
SPLINE
5
CB
100
AcDbEntity
8
1
62
256
6
ByLayer
370
18
48
1
60
0
100
AcDbSpline
70
4
71
3
72
103
73
99
40
0
40
0
40
0
40
0
40
0.124999999999969
40
0.124999999999969
40
0.187499999999954
40
0.187499999999954
40
0.218749999999946
40
0.218749999999946
40
0.249999999999938
40
0.249999999999938
40
0.312499999999925
40
0.312499999999925
40
0.343749999999919
40
0.343749999999919
40
0.374999999999912
40
0.374999999999912
40
0.406249999999906
40
0.406249999999906
40
0.421874999999904
40
0.421874999999904
40
0.437499999999901
40
0.437499999999901
40
0.453124999999899
40
0.453124999999899
40
0.468749999999897
40
0.468749999999897
40
0.476562499999896
40
0.476562499999896
40
0.484374999999894
40
0.484374999999894
40
0.499999999999893
40
0.499999999999893
40
0.503906249999893
40
0.503906249999893
40
0.507812499999893
40
0.511718749999893
40
0.511718749999893
40
0.515624999999893
40
0.515624999999893
40
0.523437499999893
40
0.523437499999893
40
0.527343749999893
40
0.527343749999893
40
0.531249999999893
40
0.531249999999893
40
0.539062499999894
40
0.539062499999894
40
0.546874999999895
40
0.546874999999895
40
0.562499999999896
40
0.562499999999896
40
0.570312499999896
40
0.570312499999896
40
0.578124999999896
40
0.578124999999896
40
0.593749999999897
40
0.593749999999897
40
0.6249999999999
40
0.6249999999999
40
0.640624999999902
40
0.640624999999902
40
0.656249999999903
40
0.656249999999903
40
0.687499999999909
40
0.687499999999909
40
0.749999999999923
40
0.749999999999923
40
0.765624999999928
40
0.765624999999928
40
0.77343749999993
40
0.77343749999993
40
0.781249999999933
40
0.781249999999933
40
0.789062499999935
40
0.789062499999935
40
0.792968749999937
40
0.792968749999937
40
0.796874999999938
40
0.796874999999938
40
0.800781249999939
40
0.800781249999939
40
0.80468749999994
40
0.80468749999994
40
0.812499999999943
40
0.812499999999943
40
0.843749999999953
40
0.843749999999953
40
0.859374999999958
40
0.859374999999958
40
0.874999999999963
40
0.874999999999963
40
0.890624999999968
40
0.890624999999968
40
0.906249999999974
40
0.906249999999974
40
0.937499999999982
40
0.937499999999982
40
1
40
1
40
1
40
1
41
1
10
3.93494886443938
20
-0.53413263589826
30
0
41
1
10
3.76020193979477
20
-0.525862275630601
30
0
41
1
10
3.58732505095776
20
-0.512090066542726
30
0
41
1
10
3.33031717004118
20
-0.478071649298556
30
0
41
1
10
3.24502810897877
20
-0.464506705709567
30
0
41
1
10
3.11756875966432
20
-0.440111670817629
30
0
41
1
10
3.07511309416557
20
-0.431292584882073
30
0
41
1
10
2.99070557116005
20
-0.412248770625496
30
0
41
1
10
2.94872985175616
20
-0.402021517286215
30
0
41
1
10
2.82349964191019
20
-0.369038752960449
30
0
41
1
10
2.74093406591291
20
-0.344014418207337
30
0
41
1
10
2.61861197048182
20
-0.300805322658931
30
0
41
1
10
2.57809369623396
20
-0.285451285920232
30
0
41
1
10
2.49762944149887
20
-0.252508505900892
30
0
41
1
10
2.45768205120589
20
-0.234925323041097
30
0
41
1
10
2.37847483103934
20
-0.196975647704932
30
0
41
1
10
2.3392109567211
20
-0.176624998032736
30
0
41
1
10
2.2810128270622
20
-0.143223181170271
30
0
41
1
10
2.26169382977699
20
-0.131577899952561
30
0
41
1
10
2.22379226011458
20
-0.107364778001966
30
0
41
1
10
2.2051642735511
20
-0.0947753996677818
30
0
41
1
10
2.16872082717236
20
-0.0683827989243184
30
0
41
1
10
2.15090236242131
20
-0.0545839890976652
30
0
41
1
10
2.11636053732573
20
-0.0253542840580394
30
0
41
1
10
2.09955249794561
20
-0.0098466379267563
30
0
41
1
10
2.07598853486721
20
0.0147950841509896
30
0
41
1
10
2.06840377676727
20
0.0232444576660953
30
0
41
1
10
2.05390596350966
20
0.0407296114870235
30
0
41
1
10
2.04696079048637
20
0.0498116047530459
30
0
41
1
10
2.02770852887568
20
0.0777911595882017
30
0
41
1
10
2.01690450987192
20
0.0973456469934888
30
0
41
1
10
2.00764232778758
20
0.12369658610092
30
0
41
1
10
2.00600689580503
20
0.129084893579432
30
0
41
1
10
2.0033059171258
20
0.139837776079076
30
0
41
1
10
2.00115308923677
20
0.150618752154315
30
0
41
1
10
2.00017440291646
20
0.161462569002509
30
0
41
1
10
1.99982919803031
20
0.172341766739635
30
0
41
1
10
1.99997932524218
20
0.177823556884306
30
0
41
1
10
2.00140175489298
20
0.193900224712337
30
0
41
1
10
2.00362860480075
20
0.204252465949821
30
0
41
1
10
2.00876393097954
20
0.219279262524026
30
0
41
1
10
2.01078827521667
20
0.224225890081726
30
0
41
1
10
2.01530935428175
20
0.233748365668219
30
0
41
1
10
2.01781127847414
20
0.238348472430403
30
0
41
1
10
2.02595721051841
20
0.251724533295317
30
0
41
1
10
2.03223768532496
20
0.26007883144058
30
0
41
1
10
2.04617253630769
20
0.275890549640565
30
0
41
1
10
2.05373467447592
20
0.283237931423514
30
0
41
1
10
2.07751974376311
20
0.303791671495134
30
0
41
1
10
2.09493652962675
20
0.31566700145936
30
0
41
1
10
2.12255764108914
20
0.331777664458912
30
0
41
1
10
2.13198482716416
20
0.336832490103404
30
0
41
1
10
2.1510359354312
20
0.346357883999986
30
0
41
1
10
2.16068671549291
20
0.350843372058876
30
0
41
1
10
2.18994864838339
20
0.363625449517684
30
0
41
1
10
2.209866086701
20
0.371255563547436
30
0
41
1
10
2.27051300820176
20
0.392262205548093
30
0
41
1
10
2.31212202665722
20
0.403790576831966
30
0
41
1
10
2.37565125451866
20
0.418900845245645
30
0
41
1
10
2.39704108628109
20
0.423563593830011
30
0
41
1
10
2.439928582373
20
0.432235431006234
30
0
41
1
10
2.46145028902501
20
0.436250337571067
30
0
41
1
10
2.52621520562002
20
0.447510196230184
30
0
41
1
10
2.56965655096067
20
0.453979013446627
30
0
41
1
10
2.70059776450174
20
0.471196238130631
30
0
41
1
10
2.78870184801894
20
0.479806815440526
30
0
41
1
10
2.89957147995565
20
0.488503145599282
30
0
41
1
10
2.92178406030038
20
0.49013332082788
30
0
41
1
10
2.95514440237295
20
0.492457121527309
30
0
41
1
10
2.96627019171976
20
0.493212272718324
30
0
41
1
10
2.98852052984734
20
0.49469977711081
30
0
41
1
10
2.99964292375512
20
0.49545049131666
30
0
41
1
10
3.02191159457868
20
0.496810312305627
30
0
41
1
10
3.03306611560547
20
0.49737513161179
30
0
41
1
10
3.04996842944132
20
0.497324949106996
30
0
41
1
10
3.05562991950208
20
0.497164211646947
30
0
41
1
10
3.06700817218592
20
0.496547855495209
30
0
41
1
10
3.07274565647811
20
0.496088021215854
30
0
41
1
10
3.08406796113718
20
0.495001651364731
30
0
41
1
10
3.0896803352081
20
0.494378773928816
30
0
41
1
10
3.10088763882811
20
0.493094054226731
30
0
41
1
10
3.10648163291461
20
0.49243096545959
30
0
41
1
10
3.12326827247742
20
0.490431817360104
30
0
41
1
10
3.13446456247695
20
0.489084624018631
30
0
41
1
10
3.19048351346066
20
0.482300813361178
30
0
41
1
10
3.23535499472649
20
0.476620598814748
30
0
41
1
10
3.30266102088484
20
0.467600743147784
30
0
41
1
10
3.32510254892577
20
0.464521847625349
30
0
41
1
10
3.36998774335982
20
0.458202104498866
30
0
41
1
10
3.39243352997983
20
0.454966826810647
30
0
41
1
10
3.43724061862434
20
0.448149531872019
30
0
41
1
10
3.45959511880378
20
0.444553248874911
30
0
41
1
10
3.50413784447378
20
0.43679551100027
30
0
41
1
10
3.52634280831216
20
0.432633910114418
30
0
41
1
10
3.59258183145886
20
0.419269858992152
30
0
41
1
10
3.63625560758436
20
0.409196681914921
30
0
41
1
10
3.76605589942815
20
0.375304293420385
30
0
41
1
10
3.85093801378184
20
0.34773796577565
30
0
41
1
10
3.93494886443938
20
0.315265825267971
30
0
0
LINE
5
7D
100
AcDbEntity
8
80
62
256
6
ByLayer
370
18
48
1
60
0
100
AcDbLine
10
0
20
0
30
0
11
-5
21
0
31
0
39
0
210
0
220
0
230
1
0
LINE
5
7E
100
AcDbEntity
8
4
62
256
6
ByLayer
370
18
48
0.05
60
0
100
AcDbLine
10
-5
20
0
30
0
11
21
21
0
31
0
39
0
210
0
220
0
230
1
0
LINE
5
80
100
AcDbEntity
8
81
62
256
6
ByLayer
370
18
48
1
60
0
100
AcDbLine
10
16
20
0
30
0
11
21
21
0
31
0
39
0
210
0
220
0
230
1
0
LINE
5
81
100
AcDbEntity
8
SK4
62
256
6
ByLayer
370
18
48
0.05
60
0
100
AcDbLine
10
-25
20
0
30
0
11
21
21
0
31
0
39
0
210
0
220
0
230
1
0
LINE
5
83
100
AcDbEntity
8
1
62
256
6
ByLayer
370
18
48
1
60
0
100
AcDbLine
10
0
20
0.55
30
0
11
0
21
-0.55
31
0
39
0
210
0
220
0
230
1
0
LINE
5
84
100
AcDbEntity
8
1
62
256
6
ByLayer
370
18
48
1
60
0
100
AcDbLine
10
15.702574
20
-0.55
30
0
11
15.702574
21
-0.337147
31
0
39
0
210
0
220
0
230
1
0
LINE
5
85
100
AcDbEntity
8
1
62
256
6
ByLayer
370
18
48
1
60
0
100
AcDbLine
10
15.702574
20
0.55
30
0
11
15.702574
21
0.532762
31
0
39
0
210
0
220
0
230
1
0
LINE
5
86
100
AcDbEntity
8
1
62
256
6
ByLayer
370
18
48
1
60
0
100
AcDbLine
10
0.1
20
-0.544149
30
0
11
0.1
21
0.544149
31
0
39
0
210
0
220
0
230
1
0
LINE
5
87
100
AcDbEntity
8
SK1
62
256
6
ByLayer
370
18
48
1
60
0
100
AcDbLine
10
-20
20
-0.45
30
0
11
-20
21
0.45
31
0
39
0
210
0
220
0
230
1
0
LINE
5
89
100
AcDbEntity
8
SK1
62
256
6
ByLayer
370
18
48
1
60
0
100
AcDbLine
10
0
20
0.55
30
0
11
0
21
-0.55
31
0
39
0
210
0
220
0
230
1
0
LINE
5
8A
100
AcDbEntity
8
SK1
62
256
6
ByLayer
370
18
48
1
60
0
100
AcDbLine
10
-19.9
20
-0.55
30
0
11
-19.9
21
0.55
31
0
39
0
210
0
220
0
230
1
0
LINE
5
8B
100
AcDbEntity
8
1
62
256
6
ByLayer
370
18
48
1
60
0
100
AcDbLine
10
16
20
0
30
0
11
15.702574
21
0.55
31
0
39
0
210
0
220
0
230
1
0
LINE
5
8C
100
AcDbEntity
8
1
62
256
6
ByLayer
370
18
48
1
60
0
100
AcDbLine
10
15.702574
20
-0.55
30
0
11
16
21
0
31
0
39
0
210
0
220
0
230
1
0
LINE
5
8D
100
AcDbEntity
8
1
62
256
6
ByLayer
370
18
48
1
60
0
100
AcDbLine
10
0.1
20
0.544149
30
0
11
0
21
0.55
31
0
39
0
210
0
220
0
230
1
0
LINE
5
8E
100
AcDbEntity
8
1
62
256
6
ByLayer
370
18
48
1
60
0
100
AcDbLine
10
0
20
-0.55
30
0
11
0.1
21
-0.544149
31
0
39
0
210
0
220
0
230
1
0
LINE
5
8F
100
AcDbEntity
8
1
62
256
6
ByLayer
370
18
48
1
60
0
100
AcDbLine
10
0.1
20
-0.544149
30
0
11
4.138996
21
-0.545664
31
0
39
0
210
0
220
0
230
1
0
LINE
5
90
100
AcDbEntity
8
1
62
256
6
ByLayer
370
18
48
1
60
0
100
AcDbLine
10
6.10374
20
-0.5464
30
0
11
7.255981
21
-0.546833
31
0
39
0
210
0
220
0
230
1
0
LINE
5
91
100
AcDbEntity
8
1
62
256
6
ByLayer
370
18
48
1
60
0
100
AcDbLine
10
9.22097
20
-0.547569
30
0
11
10.373094
21
-0.548001
31
0
39
0
210
0
220
0
230
1
0
LINE
5
92
100
AcDbEntity
8
1
62
256
6
ByLayer
370
18
48
1
60
0
100
AcDbLine
10
12.335811
20
-0.548737
30
0
11
13.489708
21
-0.54917
31
0
39
0
210
0
220
0
230
1
0
LINE
5
93
100
AcDbEntity
8
1
62
256
6
ByLayer
370
18
48
1
60
0
100
AcDbLine
10
15.454751
20
-0.549907
30
0
11
15.702574
21
-0.55
31
0
39
0
210
0
220
0
230
1
0
LINE
5
94
100
AcDbEntity
8
1
62
256
6
ByLayer
370
18
48
1
60
0
100
AcDbLine
10
15.702574
20
0.55
30
0
11
15.454751
21
0.549907
31
0
39
0
210
0
220
0
230
1
0
LINE
5
95
100
AcDbEntity
8
1
62
256
6
ByLayer
370
18
48
1
60
0
100
AcDbLine
10
13.489708
20
0.54917
30
0
11
12.335811
21
0.548737
31
0
39
0
210
0
220
0
230
1
0
LINE
5
96
100
AcDbEntity
8
1
62
256
6
ByLayer
370
18
48
1
60
0
100
AcDbLine
10
10.373094
20
0.548001
30
0
11
9.22097
21
0.547569
31
0
39
0
210
0
220
0
230
1
0
LINE
5
97
100
AcDbEntity
8
1
62
256
6
ByLayer
370
18
48
1
60
0
100
AcDbLine
10
7.255981
20
0.546833
30
0
11
6.10374
21
0.5464
31
0
39
0
210
0
220
0
230
1
0
LINE
5
98
100
AcDbEntity
8
1
62
256
6
ByLayer
370
18
48
1
60
0
100
AcDbLine
10
4.138996
20
0.545664
30
0
11
0.1
21
0.544149
31
0
39
0
210
0
220
0
230
1
0
LINE
5
99
100
AcDbEntity
8
SK1
62
256
6
ByLayer
370
18
48
1
60
0
100
AcDbLine
10
-20
20
-0.45
30
0
11
-19.9
21
-0.55
31
0
39
0
210
0
220
0
230
1
0
LINE
5
9A
100
AcDbEntity
8
SK1
62
256
6
ByLayer
370
18
48
1
60
0
100
AcDbLine
10
-19.9
20
0.55
30
0
11
-20
21
0.45
31
0
39
0
210
0
220
0
230
1
0
LINE
5
9B
100
AcDbEntity
8
SK1
62
256
6
ByLayer
370
18
48
1
60
0
100
AcDbLine
10
-19.9
20
-0.55
30
0
11
0
21
-0.55
31
0
39
0
210
0
220
0
230
1
0
LINE
5
9C
100
AcDbEntity
8
SK1
62
256
6
ByLayer
370
18
48
1
60
0
100
AcDbLine
10
0
20
0.55
30
0
11
-19.9
21
0.55
31
0
39
0
210
0
220
0
230
1
0
LINE
5
9D
100
AcDbEntity
8
SK2
62
256
6
ByLayer
370
13
48
1
60
0
100
AcDbLine
10
-26.5
20
25.83297
30
0
11
-26.5
21
-8.05
31
0
39
0
210
0
220
0
230
1
0
LINE
5
9F
100
AcDbEntity
8
SK2
62
256
6
ByLayer
370
13
48
1
60
0
100
AcDbLine
10
-21.5875
20
0.55
30
0
11
-28.5
21
0.55
31
0
39
0
210
0
220
0
230
1
0
LINE
5
A0
100
AcDbEntity
8
SK2
62
256
6
ByLayer
370
13
48
1
60
0
100
AcDbLine
10
-21.5875
20
-0.55
30
0
11
-28.5
21
-0.55
31
0
39
0
210
0
220
0
230
1
0
LINE
5
A1
100
AcDbEntity
8
1
62
256
6
ByLayer
370
18
48
1
60
1
100
AcDbLine
10
-26.5
20
0.55
30
0
11
-26.960784
21
4.049998
31
0
39
0
210
0
220
0
230
1
0
LINE
5
A2
100
AcDbEntity
8
1
62
256
6
ByLayer
370
18
48
1
60
1
100
AcDbLine
10
-26.960784
20
4.049998
30
0
11
-26.039216
21
4.050002
31
0
39
0
210
0
220
0
230
1
0
LINE
5
A3
100
AcDbEntity
8
1
62
256
6
ByLayer
370
18
48
1
60
1
100
AcDbLine
10
-26.039216
20
4.050002
30
0
11
-26.5
21
0.55
31
0
39
0
210
0
220
0
230
1
0
LINE
5
A4
100
AcDbEntity
8
1
62
256
6
ByLayer
370
18
48
1
60
1
100
AcDbLine
10
-26.5
20
-0.55
30
0
11
-26.039216
21
-4.049998
31
0
39
0
210
0
220
0
230
1
0
LINE
5
A5
100
AcDbEntity
8
1
62
256
6
ByLayer
370
18
48
1
60
1
100
AcDbLine
10
-26.039216
20
-4.049998
30
0
11
-26.960784
21
-4.050002
31
0
39
0
210
0
220
0
230
1
0
LINE
5
A6
100
AcDbEntity
8
1
62
256
6
ByLayer
370
18
48
1
60
1
100
AcDbLine
10
-26.960784
20
-4.050002
30
0
11
-26.5
21
-0.55
31
0
39
0
210
0
220
0
230
1
0
LINE
5
A7
100
AcDbEntity
8
2
62
256
6
ByLayer
370
13
48
1
60
0
100
AcDbLine
10
25.202574
20
25.83297
30
0
11
25.202574
21
-8.05
31
0
39
0
210
0
220
0
230
1
0
LINE
5
A9
100
AcDbEntity
8
2
62
256
6
ByLayer
370
13
48
1
60
0
100
AcDbLine
10
17.290074
20
0.55
30
0
11
27.202574
21
0.55
31
0
39
0
210
0
220
0
230
1
0
LINE
5
AA
100
AcDbEntity
8
2
62
256
6
ByLayer
370
13
48
1
60
0
100
AcDbLine
10
17.290074
20
-0.55
30
0
11
27.202574
21
-0.55
31
0
39
0
210
0
220
0
230
1
0
LINE
5
AB
100
AcDbEntity
8
1
62
256
6
ByLayer
370
18
48
1
60
1
100
AcDbLine
10
25.202574
20
0.55
30
0
11
24.74179
21
4.049998
31
0
39
0
210
0
220
0
230
1
0
LINE
5
AC
100
AcDbEntity
8
1
62
256
6
ByLayer
370
18
48
1
60
1
100
AcDbLine
10
24.74179
20
4.049998
30
0
11
25.663358
21
4.050002
31
0
39
0
210
0
220
0
230
1
0
LINE
5
AD
100
AcDbEntity
8
1
62
256
6
ByLayer
370
18
48
1
60
1
100
AcDbLine
10
25.663358
20
4.050002
30
0
11
25.202574
21
0.55
31
0
39
0
210
0
220
0
230
1
0
LINE
5
AE
100
AcDbEntity
8
1
62
256
6
ByLayer
370
18
48
1
60
1
100
AcDbLine
10
25.202574
20
-0.55
30
0
11
25.663358
21
-4.049998
31
0
39
0
210
0
220
0
230
1
0
LINE
5
AF
100
AcDbEntity
8
1
62
256
6
ByLayer
370
18
48
1
60
1
100
AcDbLine
10
25.663358
20
-4.049998
30
0
11
24.74179
21
-4.050002
31
0
39
0
210
0
220
0
230
1
0
LINE
5
B0
100
AcDbEntity
8
1
62
256
6
ByLayer
370
18
48
1
60
1
100
AcDbLine
10
24.74179
20
-4.050002
30
0
11
25.202574
21
-0.55
31
0
39
0
210
0
220
0
230
1
0
LINE
5
B1
100
AcDbEntity
8
2
62
256
6
ByLayer
370
13
48
1
60
0
100
AcDbLine
10
16.755136
20
-1.396397
30
0
11
27.416232
21
-21.110889
31
0
39
0
210
0
220
0
230
1
0
LINE
5
B2
100
AcDbEntity
8
2
62
256
6
ByLayer
370
13
48
1
60
0
100
AcDbLine
10
16.755136
20
1.396397
30
0
11
27.416232
21
21.110889
31
0
39
0
210
0
220
0
230
1
0
LINE
5
B3
100
AcDbEntity
8
1
62
256
6
ByLayer
370
18
48
1
60
1
100
AcDbLine
10
26.464879
20
-19.351649
30
0
11
29.239971
21
-17.169637
31
0
39
0
210
0
220
0
230
1
0
LINE
5
B4
100
AcDbEntity
8
1
62
256
6
ByLayer
370
18
48
1
60
1
100
AcDbLine
10
29.239971
20
-17.169637
30
0
11
29.710161
21
-17.962233
31
0
39
0
210
0
220
0
230
1
0
LINE
5
B5
100
AcDbEntity
8
1
62
256
6
ByLayer
370
18
48
1
60
1
100
AcDbLine
10
29.710161
20
-17.962233
30
0
11
26.464879
21
-19.351649
31
0
39
0
210
0
220
0
230
1
0
LINE
5
B6
100
AcDbEntity
8
1
62
256
6
ByLayer
370
18
48
1
60
1
100
AcDbLine
10
26.464879
20
19.351649
30
0
11
29.710158
21
17.962234
31
0
39
0
210
0
220
0
230
1
0
LINE
5
B7
100
AcDbEntity
8
1
62
256
6
ByLayer
370
18
48
1
60
1
100
AcDbLine
10
29.710158
20
17.962234
30
0
11
29.239974
21
17.169635
31
0
39
0
210
0
220
0
230
1
0
LINE
5
B8
100
AcDbEntity
8
1
62
256
6
ByLayer
370
18
48
1
60
1
100
AcDbLine
10
29.239974
20
17.169635
30
0
11
26.464879
21
19.351649
31
0
39
0
210
0
220
0
230
1
0
LINE
5
D0
100
AcDbEntity
8
1
62
256
6
ByLayer
370
18
48
1
60
1
100
AcDbLine
10
-26.5
20
0.55
30
0
11
-26.960784
21
4.049998
31
0
39
0
210
0
220
0
230
1
0
LINE
5
D1
100
AcDbEntity
8
1
62
256
6
ByLayer
370
18
48
1
60
1
100
AcDbLine
10
-26.960784
20
4.049998
30
0
11
-26.039216
21
4.050002
31
0
39
0
210
0
220
0
230
1
0
LINE
5
D2
100
AcDbEntity
8
1
62
256
6
ByLayer
370
18
48
1
60
1
100
AcDbLine
10
-26.039216
20
4.050002
30
0
11
-26.5
21
0.55
31
0
39
0
210
0
220
0
230
1
0
LINE
5
D4
100
AcDbEntity
8
1
62
256
6
ByLayer
370
18
48
1
60
1
100
AcDbLine
10
-26.5
20
-0.55
30
0
11
-26.039216
21
-4.049998
31
0
39
0
210
0
220
0
230
1
0
LINE
5
D5
100
AcDbEntity
8
1
62
256
6
ByLayer
370
18
48
1
60
1
100
AcDbLine
10
-26.039216
20
-4.049998
30
0
11
-26.960784
21
-4.050002
31
0
39
0
210
0
220
0
230
1
0
LINE
5
D6
100
AcDbEntity
8
1
62
256
6
ByLayer
370
18
48
1
60
1
100
AcDbLine
10
-26.960784
20
-4.050002
30
0
11
-26.5
21
-0.55
31
0
39
0
210
0
220
0
230
1
0
LINE
5
DA
100
AcDbEntity
8
1
62
256
6
ByLayer
370
18
48
1
60
1
100
AcDbLine
10
25.202574
20
0.55
30
0
11
24.74179
21
4.049998
31
0
39
0
210
0
220
0
230
1
0
LINE
5
DB
100
AcDbEntity
8
1
62
256
6
ByLayer
370
18
48
1
60
1
100
AcDbLine
10
24.74179
20
4.049998
30
0
11
25.663358
21
4.050002
31
0
39
0
210
0
220
0
230
1
0
LINE
5
DC
100
AcDbEntity
8
1
62
256
6
ByLayer
370
18
48
1
60
1
100
AcDbLine
10
25.663358
20
4.050002
30
0
11
25.202574
21
0.55
31
0
39
0
210
0
220
0
230
1
0
LINE
5
DE
100
AcDbEntity
8
1
62
256
6
ByLayer
370
18
48
1
60
1
100
AcDbLine
10
25.202574
20
-0.55
30
0
11
25.663358
21
-4.049998
31
0
39
0
210
0
220
0
230
1
0
LINE
5
DF
100
AcDbEntity
8
1
62
256
6
ByLayer
370
18
48
1
60
1
100
AcDbLine
10
25.663358
20
-4.049998
30
0
11
24.74179
21
-4.050002
31
0
39
0
210
0
220
0
230
1
0
LINE
5
E0
100
AcDbEntity
8
1
62
256
6
ByLayer
370
18
48
1
60
1
100
AcDbLine
10
24.74179
20
-4.050002
30
0
11
25.202574
21
-0.55
31
0
39
0
210
0
220
0
230
1
0
LINE
5
E3
100
AcDbEntity
8
1
62
256
6
ByLayer
370
18
48
1
60
1
100
AcDbLine
10
26.464879
20
-19.351649
30
0
11
29.239971
21
-17.169637
31
0
39
0
210
0
220
0
230
1
0
LINE
5
E4
100
AcDbEntity
8
1
62
256
6
ByLayer
370
18
48
1
60
1
100
AcDbLine
10
29.239971
20
-17.169637
30
0
11
29.710161
21
-17.962233
31
0
39
0
210
0
220
0
230
1
0
LINE
5
E5
100
AcDbEntity
8
1
62
256
6
ByLayer
370
18
48
1
60
1
100
AcDbLine
10
29.710161
20
-17.962233
30
0
11
26.464879
21
-19.351649
31
0
39
0
210
0
220
0
230
1
0
LINE
5
E7
100
AcDbEntity
8
1
62
256
6
ByLayer
370
18
48
1
60
1
100
AcDbLine
10
26.464879
20
19.351649
30
0
11
29.710158
21
17.962234
31
0
39
0
210
0
220
0
230
1
0
LINE
5
E8
100
AcDbEntity
8
1
62
256
6
ByLayer
370
18
48
1
60
1
100
AcDbLine
10
29.710158
20
17.962234
30
0
11
29.239974
21
17.169635
31
0
39
0
210
0
220
0
230
1
0
LINE
5
E9
100
AcDbEntity
8
1
62
256
6
ByLayer
370
18
48
1
60
1
100
AcDbLine
10
29.239974
20
17.169635
30
0
11
26.464879
21
19.351649
31
0
39
0
210
0
220
0
230
1
0
MTEXT
5
CC
100
AcDbEntity
8
SK2
62
256
6
ByLayer
370
18
48
1
60
0
100
AcDbMText
10
-27.841114
20
12.208437
30
0
210
0
220
0
230
1
1
%%c
40
3
41
0
44
1.084337
50
90
71
7
72
5
7
iso_b_vert
0
MTEXT
5
CF
100
AcDbEntity
8
SK2
62
256
6
ByLayer
370
18
48
1
60
0
100
AcDbMText
10
-27.841114
20
18.185
30
0
210
0
220
0
230
1
1
\W0.6261;1.100
40
3
41
0
44
1.084337
50
90
71
7
72
5
7
iso_b_vert
0
MTEXT
5
D8
100
AcDbEntity
8
2
62
256
6
ByLayer
370
18
48
1
60
0
100
AcDbMText
10
23.86146
20
12.208437
30
0
210
0
220
0
230
1
1
%%c
40
3
41
0
44
1.084337
50
90
71
7
72
5
7
iso_b_vert
0
MTEXT
5
D9
100
AcDbEntity
8
2
62
256
6
ByLayer
370
18
48
1
60
0
100
AcDbMText
10
23.86146
20
18.185
30
0
210
0
220
0
230
1
1
\W0.6261;1.100
40
3
41
0
44
1.084337
50
90
71
7
72
5
7
iso_b_vert
0
MTEXT
5
E2
100
AcDbEntity
8
2
62
256
6
ByLayer
370
18
48
1
60
0
100
AcDbMText
10
35.092229
20
-2.114886
30
0
210
0
220
0
230
1
1
\W0.6008;118%%d
40
3
41
0
44
1.084337
50
0
71
7
72
5
7
iso_b_vert
0
MTEXT
5
EB
100
AcDbEntity
8
SK6
62
256
6
ByLayer
370
18
48
1
60
0
100
AcDbMText
10
-8.132256
20
-67.114886
30
0
210
0
220
0
230
1
1
\W0.7208;R0031.1
40
3
41
0
44
1.084337
50
0
71
7
72
5
7
iso_b_vert
0
HATCH
5
D3
100
AcDbEntity
8
SK2
62
256
6
ByLayer
370
13
48
1
60
0
100
AcDbHatch
10
0
20
0
30
0
210
0
220
0
230
1
2
ANSI31
70
0
71
0
91
1
92
5
93
3
72
1
10
-26.5
20
0.549999999999983
11
-26.9607837415528
21
4.0499983074468
72
1
10
-26.9607837415528
20
4.0499983074468
11
-26.0392162584472
21
4.05000169255317
72
1
10
-26.0392162584472
20
4.05000169255317
11
-26.5
21
0.549999999999983
97
0
75
0
76
1
52
0
41
0.0062
77
0
78
1
53
45
43
0
44
0
45
-0.0139193969876572
46
0.0139193969876572
79
0
47
0
98
1
10
0
20
0
0
HATCH
5
D7
100
AcDbEntity
8
SK2
62
256
6
ByLayer
370
13
48
1
60
0
100
AcDbHatch
10
0
20
0
30
0
210
0
220
0
230
1
2
ANSI31
70
0
71
0
91
1
92
5
93
3
72
1
10
-26.5
20
-0.550000000000011
11
-26.0392162584472
21
-4.04999830744683
72
1
10
-26.0392162584472
20
-4.04999830744683
11
-26.9607837415528
21
-4.0500016925532
72
1
10
-26.9607837415528
20
-4.0500016925532
11
-26.5
21
-0.550000000000011
97
0
75
0
76
1
52
0
41
0.0062
77
0
78
1
53
45
43
0
44
0
45
-0.0139193969876572
46
0.0139193969876572
79
0
47
0
98
1
10
0
20
0
0
HATCH
5
DD
100
AcDbEntity
8
2
62
256
6
ByLayer
370
13
48
1
60
0
100
AcDbHatch
10
0
20
0
30
0
210
0
220
0
230
1
2
ANSI31
70
0
71
0
91
1
92
5
93
3
72
1
10
25.2025739935814
20
0.549999999999983
11
24.7417902520286
21
4.0499983074468
72
1
10
24.7417902520286
20
4.0499983074468
11
25.6633577351341
21
4.05000169255317
72
1
10
25.6633577351341
20
4.05000169255317
11
25.2025739935814
21
0.549999999999983
97
0
75
0
76
1
52
0
41
0.0062
77
0
78
1
53
45
43
0
44
0
45
-0.0139193969876572
46
0.0139193969876572
79
0
47
0
98
1
10
0
20
0
0
HATCH
5
E1
100
AcDbEntity
8
2
62
256
6
ByLayer
370
13
48
1
60
0
100
AcDbHatch
10
0
20
0
30
0
210
0
220
0
230
1
2
ANSI31
70
0
71
0
91
1
92
5
93
3
72
1
10
25.2025739935814
20
-0.550000000000011
11
25.6633577351341
21
-4.04999830744683
72
1
10
25.6633577351341
20
-4.04999830744683
11
24.7417902520286
21
-4.0500016925532
72
1
10
24.7417902520286
20
-4.0500016925532
11
25.2025739935814
21
-0.550000000000011
97
0
75
0
76
1
52
0
41
0.0062
77
0
78
1
53
45
43
0
44
0
45
-0.0139193969876572
46
0.0139193969876572
79
0
47
0
98
1
10
0
20
0
0
HATCH
5
E6
100
AcDbEntity
8
2
62
256
6
ByLayer
370
13
48
1
60
0
100
AcDbHatch
10
0
20
0
30
0
210
0
220
0
230
1
2
ANSI31
70
0
71
0
91
1
92
5
93
3
72
1
10
26.4648791987523
20
-19.3516485952883
11
29.2399711078384
21
-17.1696369764524
72
1
10
29.2399711078384
20
-17.1696369764524
11
29.7101613929253
21
-17.9622325364569
72
1
10
29.7101613929253
20
-17.9622325364569
11
26.4648791987523
21
-19.3516485952883
97
0
75
0
76
1
52
0
41
0.0062
77
0
78
1
53
45
43
0
44
0
45
-0.0139193969876572
46
0.0139193969876572
79
0
47
0
98
1
10
0
20
0
0
HATCH
5
EA
100
AcDbEntity
8
2
62
256
6
ByLayer
370
13
48
1
60
0
100
AcDbHatch
10
0
20
0
30
0
210
0
220
0
230
1
2
ANSI31
70
0
71
0
91
1
92
5
93
3
72
1
10
26.4648791987519
20
19.3516485952884
11
29.7101584815526
21
17.9622342635519
72
1
10
29.7101584815526
20
17.9622342635519
11
29.2399740192105
21
17.1696352493581
72
1
10
29.2399740192105
20
17.1696352493581
11
26.4648791987519
21
19.3516485952884
97
0
75
0
76
1
52
0
41
0.0062
77
0
78
1
53
45
43
0
44
0
45
-0.0139193969876572
46
0.0139193969876572
79
0
47
0
98
1
10
0
20
0
0
DIMENSION
5
EE
100
AcDbEntity
8
SK2
62
256
6
ByLayer
370
18
48
1
60
0
100
AcDbDimension
2
_U0
10
16
20
-49.034762
30
0
11
-2
21
-49.034762
31
0
70
32
71
1
72
1
41
1
210
0
220
0
230
1
3
Standard
100
AcDbAlignedDimension
13
-20
23
-0.55
33
0
14
16
24
0
34
0
50
0
100
AcDbRotatedDimension
1001
ACAD
1000
DSTYLE
1002
{
1070
   371
1070
    13
1070
   372
1070
    13
1070
     3
1000

1070
   170
1070
     0
1070
   144
1040
1.0
1070
   277
1070
     2
1070
   284
1070
     8
1070
   278
1070
    46
1070
   146
1040
1.166667
1070
   345
1005
16
1070
   347
1005
16
1070
   346
1005
16
1070
   344
1005
0
1070
   343
1005
0
1070
   172
1070
     1
1070
    76
1070
     0
1070
    75
1070
     0
1070
   282
1070
     0
1070
   281
1070
     0
1070
    71
1070
     0
1070
    74
1070
     0
1070
   279
1070
     0
1070
   173
1070
     1
1070
   340
1005
CD
1070
   271
1070
     2
1070
   272
1070
     3
1070
    77
1070
     1
1070
    73
1070
     1
1070
   171
1070
     3
1070
   274
1070
     4
1070
   177
1070
     2
1070
   176
1070
     2
1070
   178
1070
     2
1070
    78
1070
     8
1070
    48
1040
-0.1
1070
    41
1040
3.5
1070
   147
1040
1.5
1070
    42
1040
1.5875
1070
    44
1040
2.0
1070
   140
1040
3.0
1002
}
1001
ACAD_DSTYLE_DIM_LINETYPE
1070
   380
1005
16
1001
ACAD_DSTYLE_DIM_EXT1_LINETYPE
1070
   381
1005
16
1001
ACAD_DSTYLE_DIM_EXT2_LINETYPE
1070
   382
1005
16
0
DIMENSION
5
107
100
AcDbEntity
8
2
62
256
6
ByLayer
370
18
48
1
60
0
100
AcDbDimension
2
_U1
10
2
20
-39.034762
30
0
11
9
21
-39.034762
31
0
70
32
71
1
72
1
41
1
210
0
220
0
230
1
3
Standard
100
AcDbAlignedDimension
13
16
23
0
33
0
14
2
24
-0.55
34
0
50
0
100
AcDbRotatedDimension
1001
ACAD
1000
DSTYLE
1002
{
1070
   371
1070
    13
1070
   372
1070
    13
1070
     3
1000

1070
   170
1070
     0
1070
   144
1040
1.0
1070
   277
1070
     2
1070
   284
1070
     8
1070
   278
1070
    46
1070
   146
1040
1.166667
1070
   345
1005
16
1070
   347
1005
16
1070
   346
1005
16
1070
   344
1005
0
1070
   343
1005
0
1070
   172
1070
     1
1070
    76
1070
     0
1070
    75
1070
     0
1070
   282
1070
     0
1070
   281
1070
     0
1070
    71
1070
     0
1070
    74
1070
     0
1070
   279
1070
     0
1070
   173
1070
     1
1070
   340
1005
CD
1070
   271
1070
     2
1070
   272
1070
     3
1070
    77
1070
     1
1070
    73
1070
     1
1070
   171
1070
     3
1070
   274
1070
     4
1070
   177
1070
     2
1070
   176
1070
     2
1070
   178
1070
     2
1070
    78
1070
     8
1070
    48
1040
-0.1
1070
    41
1040
3.5
1070
   147
1040
1.5
1070
    42
1040
1.5875
1070
    44
1040
2.0
1070
   140
1040
3.0
1002
}
1001
ACAD_DSTYLE_DIM_LINETYPE
1070
   380
1005
16
1001
ACAD_DSTYLE_DIM_EXT1_LINETYPE
1070
   381
1005
16
1001
ACAD_DSTYLE_DIM_EXT2_LINETYPE
1070
   382
1005
16
0
DIMENSION
5
120
100
AcDbEntity
8
SK2
62
256
6
ByLayer
370
18
48
1
60
0
100
AcDbDimension
2
_U2
10
0
20
-34.034762
30
0
11
-10
21
-34.034762
31
0
70
32
71
1
72
1
41
1
210
0
220
0
230
1
3
Standard
100
AcDbAlignedDimension
13
-20
23
-0.55
33
0
14
0
24
-0.55
34
0
50
0
100
AcDbRotatedDimension
1001
ACAD
1000
DSTYLE
1002
{
1070
   371
1070
    13
1070
   372
1070
    13
1070
     3
1000

1070
   170
1070
     0
1070
   144
1040
1.0
1070
   277
1070
     2
1070
   284
1070
     8
1070
   278
1070
    46
1070
   146
1040
1.166667
1070
   345
1005
16
1070
   347
1005
16
1070
   346
1005
16
1070
   344
1005
0
1070
   343
1005
0
1070
   172
1070
     1
1070
    76
1070
     0
1070
    75
1070
     0
1070
   282
1070
     0
1070
   281
1070
     0
1070
    71
1070
     0
1070
    74
1070
     0
1070
   279
1070
     0
1070
   173
1070
     1
1070
   340
1005
CD
1070
   271
1070
     2
1070
   272
1070
     3
1070
    77
1070
     1
1070
    73
1070
     1
1070
   171
1070
     3
1070
   274
1070
     4
1070
   177
1070
     2
1070
   176
1070
     2
1070
   178
1070
     2
1070
    78
1070
     8
1070
    48
1040
-0.1
1070
    41
1040
3.5
1070
   147
1040
1.5
1070
    42
1040
1.5875
1070
    44
1040
2.0
1070
   140
1040
3.0
1002
}
1001
ACAD_DSTYLE_DIM_LINETYPE
1070
   380
1005
16
1001
ACAD_DSTYLE_DIM_EXT1_LINETYPE
1070
   381
1005
16
1001
ACAD_DSTYLE_DIM_EXT2_LINETYPE
1070
   382
1005
16
0
DIMENSION
5
138
100
AcDbEntity
8
2
62
256
6
ByLayer
370
18
48
1
60
0
100
AcDbDimension
2
_U3
10
5.5
20
-32.034762
30
0
11
10.75
21
-32.034762
31
0
70
32
71
1
72
1
41
1
210
0
220
0
230
1
3
Standard
100
AcDbAlignedDimension
13
16
23
0
33
0
14
5.5
24
-0.55
34
0
50
0
100
AcDbRotatedDimension
1001
ACAD
1000
DSTYLE
1002
{
1070
   371
1070
    13
1070
   372
1070
    13
1070
     3
1000

1070
   170
1070
     0
1070
   144
1040
1.0
1070
   277
1070
     2
1070
   284
1070
     8
1070
   278
1070
    46
1070
   146
1040
1.166667
1070
   345
1005
16
1070
   347
1005
16
1070
   346
1005
16
1070
   344
1005
0
1070
   343
1005
0
1070
   172
1070
     1
1070
    76
1070
     0
1070
    75
1070
     0
1070
   282
1070
     0
1070
   281
1070
     0
1070
    71
1070
     0
1070
    74
1070
     0
1070
   279
1070
     0
1070
   173
1070
     1
1070
   340
1005
CD
1070
   271
1070
     2
1070
   272
1070
     3
1070
    77
1070
     1
1070
    73
1070
     1
1070
   171
1070
     3
1070
   274
1070
     4
1070
   177
1070
     2
1070
   176
1070
     2
1070
   178
1070
     2
1070
    78
1070
     8
1070
    48
1040
-0.1
1070
    41
1040
3.5
1070
   147
1040
1.5
1070
    42
1040
1.5875
1070
    44
1040
2.0
1070
   140
1040
3.0
1002
}
1001
ACAD_DSTYLE_DIM_LINETYPE
1070
   380
1005
16
1001
ACAD_DSTYLE_DIM_EXT1_LINETYPE
1070
   381
1005
16
1001
ACAD_DSTYLE_DIM_EXT2_LINETYPE
1070
   382
1005
16
0
ENDSEC
0
SECTION
2
OBJECTS
0
DICTIONARY
5
1c3
330
0
100
AcDbDictionary
280
0
281
1
3
ACAD_GROUP
350
1c4
3
ACAD_MLINESTYLE
350
1c5
0
DICTIONARY
5
1c4
330
0
100
AcDbDictionary
280
0
281
1
0
DICTIONARY
5
1c5
330
0
100
AcDbDictionary
280
0
281
1
3
Standard
350
18
0
MLINESTYLE
5
18
330
1c5
100
AcDbMlineStyle
2
Standard
70
0
3

62
256
51
90
52
90
71
2
49
-0.5
62
256
6
ByLayer
49
0.5
62
256
6
ByLayer
0
RASTERVARIABLES
5
1af
330

100
AcDbRasterVariables
90
0
70
1
71
1
72
1
0
ENDSEC
0
EOF
