0
SECTION
2
HEADER
9
$ACADVER
1
AC1015
9
$DWGCODEPAGE
3
ANSI_1252
9
$HANDSEED
5
1d0
9
$ANGBASE
50
0
9
$ANGDIR
70
0
9
$ATTMODE
70
1
9
$AUNITS
70
0
9
$AUPREC
70
0
9
$CECOLOR
62
256
9
$CELTSCALE
40
1
9
$CELTYPE
6
ByLayer
9
$CELWEIGHT
370
18
9
$CLAYER
8
0
9
$CMLJUST
70
0
9
$CMLSCALE
40
1
9
$CMLSTYLE
2
Standard
9
$DIMSTYLE
2
Standard
9
$TEXTSIZE
40
0.2
9
$TEXTSTYLE
7
Standard
9
$LUNITS
70
2
9
$LUPREC
70
4
9
$EXTNAMES
290
1
9
$INSUNITS
70
4
9
$LTSCALE
40
1
9
$LWDISPLAY
290
1
9
$PDMODE
70
0
9
$PDSIZE
40
0
9
$PLINEGEN
70
0
0
ENDSEC
0
SECTION
2
CLASSES
0
CLASS
1
RASTERVARIABLES
2
AcDbRasterVariables
3
ISM
90
0
280
0
281
0
0
ENDSEC
0
SECTION
2
TABLES
0
TABLE
2
VPORT
5
1c6
100
AcDbSymbolTable
0
VPORT
5
1
100
AcDbSymbolTableRecord
100
AcDbViewportTableRecord
2
*Active
70
0
10
0
20
0
11
1
21
1
12
-1
22
1
13
0
23
0
14
0.5
24
0.5
15
10
25
10
16
0
26
0
36
1
17
0
27
0
37
0
0
ENDTAB
0
TABLE
2
LTYPE
5
1c7
100
AcDbSymbolTable
0
LTYPE
5
14
100
AcDbSymbolTableRecord
100
AcDbLinetypeTableRecord
70
0
2
ByBlock
3

72
65
73
0
40
0
0
LTYPE
5
15
100
AcDbSymbolTableRecord
100
AcDbLinetypeTableRecord
70
0
2
ByLayer
3

72
65
73
0
40
0
0
LTYPE
5
16
100
AcDbSymbolTableRecord
100
AcDbLinetypeTableRecord
70
0
2
Continuous
3
Solid line
72
65
73
0
40
0
0
LTYPE
5
6E
100
AcDbSymbolTableRecord
100
AcDbLinetypeTableRecord
70
0
2
CENTER
3
____ _ ____ _ ____ _ ____
72
65
73
4
40
47.5
49
22
74
0
49
-8.5
74
0
49
8.5
74
0
49
-8.5
74
0
0
LTYPE
5
6F
100
AcDbSymbolTableRecord
100
AcDbLinetypeTableRecord
70
0
2
DASHED
3
__ __ __ __ __ __ __ __ __
72
65
73
2
40
25.72
49
12.86
74
0
49
-12.86
74
0
0
ENDTAB
0
TABLE
2
LAYER
5
1c8
100
AcDbSymbolTable
0
LAYER
5
10
100
AcDbSymbolTableRecord
100
AcDbLayerTableRecord
2
0
70
0
62
7
6
Continuous
290
1
370
-3
390
0
0
LAYER
5
71
100
AcDbSymbolTableRecord
100
AcDbLayerTableRecord
2
81
70
0
62
-3
6
Continuous
290
1
370
-3
390
0
0
LAYER
5
73
100
AcDbSymbolTableRecord
100
AcDbLayerTableRecord
2
80
70
0
62
-6
6
Continuous
290
1
370
-3
390
0
0
LAYER
5
75
100
AcDbSymbolTableRecord
100
AcDbLayerTableRecord
2
1
70
0
62
4
6
Continuous
290
1
370
-3
390
0
0
LAYER
5
7E
100
AcDbSymbolTableRecord
100
AcDbLayerTableRecord
2
4
70
0
62
-2
6
CENTER
290
1
370
-3
390
0
0
LAYER
5
A8
100
AcDbSymbolTableRecord
100
AcDbLayerTableRecord
2
2
70
0
62
7
6
Continuous
290
1
370
-3
390
0
0
LAYER
5
F3
100
AcDbSymbolTableRecord
100
AcDbLayerTableRecord
2
Defpoints
70
0
62
7
6
Continuous
290
0
370
-3
390
0
0
LAYER
5
1b0
100
AcDbSymbolTableRecord
100
AcDbLayerTableRecord
2
SK4
70
0
62
2
6
CENTER
290
1
370
-3
390
0
0
LAYER
5
1b1
100
AcDbSymbolTableRecord
100
AcDbLayerTableRecord
2
SK1
70
0
62
4
6
Continuous
290
1
370
-3
390
0
0
LAYER
5
1b2
100
AcDbSymbolTableRecord
100
AcDbLayerTableRecord
2
SK2
70
0
62
7
6
Continuous
290
1
370
-3
390
0
0
LAYER
5
1b3
100
AcDbSymbolTableRecord
100
AcDbLayerTableRecord
2
NOCUT
70
0
62
-7
6
Continuous
290
1
370
-3
390
0
0
LAYER
5
1b4
100
AcDbSymbolTableRecord
100
AcDbLayerTableRecord
2
CUT
70
0
62
-1
6
Continuous
290
1
370
-3
390
0
0
LAYER
5
1b5
100
AcDbSymbolTableRecord
100
AcDbLayerTableRecord
2
SK6
70
0
62
5
6
Continuous
290
1
370
-3
390
0
0
ENDTAB
0
TABLE
2
STYLE
5
1c9
100
AcDbSymbolTable
0
STYLE
5
11
100
AcDbSymbolTableRecord
100
AcDbTextStyleTableRecord
2
Standard
3
txt
70
0
71
0
40
0
41
1
42
0
50
0
0
STYLE
5
CF
100
AcDbSymbolTableRecord
100
AcDbTextStyleTableRecord
2
iso_b_vert
3
simplex.shx
70
0
71
0
40
0
41
1
42
0
50
0
0
STYLE
5
D0
100
AcDbSymbolTableRecord
100
AcDbTextStyleTableRecord
2
DWGDirectTextStyle
3
simplex
70
0
71
0
40
0
41
1
42
0
50
0
0
ENDTAB
0
TABLE
2
DIMSTYLE
5
1ca
100
AcDbSymbolTable
100
AcDbDimStyleTable
0
DIMSTYLE
105
27
100
AcDbSymbolTableRecord
100
AcDbDimStyleTableRecord
2
Standard
70
0
3
<>
41
0.18
42
0.0625
44
0.18
140
0.18
147
0.09
73
0
74
0
77
1
271
2
275
0
278
52
280
0
340
11
0
ENDTAB
0
TABLE
2
VIEW
5
1cb
100
AcDbSymbolTable
0
ENDTAB
0
TABLE
2
UCS
5
1cc
100
AcDbSymbolTable
0
ENDTAB
0
TABLE
2
APPID
5
1cd
100
AcDbSymbolTable
0
APPID
5
12
100
AcDbSymbolTableRecord
100
AcDbRegAppTableRecord
2
ACAD
70
0
0
APPID
5
EF
100
AcDbSymbolTableRecord
100
AcDbRegAppTableRecord
2
ACAD_DSTYLE_DIMBREAK
70
0
0
APPID
5
16F
100
AcDbSymbolTableRecord
100
AcDbRegAppTableRecord
2
ACAD_DSTYLE_DIM_LINETYPE
70
0
0
APPID
5
170
100
AcDbSymbolTableRecord
100
AcDbRegAppTableRecord
2
ACAD_DSTYLE_DIM_EXT1_LINETYPE
70
0
0
APPID
5
171
100
AcDbSymbolTableRecord
100
AcDbRegAppTableRecord
2
ACAD_DSTYLE_DIM_EXT2_LINETYPE
70
0
0
APPID
5
1AC
100
AcDbSymbolTableRecord
100
AcDbRegAppTableRecord
2
ACAD_MLEADERVER
70
0
0
ENDTAB
0
TABLE
2
BLOCK_RECORD
5
1ce
100
AcDbSymbolTable
0
BLOCK_RECORD
5
1F
100
AcDbSymbolTableRecord
100
AcDbBlockTableRecord
2
*Model_Space
340
0
70
0
0
BLOCK_RECORD
5
1B
100
AcDbSymbolTableRecord
100
AcDbBlockTableRecord
2
*Paper_Space
340
0
70
0
0
BLOCK_RECORD
5
23
100
AcDbSymbolTableRecord
100
AcDbBlockTableRecord
2
*Paper_Space0
340
0
70
0
0
BLOCK_RECORD
5
F4
100
AcDbSymbolTableRecord
100
AcDbBlockTableRecord
2
*D1
340
0
70
0
0
BLOCK_RECORD
5
100
100
AcDbSymbolTableRecord
100
AcDbBlockTableRecord
2
_U0
340
0
70
0
0
BLOCK_RECORD
5
10C
100
AcDbSymbolTableRecord
100
AcDbBlockTableRecord
2
*D3
340
0
70
0
0
BLOCK_RECORD
5
118
100
AcDbSymbolTableRecord
100
AcDbBlockTableRecord
2
_U1
340
0
70
0
0
BLOCK_RECORD
5
124
100
AcDbSymbolTableRecord
100
AcDbBlockTableRecord
2
*D5
340
0
70
0
0
BLOCK_RECORD
5
130
100
AcDbSymbolTableRecord
100
AcDbBlockTableRecord
2
_U2
340
0
70
0
0
BLOCK_RECORD
5
13C
100
AcDbSymbolTableRecord
100
AcDbBlockTableRecord
2
*D7
340
0
70
0
0
BLOCK_RECORD
5
148
100
AcDbSymbolTableRecord
100
AcDbBlockTableRecord
2
_U3
340
0
70
0
0
ENDTAB
0
ENDSEC
0
SECTION
2
BLOCKS
0
BLOCK
5
20
100
AcDbEntity
8
0
100
AcDbBlockBegin
2
*Model_Space
70
0
10
0
20
0
30
0
3
*Model_Space
0
ENDBLK
5
21
100
AcDbEntity
8
0
100
AcDbBlockEnd
0
BLOCK
5
1C
100
AcDbEntity
8
0
100
AcDbBlockBegin
2
*Paper_Space
70
0
10
0
20
0
30
0
3
*Paper_Space
0
ENDBLK
5
1D
100
AcDbEntity
8
0
100
AcDbBlockEnd
0
BLOCK
5
24
100
AcDbEntity
8
0
100
AcDbBlockBegin
2
*Paper_Space0
70
0
10
0
20
0
30
0
3
*Paper_Space0
0
ENDBLK
5
25
100
AcDbEntity
8
0
100
AcDbBlockEnd
0
BLOCK
5
F5
100
AcDbEntity
8
0
100
AcDbBlockBegin
2
*D1
70
1
10
0
20
0
30
0
3
*D1
0
LINE
5
F7
100
AcDbEntity
8
0
62
256
6
ByLayer
370
-2
48
1
60
0
100
AcDbLine
10
-40
20
-5.358
30
0
11
-40
21
-52.822742
31
0
39
0
210
0
220
0
230
1
0
LINE
5
F8
100
AcDbEntity
8
0
62
256
6
ByLayer
370
-2
48
1
60
0
100
AcDbLine
10
77
20
-1.5875
30
0
11
77
21
-52.822742
31
0
39
0
210
0
220
0
230
1
0
LINE
5
F9
100
AcDbEntity
8
0
62
256
6
ByLayer
370
-2
48
1
60
0
100
AcDbLine
10
-36.5
20
-50.822742
30
0
11
73.5
21
-50.822742
31
0
39
0
210
0
220
0
230
1
0
SOLID
5
FA
100
AcDbEntity
8
0
62
256
6
ByLayer
370
-1
48
1
60
0
100
AcDbTrace
10
-36.5
20
-50.239409
30
0
11
-36.5
21
-51.406076
31
0
12
-40
22
-50.822742
32
0
13
-40
23
-50.822742
33
0
39
0
210
0
220
0
230
1
0
SOLID
5
FB
100
AcDbEntity
8
0
62
256
6
ByLayer
370
-1
48
1
60
0
100
AcDbTrace
10
73.5
20
-51.406076
30
0
11
73.5
21
-50.239409
31
0
12
77
22
-50.822742
32
0
13
77
23
-50.822742
33
0
39
0
210
0
220
0
230
1
0
MTEXT
5
FC
100
AcDbEntity
8
0
62
256
6
ByLayer
370
18
48
1
60
0
100
AcDbMText
10
18.5
20
-44.822742
30
0
210
0
220
0
230
1
1
\A1;117
40
3
41
0
44
1
50
0
71
5
72
5
7
iso_b_vert
0
POINT
5
FD
100
AcDbEntity
8
Defpoints
62
0
6
ByLayer
370
-1
48
1
60
0
100
AcDbPoint
10
-40
20
-3.7705
30
0
39
0
210
0
220
0
230
1
50
360
0
POINT
5
FE
100
AcDbEntity
8
Defpoints
62
0
6
ByLayer
370
-1
48
1
60
0
100
AcDbPoint
10
77
20
0
30
0
39
0
210
0
220
0
230
1
50
360
0
POINT
5
FF
100
AcDbEntity
8
Defpoints
62
0
6
ByLayer
370
-1
48
1
60
0
100
AcDbPoint
10
77
20
-50.822742
30
0
39
0
210
0
220
0
230
1
50
360
0
ENDBLK
5
F6
100
AcDbEntity
8
0
100
AcDbBlockEnd
0
BLOCK
5
107
100
AcDbEntity
8
0
100
AcDbBlockBegin
2
_U0
70
0
10
0
20
0
30
0
3
_U0
0
MTEXT
5
101
100
AcDbEntity
8
SK2
62
256
6
ByLayer
370
18
48
1
60
0
100
AcDbMText
10
13.646601
20
-49.937628
30
0
210
0
220
0
230
1
1
\W0.6532;117.00
40
3
41
0
44
1.084337
50
0
71
7
72
5
7
iso_b_vert
0
LINE
5
102
100
AcDbEntity
8
SK2
62
256
6
ByLayer
370
13
48
1
60
0
100
AcDbLine
10
-40
20
-5.358
30
0
11
-40
21
-52.822742
31
0
39
0
210
0
220
0
230
1
0
LINE
5
103
100
AcDbEntity
8
SK2
62
256
6
ByLayer
370
13
48
1
60
0
100
AcDbLine
10
77
20
-1.5875
30
0
11
77
21
-52.822742
31
0
39
0
210
0
220
0
230
1
0
LINE
5
104
100
AcDbEntity
8
SK2
62
256
6
ByLayer
370
13
48
1
60
0
100
AcDbLine
10
-40
20
-50.822742
30
0
11
77
21
-50.822742
31
0
39
0
210
0
220
0
230
1
0
SOLID
5
105
100
AcDbEntity
8
SK2
62
256
6
ByLayer
370
18
48
1
60
0
100
AcDbTrace
10
-40
20
-50.822742
30
0
11
-36.500002
21
-50.361959
31
0
12
-36.499998
22
-51.283526
32
0
13
-36.499998
23
-51.283526
33
0
39
0
210
0
220
0
230
1
0
SOLID
5
106
100
AcDbEntity
8
SK2
62
256
6
ByLayer
370
18
48
1
60
0
100
AcDbTrace
10
77
20
-50.822742
30
0
11
73.500002
21
-51.283526
31
0
12
73.499998
22
-50.361959
32
0
13
73.499998
23
-50.361959
33
0
39
0
210
0
220
0
230
1
0
ENDBLK
5
108
100
AcDbEntity
8
0
100
AcDbBlockEnd
0
BLOCK
5
10D
100
AcDbEntity
8
0
100
AcDbBlockBegin
2
*D3
70
1
10
0
20
0
30
0
3
*D3
0
LINE
5
10F
100
AcDbEntity
8
0
62
256
6
ByLayer
370
-2
48
1
60
0
100
AcDbLine
10
77
20
-1.5875
30
0
11
77
21
-42.822742
31
0
39
0
210
0
220
0
230
1
0
LINE
5
110
100
AcDbEntity
8
0
62
256
6
ByLayer
370
-2
48
1
60
0
100
AcDbLine
10
2
20
-5.358
30
0
11
2
21
-42.822742
31
0
39
0
210
0
220
0
230
1
0
LINE
5
111
100
AcDbEntity
8
0
62
256
6
ByLayer
370
-2
48
1
60
0
100
AcDbLine
10
73.5
20
-40.822742
30
0
11
5.5
21
-40.822742
31
0
39
0
210
0
220
0
230
1
0
SOLID
5
112
100
AcDbEntity
8
0
62
256
6
ByLayer
370
-1
48
1
60
0
100
AcDbTrace
10
73.5
20
-41.406076
30
0
11
73.5
21
-40.239409
31
0
12
77
22
-40.822742
32
0
13
77
23
-40.822742
33
0
39
0
210
0
220
0
230
1
0
SOLID
5
113
100
AcDbEntity
8
0
62
256
6
ByLayer
370
-1
48
1
60
0
100
AcDbTrace
10
5.5
20
-40.239409
30
0
11
5.5
21
-41.406076
31
0
12
2
22
-40.822742
32
0
13
2
23
-40.822742
33
0
39
0
210
0
220
0
230
1
0
MTEXT
5
114
100
AcDbEntity
8
0
62
256
6
ByLayer
370
18
48
1
60
0
100
AcDbMText
10
39.5
20
-34.822742
30
0
210
0
220
0
230
1
1
\A1;75
40
3
41
0
44
1
50
0
71
5
72
5
7
iso_b_vert
0
POINT
5
115
100
AcDbEntity
8
Defpoints
62
0
6
ByLayer
370
-1
48
1
60
0
100
AcDbPoint
10
77
20
0
30
0
39
0
210
0
220
0
230
1
50
360
0
POINT
5
116
100
AcDbEntity
8
Defpoints
62
0
6
ByLayer
370
-1
48
1
60
0
100
AcDbPoint
10
2
20
-3.7705
30
0
39
0
210
0
220
0
230
1
50
360
0
POINT
5
117
100
AcDbEntity
8
Defpoints
62
0
6
ByLayer
370
-1
48
1
60
0
100
AcDbPoint
10
2
20
-40.822742
30
0
39
0
210
0
220
0
230
1
50
360
0
ENDBLK
5
10E
100
AcDbEntity
8
0
100
AcDbBlockEnd
0
BLOCK
5
11F
100
AcDbEntity
8
0
100
AcDbBlockBegin
2
_U1
70
0
10
0
20
0
30
0
3
_U1
0
MTEXT
5
119
100
AcDbEntity
8
2
62
256
6
ByLayer
370
18
48
1
60
0
100
AcDbMText
10
35.01763
20
-39.937628
30
0
210
0
220
0
230
1
1
\W0.7468;75.00
40
3
41
0
44
1.084337
50
0
71
7
72
5
7
iso_b_vert
0
LINE
5
11A
100
AcDbEntity
8
2
62
256
6
ByLayer
370
13
48
1
60
0
100
AcDbLine
10
77
20
-1.5875
30
0
11
77
21
-42.822742
31
0
39
0
210
0
220
0
230
1
0
LINE
5
11B
100
AcDbEntity
8
2
62
256
6
ByLayer
370
13
48
1
60
0
100
AcDbLine
10
2
20
-5.358
30
0
11
2
21
-42.822742
31
0
39
0
210
0
220
0
230
1
0
LINE
5
11C
100
AcDbEntity
8
2
62
256
6
ByLayer
370
13
48
1
60
0
100
AcDbLine
10
77
20
-40.822742
30
0
11
2
21
-40.822742
31
0
39
0
210
0
220
0
230
1
0
SOLID
5
11D
100
AcDbEntity
8
2
62
256
6
ByLayer
370
18
48
1
60
0
100
AcDbTrace
10
77
20
-40.822742
30
0
11
73.500002
21
-41.283526
31
0
12
73.499998
22
-40.361959
32
0
13
73.499998
23
-40.361959
33
0
39
0
210
0
220
0
230
1
0
SOLID
5
11E
100
AcDbEntity
8
2
62
256
6
ByLayer
370
18
48
1
60
0
100
AcDbTrace
10
2
20
-40.822742
30
0
11
5.499998
21
-40.361959
31
0
12
5.500002
22
-41.283526
32
0
13
5.500002
23
-41.283526
33
0
39
0
210
0
220
0
230
1
0
ENDBLK
5
120
100
AcDbEntity
8
0
100
AcDbBlockEnd
0
BLOCK
5
125
100
AcDbEntity
8
0
100
AcDbBlockBegin
2
*D5
70
1
10
0
20
0
30
0
3
*D5
0
LINE
5
127
100
AcDbEntity
8
0
62
256
6
ByLayer
370
-2
48
1
60
0
100
AcDbLine
10
-40
20
-5.358
30
0
11
-40
21
-37.822742
31
0
39
0
210
0
220
0
230
1
0
LINE
5
128
100
AcDbEntity
8
0
62
256
6
ByLayer
370
-2
48
1
60
0
100
AcDbLine
10
0
20
-5.358
30
0
11
0
21
-37.822742
31
0
39
0
210
0
220
0
230
1
0
LINE
5
129
100
AcDbEntity
8
0
62
256
6
ByLayer
370
-2
48
1
60
0
100
AcDbLine
10
-36.5
20
-35.822742
30
0
11
-3.5
21
-35.822742
31
0
39
0
210
0
220
0
230
1
0
SOLID
5
12A
100
AcDbEntity
8
0
62
256
6
ByLayer
370
-1
48
1
60
0
100
AcDbTrace
10
-36.5
20
-35.239409
30
0
11
-36.5
21
-36.406076
31
0
12
-40
22
-35.822742
32
0
13
-40
23
-35.822742
33
0
39
0
210
0
220
0
230
1
0
SOLID
5
12B
100
AcDbEntity
8
0
62
256
6
ByLayer
370
-1
48
1
60
0
100
AcDbTrace
10
-3.5
20
-36.406076
30
0
11
-3.5
21
-35.239409
31
0
12
0
22
-35.822742
32
0
13
0
23
-35.822742
33
0
39
0
210
0
220
0
230
1
0
MTEXT
5
12C
100
AcDbEntity
8
0
62
256
6
ByLayer
370
18
48
1
60
0
100
AcDbMText
10
-20
20
-29.822742
30
0
210
0
220
0
230
1
1
\A1;40
40
3
41
0
44
1
50
0
71
5
72
5
7
iso_b_vert
0
POINT
5
12D
100
AcDbEntity
8
Defpoints
62
0
6
ByLayer
370
-1
48
1
60
0
100
AcDbPoint
10
-40
20
-3.7705
30
0
39
0
210
0
220
0
230
1
50
360
0
POINT
5
12E
100
AcDbEntity
8
Defpoints
62
0
6
ByLayer
370
-1
48
1
60
0
100
AcDbPoint
10
0
20
-3.7705
30
0
39
0
210
0
220
0
230
1
50
360
0
POINT
5
12F
100
AcDbEntity
8
Defpoints
62
0
6
ByLayer
370
-1
48
1
60
0
100
AcDbPoint
10
0
20
-35.822742
30
0
39
0
210
0
220
0
230
1
50
360
0
ENDBLK
5
126
100
AcDbEntity
8
0
100
AcDbBlockEnd
0
BLOCK
5
137
100
AcDbEntity
8
0
100
AcDbBlockBegin
2
_U2
70
0
10
0
20
0
30
0
3
_U2
0
MTEXT
5
131
100
AcDbEntity
8
SK2
62
256
6
ByLayer
370
18
48
1
60
0
100
AcDbMText
10
-24.640313
20
-34.937628
30
0
210
0
220
0
230
1
1
\W0.7694;40.00
40
3
41
0
44
1.084337
50
0
71
7
72
5
7
iso_b_vert
0
LINE
5
132
100
AcDbEntity
8
SK2
62
256
6
ByLayer
370
13
48
1
60
0
100
AcDbLine
10
-40
20
-5.358
30
0
11
-40
21
-37.822742
31
0
39
0
210
0
220
0
230
1
0
LINE
5
133
100
AcDbEntity
8
SK2
62
256
6
ByLayer
370
13
48
1
60
0
100
AcDbLine
10
0
20
-5.358
30
0
11
0
21
-37.822742
31
0
39
0
210
0
220
0
230
1
0
LINE
5
134
100
AcDbEntity
8
SK2
62
256
6
ByLayer
370
13
48
1
60
0
100
AcDbLine
10
-40
20
-35.822742
30
0
11
0
21
-35.822742
31
0
39
0
210
0
220
0
230
1
0
SOLID
5
135
100
AcDbEntity
8
SK2
62
256
6
ByLayer
370
18
48
1
60
0
100
AcDbTrace
10
-40
20
-35.822742
30
0
11
-36.500002
21
-35.361959
31
0
12
-36.499998
22
-36.283526
32
0
13
-36.499998
23
-36.283526
33
0
39
0
210
0
220
0
230
1
0
SOLID
5
136
100
AcDbEntity
8
SK2
62
256
6
ByLayer
370
18
48
1
60
0
100
AcDbTrace
10
0
20
-35.822742
30
0
11
-3.499998
21
-36.283526
31
0
12
-3.500002
22
-35.361959
32
0
13
-3.500002
23
-35.361959
33
0
39
0
210
0
220
0
230
1
0
ENDBLK
5
138
100
AcDbEntity
8
0
100
AcDbBlockEnd
0
BLOCK
5
13D
100
AcDbEntity
8
0
100
AcDbBlockBegin
2
*D7
70
1
10
0
20
0
30
0
3
*D7
0
LINE
5
13F
100
AcDbEntity
8
0
62
256
6
ByLayer
370
-2
48
1
60
0
100
AcDbLine
10
77
20
-1.5875
30
0
11
77
21
-35.822742
31
0
39
0
210
0
220
0
230
1
0
LINE
5
140
100
AcDbEntity
8
0
62
256
6
ByLayer
370
-2
48
1
60
0
100
AcDbLine
10
20.75
20
-5.358
30
0
11
20.75
21
-35.822742
31
0
39
0
210
0
220
0
230
1
0
LINE
5
141
100
AcDbEntity
8
0
62
256
6
ByLayer
370
-2
48
1
60
0
100
AcDbLine
10
73.5
20
-33.822742
30
0
11
24.25
21
-33.822742
31
0
39
0
210
0
220
0
230
1
0
SOLID
5
142
100
AcDbEntity
8
0
62
256
6
ByLayer
370
-1
48
1
60
0
100
AcDbTrace
10
73.5
20
-34.406076
30
0
11
73.5
21
-33.239409
31
0
12
77
22
-33.822742
32
0
13
77
23
-33.822742
33
0
39
0
210
0
220
0
230
1
0
SOLID
5
143
100
AcDbEntity
8
0
62
256
6
ByLayer
370
-1
48
1
60
0
100
AcDbTrace
10
24.25
20
-33.239409
30
0
11
24.25
21
-34.406076
31
0
12
20.75
22
-33.822742
32
0
13
20.75
23
-33.822742
33
0
39
0
210
0
220
0
230
1
0
MTEXT
5
144
100
AcDbEntity
8
0
62
256
6
ByLayer
370
18
48
1
60
0
100
AcDbMText
10
48.875
20
-27.822742
30
0
210
0
220
0
230
1
1
\A1;56.25
40
3
41
0
44
1
50
0
71
5
72
5
7
iso_b_vert
0
POINT
5
145
100
AcDbEntity
8
Defpoints
62
0
6
ByLayer
370
-1
48
1
60
0
100
AcDbPoint
10
77
20
0
30
0
39
0
210
0
220
0
230
1
50
360
0
POINT
5
146
100
AcDbEntity
8
Defpoints
62
0
6
ByLayer
370
-1
48
1
60
0
100
AcDbPoint
10
20.75
20
-3.7705
30
0
39
0
210
0
220
0
230
1
50
360
0
POINT
5
147
100
AcDbEntity
8
Defpoints
62
0
6
ByLayer
370
-1
48
1
60
0
100
AcDbPoint
10
20.75
20
-33.822742
30
0
39
0
210
0
220
0
230
1
50
360
0
ENDBLK
5
13E
100
AcDbEntity
8
0
100
AcDbBlockEnd
0
BLOCK
5
14F
100
AcDbEntity
8
0
100
AcDbBlockBegin
2
_U3
70
0
10
0
20
0
30
0
3
_U3
0
MTEXT
5
149
100
AcDbEntity
8
2
62
256
6
ByLayer
370
18
48
1
60
0
100
AcDbMText
10
44.39263
20
-32.937628
30
0
210
0
220
0
230
1
1
\W0.7468;56.25
40
3
41
0
44
1.084337
50
0
71
7
72
5
7
iso_b_vert
0
LINE
5
14A
100
AcDbEntity
8
2
62
256
6
ByLayer
370
13
48
1
60
0
100
AcDbLine
10
77
20
-1.5875
30
0
11
77
21
-35.822742
31
0
39
0
210
0
220
0
230
1
0
LINE
5
14B
100
AcDbEntity
8
2
62
256
6
ByLayer
370
13
48
1
60
0
100
AcDbLine
10
20.75
20
-5.358
30
0
11
20.75
21
-35.822742
31
0
39
0
210
0
220
0
230
1
0
LINE
5
14C
100
AcDbEntity
8
2
62
256
6
ByLayer
370
13
48
1
60
0
100
AcDbLine
10
77
20
-33.822742
30
0
11
20.75
21
-33.822742
31
0
39
0
210
0
220
0
230
1
0
SOLID
5
14D
100
AcDbEntity
8
2
62
256
6
ByLayer
370
18
48
1
60
0
100
AcDbTrace
10
77
20
-33.822742
30
0
11
73.500002
21
-34.283526
31
0
12
73.499998
22
-33.361959
32
0
13
73.499998
23
-33.361959
33
0
39
0
210
0
220
0
230
1
0
SOLID
5
14E
100
AcDbEntity
8
2
62
256
6
ByLayer
370
18
48
1
60
0
100
AcDbTrace
10
20.75
20
-33.822742
30
0
11
24.249998
21
-33.361959
31
0
12
24.250002
22
-34.283526
32
0
13
24.250002
23
-34.283526
33
0
39
0
210
0
220
0
230
1
0
ENDBLK
5
150
100
AcDbEntity
8
0
100
AcDbBlockEnd
0
ENDSEC
0
SECTION
2
ENTITIES
0
ARC
5
B9
100
AcDbEntity
8
2
62
256
6
ByLayer
370
13
48
1
60
0
100
AcDbCircle
39
0
10
77
20
0
30
0
40
22.0000000000001
210
0
220
0
230
1
100
AcDbArc
50
7.83748
51
61.596605
0
ARC
5
BA
100
AcDbEntity
8
2
62
256
6
ByLayer
370
13
48
1
60
0
100
AcDbCircle
39
0
10
77
20
0
30
0
40
22.0000000000001
210
0
220
0
230
1
100
AcDbArc
50
298.403395
51
352.16252
0
POINT
5
70
100
AcDbEntity
8
81
62
256
6
ByLayer
370
18
48
1
60
0
100
AcDbPoint
10
77
20
0
30
0
39
0
210
0
220
0
230
1
50
360
0
POINT
5
72
100
AcDbEntity
8
80
62
256
6
ByLayer
370
18
48
1
60
0
100
AcDbPoint
10
0
20
0
30
0
39
0
210
0
220
0
230
1
50
360
0
POINT
5
74
100
AcDbEntity
8
1
62
256
6
ByLayer
370
18
48
1
60
1
100
AcDbPoint
10
-40
20
-3.7705
30
0
39
0
210
0
220
0
230
1
50
360
0
POINT
5
76
100
AcDbEntity
8
1
62
256
6
ByLayer
370
18
48
1
60
1
100
AcDbPoint
10
77
20
0
30
0
39
0
210
0
220
0
230
1
50
360
0
POINT
5
77
100
AcDbEntity
8
1
62
256
6
ByLayer
370
18
48
1
60
1
100
AcDbPoint
10
77
20
0
30
0
39
0
210
0
220
0
230
1
50
360
0
POINT
5
78
100
AcDbEntity
8
1
62
256
6
ByLayer
370
18
48
1
60
1
100
AcDbPoint
10
2
20
-3.7705
30
0
39
0
210
0
220
0
230
1
50
360
0
POINT
5
79
100
AcDbEntity
8
1
62
256
6
ByLayer
370
18
48
1
60
1
100
AcDbPoint
10
-40
20
-3.7705
30
0
39
0
210
0
220
0
230
1
50
360
0
POINT
5
7A
100
AcDbEntity
8
1
62
256
6
ByLayer
370
18
48
1
60
1
100
AcDbPoint
10
0
20
-3.7705
30
0
39
0
210
0
220
0
230
1
50
360
0
POINT
5
7B
100
AcDbEntity
8
1
62
256
6
ByLayer
370
18
48
1
60
1
100
AcDbPoint
10
77
20
0
30
0
39
0
210
0
220
0
230
1
50
360
0
POINT
5
7C
100
AcDbEntity
8
1
62
256
6
ByLayer
370
18
48
1
60
1
100
AcDbPoint
10
20.75
20
-3.7705
30
0
39
0
210
0
220
0
230
1
50
360
0
SPLINE
5
BB
100
AcDbEntity
8
NOCUT
62
256
6
ByLayer
370
18
48
1
60
0
100
AcDbSpline
70
2053
71
3
72
26
73
22
40
0
40
0
40
0
40
0
40
0.472461095804058
40
0.472461095804058
40
0.472461095804058
40
0.5016266898675
40
0.5016266898675
40
0.5016266898675
40
0.659891446667663
40
0.659891446667663
40
0.659891446667663
40
0.663009892402629
40
0.663009892402629
40
0.663009892402629
40
0.968258645978947
40
0.968258645978947
40
0.968258645978947
40
0.976513045113938
40
0.976513045113938
40
0.976513045113938
40
1
40
1
40
1
40
1
41
1
10
-40
20
0
30
0
41
1
10
-19.7499999999999
20
0
30
0
41
1
10
0.500000000000171
20
0
30
0
41
1
10
20.7500000000001
20
0
30
0
41
1
10
20.75
20
1.25005695714859
30
0
41
1
10
20.75
20
2.50011391429717
30
0
41
1
10
20.75
20
3.75017087144576
30
0
41
1
10
13.9666666666666
20
3.7476271214459
30
0
41
1
10
7.1833333333332
20
3.74508337144607
30
0
41
1
10
0.400000000284479
20
3.74253962142632
30
0
41
1
10
0.26666666704611
20
3.7518597476043
30
0
41
1
10
0.133333333523069
20
3.76117987380215
30
0
41
1
10
0
20
3.7705
30
0
41
1
10
-13.0831666666667
20
3.7705
30
0
41
1
10
-26.1663333333333
20
3.7705
30
0
41
1
10
-39.2495
20
3.7705
30
0
41
1
10
-39.4996666666667
20
3.52033333333333
30
0
41
1
10
-39.7498333333333
20
3.27016666666665
30
0
41
1
10
-40
20
3.02000000000001
30
0
41
1
10
-40
20
2.01333333333332
30
0
41
1
10
-40
20
1.00666666666666
30
0
41
1
10
-40
20
0
30
0
0
SPLINE
5
BD
100
AcDbEntity
8
CUT
62
256
6
ByLayer
370
18
48
1
60
0
100
AcDbSpline
70
2053
71
3
72
17
73
13
40
0
40
0
40
0
40
0
40
0.474692788213179
40
0.474692788213179
40
0.474692788213179
40
0.510866557451628
40
0.510866557451628
40
0.510866557451628
40
0.968352372138299
40
0.968352372138299
40
0.968352372138299
40
1
40
1
40
1
40
1
41
1
10
20.75
20
0
30
0
41
1
10
39.5
20
0
30
0
41
1
10
58.25
20
0
30
0
41
1
10
77
20
0
30
0
41
1
10
76.3203365107835
20
1.25683333333973
30
0
41
1
10
75.640673021567
20
2.51366666667943
30
0
41
1
10
74.9610095323506
20
3.77050000001913
30
0
41
1
10
56.8906730215667
20
3.76372362382801
30
0
41
1
10
38.8203365107827
20
3.75694724763687
30
0
41
1
10
20.7499999999994
20
3.75017087144576
30
0
41
1
10
20.75
20
2.50011391429717
30
0
41
1
10
20.75
20
1.25005695714859
30
0
41
1
10
20.75
20
0
30
0
0
SPLINE
5
BF
100
AcDbEntity
8
1
62
256
6
ByLayer
370
18
48
1
60
0
100
AcDbSpline
70
4
71
3
72
117
73
113
40
0
40
0
40
0
40
0
40
0.0312499999999972
40
0.0312499999999972
40
0.0624999999999944
40
0.0624999999999944
40
0.124999999999989
40
0.124999999999989
40
0.156249999999986
40
0.156249999999986
40
0.187499999999983
40
0.187499999999983
40
0.21874999999998
40
0.21874999999998
40
0.249999999999977
40
0.249999999999977
40
0.265624999999976
40
0.265624999999976
40
0.273437499999975
40
0.273437499999975
40
0.281249999999974
40
0.281249999999974
40
0.289062499999974
40
0.289062499999974
40
0.296874999999973
40
0.296874999999973
40
0.304687499999972
40
0.304687499999972
40
0.312499999999972
40
0.312499999999972
40
0.320312499999971
40
0.32812499999997
40
0.32812499999997
40
0.343749999999971
40
0.343749999999971
40
0.359374999999972
40
0.359374999999972
40
0.374999999999973
40
0.374999999999973
40
0.390624999999974
40
0.390624999999974
40
0.406249999999975
40
0.406249999999975
40
0.421874999999976
40
0.421874999999976
40
0.437499999999977
40
0.437499999999977
40
0.453124999999978
40
0.453124999999978
40
0.468749999999979
40
0.468749999999979
40
0.476562499999979
40
0.476562499999979
40
0.484374999999979
40
0.484374999999979
40
0.499999999999977
40
0.499999999999977
40
0.507812499999977
40
0.507812499999977
40
0.511718749999976
40
0.511718749999976
40
0.515624999999976
40
0.515624999999976
40
0.531249999999974
40
0.531249999999974
40
0.546874999999972
40
0.546874999999972
40
0.554687499999972
40
0.554687499999972
40
0.562499999999972
40
0.562499999999972
40
0.578124999999971
40
0.578124999999971
40
0.593749999999971
40
0.593749999999971
40
0.601562499999971
40
0.601562499999971
40
0.609374999999971
40
0.609374999999971
40
0.624999999999973
40
0.624999999999973
40
0.656249999999978
40
0.656249999999978
40
0.671874999999979
40
0.671874999999979
40
0.68749999999998
40
0.68749999999998
40
0.703124999999981
40
0.703124999999981
40
0.718749999999982
40
0.718749999999982
40
0.734374999999983
40
0.734374999999983
40
0.749999999999984
40
0.749999999999984
40
0.765624999999985
40
0.765624999999985
40
0.781249999999986
40
0.781249999999986
40
0.812499999999988
40
0.812499999999988
40
0.84374999999999
40
0.84374999999999
40
0.874999999999992
40
0.874999999999992
40
0.906249999999994
40
0.906249999999994
40
0.937499999999996
40
0.937499999999996
40
0.968749999999998
40
0.968749999999998
40
1
40
1
40
1
40
1
41
1
10
74.9610095323506
20
3.65079311525469
30
0
41
1
10
75.0002276696718
20
3.57783158396629
30
0
41
1
10
75.0394341693851
20
3.50487151767814
30
0
41
1
10
75.1177472268384
20
3.35885324774904
30
0
41
1
10
75.1568572837801
20
3.28580014677522
30
0
41
1
10
75.2739657985254
20
3.06642224144736
30
0
41
1
10
75.3517467896094
20
2.91988293916728
30
0
41
1
10
75.4678525824719
20
2.69963857970569
30
0
41
1
10
75.5064633272778
20
2.62615591618723
30
0
41
1
10
75.5834897814107
20
2.47907076412156
30
0
41
1
10
75.6219056404902
20
2.40546809947549
30
0
41
1
10
75.698491454962
20
2.25811883328032
30
0
41
1
10
75.7366591863706
20
2.18436942021867
30
0
41
1
10
75.8126650305569
20
2.03667985504941
30
0
41
1
10
75.8505069761815
20
1.96274304550843
30
0
41
1
10
75.9069000636359
20
1.85161301211647
30
0
41
1
10
75.9256333499159
20
1.81452977842739
30
0
41
1
10
75.9536455433247
20
1.75886156899114
30
0
41
1
10
75.9629683136719
20
1.74029900928198
30
0
41
1
10
75.9815860378762
20
1.70317636923636
30
0
41
1
10
75.9908816448679
20
1.68461868435662
30
0
41
1
10
76.0094682032549
20
1.64758756663557
30
0
41
1
10
76.018760352396
20
1.62911933435785
30
0
41
1
10
76.0374123259271
20
1.59249255537449
30
0
41
1
10
76.046773318088
20
1.57433806872169
30
0
41
1
10
76.0656792621216
20
1.53866720072074
30
0
41
1
10
76.0752274928316
20
1.52115842299531
30
0
41
1
10
76.0944828716843
20
1.48665153635892
30
0
41
1
10
76.104195376256
20
1.46967008395967
30
0
41
1
10
76.1236887846537
20
1.43592175664159
30
0
41
1
10
76.1432409092013
20
1.40235943959843
30
0
41
1
10
76.1627594714086
20
1.36870664167003
30
0
41
1
10
76.1919503416241
20
1.31798114645392
30
0
41
1
10
76.2113131319593
20
1.28388996559329
30
0
41
1
10
76.2498282023358
20
1.21518657282883
30
0
41
1
10
76.2689793371173
20
1.18057182600887
30
0
41
1
10
76.307078055159
20
1.1109382582143
30
0
41
1
10
76.3260475197661
20
1.07587714509702
30
0
41
1
10
76.3635339293729
20
1.00535916529091
30
0
41
1
10
76.3820466222386
20
0.969922145574827
30
0
41
1
10
76.4185622343018
20
0.8986983572496
30
0
41
1
10
76.4365651618475
20
0.862910895265003
30
0
41
1
10
76.4718853428018
20
0.790902354996831
30
0
41
1
10
76.4892005286411
20
0.754678488190905
30
0
41
1
10
76.522798742061
20
0.681613804072953
30
0
41
1
10
76.5390825860292
20
0.64477314832132
30
0
41
1
10
76.5701802635533
20
0.570282207026992
30
0
41
1
10
76.5850059955052
20
0.53263963565405
30
0
41
1
10
76.6124936214189
20
0.456235759378046
30
0
41
1
10
76.6251602601013
20
0.417477072935355
30
0
41
1
10
76.6417582079586
20
0.358158593756798
30
0
41
1
10
76.6468983924265
20
0.338139747585274
30
0
41
1
10
76.6561454993976
20
0.297839453265851
30
0
41
1
10
76.6602300368318
20
0.277691590249475
30
0
41
1
10
76.6705690518724
20
0.217266803831933
30
0
41
1
10
76.6748645161045
20
0.177013090126564
30
0
41
1
10
76.676150463509
20
0.116800317603747
30
0
41
1
10
76.6757352633746
20
0.0967550170922777
30
0
41
1
10
76.6738403413965
20
0.0667248775419296
30
0
41
1
10
76.6729974099327
20
0.0567211326476809
30
0
41
1
10
76.6708960720359
20
0.0367262184092283
30
0
41
1
10
76.6696351520018
20
0.0267262793203429
30
0
41
1
10
76.6624198386501
20
-0.0226574000765822
30
0
41
1
10
76.6536854508158
20
-0.060666649849594
30
0
41
1
10
76.6319579826877
20
-0.134232765710891
30
0
41
1
10
76.6189831121632
20
-0.169802956507027
30
0
41
1
10
76.597288034643
20
-0.221589101338964
30
0
41
1
10
76.5896634483105
20
-0.238619341993939
30
0
41
1
10
76.5739509104531
20
-0.271811134187402
30
0
41
1
10
76.5658454908958
20
-0.288014693925561
30
0
41
1
10
76.5409320652221
20
-0.335533932224564
30
0
41
1
10
76.5235387084229
20
-0.365772039366249
30
0
41
1
10
76.487721786713
20
-0.423726776189056
30
0
41
1
10
76.4692855290489
20
-0.451412322819294
30
0
41
1
10
76.441047165819
20
-0.491086664355862
30
0
41
1
10
76.4315355869131
20
-0.504001228352109
30
0
41
1
10
76.4123426627609
20
-0.529243799520742
30
0
41
1
10
76.4026471279706
20
-0.541589576210299
30
0
41
1
10
76.3735772644956
20
-0.577504481654358
30
0
41
1
10
76.3541519177846
20
-0.600054902569923
30
0
41
1
10
76.2958362319417
20
-0.66397516882941
30
0
41
1
10
76.2569143294224
20
-0.701449264525394
30
0
41
1
10
76.1985040883272
20
-0.750798039204085
30
0
41
1
10
76.1790263063142
20
-0.766110597394828
30
0
41
1
10
76.1400348999859
20
-0.794437138291073
30
0
41
1
10
76.1204655806239
20
-0.807464599923435
30
0
41
1
10
76.081800126559
20
-0.830746655534568
30
0
41
1
10
76.0626516366697
20
-0.841038153343021
30
0
41
1
10
76.0246342330061
20
-0.859281711524119
30
0
41
1
10
76.0057597081632
20
-0.867275471814111
30
0
41
1
10
75.9682584544599
20
-0.880898496687422
30
0
41
1
10
75.9496394320324
20
-0.886474004915016
30
0
41
1
10
75.9126610974469
20
-0.894832295091703
30
0
41
1
10
75.894284831549
20
-0.897725288831452
30
0
41
1
10
75.8575408829416
20
-0.902442439860636
30
0
41
1
10
75.8391680030592
20
-0.904317465807566
30
0
41
1
10
75.8023243744646
20
-0.907950527448065
30
0
41
1
10
75.7838565736537
20
-0.909678454566063
30
0
41
1
10
75.7282488233234
20
-0.915567241046091
30
0
41
1
10
75.6909138907559
20
-0.920368664516559
30
0
41
1
10
75.6157756479068
20
-0.933051890928198
30
0
41
1
10
75.5779814567927
20
-0.940843473888236
30
0
41
1
10
75.5020606432819
20
-0.959437349970671
30
0
41
1
10
75.4639348631407
20
-0.970222738635869
30
0
41
1
10
75.387438882437
20
-0.994677275071354
30
0
41
1
10
75.3490649446123
20
-1.00839169913724
30
0
41
1
10
75.2720725311972
20
-1.03957475747859
30
0
41
1
10
75.2334514943328
20
-1.05709383957631
30
0
41
1
10
75.1559793435787
20
-1.09619358831949
30
0
41
1
10
75.1171258843742
20
-1.1178140100123
30
0
41
1
10
75.039209725399
20
-1.16487234840051
30
0
41
1
10
75.0001517980253
20
-1.1902157782323
30
0
41
1
10
74.9610095323502
20
-1.21703135205271
30
0
0
SPLINE
5
C0
100
AcDbEntity
8
1
62
256
6
ByLayer
370
18
48
1
60
0
100
AcDbSpline
70
4
71
3
72
54
73
50
40
0
40
0
40
0
40
0
40
0.0083906496361623
40
0.0413155885641596
40
0.0742405274921568
40
0.0907029969561555
40
0.107165466420154
40
0.123627935884153
40
0.140090405348151
40
0.173015344276149
40
0.205940283204146
40
0.222402752668144
40
0.230633987400144
40
0.238865222132143
40
0.247096456864142
40
0.255327691596142
40
0.263558926328141
40
0.27179016106014
40
0.288252630524139
40
0.304715099988138
40
0.321177569452136
40
0.337640038916135
40
0.354102508380134
40
0.370564977844132
40
0.403489916772129
40
0.436414855700127
40
0.469339794628124
40
0.502264733556121
40
0.535189672484118
40
0.568114611412116
40
0.601039550340113
40
0.63396448926811
40
0.666889428196107
40
0.699814367124105
40
0.716276836588103
40
0.732739306052102
40
0.7492017755161
40
0.765664244980099
40
0.782126714444098
40
0.798589183908096
40
0.815051653372095
40
0.831514122836093
40
0.847976592300092
40
0.864439061764091
40
0.897364000692088
40
0.930288939620085
40
0.963213878548082
40
0.99613881747608
40
1
40
1
40
1
40
1
41
1
10
14.2049094198413
20
2.75615406207726
30
0
41
1
10
14.1987808169636
20
2.74164516385901
30
0
41
1
10
14.167445817821
20
2.67003579245005
30
0
41
1
10
14.0993702005957
20
2.53976075173071
30
0
41
1
10
13.998870382197
20
2.39186152884031
30
0
41
1
10
13.9027837616775
20
2.27116061515241
30
0
41
1
10
13.8226100642311
20
2.17948223585273
30
0
41
1
10
13.7354493714452
20
2.08783918297496
30
0
41
1
10
13.6113315850843
20
1.96698532914084
30
0
41
1
10
13.4416544227234
20
1.81815971642067
30
0
41
1
10
13.2537709958249
20
1.67162249165494
30
0
41
1
10
13.1129058794691
20
1.5705313309889
30
0
41
1
10
13.0300800623548
20
1.51303879627457
30
0
41
1
10
12.9675063824166
20
1.4699045183786
30
0
41
1
10
12.9066451714978
20
1.42634112305981
30
0
41
1
10
12.8515037149401
20
1.38161185952381
30
0
41
1
10
12.8011754920713
20
1.33606691720016
30
0
41
1
10
12.73334464313
20
1.27557847727186
30
0
41
1
10
12.6399737281554
20
1.20108872316831
30
0
41
1
10
12.5188885200903
20
1.11492513252566
30
0
41
1
10
12.3915578241521
20
1.03145784873286
30
0
41
1
10
12.2564576078647
20
0.950189442392599
30
0
41
1
10
12.1167781715113
20
0.87198770956573
30
0
41
1
10
11.9269762269332
20
0.772425614318394
30
0
41
1
10
11.6832821421781
20
0.656197251588424
30
0
41
1
10
11.3805898320316
20
0.526466655301761
30
0
41
1
10
11.074504424933
20
0.407719485055623
30
0
41
1
10
10.7692732857962
20
0.299833922495907
30
0
41
1
10
10.4635214106224
20
0.204337477789153
30
0
41
1
10
10.1573877926098
20
0.119973052516599
30
0
41
1
10
9.85165516470778
20
0.0474889962144971
30
0
41
1
10
9.5549190350122
20
-0.0098649248031393
30
0
41
1
10
9.26558514355273
20
-0.0503783393761239
30
0
41
1
10
9.03600133530674
20
-0.0653939082486943
30
0
41
1
10
8.86608024451914
20
-0.0641396255477957
30
0
41
1
10
8.74533499418402
20
-0.0555500765956083
30
0
41
1
10
8.63343489900467
20
-0.0385826536614218
30
0
41
1
10
8.534602930765
20
-0.0127275168927952
30
0
41
1
10
8.45008605363253
20
0.023678021297826
30
0
41
1
10
8.38064651507898
20
0.0699378448660184
30
0
41
1
10
8.33487627794111
20
0.128279649438099
30
0
41
1
10
8.2918681215962
20
0.187993635919156
30
0
41
1
10
8.24244278579152
20
0.244701416795635
30
0
41
1
10
8.16632466105688
20
0.314683054974751
30
0
41
1
10
8.05444809672946
20
0.392510611430026
30
0
41
1
10
7.90039305381933
20
0.47510051315578
30
0
41
1
10
7.72669050494997
20
0.545844231848292
30
0
41
1
10
7.59412754125137
20
0.588666854824595
30
0
41
1
10
7.52260605021621
20
0.610168991417652
30
0
41
1
10
7.51508033928206
20
0.612413350961532
30
0
0
SPLINE
5
C1
100
AcDbEntity
8
1
62
256
6
ByLayer
370
18
48
1
60
0
100
AcDbSpline
70
4
71
3
72
76
73
72
40
0
40
0
40
0
40
0
40
0.0407664073237933
40
0.0407664073237933
40
0.0815328146475866
40
0.0815328146475866
40
0.12229922197138
40
0.12229922197138
40
0.142682425633278
40
0.142682425633278
40
0.163065629295176
40
0.163065629295176
40
0.183448832957074
40
0.183448832957074
40
0.203832036618971
40
0.203832036618971
40
0.244598443942767
40
0.244598443942767
40
0.285364851266563
40
0.285364851266563
40
0.326131258590359
40
0.326131258590359
40
0.346514462252255
40
0.346514462252255
40
0.356706064083204
40
0.356706064083204
40
0.366897665914152
40
0.366897665914152
40
0.387280869576049
40
0.387280869576049
40
0.407664073237945
40
0.407664073237945
40
0.428047276899842
40
0.428047276899842
40
0.448430480561739
40
0.448430480561739
40
0.489196887885529
40
0.489196887885529
40
0.52996329520932
40
0.52996329520932
40
0.570729702533111
40
0.570729702533111
40
0.611496109856902
40
0.611496109856902
40
0.652262517180693
40
0.652262517180693
40
0.672645720842587
40
0.672645720842587
40
0.693028924504481
40
0.693028924504481
40
0.713412128166375
40
0.713412128166375
40
0.733795331828269
40
0.733795331828269
40
0.77456173915206
40
0.77456173915206
40
0.815328146475851
40
0.815328146475851
40
0.856094553799641
40
0.856094553799641
40
0.896860961123432
40
0.896860961123432
40
0.917244164785327
40
0.917244164785327
40
0.937627368447223
40
0.937627368447223
40
0.958010572109118
40
0.958010572109118
40
0.978393775771013
40
0.978393775771013
40
1
40
1
40
1
40
1
41
1
10
74.961009532351
20
-1.21703135205354
30
0
41
1
10
74.7838308567028
20
-1.12412465044818
30
0
41
1
10
74.6070656314346
20
-1.03048372292784
30
0
41
1
10
74.2546423478421
20
-0.841216323832356
30
0
41
1
10
74.0789890259587
20
-0.745581306376664
30
0
41
1
10
73.7280698660737
20
-0.553650721785061
30
0
41
1
10
73.5527240564473
20
-0.457502210847053
30
0
41
1
10
73.2899782725034
20
-0.312815793936153
30
0
41
1
10
73.2024509908867
20
-0.264492877096643
30
0
41
1
10
73.0275248477747
20
-0.167623688138491
30
0
41
1
10
72.9401171082241
20
-0.119093752743453
30
0
41
1
10
72.7653303976322
20
-0.021993838575554
30
0
41
1
10
72.677950895491
20
0.0265751615061163
30
0
41
1
10
72.5031109219384
20
0.12355149776451
30
0
41
1
10
72.4156447962642
20
0.171948450498576
30
0
41
1
10
72.1531378586569
20
0.316920644226798
30
0
41
1
10
71.9780059359827
20
0.413309341400435
30
0
41
1
10
71.6276685703788
20
0.605899949913805
30
0
41
1
10
71.4524100066533
20
0.70200413012418
30
0
41
1
10
71.1009217324303
20
0.892376714906817
30
0
41
1
10
70.9247015533855
20
0.986662793778805
30
0
41
1
10
70.6598432416346
20
1.12708257889238
30
0
41
1
10
70.5714808021286
20
1.17374234193861
30
0
41
1
10
70.4387763114401
20
1.24342659717803
30
0
41
1
10
70.3944931153551
20
1.26661320979193
30
0
41
1
10
70.3060149168948
20
1.31278196317192
30
0
41
1
10
70.2618097428527
20
1.33576928173824
30
0
41
1
10
70.1292759314706
20
1.40440595599932
30
0
41
1
10
70.0410231983104
20
1.44971941958488
30
0
41
1
10
69.8646520058971
20
1.53934800858187
30
0
41
1
10
69.7765429109073
20
1.583680291718
30
0
41
1
10
69.600501932571
20
1.67143523108055
30
0
41
1
10
69.5125705214905
20
1.7148588284177
30
0
41
1
10
69.3369304438949
20
1.80087503480601
30
0
41
1
10
69.2492224286545
20
1.84346776749928
30
0
41
1
10
68.9863160391961
20
1.9698042986511
30
0
41
1
10
68.8113120009401
20
2.05206445032007
30
0
41
1
10
68.4612025208171
20
2.21172811885438
30
0
41
1
10
68.286165222118
20
2.28924889301206
30
0
41
1
10
67.9364121169289
20
2.44008298210608
30
0
41
1
10
67.7616755386665
20
2.51335118433903
30
0
41
1
10
67.4117299192919
20
2.65452688177473
30
0
41
1
10
67.2364589845815
20
2.7223653567479
30
0
41
1
10
66.8855157976583
20
2.8528014157105
30
0
41
1
10
66.7099334031449
20
2.91550203385583
30
0
41
1
10
66.4460560589824
20
3.00529618278816
30
0
41
1
10
66.3580035406314
20
3.03450728741728
30
0
41
1
10
66.1816026031883
20
3.09136237024086
30
0
41
1
10
66.0932564888345
20
3.11900996773304
30
0
41
1
10
65.9162953714436
20
3.17276690262466
30
0
41
1
10
65.8275947933887
20
3.19889892120446
30
0
41
1
10
65.6505877018005
20
3.24947434875636
30
0
41
1
10
65.5622503077862
20
3.27394071770152
30
0
41
1
10
65.2976648942813
20
3.34481066404493
30
0
41
1
10
65.1218321880992
20
3.38866213191969
30
0
41
1
10
64.7705050111306
20
3.46905342191562
30
0
41
1
10
64.595047383297
20
3.50564742217142
30
0
41
1
10
64.2448155338407
20
3.57190225392964
30
0
41
1
10
64.0700833485362
20
3.60156708642526
30
0
41
1
10
63.7207009313617
20
3.65357873564645
30
0
41
1
10
63.5459568415193
20
3.67589570255473
30
0
41
1
10
63.2837862092108
20
3.7039084406988
30
0
41
1
10
63.1963953348188
20
3.71233785193789
30
0
41
1
10
63.0216535596455
20
3.72738284023916
30
0
41
1
10
62.9342974480272
20
3.73399550746464
30
0
41
1
10
62.7595345921485
20
3.74536797262635
30
0
41
1
10
62.6721287254068
20
3.75012765584205
30
0
41
1
10
62.4971625322307
20
3.75777253728631
30
0
41
1
10
62.409591849867
20
3.76065739409282
30
0
41
1
10
62.229011772828
20
3.76467428392027
30
0
41
1
10
62.1359958477263
20
3.76569410374668
30
0
41
1
10
62.0429023191481
20
3.76565793952878
30
0
0
SPLINE
5
C2
100
AcDbEntity
8
1
62
256
6
ByLayer
370
18
48
1
60
0
100
AcDbSpline
70
4
71
3
72
149
73
145
40
0
40
0
40
0
40
0
40
0.0009377542140105
40
0.0009377542140105
40
0.0107060500536803
40
0.0107060500536803
40
0.0302426417330206
40
0.0302426417330206
40
0.0497792334123611
40
0.0497792334123611
40
0.0693158250917016
40
0.0693158250917016
40
0.0888524167710422
40
0.0888524167710422
40
0.0986207126107123
40
0.0986207126107123
40
0.108389008450383
40
0.108389008450383
40
0.118157304290053
40
0.118157304290053
40
0.127925600129723
40
0.127925600129723
40
0.147462191809064
40
0.147462191809064
40
0.157230487648734
40
0.157230487648734
40
0.166998783488405
40
0.166998783488405
40
0.186535375167747
40
0.186535375167747
40
0.206071966847088
40
0.206071966847088
40
0.215840262686759
40
0.215840262686759
40
0.225608558526429
40
0.235376854366099
40
0.235376854366099
40
0.245145150205769
40
0.245145150205769
40
0.264681741885111
40
0.264681741885111
40
0.284218333564452
40
0.284218333564452
40
0.303754925243793
40
0.303754925243793
40
0.323291516923135
40
0.323291516923135
40
0.333059812762806
40
0.333059812762806
40
0.337943960682642
40
0.337943960682642
40
0.342828108602478
40
0.342828108602478
40
0.352596404442149
40
0.352596404442149
40
0.36236470028182
40
0.36236470028182
40
0.381901291961163
40
0.381901291961163
40
0.401437883640505
40
0.401437883640505
40
0.420974475319848
40
0.420974475319848
40
0.440511066999191
40
0.440511066999191
40
0.450279362838862
40
0.450279362838862
40
0.460047658678535
40
0.460047658678535
40
0.469815954518207
40
0.469815954518207
40
0.479584250357879
40
0.479584250357879
40
0.499120842037223
40
0.499120842037223
40
0.508889137876895
40
0.508889137876895
40
0.518657433716567
40
0.518657433716567
40
0.53819402539591
40
0.53819402539591
40
0.557730617075253
40
0.557730617075253
40
0.577267208754596
40
0.577267208754596
40
0.587035504594267
40
0.587035504594267
40
0.596803800433938
40
0.596803800433938
40
0.616340392113279
40
0.616340392113279
40
0.635876983792621
40
0.635876983792621
40
0.655413575471963
40
0.655413575471963
40
0.674950167151304
40
0.674950167151304
40
0.694486758830646
40
0.694486758830646
40
0.704255054670317
40
0.704255054670317
40
0.714023350509988
40
0.714023350509988
40
0.723791646349658
40
0.723791646349658
40
0.733559942189329
40
0.733559942189329
40
0.75309653386867
40
0.75309653386867
40
0.77263312554801
40
0.77263312554801
40
0.792169717227351
40
0.792169717227351
40
0.811706308906691
40
0.811706308906691
40
0.821474604746362
40
0.821474604746362
40
0.831242900586033
40
0.831242900586033
40
0.841011196425704
40
0.841011196425704
40
0.850779492265375
40
0.850779492265375
40
0.870316083944718
40
0.870316083944718
40
0.875200231864553
40
0.875200231864553
40
0.880084379784388
40
0.889852675624059
40
0.889852675624059
40
0.909389267303401
40
0.909389267303401
40
0.928925858982742
40
0.928925858982742
40
0.938694154822413
40
0.938694154822413
40
0.948462450662085
40
0.958230746501756
40
0.958230746501756
40
0.967999042341427
40
0.967999042341427
40
0.987535634020769
40
0.987535634020769
40
1
40
1
40
1
40
1
41
1
10
46.2773329864707
20
-2.55616795604666
30
0
41
1
10
46.2688671587401
20
-2.55960387485481
30
0
41
1
10
46.2604021864972
20
-2.56303312010897
30
0
41
1
10
46.1637694491949
20
-2.60210688036386
30
0
41
1
10
46.0756780945651
20
-2.63701372959838
30
0
41
1
10
45.8116179749299
20
-2.73951280487128
30
0
41
1
10
45.6358787822572
20
-2.80491433089057
30
0
41
1
10
45.2852622648466
20
-2.93022812078934
30
0
41
1
10
45.1103531742388
20
-2.99008023530428
30
0
41
1
10
44.7605673514948
20
-3.10333672099964
30
0
41
1
10
44.5856463080137
20
-3.15671331819345
30
0
41
1
10
44.2359699935036
20
-3.25724969617107
30
0
41
1
10
44.0613001285442
20
-3.3044771804847
30
0
41
1
10
43.7991774797435
20
-3.37037168736958
30
0
41
1
10
43.7117747547343
20
-3.39150515811801
30
0
41
1
10
43.5368078456507
20
-3.43202967803163
30
0
41
1
10
43.4492492561367
20
-3.45142640854124
30
0
41
1
10
43.2740054211989
20
-3.48850969987771
30
0
41
1
10
43.1863195484464
20
-3.50619601062616
30
0
41
1
10
43.0108611536336
20
-3.5398762965419
30
0
41
1
10
42.9230982419412
20
-3.55587554355347
30
0
41
1
10
42.6596236330654
20
-3.60126787592077
30
0
41
1
10
42.4837144330204
20
-3.62803845793366
30
0
41
1
10
42.218892977755
20
-3.66261809888292
30
0
41
1
10
42.1304730958377
20
-3.67322496798664
30
0
41
1
10
41.9533652070839
20
-3.69260177012743
30
0
41
1
10
41.8646162624237
20
-3.70137590569604
30
0
41
1
10
41.5990975946019
20
-3.72484611579293
30
0
41
1
10
41.4227683901996
20
-3.73671883704066
30
0
41
1
10
41.0707663250611
20
-3.75283077262884
30
0
41
1
10
40.8950044118721
20
-3.75707584676835
30
0
41
1
10
40.6317765577114
20
-3.75784942177609
30
0
41
1
10
40.5441117971445
20
-3.75717379510351
30
0
41
1
10
40.3689701902319
20
-3.75395186384756
30
0
41
1
10
40.1940007123483
20
-3.74885784270569
30
0
41
1
10
40.0192156367545
20
-3.74002817962847
30
0
41
1
10
39.8444156657275
20
-3.72935740640239
30
0
41
1
10
39.7569993663742
20
-3.72310464373194
30
0
41
1
10
39.4947169808063
20
-3.70161240995404
30
0
41
1
10
39.3198316258484
20
-3.68364398533669
30
0
41
1
10
38.9702267895624
20
-3.64029881635943
30
0
41
1
10
38.7954630185942
20
-3.61491676162146
30
0
41
1
10
38.4452335752911
20
-3.55708293322539
30
0
41
1
10
38.269753152429
20
-3.52466365066093
30
0
41
1
10
37.9183006486887
20
-3.45263645736225
30
0
41
1
10
37.7424060391218
20
-3.41295449481058
30
0
41
1
10
37.4778715178523
20
-3.34814273043338
30
0
41
1
10
37.3895681425189
20
-3.32566696591124
30
0
41
1
10
37.2568580517612
20
-3.29070254828352
30
0
41
1
10
37.2125811772425
20
-3.27883735851333
30
0
41
1
10
37.1239498065707
20
-3.25468289216718
30
0
41
1
10
37.0795930076082
20
-3.24239271543377
30
0
41
1
10
36.9466891315692
20
-3.20495921213151
30
0
41
1
10
36.8582156871391
20
-3.17922862641311
30
0
41
1
10
36.6815691126062
20
-3.12618131122667
30
0
41
1
10
36.5934020390615
20
-3.09885721698333
30
0
41
1
10
36.3292580387802
20
-3.01460592911599
30
0
41
1
10
36.153623577978
20
-2.95541034904301
30
0
41
1
10
35.8025875626444
20
-2.83185201207752
30
0
41
1
10
35.6272450842228
20
-2.76743370987629
30
0
41
1
10
35.2772037686551
20
-2.63297964034226
30
0
41
1
10
35.1025008333147
20
-2.5629333800795
30
0
41
1
10
34.7529992420632
20
-2.41818324564946
30
0
41
1
10
34.5781245108902
20
-2.34359817692365
30
0
41
1
10
34.3157428050941
20
-2.22826741369383
30
0
41
1
10
34.2282797522878
20
-2.18923372053388
30
0
41
1
10
34.0533641304191
20
-2.10995346934868
30
0
41
1
10
33.9659027249935
20
-2.06971961216783
30
0
41
1
10
33.7908913239934
20
-1.98818213310187
30
0
41
1
10
33.7033406532621
20
-1.94687935649358
30
0
41
1
10
33.528041682807
20
-1.86337689163534
30
0
41
1
10
33.4402889977682
20
-1.82118528594569
30
0
41
1
10
33.1767529528152
20
-1.69324024430389
30
0
41
1
10
33.0007116391605
20
-1.60608817411622
30
0
41
1
10
32.7362377582361
20
-1.47230688334614
30
0
41
1
10
32.647994741047
20
-1.42723096713462
30
0
41
1
10
32.4712488769887
20
-1.33626154987655
30
0
41
1
10
32.3826937349562
20
-1.29034766756431
30
0
41
1
10
32.1168024785194
20
-1.15183374763441
30
0
41
1
10
31.9399470911627
20
-1.05878518327498
30
0
41
1
10
31.5872919794971
20
-0.870819909328191
30
0
41
1
10
31.4115525416494
20
-0.775791590303157
30
0
41
1
10
31.0605960391023
20
-0.584856033763373
30
0
41
1
10
30.8852797088355
20
-0.489132664025732
30
0
41
1
10
30.6225225509448
20
-0.345210350254178
30
0
41
1
10
30.5349823692261
20
-0.297162785628672
30
0
41
1
10
30.3600382092443
20
-0.200837200837896
30
0
41
1
10
30.2726328919957
20
-0.152561677226231
30
0
41
1
10
30.0104984374892
20
-0.007616946815574
30
0
41
1
10
29.8358241028315
20
0.0891209366214412
30
0
41
1
10
29.4860234715737
20
0.281674195897608
30
0
41
1
10
29.3109678436258
20
0.377620492279675
30
0
41
1
10
28.9608256348433
20
0.569368625644898
30
0
41
1
10
28.7857143829141
20
0.665124596308829
30
0
41
1
10
28.4346613112339
20
0.855014069484838
30
0
41
1
10
28.2586641414465
20
0.949045686022316
30
0
41
1
10
27.9059287311197
20
1.13565151712368
30
0
41
1
10
27.7292783122201
20
1.22838747027475
30
0
41
1
10
27.4635106863383
20
1.36596101689716
30
0
41
1
10
27.374945272793
20
1.41146029045942
30
0
41
1
10
27.1980875974849
20
1.50138869169243
30
0
41
1
10
27.1097478716025
20
1.54585460595555
30
0
41
1
10
26.9332673836543
20
1.63384406770618
30
0
41
1
10
26.8451259631663
20
1.67736660501717
30
0
41
1
10
26.6690813866107
20
1.76354367058119
30
0
41
1
10
26.5811878708832
20
1.80621372494946
30
0
41
1
10
26.3178120901247
20
1.93283059403626
30
0
41
1
10
26.1426243300341
20
2.01535977115364
30
0
41
1
10
25.7922865816977
20
2.17552010866638
30
0
41
1
10
25.6171786720167
20
2.2532327655118
30
0
41
1
10
25.2673670102241
20
2.40436903846691
30
0
41
1
10
25.0926979686266
20
2.47782769969467
30
0
41
1
10
24.7431343857577
20
2.61951746683053
30
0
41
1
10
24.5681479812603
20
2.68763552769815
30
0
41
1
10
24.3054039290777
20
2.78580016366669
30
0
41
1
10
24.2177868724339
20
2.81786295823687
30
0
41
1
10
24.0425190535188
20
2.88070714127988
30
0
41
1
10
23.9548618107854
20
2.91147970327296
30
0
41
1
10
23.7794205389799
20
2.97161854897439
30
0
41
1
10
23.6916370989261
20
3.00098529680656
30
0
41
1
10
23.5158386111933
20
3.05818806560151
30
0
41
1
10
23.4278138699799
20
3.08601413028387
30
0
41
1
10
23.1633682622735
20
3.16717292318666
30
0
41
1
10
22.9865925724709
20
3.21821095745906
30
0
41
1
10
22.76516015626
20
3.27824005968549
30
0
41
1
10
22.7208238450126
20
3.29005932727196
30
0
41
1
10
22.6322365656995
20
3.31326179965987
30
0
41
1
10
22.499469964614
20
3.34741684459607
30
0
41
1
10
22.3669942306058
20
3.37958335988685
30
0
41
1
10
22.102263565642
20
3.44115998683881
30
0
41
1
10
21.9260656507646
20
3.47854795628365
30
0
41
1
10
21.5744786929239
20
3.546306331068
30
0
41
1
10
21.3991678105561
20
3.57670840090839
30
0
41
1
10
21.1364969496533
20
3.61684512746956
30
0
41
1
10
21.0489796155682
20
3.62930932595808
30
0
41
1
10
20.8739342945536
20
3.65238193340591
30
0
41
1
10
20.6988962926194
20
3.67360924313121
30
0
41
1
10
20.5239211582572
20
3.69119014709412
30
0
41
1
10
20.349021269578
20
3.70695903970668
30
0
41
1
10
20.2616160892585
20
3.71393829926714
30
0
41
1
10
19.9994271784997
20
3.7321134145248
30
0
41
1
10
19.8246577253142
20
3.74053450152479
30
0
41
1
10
19.5378439963628
20
3.74820159533402
30
0
41
1
10
19.426018701949
20
3.74967729405188
30
0
41
1
10
19.3141199744067
20
3.74963445314324
30
0
0
SPLINE
5
C3
100
AcDbEntity
8
1
62
256
6
ByLayer
370
18
48
1
60
0
100
AcDbSpline
70
4
71
3
72
64
73
60
40
0
40
0
40
0
40
0
40
0.0063946996324455
40
0.0063946996324455
40
0.0293969546665971
40
0.0293969546665971
40
0.0523992097007485
40
0.0523992097007485
40
0.0639003372178243
40
0.0639003372178243
40
0.0754014647349001
40
0.0754014647349001
40
0.0984037197690488
40
0.0984037197690488
40
0.121405974803198
40
0.121405974803198
40
0.167410484871495
40
0.167410484871495
40
0.213414994939793
40
0.213414994939793
40
0.259419505008091
40
0.259419505008091
40
0.351428525144683
40
0.351428525144683
40
0.374430780178831
40
0.374430780178831
40
0.397433035212979
40
0.397433035212979
40
0.443437545281275
40
0.443437545281275
40
0.535446565417865
40
0.535446565417865
40
0.627455585554454
40
0.627455585554454
40
0.673460095622751
40
0.673460095622751
40
0.719464605691047
40
0.719464605691047
40
0.765469115759344
40
0.765469115759344
40
0.811473625827639
40
0.811473625827639
40
0.834475880861788
40
0.834475880861788
40
0.857478135895936
40
0.857478135895936
40
0.903482645964235
40
0.903482645964235
40
0.926484900998386
40
0.926484900998386
40
0.949487156032537
40
0.949487156032537
40
0.960988283549612
40
0.960988283549612
40
0.972489411066688
40
0.972489411066688
40
0.995491666100836
40
0.995491666100836
40
1
40
1
40
1
40
1
41
1
10
8.96109172767615
20
-3.745749936431
30
0
41
1
10
8.94694589444848
20
-3.74574294586179
30
0
41
1
10
8.9327947476277
20
-3.74572561296472
30
0
41
1
10
8.86772218977939
20
-3.74559946490595
30
0
41
1
10
8.81674405086332
20
-3.74537226971575
30
0
41
1
10
8.71511206251452
20
-3.74463444876434
30
0
41
1
10
8.66447301672744
20
-3.74412650858173
30
0
41
1
10
8.58942426219164
20
-3.74303197457891
30
0
41
1
10
8.56456137929672
20
-3.74260996601126
30
0
41
1
10
8.51516258107637
20
-3.74162655710208
30
0
41
1
10
8.49062616438678
20
-3.74106459380249
30
0
41
1
10
8.41732355246688
20
-3.73916115799031
30
0
41
1
10
8.36882469897296
20
-3.73759948600309
30
0
41
1
10
8.27142055856891
20
-3.73406143649839
30
0
41
1
10
8.22251321640451
20
-3.73209274141149
30
0
41
1
10
8.07460283887698
20
-3.72585948199281
30
0
41
1
10
7.97445555242336
20
-3.72129082525009
30
0
41
1
10
7.77213939477281
20
-3.7117160588142
30
0
41
1
10
7.66996544656684
20
-3.70669215290744
30
0
41
1
10
7.46343724898873
20
-3.69672678702557
30
0
41
1
10
7.35906850337915
20
-3.69179640014485
30
0
41
1
10
7.04303739699972
20
-3.67760251849336
30
0
41
1
10
6.8285581503531
20
-3.66890811172098
30
0
41
1
10
6.55599363402564
20
-3.66020020026397
30
0
41
1
10
6.50132544587751
20
-3.6585657523477
30
0
41
1
10
6.39210383102363
20
-3.65552984563468
30
0
41
1
10
6.33748875484582
20
-3.65412616332796
30
0
41
1
10
6.17363155171196
20
-3.6502582003229
30
0
41
1
10
6.06437753512444
20
-3.64813585278674
30
0
41
1
10
5.7365714482317
20
-3.64316388653887
30
0
41
1
10
5.5179749786638
20
-3.64173968399427
30
0
41
1
10
5.08068038161326
20
-3.6423484812035
30
0
41
1
10
4.8619817694817
20
-3.64440364049941
30
0
41
1
10
4.53383468288845
20
-3.65055619992623
30
0
41
1
10
4.42443611856839
20
-3.65310113616985
30
0
41
1
10
4.2056073711552
20
-3.65902916708706
30
0
41
1
10
4.09651664599977
20
-3.66239801953364
30
0
41
1
10
3.87939311442369
20
-3.66981446639474
30
0
41
1
10
3.77130565973647
20
-3.67386844956917
30
0
41
1
10
3.5562167575952
20
-3.68255138574833
30
0
41
1
10
3.4492112071199
20
-3.6871794076811
30
0
41
1
10
3.28968922113302
20
-3.69442931989963
30
0
41
1
10
3.23667568931944
20
-3.69689745389437
30
0
41
1
10
3.13156416756826
20
-3.70188255466775
30
0
41
1
10
3.07940275389734
20
-3.70440243987133
30
0
41
1
10
2.92427327586492
20
-3.71198418352495
30
0
41
1
10
2.82262339417963
20
-3.71707979518732
30
0
41
1
10
2.67396940287608
20
-3.72440366235483
30
0
41
1
10
2.62506218589985
20
-3.72678973838049
30
0
41
1
10
2.52889190321406
20
-3.73133752028866
30
0
41
1
10
2.48162894214573
20
-3.73350137968802
30
0
41
1
10
2.41234630098751
20
-3.7364324503599
30
0
41
1
10
2.3895213165967
20
-3.73735612527392
30
0
41
1
10
2.3444955694963
20
-3.73905873483065
30
0
41
1
10
2.32232068823771
20
-3.73983607914704
30
0
41
1
10
2.25781819550028
20
-3.741853056693
30
0
41
1
10
2.21717999975024
20
-3.74279920952318
30
0
41
1
10
2.1726337872195
20
-3.74315836549016
30
0
41
1
10
2.16546589008928
20
-3.74319190876454
30
0
41
1
10
2.15844065098702
20
-3.74319732307762
30
0
0
SPLINE
5
C4
100
AcDbEntity
8
1
62
256
6
ByLayer
370
18
48
1
60
0
100
AcDbSpline
70
4
71
3
72
158
73
154
40
0
40
0
40
0
40
0
40
0.0084829386252738
40
0.0084829386252738
40
0.0260823752396982
40
0.0260823752396982
40
0.0348820935469109
40
0.0348820935469109
40
0.0436818118541237
40
0.0436818118541237
40
0.0612812484685504
40
0.0612812484685504
40
0.0788806850829772
40
0.0788806850829772
40
0.096480121697404
40
0.096480121697404
40
0.105279840004617
40
0.105279840004617
40
0.114079558311831
40
0.114079558311831
40
0.131678994926257
40
0.131678994926257
40
0.149278431540682
40
0.149278431540682
40
0.166877868155108
40
0.166877868155108
40
0.175677586462321
40
0.175677586462321
40
0.184477304769533
40
0.184477304769533
40
0.20207674138396
40
0.20207674138396
40
0.219676177998387
40
0.219676177998387
40
0.237275614612814
40
0.237275614612814
40
0.246075332920028
40
0.246075332920028
40
0.254875051227242
40
0.254875051227242
40
0.27247448784167
40
0.27247448784167
40
0.281274206148884
40
0.281274206148884
40
0.290073924456099
40
0.290073924456099
40
0.307673361070528
40
0.307673361070528
40
0.316473079377742
40
0.316473079377742
40
0.325272797684957
40
0.325272797684957
40
0.342872234299386
40
0.342872234299386
40
0.360471670913815
40
0.360471670913815
40
0.378071107528244
40
0.378071107528244
40
0.395670544142673
40
0.395670544142673
40
0.413269980757102
40
0.413269980757102
40
0.430869417371531
40
0.430869417371531
40
0.44846885398596
40
0.44846885398596
40
0.457268572293174
40
0.457268572293174
40
0.466068290600388
40
0.466068290600388
40
0.474868008907602
40
0.474868008907602
40
0.483667727214816
40
0.483667727214816
40
0.501267163829244
40
0.501267163829244
40
0.518866600443672
40
0.518866600443672
40
0.5364660370581
40
0.5364660370581
40
0.545265755365315
40
0.545265755365315
40
0.554065473672529
40
0.554065473672529
40
0.571664910286958
40
0.571664910286958
40
0.589264346901387
40
0.589264346901387
40
0.606863783515817
40
0.606863783515817
40
0.615663501823031
40
0.615663501823031
40
0.624463220130246
40
0.624463220130246
40
0.63326293843746
40
0.63326293843746
40
0.642062656744675
40
0.642062656744675
40
0.659662093359104
40
0.659662093359104
40
0.677261529973533
40
0.677261529973533
40
0.686061248280748
40
0.686061248280748
40
0.694860966587963
40
0.694860966587963
40
0.712460403202393
40
0.712460403202393
40
0.730059839816822
40
0.730059839816822
40
0.747659276431251
40
0.747659276431251
40
0.756458994738465
40
0.756458994738465
40
0.76525871304568
40
0.76525871304568
40
0.782858149660108
40
0.782858149660108
40
0.800457586274535
40
0.800457586274535
40
0.80925730458175
40
0.80925730458175
40
0.818057022888965
40
0.818057022888965
40
0.826856741196179
40
0.826856741196179
40
0.835656459503394
40
0.835656459503394
40
0.853255896117824
40
0.853255896117824
40
0.870855332732254
40
0.870855332732254
40
0.888454769346684
40
0.888454769346684
40
0.8972544876539
40
0.8972544876539
40
0.906054205961116
40
0.906054205961116
40
0.923653642575548
40
0.923653642575548
40
0.941253079189979
40
0.941253079189979
40
0.958852515804411
40
0.958852515804411
40
0.967652234111626
40
0.967652234111626
40
0.976451952418842
40
0.976451952418842
40
0.985251670726058
40
0.985251670726058
40
0.994051389033274
40
0.994051389033274
40
1
40
1
40
1
40
1
41
1
10
24.9106856069504
20
2.55115264675374
30
0
41
1
10
24.9866613177636
20
2.58180627593166
30
0
41
1
10
25.0626164013406
20
2.61199276919351
30
0
41
1
10
25.2960341270198
20
2.7034459399292
30
0
41
1
10
25.453337478803
20
2.76327342795781
30
0
41
1
10
25.6895453965917
20
2.84946797893983
30
0
41
1
10
25.7683217606675
20
2.87761231280197
30
0
41
1
10
25.9260232431282
20
2.93265171673167
30
0
41
1
10
26.0049456226607
20
2.95955100851705
30
0
41
1
10
26.2418342457752
20
3.0384991653585
30
0
41
1
10
26.3998901421847
20
3.08883597470643
30
0
41
1
10
26.7161716904929
20
3.18492315216233
30
0
41
1
10
26.874482608013
20
3.23057267162508
30
0
41
1
10
27.1921241242951
20
3.31638230427342
30
0
41
1
10
27.3514834247581
20
3.35653334542371
30
0
41
1
10
27.5910278340036
20
3.41286809526952
30
0
41
1
10
27.6709306794944
20
3.43098412408688
30
0
41
1
10
27.8302972141082
20
3.46577846861547
30
0
41
1
10
27.9098389427666
20
3.48246827469401
30
0
41
1
10
28.1481934023204
20
3.5303100756997
30
0
41
1
10
28.3067681580765
20
3.55921010449023
30
0
41
1
10
28.6236827322804
20
3.61092041673288
30
0
41
1
10
28.7819272527838
20
3.63379984350578
30
0
41
1
10
29.0976903217407
20
3.6737692864449
30
0
41
1
10
29.2551951009812
20
3.69084195292678
30
0
41
1
10
29.4914582127486
20
3.71187957421512
30
0
41
1
10
29.5702113865281
20
3.71813365260843
30
0
41
1
10
29.7277756088886
20
3.72912455930432
30
0
41
1
10
29.8065788750226
20
3.73386450204933
30
0
41
1
10
30.0429586761164
20
3.7458469232109
30
0
41
1
10
30.200470371086
20
3.75085848367519
30
0
41
1
10
30.5153196828639
20
3.75484156122647
30
0
41
1
10
30.6727483537396
20
3.75379489365767
30
0
41
1
10
30.9882605704312
20
3.74565359434098
30
0
41
1
10
31.1463564288848
20
3.73858334266566
30
0
41
1
10
31.3836923611175
20
3.72341311577082
30
0
41
1
10
31.4628393439071
20
3.71759330310761
30
0
41
1
10
31.6211950229022
20
3.7044035569059
30
0
41
1
10
31.7004119126831
20
3.6970346972488
30
0
41
1
10
31.9383356817545
20
3.67263358024576
30
0
41
1
10
32.0973519328224
20
3.65331884736972
30
0
41
1
10
32.3367499405316
20
3.61989116551311
30
0
41
1
10
32.4167296776538
20
3.60798820785229
30
0
41
1
10
32.5763185119571
20
3.58273217398056
30
0
41
1
10
32.6559881241138
20
3.569373164366
30
0
41
1
10
32.8945894128569
20
3.52708348059343
30
0
41
1
10
33.0531052135519
20
3.49592229764764
30
0
41
1
10
33.290619852421
20
3.44515233724812
30
0
41
1
10
33.369747430677
20
3.42755958125153
30
0
41
1
10
33.5279594394731
20
3.39108718200808
30
0
41
1
10
33.6070342911717
20
3.37220090883639
30
0
41
1
10
33.8440736448062
20
3.31352948538955
30
0
41
1
10
34.0018154354158
20
3.27169908873438
30
0
41
1
10
34.3167843858229
20
3.18261320085062
30
0
41
1
10
34.4741055057203
20
3.13543691917971
30
0
41
1
10
34.7890550552274
20
3.03650769374133
30
0
41
1
10
34.9466701220883
20
2.98475889187048
30
0
41
1
10
35.2617599026629
20
2.87623572775661
30
0
41
1
10
35.4191841068507
20
2.81938620072066
30
0
41
1
10
35.7343363451764
20
2.70109583236177
30
0
41
1
10
35.8921413831525
20
2.63975653536375
30
0
41
1
10
36.2084999141142
20
2.51310588574316
30
0
41
1
10
36.3669519898067
20
2.44766578085449
30
0
41
1
10
36.6841469283151
20
2.31209191576599
30
0
41
1
10
36.8429141338769
20
2.24197516693991
30
0
41
1
10
37.0818891922366
20
2.13411800982195
30
0
41
1
10
37.1617571450974
20
2.09768913822208
30
0
41
1
10
37.3214216722024
20
2.02416891046391
30
0
41
1
10
37.4011709968624
20
1.98707991280901
30
0
41
1
10
37.5604442450771
20
1.91214959290744
30
0
41
1
10
37.639969047457
20
1.87430961500482
30
0
41
1
10
37.7987727385125
20
1.79784309831996
30
0
41
1
10
37.8780426631777
20
1.75920126387859
30
0
41
1
10
38.1155777937419
20
1.64225294737525
30
0
41
1
10
38.2736008257617
20
1.56297695509687
30
0
41
1
10
38.58958788964
20
1.40287183234187
30
0
41
1
10
38.7475101797182
20
1.321975921909
30
0
41
1
10
39.0628198195831
20
1.15782436893258
30
0
41
1
10
39.220156586703
20
1.07447484885091
30
0
41
1
10
39.4561518946877
20
0.94835870081215
30
0
41
1
10
39.5348211128806
20
0.906148725415505
30
0
41
1
10
39.6922379411834
20
0.821514381822794
30
0
41
1
10
39.7709946636575
20
0.779106694111277
30
0
41
1
10
40.0073435165435
20
0.651496253574834
30
0
41
1
10
40.1649788135455
20
0.565843073707867
30
0
41
1
10
40.4801559476243
20
0.392932821421766
30
0
41
1
10
40.6377439601079
20
0.305756010001772
30
0
41
1
10
40.9536466772776
20
0.131302551050879
30
0
41
1
10
41.1120166262575
20
0.044134822980169
30
0
41
1
10
41.3499778876023
20
-0.0869478440915259
30
0
41
1
10
41.4293611613655
20
-0.130707029970921
30
0
41
1
10
41.588232510481
20
-0.218400376676584
30
0
41
1
10
41.6677127778762
20
-0.262349869042794
30
0
41
1
10
41.8268556683591
20
-0.350280128026213
30
0
41
1
10
41.9065291056399
20
-0.394257328543205
30
0
41
1
10
42.0661251633217
20
-0.482044306587312
30
0
41
1
10
42.1458340399476
20
-0.52573725657345
30
0
41
1
10
42.3847866893038
20
-0.656052313947896
30
0
41
1
10
42.5438095176013
20
-0.742007430191961
30
0
41
1
10
42.8609342679393
20
-0.9127952003372
30
0
41
1
10
43.0189904670929
20
-0.997702025659748
30
0
41
1
10
43.2558205317721
20
-1.12341156789483
30
0
41
1
10
43.3347238812289
20
-1.16503641274406
30
0
41
1
10
43.4925204618088
20
-1.24761253366586
30
0
41
1
10
43.5714197510805
20
-1.28855372369068
30
0
41
1
10
43.8080356211009
20
-1.41049561769938
30
0
41
1
10
43.9656406715394
20
-1.49066788507875
30
0
41
1
10
44.2803850530693
20
-1.64906552245517
30
0
41
1
10
44.4375901233325
20
-1.72717178892972
30
0
41
1
10
44.752377541316
20
-1.88003020166104
30
0
41
1
10
44.9100108659631
20
-1.95470996997128
30
0
41
1
10
45.1465535047617
20
-2.06454149165242
30
0
41
1
10
45.2254150947498
20
-2.10078844205896
30
0
41
1
10
45.3831443304773
20
-2.17258234518849
30
0
41
1
10
45.4620070516906
20
-2.20813625394862
30
0
41
1
10
45.698739339884
20
-2.31353055158587
30
0
41
1
10
45.8567791276038
20
-2.38206206519482
30
0
41
1
10
46.1738331044983
20
-2.51487497229005
30
0
41
1
10
46.3327734303361
20
-2.57927223720151
30
0
41
1
10
46.571546254433
20
-2.67318331810884
30
0
41
1
10
46.6511938781618
20
-2.70404305566467
30
0
41
1
10
46.8106662444941
20
-2.76477533819661
30
0
41
1
10
46.89042227343
20
-2.79460844394185
30
0
41
1
10
47.049641061605
20
-2.85292986521608
30
0
41
1
10
47.129164447406
20
-2.88144551669075
30
0
41
1
10
47.288111578043
20
-2.93711902014388
30
0
41
1
10
47.367536847227
20
-2.96427643187411
30
0
41
1
10
47.6055772546687
20
-3.0438455633564
30
0
41
1
10
47.7639272738926
20
-3.09439116661594
30
0
41
1
10
48.0798098517677
20
-3.19061045290769
30
0
41
1
10
48.2374207251716
20
-3.23618692746686
30
0
41
1
10
48.5526661604281
20
-3.32167177388999
30
0
41
1
10
48.7103406081916
20
-3.36156540191851
30
0
41
1
10
48.9466330210556
20
-3.41742903705372
30
0
41
1
10
49.0253622743612
20
-3.43538376455152
30
0
41
1
10
49.1827282990506
20
-3.46996712184557
30
0
41
1
10
49.261366135488
20
-3.48659373112767
30
0
41
1
10
49.4972992794751
20
-3.53435750287909
30
0
41
1
10
49.6546417697894
20
-3.56335698120051
30
0
41
1
10
49.9699241761987
20
-3.61542548110134
30
0
41
1
10
50.1277769929317
20
-3.63855914091485
30
0
41
1
10
50.4435756323271
20
-3.67912948045478
30
0
41
1
10
50.6014911851252
20
-3.69655774237617
30
0
41
1
10
50.8389413231963
20
-3.71813890786103
30
0
41
1
10
50.9181858796028
20
-3.72457531184517
30
0
41
1
10
51.0769320767076
20
-3.73591772115071
30
0
41
1
10
51.1564308464844
20
-3.74082582415866
30
0
41
1
10
51.315618328368
20
-3.7491263028908
30
0
41
1
10
51.395304377599
20
-3.75251883428047
30
0
41
1
10
51.5548334743138
20
-3.75777417447316
30
0
41
1
10
51.6346905919029
20
-3.75963554768097
30
0
41
1
10
51.7681717313995
20
-3.76144735659881
30
0
41
1
10
51.8219520906032
20
-3.76182139783009
30
0
41
1
10
51.8756875283249
20
-3.76184133158617
30
0
0
SPLINE
5
C5
100
AcDbEntity
8
1
62
256
6
ByLayer
370
18
48
1
60
0
100
AcDbSpline
70
4
71
3
72
48
73
44
40
0
40
0
40
0
40
0
40
0.0273634998222523
40
0.0273634998222523
40
0.0922059331674307
40
0.0922059331674307
40
0.12462714984002
40
0.12462714984002
40
0.15704836651261
40
0.15704836651261
40
0.221890799857793
40
0.221890799857793
40
0.286733233202976
40
0.286733233202976
40
0.351575666548159
40
0.351575666548159
40
0.383996883220753
40
0.383996883220753
40
0.416418099893346
40
0.416418099893346
40
0.448839316565939
40
0.448839316565939
40
0.481260533238533
40
0.481260533238533
40
0.546102966583716
40
0.546102966583716
40
0.610945399928899
40
0.610945399928899
40
0.643366616601492
40
0.643366616601492
40
0.675787833274086
40
0.675787833274086
40
0.740630266619269
40
0.740630266619269
40
0.805472699964452
40
0.805472699964452
40
0.870315133309635
40
0.870315133309635
40
0.902736349982226
40
0.902736349982226
40
0.935157566654818
40
0.935157566654818
40
1
40
1
40
1
40
1
41
1
10
67.6425316718249
20
2.56089686596886
30
0
41
1
10
67.7090524574409
20
2.58785682610647
30
0
41
1
10
67.7755453135651
20
2.61444883426907
30
0
41
1
10
67.9994619515549
20
2.70288350301496
30
0
41
1
10
68.1566433228599
20
2.76316753279886
30
0
41
1
10
68.3924763794012
20
2.85008879999342
30
0
41
1
10
68.471101325034
20
2.87847537402865
30
0
41
1
10
68.6284482082249
20
2.93399868981351
30
0
41
1
10
68.7071780019662
20
2.96112717705429
30
0
41
1
10
68.9434590429995
20
3.04071224321712
30
0
41
1
10
69.101070035936
20
3.09140822273238
30
0
41
1
10
69.4162626366703
20
3.18823070606644
30
0
41
1
10
69.573901208732
20
3.23428327163842
30
0
41
1
10
69.8899885806181
20
3.32092638945272
30
0
41
1
10
70.0484907094004
20
3.36148496163165
30
0
41
1
10
70.2866874566128
20
3.41838461250745
30
0
41
1
10
70.3661574374377
20
3.43669541917711
30
0
41
1
10
70.5252192366502
20
3.47200454012892
30
0
41
1
10
70.6048049456128
20
3.48900652246456
30
0
41
1
10
70.7641847617318
20
3.52161323863192
30
0
41
1
10
70.8439067675467
20
3.53719921338353
30
0
41
1
10
71.0031028884504
20
3.56681329586644
30
0
41
1
10
71.0826364898817
20
3.58085325809967
30
0
41
1
10
71.3211245595251
20
3.62066015559378
30
0
41
1
10
71.4799124346152
20
3.64415809589633
30
0
41
1
10
71.7967213275006
20
3.68530116632755
30
0
41
1
10
71.9546992925479
20
3.70294139364458
30
0
41
1
10
72.1915609608951
20
3.72480104570528
30
0
41
1
10
72.2704981706032
20
3.73132294695685
30
0
41
1
10
72.4284107693726
20
3.74283293303455
30
0
41
1
10
72.5073898137745
20
3.74782155591441
30
0
41
1
10
72.7443025729829
20
3.76052499385037
30
0
41
1
10
72.9021822403091
20
3.76598609817768
30
0
41
1
10
73.217658111743
20
3.77083694668062
30
0
41
1
10
73.3753290312061
20
3.77020470687992
30
0
41
1
10
73.6912375938991
20
3.76283359914316
30
0
41
1
10
73.84951978449
20
3.75612155573867
30
0
41
1
10
74.0871459614301
20
3.74147579643159
30
0
41
1
10
74.166389167185
20
3.73582853607059
30
0
41
1
10
74.3249227706745
20
3.72297852846978
30
0
41
1
10
74.4042121356225
20
3.7157740733382
30
0
41
1
10
74.6423067427976
20
3.6918445320417
30
0
41
1
10
74.8013665918274
20
3.67280894255893
30
0
41
1
10
74.9610095323509
20
3.65079311525463
30
0
0
SPLINE
5
C6
100
AcDbEntity
8
1
62
256
6
ByLayer
370
18
48
1
60
0
100
AcDbSpline
70
4
71
3
72
149
73
145
40
0
40
0
40
0
40
0
40
0.0021100226399285
40
0.0021100226399285
40
0.0216473779321499
40
0.0216473779321499
40
0.0411847332243714
40
0.0411847332243714
40
0.0509534108704827
40
0.0509534108704827
40
0.0607220885165941
40
0.0607220885165941
40
0.0704907661627054
40
0.0704907661627054
40
0.0802594438088167
40
0.0802594438088167
40
0.0997967991010381
40
0.0997967991010381
40
0.119334154393259
40
0.119334154393259
40
0.138871509685481
40
0.138871509685481
40
0.158408864977702
40
0.158408864977702
40
0.168177542623814
40
0.168177542623814
40
0.177946220269925
40
0.177946220269925
40
0.187714897916036
40
0.187714897916036
40
0.197483575562147
40
0.197483575562147
40
0.21702093085437
40
0.21702093085437
40
0.236558286146593
40
0.236558286146593
40
0.241442624969649
40
0.241442624969649
40
0.246326963792705
40
0.246326963792705
40
0.256095641438815
40
0.256095641438815
40
0.275632996731037
40
0.275632996731037
40
0.285401674377147
40
0.285401674377147
40
0.295170352023258
40
0.304939029669369
40
0.304939029669369
40
0.314707707315479
40
0.314707707315479
40
0.334245062607701
40
0.334245062607701
40
0.353782417899922
40
0.353782417899922
40
0.373319773192144
40
0.373319773192144
40
0.392857128484365
40
0.392857128484365
40
0.402625806130476
40
0.402625806130476
40
0.412394483776587
40
0.412394483776587
40
0.422163161422697
40
0.422163161422697
40
0.431931839068808
40
0.431931839068808
40
0.451469194361029
40
0.451469194361029
40
0.471006549653251
40
0.471006549653251
40
0.490543904945472
40
0.490543904945472
40
0.510081260237694
40
0.510081260237694
40
0.519849937883804
40
0.519849937883804
40
0.529618615529915
40
0.539387293176026
40
0.539387293176026
40
0.549155970822136
40
0.549155970822136
40
0.568693326114358
40
0.568693326114358
40
0.588230681406579
40
0.588230681406579
40
0.59799935905269
40
0.59799935905269
40
0.6077680366988
40
0.6077680366988
40
0.62730539199102
40
0.62730539199102
40
0.64684274728324
40
0.64684274728324
40
0.656611424929351
40
0.656611424929351
40
0.666380102575462
40
0.666380102575462
40
0.685917457867683
40
0.685917457867683
40
0.705454813159904
40
0.705454813159904
40
0.724992168452126
40
0.724992168452126
40
0.744529523744347
40
0.744529523744347
40
0.764066879036569
40
0.764066879036569
40
0.773835556682679
40
0.773835556682679
40
0.778719895505733
40
0.778719895505733
40
0.783604234328788
40
0.793372911974897
40
0.793372911974897
40
0.803141589621005
40
0.803141589621005
40
0.822678944913223
40
0.822678944913223
40
0.842216300205441
40
0.842216300205441
40
0.861753655497659
40
0.861753655497659
40
0.881291010789877
40
0.881291010789877
40
0.891059688435986
40
0.891059688435986
40
0.900828366082095
40
0.900828366082095
40
0.910597043728203
40
0.910597043728203
40
0.920365721374312
40
0.920365721374312
40
0.93990307666653
40
0.93990307666653
40
0.949671754312639
40
0.949671754312639
40
0.959440431958748
40
0.959440431958748
40
0.978977787250966
40
0.978977787250966
40
0.998515142543184
40
0.998515142543184
40
1
40
1
40
1
40
1
41
1
10
67.6433858119039
20
-2.56097557688298
30
0
41
1
10
67.6244938903663
20
-2.56866087921014
30
0
41
1
10
67.605599687359
20
-2.57631558778144
30
0
41
1
10
67.4117299192917
20
-2.65452688177484
30
0
41
1
10
67.2364589845811
20
-2.72236535674801
30
0
41
1
10
66.8855157976579
20
-2.85280141571062
30
0
41
1
10
66.7099334031445
20
-2.91550203385594
30
0
41
1
10
66.446056058982
20
-3.0052961827883
30
0
41
1
10
66.358003540631
20
-3.03450728741745
30
0
41
1
10
66.1816026031877
20
-3.09136237024103
30
0
41
1
10
66.093256488834
20
-3.11900996773318
30
0
41
1
10
65.916295371443
20
-3.17276690262483
30
0
41
1
10
65.8275947933881
20
-3.1988989212046
30
0
41
1
10
65.6505877018
20
-3.24947434875651
30
0
41
1
10
65.5622503077857
20
-3.27394071770166
30
0
41
1
10
65.2976648942809
20
-3.34481066404504
30
0
41
1
10
65.1218321880988
20
-3.38866213191977
30
0
41
1
10
64.7705050111303
20
-3.46905342191568
30
0
41
1
10
64.5950473832967
20
-3.50564742217148
30
0
41
1
10
64.2448155338404
20
-3.57190225392969
30
0
41
1
10
64.070083348536
20
-3.60156708642532
30
0
41
1
10
63.7207009313615
20
-3.65357873564648
30
0
41
1
10
63.545956841519
20
-3.67589570255476
30
0
41
1
10
63.2837862092105
20
-3.70390844069883
30
0
41
1
10
63.1963953348186
20
-3.71233785193789
30
0
41
1
10
63.0216535596453
20
-3.72738284023919
30
0
41
1
10
62.934297448027
20
-3.73399550746467
30
0
41
1
10
62.7595345921484
20
-3.74536797262638
30
0
41
1
10
62.6721287254065
20
-3.75012765584205
30
0
41
1
10
62.4971625322304
20
-3.75777253728631
30
0
41
1
10
62.4095918498667
20
-3.76065739409285
30
0
41
1
10
62.1466113326898
20
-3.76650722969805
30
0
41
1
10
61.9709491573502
20
-3.76667938050875
30
0
41
1
10
61.6191885565883
20
-3.75944918912546
30
0
41
1
10
61.4430535473802
20
-3.75202403196067
30
0
41
1
10
61.2220814649907
20
-3.73797602866756
30
0
41
1
10
61.1778453736141
20
-3.73492931599282
30
0
41
1
10
61.0892920140559
20
-3.72836086533184
30
0
41
1
10
61.0449596311237
20
-3.72483762112441
30
0
41
1
10
60.9121121348772
20
-3.71357626471666
30
0
41
1
10
60.8236681657214
20
-3.70514244280872
30
0
41
1
10
60.5587543995706
20
-3.67706481591691
30
0
41
1
10
60.3827755911262
20
-3.65460775093018
30
0
41
1
10
60.1193431713474
20
-3.61551938583105
30
0
41
1
10
60.0316123043454
20
-3.60159518874619
30
0
41
1
10
59.8562120381985
20
-3.57202953363057
30
0
41
1
10
59.6808896466754
20
-3.54073967223996
30
0
41
1
10
59.5057678144809
20
-3.50600617975775
30
0
41
1
10
59.3307888631607
20
-3.4695241143049
30
0
41
1
10
59.243379250721
20
-3.45040176748037
30
0
41
1
10
58.981291590416
20
-3.39045239779833
30
0
41
1
10
58.8067443508832
20
-3.34704223479017
30
0
41
1
10
58.4572802074555
20
-3.25398332258266
30
0
41
1
10
58.2824141198714
20
-3.20431067450784
30
0
41
1
10
57.9327053262985
20
-3.09838021521978
30
0
41
1
10
57.7578805077673
20
-3.04208324521446
30
0
41
1
10
57.4075732553404
20
-2.92352184329795
30
0
41
1
10
57.2320046752161
20
-2.8613728340728
30
0
41
1
10
56.9681018508188
20
-2.76375209788173
30
0
41
1
10
56.8800511212763
20
-2.73046699262321
30
0
41
1
10
56.7038104476605
20
-2.66235002605018
30
0
41
1
10
56.6156122674867
20
-2.62752794135764
30
0
41
1
10
56.4389780554737
20
-2.55644750529595
30
0
41
1
10
56.3505066996327
20
-2.52017437012805
30
0
41
1
10
56.1733667580716
20
-2.44639874860852
30
0
41
1
10
56.0848962499368
20
-2.4089944448454
30
0
41
1
10
55.8198010414661
20
-2.29522237553246
30
0
41
1
10
55.6435087199467
20
-2.21727440899838
30
0
41
1
10
55.2919867343626
20
-2.05691376618574
30
0
41
1
10
55.1167079377893
20
-1.9745688796979
30
0
41
1
10
54.7663194248088
20
-1.80684862636122
30
0
41
1
10
54.5912121008816
20
-1.72147857746538
30
0
41
1
10
54.2414201692119
20
-1.54733716616667
30
0
41
1
10
54.0668072129286
20
-1.45843892319644
30
0
41
1
10
53.8048590166112
20
-1.32310560284961
30
0
41
1
10
53.7175281006586
20
-1.27768136887502
30
0
41
1
10
53.5427560625923
20
-1.18635004528184
30
0
41
1
10
53.3678925184884
20
-1.09450406386432
30
0
41
1
10
53.1928970636963
20
-1.00154267960647
30
0
41
1
10
53.0178795929627
20
-0.907941196716905
30
0
41
1
10
52.9303649076033
20
-0.860810796722603
30
0
41
1
10
52.6676874181638
20
-0.718629715612423
30
0
41
1
10
52.4923751336929
20
-0.622815257824328
30
0
41
1
10
52.1406822519918
20
-0.430382531897919
30
0
41
1
10
51.9643647330696
20
-0.333654757335779
30
0
41
1
10
51.699390428527
20
-0.187362482237091
30
0
41
1
10
51.6109771016601
20
-0.138407542279083
30
0
41
1
10
51.4338912392382
20
-0.0402656844681246
30
0
41
1
10
51.3453803286703
20
0.008832880367919
30
0
41
1
10
51.0803011716336
20
0.155618494605932
30
0
41
1
10
50.9039148002777
20
0.252810717341589
30
0
41
1
10
50.5519672965877
20
0.446228849425438
30
0
41
1
10
50.3764992026509
20
0.54262584985787
30
0
41
1
10
50.1137403595441
20
0.686165712264739
30
0
41
1
10
50.0262182238652
20
0.733818499404464
30
0
41
1
10
49.8511924151746
20
0.828540294001243
30
0
41
1
10
49.7636884749827
20
0.875609337445951
30
0
41
1
10
49.5012373825586
20
1.01601012866723
30
0
41
1
10
49.3263749945546
20
1.10858075347767
30
0
41
1
10
48.9769953846988
20
1.29188915679816
30
0
41
1
10
48.8024188691789
20
1.38251609319349
30
0
41
1
10
48.4527147537614
20
1.56037805107914
30
0
41
1
10
48.2776121194122
20
1.64766373268372
30
0
41
1
10
47.9271704321006
20
1.81937985655611
30
0
41
1
10
47.7518883425079
20
1.90389731400435
30
0
41
1
10
47.4005335393064
20
2.06911798396152
30
0
41
1
10
47.2243628933502
20
2.14966890818099
30
0
41
1
10
46.9593470042171
20
2.26736717014981
30
0
41
1
10
46.8708908957802
20
2.30609273716323
30
0
41
1
10
46.7380613189638
20
2.36346136671887
30
0
41
1
10
46.69373800397
20
2.38247228764911
30
0
41
1
10
46.6051916372941
20
2.42016703796568
30
0
41
1
10
46.4724911123863
20
2.47623157666564
30
0
41
1
10
46.340106597075
20
2.53080438358427
30
0
41
1
10
46.1637694491947
20
2.60210688036398
30
0
41
1
10
46.0756780945649
20
2.63701372959846
30
0
41
1
10
45.8116179749297
20
2.73951280487134
30
0
41
1
10
45.635878782257
20
2.80491433089062
30
0
41
1
10
45.2852622648465
20
2.93022812078937
30
0
41
1
10
45.1103531742387
20
2.9900802353043
30
0
41
1
10
44.7605673514948
20
3.10333672099964
30
0
41
1
10
44.5856463080136
20
3.15671331819348
30
0
41
1
10
44.2359699935035
20
3.25724969617107
30
0
41
1
10
44.0613001285441
20
3.3044771804847
30
0
41
1
10
43.7991774797435
20
3.37037168736961
30
0
41
1
10
43.7117747547342
20
3.39150515811801
30
0
41
1
10
43.5368078456506
20
3.43202967803165
30
0
41
1
10
43.4492492561366
20
3.45142640854124
30
0
41
1
10
43.2740054211989
20
3.48850969987771
30
0
41
1
10
43.1863195484462
20
3.50619601062618
30
0
41
1
10
43.0108611536335
20
3.5398762965419
30
0
41
1
10
42.923098241941
20
3.5558755435535
30
0
41
1
10
42.6596236330653
20
3.6012678759208
30
0
41
1
10
42.4837144330202
20
3.62803845793368
30
0
41
1
10
42.2188929777548
20
3.66261809888295
30
0
41
1
10
42.1304730958374
20
3.67322496798667
30
0
41
1
10
41.9533652070836
20
3.69260177012745
30
0
41
1
10
41.8646162624234
20
3.70137590569607
30
0
41
1
10
41.5990975946016
20
3.72484611579293
30
0
41
1
10
41.4227683901993
20
3.73671883704068
30
0
41
1
10
41.070766325061
20
3.75283077262887
30
0
41
1
10
40.895004411872
20
3.75707584676835
30
0
41
1
10
40.7061821320608
20
3.75763075839436
30
0
41
1
10
40.6928468872208
20
3.75764838557478
30
0
41
1
10
40.6795134977858
20
3.75764443847052
30
0
0
SPLINE
5
C7
100
AcDbEntity
8
1
62
256
6
ByLayer
370
18
48
1
60
0
100
AcDbSpline
70
4
71
3
72
96
73
92
40
0
40
0
40
0
40
0
40
0.0299502841408772
40
0.0299502841408772
40
0.0451073109511747
40
0.0451073109511747
40
0.0602643377614717
40
0.0602643377614717
40
0.0754213645717687
40
0.0754213645717687
40
0.0905783913820657
40
0.0905783913820657
40
0.12089244500266
40
0.12089244500266
40
0.128470958407809
40
0.128470958407809
40
0.136049471812958
40
0.151206498623256
40
0.151206498623256
40
0.181520552243853
40
0.181520552243853
40
0.21183460586445
40
0.21183460586445
40
0.226991632674749
40
0.226991632674749
40
0.242148659485047
40
0.257305686295346
40
0.257305686295346
40
0.272462713105644
40
0.272462713105644
40
0.302776766726241
40
0.302776766726241
40
0.333090820346838
40
0.333090820346838
40
0.363404873967435
40
0.363404873967435
40
0.393718927588033
40
0.393718927588033
40
0.408875954398331
40
0.408875954398331
40
0.42403298120863
40
0.42403298120863
40
0.439190008018929
40
0.439190008018929
40
0.454347034829227
40
0.454347034829227
40
0.484661088449826
40
0.484661088449826
40
0.514975142070424
40
0.514975142070424
40
0.545289195691022
40
0.545289195691022
40
0.57560324931162
40
0.57560324931162
40
0.605917302932218
40
0.605917302932218
40
0.621074329742516
40
0.621074329742516
40
0.636231356552815
40
0.636231356552815
40
0.666545410173414
40
0.666545410173414
40
0.674123923578564
40
0.674123923578564
40
0.681702436983714
40
0.681702436983714
40
0.696859463794013
40
0.696859463794013
40
0.727173517414612
40
0.727173517414612
40
0.757487571035211
40
0.757487571035211
40
0.787801624655809
40
0.787801624655809
40
0.802958651466109
40
0.802958651466109
40
0.818115678276409
40
0.818115678276409
40
0.848429731897008
40
0.848429731897008
40
0.878743785517607
40
0.878743785517607
40
0.909057839138206
40
0.909057839138206
40
0.939371892758805
40
0.939371892758805
40
0.954528919569104
40
0.954528919569104
40
0.969685946379403
40
0.969685946379403
40
1
40
1
40
1
40
1
41
1
10
24.9116239298914
20
-2.5512218270309
30
0
41
1
10
24.7389346770084
20
-2.62115191885215
30
0
41
1
10
24.5660460240107
20
-2.68842084659121
30
0
41
1
10
24.3054039290778
20
-2.78580016366666
30
0
41
1
10
24.217786872434
20
-2.81786295823682
30
0
41
1
10
24.0425190535188
20
-2.88070714127986
30
0
41
1
10
23.9548618107854
20
-2.91147970327293
30
0
41
1
10
23.7794205389799
20
-2.97161854897436
30
0
41
1
10
23.6916370989261
20
-3.00098529680653
30
0
41
1
10
23.5158386111934
20
-3.05818806560151
30
0
41
1
10
23.4278138699799
20
-3.0860141302839
30
0
41
1
10
23.1633682622734
20
-3.16717292318668
30
0
41
1
10
22.9865925724708
20
-3.21821095745912
30
0
41
1
10
22.7651601562598
20
-3.27824005968552
30
0
41
1
10
22.7208238450123
20
-3.29005932727202
30
0
41
1
10
22.6322365656993
20
-3.31326179965993
30
0
41
1
10
22.4994699646138
20
-3.34741684459613
30
0
41
1
10
22.3669942306057
20
-3.37958335988685
30
0
41
1
10
22.102263565642
20
-3.44115998683881
30
0
41
1
10
21.9260656507646
20
-3.47854795628362
30
0
41
1
10
21.574478692924
20
-3.54630633106797
30
0
41
1
10
21.3991678105562
20
-3.57670840090836
30
0
41
1
10
21.1364969496534
20
-3.61684512746956
30
0
41
1
10
21.0489796155684
20
-3.62930932595805
30
0
41
1
10
20.8739342945537
20
-3.65238193340588
30
0
41
1
10
20.6988962926196
20
-3.67360924313118
30
0
41
1
10
20.5239211582575
20
-3.69119014709412
30
0
41
1
10
20.3490212695782
20
-3.70695903970668
30
0
41
1
10
20.2616160892587
20
-3.71393829926711
30
0
41
1
10
19.9994271784999
20
-3.7321134145248
30
0
41
1
10
19.8246577253144
20
-3.74053450152476
30
0
41
1
10
19.4744580362715
20
-3.7498960264339
30
0
41
1
10
19.2990844876355
20
-3.75086557420229
30
0
41
1
10
18.9480824544866
20
-3.74532134601787
30
0
41
1
10
18.7724584862201
20
-3.73878269798189
30
0
41
1
10
18.4202387669589
20
-3.71814666214365
30
0
41
1
10
18.2435642467562
20
-3.70408653133748
30
0
41
1
10
17.9778022021026
20
-3.67731447737168
30
0
41
1
10
17.8890248823792
20
-3.66742795442695
30
0
41
1
10
17.7119399412524
20
-3.645803370979
30
0
41
1
10
17.6235588528782
20
-3.6340630059419
30
0
41
1
10
17.4470367425239
20
-3.60877227433741
30
0
41
1
10
17.3588950660545
20
-3.59522196230901
30
0
41
1
10
17.1827402958282
20
-3.56638910447339
30
0
41
1
10
17.0947232835447
20
-3.55111019719212
30
0
41
1
10
16.830883047587
20
-3.50269947795997
30
0
41
1
10
16.6552902239258
20
-3.46698733077753
30
0
41
1
10
16.3048645936794
20
-3.38859006858138
30
0
41
1
10
16.1299766192367
20
-3.34592733384656
30
0
41
1
10
15.780066758087
20
-3.25437032125402
30
0
41
1
10
15.605061513582
20
-3.2054825589473
30
0
41
1
10
15.2552117818439
20
-3.10126687729348
30
0
41
1
10
15.0804311307902
20
-3.04585683689012
30
0
41
1
10
14.7305156918075
20
-2.92904877538712
30
0
41
1
10
14.5552804505421
20
-2.86777537302589
30
0
41
1
10
14.2919681524873
20
-2.7716291473817
30
0
41
1
10
14.2041307278049
20
-2.73886191506867
30
0
41
1
10
14.0283664391765
20
-2.67181974880182
30
0
41
1
10
13.9404405061568
20
-2.63754229554118
30
0
41
1
10
13.6764113831862
20
-2.53257245880042
30
0
41
1
10
13.5000327961389
20
-2.45976915925758
30
0
41
1
10
13.2787173379957
20
-2.36577207830254
30
0
41
1
10
13.2344168145553
20
-2.34681654877437
30
0
41
1
10
13.1457437800098
20
-2.30858777464701
30
0
41
1
10
13.1013559143063
20
-2.28930786620583
30
0
41
1
10
12.9683572125831
20
-2.23109576668895
30
0
41
1
10
12.8798371373006
20
-2.19175448688074
30
0
41
1
10
12.6147540075414
20
-2.0720703310694
30
0
41
1
10
12.4386489678655
20
-1.99009250030773
30
0
41
1
10
12.0869099858611
20
-1.82302236604494
30
0
41
1
10
11.9112224456306
20
-1.73802522647381
30
0
41
1
10
11.5604153617463
20
-1.56480666368753
30
0
41
1
10
11.3853836204175
20
-1.47643243134968
30
0
41
1
10
11.1230398916727
20
-1.34182030535663
30
0
41
1
10
11.0356169719897
20
-1.29662348078671
30
0
41
1
10
10.8607146859377
20
-1.20576610103856
30
0
41
1
10
10.7732397049598
20
-1.16009834770262
30
0
41
1
10
10.5107784486299
20
-1.02232081531128
30
0
41
1
10
10.3357890368539
20
-0.929379585168675
30
0
41
1
10
9.98586349149809
20
-0.741143601802577
30
0
41
1
10
9.81086060590775
20
-0.645963655457621
30
0
41
1
10
9.46000776735974
20
-0.454883535756437
30
0
41
1
10
9.28419724061018
20
-0.358917885171195
30
0
41
1
10
8.93207964517129
20
-0.16560257827453
30
0
41
1
10
8.75581145665743
20
-0.068171695822457
30
0
41
1
10
8.49057482701082
20
0.0781699692088296
30
0
41
1
10
8.40200344107956
20
0.126960537341233
30
0
41
1
10
8.22454812402566
20
0.224467458243709
30
0
41
1
10
8.13581932998653
20
0.273117966199663
30
0
41
1
10
7.86967082288191
20
0.418836538733331
30
0
41
1
10
7.69228287028147
20
0.515661613789661
30
0
41
1
10
7.51508033927647
20
0.61241335096318
30
0
0
SPLINE
5
C8
100
AcDbEntity
8
1
62
256
6
ByLayer
370
18
48
1
60
0
100
AcDbSpline
70
4
71
3
72
150
73
146
40
0
40
0
40
0
40
0
40
0.0312500000000024
40
0.0312500000000024
40
0.0625000000000048
40
0.0625000000000048
40
0.0937500000000072
40
0.0937500000000072
40
0.12500000000001
40
0.12500000000001
40
0.156250000000012
40
0.156250000000012
40
0.187500000000014
40
0.187500000000014
40
0.218750000000017
40
0.218750000000017
40
0.234375000000019
40
0.234375000000019
40
0.25000000000002
40
0.25000000000002
40
0.265625000000022
40
0.265625000000022
40
0.281250000000023
40
0.281250000000023
40
0.289062500000024
40
0.289062500000024
40
0.296875000000024
40
0.296875000000024
40
0.304687500000025
40
0.304687500000025
40
0.308593750000025
40
0.308593750000025
40
0.312500000000026
40
0.312500000000026
40
0.320312500000026
40
0.320312500000026
40
0.328125000000027
40
0.328125000000027
40
0.343750000000027
40
0.343750000000027
40
0.359375000000028
40
0.359375000000028
40
0.375000000000029
40
0.375000000000029
40
0.406250000000029
40
0.406250000000029
40
0.41406250000003
40
0.41406250000003
40
0.421875000000031
40
0.421875000000031
40
0.437500000000032
40
0.437500000000032
40
0.468750000000034
40
0.468750000000034
40
0.500000000000035
40
0.500000000000035
40
0.515625000000036
40
0.515625000000036
40
0.531250000000037
40
0.531250000000037
40
0.546875000000038
40
0.546875000000038
40
0.562500000000038
40
0.562500000000038
40
0.570312500000038
40
0.570312500000038
40
0.578125000000038
40
0.578125000000038
40
0.593750000000037
40
0.593750000000037
40
0.601562500000037
40
0.601562500000037
40
0.609375000000036
40
0.609375000000036
40
0.613281250000036
40
0.613281250000036
40
0.617187500000036
40
0.617187500000036
40
0.625000000000035
40
0.625000000000035
40
0.626953125000034
40
0.626953125000034
40
0.628906250000034
40
0.628906250000034
40
0.632812500000033
40
0.632812500000033
40
0.636718750000032
40
0.636718750000032
40
0.638671875000032
40
0.638671875000032
40
0.640625000000031
40
0.640625000000031
40
0.64453125000003
40
0.64453125000003
40
0.64648437500003
40
0.64648437500003
40
0.64843750000003
40
0.64843750000003
40
0.652343750000029
40
0.652343750000029
40
0.654296875000029
40
0.654296875000029
40
0.656250000000029
40
0.656250000000029
40
0.660156250000028
40
0.660156250000028
40
0.664062500000028
40
0.664062500000028
40
0.667968750000027
40
0.667968750000027
40
0.671875000000027
40
0.671875000000027
40
0.679687500000026
40
0.679687500000026
40
0.687500000000026
40
0.687500000000026
40
0.703125000000024
40
0.703125000000024
40
0.718750000000023
40
0.718750000000023
40
0.726562500000022
40
0.726562500000022
40
0.734375000000022
40
0.75000000000002
40
0.75000000000002
40
0.781250000000018
40
0.781250000000018
40
0.812500000000015
40
0.812500000000015
40
0.820312500000014
40
0.820312500000014
40
0.828125000000013
40
0.843750000000012
40
0.843750000000012
40
0.875000000000009
40
0.875000000000009
40
0.906250000000006
40
0.906250000000006
40
0.937500000000004
40
0.937500000000004
40
0.953125000000003
40
0.953125000000003
40
0.968750000000002
40
0.968750000000002
40
1
40
1
40
1
40
1
41
1
10
14.2048993553891
20
2.7561514191695
30
0
41
1
10
14.0183313141685
20
2.8320134489604
30
0
41
1
10
13.8324743641794
20
2.90400290233993
30
0
41
1
10
13.4617250942821
20
3.03980897390255
30
0
41
1
10
13.2768328431411
20
3.10361942657735
30
0
41
1
10
12.9073020061599
20
3.22246720873304
30
0
41
1
10
12.7226580667923
20
3.27749588638434
30
0
41
1
10
12.3527520501101
20
3.37827146573775
30
0
41
1
10
12.1674971389261
20
3.42402024052942
30
0
41
1
10
11.795358838361
20
3.5059342009375
30
0
41
1
10
11.6084607007898
20
3.54208527452187
30
0
41
1
10
11.2318308730847
20
3.60480502407066
30
0
41
1
10
11.0421105735104
20
3.63138069393301
30
0
41
1
10
10.6587560366547
20
3.67549164264051
30
0
41
1
10
10.4650980127838
20
3.69301730405843
30
0
41
1
10
10.1708404172082
20
3.71328153214191
30
0
41
1
10
10.0720821829015
20
3.71903812136387
30
0
41
1
10
9.87405159327653
20
3.72869897527329
30
0
41
1
10
9.77468433670475
20
3.7326112673332
30
0
41
1
10
9.57515545031512
20
3.73882074768639
30
0
41
1
10
9.47499146267918
20
3.74111729044716
30
0
41
1
10
9.27375930213924
20
3.744327924364
30
0
41
1
10
9.17268278414014
20
3.74524347788801
30
0
41
1
10
9.02042198785315
20
3.74576479895956
30
0
41
1
10
8.96955692663127
20
3.74579687921994
30
0
41
1
10
8.86772218977993
20
3.74559946490592
30
0
41
1
10
8.81674405086389
20
3.74537226971575
30
0
41
1
10
8.71511206251509
20
3.74463444876434
30
0
41
1
10
8.66447301672798
20
3.74412650858173
30
0
41
1
10
8.58942426219221
20
3.74303197457891
30
0
41
1
10
8.56456137929729
20
3.74260996601129
30
0
41
1
10
8.51516258107696
20
3.74162655710211
30
0
41
1
10
8.49062616438735
20
3.74106459380249
30
0
41
1
10
8.41732355246745
20
3.73916115799031
30
0
41
1
10
8.36882469897355
20
3.73759948600312
30
0
41
1
10
8.2714205585695
20
3.73406143649842
30
0
41
1
10
8.2225132164051
20
3.73209274141152
30
0
41
1
10
8.07460283887764
20
3.72585948199284
30
0
41
1
10
7.97445555242405
20
3.72129082525012
30
0
41
1
10
7.77213939477349
20
3.71171605881426
30
0
41
1
10
7.66996544656757
20
3.70669215290746
30
0
41
1
10
7.46343724898952
20
3.6967267870256
30
0
41
1
10
7.35906850337994
20
3.69179640014488
30
0
41
1
10
7.04303739700057
20
3.67760251849339
30
0
41
1
10
6.82855815035399
20
3.66890811172101
30
0
41
1
10
6.55599363402652
20
3.660200200264
30
0
41
1
10
6.50132544587842
20
3.65856575234773
30
0
41
1
10
6.3921038310246
20
3.6555298456347
30
0
41
1
10
6.33748875484676
20
3.65412616332799
30
0
41
1
10
6.17363155171296
20
3.65025820032292
30
0
41
1
10
6.06437753512546
20
3.64813585278674
30
0
41
1
10
5.73657144823281
20
3.6431638865389
30
0
41
1
10
5.51797497866497
20
3.64173968399427
30
0
41
1
10
5.08068038161449
20
3.6423484812035
30
0
41
1
10
4.86198176948301
20
3.64440364049941
30
0
41
1
10
4.53383468288979
20
3.6505561999262
30
0
41
1
10
4.42443611856976
20
3.65310113616982
30
0
41
1
10
4.20560737115662
20
3.65902916708703
30
0
41
1
10
4.09651664600113
20
3.66239801953361
30
0
41
1
10
3.87939311442511
20
3.66981446639468
30
0
41
1
10
3.77130565973795
20
3.67386844956911
30
0
41
1
10
3.55621675759673
20
3.68255138574827
30
0
41
1
10
3.44921120712144
20
3.68717940768104
30
0
41
1
10
3.28968922113458
20
3.69442931989954
30
0
41
1
10
3.236675689321
20
3.69689745389428
30
0
41
1
10
3.13156416756982
20
3.70188255466766
30
0
41
1
10
3.07940275389893
20
3.70440243987127
30
0
41
1
10
2.92427327586648
20
3.71198418352486
30
0
41
1
10
2.82262339418125
20
3.71707979518726
30
0
41
1
10
2.67396940287776
20
3.72440366235475
30
0
41
1
10
2.6250621859015
20
3.7267897383804
30
0
41
1
10
2.52889190321574
20
3.73133752028861
30
0
41
1
10
2.48162894214741
20
3.73350137968797
30
0
41
1
10
2.41234630098921
20
3.73643245035981
30
0
41
1
10
2.38952131659843
20
3.73735612527383
30
0
41
1
10
2.34449556949801
20
3.73905873483059
30
0
41
1
10
2.32232068823936
20
3.73983607914698
30
0
41
1
10
2.25781819550178
20
3.74185305669298
30
0
41
1
10
2.21717999975164
20
3.74279920952316
30
0
41
1
10
2.17062232045569
20
3.74317458303702
30
0
41
1
10
2.16152582894912
20
3.74320847194602
30
0
41
1
10
2.14380645831534
20
3.74318219384759
30
0
41
1
10
2.13516604781799
20
3.74312177033144
30
0
41
1
10
2.11015186546445
20
3.74278046013757
30
0
41
1
10
2.09477860000038
20
3.7423422333616
30
0
41
1
10
2.06691098557363
20
3.74095803489172
30
0
41
1
10
2.05441014129664
20
3.74001257829974
30
0
41
1
10
2.03815128263102
20
3.73813130364607
30
0
41
1
10
2.03313757301328
20
3.7374246955508
30
0
41
1
10
2.02408704163176
20
3.7358482201451
30
0
41
1
10
2.02007824183542
20
3.73498387906932
30
0
41
1
10
2.00965328275402
20
3.73215338876315
30
0
41
1
10
2.00484780832448
20
3.72994978888474
30
0
41
1
10
2.00097171171166
20
3.72613096471201
30
0
41
1
10
2.00023303191702
20
3.72477243877972
30
0
41
1
10
1.99985209058846
20
3.72187795178812
30
0
41
1
10
2.00021351910658
20
3.72034893351562
30
0
41
1
10
2.00281288480014
20
3.71556941631431
30
0
41
1
10
2.00654571772296
20
3.71210763389479
30
0
41
1
10
2.01475279106933
20
3.70652224798417
30
0
41
1
10
2.01792675889004
20
3.70459499632435
30
0
41
1
10
2.02513282139267
20
3.70061336523449
30
0
41
1
10
2.02917645752134
20
3.69855476987209
30
0
41
1
10
2.04242393487701
20
3.69227561274934
30
0
41
1
10
2.05279120055502
20
3.68793112589506
30
0
41
1
10
2.07618177464644
20
3.67897775201737
30
0
41
1
10
2.08920690198863
20
3.67436946644182
30
0
41
1
10
2.11716528162137
20
3.66488526265655
30
0
41
1
10
2.13208328204632
20
3.66000538457649
30
0
41
1
10
2.16293528935728
20
3.64993696487076
30
0
41
1
10
2.17879849788497
20
3.64476925195817
30
0
41
1
10
2.22707009671288
20
3.62880067560354
30
0
41
1
10
2.26013940302974
20
3.61753273921565
30
0
41
1
10
2.3267520129782
20
3.59360406845363
30
0
41
1
10
2.36032175090219
20
3.58094475922292
30
0
41
1
10
2.46120968379597
20
3.54079815064247
30
0
41
1
10
2.52866960337386
20
3.51112500291532
30
0
41
1
10
2.66450145917167
20
3.44619411303313
30
0
41
1
10
2.73296329725037
20
3.41095355618501
30
0
41
1
10
2.83757491283467
20
3.35441395613646
30
0
41
1
10
2.87281065516723
20
3.33492777291116
30
0
41
1
10
2.94372857021989
20
3.29496866465621
30
0
41
1
10
3.05077496638037
20
3.23355161687101
30
0
41
1
10
3.16005100745951
20
3.16806989029004
30
0
41
1
10
3.38191604661577
20
3.03250301217457
30
0
41
1
10
3.53422480522943
20
2.9359817078988
30
0
41
1
10
3.84956192689219
20
2.73476765240869
30
0
41
1
10
4.01266812640512
20
2.63012838013645
30
0
41
1
10
4.22401162260888
20
2.49640707360405
30
0
41
1
10
4.26667998839076
20
2.46949311535141
30
0
41
1
10
4.35230793196502
20
2.41567923242164
30
0
41
1
10
4.48133824482906
20
2.33488170798839
30
0
41
1
10
4.61210695685213
20
2.25397465258987
30
0
41
1
10
4.87584885360115
20
2.09222034552812
30
0
41
1
10
5.05461182599413
20
1.98447498494718
30
0
41
1
10
5.41733538521711
20
1.76970872084365
30
0
41
1
10
5.60129481401646
20
1.66267989454352
30
0
41
1
10
5.97385134055156
20
1.44957615702285
30
0
41
1
10
6.16245073375873
20
1.34350100708372
30
0
41
1
10
6.44846141718818
20
1.18512255632265
30
0
41
1
10
6.54431716796452
20
1.13245037715524
30
0
41
1
10
6.73700909856009
20
1.02733400999011
30
0
41
1
10
6.8336631049429
20
0.97498907471288
30
0
41
1
10
7.1243901747269
20
0.818595081542924
30
0
41
1
10
7.31927149369085
20
0.715164017653223
30
0
41
1
10
7.51507478389087
20
0.612411253016916
30
0
0
SPLINE
5
C9
100
AcDbEntity
8
1
62
256
6
ByLayer
370
18
48
1
60
0
100
AcDbSpline
70
4
71
3
72
96
73
92
40
0
40
0
40
0
40
0
40
0.0291375296622936
40
0.0291375296622936
40
0.0582750593245873
40
0.0582750593245873
40
0.0874125889868809
40
0.0874125889868809
40
0.116550118649175
40
0.116550118649175
40
0.131118883480322
40
0.131118883480322
40
0.145687648311469
40
0.145687648311469
40
0.174825177973764
40
0.174825177973764
40
0.203962707636058
40
0.203962707636058
40
0.218531472467205
40
0.218531472467205
40
0.233100237298352
40
0.233100237298352
40
0.247669002129499
40
0.247669002129499
40
0.262237766960646
40
0.262237766960646
40
0.291375296622939
40
0.291375296622939
40
0.320512826285233
40
0.320512826285233
40
0.349650355947527
40
0.349650355947527
40
0.364219120778674
40
0.364219120778674
40
0.378787885609822
40
0.378787885609822
40
0.407925415272117
40
0.407925415272117
40
0.437062944934413
40
0.437062944934413
40
0.466200474596708
40
0.466200474596708
40
0.480769239427857
40
0.480769239427857
40
0.495338004259005
40
0.495338004259005
40
0.524475533921302
40
0.524475533921302
40
0.539044298752449
40
0.539044298752449
40
0.553613063583597
40
0.553613063583597
40
0.582750593245889
40
0.582750593245889
40
0.597319358077037
40
0.597319358077037
40
0.611888122908184
40
0.611888122908184
40
0.641025652570481
40
0.641025652570481
40
0.670163182232777
40
0.670163182232777
40
0.699300711895074
40
0.699300711895074
40
0.713869476726223
40
0.713869476726223
40
0.728438241557371
40
0.728438241557371
40
0.757575771219668
40
0.757575771219668
40
0.786713300881964
40
0.786713300881964
40
0.815850830544261
40
0.815850830544261
40
0.83041959537541
40
0.83041959537541
40
0.844988360206558
40
0.844988360206558
40
0.874125889868853
40
0.874125889868853
40
0.903263419531148
40
0.903263419531148
40
0.932400949193442
40
0.932400949193442
40
0.94696971402459
40
0.94696971402459
40
0.961538478855737
40
0.961538478855737
40
0.99067600851803
40
0.99067600851803
40
1
40
1
40
1
40
1
41
1
10
14.2049094198349
20
2.75615406206222
30
0
41
1
10
14.364434018073
20
2.69620011906471
30
0
41
1
10
14.523895743876
20
2.6344712003137
30
0
41
1
10
14.8423922912304
20
2.50717788805156
30
0
41
1
10
15.001425159617
20
2.44161021882252
30
0
41
1
10
15.3187702881349
20
2.30622669822895
30
0
41
1
10
15.4771111083221
20
2.23643989285955
30
0
41
1
10
15.7938942314216
20
2.09381400593659
30
0
41
1
10
15.952390938089
20
2.02106844973946
30
0
41
1
10
16.1900853769901
20
1.90950847403144
30
0
41
1
10
16.2693018174776
20
1.87190349742406
30
0
41
1
10
16.4276811585207
20
1.79581394188594
30
0
41
1
10
16.5068351657561
20
1.75731447621723
30
0
41
1
10
16.7443219450293
20
1.64065474268847
30
0
41
1
10
16.9027115930374
20
1.56138225232675
30
0
41
1
10
17.2202338958386
20
1.40088013729297
30
0
41
1
10
17.3793147302765
20
1.31957362684761
30
0
41
1
10
17.6181218570352
20
1.19549806700479
30
0
41
1
10
17.6977534954429
20
1.15378213194441
30
0
41
1
10
17.8571142526146
20
1.0696933131436
30
0
41
1
10
17.9368745757359
20
1.02732397870165
30
0
41
1
10
18.0965181340858
20
0.94219022638444
30
0
41
1
10
18.1762424699273
20
0.899506466867678
30
0
41
1
10
18.3355677264081
20
0.814038782617303
30
0
41
1
10
18.4151757982995
20
0.771268287557376
30
0
41
1
10
18.653758368884
20
0.642696510322367
30
0
41
1
10
18.8124604196525
20
0.55657636135868
30
0
41
1
10
19.1289669887156
20
0.383164272630722
30
0
41
1
10
19.2868350981047
20
0.295993404643724
30
0
41
1
10
19.6025166928615
20
0.122056801906922
30
0
41
1
10
19.7603818283083
20
0.0353855537000811
30
0
41
1
10
19.9969519073934
20
-0.0946724793078886
30
0
41
1
10
20.0757691513833
20
-0.138036294342555
30
0
41
1
10
20.2333019462517
20
-0.224827682548465
30
0
41
1
10
20.3120125522373
20
-0.268264299358748
30
0
41
1
10
20.5481257869932
20
-0.398420807163347
30
0
41
1
10
20.7055354618203
20
-0.484939680126899
30
0
41
1
10
21.0208966736316
20
-0.656484290079987
30
0
41
1
10
21.1787763811145
20
-0.741643413759988
30
0
41
1
10
21.4945762145371
20
-0.911385973263577
30
0
41
1
10
21.6524546826714
20
-0.996043486634733
30
0
41
1
10
21.8897691811941
20
-1.12174073275494
30
0
41
1
10
21.9689577246427
20
-1.16342352150428
30
0
41
1
10
22.1275720913034
20
-1.24623034059314
30
0
41
1
10
22.2070016492307
20
-1.28734774427647
30
0
41
1
10
22.4455667304054
20
-1.41000567537805
30
0
41
1
10
22.6049479457918
20
-1.49090758767727
30
0
41
1
10
22.8444288378032
20
-1.61111967506827
30
0
41
1
10
22.924163232384
20
-1.65088423424478
30
0
41
1
10
23.0833997304392
20
-1.72955147296668
30
0
41
1
10
23.1629261777467
20
-1.76846629307082
30
0
41
1
10
23.4013366245388
20
-1.88379448626944
30
0
41
1
10
23.560108915723
20
-1.95870584783359
30
0
41
1
10
23.7977287348459
20
-2.068644711383
30
0
41
1
10
23.8768469407034
20
-2.10488219320683
30
0
41
1
10
24.0348839161707
20
-2.17657114082533
30
0
41
1
10
24.1138041374218
20
-2.21201937941831
30
0
41
1
10
24.3504248707457
20
-2.31693730774617
30
0
41
1
10
24.5080135407047
20
-2.38493595055823
30
0
41
1
10
24.8233603414063
20
-2.51641308383947
30
0
41
1
10
24.9810305715507
20
-2.58002740409677
30
0
41
1
10
25.2960341270184
20
-2.70344593992863
30
0
41
1
10
25.4533374788015
20
-2.76327342795727
30
0
41
1
10
25.6895453965901
20
-2.84946797893923
30
0
41
1
10
25.7683217606658
20
-2.87761231280135
30
0
41
1
10
25.9260232431264
20
-2.93265171673104
30
0
41
1
10
26.0049456226587
20
-2.9595510085164
30
0
41
1
10
26.241834245773
20
-3.03849916535776
30
0
41
1
10
26.3998901421821
20
-3.08883597470563
30
0
41
1
10
26.7161716904897
20
-3.18492315216139
30
0
41
1
10
26.8744826080094
20
-3.23057267162406
30
0
41
1
10
27.1921241242906
20
-3.31638230427228
30
0
41
1
10
27.3514834247532
20
-3.35653334542249
30
0
41
1
10
27.5910278339979
20
-3.41286809526821
30
0
41
1
10
27.670930679489
20
-3.43098412408568
30
0
41
1
10
27.8302972141034
20
-3.46577846861444
30
0
41
1
10
27.9098389427621
20
-3.48246827469308
30
0
41
1
10
28.1481934023165
20
-3.53031007569899
30
0
41
1
10
28.3067681580729
20
-3.55921010448964
30
0
41
1
10
28.6236827322776
20
-3.61092041673245
30
0
41
1
10
28.7819272527813
20
-3.63379984350544
30
0
41
1
10
29.0976903217387
20
-3.67376928644467
30
0
41
1
10
29.2551951009794
20
-3.6908419529266
30
0
41
1
10
29.491458212747
20
-3.71187957421498
30
0
41
1
10
29.5702113865266
20
-3.71813365260832
30
0
41
1
10
29.7277756088871
20
-3.72912455930421
30
0
41
1
10
29.8065788750212
20
-3.73386450204924
30
0
41
1
10
30.042958676115
20
-3.74584692321085
30
0
41
1
10
30.2004703710846
20
-3.75085848367516
30
0
41
1
10
30.4082708195534
20
-3.75348731362806
30
0
41
1
10
30.4586470232664
20
-3.75381349367751
30
0
41
1
10
30.509034235959
20
-3.75382902869683
30
0
0
SPLINE
5
CA
100
AcDbEntity
8
1
62
256
6
ByLayer
370
18
48
1
60
0
100
AcDbSpline
70
4
71
3
72
160
73
156
40
0
40
0
40
0
40
0
40
0.0079175217590973
40
0.0079175217590973
40
0.016714762877031
40
0.016714762877031
40
0.0255120039949647
40
0.0255120039949647
40
0.0343092451128984
40
0.0343092451128984
40
0.0431064862308321
40
0.0431064862308321
40
0.0607009684666992
40
0.0607009684666992
40
0.0782954507025661
40
0.0782954507025661
40
0.0958899329384332
40
0.0958899329384332
40
0.104687174056367
40
0.104687174056367
40
0.113484415174302
40
0.113484415174302
40
0.131078897410169
40
0.131078897410169
40
0.148673379646036
40
0.148673379646036
40
0.166267861881903
40
0.166267861881903
40
0.175065102999837
40
0.175065102999837
40
0.18386234411777
40
0.18386234411777
40
0.192659585235704
40
0.192659585235704
40
0.201456826353638
40
0.201456826353638
40
0.219051308589505
40
0.219051308589505
40
0.236645790825372
40
0.236645790825372
40
0.245443031943305
40
0.245443031943305
40
0.254240273061238
40
0.254240273061238
40
0.271834755297104
40
0.271834755297104
40
0.28942923753297
40
0.28942923753297
40
0.307023719768836
40
0.307023719768836
40
0.315820960886768
40
0.315820960886768
40
0.324618202004701
40
0.324618202004701
40
0.342212684240567
40
0.342212684240567
40
0.359807166476433
40
0.359807166476433
40
0.368604407594366
40
0.368604407594366
40
0.377401648712299
40
0.377401648712299
40
0.386198889830232
40
0.386198889830232
40
0.394996130948165
40
0.394996130948165
40
0.412590613184032
40
0.412590613184032
40
0.430185095419899
40
0.430185095419899
40
0.447779577655766
40
0.447779577655766
40
0.456576818773699
40
0.456576818773699
40
0.465374059891633
40
0.465374059891633
40
0.482968542127501
40
0.482968542127501
40
0.50056302436337
40
0.50056302436337
40
0.518157506599238
40
0.518157506599238
40
0.526954747717173
40
0.526954747717173
40
0.535751988835107
40
0.535751988835107
40
0.544549229953042
40
0.544549229953042
40
0.553346471070977
40
0.553346471070977
40
0.570940953306847
40
0.570940953306847
40
0.588535435542718
40
0.588535435542718
40
0.606129917778589
40
0.606129917778589
40
0.614927158896524
40
0.614927158896524
40
0.62372440001446
40
0.62372440001446
40
0.641318882250329
40
0.641318882250329
40
0.658913364486198
40
0.658913364486198
40
0.676507846722067
40
0.676507846722067
40
0.685305087840003
40
0.685305087840003
40
0.694102328957938
40
0.694102328957938
40
0.71169681119381
40
0.71169681119381
40
0.729291293429682
40
0.729291293429682
40
0.746885775665554
40
0.746885775665554
40
0.755683016783489
40
0.755683016783489
40
0.764480257901425
40
0.764480257901425
40
0.782074740137296
40
0.782074740137296
40
0.799669222373166
40
0.799669222373166
40
0.817263704609037
40
0.817263704609037
40
0.826060945726972
40
0.826060945726972
40
0.834858186844908
40
0.834858186844908
40
0.852452669080778
40
0.852452669080778
40
0.870047151316649
40
0.870047151316649
40
0.88764163355252
40
0.88764163355252
40
0.896438874670454
40
0.896438874670454
40
0.905236115788389
40
0.905236115788389
40
0.914033356906323
40
0.914033356906323
40
0.922830598024258
40
0.922830598024258
40
0.940425080260126
40
0.940425080260126
40
0.958019562495995
40
0.958019562495995
40
0.966816803613929
40
0.966816803613929
40
0.975614044731863
40
0.975614044731863
40
0.993208526967733
40
0.993208526967733
40
1
40
1
40
1
40
1
41
1
10
46.2772220418869
20
2.55625226419428
30
0
41
1
10
46.3487404479317
20
2.58517049144413
30
0
41
1
10
46.4203234228321
20
2.61370628328621
30
0
41
1
10
46.5715462544275
20
2.67318331810677
30
0
41
1
10
46.6511938781561
20
2.70404305566248
30
0
41
1
10
46.8106662444879
20
2.76477533819426
30
0
41
1
10
46.8904222734243
20
2.79460844393972
30
0
41
1
10
47.0496410615998
20
2.85292986521421
30
0
41
1
10
47.1291644474011
20
2.88144551668896
30
0
41
1
10
47.2881115780385
20
2.93711902014235
30
0
41
1
10
47.3675368472227
20
2.96427643187266
30
0
41
1
10
47.605577254665
20
3.0438455633552
30
0
41
1
10
47.7639272738892
20
3.09439116661491
30
0
41
1
10
48.0798098517649
20
3.1906104529069
30
0
41
1
10
48.237420725169
20
3.23618692746618
30
0
41
1
10
48.552666160426
20
3.32167177388945
30
0
41
1
10
48.7103406081896
20
3.36156540191803
30
0
41
1
10
48.9466330210536
20
3.41742903705327
30
0
41
1
10
49.0253622743593
20
3.43538376455109
30
0
41
1
10
49.1827282990488
20
3.46996712184517
30
0
41
1
10
49.261366135486
20
3.48659373112727
30
0
41
1
10
49.4972992794731
20
3.53435750287869
30
0
41
1
10
49.6546417697873
20
3.56335698120017
30
0
41
1
10
49.9699241761963
20
3.61542548110097
30
0
41
1
10
50.1277769929291
20
3.63855914091448
30
0
41
1
10
50.443575632324
20
3.67912948045441
30
0
41
1
10
50.6014911851217
20
3.6965577423758
30
0
41
1
10
50.8389413231922
20
3.71813890786069
30
0
41
1
10
50.9181858795985
20
3.72457531184483
30
0
41
1
10
51.0769320767029
20
3.7359177211504
30
0
41
1
10
51.1564308464795
20
3.74082582415838
30
0
41
1
10
51.3156183283627
20
3.74912630289055
30
0
41
1
10
51.3953043775933
20
3.75251883428024
30
0
41
1
10
51.5548334743076
20
3.75777417447298
30
0
41
1
10
51.6346905918968
20
3.75963554768086
30
0
41
1
10
51.8736186233539
20
3.76287864209675
30
0
41
1
10
52.0323953897781
20
3.76191812488088
30
0
41
1
10
52.3496144779313
20
3.75388808310217
30
0
41
1
10
52.508083728842
20
3.74684481894406
30
0
41
1
10
52.7452691598229
20
3.73176315623189
30
0
41
1
10
52.8242473541023
20
3.72598099325461
30
0
41
1
10
52.98201948226
20
3.7128960716656
30
0
41
1
10
53.0608195962453
20
3.7055938107587
30
0
41
1
10
53.2971153930598
20
3.68145350438718
30
0
41
1
10
53.4545386128495
20
3.66239137652292
30
0
41
1
10
53.7695878574247
20
3.61860110428336
30
0
41
1
10
53.9271185754025
20
3.59384307497462
30
0
41
1
10
54.2418853344528
20
3.53840703410819
30
0
41
1
10
54.3991045212144
20
3.50769739020157
30
0
41
1
10
54.6352573894577
20
3.45748260145419
30
0
41
1
10
54.7140266617199
20
3.44005351890965
30
0
41
1
10
54.8717309963761
20
3.40386909059612
30
0
41
1
10
54.9506590021619
20
3.38510957842559
30
0
41
1
10
55.1875770759232
20
3.32675566714641
30
0
41
1
10
55.3456664438196
20
3.28505783815754
30
0
41
1
10
55.6621052894278
20
3.19591058405805
30
0
41
1
10
55.820545518056
20
3.14853354528228
30
0
41
1
10
56.0590271187044
20
3.07373854754439
30
0
41
1
10
56.1386616429252
20
3.04819295273396
30
0
41
1
10
56.2981589045315
20
2.99581315824486
30
0
41
1
10
56.3780863082832
20
2.96895011261435
30
0
41
1
10
56.537593822692
20
2.91404802939132
30
0
41
1
10
56.6172125495547
20
2.88599700924837
30
0
41
1
10
56.7761726872621
20
2.82868485954214
30
0
41
1
10
56.8555225027886
20
2.79943361169325
30
0
41
1
10
57.0933363059121
20
2.71009675615036
30
0
41
1
10
57.2516012409327
20
2.64847532734686
30
0
41
1
10
57.5679405870485
20
2.52167569105185
30
0
41
1
10
57.725914554536
20
2.45636753098762
30
0
41
1
10
58.0411905086065
20
2.32154104323953
30
0
41
1
10
58.1984960201235
20
2.25201582715968
30
0
41
1
10
58.4345228032126
20
2.14539762508733
30
0
41
1
10
58.5132084157249
20
2.10946924256353
30
0
41
1
10
58.6706475629968
20
2.03691535095388
30
0
41
1
10
58.7493917167706
20
2.00027601346457
30
0
41
1
10
58.9856049947263
20
1.88912965716918
30
0
41
1
10
59.1430180724185
20
1.81333598099715
30
0
41
1
10
59.4577521789667
20
1.65835611042274
30
0
41
1
10
59.6151672004385
20
1.57931726128265
30
0
41
1
10
59.9307330952838
20
1.41922216608853
30
0
41
1
10
60.0888784343709
20
1.33816882945067
30
0
41
1
10
60.3263245231502
20
1.2145144282394
30
0
41
1
10
60.4055134244615
20
1.17295283159831
30
0
41
1
10
60.5639753498399
20
1.0891371008145
30
0
41
1
10
60.6432576416586
20
1.04689920446643
30
0
41
1
10
60.8020278556709
20
0.961944593525544
30
0
41
1
10
60.8815162495844
20
0.919228945516892
30
0
41
1
10
61.0407692958275
20
0.833450123912257
30
0
41
1
10
61.1206106967831
20
0.790369234181185
30
0
41
1
10
61.3600378686257
20
0.660867390922419
30
0
41
1
10
61.5192519578687
20
0.574227800050068
30
0
41
1
10
61.8366154288483
20
0.399843487823489
30
0
41
1
10
61.9947888790991
20
0.312147830407781
30
0
41
1
10
62.310874830758
20
0.137168011975291
30
0
41
1
10
62.4688470665162
20
0.0499929054421955
30
0
41
1
10
62.7055219839707
20
-0.0806418075537181
30
0
41
1
10
62.7843578305998
20
-0.124181040686466
30
0
41
1
10
62.9418950285284
20
-0.211289932051017
30
0
41
1
10
63.0205872226957
20
-0.254876387230723
30
0
41
1
10
63.256549293441
20
-0.385518051704849
30
0
41
1
10
63.4137391921726
20
-0.472390945080463
30
0
41
1
10
63.7284949591052
20
-0.644581066729245
30
0
41
1
10
63.886028754162
20
-0.729959886209741
30
0
41
1
10
64.201003146349
20
-0.90001889998419
30
0
41
1
10
64.3583928723102
20
-0.984787847114603
30
0
41
1
10
64.5947797585876
20
-1.11073451069262
30
0
41
1
10
64.6736331475964
20
-1.15250267814218
30
0
41
1
10
64.8315255520438
20
-1.23548653469501
30
0
41
1
10
64.9105741391319
20
-1.27668538649766
30
0
41
1
10
65.1479711671903
20
-1.39950287923983
30
0
41
1
10
65.306531584637
20
-1.48041288760314
30
0
41
1
10
65.6240107062565
20
-1.6406861304726
30
0
41
1
10
65.782974676937
20
-1.71997635437188
30
0
41
1
10
66.1020658625615
20
-1.87555180296474
30
0
41
1
10
66.2613479022037
20
-1.95131108526931
30
0
41
1
10
66.499671566393
20
-2.06234018847655
30
0
41
1
10
66.5790074136855
20
-2.09892208893632
30
0
41
1
10
66.7374457526616
20
-2.17126551312802
30
0
41
1
10
66.8165402105475
20
-2.2070386435031
30
0
41
1
10
67.0535855284089
20
-2.31294935915153
30
0
41
1
10
67.2113268564345
20
-2.381630561664
30
0
41
1
10
67.526826863939
20
-2.51436007531737
30
0
41
1
10
67.6845299471801
20
-2.57850280609844
30
0
41
1
10
67.9994619515527
20
-2.70288350301414
30
0
41
1
10
68.1566433228577
20
-2.76316753279806
30
0
41
1
10
68.392476379399
20
-2.85008879999265
30
0
41
1
10
68.4711013250319
20
-2.87847537402789
30
0
41
1
10
68.6284482082227
20
-2.93399868981274
30
0
41
1
10
68.7071780019639
20
-2.96112717705353
30
0
41
1
10
68.9434590429971
20
-3.04071224321632
30
0
41
1
10
69.1010700359333
20
-3.09140822273156
30
0
41
1
10
69.4162626366672
20
-3.18823070606553
30
0
41
1
10
69.5739012087286
20
-3.23428327163745
30
0
41
1
10
69.8899885806141
20
-3.3209263894517
30
0
41
1
10
70.048490709396
20
-3.36148496163057
30
0
41
1
10
70.2866874566078
20
-3.41838461250629
30
0
41
1
10
70.3661574374324
20
-3.43669541917592
30
0
41
1
10
70.5252192366445
20
-3.4720045401277
30
0
41
1
10
70.6048049456068
20
-3.48900652246328
30
0
41
1
10
70.7641847617252
20
-3.52161323863061
30
0
41
1
10
70.8439067675406
20
-3.53719921338236
30
0
41
1
10
71.0031028884449
20
-3.56681329586544
30
0
41
1
10
71.0826364898763
20
-3.58085325809873
30
0
41
1
10
71.3211245595205
20
-3.62066015559304
30
0
41
1
10
71.4799124346109
20
-3.64415809589573
30
0
41
1
10
71.796721327497
20
-3.68530116632715
30
0
41
1
10
71.9546992925447
20
-3.70294139364424
30
0
41
1
10
72.1915609608924
20
-3.72480104570505
30
0
41
1
10
72.2704981706005
20
-3.73132294695662
30
0
41
1
10
72.4284107693703
20
-3.74283293303441
30
0
41
1
10
72.5073898137725
20
-3.7478215559143
30
0
41
1
10
72.7443025729812
20
-3.76052499385031
30
0
41
1
10
72.9021822403076
20
-3.76598609817765
30
0
41
1
10
73.120807045114
20
-3.76934773658849
30
0
41
1
10
73.181683929041
20
-3.76982837064711
30
0
41
1
10
73.2425709789387
20
-3.76985367478358
30
0
0
SPLINE
5
CB
100
AcDbEntity
8
1
62
256
6
ByLayer
370
18
48
1
60
0
100
AcDbSpline
70
4
71
3
72
17
73
13
40
0
40
0
40
0
40
0
40
0.0596690185718097
40
0.144601819058267
40
0.21699283436695
40
0.275681686602323
40
0.323637706207283
40
0.367399869675933
40
0.434109319944628
40
0.573760059490668
40
0.774233835193236
40
1
40
1
40
1
40
1
41
1
10
72.8323149028453
20
0.0023574579988122
30
0
41
1
10
72.8358652093725
20
0.0163394285603999
30
0
41
1
10
72.8273733884778
20
0.0579486447864497
30
0
41
1
10
72.7441939822583
20
0.123722331613948
30
0
41
1
10
72.6307622863223
20
0.187427479601041
30
0
41
1
10
72.5040808762707
20
0.24674386489545
30
0
41
1
10
72.3694778441153
20
0.307206125497316
30
0
41
1
10
72.2064658988547
20
0.37880729435804
30
0
41
1
10
71.9619284305761
20
0.489875504711563
30
0
41
1
10
71.5739558105155
20
0.673489117705174
30
0
41
1
10
71.0390954533355
20
0.934241731152383
30
0
41
1
10
70.6360503113093
20
1.14113131823618
30
0
41
1
10
70.4229419591231
20
1.25316854196407
30
0
0
SPLINE
5
CC
100
AcDbEntity
8
1
62
256
6
ByLayer
370
18
48
1
60
0
100
AcDbSpline
70
4
71
3
72
16
73
12
40
0
40
0
40
0
40
0
40
0.0253457365009122
40
0.0558601699980784
40
0.0883960315573788
40
0.164573451463507
40
0.259961793795742
40
0.375999956938404
40
0.564561573700872
40
0.793470379417126
40
1
40
1
40
1
40
1
41
1
10
29.9528228379289
20
0.072584792840189
30
0
41
1
10
29.9546661018677
20
0.0781714381289191
30
0
41
1
10
29.9536909949396
20
0.0917501384274715
30
0
41
1
10
29.9331329852492
20
0.117057843013129
30
0
41
1
10
29.872311662139
20
0.161626550151084
30
0
41
1
10
29.7358169700379
20
0.233854924738694
30
0
41
1
10
29.5292559432551
20
0.336853137460991
30
0
41
1
10
29.2211406964487
20
0.485937241934693
30
0
41
1
10
28.7927797438157
20
0.693909175889928
30
0
41
1
10
28.2749986929394
20
0.946925896096872
30
0
41
1
10
27.9096255710034
20
1.1352779365331
30
0
41
1
10
27.7347842646053
20
1.22690378314897
30
0
0
SPLINE
5
CD
100
AcDbEntity
8
1
62
256
6
ByLayer
370
18
48
1
60
0
100
AcDbSpline
70
4
71
3
72
17
73
13
40
0
40
0
40
0
40
0
40
0.0560063069559242
40
0.123378911730202
40
0.184225612944334
40
0.241907808582153
40
0.301471100011285
40
0.377021292677143
40
0.471343965645
40
0.627214521718031
40
0.818453160678159
40
1
40
1
40
1
40
1
41
1
10
52.1730962831308
20
-0.22926453024769
30
0
41
1
10
52.1753114698577
20
-0.223195326547142
30
0
41
1
10
52.1401402345818
20
-0.188610863086779
30
0
41
1
10
52.0534268580596
20
-0.135400736296901
30
0
41
1
10
51.9094230150116
20
-0.0738154550229808
30
0
41
1
10
51.7306337464206
20
-0.0023122801787565
30
0
41
1
10
51.5074752308226
20
0.0889828763214666
30
0
41
1
10
51.2450258265979
20
0.199929044731931
30
0
41
1
10
50.8697368234419
20
0.364549616005093
30
0
41
1
10
50.3600798875293
20
0.599731954946407
30
0
41
1
10
49.7464223340194
20
0.895170670806721
30
0
41
1
10
49.3142337478416
20
1.11674759011012
30
0
41
1
10
49.1036409117769
20
1.22757170250841
30
0
0
LINE
5
7D
100
AcDbEntity
8
4
62
256
6
ByLayer
370
18
48
0.05
60
0
100
AcDbLine
10
-5
20
0
30
0
11
82
21
0
31
0
39
0
210
0
220
0
230
1
0
LINE
5
7F
100
AcDbEntity
8
81
62
256
6
ByLayer
370
18
48
1
60
0
100
AcDbLine
10
77
20
0
30
0
11
82
21
0
31
0
39
0
210
0
220
0
230
1
0
LINE
5
80
100
AcDbEntity
8
SK4
62
256
6
ByLayer
370
18
48
0.05
60
0
100
AcDbLine
10
-45
20
0
30
0
11
82
21
0
31
0
39
0
210
0
220
0
230
1
0
LINE
5
82
100
AcDbEntity
8
80
62
256
6
ByLayer
370
18
48
1
60
0
100
AcDbLine
10
0
20
0
30
0
11
-5
21
0
31
0
39
0
210
0
220
0
230
1
0
LINE
5
83
100
AcDbEntity
8
1
62
256
6
ByLayer
370
18
48
1
60
0
100
AcDbLine
10
0
20
3.7705
30
0
11
0
21
-3.7705
31
0
39
0
210
0
220
0
230
1
0
LINE
5
84
100
AcDbEntity
8
1
62
256
6
ByLayer
370
18
48
1
60
0
100
AcDbLine
10
74.96101
20
-3.7705
30
0
11
74.96101
21
-1.217031
31
0
39
0
210
0
220
0
230
1
0
LINE
5
85
100
AcDbEntity
8
1
62
256
6
ByLayer
370
18
48
1
60
0
100
AcDbLine
10
74.96101
20
3.7705
30
0
11
74.96101
21
3.650793
31
0
39
0
210
0
220
0
230
1
0
LINE
5
86
100
AcDbEntity
8
1
62
256
6
ByLayer
370
18
48
1
60
0
100
AcDbLine
10
0.4
20
-3.74254
30
0
11
0.4
21
3.74254
31
0
39
0
210
0
220
0
230
1
0
LINE
5
87
100
AcDbEntity
8
SK1
62
256
6
ByLayer
370
18
48
1
60
0
100
AcDbLine
10
-40
20
-3.02
30
0
11
-40
21
3.02
31
0
39
0
210
0
220
0
230
1
0
LINE
5
89
100
AcDbEntity
8
SK1
62
256
6
ByLayer
370
18
48
1
60
0
100
AcDbLine
10
-39.2495
20
-3.7705
30
0
11
-39.2495
21
3.7705
31
0
39
0
210
0
220
0
230
1
0
LINE
5
8A
100
AcDbEntity
8
SK1
62
256
6
ByLayer
370
18
48
1
60
0
100
AcDbLine
10
0
20
3.7705
30
0
11
0
21
-3.7705
31
0
39
0
210
0
220
0
230
1
0
LINE
5
8B
100
AcDbEntity
8
1
62
256
6
ByLayer
370
18
48
1
60
0
100
AcDbLine
10
8.960664
20
-3.74575
30
0
11
19.313572
21
-3.749632
31
0
39
0
210
0
220
0
230
1
0
LINE
5
8C
100
AcDbEntity
8
1
62
256
6
ByLayer
370
18
48
1
60
0
100
AcDbLine
10
19.313572
20
3.749632
30
0
11
8.960664
21
3.74575
31
0
39
0
210
0
220
0
230
1
0
LINE
5
8D
100
AcDbEntity
8
1
62
256
6
ByLayer
370
18
48
1
60
0
100
AcDbLine
10
0.4
20
3.74254
30
0
11
0
21
3.7705
31
0
39
0
210
0
220
0
230
1
0
LINE
5
8E
100
AcDbEntity
8
1
62
256
6
ByLayer
370
18
48
1
60
0
100
AcDbLine
10
0
20
-3.7705
30
0
11
0.4
21
-3.74254
31
0
39
0
210
0
220
0
230
1
0
LINE
5
8F
100
AcDbEntity
8
1
62
256
6
ByLayer
370
18
48
1
60
0
100
AcDbLine
10
77
20
0
30
0
11
74.96101
21
3.7705
31
0
39
0
210
0
220
0
230
1
0
LINE
5
90
100
AcDbEntity
8
1
62
256
6
ByLayer
370
18
48
1
60
0
100
AcDbLine
10
74.96101
20
-3.7705
30
0
11
77
21
0
31
0
39
0
210
0
220
0
230
1
0
LINE
5
91
100
AcDbEntity
8
1
62
256
6
ByLayer
370
18
48
1
60
0
100
AcDbLine
10
0.4
20
-3.74254
30
0
11
2.162679
21
-3.743201
31
0
39
0
210
0
220
0
230
1
0
LINE
5
92
100
AcDbEntity
8
1
62
256
6
ByLayer
370
18
48
1
60
0
100
AcDbLine
10
30.508467
20
-3.75383
30
0
11
40.678821
21
-3.757644
31
0
39
0
210
0
220
0
230
1
0
LINE
5
93
100
AcDbEntity
8
1
62
256
6
ByLayer
370
18
48
1
60
0
100
AcDbLine
10
51.876124
20
-3.761843
30
0
11
62.043859
21
-3.765656
31
0
39
0
210
0
220
0
230
1
0
LINE
5
94
100
AcDbEntity
8
1
62
256
6
ByLayer
370
18
48
1
60
0
100
AcDbLine
10
73.243336
20
-3.769856
30
0
11
74.96101
21
-3.7705
31
0
39
0
210
0
220
0
230
1
0
LINE
5
95
100
AcDbEntity
8
1
62
256
6
ByLayer
370
18
48
1
60
0
100
AcDbLine
10
74.96101
20
3.7705
30
0
11
73.243336
21
3.769856
31
0
39
0
210
0
220
0
230
1
0
LINE
5
96
100
AcDbEntity
8
1
62
256
6
ByLayer
370
18
48
1
60
0
100
AcDbLine
10
62.043859
20
3.765656
30
0
11
51.876124
21
3.761843
31
0
39
0
210
0
220
0
230
1
0
LINE
5
97
100
AcDbEntity
8
1
62
256
6
ByLayer
370
18
48
1
60
0
100
AcDbLine
10
40.678821
20
3.757644
30
0
11
30.508467
21
3.75383
31
0
39
0
210
0
220
0
230
1
0
LINE
5
98
100
AcDbEntity
8
1
62
256
6
ByLayer
370
18
48
1
60
0
100
AcDbLine
10
2.162679
20
3.743201
30
0
11
0.4
21
3.74254
31
0
39
0
210
0
220
0
230
1
0
LINE
5
99
100
AcDbEntity
8
SK1
62
256
6
ByLayer
370
18
48
1
60
0
100
AcDbLine
10
-40
20
-3.02
30
0
11
-39.2495
21
-3.7705
31
0
39
0
210
0
220
0
230
1
0
LINE
5
9A
100
AcDbEntity
8
SK1
62
256
6
ByLayer
370
18
48
1
60
0
100
AcDbLine
10
-39.2495
20
3.7705
30
0
11
-40
21
3.02
31
0
39
0
210
0
220
0
230
1
0
LINE
5
9B
100
AcDbEntity
8
SK1
62
256
6
ByLayer
370
18
48
1
60
0
100
AcDbLine
10
-39.2495
20
-3.7705
30
0
11
0
21
-3.7705
31
0
39
0
210
0
220
0
230
1
0
LINE
5
9C
100
AcDbEntity
8
SK1
62
256
6
ByLayer
370
18
48
1
60
0
100
AcDbLine
10
0
20
3.7705
30
0
11
-39.2495
21
3.7705
31
0
39
0
210
0
220
0
230
1
0
LINE
5
9D
100
AcDbEntity
8
SK2
62
256
6
ByLayer
370
13
48
1
60
0
100
AcDbLine
10
-46.5
20
-3.7705
30
0
11
-46.5
21
30.119241
31
0
39
0
210
0
220
0
230
1
0
LINE
5
9F
100
AcDbEntity
8
SK2
62
256
6
ByLayer
370
13
48
1
60
0
100
AcDbLine
10
-41.5875
20
3.7705
30
0
11
-48.5
21
3.7705
31
0
39
0
210
0
220
0
230
1
0
LINE
5
A0
100
AcDbEntity
8
SK2
62
256
6
ByLayer
370
13
48
1
60
0
100
AcDbLine
10
-41.5875
20
-3.7705
30
0
11
-48.5
21
-3.7705
31
0
39
0
210
0
220
0
230
1
0
LINE
5
A1
100
AcDbEntity
8
1
62
256
6
ByLayer
370
18
48
1
60
1
100
AcDbLine
10
-46.5
20
3.7705
30
0
11
-46.039216
21
0.270502
31
0
39
0
210
0
220
0
230
1
0
LINE
5
A2
100
AcDbEntity
8
1
62
256
6
ByLayer
370
18
48
1
60
1
100
AcDbLine
10
-46.039216
20
0.270502
30
0
11
-46.960784
21
0.270498
31
0
39
0
210
0
220
0
230
1
0
LINE
5
A3
100
AcDbEntity
8
1
62
256
6
ByLayer
370
18
48
1
60
1
100
AcDbLine
10
-46.960784
20
0.270498
30
0
11
-46.5
21
3.7705
31
0
39
0
210
0
220
0
230
1
0
LINE
5
A4
100
AcDbEntity
8
1
62
256
6
ByLayer
370
18
48
1
60
1
100
AcDbLine
10
-46.5
20
-3.7705
30
0
11
-46.960784
21
-0.270502
31
0
39
0
210
0
220
0
230
1
0
LINE
5
A5
100
AcDbEntity
8
1
62
256
6
ByLayer
370
18
48
1
60
1
100
AcDbLine
10
-46.960784
20
-0.270502
30
0
11
-46.039216
21
-0.270498
31
0
39
0
210
0
220
0
230
1
0
LINE
5
A6
100
AcDbEntity
8
1
62
256
6
ByLayer
370
18
48
1
60
1
100
AcDbLine
10
-46.039216
20
-0.270498
30
0
11
-46.5
21
-3.7705
31
0
39
0
210
0
220
0
230
1
0
LINE
5
A7
100
AcDbEntity
8
2
62
256
6
ByLayer
370
13
48
1
60
0
100
AcDbLine
10
84.46101
20
-3.7705
30
0
11
84.46101
21
30.119241
31
0
39
0
210
0
220
0
230
1
0
LINE
5
A9
100
AcDbEntity
8
2
62
256
6
ByLayer
370
13
48
1
60
0
100
AcDbLine
10
76.54851
20
3.7705
30
0
11
86.46101
21
3.7705
31
0
39
0
210
0
220
0
230
1
0
LINE
5
AA
100
AcDbEntity
8
2
62
256
6
ByLayer
370
13
48
1
60
0
100
AcDbLine
10
76.54851
20
-3.7705
30
0
11
86.46101
21
-3.7705
31
0
39
0
210
0
220
0
230
1
0
LINE
5
AB
100
AcDbEntity
8
1
62
256
6
ByLayer
370
18
48
1
60
1
100
AcDbLine
10
84.46101
20
3.7705
30
0
11
84.921793
21
0.270502
31
0
39
0
210
0
220
0
230
1
0
LINE
5
AC
100
AcDbEntity
8
1
62
256
6
ByLayer
370
18
48
1
60
1
100
AcDbLine
10
84.921793
20
0.270502
30
0
11
84.000226
21
0.270498
31
0
39
0
210
0
220
0
230
1
0
LINE
5
AD
100
AcDbEntity
8
1
62
256
6
ByLayer
370
18
48
1
60
1
100
AcDbLine
10
84.000226
20
0.270498
30
0
11
84.46101
21
3.7705
31
0
39
0
210
0
220
0
230
1
0
LINE
5
AE
100
AcDbEntity
8
1
62
256
6
ByLayer
370
18
48
1
60
1
100
AcDbLine
10
84.46101
20
-3.7705
30
0
11
84.000226
21
-0.270502
31
0
39
0
210
0
220
0
230
1
0
LINE
5
AF
100
AcDbEntity
8
1
62
256
6
ByLayer
370
18
48
1
60
1
100
AcDbLine
10
84.000226
20
-0.270502
30
0
11
84.921793
21
-0.270498
31
0
39
0
210
0
220
0
230
1
0
LINE
5
B0
100
AcDbEntity
8
1
62
256
6
ByLayer
370
18
48
1
60
1
100
AcDbLine
10
84.921793
20
-0.270498
30
0
11
84.46101
21
-3.7705
31
0
39
0
210
0
220
0
230
1
0
LINE
5
B1
100
AcDbEntity
8
2
62
256
6
ByLayer
370
13
48
1
60
0
100
AcDbLine
10
77.755136
20
-1.396397
30
0
11
88.416232
21
-21.110889
31
0
39
0
210
0
220
0
230
1
0
LINE
5
B2
100
AcDbEntity
8
2
62
256
6
ByLayer
370
13
48
1
60
0
100
AcDbLine
10
77.755136
20
1.396397
30
0
11
88.416232
21
21.110889
31
0
39
0
210
0
220
0
230
1
0
LINE
5
B3
100
AcDbEntity
8
1
62
256
6
ByLayer
370
18
48
1
60
1
100
AcDbLine
10
87.464879
20
-19.351649
30
0
11
90.239971
21
-17.169637
31
0
39
0
210
0
220
0
230
1
0
LINE
5
B4
100
AcDbEntity
8
1
62
256
6
ByLayer
370
18
48
1
60
1
100
AcDbLine
10
90.239971
20
-17.169637
30
0
11
90.710161
21
-17.962233
31
0
39
0
210
0
220
0
230
1
0
LINE
5
B5
100
AcDbEntity
8
1
62
256
6
ByLayer
370
18
48
1
60
1
100
AcDbLine
10
90.710161
20
-17.962233
30
0
11
87.464879
21
-19.351649
31
0
39
0
210
0
220
0
230
1
0
LINE
5
B6
100
AcDbEntity
8
1
62
256
6
ByLayer
370
18
48
1
60
1
100
AcDbLine
10
87.464879
20
19.351649
30
0
11
90.710158
21
17.962234
31
0
39
0
210
0
220
0
230
1
0
LINE
5
B7
100
AcDbEntity
8
1
62
256
6
ByLayer
370
18
48
1
60
1
100
AcDbLine
10
90.710158
20
17.962234
30
0
11
90.239974
21
17.169635
31
0
39
0
210
0
220
0
230
1
0
LINE
5
B8
100
AcDbEntity
8
1
62
256
6
ByLayer
370
18
48
1
60
1
100
AcDbLine
10
90.239974
20
17.169635
30
0
11
87.464879
21
19.351649
31
0
39
0
210
0
220
0
230
1
0
LINE
5
D2
100
AcDbEntity
8
1
62
256
6
ByLayer
370
18
48
1
60
1
100
AcDbLine
10
-46.5
20
3.7705
30
0
11
-46.039216
21
0.270502
31
0
39
0
210
0
220
0
230
1
0
LINE
5
D3
100
AcDbEntity
8
1
62
256
6
ByLayer
370
18
48
1
60
1
100
AcDbLine
10
-46.039216
20
0.270502
30
0
11
-46.960784
21
0.270498
31
0
39
0
210
0
220
0
230
1
0
LINE
5
D4
100
AcDbEntity
8
1
62
256
6
ByLayer
370
18
48
1
60
1
100
AcDbLine
10
-46.960784
20
0.270498
30
0
11
-46.5
21
3.7705
31
0
39
0
210
0
220
0
230
1
0
LINE
5
D6
100
AcDbEntity
8
1
62
256
6
ByLayer
370
18
48
1
60
1
100
AcDbLine
10
-46.5
20
-3.7705
30
0
11
-46.960784
21
-0.270502
31
0
39
0
210
0
220
0
230
1
0
LINE
5
D7
100
AcDbEntity
8
1
62
256
6
ByLayer
370
18
48
1
60
1
100
AcDbLine
10
-46.960784
20
-0.270502
30
0
11
-46.039216
21
-0.270498
31
0
39
0
210
0
220
0
230
1
0
LINE
5
D8
100
AcDbEntity
8
1
62
256
6
ByLayer
370
18
48
1
60
1
100
AcDbLine
10
-46.039216
20
-0.270498
30
0
11
-46.5
21
-3.7705
31
0
39
0
210
0
220
0
230
1
0
LINE
5
DC
100
AcDbEntity
8
1
62
256
6
ByLayer
370
18
48
1
60
1
100
AcDbLine
10
84.46101
20
3.7705
30
0
11
84.921793
21
0.270502
31
0
39
0
210
0
220
0
230
1
0
LINE
5
DD
100
AcDbEntity
8
1
62
256
6
ByLayer
370
18
48
1
60
1
100
AcDbLine
10
84.921793
20
0.270502
30
0
11
84.000226
21
0.270498
31
0
39
0
210
0
220
0
230
1
0
LINE
5
DE
100
AcDbEntity
8
1
62
256
6
ByLayer
370
18
48
1
60
1
100
AcDbLine
10
84.000226
20
0.270498
30
0
11
84.46101
21
3.7705
31
0
39
0
210
0
220
0
230
1
0
LINE
5
E0
100
AcDbEntity
8
1
62
256
6
ByLayer
370
18
48
1
60
1
100
AcDbLine
10
84.46101
20
-3.7705
30
0
11
84.000226
21
-0.270502
31
0
39
0
210
0
220
0
230
1
0
LINE
5
E1
100
AcDbEntity
8
1
62
256
6
ByLayer
370
18
48
1
60
1
100
AcDbLine
10
84.000226
20
-0.270502
30
0
11
84.921793
21
-0.270498
31
0
39
0
210
0
220
0
230
1
0
LINE
5
E2
100
AcDbEntity
8
1
62
256
6
ByLayer
370
18
48
1
60
1
100
AcDbLine
10
84.921793
20
-0.270498
30
0
11
84.46101
21
-3.7705
31
0
39
0
210
0
220
0
230
1
0
LINE
5
E5
100
AcDbEntity
8
1
62
256
6
ByLayer
370
18
48
1
60
1
100
AcDbLine
10
87.464879
20
-19.351649
30
0
11
90.239971
21
-17.169637
31
0
39
0
210
0
220
0
230
1
0
LINE
5
E6
100
AcDbEntity
8
1
62
256
6
ByLayer
370
18
48
1
60
1
100
AcDbLine
10
90.239971
20
-17.169637
30
0
11
90.710161
21
-17.962233
31
0
39
0
210
0
220
0
230
1
0
LINE
5
E7
100
AcDbEntity
8
1
62
256
6
ByLayer
370
18
48
1
60
1
100
AcDbLine
10
90.710161
20
-17.962233
30
0
11
87.464879
21
-19.351649
31
0
39
0
210
0
220
0
230
1
0
LINE
5
E9
100
AcDbEntity
8
1
62
256
6
ByLayer
370
18
48
1
60
1
100
AcDbLine
10
87.464879
20
19.351649
30
0
11
90.710158
21
17.962234
31
0
39
0
210
0
220
0
230
1
0
LINE
5
EA
100
AcDbEntity
8
1
62
256
6
ByLayer
370
18
48
1
60
1
100
AcDbLine
10
90.710158
20
17.962234
30
0
11
90.239974
21
17.169635
31
0
39
0
210
0
220
0
230
1
0
LINE
5
EB
100
AcDbEntity
8
1
62
256
6
ByLayer
370
18
48
1
60
1
100
AcDbLine
10
90.239974
20
17.169635
30
0
11
87.464879
21
19.351649
31
0
39
0
210
0
220
0
230
1
0
MTEXT
5
CE
100
AcDbEntity
8
SK2
62
256
6
ByLayer
370
18
48
1
60
0
100
AcDbMText
10
-47.841114
20
15.428937
30
0
210
0
220
0
230
1
1
%%c
40
3
41
0
44
1.084337
50
90
71
7
72
5
7
iso_b_vert
0
MTEXT
5
D1
100
AcDbEntity
8
SK2
62
256
6
ByLayer
370
18
48
1
60
0
100
AcDbMText
10
-47.841114
20
21.4055
30
0
210
0
220
0
230
1
1
\W0.7616;7.541
40
3
41
0
44
1.084337
50
90
71
7
72
5
7
iso_b_vert
0
MTEXT
5
DA
100
AcDbEntity
8
2
62
256
6
ByLayer
370
18
48
1
60
0
100
AcDbMText
10
83.119895
20
15.428937
30
0
210
0
220
0
230
1
1
%%c
40
3
41
0
44
1.084337
50
90
71
7
72
5
7
iso_b_vert
0
MTEXT
5
DB
100
AcDbEntity
8
2
62
256
6
ByLayer
370
18
48
1
60
0
100
AcDbMText
10
83.119895
20
21.4055
30
0
210
0
220
0
230
1
1
\W0.7616;7.541
40
3
41
0
44
1.084337
50
90
71
7
72
5
7
iso_b_vert
0
MTEXT
5
E4
100
AcDbEntity
8
2
62
256
6
ByLayer
370
18
48
1
60
0
100
AcDbMText
10
96.092229
20
-2.114886
30
0
210
0
220
0
230
1
1
\W0.6008;118%%d
40
3
41
0
44
1.084337
50
0
71
7
72
5
7
iso_b_vert
0
MTEXT
5
ED
100
AcDbEntity
8
SK6
62
256
6
ByLayer
370
18
48
1
60
0
100
AcDbMText
10
8.853628
20
-67.114886
30
0
210
0
220
0
230
1
1
\W0.7668;R00319/64
40
3
41
0
44
1.084337
50
0
71
7
72
5
7
iso_b_vert
0
HATCH
5
D5
100
AcDbEntity
8
SK2
62
256
6
ByLayer
370
13
48
1
60
0
100
AcDbHatch
10
0
20
0
30
0
210
0
220
0
230
1
2
ANSI31
70
0
71
0
91
1
92
5
93
3
72
1
10
-46.5
20
3.7705
11
-46.0392162584472
21
0.270501692553182
72
1
10
-46.0392162584472
20
0.270501692553182
11
-46.9607837415528
21
0.270498307446815
72
1
10
-46.9607837415528
20
0.270498307446815
11
-46.5
21
3.7705
97
0
75
0
76
1
52
0
41
0.0062
77
0
78
1
53
45
43
0
44
0
45
-0.0139193969876572
46
0.0139193969876572
79
0
47
0
98
1
10
0
20
0
0
HATCH
5
D9
100
AcDbEntity
8
SK2
62
256
6
ByLayer
370
13
48
1
60
0
100
AcDbHatch
10
0
20
0
30
0
210
0
220
0
230
1
2
ANSI31
70
0
71
0
91
1
92
5
93
3
72
1
10
-46.5
20
-3.7705
11
-46.9607837415528
21
-0.270501692553182
72
1
10
-46.9607837415528
20
-0.270501692553182
11
-46.0392162584472
21
-0.270498307446815
72
1
10
-46.0392162584472
20
-0.270498307446815
11
-46.5
21
-3.7705
97
0
75
0
76
1
52
0
41
0.0062
77
0
78
1
53
45
43
0
44
0
45
-0.0139193969876572
46
0.0139193969876572
79
0
47
0
98
1
10
0
20
0
0
HATCH
5
DF
100
AcDbEntity
8
2
62
256
6
ByLayer
370
13
48
1
60
0
100
AcDbHatch
10
0
20
0
30
0
210
0
220
0
230
1
2
ANSI31
70
0
71
0
91
1
92
5
93
3
72
1
10
84.4610095323609
20
3.7705
11
84.9217932739138
21
0.270501692553182
72
1
10
84.9217932739138
20
0.270501692553182
11
84.0002257908081
21
0.270498307446815
72
1
10
84.0002257908081
20
0.270498307446815
11
84.4610095323609
21
3.7705
97
0
75
0
76
1
52
0
41
0.0062
77
0
78
1
53
45
43
0
44
0
45
-0.0139193969876572
46
0.0139193969876572
79
0
47
0
98
1
10
0
20
0
0
HATCH
5
E3
100
AcDbEntity
8
2
62
256
6
ByLayer
370
13
48
1
60
0
100
AcDbHatch
10
0
20
0
30
0
210
0
220
0
230
1
2
ANSI31
70
0
71
0
91
1
92
5
93
3
72
1
10
84.4610095323609
20
-3.7705
11
84.0002257908081
21
-0.270501692553182
72
1
10
84.0002257908081
20
-0.270501692553182
11
84.9217932739138
21
-0.270498307446815
72
1
10
84.9217932739138
20
-0.270498307446815
11
84.4610095323609
21
-3.7705
97
0
75
0
76
1
52
0
41
0.0062
77
0
78
1
53
45
43
0
44
0
45
-0.0139193969876572
46
0.0139193969876572
79
0
47
0
98
1
10
0
20
0
0
HATCH
5
E8
100
AcDbEntity
8
2
62
256
6
ByLayer
370
13
48
1
60
0
100
AcDbHatch
10
0
20
0
30
0
210
0
220
0
230
1
2
ANSI31
70
0
71
0
91
1
92
5
93
3
72
1
10
87.4648791987518
20
-19.3516485952885
11
90.239971107838
21
-17.1696369764528
72
1
10
90.239971107838
20
-17.1696369764528
11
90.7101613929248
21
-17.9622325364573
72
1
10
90.7101613929248
20
-17.9622325364573
11
87.4648791987518
21
-19.3516485952885
97
0
75
0
76
1
52
0
41
0.0062
77
0
78
1
53
45
43
0
44
0
45
-0.0139193969876572
46
0.0139193969876572
79
0
47
0
98
1
10
0
20
0
0
HATCH
5
EC
100
AcDbEntity
8
2
62
256
6
ByLayer
370
13
48
1
60
0
100
AcDbHatch
10
0
20
0
30
0
210
0
220
0
230
1
2
ANSI31
70
0
71
0
91
1
92
5
93
3
72
1
10
87.4648791987518
20
19.3516485952885
11
90.7101584815524
21
17.962234263552
72
1
10
90.7101584815524
20
17.962234263552
11
90.2399740192104
21
17.1696352493581
72
1
10
90.2399740192104
20
17.1696352493581
11
87.4648791987518
21
19.3516485952885
97
0
75
0
76
1
52
0
41
0.0062
77
0
78
1
53
45
43
0
44
0
45
-0.0139193969876572
46
0.0139193969876572
79
0
47
0
98
1
10
0
20
0
0
DIMENSION
5
F0
100
AcDbEntity
8
SK2
62
256
6
ByLayer
370
18
48
1
60
0
100
AcDbDimension
2
_U0
10
77
20
-50.822742
30
0
11
18.5
21
-50.822742
31
0
70
32
71
1
72
1
41
1
210
0
220
0
230
1
3
Standard
100
AcDbAlignedDimension
13
-40
23
-3.7705
33
0
14
77
24
0
34
0
50
0
100
AcDbRotatedDimension
1001
ACAD
1000
DSTYLE
1002
{
1070
   371
1070
    13
1070
   372
1070
    13
1070
     3
1000

1070
   170
1070
     0
1070
   144
1040
1.0
1070
   277
1070
     2
1070
   284
1070
     8
1070
   278
1070
    46
1070
   146
1040
1.166667
1070
   345
1005
16
1070
   347
1005
16
1070
   346
1005
16
1070
   344
1005
0
1070
   343
1005
0
1070
   172
1070
     1
1070
    76
1070
     0
1070
    75
1070
     0
1070
   282
1070
     0
1070
   281
1070
     0
1070
    71
1070
     0
1070
    74
1070
     0
1070
   279
1070
     0
1070
   173
1070
     1
1070
   340
1005
CF
1070
   271
1070
     2
1070
   272
1070
     3
1070
    77
1070
     1
1070
    73
1070
     1
1070
   171
1070
     3
1070
   274
1070
     4
1070
   177
1070
     2
1070
   176
1070
     2
1070
   178
1070
     2
1070
    78
1070
     8
1070
    48
1040
-0.1
1070
    41
1040
3.5
1070
   147
1040
1.5
1070
    42
1040
1.5875
1070
    44
1040
2.0
1070
   140
1040
3.0
1002
}
1001
ACAD_DSTYLE_DIM_LINETYPE
1070
   380
1005
16
1001
ACAD_DSTYLE_DIM_EXT1_LINETYPE
1070
   381
1005
16
1001
ACAD_DSTYLE_DIM_EXT2_LINETYPE
1070
   382
1005
16
0
DIMENSION
5
109
100
AcDbEntity
8
2
62
256
6
ByLayer
370
18
48
1
60
0
100
AcDbDimension
2
_U1
10
2
20
-40.822742
30
0
11
39.5
21
-40.822742
31
0
70
32
71
1
72
1
41
1
210
0
220
0
230
1
3
Standard
100
AcDbAlignedDimension
13
77
23
0
33
0
14
2
24
-3.7705
34
0
50
0
100
AcDbRotatedDimension
1001
ACAD
1000
DSTYLE
1002
{
1070
   371
1070
    13
1070
   372
1070
    13
1070
     3
1000

1070
   170
1070
     0
1070
   144
1040
1.0
1070
   277
1070
     2
1070
   284
1070
     8
1070
   278
1070
    46
1070
   146
1040
1.166667
1070
   345
1005
16
1070
   347
1005
16
1070
   346
1005
16
1070
   344
1005
0
1070
   343
1005
0
1070
   172
1070
     1
1070
    76
1070
     0
1070
    75
1070
     0
1070
   282
1070
     0
1070
   281
1070
     0
1070
    71
1070
     0
1070
    74
1070
     0
1070
   279
1070
     0
1070
   173
1070
     1
1070
   340
1005
CF
1070
   271
1070
     2
1070
   272
1070
     3
1070
    77
1070
     1
1070
    73
1070
     1
1070
   171
1070
     3
1070
   274
1070
     4
1070
   177
1070
     2
1070
   176
1070
     2
1070
   178
1070
     2
1070
    78
1070
     8
1070
    48
1040
-0.1
1070
    41
1040
3.5
1070
   147
1040
1.5
1070
    42
1040
1.5875
1070
    44
1040
2.0
1070
   140
1040
3.0
1002
}
1001
ACAD_DSTYLE_DIM_LINETYPE
1070
   380
1005
16
1001
ACAD_DSTYLE_DIM_EXT1_LINETYPE
1070
   381
1005
16
1001
ACAD_DSTYLE_DIM_EXT2_LINETYPE
1070
   382
1005
16
0
DIMENSION
5
121
100
AcDbEntity
8
SK2
62
256
6
ByLayer
370
18
48
1
60
0
100
AcDbDimension
2
_U2
10
0
20
-35.822742
30
0
11
-20
21
-35.822742
31
0
70
32
71
1
72
1
41
1
210
0
220
0
230
1
3
Standard
100
AcDbAlignedDimension
13
-40
23
-3.7705
33
0
14
0
24
-3.7705
34
0
50
0
100
AcDbRotatedDimension
1001
ACAD
1000
DSTYLE
1002
{
1070
   371
1070
    13
1070
   372
1070
    13
1070
     3
1000

1070
   170
1070
     0
1070
   144
1040
1.0
1070
   277
1070
     2
1070
   284
1070
     8
1070
   278
1070
    46
1070
   146
1040
1.166667
1070
   345
1005
16
1070
   347
1005
16
1070
   346
1005
16
1070
   344
1005
0
1070
   343
1005
0
1070
   172
1070
     1
1070
    76
1070
     0
1070
    75
1070
     0
1070
   282
1070
     0
1070
   281
1070
     0
1070
    71
1070
     0
1070
    74
1070
     0
1070
   279
1070
     0
1070
   173
1070
     1
1070
   340
1005
CF
1070
   271
1070
     2
1070
   272
1070
     3
1070
    77
1070
     1
1070
    73
1070
     1
1070
   171
1070
     3
1070
   274
1070
     4
1070
   177
1070
     2
1070
   176
1070
     2
1070
   178
1070
     2
1070
    78
1070
     8
1070
    48
1040
-0.1
1070
    41
1040
3.5
1070
   147
1040
1.5
1070
    42
1040
1.5875
1070
    44
1040
2.0
1070
   140
1040
3.0
1002
}
1001
ACAD_DSTYLE_DIM_LINETYPE
1070
   380
1005
16
1001
ACAD_DSTYLE_DIM_EXT1_LINETYPE
1070
   381
1005
16
1001
ACAD_DSTYLE_DIM_EXT2_LINETYPE
1070
   382
1005
16
0
DIMENSION
5
139
100
AcDbEntity
8
2
62
256
6
ByLayer
370
18
48
1
60
0
100
AcDbDimension
2
_U3
10
20.75
20
-33.822742
30
0
11
48.875
21
-33.822742
31
0
70
32
71
1
72
1
41
1
210
0
220
0
230
1
3
Standard
100
AcDbAlignedDimension
13
77
23
0
33
0
14
20.75
24
-3.7705
34
0
50
0
100
AcDbRotatedDimension
1001
ACAD
1000
DSTYLE
1002
{
1070
   371
1070
    13
1070
   372
1070
    13
1070
     3
1000

1070
   170
1070
     0
1070
   144
1040
1.0
1070
   277
1070
     2
1070
   284
1070
     8
1070
   278
1070
    46
1070
   146
1040
1.166667
1070
   345
1005
16
1070
   347
1005
16
1070
   346
1005
16
1070
   344
1005
0
1070
   343
1005
0
1070
   172
1070
     1
1070
    76
1070
     0
1070
    75
1070
     0
1070
   282
1070
     0
1070
   281
1070
     0
1070
    71
1070
     0
1070
    74
1070
     0
1070
   279
1070
     0
1070
   173
1070
     1
1070
   340
1005
CF
1070
   271
1070
     2
1070
   272
1070
     3
1070
    77
1070
     1
1070
    73
1070
     1
1070
   171
1070
     3
1070
   274
1070
     4
1070
   177
1070
     2
1070
   176
1070
     2
1070
   178
1070
     2
1070
    78
1070
     8
1070
    48
1040
-0.1
1070
    41
1040
3.5
1070
   147
1040
1.5
1070
    42
1040
1.5875
1070
    44
1040
2.0
1070
   140
1040
3.0
1002
}
1001
ACAD_DSTYLE_DIM_LINETYPE
1070
   380
1005
16
1001
ACAD_DSTYLE_DIM_EXT1_LINETYPE
1070
   381
1005
16
1001
ACAD_DSTYLE_DIM_EXT2_LINETYPE
1070
   382
1005
16
0
ENDSEC
0
SECTION
2
OBJECTS
0
DICTIONARY
5
1c3
330
0
100
AcDbDictionary
280
0
281
1
3
ACAD_GROUP
350
1c4
3
ACAD_MLINESTYLE
350
1c5
0
DICTIONARY
5
1c4
330
0
100
AcDbDictionary
280
0
281
1
0
DICTIONARY
5
1c5
330
0
100
AcDbDictionary
280
0
281
1
3
Standard
350
18
0
MLINESTYLE
5
18
330
1c5
100
AcDbMlineStyle
2
Standard
70
0
3

62
256
51
90
52
90
71
2
49
-0.5
62
256
6
ByLayer
49
0.5
62
256
6
ByLayer
0
RASTERVARIABLES
5
1af
330

100
AcDbRasterVariables
90
0
70
1
71
1
72
1
0
ENDSEC
0
EOF
