0
SECTION
2
HEADER
9
$ACADVER
1
AC1015
9
$DWGCODEPAGE
3
ANSI_1252
9
$HANDSEED
5
1d3
9
$ANGBASE
50
0
9
$ANGDIR
70
0
9
$ATTMODE
70
1
9
$AUNITS
70
0
9
$AUPREC
70
0
9
$CECOLOR
62
256
9
$CELTSCALE
40
1
9
$CELTYPE
6
ByLayer
9
$CELWEIGHT
370
18
9
$CLAYER
8
0
9
$CMLJUST
70
0
9
$CMLSCALE
40
1
9
$CMLSTYLE
2
Standard
9
$DIMSTYLE
2
Standard
9
$TEXTSIZE
40
0.2
9
$TEXTSTYLE
7
Standard
9
$LUNITS
70
2
9
$LUPREC
70
4
9
$EXTNAMES
290
1
9
$INSUNITS
70
4
9
$LTSCALE
40
1
9
$LWDISPLAY
290
1
9
$PDMODE
70
0
9
$PDSIZE
40
0
9
$PLINEGEN
70
0
0
ENDSEC
0
SECTION
2
CLASSES
0
CLASS
1
RASTERVARIABLES
2
AcDbRasterVariables
3
ISM
90
0
280
0
281
0
0
ENDSEC
0
SECTION
2
TABLES
0
TABLE
2
VPORT
5
1c9
100
AcDbSymbolTable
0
VPORT
5
1
100
AcDbSymbolTableRecord
100
AcDbViewportTableRecord
2
*Active
70
0
10
0
20
0
11
1
21
1
12
-1
22
1
13
0
23
0
14
0.5
24
0.5
15
10
25
10
16
0
26
0
36
1
17
0
27
0
37
0
0
ENDTAB
0
TABLE
2
LTYPE
5
1ca
100
AcDbSymbolTable
0
LTYPE
5
14
100
AcDbSymbolTableRecord
100
AcDbLinetypeTableRecord
70
0
2
ByBlock
3

72
65
73
0
40
0
0
LTYPE
5
15
100
AcDbSymbolTableRecord
100
AcDbLinetypeTableRecord
70
0
2
ByLayer
3

72
65
73
0
40
0
0
LTYPE
5
16
100
AcDbSymbolTableRecord
100
AcDbLinetypeTableRecord
70
0
2
Continuous
3
Solid line
72
65
73
0
40
0
0
LTYPE
5
6E
100
AcDbSymbolTableRecord
100
AcDbLinetypeTableRecord
70
0
2
CENTER
3
____ _ ____ _ ____ _ ____
72
65
73
4
40
47.5
49
22
74
0
49
-8.5
74
0
49
8.5
74
0
49
-8.5
74
0
0
LTYPE
5
6F
100
AcDbSymbolTableRecord
100
AcDbLinetypeTableRecord
70
0
2
DASHED
3
__ __ __ __ __ __ __ __ __
72
65
73
2
40
25.72
49
12.86
74
0
49
-12.86
74
0
0
ENDTAB
0
TABLE
2
LAYER
5
1cb
100
AcDbSymbolTable
0
LAYER
5
10
100
AcDbSymbolTableRecord
100
AcDbLayerTableRecord
2
0
70
0
62
7
6
Continuous
290
1
370
-3
390
0
0
LAYER
5
71
100
AcDbSymbolTableRecord
100
AcDbLayerTableRecord
2
81
70
0
62
-3
6
Continuous
290
1
370
-3
390
0
0
LAYER
5
73
100
AcDbSymbolTableRecord
100
AcDbLayerTableRecord
2
80
70
0
62
-6
6
Continuous
290
1
370
-3
390
0
0
LAYER
5
75
100
AcDbSymbolTableRecord
100
AcDbLayerTableRecord
2
1
70
0
62
4
6
Continuous
290
1
370
-3
390
0
0
LAYER
5
7F
100
AcDbSymbolTableRecord
100
AcDbLayerTableRecord
2
4
70
0
62
-2
6
CENTER
290
1
370
-3
390
0
0
LAYER
5
A8
100
AcDbSymbolTableRecord
100
AcDbLayerTableRecord
2
2
70
0
62
7
6
Continuous
290
1
370
-3
390
0
0
LAYER
5
F6
100
AcDbSymbolTableRecord
100
AcDbLayerTableRecord
2
Defpoints
70
0
62
7
6
Continuous
290
0
370
-3
390
0
0
LAYER
5
1b3
100
AcDbSymbolTableRecord
100
AcDbLayerTableRecord
2
SK4
70
0
62
2
6
CENTER
290
1
370
-3
390
0
0
LAYER
5
1b4
100
AcDbSymbolTableRecord
100
AcDbLayerTableRecord
2
SK1
70
0
62
4
6
Continuous
290
1
370
-3
390
0
0
LAYER
5
1b5
100
AcDbSymbolTableRecord
100
AcDbLayerTableRecord
2
SK2
70
0
62
7
6
Continuous
290
1
370
-3
390
0
0
LAYER
5
1b6
100
AcDbSymbolTableRecord
100
AcDbLayerTableRecord
2
CUT
70
0
62
-1
6
Continuous
290
1
370
-3
390
0
0
LAYER
5
1b7
100
AcDbSymbolTableRecord
100
AcDbLayerTableRecord
2
NOCUT
70
0
62
-7
6
Continuous
290
1
370
-3
390
0
0
LAYER
5
1b8
100
AcDbSymbolTableRecord
100
AcDbLayerTableRecord
2
SK6
70
0
62
5
6
Continuous
290
1
370
-3
390
0
0
ENDTAB
0
TABLE
2
STYLE
5
1cc
100
AcDbSymbolTable
0
STYLE
5
11
100
AcDbSymbolTableRecord
100
AcDbTextStyleTableRecord
2
Standard
3
txt
70
0
71
0
40
0
41
1
42
0
50
0
0
STYLE
5
D2
100
AcDbSymbolTableRecord
100
AcDbTextStyleTableRecord
2
iso_b_vert
3
simplex.shx
70
0
71
0
40
0
41
1
42
0
50
0
0
STYLE
5
D3
100
AcDbSymbolTableRecord
100
AcDbTextStyleTableRecord
2
DWGDirectTextStyle
3
simplex
70
0
71
0
40
0
41
1
42
0
50
0
0
ENDTAB
0
TABLE
2
DIMSTYLE
5
1cd
100
AcDbSymbolTable
100
AcDbDimStyleTable
0
DIMSTYLE
105
27
100
AcDbSymbolTableRecord
100
AcDbDimStyleTableRecord
2
Standard
70
0
3
<>
41
0.18
42
0.0625
44
0.18
140
0.18
147
0.09
73
0
74
0
77
1
271
2
275
0
278
52
280
0
340
11
0
ENDTAB
0
TABLE
2
VIEW
5
1ce
100
AcDbSymbolTable
0
ENDTAB
0
TABLE
2
UCS
5
1cf
100
AcDbSymbolTable
0
ENDTAB
0
TABLE
2
APPID
5
1d0
100
AcDbSymbolTable
0
APPID
5
12
100
AcDbSymbolTableRecord
100
AcDbRegAppTableRecord
2
ACAD
70
0
0
APPID
5
F2
100
AcDbSymbolTableRecord
100
AcDbRegAppTableRecord
2
ACAD_DSTYLE_DIMBREAK
70
0
0
APPID
5
172
100
AcDbSymbolTableRecord
100
AcDbRegAppTableRecord
2
ACAD_DSTYLE_DIM_LINETYPE
70
0
0
APPID
5
173
100
AcDbSymbolTableRecord
100
AcDbRegAppTableRecord
2
ACAD_DSTYLE_DIM_EXT1_LINETYPE
70
0
0
APPID
5
174
100
AcDbSymbolTableRecord
100
AcDbRegAppTableRecord
2
ACAD_DSTYLE_DIM_EXT2_LINETYPE
70
0
0
APPID
5
1AF
100
AcDbSymbolTableRecord
100
AcDbRegAppTableRecord
2
ACAD_MLEADERVER
70
0
0
ENDTAB
0
TABLE
2
BLOCK_RECORD
5
1d1
100
AcDbSymbolTable
0
BLOCK_RECORD
5
1F
100
AcDbSymbolTableRecord
100
AcDbBlockTableRecord
2
*Model_Space
340
0
70
0
0
BLOCK_RECORD
5
1B
100
AcDbSymbolTableRecord
100
AcDbBlockTableRecord
2
*Paper_Space
340
0
70
0
0
BLOCK_RECORD
5
23
100
AcDbSymbolTableRecord
100
AcDbBlockTableRecord
2
*Paper_Space0
340
0
70
0
0
BLOCK_RECORD
5
F7
100
AcDbSymbolTableRecord
100
AcDbBlockTableRecord
2
*D1
340
0
70
0
0
BLOCK_RECORD
5
103
100
AcDbSymbolTableRecord
100
AcDbBlockTableRecord
2
_U0
340
0
70
0
0
BLOCK_RECORD
5
10F
100
AcDbSymbolTableRecord
100
AcDbBlockTableRecord
2
*D3
340
0
70
0
0
BLOCK_RECORD
5
11B
100
AcDbSymbolTableRecord
100
AcDbBlockTableRecord
2
_U1
340
0
70
0
0
BLOCK_RECORD
5
127
100
AcDbSymbolTableRecord
100
AcDbBlockTableRecord
2
*D5
340
0
70
0
0
BLOCK_RECORD
5
133
100
AcDbSymbolTableRecord
100
AcDbBlockTableRecord
2
_U2
340
0
70
0
0
BLOCK_RECORD
5
13F
100
AcDbSymbolTableRecord
100
AcDbBlockTableRecord
2
*D7
340
0
70
0
0
BLOCK_RECORD
5
14B
100
AcDbSymbolTableRecord
100
AcDbBlockTableRecord
2
_U3
340
0
70
0
0
ENDTAB
0
ENDSEC
0
SECTION
2
BLOCKS
0
BLOCK
5
20
100
AcDbEntity
8
0
100
AcDbBlockBegin
2
*Model_Space
70
0
10
0
20
0
30
0
3
*Model_Space
0
ENDBLK
5
21
100
AcDbEntity
8
0
100
AcDbBlockEnd
0
BLOCK
5
1C
100
AcDbEntity
8
0
100
AcDbBlockBegin
2
*Paper_Space
70
0
10
0
20
0
30
0
3
*Paper_Space
0
ENDBLK
5
1D
100
AcDbEntity
8
0
100
AcDbBlockEnd
0
BLOCK
5
24
100
AcDbEntity
8
0
100
AcDbBlockBegin
2
*Paper_Space0
70
0
10
0
20
0
30
0
3
*Paper_Space0
0
ENDBLK
5
25
100
AcDbEntity
8
0
100
AcDbBlockEnd
0
BLOCK
5
F8
100
AcDbEntity
8
0
100
AcDbBlockBegin
2
*D1
70
1
10
0
20
0
30
0
3
*D1
0
LINE
5
FA
100
AcDbEntity
8
0
62
256
6
ByLayer
370
-2
48
1
60
0
100
AcDbLine
10
-38
20
-4.961
30
0
11
-38
21
-53.671951
31
0
39
0
210
0
220
0
230
1
0
LINE
5
FB
100
AcDbEntity
8
0
62
256
6
ByLayer
370
-2
48
1
60
0
100
AcDbLine
10
71
20
-1.5875
30
0
11
71
21
-53.671951
31
0
39
0
210
0
220
0
230
1
0
LINE
5
FC
100
AcDbEntity
8
0
62
256
6
ByLayer
370
-2
48
1
60
0
100
AcDbLine
10
-34.5
20
-51.671951
30
0
11
67.5
21
-51.671951
31
0
39
0
210
0
220
0
230
1
0
SOLID
5
FD
100
AcDbEntity
8
0
62
256
6
ByLayer
370
-1
48
1
60
0
100
AcDbTrace
10
-34.5
20
-51.088617
30
0
11
-34.5
21
-52.255284
31
0
12
-38
22
-51.671951
32
0
13
-38
23
-51.671951
33
0
39
0
210
0
220
0
230
1
0
SOLID
5
FE
100
AcDbEntity
8
0
62
256
6
ByLayer
370
-1
48
1
60
0
100
AcDbTrace
10
67.5
20
-52.255284
30
0
11
67.5
21
-51.088617
31
0
12
71
22
-51.671951
32
0
13
71
23
-51.671951
33
0
39
0
210
0
220
0
230
1
0
MTEXT
5
FF
100
AcDbEntity
8
0
62
256
6
ByLayer
370
18
48
1
60
0
100
AcDbMText
10
16.5
20
-45.671951
30
0
210
0
220
0
230
1
1
\A1;109
40
3
41
0
44
1
50
0
71
5
72
5
7
iso_b_vert
0
POINT
5
100
100
AcDbEntity
8
Defpoints
62
0
6
ByLayer
370
-1
48
1
60
0
100
AcDbPoint
10
-38
20
-3.3735
30
0
39
0
210
0
220
0
230
1
50
360
0
POINT
5
101
100
AcDbEntity
8
Defpoints
62
0
6
ByLayer
370
-1
48
1
60
0
100
AcDbPoint
10
71
20
0
30
0
39
0
210
0
220
0
230
1
50
360
0
POINT
5
102
100
AcDbEntity
8
Defpoints
62
0
6
ByLayer
370
-1
48
1
60
0
100
AcDbPoint
10
71
20
-51.671951
30
0
39
0
210
0
220
0
230
1
50
360
0
ENDBLK
5
F9
100
AcDbEntity
8
0
100
AcDbBlockEnd
0
BLOCK
5
10A
100
AcDbEntity
8
0
100
AcDbBlockBegin
2
_U0
70
0
10
0
20
0
30
0
3
_U0
0
MTEXT
5
104
100
AcDbEntity
8
SK2
62
256
6
ByLayer
370
18
48
1
60
0
100
AcDbMText
10
11.271658
20
-50.786836
30
0
210
0
220
0
230
1
1
\W0.7022;109.00
40
3
41
0
44
1.084337
50
0
71
7
72
5
7
iso_b_vert
0
LINE
5
105
100
AcDbEntity
8
SK2
62
256
6
ByLayer
370
13
48
1
60
0
100
AcDbLine
10
-38
20
-4.961
30
0
11
-38
21
-53.671951
31
0
39
0
210
0
220
0
230
1
0
LINE
5
106
100
AcDbEntity
8
SK2
62
256
6
ByLayer
370
13
48
1
60
0
100
AcDbLine
10
71
20
-1.5875
30
0
11
71
21
-53.671951
31
0
39
0
210
0
220
0
230
1
0
LINE
5
107
100
AcDbEntity
8
SK2
62
256
6
ByLayer
370
13
48
1
60
0
100
AcDbLine
10
-38
20
-51.671951
30
0
11
71
21
-51.671951
31
0
39
0
210
0
220
0
230
1
0
SOLID
5
108
100
AcDbEntity
8
SK2
62
256
6
ByLayer
370
18
48
1
60
0
100
AcDbTrace
10
-38
20
-51.671951
30
0
11
-34.500002
21
-51.211167
31
0
12
-34.499998
22
-52.132734
32
0
13
-34.499998
23
-52.132734
33
0
39
0
210
0
220
0
230
1
0
SOLID
5
109
100
AcDbEntity
8
SK2
62
256
6
ByLayer
370
18
48
1
60
0
100
AcDbTrace
10
71
20
-51.671951
30
0
11
67.500002
21
-52.132734
31
0
12
67.499998
22
-51.211167
32
0
13
67.499998
23
-51.211167
33
0
39
0
210
0
220
0
230
1
0
ENDBLK
5
10B
100
AcDbEntity
8
0
100
AcDbBlockEnd
0
BLOCK
5
110
100
AcDbEntity
8
0
100
AcDbBlockBegin
2
*D3
70
1
10
0
20
0
30
0
3
*D3
0
LINE
5
112
100
AcDbEntity
8
0
62
256
6
ByLayer
370
-2
48
1
60
0
100
AcDbLine
10
71
20
-1.5875
30
0
11
71
21
-43.671951
31
0
39
0
210
0
220
0
230
1
0
LINE
5
113
100
AcDbEntity
8
0
62
256
6
ByLayer
370
-2
48
1
60
0
100
AcDbLine
10
2
20
-4.961
30
0
11
2
21
-43.671951
31
0
39
0
210
0
220
0
230
1
0
LINE
5
114
100
AcDbEntity
8
0
62
256
6
ByLayer
370
-2
48
1
60
0
100
AcDbLine
10
67.5
20
-41.671951
30
0
11
5.5
21
-41.671951
31
0
39
0
210
0
220
0
230
1
0
SOLID
5
115
100
AcDbEntity
8
0
62
256
6
ByLayer
370
-1
48
1
60
0
100
AcDbTrace
10
67.5
20
-42.255284
30
0
11
67.5
21
-41.088617
31
0
12
71
22
-41.671951
32
0
13
71
23
-41.671951
33
0
39
0
210
0
220
0
230
1
0
SOLID
5
116
100
AcDbEntity
8
0
62
256
6
ByLayer
370
-1
48
1
60
0
100
AcDbTrace
10
5.5
20
-41.088617
30
0
11
5.5
21
-42.255284
31
0
12
2
22
-41.671951
32
0
13
2
23
-41.671951
33
0
39
0
210
0
220
0
230
1
0
MTEXT
5
117
100
AcDbEntity
8
0
62
256
6
ByLayer
370
18
48
1
60
0
100
AcDbMText
10
36.5
20
-35.671951
30
0
210
0
220
0
230
1
1
\A1;69
40
3
41
0
44
1
50
0
71
5
72
5
7
iso_b_vert
0
POINT
5
118
100
AcDbEntity
8
Defpoints
62
0
6
ByLayer
370
-1
48
1
60
0
100
AcDbPoint
10
71
20
0
30
0
39
0
210
0
220
0
230
1
50
360
0
POINT
5
119
100
AcDbEntity
8
Defpoints
62
0
6
ByLayer
370
-1
48
1
60
0
100
AcDbPoint
10
2
20
-3.3735
30
0
39
0
210
0
220
0
230
1
50
360
0
POINT
5
11A
100
AcDbEntity
8
Defpoints
62
0
6
ByLayer
370
-1
48
1
60
0
100
AcDbPoint
10
2
20
-41.671951
30
0
39
0
210
0
220
0
230
1
50
360
0
ENDBLK
5
111
100
AcDbEntity
8
0
100
AcDbBlockEnd
0
BLOCK
5
122
100
AcDbEntity
8
0
100
AcDbBlockBegin
2
_U1
70
0
10
0
20
0
30
0
3
_U1
0
MTEXT
5
11C
100
AcDbEntity
8
2
62
256
6
ByLayer
370
18
48
1
60
0
100
AcDbMText
10
32.01763
20
-40.786836
30
0
210
0
220
0
230
1
1
\W0.7468;69.00
40
3
41
0
44
1.084337
50
0
71
7
72
5
7
iso_b_vert
0
LINE
5
11D
100
AcDbEntity
8
2
62
256
6
ByLayer
370
13
48
1
60
0
100
AcDbLine
10
71
20
-1.5875
30
0
11
71
21
-43.671951
31
0
39
0
210
0
220
0
230
1
0
LINE
5
11E
100
AcDbEntity
8
2
62
256
6
ByLayer
370
13
48
1
60
0
100
AcDbLine
10
2
20
-4.961
30
0
11
2
21
-43.671951
31
0
39
0
210
0
220
0
230
1
0
LINE
5
11F
100
AcDbEntity
8
2
62
256
6
ByLayer
370
13
48
1
60
0
100
AcDbLine
10
71
20
-41.671951
30
0
11
2
21
-41.671951
31
0
39
0
210
0
220
0
230
1
0
SOLID
5
120
100
AcDbEntity
8
2
62
256
6
ByLayer
370
18
48
1
60
0
100
AcDbTrace
10
71
20
-41.671951
30
0
11
67.500002
21
-42.132734
31
0
12
67.499998
22
-41.211167
32
0
13
67.499998
23
-41.211167
33
0
39
0
210
0
220
0
230
1
0
SOLID
5
121
100
AcDbEntity
8
2
62
256
6
ByLayer
370
18
48
1
60
0
100
AcDbTrace
10
2
20
-41.671951
30
0
11
5.499998
21
-41.211167
31
0
12
5.500002
22
-42.132734
32
0
13
5.500002
23
-42.132734
33
0
39
0
210
0
220
0
230
1
0
ENDBLK
5
123
100
AcDbEntity
8
0
100
AcDbBlockEnd
0
BLOCK
5
128
100
AcDbEntity
8
0
100
AcDbBlockBegin
2
*D5
70
1
10
0
20
0
30
0
3
*D5
0
LINE
5
12A
100
AcDbEntity
8
0
62
256
6
ByLayer
370
-2
48
1
60
0
100
AcDbLine
10
-38
20
-4.961
30
0
11
-38
21
-38.671951
31
0
39
0
210
0
220
0
230
1
0
LINE
5
12B
100
AcDbEntity
8
0
62
256
6
ByLayer
370
-2
48
1
60
0
100
AcDbLine
10
0
20
-4.961
30
0
11
0
21
-38.671951
31
0
39
0
210
0
220
0
230
1
0
LINE
5
12C
100
AcDbEntity
8
0
62
256
6
ByLayer
370
-2
48
1
60
0
100
AcDbLine
10
-34.5
20
-36.671951
30
0
11
-3.5
21
-36.671951
31
0
39
0
210
0
220
0
230
1
0
SOLID
5
12D
100
AcDbEntity
8
0
62
256
6
ByLayer
370
-1
48
1
60
0
100
AcDbTrace
10
-34.5
20
-36.088617
30
0
11
-34.5
21
-37.255284
31
0
12
-38
22
-36.671951
32
0
13
-38
23
-36.671951
33
0
39
0
210
0
220
0
230
1
0
SOLID
5
12E
100
AcDbEntity
8
0
62
256
6
ByLayer
370
-1
48
1
60
0
100
AcDbTrace
10
-3.5
20
-37.255284
30
0
11
-3.5
21
-36.088617
31
0
12
0
22
-36.671951
32
0
13
0
23
-36.671951
33
0
39
0
210
0
220
0
230
1
0
MTEXT
5
12F
100
AcDbEntity
8
0
62
256
6
ByLayer
370
18
48
1
60
0
100
AcDbMText
10
-19
20
-30.671951
30
0
210
0
220
0
230
1
1
\A1;38
40
3
41
0
44
1
50
0
71
5
72
5
7
iso_b_vert
0
POINT
5
130
100
AcDbEntity
8
Defpoints
62
0
6
ByLayer
370
-1
48
1
60
0
100
AcDbPoint
10
-38
20
-3.3735
30
0
39
0
210
0
220
0
230
1
50
360
0
POINT
5
131
100
AcDbEntity
8
Defpoints
62
0
6
ByLayer
370
-1
48
1
60
0
100
AcDbPoint
10
0
20
-3.3735
30
0
39
0
210
0
220
0
230
1
50
360
0
POINT
5
132
100
AcDbEntity
8
Defpoints
62
0
6
ByLayer
370
-1
48
1
60
0
100
AcDbPoint
10
0
20
-36.671951
30
0
39
0
210
0
220
0
230
1
50
360
0
ENDBLK
5
129
100
AcDbEntity
8
0
100
AcDbBlockEnd
0
BLOCK
5
13A
100
AcDbEntity
8
0
100
AcDbBlockBegin
2
_U2
70
0
10
0
20
0
30
0
3
_U2
0
MTEXT
5
134
100
AcDbEntity
8
SK2
62
256
6
ByLayer
370
18
48
1
60
0
100
AcDbMText
10
-23.48237
20
-35.786836
30
0
210
0
220
0
230
1
1
\W0.7468;38.00
40
3
41
0
44
1.084337
50
0
71
7
72
5
7
iso_b_vert
0
LINE
5
135
100
AcDbEntity
8
SK2
62
256
6
ByLayer
370
13
48
1
60
0
100
AcDbLine
10
-38
20
-4.961
30
0
11
-38
21
-38.671951
31
0
39
0
210
0
220
0
230
1
0
LINE
5
136
100
AcDbEntity
8
SK2
62
256
6
ByLayer
370
13
48
1
60
0
100
AcDbLine
10
0
20
-4.961
30
0
11
0
21
-38.671951
31
0
39
0
210
0
220
0
230
1
0
LINE
5
137
100
AcDbEntity
8
SK2
62
256
6
ByLayer
370
13
48
1
60
0
100
AcDbLine
10
-38
20
-36.671951
30
0
11
0
21
-36.671951
31
0
39
0
210
0
220
0
230
1
0
SOLID
5
138
100
AcDbEntity
8
SK2
62
256
6
ByLayer
370
18
48
1
60
0
100
AcDbTrace
10
-38
20
-36.671951
30
0
11
-34.500002
21
-36.211167
31
0
12
-34.499998
22
-37.132734
32
0
13
-34.499998
23
-37.132734
33
0
39
0
210
0
220
0
230
1
0
SOLID
5
139
100
AcDbEntity
8
SK2
62
256
6
ByLayer
370
18
48
1
60
0
100
AcDbTrace
10
0
20
-36.671951
30
0
11
-3.499998
21
-37.132734
31
0
12
-3.500002
22
-36.211167
32
0
13
-3.500002
23
-36.211167
33
0
39
0
210
0
220
0
230
1
0
ENDBLK
5
13B
100
AcDbEntity
8
0
100
AcDbBlockEnd
0
BLOCK
5
140
100
AcDbEntity
8
0
100
AcDbBlockBegin
2
*D7
70
1
10
0
20
0
30
0
3
*D7
0
LINE
5
142
100
AcDbEntity
8
0
62
256
6
ByLayer
370
-2
48
1
60
0
100
AcDbLine
10
71
20
-1.5875
30
0
11
71
21
-36.671951
31
0
39
0
210
0
220
0
230
1
0
LINE
5
143
100
AcDbEntity
8
0
62
256
6
ByLayer
370
-2
48
1
60
0
100
AcDbLine
10
19.25
20
-4.961
30
0
11
19.25
21
-36.671951
31
0
39
0
210
0
220
0
230
1
0
LINE
5
144
100
AcDbEntity
8
0
62
256
6
ByLayer
370
-2
48
1
60
0
100
AcDbLine
10
67.5
20
-34.671951
30
0
11
22.75
21
-34.671951
31
0
39
0
210
0
220
0
230
1
0
SOLID
5
145
100
AcDbEntity
8
0
62
256
6
ByLayer
370
-1
48
1
60
0
100
AcDbTrace
10
67.5
20
-35.255284
30
0
11
67.5
21
-34.088617
31
0
12
71
22
-34.671951
32
0
13
71
23
-34.671951
33
0
39
0
210
0
220
0
230
1
0
SOLID
5
146
100
AcDbEntity
8
0
62
256
6
ByLayer
370
-1
48
1
60
0
100
AcDbTrace
10
22.75
20
-34.088617
30
0
11
22.75
21
-35.255284
31
0
12
19.25
22
-34.671951
32
0
13
19.25
23
-34.671951
33
0
39
0
210
0
220
0
230
1
0
MTEXT
5
147
100
AcDbEntity
8
0
62
256
6
ByLayer
370
18
48
1
60
0
100
AcDbMText
10
45.125
20
-28.671951
30
0
210
0
220
0
230
1
1
\A1;51.75
40
3
41
0
44
1
50
0
71
5
72
5
7
iso_b_vert
0
POINT
5
148
100
AcDbEntity
8
Defpoints
62
0
6
ByLayer
370
-1
48
1
60
0
100
AcDbPoint
10
71
20
0
30
0
39
0
210
0
220
0
230
1
50
360
0
POINT
5
149
100
AcDbEntity
8
Defpoints
62
0
6
ByLayer
370
-1
48
1
60
0
100
AcDbPoint
10
19.25
20
-3.3735
30
0
39
0
210
0
220
0
230
1
50
360
0
POINT
5
14A
100
AcDbEntity
8
Defpoints
62
0
6
ByLayer
370
-1
48
1
60
0
100
AcDbPoint
10
19.25
20
-34.671951
30
0
39
0
210
0
220
0
230
1
50
360
0
ENDBLK
5
141
100
AcDbEntity
8
0
100
AcDbBlockEnd
0
BLOCK
5
152
100
AcDbEntity
8
0
100
AcDbBlockBegin
2
_U3
70
0
10
0
20
0
30
0
3
_U3
0
MTEXT
5
14C
100
AcDbEntity
8
2
62
256
6
ByLayer
370
18
48
1
60
0
100
AcDbMText
10
41.017572
20
-33.786836
30
0
210
0
220
0
230
1
1
\W0.6864;51.75
40
3
41
0
44
1.084337
50
0
71
7
72
5
7
iso_b_vert
0
LINE
5
14D
100
AcDbEntity
8
2
62
256
6
ByLayer
370
13
48
1
60
0
100
AcDbLine
10
71
20
-1.5875
30
0
11
71
21
-36.671951
31
0
39
0
210
0
220
0
230
1
0
LINE
5
14E
100
AcDbEntity
8
2
62
256
6
ByLayer
370
13
48
1
60
0
100
AcDbLine
10
19.25
20
-4.961
30
0
11
19.25
21
-36.671951
31
0
39
0
210
0
220
0
230
1
0
LINE
5
14F
100
AcDbEntity
8
2
62
256
6
ByLayer
370
13
48
1
60
0
100
AcDbLine
10
71
20
-34.671951
30
0
11
19.25
21
-34.671951
31
0
39
0
210
0
220
0
230
1
0
SOLID
5
150
100
AcDbEntity
8
2
62
256
6
ByLayer
370
18
48
1
60
0
100
AcDbTrace
10
71
20
-34.671951
30
0
11
67.500002
21
-35.132734
31
0
12
67.499998
22
-34.211167
32
0
13
67.499998
23
-34.211167
33
0
39
0
210
0
220
0
230
1
0
SOLID
5
151
100
AcDbEntity
8
2
62
256
6
ByLayer
370
18
48
1
60
0
100
AcDbTrace
10
19.25
20
-34.671951
30
0
11
22.749998
21
-34.211167
31
0
12
22.750002
22
-35.132734
32
0
13
22.750002
23
-35.132734
33
0
39
0
210
0
220
0
230
1
0
ENDBLK
5
153
100
AcDbEntity
8
0
100
AcDbBlockEnd
0
ENDSEC
0
SECTION
2
ENTITIES
0
ARC
5
B9
100
AcDbEntity
8
2
62
256
6
ByLayer
370
13
48
1
60
0
100
AcDbCircle
39
0
10
71
20
0
30
0
40
22
210
0
220
0
230
1
100
AcDbArc
50
7.83748
51
61.596605
0
ARC
5
BA
100
AcDbEntity
8
2
62
256
6
ByLayer
370
13
48
1
60
0
100
AcDbCircle
39
0
10
71
20
0
30
0
40
22
210
0
220
0
230
1
100
AcDbArc
50
298.403395
51
352.16252
0
POINT
5
70
100
AcDbEntity
8
81
62
256
6
ByLayer
370
18
48
1
60
0
100
AcDbPoint
10
71
20
0
30
0
39
0
210
0
220
0
230
1
50
360
0
POINT
5
72
100
AcDbEntity
8
80
62
256
6
ByLayer
370
18
48
1
60
0
100
AcDbPoint
10
0
20
0
30
0
39
0
210
0
220
0
230
1
50
360
0
POINT
5
74
100
AcDbEntity
8
1
62
256
6
ByLayer
370
18
48
1
60
1
100
AcDbPoint
10
-38
20
-3.3735
30
0
39
0
210
0
220
0
230
1
50
360
0
POINT
5
76
100
AcDbEntity
8
1
62
256
6
ByLayer
370
18
48
1
60
1
100
AcDbPoint
10
71
20
0
30
0
39
0
210
0
220
0
230
1
50
360
0
POINT
5
77
100
AcDbEntity
8
1
62
256
6
ByLayer
370
18
48
1
60
1
100
AcDbPoint
10
71
20
0
30
0
39
0
210
0
220
0
230
1
50
360
0
POINT
5
78
100
AcDbEntity
8
1
62
256
6
ByLayer
370
18
48
1
60
1
100
AcDbPoint
10
2
20
-3.3735
30
0
39
0
210
0
220
0
230
1
50
360
0
POINT
5
79
100
AcDbEntity
8
1
62
256
6
ByLayer
370
18
48
1
60
1
100
AcDbPoint
10
-38
20
-3.3735
30
0
39
0
210
0
220
0
230
1
50
360
0
POINT
5
7A
100
AcDbEntity
8
1
62
256
6
ByLayer
370
18
48
1
60
1
100
AcDbPoint
10
0
20
-3.3735
30
0
39
0
210
0
220
0
230
1
50
360
0
POINT
5
7B
100
AcDbEntity
8
1
62
256
6
ByLayer
370
18
48
1
60
1
100
AcDbPoint
10
71
20
0
30
0
39
0
210
0
220
0
230
1
50
360
0
POINT
5
7C
100
AcDbEntity
8
1
62
256
6
ByLayer
370
18
48
1
60
1
100
AcDbPoint
10
19.25
20
-3.3735
30
0
39
0
210
0
220
0
230
1
50
360
0
SPLINE
5
BB
100
AcDbEntity
8
CUT
62
256
6
ByLayer
370
18
48
1
60
0
100
AcDbSpline
70
2053
71
3
72
17
73
13
40
0
40
0
40
0
40
0
40
0.475356527717041
40
0.475356527717041
40
0.475356527717041
40
0.510585058745096
40
0.510585058745096
40
0.510585058745096
40
0.96918424045405
40
0.96918424045405
40
0.96918424045405
40
1
40
1
40
1
40
1
41
1
10
19.25
20
0
30
0
41
1
10
36.5
20
0
30
0
41
1
10
53.75
20
0
30
0
41
1
10
71
20
0
30
0
41
1
10
70.3918990105108
20
1.1245000000043
30
0
41
1
10
69.7837980210217
20
2.24900000000858
30
0
41
1
10
69.1756970315325
20
3.37350000001288
30
0
41
1
10
52.5337980210209
20
3.36725928788431
30
0
41
1
10
35.8918990105092
20
3.36101857575576
30
0
41
1
10
19.2499999999988
20
3.35477786362722
30
0
41
1
10
19.25
20
2.23651857575146
30
0
41
1
10
19.25
20
1.11825928787573
30
0
41
1
10
19.25
20
0
30
0
0
SPLINE
5
BD
100
AcDbEntity
8
NOCUT
62
256
6
ByLayer
370
18
48
1
60
0
100
AcDbSpline
70
2053
71
3
72
26
73
22
40
0
40
0
40
0
40
0
40
0.308397217992047
40
0.308397217992047
40
0.308397217992047
40
0.317160635221105
40
0.317160635221105
40
0.317160635221105
40
0.338892449972971
40
0.338892449972971
40
0.338892449972971
40
0.812852981227118
40
0.812852981227118
40
0.812852981227118
40
0.8406264711568
40
0.8406264711568
40
0.8406264711568
40
0.996681609013501
40
0.996681609013501
40
0.996681609013501
40
1
40
1
40
1
40
1
41
1
10
0
20
3.37350000000001
30
0
41
1
10
-12.4171666666667
20
3.37350000000001
30
0
41
1
10
-24.8343333333334
20
3.37350000000001
30
0
41
1
10
-37.2515
20
3.37350000000001
30
0
41
1
10
-37.501
20
3.12399999999999
30
0
41
1
10
-37.7505
20
2.87450000000001
30
0
41
1
10
-38
20
2.625
30
0
41
1
10
-38
20
1.75
30
0
41
1
10
-38
20
0.875
30
0
41
1
10
-38
20
0
30
0
41
1
10
-18.916666666667
20
0
30
0
41
1
10
0.166666666666003
20
0
30
0
41
1
10
19.2499999999995
20
0
30
0
41
1
10
19.25
20
1.11825928787573
30
0
41
1
10
19.25
20
2.23651857575146
30
0
41
1
10
19.25
20
3.35477786362722
30
0
41
1
10
12.9666666666662
20
3.35242161362734
30
0
41
1
10
6.68333333333246
20
3.35006536362749
30
0
41
1
10
0.399999999944214
20
3.34770911361829
30
0
41
1
10
0.266666666593181
20
3.3563060757393
30
0
41
1
10
0.133333333296577
20
3.36490303786965
30
0
41
1
10
0
20
3.37350000000001
30
0
0
SPLINE
5
BF
100
AcDbEntity
8
1
62
256
6
ByLayer
370
18
48
1
60
0
100
AcDbSpline
70
4
71
3
72
117
73
113
40
0
40
0
40
0
40
0
40
0.0156250000000022
40
0.0156250000000022
40
0.0312500000000044
40
0.0312500000000044
40
0.0468750000000066
40
0.0468750000000066
40
0.0625000000000088
40
0.0625000000000088
40
0.0937500000000105
40
0.0937500000000105
40
0.125000000000012
40
0.125000000000012
40
0.187500000000016
40
0.187500000000016
40
0.218750000000019
40
0.218750000000019
40
0.250000000000022
40
0.250000000000022
40
0.265625000000023
40
0.265625000000023
40
0.273437500000024
40
0.273437500000024
40
0.281250000000025
40
0.281250000000025
40
0.289062500000026
40
0.289062500000026
40
0.296875000000026
40
0.296875000000026
40
0.304687500000027
40
0.304687500000027
40
0.312500000000028
40
0.312500000000028
40
0.320312500000029
40
0.320312500000029
40
0.328125000000029
40
0.328125000000029
40
0.33593750000003
40
0.33593750000003
40
0.343750000000031
40
0.343750000000031
40
0.359375000000032
40
0.359375000000032
40
0.375000000000034
40
0.375000000000034
40
0.40625000000004
40
0.40625000000004
40
0.437500000000046
40
0.437500000000046
40
0.45312500000005
40
0.45312500000005
40
0.468750000000054
40
0.468750000000054
40
0.484375000000058
40
0.484375000000058
40
0.49218750000006
40
0.49218750000006
40
0.500000000000062
40
0.500000000000062
40
0.515625000000066
40
0.515625000000066
40
0.523437500000068
40
0.523437500000068
40
0.53125000000007
40
0.53125000000007
40
0.546875000000074
40
0.546875000000074
40
0.554687500000075
40
0.554687500000075
40
0.562500000000076
40
0.562500000000076
40
0.578125000000076
40
0.578125000000076
40
0.593750000000075
40
0.593750000000075
40
0.609375000000075
40
0.609375000000075
40
0.625000000000075
40
0.625000000000075
40
0.656250000000071
40
0.656250000000071
40
0.687500000000068
40
0.687500000000068
40
0.695312500000065
40
0.695312500000065
40
0.703125000000062
40
0.718750000000059
40
0.718750000000059
40
0.750000000000055
40
0.750000000000055
40
0.757812500000053
40
0.757812500000053
40
0.765625000000052
40
0.765625000000052
40
0.781250000000048
40
0.781250000000048
40
0.812500000000042
40
0.812500000000042
40
0.843750000000035
40
0.843750000000035
40
0.875000000000029
40
0.875000000000029
40
0.906250000000022
40
0.906250000000022
40
0.937500000000016
40
0.937500000000016
40
0.953125000000013
40
0.953125000000013
40
0.968750000000009
40
0.968750000000009
40
1
40
1
40
1
40
1
41
1
10
69.1756970315325
20
3.26623716731345
30
0
41
1
10
69.1928268198137
20
3.23289517351017
30
0
41
1
10
69.2099666398661
20
3.19956249719135
30
0
41
1
10
69.2442312062526
20
3.13289301381889
30
0
41
1
10
69.2613622573672
20
3.09956028191434
30
0
41
1
10
69.295638540798
20
3.03290922541245
30
0
41
1
10
69.3127836084417
20
2.99959079546312
30
0
41
1
10
69.3471050469419
20
2.93297877018026
30
0
41
1
10
69.3642842938374
20
2.89968696307724
30
0
41
1
10
69.4158529838142
20
2.79983805627649
30
0
41
1
10
69.4502717702705
20
2.73330622801009
30
0
41
1
10
69.5189724479495
20
2.60017675751621
30
0
41
1
10
69.553256599009
20
2.53358083272272
30
0
41
1
10
69.6559565459812
20
2.33373169319492
30
0
41
1
10
69.7242716832317
20
2.20044761966827
30
0
41
1
10
69.8262207090428
20
2.00028308343573
30
0
41
1
10
69.8601192589677
20
1.93352367102267
30
0
41
1
10
69.9276648800663
20
1.79988498326139
30
0
41
1
10
69.9613265116361
20
1.73301419061633
30
0
41
1
10
70.0115167882724
20
1.6325568135002
30
0
41
1
10
70.0281813665605
20
1.59903037587776
30
0
41
1
10
70.0530776717215
20
1.54868828625251
30
0
41
1
10
70.0613609755049
20
1.53190463606816
30
0
41
1
10
70.0779039475341
20
1.4983620130792
30
0
41
1
10
70.0861615231921
20
1.48159645415115
30
0
41
1
10
70.1026834287163
20
1.44819048465681
30
0
41
1
10
70.1109485333862
20
1.43155266242059
30
0
41
1
10
70.1275311668403
20
1.39853110852371
30
0
41
1
10
70.1358435599296
20
1.38213184345619
30
0
41
1
10
70.152607147266
20
1.34982153197134
30
0
41
1
10
70.1610656334304
20
1.33393138784214
30
0
41
1
10
70.1781951628194
20
1.30281098510383
30
0
41
1
10
70.1868726308246
20
1.28759849456046
30
0
41
1
10
70.2043965350434
20
1.257672496835
30
0
41
1
10
70.2132294909563
20
1.24292011640031
30
0
41
1
10
70.230914829622
20
1.21347447344868
30
0
41
1
10
70.2397715900758
20
1.19879414564943
30
0
41
1
10
70.2574321455253
20
1.1692870649139
30
0
41
1
10
70.2662365423706
20
1.1544622891611
30
0
41
1
10
70.283784577406
20
1.12465094867341
30
0
41
1
10
70.2925263269962
20
1.10965921739174
30
0
41
1
10
70.3186776124595
20
1.06450200371026
30
0
41
1
10
70.3360274522894
20
1.0341925367828
30
0
41
1
10
70.3705196625171
20
0.97312817454744
30
0
41
1
10
70.3876682553297
20
0.94236142643237
30
0
41
1
10
70.4385789726988
20
0.849363511109459
30
0
41
1
10
70.4718246369653
20
0.78637080485035
30
0
41
1
10
70.5361836585139
20
0.658238368351221
30
0
41
1
10
70.5673629470758
20
0.593135181665133
30
0
41
1
10
70.6106164934945
20
0.492674534862289
30
0
41
1
10
70.624433219594
20
0.458713072027251
30
0
41
1
10
70.6501924645434
20
0.389468038827914
30
0
41
1
10
70.6619944400653
20
0.354549255854181
30
0
41
1
10
70.6824934785408
20
0.283928478091411
30
0
41
1
10
70.6911969321464
20
0.248218775234392
30
0
41
1
10
70.7009442591135
20
0.193798676615984
30
0
41
1
10
70.7036447428256
20
0.17545703101942
30
0
41
1
10
70.7077307224235
20
0.138711359918602
30
0
41
1
10
70.709110352671
20
0.120408170971217
30
0
41
1
10
70.7111415008341
20
0.0657254423732354
30
0
41
1
10
70.7096444453951
20
0.029577239061382
30
0
41
1
10
70.7031841870044
20
-0.0241372782655844
30
0
41
1
10
70.7003218106716
20
-0.0420227641565418
30
0
41
1
10
70.6933499774718
20
-0.0773117283847
30
0
41
1
10
70.689268313797
20
-0.0946141617239959
30
0
41
1
10
70.6755307494968
20
-0.145604976506036
30
0
41
1
10
70.6643995919239
20
-0.178385614495369
30
0
41
1
10
70.6456665811736
20
-0.226049044588564
30
0
41
1
10
70.6390791362788
20
-0.241683987840929
30
0
41
1
10
70.6253287786209
20
-0.27248146274448
30
0
41
1
10
70.6181456747637
20
-0.287682847671334
30
0
41
1
10
70.5960242438135
20
-0.332308438636858
30
0
41
1
10
70.5805708987022
20
-0.36070215187334
30
0
41
1
10
70.5487901362309
20
-0.415214421964038
30
0
41
1
10
70.5324521883446
20
-0.44130763865877
30
0
41
1
10
70.4991675345453
20
-0.49139673255948
30
0
41
1
10
70.4822204088407
20
-0.515400397411213
30
0
41
1
10
70.4478695370472
20
-0.561470109602652
30
0
41
1
10
70.4303985109082
20
-0.58360691965828
30
0
41
1
10
70.3781729032398
20
-0.646249396694742
30
0
41
1
10
70.3434549614828
20
-0.683193467449399
30
0
41
1
10
70.2742429776556
20
-0.748660794780193
30
0
41
1
10
70.2397406179632
20
-0.77717499730619
30
0
41
1
10
70.196618659614
20
-0.80772757105251
30
0
41
1
10
70.1879825474263
20
-0.813591359219544
30
0
41
1
10
70.1707844198558
20
-0.824770074113786
30
0
41
1
10
70.1450876340613
20
-0.840725735375059
30
0
41
1
10
70.119668543536
20
-0.854281249143639
30
0
41
1
10
70.0691385866907
20
-0.8782673168933
30
0
41
1
10
70.0358411035576
20
-0.890319198079197
30
0
41
1
10
69.9945303333471
20
-0.900230788083576
30
0
41
1
10
69.986279268833
20
-0.901970312325602
30
0
41
1
10
69.9697543397806
20
-0.905394281067743
30
0
41
1
10
69.9614780881223
20
-0.907104622571126
30
0
41
1
10
69.9365792440161
20
-0.912582553953087
30
0
41
1
10
69.9198978954363
20
-0.916585634881983
30
0
41
1
10
69.8696449922716
20
-0.929722536884384
30
0
41
1
10
69.8358670220558
20
-0.939979485638645
30
0
41
1
10
69.7679084558878
20
-0.963816873018999
30
0
41
1
10
69.7337260684849
20
-0.977417947234898
30
0
41
1
10
69.6650641224566
20
-1.00803377330868
30
0
41
1
10
69.6305912888549
20
-1.02493091571944
30
0
41
1
10
69.5613941584733
20
-1.06242479662163
30
0
41
1
10
69.526663675392
20
-1.08312439725051
30
0
41
1
10
69.4569357164502
20
-1.12908333198879
30
0
41
1
10
69.4219467934428
20
-1.1541917396936
30
0
41
1
10
69.3693227618065
20
-1.19429441968558
30
0
41
1
10
69.3517578188565
20
-1.20806814130782
30
0
41
1
10
69.3165853313955
20
-1.236332926616
30
0
41
1
10
69.2989790466027
20
-1.25080271721868
30
0
41
1
10
69.2460862289861
20
-1.29542193226504
30
0
41
1
10
69.2108435738187
20
-1.32675653826155
30
0
41
1
10
69.1756970315326
20
-1.36006172939139
30
0
0
SPLINE
5
C0
100
AcDbEntity
8
1
62
256
6
ByLayer
370
18
48
1
60
0
100
AcDbSpline
70
4
71
3
72
33
73
29
40
0
40
0
40
0
40
0
40
0.0062023397722054
40
0.0619189030278251
40
0.117635466283444
40
0.173352029539064
40
0.229068592794684
40
0.284785156050303
40
0.340501719305923
40
0.368360000933733
40
0.396218282561543
40
0.424076564189352
40
0.438005705003257
40
0.451934845817162
40
0.465863986631067
40
0.479793127444972
40
0.493722268258877
40
0.507651409072782
40
0.535509690700592
40
0.563367972328401
40
0.619084535584021
40
0.67480109883964
40
0.73051766209526
40
0.78623422535088
40
0.841950788606499
40
0.897667351862119
40
0.953383915117738
40
1
40
1
40
1
40
1
41
1
10
13.1734078470293
20
2.98013718430613
30
0
41
1
10
13.1690270204752
20
2.97247494795735
30
0
41
1
10
13.125109542452
20
2.89601506497863
30
0
41
1
10
13.0361495188529
20
2.75161848349174
30
0
41
1
10
12.9030840882054
20
2.54813430425855
30
0
41
1
10
12.752002617861
20
2.34835776279829
30
0
41
1
10
12.5847542365548
20
2.15198992007123
30
0
41
1
10
12.3988701487508
20
1.95972745567923
30
0
41
1
10
12.2276883471602
20
1.80241512431508
30
0
41
1
10
12.0831567114655
20
1.68002231539026
30
0
41
1
10
11.9707863376808
20
1.59089729958058
30
0
41
1
10
11.8751325642225
20
1.51771862903553
30
0
41
1
10
11.8012492409448
20
1.4575668948923
30
0
41
1
10
11.7501735506633
20
1.41008326319468
30
0
41
1
10
11.7045400448966
20
1.35917803819541
30
0
41
1
10
11.6583724256475
20
1.30719518955416
30
0
41
1
10
11.6087517153098
20
1.25649371353336
30
0
41
1
10
11.5385386459415
20
1.19113589142699
30
0
41
1
10
11.4461578251985
20
1.11298520614008
30
0
41
1
10
11.288634626076
20
0.994340880495827
30
0
41
1
10
11.0742602940469
20
0.858193542330042
30
0
41
1
10
10.8078097808758
20
0.71665881706474
30
0
41
1
10
10.5302504729986
20
0.591704730530779
30
0
41
1
10
10.247084932131
20
0.483061950579383
30
0
41
1
10
9.96397374126676
20
0.390977527265051
30
0
41
1
10
9.68114487132632
20
0.313919485156447
30
0
41
1
10
9.41286085674781
20
0.255183055266229
30
0
41
1
10
9.23921208359215
20
0.226365273606803
30
0
41
1
10
9.16081703842775
20
0.215439677778647
30
0
0
SPLINE
5
C1
100
AcDbEntity
8
1
62
256
6
ByLayer
370
18
48
1
60
0
100
AcDbSpline
70
4
71
3
72
72
73
68
40
0
40
0
40
0
40
0
40
0.0403063285642889
40
0.0403063285642889
40
0.0806126571285777
40
0.0806126571285777
40
0.120918985692867
40
0.120918985692867
40
0.161225314257156
40
0.161225314257156
40
0.181378478539299
40
0.181378478539299
40
0.201531642821442
40
0.201531642821442
40
0.241837971385728
40
0.241837971385728
40
0.282144299950014
40
0.282144299950014
40
0.302297464232158
40
0.302297464232158
40
0.322450628514303
40
0.322450628514303
40
0.362756957078592
40
0.362756957078592
40
0.403063285642881
40
0.403063285642881
40
0.44336961420717
40
0.44336961420717
40
0.463522778489315
40
0.463522778489315
40
0.483675942771461
40
0.483675942771461
40
0.523982271335753
40
0.523982271335753
40
0.564288599900044
40
0.564288599900044
40
0.584441764182191
40
0.584441764182191
40
0.594518346323265
40
0.594518346323265
40
0.604594928464338
40
0.604594928464338
40
0.644901257028632
40
0.644901257028632
40
0.685207585592926
40
0.685207585592926
40
0.72551391415722
40
0.72551391415722
40
0.745667078439366
40
0.745667078439366
40
0.765820242721512
40
0.765820242721512
40
0.806126571285801
40
0.806126571285801
40
0.846432899850089
40
0.846432899850089
40
0.886739228414378
40
0.886739228414378
40
0.927045556978667
40
0.927045556978667
40
0.947198721260811
40
0.947198721260811
40
0.967351885542956
40
0.967351885542956
40
0.9875050498251
40
0.9875050498251
40
1
40
1
40
1
40
1
41
1
10
69.1756970315327
20
-1.36006172939133
30
0
41
1
10
69.0121136952829
20
-1.27710659677115
30
0
41
1
10
68.8488689143879
20
-1.19311659455465
30
0
41
1
10
68.5233153562349
20
-1.02262178055398
30
0
41
1
10
68.3610140823561
20
-0.93610076287132
30
0
41
1
10
68.0366497880656
20
-0.761785959630004
30
0
41
1
10
67.8745130311513
20
-0.674126583947128
30
0
41
1
10
67.5504746648662
20
-0.497555587957862
30
0
41
1
10
67.3886630523533
20
-0.408479838210013
30
0
41
1
10
67.1459536875088
20
-0.274225790790808
30
0
41
1
10
67.0650423291644
20
-0.22938518184165
30
0
41
1
10
66.9030978637788
20
-0.139718542842445
30
0
41
1
10
66.8220664242364
20
-0.0948896388647711
30
0
41
1
10
66.5788279157894
20
0.0396441643661944
30
0
41
1
10
66.4165085405554
20
0.129454256517249
30
0
41
1
10
66.0916079678698
20
0.309438885462697
30
0
41
1
10
65.9289583294752
20
0.399488619131518
30
0
41
1
10
65.684138282706
20
0.53363364600844
30
0
41
1
10
65.6023627664884
20
0.578240968408807
30
0
41
1
10
65.438762008693
20
0.667142056199168
30
0
41
1
10
65.3570728760638
20
0.711363011079783
30
0
41
1
10
65.1123996263389
20
0.843453871986668
30
0
41
1
10
64.9498154104201
20
0.930755128668466
30
0
41
1
10
64.6250055594711
20
1.10259285267455
30
0
41
1
10
64.4627029703916
20
1.18700260741611
30
0
41
1
10
64.1384316147514
20
1.35308049412393
30
0
41
1
10
63.976554757356
20
1.43489928677033
30
0
41
1
10
63.7338351813727
20
1.55529115673039
30
0
41
1
10
63.6529347162872
20
1.59501621279784
30
0
41
1
10
63.4910397477361
20
1.67348672673989
30
0
41
1
10
63.4100453574304
20
1.7122330879312
30
0
41
1
10
63.1669548015216
20
1.82706402859659
30
0
41
1
10
63.0047802385
20
1.90178839744402
30
0
41
1
10
62.6802813464184
20
2.04765210401118
30
0
41
1
10
62.5178916659964
20
2.11868394990952
30
0
41
1
10
62.2735477470662
20
2.22156341199965
30
0
41
1
10
62.1919856770508
20
2.25526479624605
30
0
41
1
10
62.069489073762
20
2.30495211149983
30
0
41
1
10
62.0286314219355
20
2.32137055302005
30
0
41
1
10
61.9468697821435
20
2.35392471129572
30
0
41
1
10
61.9059472855341
20
2.37006758932293
30
0
41
1
10
61.7015929942427
20
2.4499485549334
30
0
41
1
10
61.5387748011436
20
2.51126001220342
30
0
41
1
10
61.2137709740632
20
2.62786806947298
30
0
41
1
10
61.0515059753415
20
2.68308603917816
30
0
41
1
10
60.7275551851625
20
2.78761141478665
30
0
41
1
10
60.5659607201163
20
2.83700773605978
30
0
41
1
10
60.3238710313532
20
2.90651565501358
30
0
41
1
10
60.2432147373733
20
2.92891078173642
30
0
41
1
10
60.081878928724
20
2.97206678308871
30
0
41
1
10
60.0011972029204
20
2.99282706775813
30
0
41
1
10
59.7591422411915
20
3.05269928833178
30
0
41
1
10
59.5977834718493
20
3.08942784633626
30
0
41
1
10
59.2751952951683
20
3.15653723803678
30
0
41
1
10
59.1139059702488
20
3.18685771486315
30
0
41
1
10
58.7905981774511
20
3.24056141289176
30
0
41
1
10
58.6286129050206
20
3.26398554251494
30
0
41
1
10
58.3042276047748
20
3.30404194517104
30
0
41
1
10
58.1418634866771
20
3.32066813759232
30
0
41
1
10
57.8975510623505
20
3.34022497831381
30
0
41
1
10
57.8159730808733
20
3.34584585906006
30
0
41
1
10
57.6525079414718
20
3.3552819445824
30
0
41
1
10
57.5706158240963
20
3.35909699948098
30
0
41
1
10
57.4072671471337
20
3.36490022566713
30
0
41
1
10
57.3257258925153
20
3.36689459223095
30
0
41
1
10
57.193862645284
20
3.36866087122243
30
0
41
1
10
57.1434489316295
20
3.36898873676674
30
0
41
1
10
57.0930781529672
20
3.36896898937701
30
0
0
SPLINE
5
C2
100
AcDbEntity
8
1
62
256
6
ByLayer
370
18
48
1
60
0
100
AcDbSpline
70
4
71
3
72
139
73
135
40
0
40
0
40
0
40
0
40
0.0139315963896821
40
0.0139315963896821
40
0.0338908790718649
40
0.0338908790718649
40
0.0538501617540477
40
0.0538501617540477
40
0.0738094444362306
40
0.0738094444362306
40
0.0937687271184134
40
0.0937687271184134
40
0.103748368459505
40
0.103748368459505
40
0.10873818913005
40
0.10873818913005
40
0.113728009800596
40
0.113728009800596
40
0.123707651141686
40
0.123707651141686
40
0.133687292482776
40
0.133687292482776
40
0.153646575164955
40
0.153646575164955
40
0.173605857847134
40
0.173605857847134
40
0.193565140529313
40
0.193565140529313
40
0.213524423211492
40
0.213524423211492
40
0.233483705893671
40
0.233483705893671
40
0.24346334723476
40
0.24346334723476
40
0.25344298857585
40
0.263422629916939
40
0.263422629916939
40
0.273402271258028
40
0.273402271258028
40
0.283381912599118
40
0.283381912599118
40
0.293361553940207
40
0.293361553940207
40
0.313320836622387
40
0.313320836622387
40
0.333280119304566
40
0.333280119304566
40
0.353239401986744
40
0.353239401986744
40
0.373198684668923
40
0.373198684668923
40
0.383178326010012
40
0.383178326010012
40
0.393157967351101
40
0.403137608692189
40
0.403137608692189
40
0.413117250033278
40
0.413117250033278
40
0.433076532715454
40
0.433076532715454
40
0.45303581539763
40
0.45303581539763
40
0.463015456738719
40
0.463015456738719
40
0.472995098079808
40
0.472995098079808
40
0.492954380761985
40
0.492954380761985
40
0.512913663444163
40
0.512913663444163
40
0.522893304785251
40
0.522893304785251
40
0.532872946126339
40
0.542852587467427
40
0.542852587467427
40
0.552832228808515
40
0.552832228808515
40
0.572791511490691
40
0.572791511490691
40
0.592750794172867
40
0.592750794172867
40
0.612710076855044
40
0.612710076855044
40
0.632669359537219
40
0.632669359537219
40
0.637659180207764
40
0.637659180207764
40
0.642649000878308
40
0.642649000878308
40
0.652628642219395
40
0.652628642219395
40
0.662608283560482
40
0.662608283560482
40
0.672587924901568
40
0.672587924901568
40
0.692547207583744
40
0.692547207583744
40
0.712506490265919
40
0.712506490265919
40
0.732465772948093
40
0.732465772948093
40
0.752425055630268
40
0.752425055630268
40
0.772384338312444
40
0.772384338312444
40
0.792343620994618
40
0.792343620994618
40
0.802323262335706
40
0.802323262335706
40
0.812302903676793
40
0.812302903676793
40
0.82228254501788
40
0.82228254501788
40
0.832262186358968
40
0.832262186358968
40
0.852221469041144
40
0.852221469041144
40
0.872180751723319
40
0.872180751723319
40
0.892140034405495
40
0.892140034405495
40
0.91209931708767
40
0.91209931708767
40
0.932058599769846
40
0.932058599769846
40
0.942038241110934
40
0.942038241110934
40
0.952017882452021
40
0.952017882452021
40
0.971977165134198
40
0.971977165134198
40
0.991936447816374
40
0.991936447816374
40
1
40
1
40
1
40
1
41
1
10
43.2396906195549
20
-2.1830136566133
30
0
41
1
10
43.1270013446163
20
-2.23047827413765
30
0
41
1
10
43.0143643296076
20
-2.27676110925529
30
0
41
1
10
42.7402478445228
20
-2.38617652875752
30
0
41
1
10
42.5787939809483
20
-2.4480465556656
30
0
41
1
10
42.2560828307918
20
-2.56692860845519
30
0
41
1
10
42.0947932698247
20
-2.62388378474884
30
0
41
1
10
41.7716116356211
20
-2.73193500191212
30
0
41
1
10
41.6096908592741
20
-2.78301574419589
30
0
41
1
10
41.2854056576431
20
-2.87950072823352
30
0
41
1
10
41.123115395391
20
-2.924966449068
30
0
41
1
10
40.8790391061499
20
-2.98850940076986
30
0
41
1
10
40.7975635808267
20
-3.00890640331454
30
0
41
1
10
40.6751133345289
20
-3.0382700188913
30
0
41
1
10
40.6342593713232
20
-3.04785466438176
30
0
41
1
10
40.552479599617
20
-3.06661909566304
30
0
41
1
10
40.5115316563096
20
-3.07580364222517
30
0
41
1
10
40.3887807844177
20
-3.10270900899377
30
0
41
1
10
40.3070741806188
20
-3.11978254617867
30
0
41
1
10
40.1439542968324
20
-3.15224151585906
30
0
41
1
10
40.0625439165558
20
-3.16762741168714
30
0
41
1
10
39.8186481866009
20
-3.21118496504229
30
0
41
1
10
39.6564749049949
20
-3.23673522576777
30
0
41
1
10
39.3323730685431
20
-3.28068457044131
30
0
41
1
10
39.1705125330188
20
-3.29913626353021
30
0
41
1
10
38.8474151107105
20
-3.32911370779439
30
0
41
1
10
38.6861511799838
20
-3.34060684369766
30
0
41
1
10
38.3634608064676
20
-3.35644909121675
30
0
41
1
10
38.2019953538085
20
-3.36081481237511
30
0
41
1
10
37.8790351807535
20
-3.36249143349326
30
0
41
1
10
37.7176180233691
20
-3.35978611741356
30
0
41
1
10
37.4751991839452
20
-3.35035862625557
30
0
41
1
10
37.3943347666913
20
-3.34632338247531
30
0
41
1
10
37.2323996772266
20
-3.33648557157772
30
0
41
1
10
37.0702745957832
20
-3.32487995795839
30
0
41
1
10
36.9078145581553
20
-3.30972508094047
30
0
41
1
10
36.7452248972898
20
-3.29276650506498
30
0
41
1
10
36.6638713913979
20
-3.2833816126151
30
0
41
1
10
36.5009735749608
20
-3.26280371336299
30
0
41
1
10
36.4194298106287
20
-3.25161011690514
30
0
41
1
10
36.2560554734171
20
-3.22744415578436
30
0
41
1
10
36.1741544062908
20
-3.21446578617375
30
0
41
1
10
35.9289519162236
20
-3.17308214138978
30
0
41
1
10
35.7658869131235
20
-3.14218859809424
30
0
41
1
10
35.4408060066
20
-3.07370777781
30
0
41
1
10
35.2787715072142
20
-3.0361135884857
30
0
41
1
10
34.9549909692184
20
-2.9548496866046
30
0
41
1
10
34.7931963191011
20
-2.91124000359952
30
0
41
1
10
34.4699943482268
20
-2.81796404291373
30
0
41
1
10
34.308668173459
20
-2.76820518499804
30
0
41
1
10
34.0667205086487
20
-2.68923975779939
30
0
41
1
10
33.9860691464491
20
-2.66220729010129
30
0
41
1
10
33.8246666924349
20
-2.60683564237982
30
0
41
1
10
33.663178968201
20
-2.55014300322688
30
0
41
1
10
33.5015659562295
20
-2.49076528842116
30
0
41
1
10
33.3399283645365
20
-2.42999125759485
30
0
41
1
10
33.2591050239305
20
-2.39889517067166
30
0
41
1
10
33.0165218555032
20
-2.30358708030619
30
0
41
1
10
32.8546337836784
20
-2.23736789995962
30
0
41
1
10
32.529860091592
20
-2.10047133325958
30
0
41
1
10
32.3670320383383
20
-2.02972990231021
30
0
41
1
10
32.1223167432089
20
-1.91981512694068
30
0
41
1
10
32.0406608176685
20
-1.88254824314225
30
0
41
1
10
31.877100593185
20
-1.80686441525188
30
0
41
1
10
31.79534179019
20
-1.7685133022832
30
0
41
1
10
31.55050235999
20
-1.65244379892761
30
0
41
1
10
31.3875930332037
20
-1.5736910005111
30
0
41
1
10
31.0625734096894
20
-1.41319779936748
30
0
41
1
10
30.9005474696438
20
-1.33130982728124
30
0
41
1
10
30.6578867929235
20
-1.20661591765625
30
0
41
1
10
30.5770538419197
20
-1.16475691238188
30
0
41
1
10
30.4153966745495
20
-1.08062705113619
30
0
41
1
10
30.2537602740742
20
-0.996064882869547
30
0
41
1
10
30.092208920527
20
-0.910567446726617
30
0
41
1
10
29.9307377118912
20
-0.824535195882646
30
0
41
1
10
29.8500508547631
20
-0.781235860875825
30
0
41
1
10
29.6080438557701
20
-0.650651042111349
30
0
41
1
10
29.4467636902936
20
-0.562701148181418
30
0
41
1
10
29.1236323071793
20
-0.386271476307343
30
0
41
1
10
28.9618336906131
20
-0.297700287887523
30
0
41
1
10
28.6380361598244
20
-0.119339730464674
30
0
41
1
10
28.4760387933189
20
-0.0295420952939196
30
0
41
1
10
28.151144538718
20
0.149985852965557
30
0
41
1
10
27.9881790446606
20
0.239580647949197
30
0
41
1
10
27.7839146487193
20
0.351544471111026
30
0
41
1
10
27.7430348539134
20
0.373937744623191
30
0
41
1
10
27.6612263781913
20
0.418735714309747
30
0
41
1
10
27.6202808506874
20
0.441151844492822
30
0
41
1
10
27.4976064729586
20
0.50826406100262
30
0
41
1
10
27.4159781858306
20
0.55285729651942
30
0
41
1
10
27.2529482212417
20
0.641593084081876
30
0
41
1
10
27.1715452280894
20
0.68573300716659
30
0
41
1
10
27.0088586832081
20
0.773370733520125
30
0
41
1
10
26.9275791229433
20
0.816876767879023
30
0
41
1
10
26.6839619952801
20
0.946528300989911
30
0
41
1
10
26.5218814126763
20
1.0318740851549
30
0
41
1
10
26.1984153424946
20
1.20045311834195
30
0
41
1
10
26.0369612795932
20
1.28355700711623
30
0
41
1
10
25.7139124085266
20
1.44622427212767
30
0
41
1
10
25.5523652344774
20
1.52587933423194
30
0
41
1
10
25.229493536134
20
1.68227718048732
30
0
41
1
10
25.0681789735554
20
1.75902522789954
30
0
41
1
10
24.7450979693919
20
1.90849105415739
30
0
41
1
10
24.5832561075396
20
1.98110083290337
30
0
41
1
10
24.2590998092156
20
2.12227539774017
30
0
41
1
10
24.0968749702214
20
2.19096762626563
30
0
41
1
10
23.8530283327666
20
2.29068741651332
30
0
41
1
10
23.7716513848011
20
2.32336027965491
30
0
41
1
10
23.6086036223499
20
2.38742324641231
30
0
41
1
10
23.5269330851339
20
2.41881451462794
30
0
41
1
10
23.3633193130917
20
2.48034215622877
30
0
41
1
10
23.2813456177674
20
2.51048693823631
30
0
41
1
10
23.1178598319664
20
2.56930815637452
30
0
41
1
10
23.0362718047862
20
2.59802841289948
30
0
41
1
10
22.7918997717075
20
2.6820320764069
30
0
41
1
10
22.6294938985523
20
2.73513081460342
30
0
41
1
10
22.3049745862453
20
2.83483468381294
30
0
41
1
10
22.142903393935
20
2.8815077244754
30
0
41
1
10
21.8193981517702
20
2.96881053144949
30
0
41
1
10
21.6579826142216
20
3.00943526604195
30
0
41
1
10
21.3351429354412
20
3.08405674453405
30
0
41
1
10
21.1736395425439
20
3.11801012435657
30
0
41
1
10
20.8505788727759
20
3.17934170905349
30
0
41
1
10
20.689113392844
20
3.20676820699867
30
0
41
1
10
20.4467487187513
20
3.24282867508038
30
0
41
1
10
20.3659223703388
20
3.25399686828911
30
0
41
1
10
20.2040895672433
20
3.27458130863187
30
0
41
1
10
20.1230800143762
20
3.28399766598326
30
0
41
1
10
19.8798032354111
20
3.30963564689449
30
0
41
1
10
19.7173123416674
20
3.32326093582361
30
0
41
1
10
19.3918161472466
20
3.34346744117858
30
0
41
1
10
19.228749703032
20
3.35001445981328
30
0
41
1
10
18.9988402290338
20
3.35407789284798
30
0
41
1
10
18.9327166113764
20
3.35465111450478
30
0
41
1
10
18.8666739649127
20
3.35463404754697
30
0
0
SPLINE
5
C3
100
AcDbEntity
8
1
62
256
6
ByLayer
370
18
48
1
60
0
100
AcDbSpline
70
4
71
3
72
126
73
122
40
0
40
0
40
0
40
0
40
0.018490226314854
40
0.018490226314854
40
0.0712439747847125
40
0.0712439747847125
40
0.123997723254571
40
0.123997723254571
40
0.1503745974895
40
0.1503745974895
40
0.17675147172443
40
0.17675147172443
40
0.189939908841895
40
0.189939908841895
40
0.203128345959361
40
0.203128345959361
40
0.216316783076827
40
0.216316783076827
40
0.22291100163556
40
0.22291100163556
40
0.229505220194294
40
0.229505220194294
40
0.242693657311761
40
0.242693657311761
40
0.255882094429228
40
0.255882094429228
40
0.269070531546695
40
0.269070531546695
40
0.282258968664162
40
0.282258968664162
40
0.308635842899099
40
0.308635842899099
40
0.335012717134035
40
0.335012717134035
40
0.387766465603905
40
0.387766465603905
40
0.41414333983884
40
0.41414333983884
40
0.440520214073776
40
0.440520214073776
40
0.453708651191243
40
0.453708651191243
40
0.466897088308711
40
0.493273962543646
40
0.493273962543646
40
0.546027711013516
40
0.546027711013516
40
0.598781459483387
40
0.598781459483387
40
0.625158333718322
40
0.625158333718322
40
0.651535207953258
40
0.651535207953258
40
0.664723645070724
40
0.664723645070724
40
0.677912082188191
40
0.677912082188191
40
0.704288956423124
40
0.704288956423124
40
0.710883174981858
40
0.710883174981858
40
0.717477393540592
40
0.717477393540592
40
0.730665830658058
40
0.730665830658058
40
0.743854267775524
40
0.743854267775524
40
0.750448486334257
40
0.750448486334257
40
0.753745595613624
40
0.753745595613624
40
0.757042704892991
40
0.757042704892991
40
0.77023114201046
40
0.77023114201046
40
0.773528251289827
40
0.773528251289827
40
0.776825360569195
40
0.783419579127929
40
0.783419579127929
40
0.786716688407296
40
0.786716688407296
40
0.790013797686664
40
0.790013797686664
40
0.796608016245399
40
0.796608016245399
40
0.803202234804134
40
0.803202234804134
40
0.806499344083501
40
0.806499344083501
40
0.809796453362868
40
0.809796453362868
40
0.816390671921604
40
0.816390671921604
40
0.822984890480339
40
0.822984890480339
40
0.826281999759707
40
0.826281999759707
40
0.829579109039075
40
0.829579109039075
40
0.83617332759781
40
0.83617332759781
40
0.842767546156546
40
0.842767546156546
40
0.849361764715281
40
0.849361764715281
40
0.862550201832751
40
0.862550201832751
40
0.88892707606769
40
0.88892707606769
40
0.90211551318516
40
0.90211551318516
40
0.915303950302629
40
0.915303950302629
40
0.941680824537569
40
0.941680824537569
40
0.968057698772509
40
0.968057698772509
40
0.994434573007449
40
0.994434573007449
40
1
40
1
40
1
40
1
41
1
10
10.202619476758
20
-3.35137662259058
30
0
41
1
10
10.1404555232736
20
-3.3512972024451
30
0
41
1
10
10.0781825942043
20
-3.35079941242091
30
0
41
1
10
9.83774916184908
20
-3.34734538413792
30
0
41
1
10
9.65861323316238
20
-3.34154750261041
30
0
41
1
10
9.2972552508262
20
-3.32485687740146
30
0
41
1
10
9.11508217631177
20
-3.31396629901548
30
0
41
1
10
8.83930026933757
20
-3.29490439995368
30
0
41
1
10
8.74694976588358
20
-3.28809561233402
30
0
41
1
10
8.561172858948
20
-3.27385383486526
30
0
41
1
10
8.467698024648
20
-3.26644886699643
30
0
41
1
10
8.32683396973425
20
-3.25494914595177
30
0
41
1
10
8.2797802757554
20
-3.25104567102772
30
0
41
1
10
8.18567117591462
20
-3.24300105608924
30
0
41
1
10
8.13860938772325
20
-3.23886454566761
30
0
41
1
10
8.04486006845039
20
-3.23012175803913
30
0
41
1
10
7.99816402387646
20
-3.22552372499575
30
0
41
1
10
7.92903647458098
20
-3.21782936631675
30
0
41
1
10
7.90615409786761
20
-3.21512599993656
30
0
41
1
10
7.86078744040182
20
-3.20937083440393
30
0
41
1
10
7.83830705329865
20
-3.20631599175789
30
0
41
1
10
7.77135434728851
20
-3.19666089004642
30
0
41
1
10
7.72732860186886
20
-3.18958555226658
30
0
41
1
10
7.63879722920603
20
-3.1752635944853
30
0
41
1
10
7.59427645576656
20
-3.16803761660219
30
0
41
1
10
7.50424897723519
20
-3.15390268240719
30
0
41
1
10
7.45871757296641
20
-3.14696586993969
30
0
41
1
10
7.36726005853285
20
-3.13335480012992
30
0
41
1
10
7.32135437244361
20
-3.12667038717748
30
0
41
1
10
7.18318186826863
20
-3.10696303282782
30
0
41
1
10
7.09044445048127
20
-3.09430871620603
30
0
41
1
10
6.90361249647921
20
-3.07063178811251
30
0
41
1
10
6.8095282742774
20
-3.05959641431301
30
0
41
1
10
6.52557777626862
20
-3.02890168013536
30
0
41
1
10
6.33404701486512
20
-3.01161576306899
30
0
41
1
10
6.04376721831039
20
-2.99113111356266
30
0
41
1
10
5.94651073992151
20
-2.98519979986719
30
0
41
1
10
5.75109036832498
20
-2.97509442112693
30
0
41
1
10
5.65292780219866
20
-2.97091701739817
30
0
41
1
10
5.50503377465802
20
-2.9659710982711
30
0
41
1
10
5.45557589162735
20
-2.96454218675046
30
0
41
1
10
5.35680953447169
20
-2.96213838747559
30
0
41
1
10
5.20881856238469
20
-2.95921013086883
30
0
41
1
10
5.06128972202089
20
-2.95828090797505
30
0
41
1
10
4.76681330454565
20
-2.95895390263542
30
0
41
1
10
4.57125879922944
20
-2.962740929413
30
0
41
1
10
4.18168701442818
20
-2.97675632459092
30
0
41
1
10
3.98767026350183
20
-2.98699643657733
30
0
41
1
10
3.6979887342635
20
-3.00736145966508
30
0
41
1
10
3.60165429522883
20
-3.01498825863027
30
0
41
1
10
3.40951307697833
20
-3.0320308625929
30
0
41
1
10
3.31370552115533
20
-3.04144592391478
30
0
41
1
10
3.17047908422427
20
-3.05703815281495
30
0
41
1
10
3.12281818615509
20
-3.06248114700321
30
0
41
1
10
3.02768250822655
20
-3.07389424939464
30
0
41
1
10
2.98012262383418
20
-3.07987605059716
30
0
41
1
10
2.83861958581107
20
-3.09857174688384
30
0
41
1
10
2.7457448754185
20
-3.1120295745385
30
0
41
1
10
2.63224075318195
20
-3.13030412743663
30
0
41
1
10
2.60967205830087
20
-3.13403266449009
30
0
41
1
10
2.56483147171394
20
-3.14164708556811
30
0
41
1
10
2.54253849800301
20
-3.14553699852218
30
0
41
1
10
2.47650737440529
20
-3.15739834120433
30
0
41
1
10
2.43351827711635
20
-3.16557593789
30
0
41
1
10
2.3501501130018
20
-3.18251611994697
30
0
41
1
10
2.30975855513123
20
-3.19127637282938
30
0
41
1
10
2.25182092107764
20
-3.2049222564973
30
0
41
1
10
2.23295448235831
20
-3.2095558938874
30
0
41
1
10
2.20546694885346
20
-3.2166485319982
30
0
41
1
10
2.19644021901755
20
-3.2190364678593
30
0
41
1
10
2.1786881608316
20
-3.2238624562402
30
0
41
1
10
2.16994184976897
20
-3.22630667097451
30
0
41
1
10
2.12737861746524
20
-3.23856449689973
30
0
41
1
10
2.09694868215968
20
-3.24849423241767
30
0
41
1
10
2.06519943658378
20
-3.26096765754679
30
0
41
1
10
2.05914911212625
20
-3.26347486286034
30
0
41
1
10
2.04788684195319
20
-3.268434517755
30
0
41
1
10
2.03223790395779
20
-3.27579320514206
30
0
41
1
10
2.02045915965036
20
-3.28288434908089
30
0
41
1
10
2.01141584933248
20
-3.28975533440178
30
0
41
1
10
2.00885699281707
20
-3.29200888006301
30
0
41
1
10
2.00467824025282
20
-3.29643464262043
30
0
41
1
10
2.00305380138639
20
-3.29861662426902
30
0
41
1
10
1.99967898778235
20
-3.30495097849223
30
0
41
1
10
1.99941267258549
20
-3.30887426265815
30
0
41
1
10
2.00258477690625
20
-3.31613988318551
30
0
41
1
10
2.00603019283932
20
-3.31948216260997
30
0
41
1
10
2.013770838358
20
-3.32407189104617
30
0
41
1
10
2.01677481671956
20
-3.32552658024466
30
0
41
1
10
2.02347398940302
20
-3.32826181824109
30
0
41
1
10
2.02717733439118
20
-3.32954783450691
30
0
41
1
10
2.03922657579477
20
-3.33317976561935
30
0
41
1
10
2.04849998865887
20
-3.33530046454121
30
0
41
1
10
2.06913307785098
20
-3.33901396776361
30
0
41
1
10
2.08049924092927
20
-3.34060609550528
30
0
41
1
10
2.09905749529725
20
-3.34263683278954
30
0
41
1
10
2.10550511095985
20
-3.34325459510825
30
0
41
1
10
2.11877366634175
20
-3.34437167008565
30
0
41
1
10
2.12560255627551
20
-3.34487206271822
30
0
41
1
10
2.14649654908823
20
-3.34621469754481
30
0
41
1
10
2.16092909249016
20
-3.34690125894662
30
0
41
1
10
2.18976563530924
20
-3.34790147059397
30
0
41
1
10
2.20418626785354
20
-3.34821310404357
30
0
41
1
10
2.2328116476051
20
-3.34845924707497
30
0
41
1
10
2.24703259553797
20
-3.34839307838504
30
0
41
1
10
2.28953139745784
20
-3.34762073065016
30
0
41
1
10
2.3176683515812
20
-3.34634034773515
30
0
41
1
10
2.40198792861952
20
-3.34019609033496
30
0
41
1
10
2.45797163080979
20
-3.33302352530424
30
0
41
1
10
2.54254622877585
20
-3.31770237131607
30
0
41
1
10
2.57085588627746
20
-3.31183724483665
30
0
41
1
10
2.62797328927582
20
-3.29863111772616
30
0
41
1
10
2.65682653672232
20
-3.29127870991698
30
0
41
1
10
2.74402720660413
20
-3.26719539283553
30
0
41
1
10
2.8030384111037
20
-3.24844935897326
30
0
41
1
10
2.92309615866952
20
-3.20611665835918
30
0
41
1
10
2.98409829175995
20
-3.18251531190205
30
0
41
1
10
3.10874254737331
20
-3.13106718827902
30
0
41
1
10
3.17243474259379
20
-3.10323247528035
30
0
41
1
10
3.25177422542583
20
-3.06744662497317
30
0
41
1
10
3.26567933729413
20
-3.06113549023181
30
0
41
1
10
3.27966689680008
20
-3.0547511248823
30
0
0
SPLINE
5
C4
100
AcDbEntity
8
1
62
256
6
ByLayer
370
18
48
1
60
0
100
AcDbSpline
70
4
71
3
72
155
73
151
40
0
40
0
40
0
40
0
40
0.0084718555155251
40
0.0084718555155251
40
0.0174462605394899
40
0.0174462605394899
40
0.0353950705874195
40
0.0353950705874195
40
0.0533438806353491
40
0.0533438806353491
40
0.0712926906832787
40
0.0712926906832787
40
0.0802670957072436
40
0.0802670957072436
40
0.0892415007312084
40
0.0892415007312084
40
0.0982159057551733
40
0.0982159057551733
40
0.107190310779138
40
0.107190310779138
40
0.125139120827069
40
0.125139120827069
40
0.143087930875
40
0.143087930875
40
0.161036740922931
40
0.161036740922931
40
0.170011145946896
40
0.170011145946896
40
0.178985550970861
40
0.178985550970861
40
0.196934361018791
40
0.196934361018791
40
0.214883171066723
40
0.214883171066723
40
0.232831981114653
40
0.232831981114653
40
0.241806386138619
40
0.241806386138619
40
0.250780791162584
40
0.250780791162584
40
0.25975519618655
40
0.25975519618655
40
0.268729601210515
40
0.268729601210515
40
0.286678411258447
40
0.286678411258447
40
0.304627221306379
40
0.304627221306379
40
0.322576031354312
40
0.322576031354312
40
0.331550436378277
40
0.331550436378277
40
0.340524841402243
40
0.340524841402243
40
0.358473651450174
40
0.358473651450174
40
0.376422461498105
40
0.376422461498105
40
0.394371271546036
40
0.394371271546036
40
0.403345676570002
40
0.403345676570002
40
0.412320081593967
40
0.412320081593967
40
0.421294486617934
40
0.421294486617934
40
0.4302688916419
40
0.4302688916419
40
0.448217701689833
40
0.448217701689833
40
0.466166511737767
40
0.466166511737767
40
0.475140916761733
40
0.475140916761733
40
0.4841153217857
40
0.4841153217857
40
0.502064131833632
40
0.502064131833632
40
0.520012941881565
40
0.520012941881565
40
0.537961751929497
40
0.537961751929497
40
0.546936156953462
40
0.546936156953462
40
0.555910561977428
40
0.564884967001393
40
0.564884967001393
40
0.573859372025359
40
0.573859372025359
40
0.591808182073289
40
0.591808182073289
40
0.600782587097255
40
0.600782587097255
40
0.60975699212122
40
0.60975699212122
40
0.627705802169152
40
0.627705802169152
40
0.636680207193118
40
0.636680207193118
40
0.645654612217083
40
0.645654612217083
40
0.663603422265014
40
0.663603422265014
40
0.681552232312945
40
0.681552232312945
40
0.699501042360876
40
0.699501042360876
40
0.70847544738484
40
0.70847544738484
40
0.717449852408805
40
0.717449852408805
40
0.735398662456736
40
0.735398662456736
40
0.753347472504667
40
0.753347472504667
40
0.771296282552598
40
0.771296282552598
40
0.780270687576563
40
0.780270687576563
40
0.789245092600528
40
0.789245092600528
40
0.807193902648458
40
0.807193902648458
40
0.825142712696387
40
0.825142712696387
40
0.843091522744317
40
0.843091522744317
40
0.861040332792247
40
0.861040332792247
40
0.870014737816212
40
0.870014737816212
40
0.878989142840177
40
0.878989142840177
40
0.896937952888108
40
0.896937952888108
40
0.914886762936039
40
0.914886762936039
40
0.93283557298397
40
0.93283557298397
40
0.941809978007936
40
0.941809978007936
40
0.950784383031902
40
0.950784383031902
40
0.959758788055868
40
0.959758788055868
40
0.968733193079835
40
0.968733193079835
40
0.986682003127767
40
0.986682003127767
40
1
40
1
40
1
40
1
41
1
10
24.1309285241381
20
2.17614028856826
30
0
41
1
10
24.1995194932098
20
2.20490479484593
30
0
41
1
10
24.2680983323789
20
2.23329628407961
30
0
41
1
10
24.4092934027851
20
2.29099495932226
30
0
41
1
10
24.4819161632877
20
2.32024435778666
30
0
41
1
10
24.6999122458271
20
2.40648515651691
30
0
41
1
10
24.8454515452669
20
2.461918421685
30
0
41
1
10
25.1372641479696
20
2.5682811095279
30
0
41
1
10
25.2834372584399
20
2.61934385759003
30
0
41
1
10
25.5760625155789
20
2.7174652499111
30
0
41
1
10
25.7225408167196
20
2.7644790097504
30
0
41
1
10
25.9430582012524
20
2.83126734781834
30
0
41
1
10
26.0167656016264
20
2.85292722929907
30
0
41
1
10
26.1639763957245
20
2.89484697850963
30
0
41
1
10
26.2375023961492
20
2.91512812118486
30
0
41
1
10
26.3843379315399
20
2.95440253189619
30
0
41
1
10
26.457649294441
20
2.97339361857999
30
0
41
1
10
26.6040371821793
20
3.01010281591223
30
0
41
1
10
26.6771063358876
20
3.02782600961589
30
0
41
1
10
26.8960772253552
20
3.07898308537443
30
0
41
1
10
27.0417724500692
20
3.11037521658699
30
0
41
1
10
27.3331461006974
20
3.16745450730846
30
0
41
1
10
27.4787563654651
20
3.19320680781806
30
0
41
1
10
27.7694716295144
20
3.23936680069903
30
0
41
1
10
27.9145379530049
20
3.25977235762184
30
0
41
1
10
28.1322195493149
20
3.28610268581767
30
0
41
1
10
28.2047937250044
20
3.29416882731104
30
0
41
1
10
28.3500365556983
20
3.30886630004218
30
0
41
1
10
28.4227056123942
20
3.31549887832415
30
0
41
1
10
28.6407640626739
20
3.33328626769148
30
0
41
1
10
28.7861725331582
20
3.3423419407188
30
0
41
1
10
29.0769601365415
20
3.35476506956124
30
0
41
1
10
29.2224230029791
20
3.35810356933985
30
0
41
1
10
29.5141502920401
20
3.3589671864074
30
0
41
1
10
29.660438562993
20
3.35651626088102
30
0
41
1
10
29.8802054546689
20
3.34847119763941
30
0
41
1
10
29.9535193310429
20
3.34505880745164
30
0
41
1
10
30.1002537154056
20
3.33674651574603
30
0
41
1
10
30.1736815917606
20
3.33184672544479
30
0
41
1
10
30.3207611082785
20
3.32056584602671
30
0
41
1
10
30.3943658021462
20
3.31418777005982
30
0
41
1
10
30.5413076243353
20
3.3000320799535
30
0
41
1
10
30.6147196727429
20
3.29225360924022
30
0
41
1
10
30.8347632106587
20
3.26684394805193
30
0
41
1
10
30.9811541326819
20
3.24712652959866
30
0
41
1
10
31.2730625631729
20
3.20202886423905
30
0
41
1
10
31.4186004470159
20
3.17663902179441
30
0
41
1
10
31.7095847287231
20
3.12065292200362
30
0
41
1
10
31.8550881008341
20
3.09011355543899
30
0
41
1
10
32.07317245756
20
3.04041392046355
30
0
41
1
10
32.1458315487841
20
3.0231917297686
30
0
41
1
10
32.2910560176529
20
2.98741129138597
30
0
41
1
10
32.3636129844321
20
2.96884505068076
30
0
41
1
10
32.581244389817
20
2.91121257050457
30
0
41
1
10
32.7263115170946
20
2.87023577536701
30
0
41
1
10
33.0169716946556
20
2.78375483957899
30
0
41
1
10
33.1625085166255
20
2.73821255767993
30
0
41
1
10
33.453627697879
20
2.64209956397303
30
0
41
1
10
33.5991665024841
20
2.5914595814757
30
0
41
1
10
33.8179500194724
20
2.51215233712154
30
0
41
1
10
33.8909588736801
20
2.48516296928034
30
0
41
1
10
34.0372066405518
20
2.43016638365091
30
0
41
1
10
34.1104492744513
20
2.40216533601963
30
0
41
1
10
34.2571129341116
20
2.34507895822694
30
0
41
1
10
34.3305307670045
20
2.31598901733821
30
0
41
1
10
34.4775066219389
20
2.25665580709054
30
0
41
1
10
34.5511099947028
20
2.22638724697191
30
0
41
1
10
34.771812590953
20
2.13397072071524
30
0
41
1
10
34.9184343122272
20
2.07046694990578
30
0
41
1
10
35.2113226296119
20
1.94073603179314
30
0
41
1
10
35.3576172906262
20
1.87456122358594
30
0
41
1
10
35.5765386361559
20
1.77289849021878
30
0
41
1
10
35.6494277718287
20
1.73861316539697
30
0
41
1
10
35.7950220389641
20
1.66922100208998
30
0
41
1
10
35.8677339637442
20
1.63412466966363
30
0
41
1
10
36.0857667671857
20
1.52788307410134
30
0
41
1
10
36.2310206103887
20
1.45584390595195
30
0
41
1
10
36.5216935792413
20
1.30999477001058
30
0
41
1
10
36.6670146971097
20
1.23602444227347
30
0
41
1
10
36.9573451192199
20
1.08549724993736
30
0
41
1
10
37.1023605068916
20
1.00894289432097
30
0
41
1
10
37.32021462602
20
0.893144309269985
30
0
41
1
10
37.3928871317465
20
0.854383409593396
30
0
41
1
10
37.538379450426
20
0.77661125498156
30
0
41
1
10
37.684000172301
20
0.69855539393194
30
0
41
1
10
37.8297556235632
20
0.619708725091783
30
0
41
1
10
37.9755571711538
20
0.540421383958233
30
0
41
1
10
38.0484718753756
20
0.500540143878965
30
0
41
1
10
38.2673717640634
20
0.380385666221031
30
0
41
1
10
38.4135497544161
20
0.299668528026757
30
0
41
1
10
38.6336315799277
20
0.178520591970141
30
0
41
1
10
38.7071200916383
20
0.138111928145321
30
0
41
1
10
38.8542926871384
20
0.0571237500003292
30
0
41
1
10
38.9280183399234
20
0.0165148302430111
30
0
41
1
10
39.1486174675987
20
-0.105205200512614
30
0
41
1
10
39.2950928437729
20
-0.186466901922245
30
0
41
1
10
39.5144106278347
20
-0.30759318543852
30
0
41
1
10
39.5874533153336
20
-0.347836666850526
30
0
41
1
10
39.7334809378309
20
-0.427936466163032
30
0
41
1
10
39.8064704949251
20
-0.467784570025685
30
0
41
1
10
40.0252806525976
20
-0.586892536938421
30
0
41
1
10
40.1709115417513
20
-0.665775164846906
30
0
41
1
10
40.4615426286815
20
-0.82275119325223
30
0
41
1
10
40.6066189878185
20
-0.900700350738532
30
0
41
1
10
40.8969724171993
20
-1.05431965552214
30
0
41
1
10
41.0422857188017
20
-1.12993357993278
30
0
41
1
10
41.2601648558733
20
-1.24208804280596
30
0
41
1
10
41.3327780675732
20
-1.27925752167843
30
0
41
1
10
41.4779581575303
20
-1.35319542034679
30
0
41
1
10
41.5505290833248
20
-1.38995649918797
30
0
41
1
10
41.7683361478887
20
-1.49935452224687
30
0
41
1
10
41.9136995418068
20
-1.57105019511295
30
0
41
1
10
42.2051512320581
20
-1.71130710914846
30
0
41
1
10
42.3511455901696
20
-1.78002742844865
30
0
41
1
10
42.643381833603
20
-1.91508484013113
30
0
41
1
10
42.7896179791045
20
-1.98142287744338
30
0
41
1
10
43.0097161840388
20
-2.07822844596154
30
0
41
1
10
43.0832050552271
20
-2.11004961839481
30
0
41
1
10
43.2304746757936
20
-2.17272719479979
30
0
41
1
10
43.3040960701003
20
-2.20353393988796
30
0
41
1
10
43.524546250402
20
-2.29439065667796
30
0
41
1
10
43.6710431546025
20
-2.35298376142953
30
0
41
1
10
43.9631826504382
20
-2.46609065747637
30
0
41
1
10
44.1089181006131
20
-2.52047092459429
30
0
41
1
10
44.4003229999022
20
-2.62422677945727
30
0
41
1
10
44.545953427825
20
-2.67366872988603
30
0
41
1
10
44.8366856971563
20
-2.76815670005163
30
0
41
1
10
44.9817389079254
20
-2.8132361752879
30
0
41
1
10
45.199322878949
20
-2.87709348817933
30
0
41
1
10
45.271855901635
20
-2.89774981426317
30
0
41
1
10
45.4170002181126
20
-2.93774840534661
30
0
41
1
10
45.4896188298903
20
-2.95708508965069
30
0
41
1
10
45.7075351285402
20
-3.01319042620168
30
0
41
1
10
45.8528603050275
20
-3.04808674912996
30
0
41
1
10
46.1434228125834
20
-3.11293322262
30
0
41
1
10
46.2887266091897
20
-3.14281678516863
30
0
41
1
10
46.5800671532803
20
-3.19700623225336
30
0
41
1
10
46.7261464431178
20
-3.22130610309543
30
0
41
1
10
46.9456055745597
20
-3.25370751470544
30
0
41
1
10
47.0188159074528
20
-3.26383071625489
30
0
41
1
10
47.1653310295977
20
-3.28271208244337
30
0
41
1
10
47.2386368368138
20
-3.29146849024286
30
0
41
1
10
47.3854484564497
20
-3.30755173362741
30
0
41
1
10
47.4590272173007
20
-3.31488386822787
30
0
41
1
10
47.6060770887313
20
-3.32805199239121
30
0
41
1
10
47.6795317208731
20
-3.33388659181503
30
0
41
1
10
47.8997157823092
20
-3.34917383653479
30
0
41
1
10
48.0462081966193
20
-3.35643463262275
30
0
41
1
10
48.30062178034
20
-3.3640579375859
30
0
41
1
10
48.4087366155198
20
-3.36570439634306
30
0
41
1
10
48.5167511794971
20
-3.36575146383251
30
0
0
SPLINE
5
C5
100
AcDbEntity
8
1
62
256
6
ByLayer
370
18
48
1
60
0
100
AcDbSpline
70
4
71
3
72
46
73
42
40
0
40
0
40
0
40
0
40
0.0385847682464384
40
0.0385847682464384
40
0.102679117030015
40
0.102679117030015
40
0.166773465813591
40
0.166773465813591
40
0.230867814597168
40
0.230867814597168
40
0.262914988988954
40
0.262914988988954
40
0.294962163380741
40
0.294962163380741
40
0.327009337772526
40
0.327009337772526
40
0.359056512164313
40
0.359056512164313
40
0.423150860947885
40
0.423150860947885
40
0.487245209731457
40
0.487245209731457
40
0.519292384123243
40
0.519292384123243
40
0.551339558515029
40
0.551339558515029
40
0.615433907298597
40
0.615433907298597
40
0.679528256082165
40
0.679528256082165
40
0.743622604865731
40
0.743622604865731
40
0.775669779257515
40
0.775669779257515
40
0.807716953649299
40
0.807716953649299
40
0.871811302432867
40
0.871811302432867
40
0.935905651216433
40
0.935905651216433
40
1
40
1
40
1
40
1
41
1
10
62.3595798236588
20
2.1811186524821
30
0
41
1
10
62.446897946068
20
2.21805411914889
30
0
41
1
10
62.5342444020594
20
2.25426129056217
30
0
41
1
10
62.7668416772862
20
2.34857796480247
30
0
41
1
10
62.9120967280341
20
2.4054842561481
30
0
41
1
10
63.2024793440514
20
2.51564364359697
30
0
41
1
10
63.347639328563
20
2.56884121137355
30
0
41
1
10
63.6386302885211
20
2.67054666395467
30
0
41
1
10
63.7845159934137
20
2.71900519787275
30
0
41
1
10
64.0037224180502
20
2.78833761150338
30
0
41
1
10
64.0768487698999
20
2.81089373438218
30
0
41
1
10
64.2231962165927
20
2.854904667829
30
0
41
1
10
64.2964100299783
20
2.87636615266558
30
0
41
1
10
64.4430104703491
20
2.91809207179205
30
0
41
1
10
64.516400914496
20
2.93835277391744
30
0
41
1
10
64.6634454669145
20
2.97758360338253
30
0
41
1
10
64.7369659776047
20
2.99651672896155
30
0
41
1
10
64.9572120339399
20
3.05113583344269
30
0
41
1
10
65.1037331385772
20
3.08474400369869
30
0
41
1
10
65.3958210845275
20
3.14669310389266
30
0
41
1
10
65.5413502754986
20
3.17503685246933
30
0
41
1
10
65.7594006148965
20
3.21327314433853
30
0
41
1
10
65.8320429861435
20
3.22530822217672
30
0
41
1
10
65.9773142942084
20
3.24793813742249
30
0
41
1
10
66.0499417464171
20
3.25853518917245
30
0
41
1
10
66.2677092123936
20
3.28823671823707
30
0
41
1
10
66.4127018704847
20
3.30526836491731
30
0
41
1
10
66.7022270500283
20
3.33377511041434
30
0
41
1
10
66.8468435260131
20
3.34520676508083
30
0
41
1
10
67.1364315431816
20
3.36229456766628
30
0
41
1
10
67.2814260286988
20
3.36796923078575
30
0
41
1
10
67.4989123803404
20
3.37222816168693
30
0
41
1
10
67.571409569069
20
3.37293604300015
30
0
41
1
10
67.7163943135058
20
3.37291190139681
30
0
41
1
10
67.7888888906667
20
3.37217861626542
30
0
41
1
10
68.0065315176538
20
3.36780408166754
30
0
41
1
10
68.1518742892763
20
3.36198976028737
30
0
41
1
10
68.4434143063929
20
3.34464307959826
30
0
41
1
10
68.5895134175805
20
3.33310541855263
30
0
41
1
10
68.8821063577375
20
3.30410091517447
30
0
41
1
10
69.0286115282745
20
3.28661362441269
30
0
41
1
10
69.1756970315327
20
3.26623716731339
30
0
0
SPLINE
5
C6
100
AcDbEntity
8
1
62
256
6
ByLayer
370
18
48
1
60
0
100
AcDbSpline
70
4
71
3
72
144
73
140
40
0
40
0
40
0
40
0
40
0.0001595802275138
40
0.0001595802275138
40
0.0101332499235137
40
0.0101332499235137
40
0.015120084771513
40
0.015120084771513
40
0.0201069196195123
40
0.0201069196195123
40
0.0400542590115096
40
0.0400542590115096
40
0.0600015984035069
40
0.0600015984035069
40
0.0799489377955042
40
0.0799489377955042
40
0.0899226074915029
40
0.0899226074915029
40
0.0998962771875015
40
0.0998962771875015
40
0.1198436165795
40
0.1198436165795
40
0.139790955971499
40
0.139790955971499
40
0.159738295363497
40
0.159738295363497
40
0.179685634755496
40
0.179685634755496
40
0.189659304451495
40
0.189659304451495
40
0.199632974147495
40
0.199632974147495
40
0.209606643843494
40
0.209606643843494
40
0.219580313539493
40
0.229553983235493
40
0.229553983235493
40
0.239527652931492
40
0.239527652931492
40
0.259474992323489
40
0.259474992323489
40
0.279422331715487
40
0.279422331715487
40
0.299369671107484
40
0.299369671107484
40
0.319317010499481
40
0.319317010499481
40
0.339264349891478
40
0.339264349891478
40
0.349238019587476
40
0.349238019587476
40
0.359211689283474
40
0.359211689283474
40
0.369185358979472
40
0.369185358979472
40
0.37915902867547
40
0.37915902867547
40
0.399106368067466
40
0.399106368067466
40
0.419053707459462
40
0.419053707459462
40
0.439001046851459
40
0.439001046851459
40
0.458948386243455
40
0.458948386243455
40
0.478895725635451
40
0.478895725635451
40
0.488869395331449
40
0.488869395331449
40
0.498843065027447
40
0.498843065027447
40
0.508816734723445
40
0.508816734723445
40
0.518790404419442
40
0.518790404419442
40
0.538737743811439
40
0.538737743811439
40
0.548711413507436
40
0.548711413507436
40
0.558685083203435
40
0.558685083203435
40
0.57863242259543
40
0.57863242259543
40
0.598579761987427
40
0.598579761987427
40
0.618527101379423
40
0.618527101379423
40
0.628500771075421
40
0.628500771075421
40
0.638474440771419
40
0.638474440771419
40
0.658421780163415
40
0.658421780163415
40
0.678369119555411
40
0.678369119555411
40
0.698316458947407
40
0.698316458947407
40
0.718263798339403
40
0.718263798339403
40
0.723250633187403
40
0.723250633187403
40
0.728237468035402
40
0.738211137731403
40
0.738211137731403
40
0.758158477123403
40
0.758158477123403
40
0.768132146819403
40
0.768132146819403
40
0.778105816515404
40
0.778105816515404
40
0.798053155907404
40
0.798053155907404
40
0.818000495299404
40
0.818000495299404
40
0.837947834691404
40
0.837947834691404
40
0.857895174083404
40
0.857895174083404
40
0.877842513475404
40
0.877842513475404
40
0.887816183171404
40
0.887816183171404
40
0.892803018019403
40
0.892803018019403
40
0.897789852867403
40
0.897789852867403
40
0.907763522563402
40
0.907763522563402
40
0.917737192259402
40
0.917737192259402
40
0.937684531651402
40
0.937684531651402
40
0.957631871043402
40
0.957631871043402
40
0.977579210435402
40
0.977579210435402
40
0.997526549827402
40
0.997526549827402
40
1
40
1
40
1
40
1
41
1
10
62.3589051627808
20
-2.18562370170267
30
0
41
1
10
62.3576020474785
20
-2.18617271012269
30
0
41
1
10
62.3562988999619
20
-2.18672156230468
30
0
41
1
10
62.2735477470671
20
-2.22156341199931
30
0
41
1
10
62.1919856770517
20
-2.25526479624568
30
0
41
1
10
62.069489073763
20
-2.30495211149946
30
0
41
1
10
62.0286314219364
20
-2.32137055301968
30
0
41
1
10
61.9468697821444
20
-2.35392471129532
30
0
41
1
10
61.9059472855351
20
-2.37006758932253
30
0
41
1
10
61.7015929942435
20
-2.44994855493309
30
0
41
1
10
61.5387748011443
20
-2.51126001220317
30
0
41
1
10
61.2137709740637
20
-2.62786806947275
30
0
41
1
10
61.051505975342
20
-2.68308603917799
30
0
41
1
10
60.7275551851629
20
-2.78761141478654
30
0
41
1
10
60.5659607201167
20
-2.83700773605966
30
0
41
1
10
60.3238710313535
20
-2.90651565501347
30
0
41
1
10
60.2432147373736
20
-2.92891078173633
30
0
41
1
10
60.0818789287244
20
-2.97206678308859
30
0
41
1
10
60.0011972029207
20
-2.99282706775804
30
0
41
1
10
59.7591422411919
20
-3.0526992883317
30
0
41
1
10
59.5977834718496
20
-3.08942784633621
30
0
41
1
10
59.2751952951687
20
-3.15653723803669
30
0
41
1
10
59.1139059702491
20
-3.1868577148631
30
0
41
1
10
58.7905981774515
20
-3.24056141289171
30
0
41
1
10
58.628612905021
20
-3.26398554251489
30
0
41
1
10
58.3042276047755
20
-3.30404194517095
30
0
41
1
10
58.1418634866778
20
-3.32066813759224
30
0
41
1
10
57.8975510623513
20
-3.34022497831373
30
0
41
1
10
57.8159730808742
20
-3.34584585906001
30
0
41
1
10
57.6525079414727
20
-3.35528194458235
30
0
41
1
10
57.5706158240973
20
-3.35909699948095
30
0
41
1
10
57.4072671471346
20
-3.3649002256671
30
0
41
1
10
57.3257258925161
20
-3.36689459223092
30
0
41
1
10
57.1629317018913
20
-3.36907518435856
30
0
41
1
10
57.0004103435375
20
-3.36944454842057
30
0
41
1
10
56.8382751502301
20
-3.36619992284759
30
0
41
1
10
56.6762283512796
20
-3.36117269225414
30
0
41
1
10
56.5952440663616
20
-3.35776981982539
30
0
41
1
10
56.3524351451942
20
-3.34492016391636
30
0
41
1
10
56.1907751389533
20
-3.33283501428448
30
0
41
1
10
55.8680125234231
20
-3.30159169035105
30
0
41
1
10
55.7068550755362
20
-3.28243039998316
30
0
41
1
10
55.3842457110444
20
-3.23736390756025
30
0
41
1
10
55.2228186202419
20
-3.21147050867708
30
0
41
1
10
54.8999666362349
20
-3.15282878192346
30
0
41
1
10
54.7385884653448
20
-3.12003081890379
30
0
41
1
10
54.4152701590827
20
-3.04783891756159
30
0
41
1
10
54.2532401460099
20
-3.00852876939723
30
0
41
1
10
54.009659882234
20
-2.94472002766079
30
0
41
1
10
53.9283857675907
20
-2.92263474756578
30
0
41
1
10
53.7657070003086
20
-2.87678169678628
30
0
41
1
10
53.6842957614425
20
-2.85301893258708
30
0
41
1
10
53.5212504600095
20
-2.80387746114653
30
0
41
1
10
53.4396059925853
20
-2.77849479469791
30
0
41
1
10
53.2760347983688
20
-2.7262265367346
30
0
41
1
10
53.1943455758948
20
-2.69942960517793
30
0
41
1
10
52.9495806314927
20
-2.61706086877129
30
0
41
1
10
52.7868264365035
20
-2.55949353457282
30
0
41
1
10
52.4623151362277
20
-2.43889660213114
30
0
41
1
10
52.3005082752489
20
-2.37591686539042
30
0
41
1
10
51.9770350111539
20
-2.24564691642541
30
0
41
1
10
51.815384429608
20
-2.17834937209821
30
0
41
1
10
51.4924944579995
20
-2.03912875387243
30
0
41
1
10
51.331309213838
20
-1.96711536027354
30
0
41
1
10
51.0088254076433
20
-1.81920089216794
30
0
41
1
10
50.847433967801
20
-1.74345031668875
30
0
41
1
10
50.6051221959528
20
-1.62715643784264
30
0
41
1
10
50.5243227518831
20
-1.5879330054041
30
0
41
1
10
50.3627034596051
20
-1.5084995408302
30
0
41
1
10
50.2818788076829
20
-1.46829663050312
30
0
41
1
10
50.1201215551483
20
-1.38703940707384
30
0
41
1
10
50.0391896265957
20
-1.34598377527016
30
0
41
1
10
49.8771176699512
20
-1.26318951468656
30
0
41
1
10
49.7959681913243
20
-1.22146806261301
30
0
41
1
10
49.5521832978066
20
-1.09532484882203
30
0
41
1
10
49.3892308579797
20
-1.00989513695922
30
0
41
1
10
49.1442917215793
20
-0.879435300547271
30
0
41
1
10
49.0624606426829
20
-0.835540315826137
30
0
41
1
10
48.8991124826564
20
-0.747493564812146
30
0
41
1
10
48.8175631030284
20
-0.703329069855073
30
0
41
1
10
48.5731339544515
20
-0.570702460172498
30
0
41
1
10
48.4104835736039
20
-0.482085926940584
30
0
41
1
10
48.0860096968652
20
-0.304024006401619
30
0
41
1
10
47.9242482494498
20
-0.214464334508136
30
0
41
1
10
47.6010566388642
20
-0.0354444420819675
30
0
41
1
10
47.4395302331698
20
0.05383804313783
30
0
41
1
10
47.1973186293022
20
0.187380343695622
30
0
41
1
10
47.1166034409536
20
0.231847482208963
30
0
41
1
10
46.9552571729955
20
0.320761093654596
30
0
41
1
10
46.8746231261332
20
0.365201966223822
30
0
41
1
10
46.6327239464193
20
0.498265456513906
30
0
41
1
10
46.4714280371533
20
0.586566594767675
30
0
41
1
10
46.1482395305037
20
0.761376372275464
30
0
41
1
10
45.9864228080666
20
0.84802482604664
30
0
41
1
10
45.6625596952002
20
1.02018918849151
30
0
41
1
10
45.5004754048652
20
1.10563431571947
30
0
41
1
10
45.1752478844274
20
1.27388920717328
30
0
41
1
10
45.0120909599874
20
1.35667702025378
30
0
41
1
10
44.8075992451983
20
1.45871892029192
30
0
41
1
10
44.7666639870769
20
1.47906260996464
30
0
41
1
10
44.6849152418042
20
1.51952399068247
30
0
41
1
10
44.5624100166355
20
1.57990107513646
30
0
41
1
10
44.4402202102845
20
1.63926726819099
30
0
41
1
10
44.1961260497194
20
1.75643731856826
30
0
41
1
10
44.0336959224374
20
1.83233768097787
30
0
41
1
10
43.7904369214078
20
1.94286150038093
30
0
41
1
10
43.7094247187151
20
1.97916335040099
30
0
41
1
10
43.5475893621969
20
2.05075116424769
30
0
41
1
10
43.4667655202822
20
2.08603503171602
30
0
41
1
10
43.2244607264457
20
2.19018420293767
30
0
41
1
10
43.0631175111407
20
2.25730095235207
30
0
41
1
10
42.7402478445232
20
2.3861765287574
30
0
41
1
10
42.5787939809487
20
2.44804655566548
30
0
41
1
10
42.2560828307921
20
2.56692860845504
30
0
41
1
10
42.0947932698251
20
2.62388378474873
30
0
41
1
10
41.7716116356216
20
2.73193500191198
30
0
41
1
10
41.6096908592746
20
2.78301574419572
30
0
41
1
10
41.2854056576437
20
2.87950072823338
30
0
41
1
10
41.1231153953917
20
2.9249664490678
30
0
41
1
10
40.8790391061507
20
2.98850940076966
30
0
41
1
10
40.7975635808275
20
3.00890640331434
30
0
41
1
10
40.6751133345298
20
3.03827001889107
30
0
41
1
10
40.6342593713241
20
3.04785466438153
30
0
41
1
10
40.552479599618
20
3.06661909566282
30
0
41
1
10
40.5115316563105
20
3.07580364222494
30
0
41
1
10
40.3887807844187
20
3.10270900899357
30
0
41
1
10
40.3070741806197
20
3.1197825461785
30
0
41
1
10
40.1439542968331
20
3.15224151585892
30
0
41
1
10
40.0625439165565
20
3.16762741168699
30
0
41
1
10
39.8186481866014
20
3.21118496504218
30
0
41
1
10
39.6564749049955
20
3.23673522576769
30
0
41
1
10
39.3323730685436
20
3.28068457044125
30
0
41
1
10
39.1705125330191
20
3.29913626353019
30
0
41
1
10
38.8474151107108
20
3.32911370779436
30
0
41
1
10
38.6861511799841
20
3.34060684369763
30
0
41
1
10
38.3634608064679
20
3.35644909121675
30
0
41
1
10
38.2019953538088
20
3.36081481237511
30
0
41
1
10
38.020491897746
20
3.36175707260668
30
0
41
1
10
38.0004694957936
20
3.36180653635324
30
0
41
1
10
37.9804475688952
20
3.36180144543909
30
0
0
SPLINE
5
C7
100
AcDbEntity
8
1
62
256
6
ByLayer
370
18
48
1
60
0
100
AcDbSpline
70
4
71
3
72
99
73
95
40
0
40
0
40
0
40
0
40
0.0113552939571401
40
0.0113552939571401
40
0.0254787897577512
40
0.0254787897577512
40
0.0396022855583624
40
0.0396022855583624
40
0.0537257813589736
40
0.0537257813589736
40
0.0678492771595847
40
0.0678492771595847
40
0.0960962687608071
40
0.0960962687608071
40
0.12434326036203
40
0.12434326036203
40
0.152590251963252
40
0.152590251963252
40
0.180837243564475
40
0.180837243564475
40
0.209084235165697
40
0.209084235165697
40
0.223207730966308
40
0.223207730966308
40
0.23733122676692
40
0.23733122676692
40
0.265578218368142
40
0.265578218368142
40
0.293825209969365
40
0.293825209969365
40
0.307948705769976
40
0.307948705769976
40
0.322072201570587
40
0.322072201570587
40
0.350319193171811
40
0.350319193171811
40
0.378566184773035
40
0.378566184773035
40
0.392689680573647
40
0.392689680573647
40
0.406813176374259
40
0.420936672174872
40
0.420936672174872
40
0.435060167975484
40
0.435060167975484
40
0.463307159576708
40
0.463307159576708
40
0.491554151177932
40
0.491554151177932
40
0.519801142779155
40
0.519801142779155
40
0.533924638579768
40
0.540986386480074
40
0.540986386480074
40
0.548048134380381
40
0.548048134380381
40
0.576295125981607
40
0.576295125981607
40
0.59041862178222
40
0.59041862178222
40
0.604542117582833
40
0.618665613383447
40
0.618665613383447
40
0.63278910918406
40
0.63278910918406
40
0.661036100785286
40
0.661036100785286
40
0.689283092386512
40
0.689283092386512
40
0.717530083987738
40
0.717530083987738
40
0.745777075588964
40
0.745777075588964
40
0.77402406719019
40
0.77402406719019
40
0.788147562990804
40
0.788147562990804
40
0.802271058791417
40
0.802271058791417
40
0.81639455459203
40
0.81639455459203
40
0.830518050392643
40
0.830518050392643
40
0.858765041993869
40
0.858765041993869
40
0.887012033595096
40
0.887012033595096
40
0.915259025196322
40
0.915259025196322
40
0.943506016797548
40
0.943506016797548
40
0.971753008398774
40
0.971753008398774
40
1
40
1
40
1
40
1
41
1
10
24.1302111953381
20
-2.17622078246774
30
0
41
1
10
24.0649575028124
20
-2.20364013538068
30
0
41
1
10
23.9996614632744
20
-2.23072257479879
30
0
41
1
10
23.8530283327673
20
-2.29068741651304
30
0
41
1
10
23.7716513848019
20
-2.32336027965459
30
0
41
1
10
23.6086036223507
20
-2.387423246412
30
0
41
1
10
23.5269330851348
20
-2.4188145146276
30
0
41
1
10
23.3633193130926
20
-2.4803421562284
30
0
41
1
10
23.2813456177683
20
-2.51048693823597
30
0
41
1
10
23.1178598319672
20
-2.56930815637421
30
0
41
1
10
23.036271804787
20
-2.59802841289922
30
0
41
1
10
22.7918997717081
20
-2.68203207640667
30
0
41
1
10
22.6294938985529
20
-2.73513081460322
30
0
41
1
10
22.3049745862457
20
-2.8348346838128
30
0
41
1
10
22.1429033939355
20
-2.88150772447526
30
0
41
1
10
21.8193981517705
20
-2.96881053144941
30
0
41
1
10
21.657982614222
20
-3.00943526604186
30
0
41
1
10
21.3351429354415
20
-3.084056744534
30
0
41
1
10
21.1736395425441
20
-3.11801012435652
30
0
41
1
10
20.8505788727762
20
-3.17934170905343
30
0
41
1
10
20.6891133928443
20
-3.20676820699862
30
0
41
1
10
20.4467487187516
20
-3.24282867508035
30
0
41
1
10
20.3659223703393
20
-3.25399686828905
30
0
41
1
10
20.2040895672438
20
-3.27458130863181
30
0
41
1
10
20.1230800143767
20
-3.28399766598321
30
0
41
1
10
19.8798032354116
20
-3.30963564689444
30
0
41
1
10
19.717312341668
20
-3.32326093582358
30
0
41
1
10
19.3918161472474
20
-3.34346744117855
30
0
41
1
10
19.2287497030328
20
-3.35001445981325
30
0
41
1
10
18.9831199404761
20
-3.35435573411624
30
0
41
1
10
18.9012934112948
20
-3.35488988163493
30
0
41
1
10
18.7379235542097
20
-3.35415405087659
30
0
41
1
10
18.6563539989638
20
-3.35288474840405
30
0
41
1
10
18.4120505261211
20
-3.34638084138885
30
0
41
1
10
18.2497431231055
20
-3.3384334931161
30
0
41
1
10
17.925566945894
20
-3.31548468346514
30
0
41
1
10
17.7636147245784
20
-3.30052224548535
30
0
41
1
10
17.5209550575471
20
-3.27291608456341
30
0
41
1
10
17.4401221398807
20
-3.26284886818971
30
0
41
1
10
17.278585040559
20
-3.2409693678961
30
0
41
1
10
17.1171608602171
20
-3.21734993813027
30
0
41
1
10
16.9558054411308
20
-3.1903174720043
30
0
41
1
10
16.7943814367205
20
-3.16164271832571
30
0
41
1
10
16.7136302533058
20
-3.14648852675961
30
0
41
1
10
16.4712880683804
20
-3.09857159823145
30
0
41
1
10
16.3096295791286
20
-3.06334672884381
30
0
41
1
10
15.9862506908202
20
-2.98615765250807
30
0
41
1
10
15.8244737934776
20
-2.94421803815575
30
0
41
1
10
15.4999981236466
20
-2.85426931517003
30
0
41
1
10
15.3373262998889
20
-2.80625883766035
30
0
41
1
10
15.0928480464376
20
-2.72944141346338
30
0
41
1
10
14.9705027769308
20
-2.68981433672602
30
0
41
1
10
14.8479151396716
20
-2.6484245267439
30
0
41
1
10
14.7661248537741
20
-2.62045091025041
30
0
41
1
10
14.7251846173794
20
-2.60626938257187
30
0
41
1
10
14.5207198436918
20
-2.53459935420997
30
0
41
1
10
14.3575172067171
20
-2.4748121108978
30
0
41
1
10
14.1132967829914
20
-2.3814918670314
30
0
41
1
10
14.0319962808662
20
-2.34976584563932
30
0
41
1
10
13.8696341402717
20
-2.28504040126342
30
0
41
1
10
13.7074957339491
20
-2.21906108409968
30
0
41
1
10
13.5456478550371
20
-2.15079397616657
30
0
41
1
10
13.3838415785972
20
-2.08153861334978
30
0
41
1
10
13.3029528777399
20
-2.04642682264927
30
0
41
1
10
13.0603544310385
20
-1.93961704506563
30
0
41
1
10
12.8987315902416
20
-1.86641959889542
30
0
41
1
10
12.5758561585768
20
-1.71579800776735
30
0
41
1
10
12.4145511163081
20
-1.63844470156627
30
0
41
1
10
12.0914615358846
20
-1.4808573300914
30
0
41
1
10
11.929696753633
20
-1.40060337967006
30
0
41
1
10
11.6059712369187
20
-1.23675210882109
30
0
41
1
10
11.4440613385541
20
-1.15305590271615
30
0
41
1
10
11.1194952490744
20
-0.983207756399366
30
0
41
1
10
10.9567479432056
20
-0.897228444023767
30
0
41
1
10
10.7119413501494
20
-0.766644687956386
30
0
41
1
10
10.6302335993367
20
-0.722830843067698
30
0
41
1
10
10.4666376764686
20
-0.634559031186711
30
0
41
1
10
10.3847219715753
20
-0.590100781163187
30
0
41
1
10
10.2212678178709
20
-0.501059571261834
30
0
41
1
10
10.1396496246872
20
-0.456433217540649
30
0
41
1
10
9.97652617798667
20
-0.367164264154837
30
0
41
1
10
9.89501287705983
20
-0.322536607698169
30
0
41
1
10
9.65063491484179
20
-0.188639235523681
30
0
41
1
10
9.48795146241264
20
-0.0993182810346696
30
0
41
1
10
9.16322143512892
20
0.0797464142857507
30
0
41
1
10
9.00112368735293
20
0.169392910222996
30
0
41
1
10
8.67669551082014
20
0.347503986859664
30
0
41
1
10
8.51438158215797
20
0.436001497116649
30
0
41
1
10
8.18980128128726
20
0.612334049345634
30
0
41
1
10
8.02758811028951
20
0.700263713923107
30
0
41
1
10
7.7026731509859
20
0.874475272152068
30
0
41
1
10
7.53987865582232
20
0.96059144469794
30
0
41
1
10
7.21362755460743
20
1.13086589936944
30
0
41
1
10
7.05019120038043
20
1.21506112618334
30
0
41
1
10
6.88655876233486
20
1.29850676223126
30
0
0
SPLINE
5
C8
100
AcDbEntity
8
1
62
256
6
ByLayer
370
18
48
1
60
0
100
AcDbSpline
70
4
71
3
72
69
73
65
40
0
40
0
40
0
40
0
40
0.0559190309037396
40
0.0559190309037396
40
0.111838061807479
40
0.111838061807479
40
0.13979757725935
40
0.13979757725935
40
0.16775709271122
40
0.16775709271122
40
0.223676123614962
40
0.223676123614962
40
0.279595154518703
40
0.279595154518703
40
0.335514185422444
40
0.335514185422444
40
0.391433216326186
40
0.391433216326186
40
0.447352247229927
40
0.447352247229927
40
0.475311762681799
40
0.475311762681799
40
0.50327127813367
40
0.50327127813367
40
0.517251035859605
40
0.517251035859605
40
0.53123079358554
40
0.53123079358554
40
0.545210551311475
40
0.545210551311475
40
0.552200430174442
40
0.552200430174442
40
0.559190309037408
40
0.559190309037408
40
0.573170066763341
40
0.573170066763341
40
0.587149824489274
40
0.587149824489274
40
0.601129582215207
40
0.601129582215207
40
0.61510933994114
40
0.61510933994114
40
0.643068855393006
40
0.643068855393006
40
0.671028370844872
40
0.671028370844872
40
0.726947401748605
40
0.726947401748605
40
0.75490691720047
40
0.75490691720047
40
0.782866432652335
40
0.782866432652335
40
0.796846190378267
40
0.796846190378267
40
0.8108259481042
40
0.838785463556067
40
0.838785463556067
40
0.894704494459799
40
0.894704494459799
40
0.950623525363531
40
0.950623525363531
40
0.978583040815397
40
0.978583040815397
40
1
40
1
40
1
40
1
41
1
10
13.1734468264221
20
2.98013979263158
30
0
41
1
10
12.9992842570684
20
3.02514362831241
30
0
41
1
10
12.8250011120691
20
3.06598993496036
30
0
41
1
10
12.4758752670103
20
3.13943004580938
30
0
41
1
10
12.3010307286383
20
3.17202847592117
30
0
41
1
10
12.0383009683164
20
3.21487152949976
30
0
41
1
10
11.9506002890787
20
3.22814997213169
30
0
41
1
10
11.775256783517
20
3.25265018593328
30
0
41
1
10
11.687661682464
20
3.2638660524147
30
0
41
1
10
11.4249842223285
20
3.29441168277626
30
0
41
1
10
11.2500102261374
20
3.31061895063559
30
0
41
1
10
10.8993187349216
20
3.33490348492504
30
0
41
1
10
10.7235855160983
20
3.34299240998698
30
0
41
1
10
10.3708081405969
20
3.35177318348363
30
0
41
1
10
10.1938147758889
20
3.35246056587226
30
0
41
1
10
9.83774916184802
20
3.34734538413792
30
0
41
1
10
9.65861323316128
20
3.34154750261035
30
0
41
1
10
9.297255250825
20
3.3248568774014
30
0
41
1
10
9.11508217631058
20
3.31396629901542
30
0
41
1
10
8.83930026933632
20
3.2949043999536
30
0
41
1
10
8.74694976588228
20
3.28809561233393
30
0
41
1
10
8.56117285894669
20
3.27385383486518
30
0
41
1
10
8.46769802464667
20
3.26644886699634
30
0
41
1
10
8.32683396973295
20
3.25494914595166
30
0
41
1
10
8.27978027575401
20
3.25104567102761
30
0
41
1
10
8.18567117591326
20
3.24300105608913
30
0
41
1
10
8.13860938772186
20
3.2388645456675
30
0
41
1
10
8.04486006844903
20
3.23012175803902
30
0
41
1
10
7.99816402387506
20
3.22552372499561
30
0
41
1
10
7.92903647457959
20
3.21782936631661
30
0
41
1
10
7.90615409786628
20
3.21512599993639
30
0
41
1
10
7.86078744040049
20
3.20937083440376
30
0
41
1
10
7.83830705329731
20
3.20631599175769
30
0
41
1
10
7.77135434728717
20
3.19666089004622
30
0
41
1
10
7.72732860186753
20
3.18958555226635
30
0
41
1
10
7.6387972292047
20
3.17526359448507
30
0
41
1
10
7.5942764557652
20
3.16803761660196
30
0
41
1
10
7.50424897723383
20
3.15390268240697
30
0
41
1
10
7.45871757296504
20
3.14696586993949
30
0
41
1
10
7.36726005853131
20
3.1333548001297
30
0
41
1
10
7.32135437244202
20
3.12667038717726
30
0
41
1
10
7.18318186826684
20
3.10696303282757
30
0
41
1
10
7.09044445047937
20
3.09430871620577
30
0
41
1
10
6.90361249647714
20
3.07063178811225
30
0
41
1
10
6.80952827427518
20
3.05959641431275
30
0
41
1
10
6.52557777626623
20
3.02890168013514
30
0
41
1
10
6.33404701486265
20
3.01161576306879
30
0
41
1
10
6.04376721830795
20
2.99113111356252
30
0
41
1
10
5.94651073991906
20
2.98519979986705
30
0
41
1
10
5.75109036832259
20
2.97509442112681
30
0
41
1
10
5.6529278021963
20
2.97091701739808
30
0
41
1
10
5.50503377465574
20
2.96597109827101
30
0
41
1
10
5.45557589162505
20
2.96454218675041
30
0
41
1
10
5.35680953446928
20
2.96213838747553
30
0
41
1
10
5.20881856238208
20
2.9592101308688
30
0
41
1
10
5.06128972201816
20
2.95828090797505
30
0
41
1
10
4.76681330454258
20
2.95895390263544
30
0
41
1
10
4.5712587992262
20
2.96274092941309
30
0
41
1
10
4.18168701442471
20
2.97675632459109
30
0
41
1
10
3.98767026349827
20
2.98699643657753
30
0
41
1
10
3.69798873425981
20
3.00736145966536
30
0
41
1
10
3.60165429522516
20
3.01498825863058
30
0
41
1
10
3.43199370139442
20
3.03003686889264
30
0
41
1
10
3.35855806436493
20
3.03708859437691
30
0
41
1
10
3.2853038371448
20
3.04470338941513
30
0
0
SPLINE
5
C9
100
AcDbEntity
8
1
62
256
6
ByLayer
370
18
48
1
60
0
100
AcDbSpline
70
4
71
3
72
43
73
39
40
0
40
0
40
0
40
0
40
0.008320528436787
40
0.008320528436787
40
0.0325078326212546
40
0.0325078326212546
40
0.0808824409901897
40
0.0808824409901897
40
0.105069745174657
40
0.105069745174657
40
0.129257049359124
40
0.129257049359124
40
0.177631657728062
40
0.177631657728062
40
0.226006266096999
40
0.226006266096999
40
0.274380874465936
40
0.274380874465936
40
0.322755482834873
40
0.322755482834873
40
0.37113009120381
40
0.37113009120381
40
0.419504699572747
40
0.419504699572747
40
0.516253916310619
40
0.516253916310619
40
0.61300313304849
40
0.61300313304849
40
0.709752349786362
40
0.709752349786362
40
0.733939653970831
40
0.733939653970831
40
0.7581269581553
40
0.80650156652424
40
0.80650156652424
40
0.90325078326212
40
0.90325078326212
40
1
40
1
40
1
40
1
41
1
10
2.23186963062366
20
3.34839604422035
30
0
41
1
10
2.2416799712606
20
3.34839933979185
30
0
41
1
10
2.25145235872498
20
3.3483127562599
30
0
41
1
10
2.28953139746025
20
3.34762073065008
30
0
41
1
10
2.31766835158359
20
3.34634034773501
30
0
41
1
10
2.40198792862185
20
3.3401960903347
30
0
41
1
10
2.45797163081207
20
3.3330235253039
30
0
41
1
10
2.54254622877812
20
3.31770237131562
30
0
41
1
10
2.5708558862797
20
3.31183724483614
30
0
41
1
10
2.62797328927809
20
3.29863111772559
30
0
41
1
10
2.65682653672457
20
3.29127870991636
30
0
41
1
10
2.74402720660629
20
3.26719539283488
30
0
41
1
10
2.80303841110586
20
3.24844935897252
30
0
41
1
10
2.92309615867163
20
3.20611665835838
30
0
41
1
10
2.98409829176194
20
3.18251531190123
30
0
41
1
10
3.1087425473753
20
3.13106718827817
30
0
41
1
10
3.17243474259581
20
3.10323247527944
30
0
41
1
10
3.30346647669796
20
3.04413098060499
30
0
41
1
10
3.37081291414955
20
3.01287240268593
30
0
41
1
10
3.5093695283791
20
2.94753599296672
30
0
41
1
10
3.58055816185589
20
2.91345257117277
30
0
41
1
10
3.72656368573467
20
2.84283340956134
30
0
41
1
10
3.80065031643994
20
2.80664633039541
30
0
41
1
10
4.02580539343029
20
2.69598658904314
30
0
41
1
10
4.17978848736664
20
2.61942057781815
30
0
41
1
10
4.49463549199913
20
2.4627547881725
30
0
41
1
10
4.65551618101506
20
2.38265589463006
30
0
41
1
10
4.9834156951033
20
2.22016272091449
30
0
41
1
10
5.15043009972629
20
2.13775702491799
30
0
41
1
10
5.36257618269275
20
2.03371740018741
30
0
41
1
10
5.40519209534165
20
2.01284829606405
30
0
41
1
10
5.49057688903633
20
1.97109701082039
30
0
41
1
10
5.6189367461572
20
1.90842408858023
30
0
41
1
10
5.74811253786669
20
1.84563019432292
30
0
41
1
10
6.00747143086693
20
1.71990480412967
30
0
41
1
10
6.18171904169944
20
1.6359095645681
30
0
41
1
10
6.53250660130399
20
1.46754059471885
30
0
41
1
10
6.70904786010783
20
1.38316721223612
30
0
41
1
10
6.88655345730257
20
1.29850488253504
30
0
0
SPLINE
5
CA
100
AcDbEntity
8
1
62
256
6
ByLayer
370
18
48
1
60
0
100
AcDbSpline
70
4
71
3
72
104
73
100
40
0
40
0
40
0
40
0
40
0.0269789025256187
40
0.0269789025256187
40
0.0539578050512374
40
0.0539578050512374
40
0.0809367075768562
40
0.0809367075768562
40
0.107915610102475
40
0.107915610102475
40
0.121405061365285
40
0.121405061365285
40
0.134894512628095
40
0.134894512628095
40
0.161873415153713
40
0.161873415153713
40
0.188852317679332
40
0.188852317679332
40
0.215831220204951
40
0.215831220204951
40
0.229320671467761
40
0.229320671467761
40
0.24281012273057
40
0.24281012273057
40
0.25629957399338
40
0.25629957399338
40
0.26978902525619
40
0.26978902525619
40
0.29676792778181
40
0.29676792778181
40
0.323746830307429
40
0.323746830307429
40
0.337236281570239
40
0.337236281570239
40
0.350725732833049
40
0.350725732833049
40
0.37770463535867
40
0.37770463535867
40
0.404683537884291
40
0.404683537884291
40
0.431662440409911
40
0.431662440409911
40
0.458641342935532
40
0.458641342935532
40
0.472130794198342
40
0.472130794198342
40
0.485620245461153
40
0.485620245461153
40
0.512599147986773
40
0.512599147986773
40
0.526088599249584
40
0.526088599249584
40
0.539578050512394
40
0.539578050512394
40
0.566556953038015
40
0.566556953038015
40
0.580046404300826
40
0.580046404300826
40
0.593535855563636
40
0.593535855563636
40
0.620514758089258
40
0.620514758089258
40
0.64749366061488
40
0.64749366061488
40
0.674472563140503
40
0.674472563140503
40
0.687962014403314
40
0.687962014403314
40
0.701451465666126
40
0.701451465666126
40
0.72843036819175
40
0.72843036819175
40
0.755409270717374
40
0.755409270717374
40
0.782388173242997
40
0.782388173242997
40
0.795877624505809
40
0.795877624505809
40
0.809367075768621
40
0.809367075768621
40
0.822856527031433
40
0.822856527031433
40
0.836345978294245
40
0.836345978294245
40
0.863324880819866
40
0.863324880819866
40
0.890303783345488
40
0.890303783345488
40
0.91728268587111
40
0.91728268587111
40
0.930772137133921
40
0.930772137133921
40
0.944261588396732
40
0.944261588396732
40
0.971240490922356
40
0.971240490922356
40
0.998219393447979
40
0.998219393447979
40
1
40
1
40
1
40
1
41
1
10
13.173405058606
20
2.98013230724996
30
0
41
1
10
13.3205084742224
20
2.942779939828
30
0
41
1
10
13.4674669638649
20
2.90315117308526
30
0
41
1
10
13.7608171834086
20
2.81924331151796
30
0
41
1
10
13.9072045132586
20
2.77495893209317
30
0
41
1
10
14.1991276255248
20
2.68144897844937
30
0
41
1
10
14.3447068151963
20
2.6322555093642
30
0
41
1
10
14.635825101118
20
2.52985784261773
30
0
41
1
10
14.7814118405298
20
2.47672648029709
30
0
41
1
10
14.9995949426712
20
2.39387587809185
30
0
41
1
10
15.0722869646397
20
2.36572825103241
30
0
41
1
10
15.2175770449024
20
2.30833537950289
30
0
41
1
10
15.290169753107
20
2.27908211919544
30
0
41
1
10
15.5079378930541
20
2.18984064144021
30
0
41
1
10
15.6531320011177
20
2.12840709398478
30
0
41
1
10
15.9440719747871
20
2.00244203299076
30
0
41
1
10
16.0897409714303
20
1.93781097658234
30
0
41
1
10
16.3811373335101
20
1.80470238861759
30
0
41
1
10
16.5268323173011
20
1.73615832250755
30
0
41
1
10
16.7459062295507
20
1.6311671154514
30
0
41
1
10
16.8190182467322
20
1.59580731718884
30
0
41
1
10
16.965482682831
20
1.5244748550497
30
0
41
1
10
17.0388315564818
20
1.48849719768262
30
0
41
1
10
17.1857022441993
20
1.41581314459847
30
0
41
1
10
17.2592213883659
20
1.3791018245785
30
0
41
1
10
17.4064019795437
20
1.30488228899557
30
0
41
1
10
17.4801033803151
20
1.26733741832294
30
0
41
1
10
17.7006381741941
20
1.15397188190568
30
0
41
1
10
17.847189917172
20
1.077395178816
30
0
41
1
10
18.1400038537992
20
0.923440388723321
30
0
41
1
10
18.2862712720666
20
0.846072978212902
30
0
41
1
10
18.5051567340682
20
0.728878914904641
30
0
41
1
10
18.5780341923459
20
0.689626494466921
30
0
41
1
10
18.7236222314851
20
0.610749236821192
30
0
41
1
10
18.7963417560079
20
0.571140778998142
30
0
41
1
10
19.0144282511205
20
0.452084350608629
30
0
41
1
10
19.1597625661429
20
0.372477929193877
30
0
41
1
10
19.4505886304115
20
0.213298059546247
30
0
41
1
10
19.595980833549
20
0.133541354792811
30
0
41
1
10
19.8864729362918
20
-0.0267716408637284
30
0
41
1
10
20.0316094080186
20
-0.107261174065769
30
0
41
1
10
20.3223912585071
20
-0.267556711301211
30
0
41
1
10
20.4680910354496
20
-0.347260617986905
30
0
41
1
10
20.6868865231753
20
-0.466554683191561
30
0
41
1
10
20.7598544947684
20
-0.506284832586033
30
0
41
1
10
20.9058416317105
20
-0.585716197872046
30
0
41
1
10
20.9788538439748
20
-0.625430456675673
30
0
41
1
10
21.1980865676979
20
-0.744308344815266
30
0
41
1
10
21.3445337341738
20
-0.823150157388454
30
0
41
1
10
21.5650423495948
20
-0.940048872330181
30
0
41
1
10
21.638695884406
20
-0.978825360467681
30
0
41
1
10
21.7860935434836
20
-1.05603220661763
30
0
41
1
10
21.8596746233657
20
-1.09437941647027
30
0
41
1
10
22.0800319303394
20
-1.20871557165509
30
0
41
1
10
22.2263670401966
20
-1.28409070739292
30
0
41
1
10
22.4455519405567
20
-1.3949379640172
30
0
41
1
10
22.5185598161879
20
-1.43152086931252
30
0
41
1
10
22.6645364598049
20
-1.50384957380504
30
0
41
1
10
22.7375019657878
20
-1.53960182146693
30
0
41
1
10
22.9562395023044
20
-1.64578752827828
30
0
41
1
10
23.1018183666279
20
-1.71520746108169
30
0
41
1
10
23.3924204519022
20
-1.85138217427254
30
0
41
1
10
23.5375310926826
20
-1.91798966069689
30
0
41
1
10
23.8280135582479
20
-2.04729292421837
30
0
41
1
10
23.9733993877781
20
-2.10998204350909
30
0
41
1
10
24.1913832628318
20
-2.20153512186224
30
0
41
1
10
24.2640311276581
20
-2.23163424075429
30
0
41
1
10
24.4092934027851
20
-2.29099495932226
30
0
41
1
10
24.4819161632877
20
-2.32024435778666
30
0
41
1
10
24.6999122458271
20
-2.40648515651691
30
0
41
1
10
24.8454515452669
20
-2.46191842168497
30
0
41
1
10
25.1372641479695
20
-2.5682811095279
30
0
41
1
10
25.2834372584399
20
-2.61934385759003
30
0
41
1
10
25.5760625155789
20
-2.71746524991107
30
0
41
1
10
25.7225408167195
20
-2.7644790097504
30
0
41
1
10
25.9430582012524
20
-2.83126734781834
30
0
41
1
10
26.0167656016263
20
-2.85292722929904
30
0
41
1
10
26.1639763957245
20
-2.89484697850961
30
0
41
1
10
26.2375023961491
20
-2.91512812118486
30
0
41
1
10
26.3843379315399
20
-2.95440253189619
30
0
41
1
10
26.457649294441
20
-2.97339361857999
30
0
41
1
10
26.6040371821793
20
-3.01010281591223
30
0
41
1
10
26.6771063358875
20
-3.02782600961589
30
0
41
1
10
26.8960772253551
20
-3.07898308537443
30
0
41
1
10
27.0417724500692
20
-3.11037521658699
30
0
41
1
10
27.3331461006974
20
-3.16745450730846
30
0
41
1
10
27.4787563654651
20
-3.19320680781806
30
0
41
1
10
27.7694716295145
20
-3.23936680069903
30
0
41
1
10
27.9145379530049
20
-3.25977235762184
30
0
41
1
10
28.1322195493149
20
-3.28610268581767
30
0
41
1
10
28.2047937250044
20
-3.29416882731104
30
0
41
1
10
28.3500365556983
20
-3.30886630004218
30
0
41
1
10
28.4227056123942
20
-3.31549887832415
30
0
41
1
10
28.6407640626739
20
-3.33328626769148
30
0
41
1
10
28.7861725331582
20
-3.3423419407188
30
0
41
1
10
29.0769601365415
20
-3.35476506956124
30
0
41
1
10
29.2224230029791
20
-3.35810356933985
30
0
41
1
10
29.3779136425627
20
-3.3585638772206
30
0
41
1
10
29.3875424872864
20
-3.35857981939236
30
0
41
1
10
29.3971731237111
20
-3.35858319584565
30
0
0
SPLINE
5
CB
100
AcDbEntity
8
1
62
256
6
ByLayer
370
18
48
1
60
0
100
AcDbSpline
70
4
71
3
72
152
73
148
40
0
40
0
40
0
40
0
40
0.0056274509453679
40
0.0056274509453679
40
0.023549240457943
40
0.023549240457943
40
0.041471029970518
40
0.041471029970518
40
0.0593928194830931
40
0.0593928194830931
40
0.0773146089956679
40
0.0773146089956679
40
0.0862755037519549
40
0.0862755037519549
40
0.0952363985082417
40
0.0952363985082417
40
0.113158188020815
40
0.113158188020815
40
0.131079977533389
40
0.131079977533389
40
0.149001767045963
40
0.149001767045963
40
0.15796266180225
40
0.15796266180225
40
0.166923556558538
40
0.166923556558538
40
0.175884451314826
40
0.175884451314826
40
0.184845346071113
40
0.184845346071113
40
0.202767135583688
40
0.202767135583688
40
0.220688925096264
40
0.220688925096264
40
0.229649819852551
40
0.229649819852551
40
0.238610714608839
40
0.238610714608839
40
0.256532504121414
40
0.256532504121414
40
0.274454293633989
40
0.274454293633989
40
0.292376083146564
40
0.292376083146564
40
0.310297872659139
40
0.310297872659139
40
0.319258767415427
40
0.319258767415427
40
0.328219662171714
40
0.328219662171714
40
0.346141451684288
40
0.346141451684288
40
0.355102346440575
40
0.355102346440575
40
0.364063241196862
40
0.364063241196862
40
0.381985030709436
40
0.381985030709436
40
0.390945925465722
40
0.390945925465722
40
0.399906820222009
40
0.399906820222009
40
0.417828609734583
40
0.417828609734583
40
0.435750399247156
40
0.435750399247156
40
0.45367218875973
40
0.45367218875973
40
0.462633083516017
40
0.462633083516017
40
0.471593978272304
40
0.471593978272304
40
0.489515767784876
40
0.489515767784876
40
0.507437557297449
40
0.507437557297449
40
0.516398452053735
40
0.516398452053735
40
0.52535934681002
40
0.52535934681002
40
0.543281136322591
40
0.543281136322591
40
0.552242031078876
40
0.552242031078876
40
0.561202925835161
40
0.561202925835161
40
0.579124715347732
40
0.579124715347732
40
0.597046504860303
40
0.597046504860303
40
0.614968294372875
40
0.614968294372875
40
0.62392918912916
40
0.62392918912916
40
0.632890083885446
40
0.632890083885446
40
0.650811873398016
40
0.650811873398016
40
0.668733662910586
40
0.668733662910586
40
0.686655452423156
40
0.686655452423156
40
0.695616347179441
40
0.695616347179441
40
0.704577241935727
40
0.704577241935727
40
0.722499031448297
40
0.722499031448297
40
0.740420820960867
40
0.740420820960867
40
0.758342610473437
40
0.758342610473437
40
0.767303505229721
40
0.767303505229721
40
0.776264399986006
40
0.776264399986006
40
0.794186189498575
40
0.794186189498575
40
0.812107979011143
40
0.812107979011143
40
0.830029768523712
40
0.830029768523712
40
0.847951558036281
40
0.847951558036281
40
0.856912452792565
40
0.856912452792565
40
0.865873347548849
40
0.865873347548849
40
0.874834242305134
40
0.874834242305134
40
0.883795137061418
40
0.883795137061418
40
0.901716926573987
40
0.901716926573987
40
0.919638716086555
40
0.919638716086555
40
0.92859961084284
40
0.92859961084284
40
0.937560505599125
40
0.937560505599125
40
0.955482295111695
40
0.955482295111695
40
0.973404084624265
40
0.973404084624265
40
0.991325874136835
40
0.991325874136835
40
1
40
1
40
1
40
1
41
1
10
43.2390041078968
20
2.1761420814218
30
0
41
1
10
43.2852297476319
20
2.1955752294098
30
0
41
1
10
43.3314318183386
20
2.21480014222234
30
0
41
1
10
43.524546250402
20
2.29439065667796
30
0
41
1
10
43.6710431546025
20
2.35298376142953
30
0
41
1
10
43.9631826504382
20
2.46609065747637
30
0
41
1
10
44.1089181006131
20
2.52047092459429
30
0
41
1
10
44.4003229999022
20
2.62422677945727
30
0
41
1
10
44.545953427825
20
2.67366872988603
30
0
41
1
10
44.8366856971563
20
2.76815670005163
30
0
41
1
10
44.9817389079254
20
2.8132361752879
30
0
41
1
10
45.1993228789489
20
2.87709348817933
30
0
41
1
10
45.271855901635
20
2.89774981426317
30
0
41
1
10
45.4170002181126
20
2.93774840534661
30
0
41
1
10
45.4896188298903
20
2.95708508965069
30
0
41
1
10
45.7075351285402
20
3.01319042620168
30
0
41
1
10
45.8528603050275
20
3.04808674912996
30
0
41
1
10
46.1434228125833
20
3.11293322262
30
0
41
1
10
46.2887266091897
20
3.14281678516863
30
0
41
1
10
46.5800671532804
20
3.19700623225336
30
0
41
1
10
46.7261464431178
20
3.22130610309546
30
0
41
1
10
46.9456055745596
20
3.25370751470544
30
0
41
1
10
47.0188159074528
20
3.26383071625489
30
0
41
1
10
47.1653310295977
20
3.28271208244337
30
0
41
1
10
47.2386368368138
20
3.29146849024286
30
0
41
1
10
47.3854484564497
20
3.30755173362741
30
0
41
1
10
47.4590272173007
20
3.31488386822787
30
0
41
1
10
47.6060770887313
20
3.32805199239121
30
0
41
1
10
47.6795317208731
20
3.33388659181503
30
0
41
1
10
47.8997157823092
20
3.34917383653479
30
0
41
1
10
48.0462081966192
20
3.35643463262275
30
0
41
1
10
48.3383020519001
20
3.36518699758733
30
0
41
1
10
48.4838915910013
20
3.36665585489888
30
0
41
1
10
48.702146280229
20
3.36450282534094
30
0
41
1
10
48.7748747106163
20
3.3630619355211
30
0
41
1
10
48.9203372342311
20
3.35875557341797
30
0
41
1
10
48.9930627581202
20
3.35589045883347
30
0
41
1
10
49.21113078015
20
3.3451593941368
30
0
41
1
10
49.3563267444275
20
3.33515052658106
30
0
41
1
10
49.6463921139268
20
3.30936301575574
30
0
41
1
10
49.7913549128347
20
3.29359958693524
30
0
41
1
10
50.0817605894899
20
3.25660371141549
30
0
41
1
10
50.2271835979256
20
3.2353850381877
30
0
41
1
10
50.5180644977253
20
3.18729149196716
30
0
41
1
10
50.6634734859788
20
3.16036773791544
30
0
41
1
10
50.8819776167387
20
3.11585851229606
30
0
41
1
10
50.9548844272001
20
3.10034143456849
30
0
41
1
10
51.1009092468546
20
3.06799672233456
30
0
41
1
10
51.1740360213189
20
3.05117702586992
30
0
41
1
10
51.3936947659074
20
2.99872829107582
30
0
41
1
10
51.5404680065041
20
2.96108487787694
30
0
41
1
10
51.7609847723531
20
2.9003504188212
30
0
41
1
10
51.8345570591015
20
2.87940123333567
30
0
41
1
10
51.9813697487323
20
2.83635586468671
30
0
41
1
10
52.0546836493461
20
2.8142421538243
30
0
41
1
10
52.2744547316452
20
2.74626006376741
30
0
41
1
10
52.4208063943886
20
2.69883031452082
30
0
41
1
10
52.6398312828308
20
2.62429274291955
30
0
41
1
10
52.7127553149527
20
2.59887917052143
30
0
41
1
10
52.858412535206
20
2.54688704595731
30
0
41
1
10
52.9311447973915
20
2.52030648502722
30
0
41
1
10
53.1492036446271
20
2.43899497065448
30
0
41
1
10
53.2944217256189
20
2.38272924216031
30
0
41
1
10
53.5850161257056
20
2.26675679333064
30
0
41
1
10
53.7303062718341
20
2.20694561155656
30
0
41
1
10
54.0205528072842
20
2.0832193254586
30
0
41
1
10
54.1654856396287
20
2.01925596250922
30
0
41
1
10
54.3831535391435
20
1.92095152044382
30
0
41
1
10
54.4557523219494
20
1.88778889780394
30
0
41
1
10
54.6010972540185
20
1.82077533117771
30
0
41
1
10
54.6738368623776
20
1.78691512634399
30
0
41
1
10
54.8921650001955
20
1.68413144054208
30
0
41
1
10
55.0378262980029
20
1.61394709100494
30
0
41
1
10
55.3293596662819
20
1.47015611277453
30
0
41
1
10
55.475323325408
20
1.39669359268424
30
0
41
1
10
55.6950360520921
20
1.28494866954452
30
0
41
1
10
55.768402547484
20
1.24744602862765
30
0
41
1
10
55.915335335817
20
1.1718272914776
30
0
41
1
10
55.9889338733061
20
1.13368660013322
30
0
41
1
10
56.2097407476444
20
1.0183406654115
30
0
41
1
10
56.3563415703665
20
0.940376193533098
30
0
41
1
10
56.5757581018029
20
0.822608603250018
30
0
41
1
10
56.6488246990377
20
0.783231708312002
30
0
41
1
10
56.7948830866858
20
0.704364557816803
30
0
41
1
10
56.8678842172616
20
0.664891570342974
30
0
41
1
10
57.0867468170768
20
0.546249116552531
30
0
41
1
10
57.2324297503191
20
0.46678623507043
30
0
41
1
10
57.5231194095435
20
0.30670844305024
30
0
41
1
10
57.6681765805473
20
0.226187083386463
30
0
41
1
10
57.9584229805543
20
0.065485056775259
30
0
41
1
10
58.1036635085009
20
-0.0146013264939029
30
0
41
1
10
58.3214553301142
20
-0.134786472863709
30
0
41
1
10
58.3940385579211
20
-0.174862114805393
30
0
41
1
10
58.5391546186
20
-0.255082143670279
30
0
41
1
10
58.6116823506597
20
-0.295235904374294
30
0
41
1
10
58.829322353436
20
-0.415556123534969
30
0
41
1
10
58.974519925226
20
-0.495528987402764
30
0
41
1
10
59.2656418982512
20
-0.654040459247625
30
0
41
1
10
59.4114885955382
20
-0.732722267406615
30
0
41
1
10
59.7034194438195
20
-0.889550430524679
30
0
41
1
10
59.8494725211595
20
-0.967753441334054
30
0
41
1
10
60.069224625601
20
-1.08374694316959
30
0
41
1
10
60.1425861197133
20
-1.12219534988452
30
0
41
1
10
60.2895958821776
20
-1.19854048085295
30
0
41
1
10
60.3632925520674
20
-1.23647161511696
30
0
41
1
10
60.5839021630924
20
-1.34921412348686
30
0
41
1
10
60.730518546735
20
-1.42315510402526
30
0
41
1
10
61.022802509657
20
-1.56865859230197
30
0
41
1
10
61.1685594813032
20
-1.64005785001072
30
0
41
1
10
61.4599522048208
20
-1.7791452926966
30
0
41
1
10
61.6055930035238
20
-1.84684122057376
30
0
41
1
10
61.8236610425064
20
-1.94613304178776
30
0
41
1
10
61.8962866962009
20
-1.97885015624343
30
0
41
1
10
62.0414110239758
20
-2.04351699940665
30
0
41
1
10
62.1139185921573
20
-2.0754527987622
30
0
41
1
10
62.3314288485021
20
-2.16984445513876
30
0
41
1
10
62.476457978717
20
-2.23082927374011
30
0
41
1
10
62.7668416772862
20
-2.3485779648025
30
0
41
1
10
62.9120967280342
20
-2.4054842561481
30
0
41
1
10
63.2024793440514
20
-2.515643643597
30
0
41
1
10
63.347639328563
20
-2.56884121137355
30
0
41
1
10
63.6386302885211
20
-2.6705466639547
30
0
41
1
10
63.7845159934137
20
-2.71900519787275
30
0
41
1
10
64.0037224180502
20
-2.78833761150338
30
0
41
1
10
64.0768487698998
20
-2.81089373438218
30
0
41
1
10
64.2231962165927
20
-2.854904667829
30
0
41
1
10
64.2964100299782
20
-2.87636615266558
30
0
41
1
10
64.4430104703491
20
-2.91809207179205
30
0
41
1
10
64.516400914496
20
-2.93835277391744
30
0
41
1
10
64.6634454669144
20
-2.97758360338256
30
0
41
1
10
64.7369659776047
20
-2.99651672896155
30
0
41
1
10
64.9572120339398
20
-3.05113583344269
30
0
41
1
10
65.1037331385772
20
-3.08474400369869
30
0
41
1
10
65.3958210845275
20
-3.14669310389266
30
0
41
1
10
65.5413502754986
20
-3.17503685246933
30
0
41
1
10
65.7594006148965
20
-3.21327314433853
30
0
41
1
10
65.8320429861435
20
-3.22530822217672
30
0
41
1
10
65.9773142942083
20
-3.24793813742249
30
0
41
1
10
66.049941746417
20
-3.25853518917245
30
0
41
1
10
66.2677092123936
20
-3.28823671823707
30
0
41
1
10
66.4127018704847
20
-3.30526836491731
30
0
41
1
10
66.7022270500283
20
-3.33377511041434
30
0
41
1
10
66.8468435260131
20
-3.3452067650808
30
0
41
1
10
67.1364315431817
20
-3.36229456766628
30
0
41
1
10
67.2814260286988
20
-3.36796923078575
30
0
41
1
10
67.496592362008
20
-3.37218272988076
30
0
41
1
10
67.5667694229327
20
-3.37289000644739
30
0
41
1
10
67.6369421672469
20
-3.37292291934028
30
0
0
SPLINE
5
CC
100
AcDbEntity
8
1
62
256
6
ByLayer
370
18
48
1
60
0
100
AcDbSpline
70
4
71
3
72
8
73
4
40
0
40
0
40
0
40
0
40
1
40
1
40
1
40
1
41
1
10
4.12467607152198
20
2.64530079628531
30
0
41
1
10
4.10145367338095
20
2.65708413485632
30
0
41
1
10
4.0782341560955
20
2.66887709336348
30
0
41
1
10
4.05501903172819
20
2.68067830900557
30
0
0
SPLINE
5
CD
100
AcDbEntity
8
1
62
256
6
ByLayer
370
18
48
1
60
0
100
AcDbSpline
70
4
71
3
72
18
73
14
40
0
40
0
40
0
40
0
40
0.0045733228494596
40
0.0346109170160523
40
0.0659036035898673
40
0.0999074622151801
40
0.178222185318112
40
0.256978613962005
40
0.376098294765768
40
0.488096109143016
40
0.621129458238444
40
0.807341219447589
40
1
40
1
40
1
40
1
41
1
10
66.7077034717175
20
0.0840976524168013
30
0
41
1
10
66.7081006662656
20
0.0852639819643173
30
0
41
1
10
66.7104488726901
20
0.0941887785144502
30
0
41
1
10
66.7045640247924
20
0.112308872129717
30
0
41
1
10
66.673035854867
20
0.141555092011998
30
0
41
1
10
66.5978278573147
20
0.188592372626573
30
0
41
1
10
66.4570805706465
20
0.256314816959133
30
0
41
1
10
66.2409312228662
20
0.35514958660653
30
0
41
1
10
65.9752131957927
20
0.472322940864643
30
0
41
1
10
65.6395519510553
20
0.621907652837479
30
0
41
1
10
65.2388535231034
20
0.807150456576551
30
0
41
1
10
64.7704674092967
20
1.03269712453513
30
0
41
1
10
64.4238206450851
20
1.20737991290866
30
0
41
1
10
64.2480939690301
20
1.29797463708155
30
0
0
SPLINE
5
CE
100
AcDbEntity
8
1
62
256
6
ByLayer
370
18
48
1
60
0
100
AcDbSpline
70
4
71
3
72
11
73
7
40
0
40
0
40
0
40
0
40
0.108764758348523
40
0.562591938588045
40
0.807764462415215
40
1
40
1
40
1
40
1
41
1
10
39.4300406003523
20
-0.250474981122778
30
0
41
1
10
39.4297211227922
20
-0.252196780856423
30
0
41
1
10
39.431499731639
20
-0.262963951169212
30
0
41
1
10
39.455262879435
20
-0.29526755526129
30
0
41
1
10
39.5189297190065
20
-0.329353559686325
30
0
41
1
10
39.5626372642641
20
-0.340650156009673
30
0
41
1
10
39.583019685239
20
-0.345401641621095
30
0
0
SPLINE
5
CF
100
AcDbEntity
8
1
62
256
6
ByLayer
370
18
48
1
60
0
100
AcDbSpline
70
4
71
3
72
18
73
14
40
0
40
0
40
0
40
0
40
0.0076300890959682
40
0.025986056580554
40
0.0462501955634005
40
0.0967857092420361
40
0.205841687020417
40
0.345052655160218
40
0.475804792310552
40
0.583615687071812
40
0.692382568817689
40
0.845308798677153
40
1
40
1
40
1
40
1
41
1
10
48.5331964173114
20
-0.220022384971088
30
0
41
1
10
48.5335501576675
20
-0.218827430084104
30
0
41
1
10
48.5329720285286
20
-0.214248468714913
30
0
41
1
10
48.5196160448263
20
-0.203884015008384
30
0
41
1
10
48.4619557552704
20
-0.177390265789171
30
0
41
1
10
48.2851796342831
20
-0.11083013998325
30
0
41
1
10
47.9384310517432
20
0.0186077817415935
30
0
41
1
10
47.4859238036835
20
0.200189084096991
30
0
41
1
10
47.0371231872344
20
0.392324981425219
30
0
41
1
10
46.622691642979
20
0.575807177827869
30
0
41
1
10
46.1844941125414
20
0.775940997422538
30
0
41
1
10
45.6964011563301
20
1.00999519625557
30
0
41
1
10
45.3363577475283
20
1.19129356880288
30
0
41
1
10
45.1558119186923
20
1.28450077670496
30
0
0
SPLINE
5
D0
100
AcDbEntity
8
1
62
256
6
ByLayer
370
18
48
1
60
0
100
AcDbSpline
70
4
71
3
72
17
73
13
40
0
40
0
40
0
40
0
40
0.0080440201996468
40
0.0583406051898888
40
0.11081152784986
40
0.168814925356298
40
0.238647054026467
40
0.324948855535004
40
0.429369098284657
40
0.598479878425798
40
0.802867709286185
40
1
40
1
40
1
40
1
41
1
10
9.36856295830677
20
0.0569374056009053
30
0
41
1
10
9.36895257266946
20
0.0587954962132073
30
0
41
1
10
9.37106554528989
20
0.0726318273000572
30
0
41
1
10
9.36480594303941
20
0.103715128953695
30
0
41
1
10
9.30632074374051
20
0.150153182881041
30
0
41
1
10
9.20777812828072
20
0.205430061824899
30
0
41
1
10
9.05614018252703
20
0.275834122849574
30
0
41
1
10
8.85211805618633
20
0.366518970017268
30
0
41
1
10
8.55588458533438
20
0.498158370978644
30
0
41
1
10
8.14976853081544
20
0.68179225735264
30
0
41
1
10
7.65822626954772
20
0.911666917589827
30
0
41
1
10
7.31240648967008
20
1.07991332067641
30
0
41
1
10
7.14231744449268
20
1.16417791324525
30
0
0
LINE
5
7D
100
AcDbEntity
8
80
62
256
6
ByLayer
370
18
48
1
60
0
100
AcDbLine
10
0
20
0
30
0
11
-5
21
0
31
0
39
0
210
0
220
0
230
1
0
LINE
5
7E
100
AcDbEntity
8
4
62
256
6
ByLayer
370
18
48
0.05
60
0
100
AcDbLine
10
-5
20
0
30
0
11
76
21
0
31
0
39
0
210
0
220
0
230
1
0
LINE
5
80
100
AcDbEntity
8
SK4
62
256
6
ByLayer
370
18
48
0.05
60
0
100
AcDbLine
10
-43
20
0
30
0
11
76
21
0
31
0
39
0
210
0
220
0
230
1
0
LINE
5
82
100
AcDbEntity
8
81
62
256
6
ByLayer
370
18
48
1
60
0
100
AcDbLine
10
71
20
0
30
0
11
76
21
0
31
0
39
0
210
0
220
0
230
1
0
LINE
5
83
100
AcDbEntity
8
1
62
256
6
ByLayer
370
18
48
1
60
0
100
AcDbLine
10
0
20
3.3735
30
0
11
0
21
-3.3735
31
0
39
0
210
0
220
0
230
1
0
LINE
5
84
100
AcDbEntity
8
1
62
256
6
ByLayer
370
18
48
1
60
0
100
AcDbLine
10
69.175697
20
-3.3735
30
0
11
69.175697
21
-1.360062
31
0
39
0
210
0
220
0
230
1
0
LINE
5
85
100
AcDbEntity
8
1
62
256
6
ByLayer
370
18
48
1
60
0
100
AcDbLine
10
69.175697
20
3.3735
30
0
11
69.175697
21
3.266237
31
0
39
0
210
0
220
0
230
1
0
LINE
5
86
100
AcDbEntity
8
1
62
256
6
ByLayer
370
18
48
1
60
0
100
AcDbLine
10
0.4
20
-3.347709
30
0
11
0.4
21
3.347709
31
0
39
0
210
0
220
0
230
1
0
LINE
5
87
100
AcDbEntity
8
SK1
62
256
6
ByLayer
370
18
48
1
60
0
100
AcDbLine
10
0
20
3.3735
30
0
11
0
21
-3.3735
31
0
39
0
210
0
220
0
230
1
0
LINE
5
89
100
AcDbEntity
8
SK1
62
256
6
ByLayer
370
18
48
1
60
0
100
AcDbLine
10
-38
20
-2.625
30
0
11
-38
21
2.625
31
0
39
0
210
0
220
0
230
1
0
LINE
5
8A
100
AcDbEntity
8
SK1
62
256
6
ByLayer
370
18
48
1
60
0
100
AcDbLine
10
-37.2515
20
-3.3735
30
0
11
-37.2515
21
3.3735
31
0
39
0
210
0
220
0
230
1
0
LINE
5
8B
100
AcDbEntity
8
1
62
256
6
ByLayer
370
18
48
1
60
0
100
AcDbLine
10
71
20
0
30
0
11
69.175697
21
3.3735
31
0
39
0
210
0
220
0
230
1
0
LINE
5
8C
100
AcDbEntity
8
1
62
256
6
ByLayer
370
18
48
1
60
0
100
AcDbLine
10
69.175697
20
-3.3735
30
0
11
71
21
0
31
0
39
0
210
0
220
0
230
1
0
LINE
5
8D
100
AcDbEntity
8
1
62
256
6
ByLayer
370
18
48
1
60
0
100
AcDbLine
10
0.4
20
3.347709
30
0
11
0
21
3.3735
31
0
39
0
210
0
220
0
230
1
0
LINE
5
8E
100
AcDbEntity
8
1
62
256
6
ByLayer
370
18
48
1
60
0
100
AcDbLine
10
0
20
-3.3735
30
0
11
0.4
21
-3.347709
31
0
39
0
210
0
220
0
230
1
0
LINE
5
8F
100
AcDbEntity
8
1
62
256
6
ByLayer
370
18
48
1
60
0
100
AcDbLine
10
0.4
20
-3.347709
30
0
11
2.232112
21
-3.348396
31
0
39
0
210
0
220
0
230
1
0
LINE
5
90
100
AcDbEntity
8
1
62
256
6
ByLayer
370
18
48
1
60
0
100
AcDbLine
10
10.199822
20
-3.351384
30
0
11
18.865912
21
-3.354634
31
0
39
0
210
0
220
0
230
1
0
LINE
5
91
100
AcDbEntity
8
1
62
256
6
ByLayer
370
18
48
1
60
0
100
AcDbLine
10
29.396778
20
-3.358583
30
0
11
37.979934
21
-3.361802
31
0
39
0
210
0
220
0
230
1
0
LINE
5
92
100
AcDbEntity
8
1
62
256
6
ByLayer
370
18
48
1
60
0
100
AcDbLine
10
48.517223
20
-3.365753
30
0
11
57.093724
21
-3.368969
31
0
39
0
210
0
220
0
230
1
0
LINE
5
93
100
AcDbEntity
8
1
62
256
6
ByLayer
370
18
48
1
60
0
100
AcDbLine
10
67.637125
20
-3.372923
30
0
11
69.175697
21
-3.3735
31
0
39
0
210
0
220
0
230
1
0
LINE
5
94
100
AcDbEntity
8
1
62
256
6
ByLayer
370
18
48
1
60
0
100
AcDbLine
10
69.175697
20
3.3735
30
0
11
67.637125
21
3.372923
31
0
39
0
210
0
220
0
230
1
0
LINE
5
95
100
AcDbEntity
8
1
62
256
6
ByLayer
370
18
48
1
60
0
100
AcDbLine
10
57.093724
20
3.368969
30
0
11
48.517223
21
3.365753
31
0
39
0
210
0
220
0
230
1
0
LINE
5
96
100
AcDbEntity
8
1
62
256
6
ByLayer
370
18
48
1
60
0
100
AcDbLine
10
37.979934
20
3.361802
30
0
11
29.396778
21
3.358583
31
0
39
0
210
0
220
0
230
1
0
LINE
5
97
100
AcDbEntity
8
1
62
256
6
ByLayer
370
18
48
1
60
0
100
AcDbLine
10
18.865912
20
3.354634
30
0
11
10.199822
21
3.351384
31
0
39
0
210
0
220
0
230
1
0
LINE
5
98
100
AcDbEntity
8
1
62
256
6
ByLayer
370
18
48
1
60
0
100
AcDbLine
10
2.232112
20
3.348396
30
0
11
0.4
21
3.347709
31
0
39
0
210
0
220
0
230
1
0
LINE
5
99
100
AcDbEntity
8
SK1
62
256
6
ByLayer
370
18
48
1
60
0
100
AcDbLine
10
-37.2515
20
-3.3735
30
0
11
0
21
-3.3735
31
0
39
0
210
0
220
0
230
1
0
LINE
5
9A
100
AcDbEntity
8
SK1
62
256
6
ByLayer
370
18
48
1
60
0
100
AcDbLine
10
0
20
3.3735
30
0
11
-37.2515
21
3.3735
31
0
39
0
210
0
220
0
230
1
0
LINE
5
9B
100
AcDbEntity
8
SK1
62
256
6
ByLayer
370
18
48
1
60
0
100
AcDbLine
10
-38
20
-2.625
30
0
11
-37.2515
21
-3.3735
31
0
39
0
210
0
220
0
230
1
0
LINE
5
9C
100
AcDbEntity
8
SK1
62
256
6
ByLayer
370
18
48
1
60
0
100
AcDbLine
10
-37.2515
20
3.3735
30
0
11
-38
21
2.625
31
0
39
0
210
0
220
0
230
1
0
LINE
5
9D
100
AcDbEntity
8
SK2
62
256
6
ByLayer
370
13
48
1
60
0
100
AcDbLine
10
-44.5
20
30.472127
30
0
11
-44.5
21
-10.8735
31
0
39
0
210
0
220
0
230
1
0
LINE
5
9F
100
AcDbEntity
8
SK2
62
256
6
ByLayer
370
13
48
1
60
0
100
AcDbLine
10
-39.5875
20
3.3735
30
0
11
-46.5
21
3.3735
31
0
39
0
210
0
220
0
230
1
0
LINE
5
A0
100
AcDbEntity
8
SK2
62
256
6
ByLayer
370
13
48
1
60
0
100
AcDbLine
10
-39.5875
20
-3.3735
30
0
11
-46.5
21
-3.3735
31
0
39
0
210
0
220
0
230
1
0
LINE
5
A1
100
AcDbEntity
8
1
62
256
6
ByLayer
370
18
48
1
60
1
100
AcDbLine
10
-44.5
20
3.3735
30
0
11
-44.960784
21
6.873498
31
0
39
0
210
0
220
0
230
1
0
LINE
5
A2
100
AcDbEntity
8
1
62
256
6
ByLayer
370
18
48
1
60
1
100
AcDbLine
10
-44.960784
20
6.873498
30
0
11
-44.039216
21
6.873502
31
0
39
0
210
0
220
0
230
1
0
LINE
5
A3
100
AcDbEntity
8
1
62
256
6
ByLayer
370
18
48
1
60
1
100
AcDbLine
10
-44.039216
20
6.873502
30
0
11
-44.5
21
3.3735
31
0
39
0
210
0
220
0
230
1
0
LINE
5
A4
100
AcDbEntity
8
1
62
256
6
ByLayer
370
18
48
1
60
1
100
AcDbLine
10
-44.5
20
-3.3735
30
0
11
-44.039216
21
-6.873498
31
0
39
0
210
0
220
0
230
1
0
LINE
5
A5
100
AcDbEntity
8
1
62
256
6
ByLayer
370
18
48
1
60
1
100
AcDbLine
10
-44.039216
20
-6.873498
30
0
11
-44.960784
21
-6.873502
31
0
39
0
210
0
220
0
230
1
0
LINE
5
A6
100
AcDbEntity
8
1
62
256
6
ByLayer
370
18
48
1
60
1
100
AcDbLine
10
-44.960784
20
-6.873502
30
0
11
-44.5
21
-3.3735
31
0
39
0
210
0
220
0
230
1
0
LINE
5
A7
100
AcDbEntity
8
2
62
256
6
ByLayer
370
13
48
1
60
0
100
AcDbLine
10
78.675697
20
30.472127
30
0
11
78.675697
21
-10.8735
31
0
39
0
210
0
220
0
230
1
0
LINE
5
A9
100
AcDbEntity
8
2
62
256
6
ByLayer
370
13
48
1
60
0
100
AcDbLine
10
70.763197
20
3.3735
30
0
11
80.675697
21
3.3735
31
0
39
0
210
0
220
0
230
1
0
LINE
5
AA
100
AcDbEntity
8
2
62
256
6
ByLayer
370
13
48
1
60
0
100
AcDbLine
10
70.763197
20
-3.3735
30
0
11
80.675697
21
-3.3735
31
0
39
0
210
0
220
0
230
1
0
LINE
5
AB
100
AcDbEntity
8
1
62
256
6
ByLayer
370
18
48
1
60
1
100
AcDbLine
10
78.675697
20
3.3735
30
0
11
78.214913
21
6.873498
31
0
39
0
210
0
220
0
230
1
0
LINE
5
AC
100
AcDbEntity
8
1
62
256
6
ByLayer
370
18
48
1
60
1
100
AcDbLine
10
78.214913
20
6.873498
30
0
11
79.136481
21
6.873502
31
0
39
0
210
0
220
0
230
1
0
LINE
5
AD
100
AcDbEntity
8
1
62
256
6
ByLayer
370
18
48
1
60
1
100
AcDbLine
10
79.136481
20
6.873502
30
0
11
78.675697
21
3.3735
31
0
39
0
210
0
220
0
230
1
0
LINE
5
AE
100
AcDbEntity
8
1
62
256
6
ByLayer
370
18
48
1
60
1
100
AcDbLine
10
78.675697
20
-3.3735
30
0
11
79.136481
21
-6.873498
31
0
39
0
210
0
220
0
230
1
0
LINE
5
AF
100
AcDbEntity
8
1
62
256
6
ByLayer
370
18
48
1
60
1
100
AcDbLine
10
79.136481
20
-6.873498
30
0
11
78.214913
21
-6.873502
31
0
39
0
210
0
220
0
230
1
0
LINE
5
B0
100
AcDbEntity
8
1
62
256
6
ByLayer
370
18
48
1
60
1
100
AcDbLine
10
78.214913
20
-6.873502
30
0
11
78.675697
21
-3.3735
31
0
39
0
210
0
220
0
230
1
0
LINE
5
B1
100
AcDbEntity
8
2
62
256
6
ByLayer
370
13
48
1
60
0
100
AcDbLine
10
71.755136
20
-1.396397
30
0
11
82.416232
21
-21.110889
31
0
39
0
210
0
220
0
230
1
0
LINE
5
B2
100
AcDbEntity
8
2
62
256
6
ByLayer
370
13
48
1
60
0
100
AcDbLine
10
71.755136
20
1.396397
30
0
11
82.416232
21
21.110889
31
0
39
0
210
0
220
0
230
1
0
LINE
5
B3
100
AcDbEntity
8
1
62
256
6
ByLayer
370
18
48
1
60
1
100
AcDbLine
10
81.464879
20
-19.351649
30
0
11
84.239971
21
-17.169637
31
0
39
0
210
0
220
0
230
1
0
LINE
5
B4
100
AcDbEntity
8
1
62
256
6
ByLayer
370
18
48
1
60
1
100
AcDbLine
10
84.239971
20
-17.169637
30
0
11
84.710161
21
-17.962233
31
0
39
0
210
0
220
0
230
1
0
LINE
5
B5
100
AcDbEntity
8
1
62
256
6
ByLayer
370
18
48
1
60
1
100
AcDbLine
10
84.710161
20
-17.962233
30
0
11
81.464879
21
-19.351649
31
0
39
0
210
0
220
0
230
1
0
LINE
5
B6
100
AcDbEntity
8
1
62
256
6
ByLayer
370
18
48
1
60
1
100
AcDbLine
10
81.464879
20
19.351649
30
0
11
84.710158
21
17.962234
31
0
39
0
210
0
220
0
230
1
0
LINE
5
B7
100
AcDbEntity
8
1
62
256
6
ByLayer
370
18
48
1
60
1
100
AcDbLine
10
84.710158
20
17.962234
30
0
11
84.239974
21
17.169635
31
0
39
0
210
0
220
0
230
1
0
LINE
5
B8
100
AcDbEntity
8
1
62
256
6
ByLayer
370
18
48
1
60
1
100
AcDbLine
10
84.239974
20
17.169635
30
0
11
81.464879
21
19.351649
31
0
39
0
210
0
220
0
230
1
0
LINE
5
D5
100
AcDbEntity
8
1
62
256
6
ByLayer
370
18
48
1
60
1
100
AcDbLine
10
-44.5
20
3.3735
30
0
11
-44.960784
21
6.873498
31
0
39
0
210
0
220
0
230
1
0
LINE
5
D6
100
AcDbEntity
8
1
62
256
6
ByLayer
370
18
48
1
60
1
100
AcDbLine
10
-44.960784
20
6.873498
30
0
11
-44.039216
21
6.873502
31
0
39
0
210
0
220
0
230
1
0
LINE
5
D7
100
AcDbEntity
8
1
62
256
6
ByLayer
370
18
48
1
60
1
100
AcDbLine
10
-44.039216
20
6.873502
30
0
11
-44.5
21
3.3735
31
0
39
0
210
0
220
0
230
1
0
LINE
5
D9
100
AcDbEntity
8
1
62
256
6
ByLayer
370
18
48
1
60
1
100
AcDbLine
10
-44.5
20
-3.3735
30
0
11
-44.039216
21
-6.873498
31
0
39
0
210
0
220
0
230
1
0
LINE
5
DA
100
AcDbEntity
8
1
62
256
6
ByLayer
370
18
48
1
60
1
100
AcDbLine
10
-44.039216
20
-6.873498
30
0
11
-44.960784
21
-6.873502
31
0
39
0
210
0
220
0
230
1
0
LINE
5
DB
100
AcDbEntity
8
1
62
256
6
ByLayer
370
18
48
1
60
1
100
AcDbLine
10
-44.960784
20
-6.873502
30
0
11
-44.5
21
-3.3735
31
0
39
0
210
0
220
0
230
1
0
LINE
5
DF
100
AcDbEntity
8
1
62
256
6
ByLayer
370
18
48
1
60
1
100
AcDbLine
10
78.675697
20
3.3735
30
0
11
78.214913
21
6.873498
31
0
39
0
210
0
220
0
230
1
0
LINE
5
E0
100
AcDbEntity
8
1
62
256
6
ByLayer
370
18
48
1
60
1
100
AcDbLine
10
78.214913
20
6.873498
30
0
11
79.136481
21
6.873502
31
0
39
0
210
0
220
0
230
1
0
LINE
5
E1
100
AcDbEntity
8
1
62
256
6
ByLayer
370
18
48
1
60
1
100
AcDbLine
10
79.136481
20
6.873502
30
0
11
78.675697
21
3.3735
31
0
39
0
210
0
220
0
230
1
0
LINE
5
E3
100
AcDbEntity
8
1
62
256
6
ByLayer
370
18
48
1
60
1
100
AcDbLine
10
78.675697
20
-3.3735
30
0
11
79.136481
21
-6.873498
31
0
39
0
210
0
220
0
230
1
0
LINE
5
E4
100
AcDbEntity
8
1
62
256
6
ByLayer
370
18
48
1
60
1
100
AcDbLine
10
79.136481
20
-6.873498
30
0
11
78.214913
21
-6.873502
31
0
39
0
210
0
220
0
230
1
0
LINE
5
E5
100
AcDbEntity
8
1
62
256
6
ByLayer
370
18
48
1
60
1
100
AcDbLine
10
78.214913
20
-6.873502
30
0
11
78.675697
21
-3.3735
31
0
39
0
210
0
220
0
230
1
0
LINE
5
E8
100
AcDbEntity
8
1
62
256
6
ByLayer
370
18
48
1
60
1
100
AcDbLine
10
81.464879
20
-19.351649
30
0
11
84.239971
21
-17.169637
31
0
39
0
210
0
220
0
230
1
0
LINE
5
E9
100
AcDbEntity
8
1
62
256
6
ByLayer
370
18
48
1
60
1
100
AcDbLine
10
84.239971
20
-17.169637
30
0
11
84.710161
21
-17.962233
31
0
39
0
210
0
220
0
230
1
0
LINE
5
EA
100
AcDbEntity
8
1
62
256
6
ByLayer
370
18
48
1
60
1
100
AcDbLine
10
84.710161
20
-17.962233
30
0
11
81.464879
21
-19.351649
31
0
39
0
210
0
220
0
230
1
0
LINE
5
EC
100
AcDbEntity
8
1
62
256
6
ByLayer
370
18
48
1
60
1
100
AcDbLine
10
81.464879
20
19.351649
30
0
11
84.710158
21
17.962234
31
0
39
0
210
0
220
0
230
1
0
LINE
5
ED
100
AcDbEntity
8
1
62
256
6
ByLayer
370
18
48
1
60
1
100
AcDbLine
10
84.710158
20
17.962234
30
0
11
84.239974
21
17.169635
31
0
39
0
210
0
220
0
230
1
0
LINE
5
EE
100
AcDbEntity
8
1
62
256
6
ByLayer
370
18
48
1
60
1
100
AcDbLine
10
84.239974
20
17.169635
30
0
11
81.464879
21
19.351649
31
0
39
0
210
0
220
0
230
1
0
MTEXT
5
D1
100
AcDbEntity
8
SK2
62
256
6
ByLayer
370
18
48
1
60
0
100
AcDbMText
10
-45.841114
20
15.031938
30
0
210
0
220
0
230
1
1
%%c
40
3
41
0
44
1.084337
50
90
71
7
72
5
7
iso_b_vert
0
MTEXT
5
D4
100
AcDbEntity
8
SK2
62
256
6
ByLayer
370
18
48
1
60
0
100
AcDbMText
10
-45.841114
20
21.0085
30
0
210
0
220
0
230
1
1
\W0.7694;6.747
40
3
41
0
44
1.084337
50
90
71
7
72
5
7
iso_b_vert
0
MTEXT
5
DD
100
AcDbEntity
8
2
62
256
6
ByLayer
370
18
48
1
60
0
100
AcDbMText
10
77.334583
20
15.031938
30
0
210
0
220
0
230
1
1
%%c
40
3
41
0
44
1.084337
50
90
71
7
72
5
7
iso_b_vert
0
MTEXT
5
DE
100
AcDbEntity
8
2
62
256
6
ByLayer
370
18
48
1
60
0
100
AcDbMText
10
77.334583
20
21.0085
30
0
210
0
220
0
230
1
1
\W0.7694;6.747
40
3
41
0
44
1.084337
50
90
71
7
72
5
7
iso_b_vert
0
MTEXT
5
E7
100
AcDbEntity
8
2
62
256
6
ByLayer
370
18
48
1
60
0
100
AcDbMText
10
90.092229
20
-2.114886
30
0
210
0
220
0
230
1
1
\W0.6008;118%%d
40
3
41
0
44
1.084337
50
0
71
7
72
5
7
iso_b_vert
0
MTEXT
5
F0
100
AcDbEntity
8
SK6
62
256
6
ByLayer
370
18
48
1
60
0
100
AcDbMText
10
6.744259
20
-67.114886
30
0
210
0
220
0
230
1
1
\W0.7668;R00317/64
40
3
41
0
44
1.084337
50
0
71
7
72
5
7
iso_b_vert
0
HATCH
5
D8
100
AcDbEntity
8
SK2
62
256
6
ByLayer
370
13
48
1
60
0
100
AcDbHatch
10
0
20
0
30
0
210
0
220
0
230
1
2
ANSI31
70
0
71
0
91
1
92
5
93
3
72
1
10
-44.5
20
3.37350000000001
11
-44.9607837415528
21
6.87349830744682
72
1
10
-44.9607837415528
20
6.87349830744682
11
-44.0392162584472
21
6.87350169255319
72
1
10
-44.0392162584472
20
6.87350169255319
11
-44.5
21
3.37350000000001
97
0
75
0
76
1
52
0
41
0.0062
77
0
78
1
53
45
43
0
44
0
45
-0.0139193969876572
46
0.0139193969876572
79
0
47
0
98
1
10
0
20
0
0
HATCH
5
DC
100
AcDbEntity
8
SK2
62
256
6
ByLayer
370
13
48
1
60
0
100
AcDbHatch
10
0
20
0
30
0
210
0
220
0
230
1
2
ANSI31
70
0
71
0
91
1
92
5
93
3
72
1
10
-44.5
20
-3.37349999999998
11
-44.0392162584472
21
-6.87349830744679
72
1
10
-44.0392162584472
20
-6.87349830744679
11
-44.9607837415528
21
-6.87350169255316
72
1
10
-44.9607837415528
20
-6.87350169255316
11
-44.5
21
-3.37349999999998
97
0
75
0
76
1
52
0
41
0.0062
77
0
78
1
53
45
43
0
44
0
45
-0.0139193969876572
46
0.0139193969876572
79
0
47
0
98
1
10
0
20
0
0
HATCH
5
E2
100
AcDbEntity
8
2
62
256
6
ByLayer
370
13
48
1
60
0
100
AcDbHatch
10
0
20
0
30
0
210
0
220
0
230
1
2
ANSI31
70
0
71
0
91
1
92
5
93
3
72
1
10
78.6756970315395
20
3.37350000000001
11
78.2149132899867
21
6.87349830744682
72
1
10
78.2149132899867
20
6.87349830744682
11
79.1364807730923
21
6.87350169255319
72
1
10
79.1364807730923
20
6.87350169255319
11
78.6756970315395
21
3.37350000000001
97
0
75
0
76
1
52
0
41
0.0062
77
0
78
1
53
45
43
0
44
0
45
-0.0139193969876572
46
0.0139193969876572
79
0
47
0
98
1
10
0
20
0
0
HATCH
5
E6
100
AcDbEntity
8
2
62
256
6
ByLayer
370
13
48
1
60
0
100
AcDbHatch
10
0
20
0
30
0
210
0
220
0
230
1
2
ANSI31
70
0
71
0
91
1
92
5
93
3
72
1
10
78.6756970315395
20
-3.37349999999998
11
79.1364807730923
21
-6.87349830744679
72
1
10
79.1364807730923
20
-6.87349830744679
11
78.2149132899867
21
-6.87350169255316
72
1
10
78.2149132899867
20
-6.87350169255316
11
78.6756970315395
21
-3.37349999999998
97
0
75
0
76
1
52
0
41
0.0062
77
0
78
1
53
45
43
0
44
0
45
-0.0139193969876572
46
0.0139193969876572
79
0
47
0
98
1
10
0
20
0
0
HATCH
5
EB
100
AcDbEntity
8
2
62
256
6
ByLayer
370
13
48
1
60
0
100
AcDbHatch
10
0
20
0
30
0
210
0
220
0
230
1
2
ANSI31
70
0
71
0
91
1
92
5
93
3
72
1
10
81.4648791987519
20
-19.3516485952884
11
84.2399711078381
21
-17.1696369764527
72
1
10
84.2399711078381
20
-17.1696369764527
11
84.7101613929249
21
-17.9622325364572
72
1
10
84.7101613929249
20
-17.9622325364572
11
81.4648791987519
21
-19.3516485952884
97
0
75
0
76
1
52
0
41
0.0062
77
0
78
1
53
45
43
0
44
0
45
-0.0139193969876572
46
0.0139193969876572
79
0
47
0
98
1
10
0
20
0
0
HATCH
5
EF
100
AcDbEntity
8
2
62
256
6
ByLayer
370
13
48
1
60
0
100
AcDbHatch
10
0
20
0
30
0
210
0
220
0
230
1
2
ANSI31
70
0
71
0
91
1
92
5
93
3
72
1
10
81.464879198752
20
19.3516485952884
11
84.7101584815526
21
17.9622342635518
72
1
10
84.7101584815526
20
17.9622342635518
11
84.2399740192106
21
17.169635249358
72
1
10
84.2399740192106
20
17.169635249358
11
81.464879198752
21
19.3516485952884
97
0
75
0
76
1
52
0
41
0.0062
77
0
78
1
53
45
43
0
44
0
45
-0.0139193969876572
46
0.0139193969876572
79
0
47
0
98
1
10
0
20
0
0
DIMENSION
5
F3
100
AcDbEntity
8
SK2
62
256
6
ByLayer
370
18
48
1
60
0
100
AcDbDimension
2
_U0
10
71
20
-51.671951
30
0
11
16.5
21
-51.671951
31
0
70
32
71
1
72
1
41
1
210
0
220
0
230
1
3
Standard
100
AcDbAlignedDimension
13
-38
23
-3.3735
33
0
14
71
24
0
34
0
50
0
100
AcDbRotatedDimension
1001
ACAD
1000
DSTYLE
1002
{
1070
   371
1070
    13
1070
   372
1070
    13
1070
     3
1000

1070
   170
1070
     0
1070
   144
1040
1.0
1070
   277
1070
     2
1070
   284
1070
     8
1070
   278
1070
    46
1070
   146
1040
1.166667
1070
   345
1005
16
1070
   347
1005
16
1070
   346
1005
16
1070
   344
1005
0
1070
   343
1005
0
1070
   172
1070
     1
1070
    76
1070
     0
1070
    75
1070
     0
1070
   282
1070
     0
1070
   281
1070
     0
1070
    71
1070
     0
1070
    74
1070
     0
1070
   279
1070
     0
1070
   173
1070
     1
1070
   340
1005
D2
1070
   271
1070
     2
1070
   272
1070
     3
1070
    77
1070
     1
1070
    73
1070
     1
1070
   171
1070
     3
1070
   274
1070
     4
1070
   177
1070
     2
1070
   176
1070
     2
1070
   178
1070
     2
1070
    78
1070
     8
1070
    48
1040
-0.1
1070
    41
1040
3.5
1070
   147
1040
1.5
1070
    42
1040
1.5875
1070
    44
1040
2.0
1070
   140
1040
3.0
1002
}
1001
ACAD_DSTYLE_DIM_LINETYPE
1070
   380
1005
16
1001
ACAD_DSTYLE_DIM_EXT1_LINETYPE
1070
   381
1005
16
1001
ACAD_DSTYLE_DIM_EXT2_LINETYPE
1070
   382
1005
16
0
DIMENSION
5
10C
100
AcDbEntity
8
2
62
256
6
ByLayer
370
18
48
1
60
0
100
AcDbDimension
2
_U1
10
2
20
-41.671951
30
0
11
36.5
21
-41.671951
31
0
70
32
71
1
72
1
41
1
210
0
220
0
230
1
3
Standard
100
AcDbAlignedDimension
13
71
23
0
33
0
14
2
24
-3.3735
34
0
50
0
100
AcDbRotatedDimension
1001
ACAD
1000
DSTYLE
1002
{
1070
   371
1070
    13
1070
   372
1070
    13
1070
     3
1000

1070
   170
1070
     0
1070
   144
1040
1.0
1070
   277
1070
     2
1070
   284
1070
     8
1070
   278
1070
    46
1070
   146
1040
1.166667
1070
   345
1005
16
1070
   347
1005
16
1070
   346
1005
16
1070
   344
1005
0
1070
   343
1005
0
1070
   172
1070
     1
1070
    76
1070
     0
1070
    75
1070
     0
1070
   282
1070
     0
1070
   281
1070
     0
1070
    71
1070
     0
1070
    74
1070
     0
1070
   279
1070
     0
1070
   173
1070
     1
1070
   340
1005
D2
1070
   271
1070
     2
1070
   272
1070
     3
1070
    77
1070
     1
1070
    73
1070
     1
1070
   171
1070
     3
1070
   274
1070
     4
1070
   177
1070
     2
1070
   176
1070
     2
1070
   178
1070
     2
1070
    78
1070
     8
1070
    48
1040
-0.1
1070
    41
1040
3.5
1070
   147
1040
1.5
1070
    42
1040
1.5875
1070
    44
1040
2.0
1070
   140
1040
3.0
1002
}
1001
ACAD_DSTYLE_DIM_LINETYPE
1070
   380
1005
16
1001
ACAD_DSTYLE_DIM_EXT1_LINETYPE
1070
   381
1005
16
1001
ACAD_DSTYLE_DIM_EXT2_LINETYPE
1070
   382
1005
16
0
DIMENSION
5
124
100
AcDbEntity
8
SK2
62
256
6
ByLayer
370
18
48
1
60
0
100
AcDbDimension
2
_U2
10
0
20
-36.671951
30
0
11
-19
21
-36.671951
31
0
70
32
71
1
72
1
41
1
210
0
220
0
230
1
3
Standard
100
AcDbAlignedDimension
13
-38
23
-3.3735
33
0
14
0
24
-3.3735
34
0
50
0
100
AcDbRotatedDimension
1001
ACAD
1000
DSTYLE
1002
{
1070
   371
1070
    13
1070
   372
1070
    13
1070
     3
1000

1070
   170
1070
     0
1070
   144
1040
1.0
1070
   277
1070
     2
1070
   284
1070
     8
1070
   278
1070
    46
1070
   146
1040
1.166667
1070
   345
1005
16
1070
   347
1005
16
1070
   346
1005
16
1070
   344
1005
0
1070
   343
1005
0
1070
   172
1070
     1
1070
    76
1070
     0
1070
    75
1070
     0
1070
   282
1070
     0
1070
   281
1070
     0
1070
    71
1070
     0
1070
    74
1070
     0
1070
   279
1070
     0
1070
   173
1070
     1
1070
   340
1005
D2
1070
   271
1070
     2
1070
   272
1070
     3
1070
    77
1070
     1
1070
    73
1070
     1
1070
   171
1070
     3
1070
   274
1070
     4
1070
   177
1070
     2
1070
   176
1070
     2
1070
   178
1070
     2
1070
    78
1070
     8
1070
    48
1040
-0.1
1070
    41
1040
3.5
1070
   147
1040
1.5
1070
    42
1040
1.5875
1070
    44
1040
2.0
1070
   140
1040
3.0
1002
}
1001
ACAD_DSTYLE_DIM_LINETYPE
1070
   380
1005
16
1001
ACAD_DSTYLE_DIM_EXT1_LINETYPE
1070
   381
1005
16
1001
ACAD_DSTYLE_DIM_EXT2_LINETYPE
1070
   382
1005
16
0
DIMENSION
5
13C
100
AcDbEntity
8
2
62
256
6
ByLayer
370
18
48
1
60
0
100
AcDbDimension
2
_U3
10
19.25
20
-34.671951
30
0
11
45.125
21
-34.671951
31
0
70
32
71
1
72
1
41
1
210
0
220
0
230
1
3
Standard
100
AcDbAlignedDimension
13
71
23
0
33
0
14
19.25
24
-3.3735
34
0
50
0
100
AcDbRotatedDimension
1001
ACAD
1000
DSTYLE
1002
{
1070
   371
1070
    13
1070
   372
1070
    13
1070
     3
1000

1070
   170
1070
     0
1070
   144
1040
1.0
1070
   277
1070
     2
1070
   284
1070
     8
1070
   278
1070
    46
1070
   146
1040
1.166667
1070
   345
1005
16
1070
   347
1005
16
1070
   346
1005
16
1070
   344
1005
0
1070
   343
1005
0
1070
   172
1070
     1
1070
    76
1070
     0
1070
    75
1070
     0
1070
   282
1070
     0
1070
   281
1070
     0
1070
    71
1070
     0
1070
    74
1070
     0
1070
   279
1070
     0
1070
   173
1070
     1
1070
   340
1005
D2
1070
   271
1070
     2
1070
   272
1070
     3
1070
    77
1070
     1
1070
    73
1070
     1
1070
   171
1070
     3
1070
   274
1070
     4
1070
   177
1070
     2
1070
   176
1070
     2
1070
   178
1070
     2
1070
    78
1070
     8
1070
    48
1040
-0.1
1070
    41
1040
3.5
1070
   147
1040
1.5
1070
    42
1040
1.5875
1070
    44
1040
2.0
1070
   140
1040
3.0
1002
}
1001
ACAD_DSTYLE_DIM_LINETYPE
1070
   380
1005
16
1001
ACAD_DSTYLE_DIM_EXT1_LINETYPE
1070
   381
1005
16
1001
ACAD_DSTYLE_DIM_EXT2_LINETYPE
1070
   382
1005
16
0
ENDSEC
0
SECTION
2
OBJECTS
0
DICTIONARY
5
1c6
330
0
100
AcDbDictionary
280
0
281
1
3
ACAD_GROUP
350
1c7
3
ACAD_MLINESTYLE
350
1c8
0
DICTIONARY
5
1c7
330
0
100
AcDbDictionary
280
0
281
1
0
DICTIONARY
5
1c8
330
0
100
AcDbDictionary
280
0
281
1
3
Standard
350
18
0
MLINESTYLE
5
18
330
1c8
100
AcDbMlineStyle
2
Standard
70
0
3

62
256
51
90
52
90
71
2
49
-0.5
62
256
6
ByLayer
49
0.5
62
256
6
ByLayer
0
RASTERVARIABLES
5
1b2
330

100
AcDbRasterVariables
90
0
70
1
71
1
72
1
0
ENDSEC
0
EOF
