0
SECTION
2
HEADER
9
$ACADVER
1
AC1015
9
$DWGCODEPAGE
3
ANSI_1252
9
$HANDSEED
5
1cb
9
$ANGBASE
50
0
9
$ANGDIR
70
0
9
$ATTMODE
70
1
9
$AUNITS
70
0
9
$AUPREC
70
0
9
$CECOLOR
62
256
9
$CELTSCALE
40
1
9
$CELTYPE
6
ByLayer
9
$CELWEIGHT
370
18
9
$CLAYER
8
0
9
$CMLJUST
70
0
9
$CMLSCALE
40
1
9
$CMLSTYLE
2
Standard
9
$DIMSTYLE
2
Standard
9
$TEXTSIZE
40
0.2
9
$TEXTSTYLE
7
Standard
9
$LUNITS
70
2
9
$LUPREC
70
4
9
$EXTNAMES
290
1
9
$INSUNITS
70
4
9
$LTSCALE
40
1
9
$LWDISPLAY
290
1
9
$PDMODE
70
0
9
$PDSIZE
40
0
9
$PLINEGEN
70
0
0
ENDSEC
0
SECTION
2
CLASSES
0
CLASS
1
RASTERVARIABLES
2
AcDbRasterVariables
3
ISM
90
0
280
0
281
0
0
ENDSEC
0
SECTION
2
TABLES
0
TABLE
2
VPORT
5
1c1
100
AcDbSymbolTable
0
VPORT
5
1
100
AcDbSymbolTableRecord
100
AcDbViewportTableRecord
2
*Active
70
0
10
0
20
0
11
1
21
1
12
-1
22
1
13
0
23
0
14
0.5
24
0.5
15
10
25
10
16
0
26
0
36
1
17
0
27
0
37
0
0
ENDTAB
0
TABLE
2
LTYPE
5
1c2
100
AcDbSymbolTable
0
LTYPE
5
14
100
AcDbSymbolTableRecord
100
AcDbLinetypeTableRecord
70
0
2
ByBlock
3

72
65
73
0
40
0
0
LTYPE
5
15
100
AcDbSymbolTableRecord
100
AcDbLinetypeTableRecord
70
0
2
ByLayer
3

72
65
73
0
40
0
0
LTYPE
5
16
100
AcDbSymbolTableRecord
100
AcDbLinetypeTableRecord
70
0
2
Continuous
3
Solid line
72
65
73
0
40
0
0
LTYPE
5
6E
100
AcDbSymbolTableRecord
100
AcDbLinetypeTableRecord
70
0
2
CENTER
3
____ _ ____ _ ____ _ ____
72
65
73
4
40
47.5
49
22
74
0
49
-8.5
74
0
49
8.5
74
0
49
-8.5
74
0
0
LTYPE
5
6F
100
AcDbSymbolTableRecord
100
AcDbLinetypeTableRecord
70
0
2
DASHED
3
__ __ __ __ __ __ __ __ __
72
65
73
2
40
25.72
49
12.86
74
0
49
-12.86
74
0
0
ENDTAB
0
TABLE
2
LAYER
5
1c3
100
AcDbSymbolTable
0
LAYER
5
10
100
AcDbSymbolTableRecord
100
AcDbLayerTableRecord
2
0
70
0
62
7
6
Continuous
290
1
370
-3
390
0
0
LAYER
5
71
100
AcDbSymbolTableRecord
100
AcDbLayerTableRecord
2
81
70
0
62
-3
6
Continuous
290
1
370
-3
390
0
0
LAYER
5
73
100
AcDbSymbolTableRecord
100
AcDbLayerTableRecord
2
80
70
0
62
-6
6
Continuous
290
1
370
-3
390
0
0
LAYER
5
75
100
AcDbSymbolTableRecord
100
AcDbLayerTableRecord
2
1
70
0
62
4
6
Continuous
290
1
370
-3
390
0
0
LAYER
5
82
100
AcDbSymbolTableRecord
100
AcDbLayerTableRecord
2
4
70
0
62
-2
6
CENTER
290
1
370
-3
390
0
0
LAYER
5
A6
100
AcDbSymbolTableRecord
100
AcDbLayerTableRecord
2
2
70
0
62
7
6
Continuous
290
1
370
-3
390
0
0
LAYER
5
EE
100
AcDbSymbolTableRecord
100
AcDbLayerTableRecord
2
Defpoints
70
0
62
7
6
Continuous
290
0
370
-3
390
0
0
LAYER
5
1ab
100
AcDbSymbolTableRecord
100
AcDbLayerTableRecord
2
SK4
70
0
62
2
6
CENTER
290
1
370
-3
390
0
0
LAYER
5
1ac
100
AcDbSymbolTableRecord
100
AcDbLayerTableRecord
2
SK1
70
0
62
4
6
Continuous
290
1
370
-3
390
0
0
LAYER
5
1ad
100
AcDbSymbolTableRecord
100
AcDbLayerTableRecord
2
SK2
70
0
62
7
6
Continuous
290
1
370
-3
390
0
0
LAYER
5
1ae
100
AcDbSymbolTableRecord
100
AcDbLayerTableRecord
2
CUT
70
0
62
-1
6
Continuous
290
1
370
-3
390
0
0
LAYER
5
1af
100
AcDbSymbolTableRecord
100
AcDbLayerTableRecord
2
NOCUT
70
0
62
-7
6
Continuous
290
1
370
-3
390
0
0
LAYER
5
1b0
100
AcDbSymbolTableRecord
100
AcDbLayerTableRecord
2
SK6
70
0
62
5
6
Continuous
290
1
370
-3
390
0
0
ENDTAB
0
TABLE
2
STYLE
5
1c4
100
AcDbSymbolTable
0
STYLE
5
11
100
AcDbSymbolTableRecord
100
AcDbTextStyleTableRecord
2
Standard
3
txt
70
0
71
0
40
0
41
1
42
0
50
0
0
STYLE
5
CA
100
AcDbSymbolTableRecord
100
AcDbTextStyleTableRecord
2
iso_b_vert
3
simplex.shx
70
0
71
0
40
0
41
1
42
0
50
0
0
STYLE
5
CB
100
AcDbSymbolTableRecord
100
AcDbTextStyleTableRecord
2
DWGDirectTextStyle
3
simplex
70
0
71
0
40
0
41
1
42
0
50
0
0
ENDTAB
0
TABLE
2
DIMSTYLE
5
1c5
100
AcDbSymbolTable
100
AcDbDimStyleTable
0
DIMSTYLE
105
27
100
AcDbSymbolTableRecord
100
AcDbDimStyleTableRecord
2
Standard
70
0
3
<>
41
0.18
42
0.0625
44
0.18
140
0.18
147
0.09
73
0
74
0
77
1
271
2
275
0
278
52
280
0
340
11
0
ENDTAB
0
TABLE
2
VIEW
5
1c6
100
AcDbSymbolTable
0
ENDTAB
0
TABLE
2
UCS
5
1c7
100
AcDbSymbolTable
0
ENDTAB
0
TABLE
2
APPID
5
1c8
100
AcDbSymbolTable
0
APPID
5
12
100
AcDbSymbolTableRecord
100
AcDbRegAppTableRecord
2
ACAD
70
0
0
APPID
5
EA
100
AcDbSymbolTableRecord
100
AcDbRegAppTableRecord
2
ACAD_DSTYLE_DIMBREAK
70
0
0
APPID
5
16A
100
AcDbSymbolTableRecord
100
AcDbRegAppTableRecord
2
ACAD_DSTYLE_DIM_LINETYPE
70
0
0
APPID
5
16B
100
AcDbSymbolTableRecord
100
AcDbRegAppTableRecord
2
ACAD_DSTYLE_DIM_EXT1_LINETYPE
70
0
0
APPID
5
16C
100
AcDbSymbolTableRecord
100
AcDbRegAppTableRecord
2
ACAD_DSTYLE_DIM_EXT2_LINETYPE
70
0
0
APPID
5
1A7
100
AcDbSymbolTableRecord
100
AcDbRegAppTableRecord
2
ACAD_MLEADERVER
70
0
0
ENDTAB
0
TABLE
2
BLOCK_RECORD
5
1c9
100
AcDbSymbolTable
0
BLOCK_RECORD
5
1F
100
AcDbSymbolTableRecord
100
AcDbBlockTableRecord
2
*Model_Space
340
0
70
0
0
BLOCK_RECORD
5
1B
100
AcDbSymbolTableRecord
100
AcDbBlockTableRecord
2
*Paper_Space
340
0
70
0
0
BLOCK_RECORD
5
23
100
AcDbSymbolTableRecord
100
AcDbBlockTableRecord
2
*Paper_Space0
340
0
70
0
0
BLOCK_RECORD
5
EF
100
AcDbSymbolTableRecord
100
AcDbBlockTableRecord
2
*D1
340
0
70
0
0
BLOCK_RECORD
5
FB
100
AcDbSymbolTableRecord
100
AcDbBlockTableRecord
2
_U0
340
0
70
0
0
BLOCK_RECORD
5
107
100
AcDbSymbolTableRecord
100
AcDbBlockTableRecord
2
*D3
340
0
70
0
0
BLOCK_RECORD
5
113
100
AcDbSymbolTableRecord
100
AcDbBlockTableRecord
2
_U1
340
0
70
0
0
BLOCK_RECORD
5
11F
100
AcDbSymbolTableRecord
100
AcDbBlockTableRecord
2
*D5
340
0
70
0
0
BLOCK_RECORD
5
12B
100
AcDbSymbolTableRecord
100
AcDbBlockTableRecord
2
_U2
340
0
70
0
0
BLOCK_RECORD
5
137
100
AcDbSymbolTableRecord
100
AcDbBlockTableRecord
2
*D7
340
0
70
0
0
BLOCK_RECORD
5
143
100
AcDbSymbolTableRecord
100
AcDbBlockTableRecord
2
_U3
340
0
70
0
0
ENDTAB
0
ENDSEC
0
SECTION
2
BLOCKS
0
BLOCK
5
20
100
AcDbEntity
8
0
100
AcDbBlockBegin
2
*Model_Space
70
0
10
0
20
0
30
0
3
*Model_Space
0
ENDBLK
5
21
100
AcDbEntity
8
0
100
AcDbBlockEnd
0
BLOCK
5
1C
100
AcDbEntity
8
0
100
AcDbBlockBegin
2
*Paper_Space
70
0
10
0
20
0
30
0
3
*Paper_Space
0
ENDBLK
5
1D
100
AcDbEntity
8
0
100
AcDbBlockEnd
0
BLOCK
5
24
100
AcDbEntity
8
0
100
AcDbBlockBegin
2
*Paper_Space0
70
0
10
0
20
0
30
0
3
*Paper_Space0
0
ENDBLK
5
25
100
AcDbEntity
8
0
100
AcDbBlockEnd
0
BLOCK
5
F0
100
AcDbEntity
8
0
100
AcDbBlockBegin
2
*D1
70
1
10
0
20
0
30
0
3
*D1
0
LINE
5
F2
100
AcDbEntity
8
0
62
256
6
ByLayer
370
-2
48
1
60
0
100
AcDbLine
10
-48
20
-7.5405
30
0
11
-48
21
-53.182915
31
0
39
0
210
0
220
0
230
1
0
LINE
5
F3
100
AcDbEntity
8
0
62
256
6
ByLayer
370
-2
48
1
60
0
100
AcDbLine
10
103
20
-1.5875
30
0
11
103
21
-53.182915
31
0
39
0
210
0
220
0
230
1
0
LINE
5
F4
100
AcDbEntity
8
0
62
256
6
ByLayer
370
-2
48
1
60
0
100
AcDbLine
10
-44.5
20
-51.182915
30
0
11
99.5
21
-51.182915
31
0
39
0
210
0
220
0
230
1
0
SOLID
5
F5
100
AcDbEntity
8
0
62
256
6
ByLayer
370
-1
48
1
60
0
100
AcDbTrace
10
-44.5
20
-50.599581
30
0
11
-44.5
21
-51.766248
31
0
12
-48
22
-51.182915
32
0
13
-48
23
-51.182915
33
0
39
0
210
0
220
0
230
1
0
SOLID
5
F6
100
AcDbEntity
8
0
62
256
6
ByLayer
370
-1
48
1
60
0
100
AcDbTrace
10
99.5
20
-51.766248
30
0
11
99.5
21
-50.599581
31
0
12
103
22
-51.182915
32
0
13
103
23
-51.182915
33
0
39
0
210
0
220
0
230
1
0
MTEXT
5
F7
100
AcDbEntity
8
0
62
256
6
ByLayer
370
18
48
1
60
0
100
AcDbMText
10
27.5
20
-45.182915
30
0
210
0
220
0
230
1
1
\A1;151
40
3
41
0
44
1
50
0
71
5
72
5
7
iso_b_vert
0
POINT
5
F8
100
AcDbEntity
8
Defpoints
62
0
6
ByLayer
370
-1
48
1
60
0
100
AcDbPoint
10
-48
20
-5.953
30
0
39
0
210
0
220
0
230
1
50
360
0
POINT
5
F9
100
AcDbEntity
8
Defpoints
62
0
6
ByLayer
370
-1
48
1
60
0
100
AcDbPoint
10
103
20
0
30
0
39
0
210
0
220
0
230
1
50
360
0
POINT
5
FA
100
AcDbEntity
8
Defpoints
62
0
6
ByLayer
370
-1
48
1
60
0
100
AcDbPoint
10
103
20
-51.182915
30
0
39
0
210
0
220
0
230
1
50
360
0
ENDBLK
5
F1
100
AcDbEntity
8
0
100
AcDbBlockEnd
0
BLOCK
5
102
100
AcDbEntity
8
0
100
AcDbBlockBegin
2
_U0
70
0
10
0
20
0
30
0
3
_U0
0
MTEXT
5
FC
100
AcDbEntity
8
SK2
62
256
6
ByLayer
370
18
48
1
60
0
100
AcDbMText
10
22.646601
20
-50.2978
30
0
210
0
220
0
230
1
1
\W0.6532;151.00
40
3
41
0
44
1.084337
50
0
71
7
72
5
7
iso_b_vert
0
LINE
5
FD
100
AcDbEntity
8
SK2
62
256
6
ByLayer
370
13
48
1
60
0
100
AcDbLine
10
-48
20
-7.5405
30
0
11
-48
21
-53.182915
31
0
39
0
210
0
220
0
230
1
0
LINE
5
FE
100
AcDbEntity
8
SK2
62
256
6
ByLayer
370
13
48
1
60
0
100
AcDbLine
10
103
20
-1.5875
30
0
11
103
21
-53.182915
31
0
39
0
210
0
220
0
230
1
0
LINE
5
FF
100
AcDbEntity
8
SK2
62
256
6
ByLayer
370
13
48
1
60
0
100
AcDbLine
10
-48
20
-51.182915
30
0
11
103
21
-51.182915
31
0
39
0
210
0
220
0
230
1
0
SOLID
5
100
100
AcDbEntity
8
SK2
62
256
6
ByLayer
370
18
48
1
60
0
100
AcDbTrace
10
-48
20
-51.182915
30
0
11
-44.500002
21
-50.722131
31
0
12
-44.499998
22
-51.643698
32
0
13
-44.499998
23
-51.643698
33
0
39
0
210
0
220
0
230
1
0
SOLID
5
101
100
AcDbEntity
8
SK2
62
256
6
ByLayer
370
18
48
1
60
0
100
AcDbTrace
10
103
20
-51.182915
30
0
11
99.500002
21
-51.643698
31
0
12
99.499998
22
-50.722131
32
0
13
99.499998
23
-50.722131
33
0
39
0
210
0
220
0
230
1
0
ENDBLK
5
103
100
AcDbEntity
8
0
100
AcDbBlockEnd
0
BLOCK
5
108
100
AcDbEntity
8
0
100
AcDbBlockBegin
2
*D3
70
1
10
0
20
0
30
0
3
*D3
0
LINE
5
10A
100
AcDbEntity
8
0
62
256
6
ByLayer
370
-2
48
1
60
0
100
AcDbLine
10
103
20
-1.5875
30
0
11
103
21
-43.182915
31
0
39
0
210
0
220
0
230
1
0
LINE
5
10B
100
AcDbEntity
8
0
62
256
6
ByLayer
370
-2
48
1
60
0
100
AcDbLine
10
2
20
-7.5405
30
0
11
2
21
-43.182915
31
0
39
0
210
0
220
0
230
1
0
LINE
5
10C
100
AcDbEntity
8
0
62
256
6
ByLayer
370
-2
48
1
60
0
100
AcDbLine
10
99.5
20
-41.182915
30
0
11
5.5
21
-41.182915
31
0
39
0
210
0
220
0
230
1
0
SOLID
5
10D
100
AcDbEntity
8
0
62
256
6
ByLayer
370
-1
48
1
60
0
100
AcDbTrace
10
99.5
20
-41.766248
30
0
11
99.5
21
-40.599581
31
0
12
103
22
-41.182915
32
0
13
103
23
-41.182915
33
0
39
0
210
0
220
0
230
1
0
SOLID
5
10E
100
AcDbEntity
8
0
62
256
6
ByLayer
370
-1
48
1
60
0
100
AcDbTrace
10
5.5
20
-40.599581
30
0
11
5.5
21
-41.766248
31
0
12
2
22
-41.182915
32
0
13
2
23
-41.182915
33
0
39
0
210
0
220
0
230
1
0
MTEXT
5
10F
100
AcDbEntity
8
0
62
256
6
ByLayer
370
18
48
1
60
0
100
AcDbMText
10
52.5
20
-35.182915
30
0
210
0
220
0
230
1
1
\A1;101
40
3
41
0
44
1
50
0
71
5
72
5
7
iso_b_vert
0
POINT
5
110
100
AcDbEntity
8
Defpoints
62
0
6
ByLayer
370
-1
48
1
60
0
100
AcDbPoint
10
103
20
0
30
0
39
0
210
0
220
0
230
1
50
360
0
POINT
5
111
100
AcDbEntity
8
Defpoints
62
0
6
ByLayer
370
-1
48
1
60
0
100
AcDbPoint
10
2
20
-5.953
30
0
39
0
210
0
220
0
230
1
50
360
0
POINT
5
112
100
AcDbEntity
8
Defpoints
62
0
6
ByLayer
370
-1
48
1
60
0
100
AcDbPoint
10
2
20
-41.182915
30
0
39
0
210
0
220
0
230
1
50
360
0
ENDBLK
5
109
100
AcDbEntity
8
0
100
AcDbBlockEnd
0
BLOCK
5
11A
100
AcDbEntity
8
0
100
AcDbBlockBegin
2
_U1
70
0
10
0
20
0
30
0
3
_U1
0
MTEXT
5
114
100
AcDbEntity
8
2
62
256
6
ByLayer
370
18
48
1
60
0
100
AcDbMText
10
47.646601
20
-40.2978
30
0
210
0
220
0
230
1
1
\W0.6532;101.00
40
3
41
0
44
1.084337
50
0
71
7
72
5
7
iso_b_vert
0
LINE
5
115
100
AcDbEntity
8
2
62
256
6
ByLayer
370
13
48
1
60
0
100
AcDbLine
10
103
20
-1.5875
30
0
11
103
21
-43.182915
31
0
39
0
210
0
220
0
230
1
0
LINE
5
116
100
AcDbEntity
8
2
62
256
6
ByLayer
370
13
48
1
60
0
100
AcDbLine
10
2
20
-7.5405
30
0
11
2
21
-43.182915
31
0
39
0
210
0
220
0
230
1
0
LINE
5
117
100
AcDbEntity
8
2
62
256
6
ByLayer
370
13
48
1
60
0
100
AcDbLine
10
103
20
-41.182915
30
0
11
2
21
-41.182915
31
0
39
0
210
0
220
0
230
1
0
SOLID
5
118
100
AcDbEntity
8
2
62
256
6
ByLayer
370
18
48
1
60
0
100
AcDbTrace
10
103
20
-41.182915
30
0
11
99.500002
21
-41.643698
31
0
12
99.499998
22
-40.722131
32
0
13
99.499998
23
-40.722131
33
0
39
0
210
0
220
0
230
1
0
SOLID
5
119
100
AcDbEntity
8
2
62
256
6
ByLayer
370
18
48
1
60
0
100
AcDbTrace
10
2
20
-41.182915
30
0
11
5.499998
21
-40.722131
31
0
12
5.500002
22
-41.643698
32
0
13
5.500002
23
-41.643698
33
0
39
0
210
0
220
0
230
1
0
ENDBLK
5
11B
100
AcDbEntity
8
0
100
AcDbBlockEnd
0
BLOCK
5
120
100
AcDbEntity
8
0
100
AcDbBlockBegin
2
*D5
70
1
10
0
20
0
30
0
3
*D5
0
LINE
5
122
100
AcDbEntity
8
0
62
256
6
ByLayer
370
-2
48
1
60
0
100
AcDbLine
10
-48
20
-7.5405
30
0
11
-48
21
-38.182915
31
0
39
0
210
0
220
0
230
1
0
LINE
5
123
100
AcDbEntity
8
0
62
256
6
ByLayer
370
-2
48
1
60
0
100
AcDbLine
10
0
20
-7.5405
30
0
11
0
21
-38.182915
31
0
39
0
210
0
220
0
230
1
0
LINE
5
124
100
AcDbEntity
8
0
62
256
6
ByLayer
370
-2
48
1
60
0
100
AcDbLine
10
-44.5
20
-36.182915
30
0
11
-3.5
21
-36.182915
31
0
39
0
210
0
220
0
230
1
0
SOLID
5
125
100
AcDbEntity
8
0
62
256
6
ByLayer
370
-1
48
1
60
0
100
AcDbTrace
10
-44.5
20
-35.599581
30
0
11
-44.5
21
-36.766248
31
0
12
-48
22
-36.182915
32
0
13
-48
23
-36.182915
33
0
39
0
210
0
220
0
230
1
0
SOLID
5
126
100
AcDbEntity
8
0
62
256
6
ByLayer
370
-1
48
1
60
0
100
AcDbTrace
10
-3.5
20
-36.766248
30
0
11
-3.5
21
-35.599581
31
0
12
0
22
-36.182915
32
0
13
0
23
-36.182915
33
0
39
0
210
0
220
0
230
1
0
MTEXT
5
127
100
AcDbEntity
8
0
62
256
6
ByLayer
370
18
48
1
60
0
100
AcDbMText
10
-24
20
-30.182915
30
0
210
0
220
0
230
1
1
\A1;48
40
3
41
0
44
1
50
0
71
5
72
5
7
iso_b_vert
0
POINT
5
128
100
AcDbEntity
8
Defpoints
62
0
6
ByLayer
370
-1
48
1
60
0
100
AcDbPoint
10
-48
20
-5.953
30
0
39
0
210
0
220
0
230
1
50
360
0
POINT
5
129
100
AcDbEntity
8
Defpoints
62
0
6
ByLayer
370
-1
48
1
60
0
100
AcDbPoint
10
0
20
-5.953
30
0
39
0
210
0
220
0
230
1
50
360
0
POINT
5
12A
100
AcDbEntity
8
Defpoints
62
0
6
ByLayer
370
-1
48
1
60
0
100
AcDbPoint
10
0
20
-36.182915
30
0
39
0
210
0
220
0
230
1
50
360
0
ENDBLK
5
121
100
AcDbEntity
8
0
100
AcDbBlockEnd
0
BLOCK
5
132
100
AcDbEntity
8
0
100
AcDbBlockBegin
2
_U2
70
0
10
0
20
0
30
0
3
_U2
0
MTEXT
5
12C
100
AcDbEntity
8
SK2
62
256
6
ByLayer
370
18
48
1
60
0
100
AcDbMText
10
-28.640313
20
-35.2978
30
0
210
0
220
0
230
1
1
\W0.7694;48.00
40
3
41
0
44
1.084337
50
0
71
7
72
5
7
iso_b_vert
0
LINE
5
12D
100
AcDbEntity
8
SK2
62
256
6
ByLayer
370
13
48
1
60
0
100
AcDbLine
10
-48
20
-7.5405
30
0
11
-48
21
-38.182915
31
0
39
0
210
0
220
0
230
1
0
LINE
5
12E
100
AcDbEntity
8
SK2
62
256
6
ByLayer
370
13
48
1
60
0
100
AcDbLine
10
0
20
-7.5405
30
0
11
0
21
-38.182915
31
0
39
0
210
0
220
0
230
1
0
LINE
5
12F
100
AcDbEntity
8
SK2
62
256
6
ByLayer
370
13
48
1
60
0
100
AcDbLine
10
-48
20
-36.182915
30
0
11
0
21
-36.182915
31
0
39
0
210
0
220
0
230
1
0
SOLID
5
130
100
AcDbEntity
8
SK2
62
256
6
ByLayer
370
18
48
1
60
0
100
AcDbTrace
10
-48
20
-36.182915
30
0
11
-44.500002
21
-35.722131
31
0
12
-44.499998
22
-36.643698
32
0
13
-44.499998
23
-36.643698
33
0
39
0
210
0
220
0
230
1
0
SOLID
5
131
100
AcDbEntity
8
SK2
62
256
6
ByLayer
370
18
48
1
60
0
100
AcDbTrace
10
0
20
-36.182915
30
0
11
-3.499998
21
-36.643698
31
0
12
-3.500002
22
-35.722131
32
0
13
-3.500002
23
-35.722131
33
0
39
0
210
0
220
0
230
1
0
ENDBLK
5
133
100
AcDbEntity
8
0
100
AcDbBlockEnd
0
BLOCK
5
138
100
AcDbEntity
8
0
100
AcDbBlockBegin
2
*D7
70
1
10
0
20
0
30
0
3
*D7
0
LINE
5
13A
100
AcDbEntity
8
0
62
256
6
ByLayer
370
-2
48
1
60
0
100
AcDbLine
10
103
20
-1.5875
30
0
11
103
21
-36.182915
31
0
39
0
210
0
220
0
230
1
0
LINE
5
13B
100
AcDbEntity
8
0
62
256
6
ByLayer
370
-2
48
1
60
0
100
AcDbLine
10
27.25
20
-7.5405
30
0
11
27.25
21
-36.182915
31
0
39
0
210
0
220
0
230
1
0
LINE
5
13C
100
AcDbEntity
8
0
62
256
6
ByLayer
370
-2
48
1
60
0
100
AcDbLine
10
99.5
20
-34.182915
30
0
11
30.75
21
-34.182915
31
0
39
0
210
0
220
0
230
1
0
SOLID
5
13D
100
AcDbEntity
8
0
62
256
6
ByLayer
370
-1
48
1
60
0
100
AcDbTrace
10
99.5
20
-34.766248
30
0
11
99.5
21
-33.599581
31
0
12
103
22
-34.182915
32
0
13
103
23
-34.182915
33
0
39
0
210
0
220
0
230
1
0
SOLID
5
13E
100
AcDbEntity
8
0
62
256
6
ByLayer
370
-1
48
1
60
0
100
AcDbTrace
10
30.75
20
-33.599581
30
0
11
30.75
21
-34.766248
31
0
12
27.25
22
-34.182915
32
0
13
27.25
23
-34.182915
33
0
39
0
210
0
220
0
230
1
0
MTEXT
5
13F
100
AcDbEntity
8
0
62
256
6
ByLayer
370
18
48
1
60
0
100
AcDbMText
10
65.125
20
-28.182915
30
0
210
0
220
0
230
1
1
\A1;75.75
40
3
41
0
44
1
50
0
71
5
72
5
7
iso_b_vert
0
POINT
5
140
100
AcDbEntity
8
Defpoints
62
0
6
ByLayer
370
-1
48
1
60
0
100
AcDbPoint
10
103
20
0
30
0
39
0
210
0
220
0
230
1
50
360
0
POINT
5
141
100
AcDbEntity
8
Defpoints
62
0
6
ByLayer
370
-1
48
1
60
0
100
AcDbPoint
10
27.25
20
-5.953
30
0
39
0
210
0
220
0
230
1
50
360
0
POINT
5
142
100
AcDbEntity
8
Defpoints
62
0
6
ByLayer
370
-1
48
1
60
0
100
AcDbPoint
10
27.25
20
-34.182915
30
0
39
0
210
0
220
0
230
1
50
360
0
ENDBLK
5
139
100
AcDbEntity
8
0
100
AcDbBlockEnd
0
BLOCK
5
14A
100
AcDbEntity
8
0
100
AcDbBlockBegin
2
_U3
70
0
10
0
20
0
30
0
3
_U3
0
MTEXT
5
144
100
AcDbEntity
8
2
62
256
6
ByLayer
370
18
48
1
60
0
100
AcDbMText
10
60.64263
20
-33.2978
30
0
210
0
220
0
230
1
1
\W0.7468;75.75
40
3
41
0
44
1.084337
50
0
71
7
72
5
7
iso_b_vert
0
LINE
5
145
100
AcDbEntity
8
2
62
256
6
ByLayer
370
13
48
1
60
0
100
AcDbLine
10
103
20
-1.5875
30
0
11
103
21
-36.182915
31
0
39
0
210
0
220
0
230
1
0
LINE
5
146
100
AcDbEntity
8
2
62
256
6
ByLayer
370
13
48
1
60
0
100
AcDbLine
10
27.25
20
-7.5405
30
0
11
27.25
21
-36.182915
31
0
39
0
210
0
220
0
230
1
0
LINE
5
147
100
AcDbEntity
8
2
62
256
6
ByLayer
370
13
48
1
60
0
100
AcDbLine
10
103
20
-34.182915
30
0
11
27.25
21
-34.182915
31
0
39
0
210
0
220
0
230
1
0
SOLID
5
148
100
AcDbEntity
8
2
62
256
6
ByLayer
370
18
48
1
60
0
100
AcDbTrace
10
103
20
-34.182915
30
0
11
99.500002
21
-34.643698
31
0
12
99.499998
22
-33.722131
32
0
13
99.499998
23
-33.722131
33
0
39
0
210
0
220
0
230
1
0
SOLID
5
149
100
AcDbEntity
8
2
62
256
6
ByLayer
370
18
48
1
60
0
100
AcDbTrace
10
27.25
20
-34.182915
30
0
11
30.749998
21
-33.722131
31
0
12
30.750002
22
-34.643698
32
0
13
30.750002
23
-34.643698
33
0
39
0
210
0
220
0
230
1
0
ENDBLK
5
14B
100
AcDbEntity
8
0
100
AcDbBlockEnd
0
ENDSEC
0
SECTION
2
ENTITIES
0
ARC
5
B7
100
AcDbEntity
8
2
62
256
6
ByLayer
370
13
48
1
60
0
100
AcDbCircle
39
0
10
103
20
0
30
0
40
22.0000000000001
210
0
220
0
230
1
100
AcDbArc
50
7.83748
51
61.596605
0
ARC
5
B8
100
AcDbEntity
8
2
62
256
6
ByLayer
370
13
48
1
60
0
100
AcDbCircle
39
0
10
103
20
0
30
0
40
22.0000000000001
210
0
220
0
230
1
100
AcDbArc
50
298.403395
51
352.16252
0
POINT
5
70
100
AcDbEntity
8
81
62
256
6
ByLayer
370
18
48
1
60
0
100
AcDbPoint
10
103
20
0
30
0
39
0
210
0
220
0
230
1
50
360
0
POINT
5
72
100
AcDbEntity
8
80
62
256
6
ByLayer
370
18
48
1
60
0
100
AcDbPoint
10
0
20
0
30
0
39
0
210
0
220
0
230
1
50
360
0
POINT
5
74
100
AcDbEntity
8
1
62
256
6
ByLayer
370
18
48
1
60
1
100
AcDbPoint
10
-48
20
-5.953
30
0
39
0
210
0
220
0
230
1
50
360
0
POINT
5
76
100
AcDbEntity
8
1
62
256
6
ByLayer
370
18
48
1
60
1
100
AcDbPoint
10
103
20
0
30
0
39
0
210
0
220
0
230
1
50
360
0
POINT
5
77
100
AcDbEntity
8
1
62
256
6
ByLayer
370
18
48
1
60
1
100
AcDbPoint
10
103
20
0
30
0
39
0
210
0
220
0
230
1
50
360
0
POINT
5
78
100
AcDbEntity
8
1
62
256
6
ByLayer
370
18
48
1
60
1
100
AcDbPoint
10
2
20
-5.953
30
0
39
0
210
0
220
0
230
1
50
360
0
POINT
5
79
100
AcDbEntity
8
1
62
256
6
ByLayer
370
18
48
1
60
1
100
AcDbPoint
10
-48
20
-5.953
30
0
39
0
210
0
220
0
230
1
50
360
0
POINT
5
7A
100
AcDbEntity
8
1
62
256
6
ByLayer
370
18
48
1
60
1
100
AcDbPoint
10
0
20
-5.953
30
0
39
0
210
0
220
0
230
1
50
360
0
POINT
5
7B
100
AcDbEntity
8
1
62
256
6
ByLayer
370
18
48
1
60
1
100
AcDbPoint
10
103
20
0
30
0
39
0
210
0
220
0
230
1
50
360
0
POINT
5
7C
100
AcDbEntity
8
1
62
256
6
ByLayer
370
18
48
1
60
1
100
AcDbPoint
10
27.25
20
-5.953
30
0
39
0
210
0
220
0
230
1
50
360
0
SPLINE
5
B9
100
AcDbEntity
8
CUT
62
256
6
ByLayer
370
18
48
1
60
0
100
AcDbSpline
70
2053
71
3
72
17
73
13
40
0
40
0
40
0
40
0
40
0.470572106277002
40
0.470572106277002
40
0.470572106277002
40
0.512614180767464
40
0.512614180767464
40
0.512614180767464
40
0.963187899143471
40
0.963187899143471
40
0.963187899143471
40
1
40
1
40
1
40
1
41
1
10
27.25
20
0
30
0
41
1
10
52.5
20
0
30
0
41
1
10
77.75
20
0
30
0
41
1
10
103
20
0
30
0
41
1
10
101.926923020469
20
1.98433333335126
30
0
41
1
10
100.853846040938
20
3.96866666670252
30
0
41
1
10
99.7807690614069
20
5.95300000005378
30
0
41
1
10
75.6038460409378
20
5.94393365392168
30
0
41
1
10
51.4269230204687
20
5.93486730778955
30
0
41
1
10
27.2499999999998
20
5.92580096165744
30
0
41
1
10
27.25
20
3.95053397443829
30
0
41
1
10
27.25
20
1.97526698721913
30
0
41
1
10
27.25
20
0
30
0
0
SPLINE
5
BB
100
AcDbEntity
8
NOCUT
62
256
6
ByLayer
370
18
48
1
60
0
100
AcDbSpline
70
2053
71
3
72
26
73
22
40
0
40
0
40
0
40
0
40
0.465092073029817
40
0.465092073029817
40
0.465092073029817
40
0.501717229888191
40
0.501717229888191
40
0.501717229888191
40
0.667667037713459
40
0.667667037713459
40
0.667667037713459
40
0.670149994994142
40
0.670149994994142
40
0.670149994994142
40
0.96065175733967
40
0.96065175733967
40
0.96065175733967
40
0.969375000374535
40
0.969375000374535
40
0.969375000374535
40
1
40
1
40
1
40
1
41
1
10
-48
20
0
30
0
41
1
10
-22.9166666666666
20
0
30
0
41
1
10
2.16666666666683
20
0
30
0
41
1
10
27.2500000000001
20
0
30
0
41
1
10
27.25
20
1.97526698721913
30
0
41
1
10
27.25
20
3.95053397443829
30
0
41
1
10
27.25
20
5.92580096165744
30
0
41
1
10
18.3000000000001
20
5.92244471165765
30
0
41
1
10
9.35000000000016
20
5.91908846165785
30
0
41
1
10
0.399999999858807
20
5.91573221167121
30
0
41
1
10
0.266666666478244
20
5.92815480778958
30
0
41
1
10
0.133333333239108
20
5.94057740389479
30
0
41
1
10
0
20
5.953
30
0
41
1
10
-15.6673333333333
20
5.953
30
0
41
1
10
-31.3346666666667
20
5.953
30
0
41
1
10
-47.002
20
5.953
30
0
41
1
10
-47.3346666666667
20
5.62033333333335
30
0
41
1
10
-47.6673333333333
20
5.28766666666667
30
0
41
1
10
-48
20
4.95500000000001
30
0
41
1
10
-48
20
3.30333333333334
30
0
41
1
10
-48
20
1.65166666666667
30
0
41
1
10
-48
20
0
30
0
0
SPLINE
5
BD
100
AcDbEntity
8
1
62
256
6
ByLayer
370
18
48
1
60
0
100
AcDbSpline
70
4
71
3
72
86
73
82
40
0
40
0
40
0
40
0
40
0.0624999999999787
40
0.0624999999999787
40
0.124999999999957
40
0.124999999999957
40
0.187499999999936
40
0.187499999999936
40
0.249999999999915
40
0.249999999999915
40
0.26562499999991
40
0.26562499999991
40
0.281249999999904
40
0.281249999999904
40
0.296874999999899
40
0.296874999999899
40
0.312499999999893
40
0.312499999999893
40
0.34374999999988
40
0.34374999999988
40
0.374999999999866
40
0.374999999999866
40
0.406249999999853
40
0.406249999999853
40
0.437499999999839
40
0.437499999999839
40
0.468749999999825
40
0.468749999999825
40
0.484374999999818
40
0.484374999999818
40
0.492187499999815
40
0.492187499999815
40
0.496093749999814
40
0.496093749999814
40
0.499999999999814
40
0.499999999999814
40
0.501953124999813
40
0.501953124999813
40
0.503906249999813
40
0.503906249999813
40
0.507812499999813
40
0.507812499999813
40
0.511718749999813
40
0.511718749999813
40
0.515624999999814
40
0.515624999999814
40
0.517578124999814
40
0.517578124999814
40
0.519531249999814
40
0.519531249999814
40
0.523437499999814
40
0.523437499999814
40
0.531249999999817
40
0.531249999999817
40
0.546874999999824
40
0.546874999999824
40
0.562499999999831
40
0.562499999999831
40
0.593749999999848
40
0.593749999999848
40
0.624999999999866
40
0.624999999999866
40
0.640624999999873
40
0.640624999999873
40
0.65624999999988
40
0.65624999999988
40
0.687499999999891
40
0.687499999999891
40
0.749999999999913
40
0.749999999999913
40
0.812499999999935
40
0.812499999999935
40
0.82812499999994
40
0.82812499999994
40
0.843749999999945
40
0.843749999999945
40
0.874999999999954
40
0.874999999999954
40
0.937499999999977
40
0.937499999999977
40
1
40
1
40
1
40
1
41
1
10
99.7807690614069
20
5.7638998296031
30
0
41
1
10
99.901623755099
20
5.54142452489975
30
0
41
1
10
100.022149979857
20
5.31828930492733
30
0
41
1
10
100.262435942554
20
4.87085530410926
30
0
41
1
10
100.382196462498
20
4.64655321020371
30
0
41
1
10
100.620653402194
20
4.19675257619286
30
0
41
1
10
100.739303501044
20
3.97135315018534
30
0
41
1
10
100.974846672739
20
3.51943833380278
30
0
41
1
10
101.091762747663
20
3.29291326098149
30
0
41
1
10
101.236132550903
20
3.00871380327021
30
0
41
1
10
101.264911450429
20
2.95181698786641
30
0
41
1
10
101.322273551108
20
2.83791553367456
30
0
41
1
10
101.350847806403
20
2.78090254399689
30
0
41
1
10
101.407736712306
20
2.66673208295515
30
0
41
1
10
101.436070094773
20
2.60959145847684
30
0
41
1
10
101.492661074779
20
2.49533803664048
30
0
41
1
10
101.520912020088
20
2.43821877037991
30
0
41
1
10
101.60549977905
20
2.26686535245315
30
0
41
1
10
101.661671484246
20
2.15263421202448
30
0
41
1
10
101.773372971876
20
1.92408597262741
30
0
41
1
10
101.828926923252
20
1.80972962932165
30
0
41
1
10
101.938913805447
20
1.58098011174329
30
0
41
1
10
101.993348873006
20
1.46660496615124
30
0
41
1
10
102.100375652304
20
1.23752306810985
30
0
41
1
10
102.15300819651
20
1.12277960567434
30
0
41
1
10
102.254867814679
20
0.892529261610775
30
0
41
1
10
102.304142650466
20
0.77708472144937
30
0
41
1
10
102.373034201476
20
0.602390541646173
30
0
41
1
10
102.395145460249
20
0.543915124043508
30
0
41
1
10
102.42638065678
20
0.455695433640841
30
0
41
1
10
102.436477175139
20
0.426200467640427
30
0
41
1
10
102.451112454514
20
0.381887982180729
30
0
41
1
10
102.455935374707
20
0.367124218091306
30
0
41
1
10
102.465025999785
20
0.337315615431152
30
0
41
1
10
102.469231755615
20
0.322227786677047
30
0
41
1
10
102.474513829057
20
0.298995097132547
30
0
41
1
10
102.476108918944
20
0.291154716417793
30
0
41
1
10
102.478939603922
20
0.27526846210219
30
0
41
1
10
102.480178302802
20
0.267188745430047
30
0
41
1
10
102.48324974202
20
0.243127686656521
30
0
41
1
10
102.484470910733
20
0.227192274735955
30
0
41
1
10
102.485197579375
20
0.195534259251701
30
0
41
1
10
102.484683052481
20
0.179663933475439
30
0
41
1
10
102.481915115156
20
0.149317756795853
30
0
41
1
10
102.479677984188
20
0.134747351022753
30
0
41
1
10
102.475039079813
20
0.113847095857466
30
0
41
1
10
102.47326615904
20
0.107009999451435
30
0
41
1
10
102.469357771129
20
0.0938140878866989
30
0
41
1
10
102.467231946826
20
0.0874775200743159
30
0
41
1
10
102.460482278079
20
0.0690198721638353
30
0
41
1
10
102.455521629822
20
0.0573886468451406
30
0
41
1
10
102.440352057283
20
0.0225504194826556
30
0
41
1
10
102.429775809497
20
-0.0004699948223674
30
0
41
1
10
102.396875422937
20
-0.0689220844222973
30
0
41
1
10
102.373271053143
20
-0.113611612713044
30
0
41
1
10
102.324036379492
20
-0.200974793331739
30
0
41
1
10
102.298393416101
20
-0.243656144004859
30
0
41
1
10
102.219373860981
20
-0.369080066795362
30
0
41
1
10
102.163969601944
20
-0.449235847239038
30
0
41
1
10
102.050431443283
20
-0.603698504909659
30
0
41
1
10
101.992251484228
20
-0.677990869528315
30
0
41
1
10
101.903747830151
20
-0.785364687401142
30
0
41
1
10
101.874005773345
20
-0.820506887416315
30
0
41
1
10
101.814309444233
20
-0.889303764713958
30
0
41
1
10
101.784385606957
20
-0.922924743500062
30
0
41
1
10
101.694468683789
20
-1.02152223238969
30
0
41
1
10
101.634335680259
20
-1.08423697133549
30
0
41
1
10
101.453727465063
20
-1.26368663469123
30
0
41
1
10
101.333069226245
20
-1.37173943294923
30
0
41
1
10
101.091663199952
20
-1.56558914528017
30
0
41
1
10
100.97088934634
20
-1.65139237059566
30
0
41
1
10
100.819635650821
20
-1.74477574481696
30
0
41
1
10
100.789369633118
20
-1.76275589263164
30
0
41
1
10
100.728798787605
20
-1.79731405774231
30
0
41
1
10
100.698500752992
20
-1.8138861387913
30
0
41
1
10
100.607945586913
20
-1.86128050905984
30
0
41
1
10
100.547890480145
20
-1.88986196638101
30
0
41
1
10
100.368535855967
20
-1.96673411175163
30
0
41
1
10
100.250045304935
20
-2.00617819962281
30
0
41
1
10
100.014502399837
20
-2.06201638298106
30
0
41
1
10
99.897450985442
20
-2.07840359830243
30
0
41
1
10
99.7807690614069
20
-2.0832449053955
30
0
0
SPLINE
5
BE
100
AcDbEntity
8
1
62
256
6
ByLayer
370
18
48
1
60
0
100
AcDbSpline
70
4
71
3
72
82
73
78
40
0
40
0
40
0
40
0
40
0.0321274824658473
40
0.0321274824658473
40
0.0642549649316947
40
0.0642549649316947
40
0.0963824473975421
40
0.0963824473975421
40
0.128509929863389
40
0.128509929863389
40
0.160637412329237
40
0.160637412329237
40
0.192764894795084
40
0.192764894795084
40
0.208828636028008
40
0.208828636028008
40
0.224892377260931
40
0.224892377260931
40
0.257019859726779
40
0.257019859726779
40
0.289147342192626
40
0.289147342192626
40
0.321274824658474
40
0.321274824658474
40
0.353402307124321
40
0.353402307124321
40
0.369466048357245
40
0.369466048357245
40
0.385529789590168
40
0.385529789590168
40
0.417657272056012
40
0.417657272056012
40
0.449784754521857
40
0.449784754521857
40
0.481912236987701
40
0.481912236987701
40
0.514039719453545
40
0.514039719453545
40
0.54616720191939
40
0.54616720191939
40
0.56223094315231
40
0.56223094315231
40
0.578294684385231
40
0.578294684385231
40
0.610422166851069
40
0.610422166851069
40
0.642549649316907
40
0.642549649316907
40
0.658613390549824
40
0.658613390549824
40
0.674677131782742
40
0.674677131782742
40
0.706804614248577
40
0.706804614248577
40
0.722868355481494
40
0.722868355481494
40
0.730900226097953
40
0.730900226097953
40
0.738932096714412
40
0.738932096714412
40
0.771059579180253
40
0.771059579180253
40
0.803187061646095
40
0.803187061646095
40
0.835314544111936
40
0.835314544111936
40
0.867442026577777
40
0.867442026577777
40
0.899569509043618
40
0.899569509043618
40
0.93169699150946
40
0.93169699150946
40
0.963824473975301
40
0.963824473975301
40
0.995951956441142
40
0.995951956441142
40
1
40
1
40
1
40
1
41
1
10
99.7807690614075
20
-2.08324490539582
30
0
41
1
10
99.5568647015413
20
-1.96687717267074
30
0
41
1
10
99.3336175713569
20
-1.84927237934514
30
0
41
1
10
98.8877924904899
20
-1.61277519251172
30
0
41
1
10
98.6652255675728
20
-1.49386265013027
30
0
41
1
10
98.220934325857
20
-1.2544321611006
30
0
41
1
10
97.9991849324624
20
-1.13396027329094
30
0
41
1
10
97.5563200494154
20
-0.891795026568929
30
0
41
1
10
97.3351915857243
20
-0.770125475808953
30
0
41
1
10
96.8929599453782
20
-0.526685191656924
30
0
41
1
10
96.6719546039824
20
-0.404734485565285
30
0
41
1
10
96.2301988351463
20
-0.160309562053527
30
0
41
1
10
96.0094381411975
20
-0.0378542137327997
30
0
41
1
10
95.6783119327512
20
0.145896888444952
30
0
41
1
10
95.5679312015659
20
0.20714423760316
30
0
41
1
10
95.3470653608387
20
0.329460217501122
30
0
41
1
10
95.236575858127
20
0.390520745485389
30
0
41
1
10
94.9049851242967
20
0.573497458831071
30
0
41
1
10
94.6837901946211
20
0.695261344071866
30
0
41
1
10
94.2410573486422
20
0.938211743138226
30
0
41
1
10
94.0195358139151
20
1.05942849844217
30
0
41
1
10
93.5758252413123
20
1.30068685724132
30
0
41
1
10
93.3535201578471
20
1.42051435800366
30
0
41
1
10
92.9080257984663
20
1.65859464998198
30
0
41
1
10
92.6848749019034
20
1.77691828775377
30
0
41
1
10
92.3494335361455
20
1.95312768902033
30
0
41
1
10
92.2374144137843
20
2.01169657660122
30
0
41
1
10
92.0137630600044
20
2.12800722295208
30
0
41
1
10
91.902080267623
20
2.18576571059526
30
0
41
1
10
91.5673181739915
20
2.35761014309671
30
0
41
1
10
91.3444948834306
20
2.47021789233091
30
0
41
1
10
90.899734528663
20
2.69192462856569
30
0
41
1
10
90.6777765971202
20
2.8009833693547
30
0
41
1
10
90.2345564439598
20
3.01528715539595
30
0
41
1
10
90.0133146669497
20
3.12055939414867
30
0
41
1
10
89.5709169526879
20
3.32635200537825
30
0
41
1
10
89.3498278045572
20
3.42698583417075
30
0
41
1
10
88.9079690405759
20
3.62390276305945
30
0
41
1
10
88.6871781578634
20
3.72015090538878
30
0
41
1
10
88.356071169085
20
3.86100889391548
30
0
41
1
10
88.2457120295285
20
3.90737061784728
30
0
41
1
10
88.0249207722856
20
3.99878363788434
30
0
41
1
10
87.9144789958918
20
4.04382221768611
30
0
41
1
10
87.5830236318707
20
4.17695207308594
30
0
41
1
10
87.3619261929803
20
4.26312080151652
30
0
41
1
10
86.9194563184885
20
4.43023490744318
30
0
41
1
10
86.6980859386041
20
4.51117982657141
30
0
41
1
10
86.3656215916252
20
4.62838612081919
30
0
41
1
10
86.2547213982707
20
4.66674020160065
30
0
41
1
10
86.0326752198332
20
4.74191444198516
30
0
41
1
10
85.9215353753799
20
4.77874247553146
30
0
41
1
10
85.5878155113648
20
4.88700195672695
30
0
41
1
10
85.3649542219725
20
4.95622966661765
30
0
41
1
10
85.0299979173702
20
5.05549476356924
30
0
41
1
10
84.9182338835979
20
5.08781886706157
30
0
41
1
10
84.75040104737
20
5.13513003368465
30
0
41
1
10
84.6944065797567
20
5.1507098451558
30
0
41
1
10
84.5825177341176
20
5.18141799367586
30
0
41
1
10
84.5266073567953
20
5.19655097245334
30
0
41
1
10
84.2471959679721
20
5.27108788451687
30
0
41
1
10
84.0240521627299
20
5.32705540786816
30
0
41
1
10
83.5786685675523
20
5.43192651581583
30
0
41
1
10
83.3564287259837
20
5.48082411152276
30
0
41
1
10
82.9127116724772
20
5.57148377234768
30
0
41
1
10
82.6912708076751
20
5.61326156768655
30
0
41
1
10
82.2485894140314
20
5.689375179705
30
0
41
1
10
82.0273592334817
20
5.72373221441367
30
0
41
1
10
81.5852831566601
20
5.78518412382729
30
0
41
1
10
81.364411834908
20
5.81226104914361
30
0
41
1
10
80.9228461045545
20
5.85903504989864
30
0
41
1
10
80.7021431900725
20
5.87872092268614
30
0
41
1
10
80.2603018765823
20
5.91054268934465
30
0
41
1
10
80.0392593958274
20
5.92271372600257
30
0
41
1
10
79.5969732138964
20
5.93955723606257
30
0
41
1
10
79.3757173464405
20
5.94422350479704
30
0
41
1
10
79.1263391682103
20
5.94519692684017
30
0
41
1
10
79.0984298187227
20
5.94524545066039
30
0
41
1
10
79.0705158068522
20
5.94523355944463
30
0
0
SPLINE
5
BF
100
AcDbEntity
8
1
62
256
6
ByLayer
370
18
48
1
60
0
100
AcDbSpline
70
4
71
3
72
155
73
151
40
0
40
0
40
0
40
0
40
0.0038506707374318
40
0.0038506707374318
40
0.0122216735043443
40
0.0122216735043443
40
0.0289636790381684
40
0.0289636790381684
40
0.037334681805081
40
0.037334681805081
40
0.0457056845719935
40
0.0457056845719935
40
0.0624476901058186
40
0.0624476901058186
40
0.0791896956396437
40
0.0791896956396437
40
0.0959317011734688
40
0.0959317011734688
40
0.112673706707294
40
0.112673706707294
40
0.129415712241119
40
0.129415712241119
40
0.146157717774944
40
0.146157717774944
40
0.162899723308769
40
0.162899723308769
40
0.179641728842594
40
0.179641728842594
40
0.18382723022605
40
0.18382723022605
40
0.188012731609506
40
0.188012731609506
40
0.196383734376418
40
0.196383734376418
40
0.213125739910242
40
0.213125739910242
40
0.221496742677153
40
0.221496742677153
40
0.229867745444065
40
0.229867745444065
40
0.246609750977889
40
0.246609750977889
40
0.263351756511712
40
0.263351756511712
40
0.280093762045535
40
0.280093762045535
40
0.296835767579359
40
0.296835767579359
40
0.313577773113182
40
0.313577773113182
40
0.330319778647006
40
0.330319778647006
40
0.347061784180829
40
0.347061784180829
40
0.363803789714652
40
0.363803789714652
40
0.372174792481564
40
0.372174792481564
40
0.380545795248475
40
0.380545795248475
40
0.397287800782298
40
0.397287800782298
40
0.40565880354921
40
0.40565880354921
40
0.414029806316122
40
0.414029806316122
40
0.430771811849947
40
0.430771811849947
40
0.447513817383771
40
0.447513817383771
40
0.455884820150683
40
0.455884820150683
40
0.464255822917596
40
0.464255822917596
40
0.480997828451422
40
0.480997828451422
40
0.497739833985248
40
0.497739833985248
40
0.514481839519073
40
0.514481839519073
40
0.531223845052899
40
0.531223845052899
40
0.547965850586725
40
0.547965850586725
40
0.564707856120551
40
0.564707856120551
40
0.568893357504008
40
0.568893357504008
40
0.573078858887465
40
0.581449861654378
40
0.581449861654378
40
0.598191867188204
40
0.598191867188204
40
0.61493387272203
40
0.61493387272203
40
0.631675878255856
40
0.631675878255856
40
0.640046881022769
40
0.640046881022769
40
0.648417883789682
40
0.648417883789682
40
0.665159889323507
40
0.665159889323507
40
0.681901894857333
40
0.681901894857333
40
0.698643900391159
40
0.698643900391159
40
0.715385905924985
40
0.715385905924985
40
0.73212791145881
40
0.73212791145881
40
0.748869916992636
40
0.748869916992636
40
0.757240919759549
40
0.757240919759549
40
0.765611922526462
40
0.765611922526462
40
0.782353928060287
40
0.782353928060287
40
0.799095933594112
40
0.799095933594112
40
0.815837939127937
40
0.815837939127937
40
0.82420894189485
40
0.82420894189485
40
0.832579944661763
40
0.832579944661763
40
0.849321950195588
40
0.849321950195588
40
0.866063955729413
40
0.866063955729413
40
0.874434958496325
40
0.874434958496325
40
0.882805961263237
40
0.882805961263237
40
0.89954796679706
40
0.89954796679706
40
0.916289972330884
40
0.916289972330884
40
0.933031977864707
40
0.933031977864707
40
0.941402980631618
40
0.941402980631618
40
0.94977398339853
40
0.94977398339853
40
0.966515988932353
40
0.966515988932353
40
0.983257994466177
40
0.983257994466177
40
1
40
1
40
1
40
1
41
1
10
54.332643524831
20
-3.97030341790719
30
0
41
1
10
54.2811421413859
20
-3.99142371561152
30
0
41
1
10
54.2296655358976
20
-4.01239747131166
30
0
41
1
10
54.0664061136378
20
-4.07849028572431
30
0
41
1
10
53.9547209452181
20
-4.12306207914312
30
0
41
1
10
53.6200500364931
20
-4.25466472961031
30
0
41
1
10
53.3974669431798
20
-4.33960564289214
30
0
41
1
10
53.0641714063322
20
-4.46257689371757
30
0
41
1
10
52.9531578989881
20
-4.50281261230515
30
0
41
1
10
52.7312164927451
20
-4.58168457852432
30
0
41
1
10
52.62029607837
20
-4.62033093140508
30
0
41
1
10
52.2877353020675
20
-4.73397654029012
30
0
41
1
10
52.0663116484275
20
-4.80670044279321
30
0
41
1
10
51.6239131870748
20
-4.94595366521091
30
0
41
1
10
51.4029692149105
20
-5.01250989989089
30
0
41
1
10
50.9611319058595
20
-5.13902634288752
30
0
41
1
10
50.7401397036268
20
-5.19890202441334
30
0
41
1
10
50.2981619283931
20
-5.31206636479828
30
0
41
1
10
50.0771756087456
20
-5.36534955890721
30
0
41
1
10
49.6350717356814
20
-5.46516829416302
30
0
41
1
10
49.4139907623489
20
-5.51172333576801
30
0
41
1
10
48.9711454313916
20
-5.59765904080894
30
0
41
1
10
48.7493853006304
20
-5.63705601178637
30
0
41
1
10
48.3053577318938
20
-5.70877628163149
30
0
41
1
10
48.0830642720951
20
-5.74107960082938
30
0
41
1
10
47.6377531597344
20
-5.79839029642579
30
0
41
1
10
47.4147261786998
20
-5.82338554490892
30
0
41
1
10
47.1351061860679
20
-5.84987300145104
30
0
41
1
10
47.0791446777037
20
-5.85493460718945
30
0
41
1
10
46.9671506879654
20
-5.86458627165845
30
0
41
1
10
46.9110948186965
20
-5.86917812077724
30
0
41
1
10
46.7430411177524
20
-5.88222890306909
30
0
41
1
10
46.6311505478937
20
-5.88996390637837
30
0
41
1
10
46.2958881596902
20
-5.9102824003902
30
0
41
1
10
46.0729373937545
20
-5.91998101463801
30
0
41
1
10
45.7391796121385
20
-5.92877807506616
30
0
41
1
10
45.6280303186774
20
-5.93075066054647
30
0
41
1
10
45.4058441177941
20
-5.93278548432295
30
0
41
1
10
45.2948047235139
20
-5.9328488826331
30
0
41
1
10
44.961895686241
20
-5.93020043176062
30
0
41
1
10
44.7402613632827
20
-5.92464907987772
30
0
41
1
10
44.2975181882675
20
-5.90601225997435
30
0
41
1
10
44.0764287431691
20
-5.89291860151999
30
0
41
1
10
43.6344421530575
20
-5.85926285632615
30
0
41
1
10
43.4134290729445
20
-5.83873798808884
30
0
41
1
10
42.9714081083093
20
-5.79033704578228
30
0
41
1
10
42.7504323716975
20
-5.7624459339342
30
0
41
1
10
42.308419245734
20
-5.69930292996591
30
0
41
1
10
42.0874187325966
20
-5.66402572245607
30
0
41
1
10
41.6448852822109
20
-5.58631926660638
30
0
41
1
10
41.4232941568148
20
-5.54393832870298
30
0
41
1
10
40.9796594824003
20
-5.45197581880907
30
0
41
1
10
40.7575950389126
20
-5.4024024571101
30
0
41
1
10
40.3128186307859
20
-5.29608740910416
30
0
41
1
10
40.0901277312803
20
-5.23931829630817
30
0
41
1
10
39.7551464359319
20
-5.14913029247032
30
0
41
1
10
39.6433393451561
20
-5.11822128422955
30
0
41
1
10
39.419464361616
20
-5.05466964756579
30
0
41
1
10
39.3073101271139
20
-5.02199726931121
30
0
41
1
10
38.9714054112369
20
-4.92166658279771
30
0
41
1
10
38.7480557425996
20
-4.85164832985211
30
0
41
1
10
38.4137760873647
20
-4.74210497252412
30
0
41
1
10
38.3024694463245
20
-4.70484219367722
30
0
41
1
10
38.0800027189869
20
-4.62893646908668
30
0
41
1
10
37.9688333956886
20
-4.59030505273091
30
0
41
1
10
37.635535533725
20
-4.47237059744137
30
0
41
1
10
37.4136585892341
20
-4.39097793742803
30
0
41
1
10
36.970509277368
20
-4.22272927420767
30
0
41
1
10
36.7492430509238
20
-4.13586229659688
30
0
41
1
10
36.417586544238
20
-4.00174310658463
30
0
41
1
10
36.3070630581065
20
-3.95641622195356
30
0
41
1
10
36.0859905582114
20
-3.86464196622842
30
0
41
1
10
35.9754493450727
20
-3.81818441226685
30
0
41
1
10
35.6438615894202
20
-3.67703500045479
30
0
41
1
10
35.4228668326701
20
-3.58054317927306
30
0
41
1
10
34.980888070563
20
-3.3829304166884
30
0
41
1
10
34.7599350813193
20
-3.28175906807388
30
0
41
1
10
34.3176448756717
20
-3.07536566963933
30
0
41
1
10
34.0962098862031
20
-2.97030408936948
30
0
41
1
10
33.6529145203769
20
-2.7562025415194
30
0
41
1
10
33.4310527066159
20
-2.64716149126841
30
0
41
1
10
32.9867569612611
20
-2.42528300392362
30
0
41
1
10
32.7643586913424
20
-2.31237839608411
30
0
41
1
10
32.3184233888853
20
-2.08370973287677
30
0
41
1
10
32.0948990646765
20
-1.96793300203075
30
0
41
1
10
31.8148907976353
20
-1.82120533275307
30
0
41
1
10
31.7588336463743
20
-1.79175041048231
30
0
41
1
10
31.6467875662758
20
-1.7327198942327
30
0
41
1
10
31.4788313138789
20
-1.64399809774122
30
0
41
1
10
31.3112021954332
20
-1.55476951765573
30
0
41
1
10
30.9763450860734
20
-1.37570182244031
30
0
41
1
10
30.7536269508166
20
-1.25553761443075
30
0
41
1
10
30.3086600839286
20
-1.0146998425532
30
0
41
1
10
30.0865109533218
20
-0.893839508168583
30
0
41
1
10
29.6428973636586
20
-0.651203076896337
30
0
41
1
10
29.4214254711166
20
-0.529441066542262
30
0
41
1
10
29.0895492883346
20
-0.346449593538807
30
0
41
1
10
28.9789707261084
20
-0.285410076059605
30
0
41
1
10
28.7578132996886
20
-0.163420390103454
30
0
41
1
10
28.6472329898399
20
-0.102472847295104
30
0
41
1
10
28.3155373663662
20
0.080321465274352
30
0
41
1
10
28.0944929759161
20
0.202167381657375
30
0
41
1
10
27.6524920046724
20
0.445668784413812
30
0
41
1
10
27.431555407165
20
0.567360941101498
30
0
41
1
10
26.9894390063103
20
0.809942004724491
30
0
41
1
10
26.7681440542364
20
0.930619135264834
30
0
41
1
10
26.3251321999629
20
1.17084202449303
30
0
41
1
10
26.103445615175
20
1.29044331289438
30
0
41
1
10
25.6595737464933
20
1.52836971128676
30
0
41
1
10
25.4374252313336
20
1.64676176762077
30
0
41
1
10
24.9921422584223
20
1.88137446235098
30
0
41
1
10
24.7689568797912
20
1.99750284529227
30
0
41
1
10
24.43350331268
20
2.17018193096894
30
0
41
1
10
24.321566181398
20
2.22747710833042
30
0
41
1
10
24.0974367521572
20
2.3415073492074
30
0
41
1
10
23.9854154775031
20
2.39815489694462
30
0
41
1
10
23.6499339108813
20
2.56669463540601
30
0
41
1
10
23.4268716488582
20
2.67731498667902
30
0
41
1
10
22.981285362149
20
2.89404396347251
30
0
41
1
10
22.7588364459468
20
3.00028977156867
30
0
41
1
10
22.3147024155957
20
3.20872252953836
30
0
41
1
10
22.0929984417412
20
3.31087550790011
30
0
41
1
10
21.7608507935561
20
3.460806259534
30
0
41
1
10
21.6501979003651
20
3.51022516782416
30
0
41
1
10
21.4289250234259
20
3.60781203982648
30
0
41
1
10
21.318296135344
20
3.65596747148948
30
0
41
1
10
20.9864571690156
20
3.79856902779483
30
0
41
1
10
20.7653343101109
20
3.8912085630144
30
0
41
1
10
20.3232550496948
20
4.07157521376985
30
0
41
1
10
20.1023057113044
20
4.15930872128291
30
0
41
1
10
19.7707971254297
20
4.28692386557518
30
0
41
1
10
19.6602681047022
20
4.32878243130091
30
0
41
1
10
19.4390772172936
20
4.41104084588554
30
0
41
1
10
19.328423435391
20
4.45145158163211
30
0
41
1
10
18.9963381218266
20
4.57059228310092
30
0
41
1
10
18.7747977977812
20
4.64724857396479
30
0
41
1
10
18.33129327712
20
4.79482518524327
30
0
41
1
10
18.1093607469723
20
4.86577670705088
30
0
41
1
10
17.6646597026539
20
5.00143127918585
30
0
41
1
10
17.4417979265948
20
5.06604484184697
30
0
41
1
10
17.1068546190569
20
5.1582373326018
30
0
41
1
10
16.9950964597986
20
5.18817712985958
30
0
41
1
10
16.7713426166989
20
5.24644737344676
30
0
41
1
10
16.6593096564105
20
5.27478774013596
30
0
41
1
10
16.323076122816
20
5.35728104133312
30
0
41
1
10
16.0991608279752
20
5.40883517346012
30
0
41
1
10
15.6511788355466
20
5.5046104145579
30
0
41
1
10
15.4271190187304
20
5.54884934639873
30
0
41
1
10
14.9789636921888
20
5.63012118552786
30
0
41
1
10
14.7548690514573
20
5.66715632516286
30
0
41
1
10
14.5308535675269
20
5.70058932867985
30
0
0
SPLINE
5
C0
100
AcDbEntity
8
1
62
256
6
ByLayer
370
18
48
1
60
0
100
AcDbSpline
70
4
71
3
72
12
73
8
40
0
40
0
40
0
40
0
40
0.479846397620115
40
0.479846397620115
40
0.95969279524023
40
0.95969279524023
40
1
40
1
40
1
40
1
41
1
10
14.530853567527
20
5.70058932867988
30
0
41
1
10
13.9382918008102
20
5.76516418355934
30
0
41
1
10
13.3514718179749
20
5.81827287487985
30
0
41
1
10
12.1873811030802
20
5.89370416350184
30
0
41
1
10
11.6101004198836
20
5.91605128447856
30
0
41
1
10
10.9884628760924
20
5.91953337020459
30
0
41
1
10
10.940318421815
20
5.91966859319115
30
0
41
1
10
10.8922003425331
20
5.91966671659338
30
0
0
SPLINE
5
C1
100
AcDbEntity
8
1
62
256
6
ByLayer
370
18
48
1
60
0
100
AcDbSpline
70
4
71
3
72
188
73
184
40
0
40
0
40
0
40
0
40
0.01365677974985
40
0.01365677974985
40
0.0214517410176941
40
0.0214517410176941
40
0.0292467022855382
40
0.0292467022855382
40
0.0370416635533823
40
0.0370416635533823
40
0.0448366248212263
40
0.0448366248212263
40
0.0604265473569152
40
0.0604265473569152
40
0.0760164698926042
40
0.0760164698926042
40
0.083811431160449
40
0.083811431160449
40
0.0916063924282938
40
0.0916063924282938
40
0.107196314963984
40
0.107196314963984
40
0.122786237499675
40
0.122786237499675
40
0.13058119876752
40
0.13058119876752
40
0.138376160035365
40
0.138376160035365
40
0.153966082571056
40
0.153966082571056
40
0.169556005106746
40
0.169556005106746
40
0.185145927642436
40
0.185145927642436
40
0.192940888910282
40
0.192940888910282
40
0.200735850178127
40
0.200735850178127
40
0.208530811445972
40
0.208530811445972
40
0.212428292079895
40
0.212428292079895
40
0.216325772713817
40
0.216325772713817
40
0.231915695249506
40
0.231915695249506
40
0.247505617785195
40
0.247505617785195
40
0.25530057905304
40
0.25530057905304
40
0.263095540320885
40
0.263095540320885
40
0.278685462856574
40
0.278685462856574
40
0.294275385392264
40
0.294275385392264
40
0.302070346660109
40
0.302070346660109
40
0.309865307927953
40
0.309865307927953
40
0.325455230463643
40
0.325455230463643
40
0.341045152999333
40
0.341045152999333
40
0.356635075535022
40
0.356635075535022
40
0.364430036802867
40
0.364430036802867
40
0.372224998070711
40
0.372224998070711
40
0.387814920606401
40
0.387814920606401
40
0.403404843142091
40
0.403404843142091
40
0.411199804409936
40
0.411199804409936
40
0.418994765677781
40
0.418994765677781
40
0.434584688213471
40
0.434584688213471
40
0.45017461074916
40
0.45017461074916
40
0.46576453328485
40
0.46576453328485
40
0.473559494552695
40
0.473559494552695
40
0.481354455820539
40
0.481354455820539
40
0.496944378356229
40
0.496944378356229
40
0.512534300891918
40
0.512534300891918
40
0.520329262159763
40
0.520329262159763
40
0.528124223427608
40
0.528124223427608
40
0.543714145963298
40
0.543714145963298
40
0.559304068498987
40
0.559304068498987
40
0.56320154913291
40
0.56320154913291
40
0.567099029766832
40
0.567099029766832
40
0.574893991034677
40
0.574893991034677
40
0.582688952302522
40
0.582688952302522
40
0.590483913570367
40
0.590483913570367
40
0.606073836106057
40
0.606073836106057
40
0.621663758641748
40
0.621663758641748
40
0.637253681177438
40
0.637253681177438
40
0.645048642445283
40
0.645048642445283
40
0.652843603713129
40
0.652843603713129
40
0.66843352624882
40
0.66843352624882
40
0.684023448784511
40
0.684023448784511
40
0.691818410052356
40
0.691818410052356
40
0.699613371320201
40
0.699613371320201
40
0.715203293855892
40
0.715203293855892
40
0.730793216391582
40
0.730793216391582
40
0.738588177659427
40
0.738588177659427
40
0.746383138927272
40
0.746383138927272
40
0.754178100195117
40
0.754178100195117
40
0.761973061462962
40
0.761973061462962
40
0.777562983998651
40
0.777562983998651
40
0.793152906534341
40
0.793152906534341
40
0.800947867802186
40
0.800947867802186
40
0.808742829070031
40
0.808742829070031
40
0.82433275160572
40
0.82433275160572
40
0.83992267414141
40
0.83992267414141
40
0.8555125966771
40
0.8555125966771
40
0.863307557944944
40
0.863307557944944
40
0.871102519212789
40
0.871102519212789
40
0.88669244174848
40
0.88669244174848
40
0.90228236428417
40
0.90228236428417
40
0.910077325552015
40
0.910077325552015
40
0.91787228681986
40
0.91787228681986
40
0.921769767453783
40
0.921769767453783
40
0.925667248087705
40
0.925667248087705
40
0.933462209355549
40
0.933462209355549
40
0.949052131891238
40
0.949052131891238
40
0.964642054426927
40
0.964642054426927
40
0.972437015694772
40
0.972437015694772
40
0.980231976962615
40
0.980231976962615
40
0.995821899498303
40
0.995821899498303
40
1
40
1
40
1
40
1
41
1
10
20.6036693444197
20
3.96430217066586
30
0
41
1
10
20.7984108560584
20
4.04407008157938
30
0
41
1
10
20.9935256077647
20
4.12183837357432
30
0
41
1
10
21.3003710501516
20
4.24114697440262
30
0
41
1
10
21.4119501789747
20
4.28390206091649
30
0
41
1
10
21.635259372873
20
4.36821537224915
30
0
41
1
10
21.7469965579167
20
4.40976358569733
30
0
41
1
10
21.970738281206
20
4.49149914579149
30
0
41
1
10
22.082832316375
20
4.53171504938339
30
0
41
1
10
22.3067286554385
20
4.61044624313149
30
0
41
1
10
22.4185790299149
20
4.64896986513375
30
0
41
1
10
22.7538792333996
20
4.76200380244606
30
0
41
1
10
22.9770172595205
20
4.83405936680504
30
0
41
1
10
23.4221940243987
20
4.97198206970717
30
0
41
1
10
23.6441947461445
20
5.03787026206894
30
0
41
1
10
23.9768488466579
20
5.13156623063668
30
0
41
1
10
24.0876771014671
20
5.1619427807322
30
0
41
1
10
24.3093007737529
20
5.22092702607739
30
0
41
1
10
24.4201026927703
20
5.24953010295101
30
0
41
1
10
24.7523947188073
20
5.3327681377051
30
0
41
1
10
24.9737439686033
20
5.38485916053247
30
0
41
1
10
25.4158713898492
20
5.48237754772867
30
0
41
1
10
25.6366825318902
20
5.52776308896119
30
0
41
1
10
25.9680916018239
20
5.59038826231887
30
0
41
1
10
26.0785951105083
20
5.61035570136119
30
0
41
1
10
26.2997174601629
20
5.6484584027084
30
0
41
1
10
26.4103257383909
20
5.66660074386394
30
0
41
1
10
26.7421989138245
20
5.71835538319209
30
0
41
1
10
26.9634826918737
20
5.74931128849104
30
0
41
1
10
27.4061131554599
20
5.80402859282412
30
0
41
1
10
27.6275392698822
20
5.82774388087248
30
0
41
1
10
28.0713190495107
20
5.86761195828399
30
0
41
1
10
28.2937133490458
20
5.88377312892646
30
0
41
1
10
28.6277537191054
20
5.90241019025581
30
0
41
1
10
28.7391784868771
20
5.90768541204275
30
0
41
1
10
28.9621648891199
20
5.91634309823451
30
0
41
1
10
29.0737245621595
20
5.91972464693114
30
0
41
1
10
29.2970782761607
20
5.92456119742158
30
0
41
1
10
29.4088738571152
20
5.9260161721576
30
0
41
1
10
29.5768126368641
20
5.92674329343205
30
0
41
1
10
29.6328548001298
20
5.92674303929155
30
0
41
1
10
29.7448677434905
20
5.92625848056116
30
0
41
1
10
29.8008501564858
20
5.92577447883278
30
0
41
1
10
30.0806508565101
20
5.92215535286922
30
0
41
1
10
30.304098892849
20
5.91543226520599
30
0
41
1
10
30.7498538803535
20
5.89438425341089
30
0
41
1
10
30.9721131753772
20
5.88003241044734
30
0
41
1
10
31.3050357697711
20
5.85287636454984
30
0
41
1
10
31.4159387125019
20
5.84288960773941
30
0
41
1
10
31.6376827187477
20
5.82108694725781
30
0
41
1
10
31.7485341270308
20
5.80927550663642
30
0
41
1
10
32.0809871800432
20
5.77112326749287
30
0
41
1
10
32.3024435999412
20
5.74205356488977
30
0
41
1
10
32.7447381003932
20
5.67651911107427
30
0
41
1
10
32.9655672337524
20
5.64003135375648
30
0
41
1
10
33.2969125188362
20
5.58002920682171
30
0
41
1
10
33.4073763508814
20
5.55915129099381
30
0
41
1
10
33.6284104868727
20
5.51570085231157
30
0
41
1
10
33.7389749199884
20
5.49312567916019
30
0
41
1
10
34.0707167914233
20
5.42279495058506
30
0
41
1
10
34.2919162682463
20
5.37241777593181
30
0
41
1
10
34.7342707715927
20
5.26450067816597
30
0
41
1
10
34.9554903723552
20
5.20699836324118
30
0
41
1
10
35.3987452828613
20
5.08551468111571
30
0
41
1
10
35.6208450940657
20
5.02161290146026
30
0
41
1
10
35.9544544780901
20
4.92076959964464
30
0
41
1
10
36.0657311697382
20
4.88631820834996
30
0
41
1
10
36.2884124986874
20
4.81570211155454
30
0
41
1
10
36.3998086607577
20
4.77952710049959
30
0
41
1
10
36.7342887316407
20
4.66850890279622
30
0
41
1
10
36.9576880027786
20
4.59119249905172
30
0
41
1
10
37.4060000336488
20
4.43073660921144
30
0
41
1
10
37.6298161678685
20
4.34797855819423
30
0
41
1
10
37.9646187875793
20
4.21974004441415
30
0
41
1
10
38.0760755702377
20
4.17631118524289
30
0
41
1
10
38.2986968584377
20
4.08808176972909
30
0
41
1
10
38.4098694821339
20
4.0432918341227
30
0
41
1
10
38.7431230772748
20
3.90710738687525
30
0
41
1
10
38.9649695865381
20
3.81393874056562
30
0
41
1
10
39.4085081068497
20
3.62361721681603
30
0
41
1
10
39.6300999788681
20
3.52632561501557
30
0
41
1
10
40.0726209596751
20
3.32702968603905
30
0
41
1
10
40.2935138713408
20
3.22496067120343
30
0
41
1
10
40.6248475003109
20
3.06906007582123
30
0
41
1
10
40.7352919505688
20
3.0166293907009
30
0
41
1
10
40.956260854476
20
2.91097340646149
30
0
41
1
10
41.0667912594788
20
2.85775828100927
30
0
41
1
10
41.398433354987
20
2.69681847679567
30
0
41
1
10
41.6195691482637
20
2.58775792938786
30
0
41
1
10
42.061714785476
20
2.36571976436997
30
0
41
1
10
42.2827598247475
20
2.25279242685235
30
0
41
1
10
42.6148516445833
20
2.0814918868987
30
0
41
1
10
42.725638274882
20
2.02407813479067
30
0
41
1
10
42.9474345519587
20
1.90870475189158
30
0
41
1
10
43.0584336563787
20
1.85072696347879
30
0
41
1
10
43.3916418424351
20
1.67575328984825
30
0
41
1
10
43.6140313850914
20
1.55766257091378
30
0
41
1
10
44.0593300701848
20
1.31855061175097
30
0
41
1
10
44.2823206897302
20
1.19767367509829
30
0
41
1
10
44.5619321085277
20
1.04574922788424
30
0
41
1
10
44.6178986646126
20
1.01532445199942
30
0
41
1
10
44.7299197959477
20
0.954394211277702
30
0
41
1
10
44.7859930943156
20
0.923876165292512
30
0
41
1
10
44.9540738765842
20
0.832312741500488
30
0
41
1
10
45.0660008402019
20
0.771221247981742
30
0
41
1
10
45.2895563586906
20
0.648851217360459
30
0
41
1
10
45.4011878517892
20
0.587578401140377
30
0
41
1
10
45.6241378384465
20
0.464817702985783
30
0
41
1
10
45.7354574938793
20
0.403332286623254
30
0
41
1
10
46.0690995234144
20
0.218844908443572
30
0
41
1
10
46.2911235653428
20
0.0958482245758887
30
0
41
1
10
46.7349736619155
20
-0.149028747844312
30
0
41
1
10
46.9567249028549
20
-0.271053415665676
30
0
41
1
10
47.3995216531846
20
-0.514952991834235
30
0
41
1
10
47.620519463208
20
-0.636912861827
30
0
41
1
10
47.9518890213685
20
-0.818988164258087
30
0
41
1
10
48.0623302809981
20
-0.879525256942628
30
0
41
1
10
48.2832630521081
20
-1.00014423839588
30
0
41
1
10
48.393764958626
20
-1.06020735084223
30
0
41
1
10
48.7253341583541
20
-1.23973976710911
30
0
41
1
10
48.9464211490381
20
-1.35863284876697
30
0
41
1
10
49.3884181234625
20
-1.59528506392388
30
0
41
1
10
49.6093206218943
20
-1.71305385682621
30
0
41
1
10
49.9411050923858
20
-1.88783875798595
30
0
41
1
10
50.0517701594024
20
-1.9457921803768
30
0
41
1
10
50.2733147849086
20
-2.06095334528655
30
0
41
1
10
50.3841882176727
20
-2.11817212011076
30
0
41
1
10
50.7170188662524
20
-2.28890626650198
30
0
41
1
10
50.9391592208938
20
-2.40154756068617
30
0
41
1
10
51.3838413863853
20
-2.62462113991432
30
0
41
1
10
51.6064505150483
20
-2.73493395932985
30
0
41
1
10
51.9413222845899
20
-2.89760300940625
30
0
41
1
10
52.0531127990843
20
-2.95134817532789
30
0
41
1
10
52.2770225587538
20
-3.05789042879607
30
0
41
1
10
52.3892105197281
20
-3.11073701998828
30
0
41
1
10
52.6131525565856
20
-3.21528013558219
30
0
41
1
10
52.7249724019389
20
-3.26700282723036
30
0
41
1
10
52.9482897461484
20
-3.36938581761956
30
0
41
1
10
53.0597795326945
20
-3.42005761302028
30
0
41
1
10
53.3938730949144
20
-3.5703081368483
30
0
41
1
10
53.6161206786081
20
-3.66808597901135
30
0
41
1
10
54.0603325443593
20
-3.85794723535969
30
0
41
1
10
54.2822692299006
20
-3.9500877724449
30
0
41
1
10
54.6146157816404
20
-4.08458657279346
30
0
41
1
10
54.7253079529373
20
-4.12879453163706
30
0
41
1
10
54.9465103736676
20
-4.21595732272533
30
0
41
1
10
55.0570291062494
20
-4.25890016136341
30
0
41
1
10
55.3884886839685
20
-4.38561548880469
30
0
41
1
10
55.6093631140232
20
-4.46723412514547
30
0
41
1
10
56.0514011177389
20
-4.62423230706673
30
0
41
1
10
56.2724630600956
20
-4.6997443657898
30
0
41
1
10
56.7143635928541
20
-4.84512654771319
30
0
41
1
10
56.9351668484343
20
-4.91502018955933
30
0
41
1
10
57.2666926045259
20
-5.01505394056852
30
0
41
1
10
57.377255502631
20
-5.04759813043054
30
0
41
1
10
57.5985689083756
20
-5.11101251338542
30
0
41
1
10
57.7093253260485
20
-5.14187804573817
30
0
41
1
10
58.041806939817
20
-5.23203665701868
30
0
41
1
10
58.2637174534144
20
-5.28892026835047
30
0
41
1
10
58.7078507910032
20
-5.39631833852712
30
0
41
1
10
58.93011108722
20
-5.44678662227184
30
0
41
1
10
59.2643669075757
20
-5.51714007437977
30
0
41
1
10
59.3759322211262
20
-5.53970005619325
30
0
41
1
10
59.5993972571333
20
-5.58301014910614
30
0
41
1
10
59.7112863543512
20
-5.60376834269547
30
0
41
1
10
59.8793098292567
20
-5.63358387151615
30
0
41
1
10
59.9353711258509
20
-5.6433056242027
30
0
41
1
10
60.0473918986919
20
-5.66228044619052
30
0
41
1
10
60.1033620470712
20
-5.6715355914385
30
0
41
1
10
60.2711480371631
20
-5.69860715789764
30
0
41
1
10
60.3828308867374
20
-5.71573411340427
30
0
41
1
10
60.7174372154733
20
-5.76430977665922
30
0
41
1
10
60.9399538002577
20
-5.79292638085866
30
0
41
1
10
61.384584900645
20
-5.84244186173043
30
0
41
1
10
61.6067271462138
20
-5.86335282401816
30
0
41
1
10
61.9393648432023
20
-5.88912682581031
30
0
41
1
10
62.0501524896689
20
-5.89678232087584
30
0
41
1
10
62.2715237016483
20
-5.910221135695
30
0
41
1
10
62.3821093865767
20
-5.91600285366789
30
0
41
1
10
62.7137168671806
20
-5.93050417305531
30
0
41
1
10
62.9346078692972
20
-5.93637222930084
30
0
41
1
10
63.2148547082187
20
-5.93902267861253
30
0
41
1
10
63.2740901426344
20
-5.93931301481445
30
0
41
1
10
63.3333255266485
20
-5.93933339920881
30
0
0
SPLINE
5
C2
100
AcDbEntity
8
1
62
256
6
ByLayer
370
18
48
1
60
0
100
AcDbSpline
70
4
71
3
72
57
73
53
40
0
40
0
40
0
40
0
40
0.0040974040418344
40
0.0040974040418344
40
0.032551763926354
40
0.032551763926354
40
0.089460483695394
40
0.089460483695394
40
0.146369203464434
40
0.146369203464434
40
0.174823563348954
40
0.174823563348954
40
0.189050743291216
40
0.189050743291216
40
0.203277923233479
40
0.231732283118005
40
0.231732283118005
40
0.26018664300253
40
0.26018664300253
40
0.317095362771574
40
0.317095362771574
40
0.374004082540619
40
0.374004082540619
40
0.402458442425139
40
0.402458442425139
40
0.430912802309659
40
0.430912802309659
40
0.487821522078697
40
0.487821522078697
40
0.544730241847737
40
0.544730241847737
40
0.601638961616776
40
0.601638961616776
40
0.630093321501292
40
0.630093321501292
40
0.658547681385809
40
0.658547681385809
40
0.715456401154843
40
0.715456401154843
40
0.772365120923876
40
0.772365120923876
40
0.800819480808394
40
0.800819480808394
40
0.82927384069291
40
0.82927384069291
40
0.857728200577426
40
0.857728200577426
40
0.886182560461943
40
0.886182560461943
40
0.943091280230971
40
0.943091280230971
40
1
40
1
40
1
40
1
41
1
10
88.0621676743596
20
3.97616256721162
30
0
41
1
10
88.0781062212772
20
3.98273927962674
30
0
41
1
10
88.0940451590452
20
3.98930457101079
30
0
41
1
10
88.2206748498161
20
4.04137166056069
30
0
41
1
10
88.3313918054299
20
4.08632210121849
30
0
41
1
10
88.6637744813003
20
4.21926643211896
30
0
41
1
10
88.8857011221082
20
4.30531224705928
30
0
41
1
10
89.3307324496349
20
4.47157947420962
30
0
41
1
10
89.5537364740404
20
4.5519393134368
30
0
41
1
10
89.8887509439267
20
4.66854803303079
30
0
41
1
10
90.0005031672798
20
4.7067656078477
30
0
41
1
10
90.1683067622101
20
4.76303776714792
30
0
41
1
10
90.224284099761
20
4.78162220118347
30
0
41
1
10
90.3361274481069
20
4.81836097720645
30
0
41
1
10
90.5037901655027
20
4.87284508421885
30
0
41
1
10
90.6711950240953
20
4.92540976019751
30
0
41
1
10
90.894253804653
20
4.99372486929138
30
0
41
1
10
91.0057140259059
20
5.02699326982341
30
0
41
1
10
91.3398007898393
20
5.12425251302585
30
0
41
1
10
91.5621080875283
20
5.18572692511128
30
0
41
1
10
92.0056954807594
20
5.30213769784848
30
0
41
1
10
92.2270180623959
20
5.35701833518377
30
0
41
1
10
92.5588656661814
20
5.43391462467832
30
0
41
1
10
92.6694620689565
20
5.45864262983432
30
0
41
1
10
92.8906528256557
20
5.50628081412998
30
0
41
1
10
93.001236650716
20
5.52919946630644
30
0
41
1
10
93.3328610160181
20
5.59532860678652
30
0
41
1
10
93.5537448662446
20
5.63593181340246
30
0
41
1
10
93.9951380672964
20
5.71009607232926
30
0
41
1
10
94.2157290028561
20
5.7435995132937
30
0
41
1
10
94.6573992650675
20
5.80312524307092
30
0
41
1
10
94.87851182852
20
5.82915314193269
30
0
41
1
10
95.210277124283
20
5.86272622879883
30
0
41
1
10
95.3208856458627
20
5.87300205289077
30
0
41
1
10
95.5421221326137
20
5.89171399724049
30
0
41
1
10
95.6527498407908
20
5.90014906160101
30
0
41
1
10
95.9848128872136
20
5.92263100874638
30
0
41
1
10
96.206445670506
20
5.9338452904436
30
0
41
1
10
96.6508505922534
20
5.94862356347198
30
0
41
1
10
96.8735519622379
20
5.95221465579627
30
0
41
1
10
97.2080831434369
20
5.9518517851192
30
0
41
1
10
97.3196727569482
20
5.95076977014364
30
0
41
1
10
97.5430421918252
20
5.9466587507207
30
0
41
1
10
97.6548613949479
20
5.94362840786519
30
0
41
1
10
97.8786722568993
20
5.93561776203507
30
0
41
1
10
97.9905507406078
20
5.93064223530547
30
0
41
1
10
98.2143383911252
20
5.91877509364187
30
0
41
1
10
98.3262584383331
20
5.91188646735264
30
0
41
1
10
98.6620489213325
20
5.88836694909534
30
0
41
1
10
98.8859047320134
20
5.86887861438021
30
0
41
1
10
99.3333386951185
20
5.82215764555349
30
0
41
1
10
99.5569180130536
20
5.79490519888341
30
0
41
1
10
99.7807690614075
20
5.76389982960299
30
0
0
SPLINE
5
C3
100
AcDbEntity
8
1
62
256
6
ByLayer
370
18
48
1
60
0
100
AcDbSpline
70
4
71
3
72
164
73
160
40
0
40
0
40
0
40
0
40
0.0060777896970397
40
0.0060777896970397
40
0.0216618812792989
40
0.0216618812792989
40
0.037245972861558
40
0.037245972861558
40
0.0450380186526875
40
0.0450380186526875
40
0.052830064443817
40
0.052830064443817
40
0.0684141560260746
40
0.0684141560260746
40
0.0762062018172034
40
0.0762062018172034
40
0.0801022247127678
40
0.0801022247127678
40
0.0839982476083322
40
0.0839982476083322
40
0.0995823391905912
40
0.0995823391905912
40
0.11516643077285
40
0.11516643077285
40
0.130750522355109
40
0.130750522355109
40
0.146334613937368
40
0.146334613937368
40
0.161918705519627
40
0.161918705519627
40
0.177502797101886
40
0.177502797101886
40
0.193086888684145
40
0.193086888684145
40
0.208670980266404
40
0.208670980266404
40
0.216463026057534
40
0.216463026057534
40
0.224255071848664
40
0.224255071848664
40
0.239839163430923
40
0.239839163430923
40
0.247631209222052
40
0.247631209222052
40
0.255423255013182
40
0.255423255013182
40
0.271007346595439
40
0.271007346595439
40
0.286591438177697
40
0.286591438177697
40
0.302175529759954
40
0.302175529759954
40
0.317759621342212
40
0.317759621342212
40
0.333343712924469
40
0.333343712924469
40
0.348927804506727
40
0.348927804506727
40
0.364511896088984
40
0.364511896088984
40
0.380095987671242
40
0.380095987671242
40
0.3956800792535
40
0.3956800792535
40
0.411264170835757
40
0.411264170835757
40
0.426848262418015
40
0.426848262418015
40
0.430744285313579
40
0.430744285313579
40
0.434640308209144
40
0.434640308209144
40
0.442432354000273
40
0.442432354000273
40
0.458016445582531
40
0.458016445582531
40
0.47360053716479
40
0.47360053716479
40
0.489184628747048
40
0.489184628747048
40
0.504768720329306
40
0.504768720329306
40
0.520352811911565
40
0.520352811911565
40
0.535936903493823
40
0.535936903493823
40
0.551520995076081
40
0.551520995076081
40
0.56710508665834
40
0.56710508665834
40
0.582689178240598
40
0.582689178240598
40
0.598273269822856
40
0.598273269822856
40
0.606065315613986
40
0.606065315613986
40
0.613857361405115
40
0.613857361405115
40
0.629441452987374
40
0.629441452987374
40
0.645025544569634
40
0.645025544569634
40
0.660609636151893
40
0.660609636151893
40
0.676193727734152
40
0.676193727734152
40
0.691777819316411
40
0.691777819316411
40
0.70736191089867
40
0.70736191089867
40
0.722946002480929
40
0.722946002480929
40
0.738530094063188
40
0.738530094063188
40
0.754114185645447
40
0.754114185645447
40
0.769698277227707
40
0.769698277227707
40
0.777490323018836
40
0.777490323018836
40
0.785282368809965
40
0.785282368809965
40
0.793074414601095
40
0.793074414601095
40
0.800866460392225
40
0.800866460392225
40
0.816450551974484
40
0.816450551974484
40
0.824242597765614
40
0.824242597765614
40
0.832034643556744
40
0.832034643556744
40
0.847618735139003
40
0.847618735139003
40
0.863202826721263
40
0.863202826721263
40
0.878786918303523
40
0.878786918303523
40
0.894371009885783
40
0.894371009885783
40
0.909955101468043
40
0.909955101468043
40
0.925539193050303
40
0.925539193050303
40
0.941123284632563
40
0.941123284632563
40
0.956707376214822
40
0.956707376214822
40
0.960603399110388
40
0.960603399110388
40
0.964499422005953
40
0.964499422005953
40
0.972291467797085
40
0.972291467797085
40
0.987875559379348
40
0.987875559379348
40
0.99566760517048
40
0.99566760517048
40
1
40
1
40
1
40
1
41
1
10
88.062448359287
20
-3.98314660982365
30
0
41
1
10
87.9763241221102
20
-4.01856864343597
30
0
41
1
10
87.8901721838375
20
-4.05358510803359
30
0
41
1
10
87.5830236318708
20
-4.17695207308597
30
0
41
1
10
87.3619261929803
20
-4.26312080151649
30
0
41
1
10
86.9194563184885
20
-4.43023490744321
30
0
41
1
10
86.698085938604
20
-4.51117982657141
30
0
41
1
10
86.3656215916251
20
-4.62838612081919
30
0
41
1
10
86.2547213982707
20
-4.66674020160065
30
0
41
1
10
86.0326752198331
20
-4.74191444198513
30
0
41
1
10
85.9215353753799
20
-4.77874247553149
30
0
41
1
10
85.5878155113647
20
-4.88700195672695
30
0
41
1
10
85.3649542219724
20
-4.95622966661767
30
0
41
1
10
85.0299979173701
20
-5.05549476356927
30
0
41
1
10
84.9182338835977
20
-5.0878188670616
30
0
41
1
10
84.75040104737
20
-5.13513003368465
30
0
41
1
10
84.6944065797566
20
-5.1507098451558
30
0
41
1
10
84.5825177341175
20
-5.18141799367589
30
0
41
1
10
84.5266073567952
20
-5.19655097245334
30
0
41
1
10
84.2471959679722
20
-5.2710878845169
30
0
41
1
10
84.0240521627298
20
-5.32705540786816
30
0
41
1
10
83.5786685675522
20
-5.43192651581586
30
0
41
1
10
83.3564287259837
20
-5.48082411152276
30
0
41
1
10
82.9127116724773
20
-5.5714837723477
30
0
41
1
10
82.6912708076751
20
-5.61326156768655
30
0
41
1
10
82.2485894140314
20
-5.689375179705
30
0
41
1
10
82.0273592334817
20
-5.72373221441367
30
0
41
1
10
81.5852831566601
20
-5.78518412382729
30
0
41
1
10
81.3644118349079
20
-5.81226104914359
30
0
41
1
10
80.9228461045546
20
-5.85903504989867
30
0
41
1
10
80.7021431900725
20
-5.87872092268614
30
0
41
1
10
80.2603018765822
20
-5.91054268934465
30
0
41
1
10
80.0392593958274
20
-5.92271372600257
30
0
41
1
10
79.5969732138963
20
-5.9395572360626
30
0
41
1
10
79.3757173464405
20
-5.94422350479704
30
0
41
1
10
79.0435082290255
20
-5.94552024888313
30
0
41
1
10
78.9327101874031
20
-5.94500133258438
30
0
41
1
10
78.7108975092613
20
-5.94205956280578
30
0
41
1
10
78.5998776633416
20
-5.93963813440917
30
0
41
1
10
78.2665226388308
20
-5.9295172939695
30
0
41
1
10
78.0439217292382
20
-5.91895859446211
30
0
41
1
10
77.7094137194863
20
-5.89733265005322
30
0
41
1
10
77.5978078589945
20
-5.88915921250498
30
0
41
1
10
77.3743652679075
20
-5.87087094255887
30
0
41
1
10
77.2625095565329
20
-5.86075181122865
30
0
41
1
10
76.9266330358738
20
-5.82750594212172
30
0
41
1
10
76.703157135151
20
-5.80162049688329
30
0
41
1
10
76.2571003819487
20
-5.74254184599735
30
0
41
1
10
76.0345546726255
20
-5.70932944224199
30
0
41
1
10
75.5902914397498
20
-5.63567850691348
30
0
41
1
10
75.368611130215
20
-5.59521178791769
30
0
41
1
10
74.9256007857543
20
-5.50738970446304
30
0
41
1
10
74.7042145455544
20
-5.46008449860383
30
0
41
1
10
74.2618752623435
20
-5.3586078582012
30
0
41
1
10
74.0409011200409
20
-5.30444686927711
30
0
41
1
10
73.5991977336483
20
-5.18939092460087
30
0
41
1
10
73.3784909494428
20
-5.12846818876017
30
0
41
1
10
72.936713266326
20
-5.00045452340916
30
0
41
1
10
72.7157050991569
20
-4.93331552336466
30
0
41
1
10
72.273558667778
20
-4.79265442430454
30
0
41
1
10
72.0523979913393
20
-4.71915168460868
30
0
41
1
10
71.6097333120417
20
-4.56592722979104
30
0
41
1
10
71.3881802324694
20
-4.48625738449681
30
0
41
1
10
70.9441584681318
20
-4.32136512948196
30
0
41
1
10
70.7217946757809
20
-4.23601785955285
30
0
41
1
10
70.2763357102222
20
-4.05947436241581
30
0
41
1
10
70.0532424979314
20
-3.96827093348117
30
0
41
1
10
69.7737405179019
20
-3.85078542875195
30
0
41
1
10
69.7178058921497
20
-3.82711794927306
30
0
41
1
10
69.6058563665783
20
-3.77945876911062
30
0
41
1
10
69.549845118464
20
-3.75546946020083
30
0
41
1
10
69.3819587319227
20
-3.68315885245377
30
0
41
1
10
69.2701418775436
20
-3.63444838551098
30
0
41
1
10
68.9350606205782
20
-3.4867443980508
30
0
41
1
10
68.7121826661405
20
-3.38615149934583
30
0
41
1
10
68.2673242373266
20
-3.18093183299908
30
0
41
1
10
68.0453744717973
20
-3.0762540567315
30
0
41
1
10
67.6019735181051
20
-2.86352133014538
30
0
41
1
10
67.3804239409027
20
-2.75563042616028
30
0
41
1
10
66.9377768576026
20
-2.53658180119118
30
0
41
1
10
66.7166782037978
20
-2.42542409469542
30
0
41
1
10
66.2747928399152
20
-2.20007386123945
30
0
41
1
10
66.0540425709726
20
-2.0858161562679
30
0
41
1
10
65.6122955448916
20
-1.85522945040455
30
0
41
1
10
65.3913043093693
20
-1.73889586968156
30
0
41
1
10
64.949257127211
20
-1.50385058879863
30
0
41
1
10
64.7281752325418
20
-1.38518302073621
30
0
41
1
10
64.2857398025745
20
-1.14581583291007
30
0
41
1
10
64.0643804168503
20
-1.02512398156432
30
0
41
1
10
63.6207802335763
20
-0.782816295690168
30
0
41
1
10
63.3986341526654
20
-0.661028880468706
30
0
41
1
10
62.9536882396956
20
-0.416090060150367
30
0
41
1
10
62.7308762581036
20
-0.292960010202819
30
0
41
1
10
62.3959832053886
20
-0.107560284727782
30
0
41
1
10
62.284232050041
20
-0.0456574782491543
30
0
41
1
10
62.0603950078016
20
0.078173019178962
30
0
41
1
10
61.9482902415386
20
0.140099954828685
30
0
41
1
10
61.6126333721895
20
0.325363077910453
30
0
41
1
10
61.3893917793877
20
0.448443002331061
30
0
41
1
10
60.9438818015037
20
0.693608604611882
30
0
41
1
10
60.7216319789415
20
0.815727573548486
30
0
41
1
10
60.2777726450352
20
1.0583602043711
30
0
41
1
10
60.0560473111792
20
1.17866090618566
30
0
41
1
10
59.613043067858
20
1.41733816148724
30
0
41
1
10
59.3917965388058
20
1.53577244176515
30
0
41
1
10
58.9496818872908
20
1.77059620436933
30
0
41
1
10
58.7288506452741
20
1.88704849413662
30
0
41
1
10
58.287090978705
20
2.11707207594674
30
0
41
1
10
58.0661040427262
20
2.23054670218065
30
0
41
1
10
57.624115035189
20
2.45477357884877
30
0
41
1
10
57.4030921536598
20
2.5654881605839
30
0
41
1
10
56.960844990462
20
2.78385747954314
30
0
41
1
10
56.7396442402041
20
2.89154770468096
30
0
41
1
10
56.2964376832196
20
3.10286684708967
30
0
41
1
10
56.0744929216923
20
3.2065997047616
30
0
41
1
10
55.6300253167547
20
3.4103585340138
30
0
41
1
10
55.4074800325729
20
3.51034724554196
30
0
41
1
10
55.0730598811383
20
3.65725152732924
30
0
41
1
10
54.9614829653779
20
3.70570135234328
30
0
41
1
10
54.7380285078014
20
3.80141857008405
30
0
41
1
10
54.6261414379616
20
3.84867198431516
30
0
41
1
10
54.4020529274052
20
3.94197455906621
30
0
41
1
10
54.2900489846367
20
3.98795225390325
30
0
41
1
10
54.0664061136378
20
4.07849028572431
30
0
41
1
10
53.9547209452181
20
4.12306207914312
30
0
41
1
10
53.6200500364931
20
4.25466472961028
30
0
41
1
10
53.3974669431798
20
4.33960564289214
30
0
41
1
10
53.0641714063322
20
4.46257689371754
30
0
41
1
10
52.953157898988
20
4.50281261230515
30
0
41
1
10
52.7312164927451
20
4.58168457852429
30
0
41
1
10
52.62029607837
20
4.62033093140508
30
0
41
1
10
52.2877353020675
20
4.73397654029009
30
0
41
1
10
52.0663116484275
20
4.80670044279321
30
0
41
1
10
51.6239131870748
20
4.94595366521091
30
0
41
1
10
51.4029692149105
20
5.01250989989089
30
0
41
1
10
50.9611319058595
20
5.13902634288752
30
0
41
1
10
50.7401397036268
20
5.19890202441334
30
0
41
1
10
50.2981619283931
20
5.31206636479828
30
0
41
1
10
50.0771756087457
20
5.36534955890721
30
0
41
1
10
49.6350717356814
20
5.46516829416302
30
0
41
1
10
49.4139907623489
20
5.51172333576801
30
0
41
1
10
48.9711454313916
20
5.59765904080894
30
0
41
1
10
48.7493853006304
20
5.63705601178637
30
0
41
1
10
48.3053577318938
20
5.70877628163149
30
0
41
1
10
48.0830642720951
20
5.74107960082938
30
0
41
1
10
47.6377531597344
20
5.79839029642579
30
0
41
1
10
47.4147261786998
20
5.82338554490894
30
0
41
1
10
47.1351061860679
20
5.84987300145104
30
0
41
1
10
47.0791446777037
20
5.85493460718942
30
0
41
1
10
46.9671506879655
20
5.86458627165845
30
0
41
1
10
46.9110948186965
20
5.86917812077724
30
0
41
1
10
46.7430411177524
20
5.88222890306909
30
0
41
1
10
46.6311505478937
20
5.88996390637837
30
0
41
1
10
46.2958881596902
20
5.9102824003902
30
0
41
1
10
46.0729373937545
20
5.91998101463801
30
0
41
1
10
45.7391796121384
20
5.92877807506616
30
0
41
1
10
45.6280303186773
20
5.93075066054647
30
0
41
1
10
45.4551692067468
20
5.93233375571253
30
0
41
1
10
45.3934177978989
20
5.93260451668405
30
0
41
1
10
45.3316857433507
20
5.93258169573599
30
0
0
SPLINE
5
C4
100
AcDbEntity
8
1
62
256
6
ByLayer
370
18
48
1
60
0
100
AcDbSpline
70
4
71
3
72
30
73
26
40
0
40
0
40
0
40
0
40
0.0099009417712365
40
0.0099009417712365
40
0.119911948241106
40
0.119911948241106
40
0.174917451476037
40
0.174917451476037
40
0.22992295471097
40
0.22992295471097
40
0.339933961180829
40
0.339933961180829
40
0.449944967650688
40
0.449944967650688
40
0.559955974120547
40
0.559955974120547
40
0.614961477355478
40
0.614961477355478
40
0.669966980590411
40
0.669966980590411
40
0.779977987060274
40
0.779977987060274
40
0.889988993530138
40
0.889988993530138
40
1
40
1
40
1
40
1
41
1
10
20.6039771227752
20
-3.95698284571188
30
0
41
1
10
20.5840822913389
20
-3.96513907474787
30
0
41
1
10
20.564188148548
20
-3.97327542912177
30
0
41
1
10
20.3232550496949
20
-4.07157521376985
30
0
41
1
10
20.1023057113044
20
-4.15930872128291
30
0
41
1
10
19.7707971254298
20
-4.28692386557515
30
0
41
1
10
19.6602681047022
20
-4.32878243130091
30
0
41
1
10
19.4390772172936
20
-4.41104084588551
30
0
41
1
10
19.328423435391
20
-4.45145158163209
30
0
41
1
10
18.9963381218266
20
-4.57059228310092
30
0
41
1
10
18.7747977977812
20
-4.64724857396476
30
0
41
1
10
18.33129327712
20
-4.79482518524324
30
0
41
1
10
18.1093607469723
20
-4.86577670705088
30
0
41
1
10
17.6646597026539
20
-5.00143127918585
30
0
41
1
10
17.4417979265948
20
-5.06604484184695
30
0
41
1
10
17.1068546190569
20
-5.1582373326018
30
0
41
1
10
16.9950964597986
20
-5.18817712985955
30
0
41
1
10
16.7713426166989
20
-5.24644737344676
30
0
41
1
10
16.6593096564106
20
-5.27478774013593
30
0
41
1
10
16.323076122816
20
-5.35728104133312
30
0
41
1
10
16.0991608279752
20
-5.40883517346012
30
0
41
1
10
15.6511788355466
20
-5.5046104145579
30
0
41
1
10
15.4271190187304
20
-5.54884934639873
30
0
41
1
10
14.9789636921888
20
-5.63012118552786
30
0
41
1
10
14.7548690514573
20
-5.66715632516286
30
0
41
1
10
14.530853567527
20
-5.70058932867985
30
0
0
SPLINE
5
C5
100
AcDbEntity
8
1
62
256
6
ByLayer
370
18
48
1
60
0
100
AcDbSpline
70
4
71
3
72
68
73
64
40
0
40
0
40
0
40
0
40
0.0442164853547102
40
0.0442164853547102
40
0.0884329707094204
40
0.0884329707094204
40
0.132649456064131
40
0.132649456064131
40
0.154757698741485
40
0.154757698741485
40
0.176865941418839
40
0.176865941418839
40
0.221082426773545
40
0.221082426773545
40
0.265298912128251
40
0.265298912128251
40
0.309515397482957
40
0.309515397482957
40
0.331623640160311
40
0.331623640160311
40
0.353731882837665
40
0.353731882837665
40
0.397948368192371
40
0.397948368192371
40
0.442164853547077
40
0.442164853547077
40
0.46427309622443
40
0.46427309622443
40
0.486381338901783
40
0.486381338901783
40
0.508489581579136
40
0.508489581579136
40
0.530597824256489
40
0.530597824256489
40
0.574814309611195
40
0.574814309611195
40
0.619030794965901
40
0.619030794965901
40
0.641139037643254
40
0.641139037643254
40
0.663247280320606
40
0.663247280320606
40
0.70746376567531
40
0.70746376567531
40
0.751680251030014
40
0.751680251030014
40
0.773788493707367
40
0.773788493707367
40
0.79589673638472
40
0.79589673638472
40
0.840113221739426
40
0.840113221739426
40
0.884329707094132
40
0.884329707094132
40
0.928546192448838
40
0.928546192448838
40
0.950654435126191
40
0.950654435126191
40
0.972762677803544
40
0.972762677803544
40
0.994870920480896
40
0.994870920480896
40
1
40
1
40
1
40
1
41
1
10
14.5308535675269
20
-0.987811322791998
30
0
41
1
10
14.7547961073882
20
-1.1102553148763
30
0
41
1
10
14.9784903981095
20
-1.23113086792682
30
0
41
1
10
15.4250896747142
20
-1.47043125676674
30
0
41
1
10
15.6479817573586
20
-1.58887910739176
30
0
41
1
10
16.0927276768392
20
-1.82380439526946
30
0
41
1
10
16.3145606046078
20
-1.94031010221011
30
0
41
1
10
16.6470653075077
20
-2.11263466699421
30
0
41
1
10
16.7578579665107
20
-2.16967422203967
30
0
41
1
10
16.979434523871
20
-2.28282639680765
30
0
41
1
10
17.0902136380971
20
-2.33894794599001
30
0
41
1
10
17.4224312197944
20
-2.50611625648563
30
0
41
1
10
17.6437238995304
20
-2.61601233528293
30
0
41
1
10
18.0858058899842
20
-2.83290081377973
30
0
41
1
10
18.3066580264395
20
-2.93978168794734
30
0
41
1
10
18.7487259810075
20
-3.14922374433036
30
0
41
1
10
18.9700091785297
20
-3.25168797689972
30
0
41
1
10
19.3020656755368
20
-3.40239232769704
30
0
41
1
10
19.4127690219198
20
-3.45213373320718
30
0
41
1
10
19.6341910438729
20
-3.55065424446741
30
0
41
1
10
19.7449009382792
20
-3.59944608276769
30
0
41
1
10
20.077141951439
20
-3.74423316883511
30
0
41
1
10
20.298810426553
20
-3.83859784391416
30
0
41
1
10
20.7431777797525
20
-4.02201725761913
30
0
41
1
10
20.9658739568881
20
-4.11108677253691
30
0
41
1
10
21.3003710501516
20
-4.24114697440262
30
0
41
1
10
21.4119501789747
20
-4.28390206091649
30
0
41
1
10
21.635259372873
20
-4.36821537224915
30
0
41
1
10
21.7469965579167
20
-4.40976358569736
30
0
41
1
10
21.970738281206
20
-4.49149914579149
30
0
41
1
10
22.0828323163751
20
-4.53171504938342
30
0
41
1
10
22.3067286554386
20
-4.61044624313149
30
0
41
1
10
22.418579029915
20
-4.64896986513375
30
0
41
1
10
22.7538792333996
20
-4.76200380244606
30
0
41
1
10
22.9770172595205
20
-4.83405936680506
30
0
41
1
10
23.4221940243987
20
-4.97198206970717
30
0
41
1
10
23.6441947461445
20
-5.03787026206896
30
0
41
1
10
23.9768488466578
20
-5.13156623063668
30
0
41
1
10
24.0876771014671
20
-5.1619427807322
30
0
41
1
10
24.3093007737528
20
-5.22092702607742
30
0
41
1
10
24.4201026927703
20
-5.24953010295104
30
0
41
1
10
24.7523947188072
20
-5.3327681377051
30
0
41
1
10
24.9737439686032
20
-5.3848591605325
30
0
41
1
10
25.4158713898491
20
-5.48237754772867
30
0
41
1
10
25.6366825318903
20
-5.52776308896119
30
0
41
1
10
25.968091601824
20
-5.59038826231887
30
0
41
1
10
26.0785951105083
20
-5.61035570136119
30
0
41
1
10
26.2997174601629
20
-5.6484584027084
30
0
41
1
10
26.410325738391
20
-5.66660074386394
30
0
41
1
10
26.7421989138245
20
-5.71835538319209
30
0
41
1
10
26.9634826918737
20
-5.74931128849104
30
0
41
1
10
27.4061131554599
20
-5.80402859282412
30
0
41
1
10
27.6275392698821
20
-5.82774388087248
30
0
41
1
10
28.0713190495107
20
-5.86761195828399
30
0
41
1
10
28.2937133490458
20
-5.88377312892646
30
0
41
1
10
28.6277537191054
20
-5.90241019025584
30
0
41
1
10
28.7391784868771
20
-5.90768541204275
30
0
41
1
10
28.9621648891199
20
-5.91634309823448
30
0
41
1
10
29.0737245621595
20
-5.91972464693114
30
0
41
1
10
29.2970782761608
20
-5.92456119742158
30
0
41
1
10
29.4088738571152
20
-5.9260161721576
30
0
41
1
10
29.5468074088695
20
-5.92661338037888
30
0
41
1
10
29.5727952450266
20
-5.92667360493553
30
0
41
1
10
29.5987867362008
20
-5.92668165354823
30
0
0
SPLINE
5
C6
100
AcDbEntity
8
1
62
256
6
ByLayer
370
18
48
1
60
0
100
AcDbSpline
70
4
71
3
72
186
73
182
40
0
40
0
40
0
40
0
40
0.0040178175729604
40
0.0040178175729604
40
0.011804281503577
40
0.011804281503577
40
0.0195907454341936
40
0.0195907454341936
40
0.0351636732954268
40
0.0351636732954268
40
0.0507366011566601
40
0.0507366011566601
40
0.0663095290178933
40
0.0663095290178933
40
0.07409599294851
40
0.07409599294851
40
0.0818824568791265
40
0.0818824568791265
40
0.0974553847403588
40
0.0974553847403588
40
0.113028312601591
40
0.113028312601591
40
0.120814776532208
40
0.120814776532208
40
0.128601240462824
40
0.128601240462824
40
0.132494472428133
40
0.132494472428133
40
0.136387704393441
40
0.136387704393441
40
0.144174168324058
40
0.144174168324058
40
0.159747096185291
40
0.159747096185291
40
0.175320024046524
40
0.175320024046524
40
0.18310648797714
40
0.18310648797714
40
0.190892951907757
40
0.190892951907757
40
0.20646587976899
40
0.20646587976899
40
0.222038807630224
40
0.222038807630224
40
0.237611735491457
40
0.237611735491457
40
0.245398199422073
40
0.245398199422073
40
0.253184663352689
40
0.253184663352689
40
0.268757591213923
40
0.268757591213923
40
0.284330519075156
40
0.284330519075156
40
0.292116983005772
40
0.292116983005772
40
0.299903446936389
40
0.299903446936389
40
0.307689910867005
40
0.307689910867005
40
0.315476374797622
40
0.315476374797622
40
0.331049302658855
40
0.331049302658855
40
0.346622230520089
40
0.346622230520089
40
0.354408694450705
40
0.354408694450705
40
0.362195158381322
40
0.362195158381322
40
0.377768086242556
40
0.377768086242556
40
0.39334101410379
40
0.39334101410379
40
0.401127478034407
40
0.401127478034407
40
0.408913941965024
40
0.408913941965024
40
0.424486869826258
40
0.424486869826258
40
0.440059797687493
40
0.440059797687493
40
0.455632725548728
40
0.455632725548728
40
0.463419189479345
40
0.463419189479345
40
0.471205653409962
40
0.471205653409962
40
0.478992117340579
40
0.478992117340579
40
0.482885349305888
40
0.482885349305888
40
0.486778581271196
40
0.486778581271196
40
0.502351509132431
40
0.502351509132431
40
0.510137973063048
40
0.510137973063048
40
0.517924436993666
40
0.517924436993666
40
0.533497364854901
40
0.533497364854901
40
0.549070292716137
40
0.549070292716137
40
0.564643220577372
40
0.564643220577372
40
0.57242968450799
40
0.57242968450799
40
0.580216148438607
40
0.580216148438607
40
0.595789076299843
40
0.595789076299843
40
0.611362004161078
40
0.611362004161078
40
0.626934932022314
40
0.626934932022314
40
0.634721395952932
40
0.634721395952932
40
0.642507859883551
40
0.642507859883551
40
0.658080787744788
40
0.658080787744788
40
0.665867251675406
40
0.665867251675406
40
0.673653715606024
40
0.681440179536643
40
0.681440179536643
40
0.689226643467261
40
0.689226643467261
40
0.704799571328499
40
0.704799571328499
40
0.720372499189738
40
0.720372499189738
40
0.735945427050976
40
0.735945427050976
40
0.743731890981595
40
0.743731890981595
40
0.751518354912214
40
0.751518354912214
40
0.767091282773454
40
0.767091282773454
40
0.782664210634694
40
0.782664210634694
40
0.790450674565315
40
0.790450674565315
40
0.798237138495935
40
0.798237138495935
40
0.813810066357177
40
0.813810066357177
40
0.829382994218418
40
0.829382994218418
40
0.83716945814904
40
0.83716945814904
40
0.84106269011435
40
0.84106269011435
40
0.84495592207966
40
0.852742386010281
40
0.852742386010281
40
0.860528849940903
40
0.860528849940903
40
0.876101777802146
40
0.876101777802146
40
0.891674705663389
40
0.891674705663389
40
0.89946116959401
40
0.89946116959401
40
0.907247633524632
40
0.907247633524632
40
0.922820561385876
40
0.922820561385876
40
0.938393489247121
40
0.938393489247121
40
0.953966417108365
40
0.953966417108365
40
0.961752881038987
40
0.961752881038987
40
0.969539344969608
40
0.969539344969608
40
0.985112272830852
40
0.985112272830852
40
1
40
1
40
1
40
1
41
1
10
54.3322718222655
20
3.96985263135605
30
0
41
1
10
54.3894815387778
20
3.99332130273979
30
0
41
1
10
54.4466699597442
20
4.01661983310456
30
0
41
1
10
54.6146157816404
20
4.08458657279346
30
0
41
1
10
54.7253079529374
20
4.12879453163706
30
0
41
1
10
54.9465103736675
20
4.21595732272536
30
0
41
1
10
55.0570291062494
20
4.25890016136341
30
0
41
1
10
55.3884886839685
20
4.38561548880472
30
0
41
1
10
55.6093631140231
20
4.4672341251455
30
0
41
1
10
56.0514011177389
20
4.62423230706673
30
0
41
1
10
56.2724630600956
20
4.69974436578983
30
0
41
1
10
56.7143635928541
20
4.84512654771322
30
0
41
1
10
56.9351668484344
20
4.91502018955933
30
0
41
1
10
57.266692604526
20
5.01505394056852
30
0
41
1
10
57.3772555026311
20
5.04759813043054
30
0
41
1
10
57.5985689083756
20
5.11101251338545
30
0
41
1
10
57.7093253260486
20
5.1418780457382
30
0
41
1
10
58.041806939817
20
5.23203665701868
30
0
41
1
10
58.2637174534144
20
5.28892026835047
30
0
41
1
10
58.7078507910032
20
5.39631833852712
30
0
41
1
10
58.93011108722
20
5.44678662227187
30
0
41
1
10
59.2643669075757
20
5.51714007437977
30
0
41
1
10
59.3759322211263
20
5.53970005619325
30
0
41
1
10
59.5993972571333
20
5.58301014910614
30
0
41
1
10
59.7112863543513
20
5.60376834269547
30
0
41
1
10
59.8793098292567
20
5.63358387151615
30
0
41
1
10
59.935371125851
20
5.6433056242027
30
0
41
1
10
60.047391898692
20
5.66228044619055
30
0
41
1
10
60.1033620470712
20
5.6715355914385
30
0
41
1
10
60.2711480371632
20
5.69860715789764
30
0
41
1
10
60.3828308867374
20
5.7157341134043
30
0
41
1
10
60.7174372154733
20
5.76430977665922
30
0
41
1
10
60.9399538002577
20
5.79292638085869
30
0
41
1
10
61.3845849006451
20
5.84244186173043
30
0
41
1
10
61.6067271462138
20
5.86335282401816
30
0
41
1
10
61.9393648432023
20
5.88912682581031
30
0
41
1
10
62.0501524896689
20
5.89678232087584
30
0
41
1
10
62.2715237016483
20
5.910221135695
30
0
41
1
10
62.3821093865768
20
5.91600285366789
30
0
41
1
10
62.7137168671807
20
5.93050417305531
30
0
41
1
10
62.9346078692972
20
5.93637222930084
30
0
41
1
10
63.376637555462
20
5.940552748453
30
0
41
1
10
63.5977002735519
20
5.93888586040936
30
0
41
1
10
64.0395589468395
20
5.92802757819643
30
0
41
1
10
64.2603081659771
20
5.91881362051191
30
0
41
1
10
64.5916294280383
20
5.89932566996075
30
0
41
1
10
64.7021088012744
20
5.89188790142177
30
0
41
1
10
64.9232250498604
20
5.87515170451937
30
0
41
1
10
65.0338722246902
20
5.8658569344243
30
0
41
1
10
65.3660393498676
20
5.83519212411198
30
0
41
1
10
65.587740403059
20
5.81103445486826
30
0
41
1
10
66.0314005009688
20
5.75509471319398
30
0
41
1
10
66.2533524505602
20
5.72328913229742
30
0
41
1
10
66.5870478899804
20
5.6700331392673
30
0
41
1
10
66.6984061961294
20
5.65135815812511
30
0
41
1
10
66.9214497954417
20
5.61220706596069
30
0
41
1
10
67.0331283244996
20
5.59172822450643
30
0
41
1
10
67.2567377865244
20
5.54891913725862
30
0
41
1
10
67.3686659310887
20
5.52658665375864
30
0
41
1
10
67.5927446227735
20
5.4800273046059
30
0
41
1
10
67.7046631379058
20
5.4558439870321
30
0
41
1
10
68.0398354617773
20
5.38065160840634
30
0
41
1
10
68.2626551871308
20
5.32700451031175
30
0
41
1
10
68.7077712230682
20
5.21337224722325
30
0
41
1
10
68.9301279174858
20
5.15345681337706
30
0
41
1
10
69.2630934083976
20
5.05875858592265
30
0
41
1
10
69.3739860348977
20
5.02638567320443
30
0
41
1
10
69.5955585046085
20
4.96000329204387
30
0
41
1
10
69.7062309020627
20
4.92598547167651
30
0
41
1
10
70.0380409032832
20
4.82158603319795
30
0
41
1
10
70.2589902114639
20
4.7488734184692
30
0
41
1
10
70.7010538704264
20
4.59803619210882
30
0
41
1
10
70.9221406429303
20
4.51989539829182
30
0
41
1
10
71.2535430841642
20
4.39824895973592
30
0
41
1
10
71.3639760530452
20
4.35696324169896
30
0
41
1
10
71.5847695966847
20
4.27290456488348
30
0
41
1
10
71.6951384843962
20
4.23014143278377
30
0
41
1
10
72.0263110568492
20
4.09983602374501
30
0
41
1
10
72.2472099778016
20
4.01031411051753
30
0
41
1
10
72.689728345705
20
3.82666358747838
30
0
41
1
10
72.9112474330129
20
3.73240625729591
30
0
41
1
10
73.3544970920806
20
3.53852937158004
30
0
41
1
10
73.5761917246354
20
3.43884157288483
30
0
41
1
10
73.9093876754658
20
3.28595863228512
30
0
41
1
10
74.0205629286698
20
3.23444211657346
30
0
41
1
10
74.2432135063039
20
3.13042618027833
30
0
41
1
10
74.3546945229042
20
3.07793700126206
30
0
41
1
10
74.5779104268191
20
2.97190116926564
30
0
41
1
10
74.6896420237647
20
2.9183489211419
30
0
41
1
10
74.8573967342795
20
2.83716200463402
30
0
41
1
10
74.9133418171571
20
2.80995757684718
30
0
41
1
10
75.0252834282557
20
2.7552582075935
30
0
41
1
10
75.0813019893695
20
2.72775142649354
30
0
41
1
10
75.361120912327
20
2.58968137683914
30
0
41
1
10
75.584272990933
20
2.47747623259809
30
0
41
1
10
75.9185158742464
20
2.3075532510581
30
0
41
1
10
76.0298527636427
20
2.2506495118476
30
0
41
1
10
76.2524076883498
20
2.13638325236732
30
0
41
1
10
76.3636153705229
20
2.07900253147236
30
0
41
1
10
76.696938409703
20
1.90595928333951
30
0
41
1
10
76.918723608417
20
1.78934202025752
30
0
41
1
10
77.3614728446916
20
1.55366445000871
30
0
41
1
10
77.5825192567303
20
1.4347501554042
30
0
41
1
10
78.0246625902103
20
1.19605248754991
30
0
41
1
10
78.2457881197285
20
1.07632353947847
30
0
41
1
10
78.5772353237176
20
0.89558138107131
30
0
41
1
10
78.6876819703532
20
0.8351502839229
30
0
41
1
10
78.9084826124272
20
0.713880768454487
30
0
41
1
10
79.0188379071231
20
0.653044581795001
30
0
41
1
10
79.3499177116103
20
0.470203041560183
30
0
41
1
10
79.5706741437219
20
0.347897107908437
30
0
41
1
10
80.01286753317
20
0.103587602126737
30
0
41
1
10
80.2342316983025
20
-0.0185482825881422
30
0
41
1
10
80.6771303844583
20
-0.263465189294635
30
0
41
1
10
80.8986176891218
20
-0.386336654669151
30
0
41
1
10
81.2313764026804
20
-0.570393811708811
30
0
41
1
10
81.3423903731255
20
-0.631692227261993
30
0
41
1
10
81.5646879668914
20
-0.754028948333087
30
0
41
1
10
81.6759819256221
20
-0.815047613920143
30
0
41
1
10
82.010259548518
20
-0.997729236106636
30
0
41
1
10
82.2335936478499
20
-1.11910274344086
30
0
41
1
10
82.5691373687607
20
-1.30090052737339
30
0
41
1
10
82.6811508160658
20
-1.36149964402335
30
0
41
1
10
82.9047568979983
20
-1.48205445805144
30
0
41
1
10
83.1280752680707
20
-1.60202984051153
30
0
41
1
10
83.3510021000241
20
-1.7205205648055
30
0
41
1
10
83.5738058324364
20
-1.83814930499023
30
0
41
1
10
83.6851385149934
20
-1.89654736201817
30
0
41
1
10
84.018838469935
20
-2.07067095786354
30
0
41
1
10
84.2408801303489
20
-2.18537638236981
30
0
41
1
10
84.6840234145274
20
-2.41218708201259
30
0
41
1
10
84.9051954183306
20
-2.52416201228289
30
0
41
1
10
85.3474745717611
20
-2.74404127913172
30
0
41
1
10
85.5686429830431
20
-2.85185521574175
30
0
41
1
10
85.9001663947013
20
-3.01086586116014
30
0
41
1
10
86.0106348151048
20
-3.06341837994546
30
0
41
1
10
86.2314718134157
20
-3.16765048192752
30
0
41
1
10
86.3418326127651
20
-3.21934172296443
30
0
41
1
10
86.6728719662954
20
-3.37293037681002
30
0
41
1
10
86.893527626814
20
-3.47330799861709
30
0
41
1
10
87.3354371440236
20
-3.66904129671374
30
0
41
1
10
87.5566698108696
20
-3.76443961125992
30
0
41
1
10
87.888622210306
20
-3.90428099765964
30
0
41
1
10
87.99929410981
20
-3.9503452137271
30
0
41
1
10
88.2206748498161
20
-4.04137166056069
30
0
41
1
10
88.3313918054299
20
-4.08632210121849
30
0
41
1
10
88.6637744813004
20
-4.21926643211899
30
0
41
1
10
88.8857011221082
20
-4.30531224705933
30
0
41
1
10
89.330732449635
20
-4.47157947420962
30
0
41
1
10
89.5537364740404
20
-4.55193931343678
30
0
41
1
10
89.8887509439267
20
-4.66854803303085
30
0
41
1
10
90.0005031672799
20
-4.70676560784773
30
0
41
1
10
90.1683067622101
20
-4.76303776714795
30
0
41
1
10
90.224284099761
20
-4.7816222011835
30
0
41
1
10
90.3361274481069
20
-4.81836097720648
30
0
41
1
10
90.5037901655027
20
-4.87284508421888
30
0
41
1
10
90.6711950240953
20
-4.92540976019751
30
0
41
1
10
90.894253804653
20
-4.99372486929141
30
0
41
1
10
91.0057140259059
20
-5.02699326982344
30
0
41
1
10
91.3398007898394
20
-5.12425251302585
30
0
41
1
10
91.5621080875283
20
-5.18572692511128
30
0
41
1
10
92.0056954807594
20
-5.30213769784848
30
0
41
1
10
92.2270180623959
20
-5.35701833518382
30
0
41
1
10
92.5588656661815
20
-5.43391462467829
30
0
41
1
10
92.6694620689565
20
-5.45864262983432
30
0
41
1
10
92.8906528256556
20
-5.50628081412998
30
0
41
1
10
93.001236650716
20
-5.52919946630644
30
0
41
1
10
93.3328610160181
20
-5.59532860678652
30
0
41
1
10
93.5537448662446
20
-5.63593181340241
30
0
41
1
10
93.9951380672962
20
-5.71009607232926
30
0
41
1
10
94.215729002856
20
-5.7435995132937
30
0
41
1
10
94.6573992650673
20
-5.80312524307095
30
0
41
1
10
94.87851182852
20
-5.82915314193269
30
0
41
1
10
95.2102771242829
20
-5.86272622879881
30
0
41
1
10
95.3208856458627
20
-5.87300205289077
30
0
41
1
10
95.5421221326136
20
-5.89171399724049
30
0
41
1
10
95.6527498407908
20
-5.90014906160101
30
0
41
1
10
95.9848128872135
20
-5.92263100874641
30
0
41
1
10
96.206445670506
20
-5.9338452904436
30
0
41
1
10
96.6410738000321
20
-5.94829844532472
30
0
41
1
10
96.8539554401799
20
-5.95189129058406
30
0
41
1
10
97.0671362256342
20
-5.95198241565922
30
0
0
SPLINE
5
C7
100
AcDbEntity
8
1
62
256
6
ByLayer
370
18
48
1
60
0
100
AcDbSpline
70
4
71
5
72
38
73
32
40
0
40
0
40
0
40
0
40
0
40
0
40
0.031013674491084
40
0.064482004186913
40
0.102898644853218
40
0.142998985653176
40
0.183180609380909
40
0.223413821650517
40
0.263694853069548
40
0.304021581407501
40
0.344393498165729
40
0.384806789270269
40
0.425259223293981
40
0.465749580984371
40
0.506275245142277
40
0.546833507086837
40
0.587422602911449
40
0.628040760806399
40
0.6686849611481
40
0.709353081194895
40
0.750043784316788
40
0.790753965026046
40
0.831481467901428
40
0.872224502826305
40
0.91297671188291
40
0.952935839120061
40
0.981893777927141
40
0.995379194287524
40
1
40
1
40
1
40
1
40
1
40
1
41
1
10
14.530853567527
20
-5.70058932865248
30
0
41
1
10
14.530853567527
20
-5.66945741285892
30
0
41
1
10
14.5308535675269
20
-5.60474605177208
30
0
41
1
10
14.5308535675269
20
-5.5015239303132
30
0
41
1
10
14.530853567527
20
-5.35808902232557
30
0
41
1
10
14.5308535675269
20
-5.17543889878479
30
0
41
1
10
14.530853567527
20
-4.98453978512956
30
0
41
1
10
14.5308535675269
20
-4.78799149989322
30
0
41
1
10
14.530853567527
20
-4.59063501119951
30
0
41
1
10
14.5308535675269
20
-4.39410860030142
30
0
41
1
10
14.5308535675269
20
-4.1984303127393
30
0
41
1
10
14.530853567527
20
-4.00361832759211
30
0
41
1
10
14.5308535675269
20
-3.80967158167246
30
0
41
1
10
14.530853567527
20
-3.61660123382859
30
0
41
1
10
14.530853567527
20
-3.42441337407976
30
0
41
1
10
14.5308535675269
20
-3.23311773076017
30
0
41
1
10
14.530853567527
20
-3.042720216215
30
0
41
1
10
14.530853567527
20
-2.85323184657983
30
0
41
1
10
14.530853567527
20
-2.66466070941794
30
0
41
1
10
14.530853567527
20
-2.47701710358371
30
0
41
1
10
14.530853567527
20
-2.2903089680612
30
0
41
1
10
14.5308535675269
20
-2.1045504771796
30
0
41
1
10
14.530853567527
20
-1.9197469092546
30
0
41
1
10
14.530853567527
20
-1.73591999992618
30
0
41
1
10
14.530853567527
20
-1.55379166261531
30
0
41
1
10
14.5308535675269
20
-1.3832049568482
30
0
41
1
10
14.530853567527
20
-1.23769441492365
30
0
41
1
10
14.530853567527
20
-1.12477820045211
30
0
41
1
10
14.530853567527
20
-1.04808105576137
30
0
41
1
10
14.530853567527
20
-1.00672336333
30
0
41
1
10
14.5308535675269
20
-0.990811453725399
30
0
41
1
10
14.530853567527
20
-0.986750328656314
30
0
0
SPLINE
5
C8
100
AcDbEntity
8
1
62
256
6
ByLayer
370
18
48
1
60
0
100
AcDbSpline
70
4
71
3
72
148
73
144
40
0
40
0
40
0
40
0
40
0.0625000000000171
40
0.0625000000000171
40
0.125000000000034
40
0.125000000000034
40
0.187500000000051
40
0.187500000000051
40
0.195312500000053
40
0.195312500000053
40
0.203125000000055
40
0.203125000000055
40
0.218750000000059
40
0.218750000000059
40
0.250000000000066
40
0.250000000000066
40
0.281250000000073
40
0.281250000000073
40
0.31250000000008
40
0.31250000000008
40
0.343750000000087
40
0.343750000000087
40
0.359375000000091
40
0.359375000000091
40
0.375000000000094
40
0.375000000000094
40
0.390625000000098
40
0.390625000000098
40
0.398437500000099
40
0.398437500000099
40
0.4023437500001
40
0.4023437500001
40
0.406250000000101
40
0.406250000000101
40
0.421875000000105
40
0.421875000000105
40
0.437500000000108
40
0.437500000000108
40
0.453125000000112
40
0.453125000000112
40
0.457031250000113
40
0.457031250000113
40
0.460937500000114
40
0.468750000000116
40
0.468750000000116
40
0.48437500000012
40
0.48437500000012
40
0.488281250000121
40
0.488281250000121
40
0.492187500000122
40
0.500000000000125
40
0.500000000000125
40
0.507812500000127
40
0.507812500000127
40
0.511718750000128
40
0.511718750000128
40
0.513671875000129
40
0.513671875000129
40
0.51562500000013
40
0.531250000000135
40
0.531250000000135
40
0.535156250000136
40
0.537109375000136
40
0.537109375000136
40
0.539062500000137
40
0.539062500000137
40
0.54687500000014
40
0.54687500000014
40
0.554687500000142
40
0.554687500000142
40
0.558593750000143
40
0.558593750000143
40
0.562500000000145
40
0.562500000000145
40
0.570312500000147
40
0.570312500000147
40
0.578125000000149
40
0.578125000000149
40
0.593750000000154
40
0.593750000000154
40
0.597656250000155
40
0.597656250000155
40
0.601562500000156
40
0.601562500000156
40
0.609375000000158
40
0.609375000000158
40
0.625000000000162
40
0.625000000000162
40
0.640625000000166
40
0.640625000000166
40
0.65625000000017
40
0.65625000000017
40
0.664062500000172
40
0.664062500000172
40
0.667968750000173
40
0.667968750000173
40
0.669921875000174
40
0.669921875000174
40
0.670898437500174
40
0.670898437500174
40
0.671875000000174
40
0.671875000000174
40
0.675781250000173
40
0.675781250000173
40
0.677734375000172
40
0.677734375000172
40
0.67968750000017
40
0.67968750000017
40
0.683593750000168
40
0.683593750000168
40
0.685546875000168
40
0.685546875000168
40
0.687500000000167
40
0.687500000000167
40
0.695312500000163
40
0.695312500000163
40
0.70312500000016
40
0.70312500000016
40
0.718750000000152
40
0.718750000000152
40
0.750000000000135
40
0.750000000000135
40
0.781250000000119
40
0.781250000000119
40
0.79687500000011
40
0.79687500000011
40
0.804687500000106
40
0.804687500000106
40
0.812500000000102
40
0.812500000000102
40
0.828125000000094
40
0.828125000000094
40
0.843750000000085
40
0.843750000000085
40
0.875000000000068
40
0.875000000000068
40
0.906250000000051
40
0.906250000000051
40
0.937500000000034
40
0.937500000000034
40
0.968750000000017
40
0.968750000000017
40
1
40
1
40
1
40
1
41
1
10
14.530853567527
20
-5.70058932867988
30
0
41
1
10
13.9382918008109
20
-5.76516418355925
30
0
41
1
10
13.3514718179763
20
-5.81827287487974
30
0
41
1
10
12.1873811030829
20
-5.8937041635017
30
0
41
1
10
11.610100419887
20
-5.91605128447844
30
0
41
1
10
10.4631679189932
20
-5.92247579556232
30
0
41
1
10
9.89350537081037
20
-5.90661116893517
30
0
41
1
10
9.25603333252462
20
-5.8625712583862
30
0
41
1
10
9.18525065059961
20
-5.8573128025084
30
0
41
1
10
9.04377797374181
20
-5.84604639496359
30
0
41
1
10
8.97306752605743
20
-5.84003629251913
30
0
41
1
10
8.76144368046783
20
-5.82088694166166
30
0
41
1
10
8.62092940747161
20
-5.80662130845045
30
0
41
1
10
8.20109557427546
20
-5.75914933584505
30
0
41
1
10
7.9234800807092
20
-5.72127741411404
30
0
41
1
10
7.37292007353344
20
-5.63196092533494
30
0
41
1
10
7.09997316889121
20
-5.58052309261285
30
0
41
1
10
6.55905559504714
20
-5.46257765532849
30
0
41
1
10
6.29108073826077
20
-5.39608168517645
30
0
41
1
10
5.7606915061977
20
-5.24587817922409
30
0
41
1
10
5.49826889896971
20
-5.1621931309088
30
0
41
1
10
5.10958417688238
20
-5.02130521124903
30
0
41
1
10
4.98085168875554
20
-4.97177186138421
30
0
41
1
10
4.72524730341342
20
-4.86696794036635
30
0
41
1
10
4.5983745148215
20
-4.81169975757933
30
0
41
1
10
4.34676282210964
20
-4.69464521088551
30
0
41
1
10
4.22202241816632
20
-4.63286284203582
30
0
41
1
10
4.03679711785847
20
-4.53450454407599
30
0
41
1
10
3.97537053396869
20
-4.50076844177207
30
0
41
1
10
3.88375030491491
20
-4.44861003214911
30
0
41
1
10
3.85327286902057
20
-4.43095025330203
30
0
41
1
10
3.79264405964486
20
-4.39517287252761
30
0
41
1
10
3.76249315120867
20
-4.37705619047878
30
0
41
1
10
3.6125866535356
20
-4.2852935001176
30
0
41
1
10
3.49536229631698
20
-4.20812582919461
30
0
41
1
10
3.26728653921981
20
-4.04503213151307
30
0
41
1
10
3.15642779548097
20
-3.95911528224511
30
0
41
1
10
2.94248047043271
20
-3.77674595658658
30
0
41
1
10
2.83937729985701
20
-3.68031180301122
30
0
41
1
10
2.7166926110568
20
-3.55149117900217
30
0
41
1
10
2.69245313910682
20
-3.52529158259671
30
0
41
1
10
2.64486842366097
20
-3.47225753398541
30
0
41
1
10
2.5747544664348
20
-3.39167258418354
30
0
41
1
10
2.50861858623341
20
-3.30784288779293
30
0
41
1
10
2.38227265076887
20
-3.13538583520898
30
0
41
1
10
2.30586432316093
20
-3.01407657828941
30
0
41
1
10
2.22311094866439
20
-2.85226478337242
30
0
41
1
10
2.20718381179481
20
-2.81934385954094
30
0
41
1
10
2.1768111890305
20
-2.75259898065963
30
0
41
1
10
2.13364072046801
20
-2.65150249014354
30
0
41
1
10
2.09791779462881
20
-2.5473682380615
30
0
41
1
10
2.05750999800716
20
-2.40560641226091
30
0
41
1
10
2.04091525576484
20
-2.33326809312669
30
0
41
1
10
2.02199950459232
20
-2.222373124402
30
0
41
1
10
2.01669150619588
20
-2.18500978577083
30
0
41
1
10
2.01030759101573
20
-2.1283377126608
30
0
41
1
10
2.00844024388306
20
-2.10930934332643
30
0
41
1
10
2.00526152222736
20
-2.07122798340333
30
0
41
1
10
1.99345626251346
20
-1.89979855614095
30
0
41
1
10
2.00400547027783
20
-1.72781920589668
30
0
41
1
10
2.03761932589825
20
-1.53632354958262
30
0
41
1
10
2.04934851392699
20
-1.47884425736436
30
0
41
1
10
2.063548701255
20
-1.4213227828009
30
0
41
1
10
2.07356535526827
20
-1.38296617195277
30
0
41
1
10
2.07885704749128
20
-1.36375477882902
30
0
41
1
10
2.10658330493658
20
-1.26804719028317
30
0
41
1
10
2.1327173524578
20
-1.19287683470878
30
0
41
1
10
2.19213134003536
20
-1.04507436403142
30
0
41
1
10
2.22541260152704
20
-0.972442679096559
30
0
41
1
10
2.28023691856765
20
-0.865247162222232
30
0
41
1
10
2.29932977962207
20
-0.829807669514366
30
0
41
1
10
2.33908594265242
20
-0.759491626486465
30
0
41
1
10
2.35979703832902
20
-0.72454025517527
30
0
41
1
10
2.42375738007223
20
-0.621196553114459
30
0
41
1
10
2.46883038777145
20
-0.554268299836707
30
0
41
1
10
2.56319440043836
20
-0.423826467965284
30
0
41
1
10
2.6124871237524
20
-0.360314268226034
30
0
41
1
10
2.76594725278395
20
-0.174300990927236
30
0
41
1
10
2.87566224219927
20
-0.0562955812604855
30
0
41
1
10
3.02028146227394
20
0.0851406885795996
30
0
41
1
10
3.04958194084924
20
0.113122117002803
30
0
41
1
10
3.10890162459898
20
0.1685010649893
30
0
41
1
10
3.13891170564958
20
0.195888315951322
30
0
41
1
10
3.22953564214072
20
0.276833965807157
30
0
41
1
10
3.29088594590985
20
0.329314686726292
30
0
41
1
10
3.47742277369315
20
0.482820405832428
30
0
41
1
10
3.60507994533916
20
0.57993344131728
30
0
41
1
10
3.86576409376244
20
0.765698827025631
30
0
41
1
10
3.9987955314825
20
0.854343626246333
30
0
41
1
10
4.26939650964235
20
1.02451912035377
30
0
41
1
10
4.40696466869824
20
1.10605126264545
30
0
41
1
10
4.61627041628705
20
1.22374411441399
30
0
41
1
10
4.68652114975802
20
1.26222188336737
30
0
41
1
10
4.79262035969407
20
1.31881704449248
30
0
41
1
10
4.82811091602764
20
1.33748998988943
30
0
41
1
10
4.88136780738427
20
1.36545062930077
30
0
41
1
10
4.89908568870388
20
1.37481740587981
30
0
41
1
10
4.92605426370247
20
1.38829740188993
30
0
41
1
10
4.93515112071393
20
1.39268419417493
30
0
41
1
10
4.95347357290069
20
1.40094930241821
30
0
41
1
10
4.96269922983237
20
1.40482857347317
30
0
41
1
10
5.00918361334249
20
1.42282765941965
30
0
41
1
10
5.0474944460068
20
1.43282063663966
30
0
41
1
10
5.10608563996328
20
1.4434123630048
30
0
41
1
10
5.12580941012288
20
1.44618669304043
30
0
41
1
10
5.16562168748459
20
1.45031040663878
30
0
41
1
10
5.18579342337245
20
1.45165554428968
30
0
41
1
10
5.24584102071103
20
1.45354070186627
30
0
41
1
10
5.28547249571824
20
1.45194529089966
30
0
41
1
10
5.34436137118541
20
1.44557114898356
30
0
41
1
10
5.36390194333614
20
1.44281132038461
30
0
41
1
10
5.40291959746415
20
1.43683770933831
30
0
41
1
10
5.42240512465818
20
1.43368415832555
30
0
41
1
10
5.51985849592387
20
1.41809672022797
30
0
41
1
10
5.59785511457642
20
1.40585894261346
30
0
41
1
10
5.75380340498069
20
1.38104289342951
30
0
41
1
10
5.83176815784367
20
1.36855786872118
30
0
41
1
10
6.06563633341867
20
1.33088583334052
30
0
41
1
10
6.22150098295035
20
1.30544790817029
30
0
41
1
10
6.68894475817851
20
1.22825638038728
30
0
41
1
10
7.00037246195987
20
1.1755598161636
30
0
41
1
10
7.62282775197139
20
1.06767756107249
30
0
41
1
10
7.93385337337617
20
1.0124810518906
30
0
41
1
10
8.40008976395438
20
0.927781795524027
30
0
41
1
10
8.55545004265835
20
0.899222892795933
30
0
41
1
10
8.7884152041517
20
0.855906238290942
30
0
41
1
10
8.86605983570098
20
0.841399430444852
30
0
41
1
10
9.02132448814007
20
0.812228473251025
30
0
41
1
10
9.09895490609696
20
0.797578585277279
30
0
41
1
10
9.33144899304057
20
0.752470321864678
30
0
41
1
10
9.48582171104985
20
0.720489692809423
30
0
41
1
10
9.79346195787966
20
0.653147844641836
30
0
41
1
10
9.94668805636917
20
0.617659586831138
30
0
41
1
10
10.4047159961687
20
0.506150541075641
30
0
41
1
10
10.707801046802
20
0.42488176092462
30
0
41
1
10
11.3097394666522
20
0.249433872419729
30
0
41
1
10
11.6085827118588
20
0.155223777214843
30
0
41
1
10
12.2023605944883
20
-0.0450929216512463
30
0
41
1
10
12.4972938910452
20
-0.15120358831777
30
0
41
1
10
13.0836764730848
20
-0.373996646511784
30
0
41
1
10
13.3751256819814
20
-0.490679226430899
30
0
41
1
10
13.9550606935995
20
-0.732998653018626
30
0
41
1
10
14.2435466918195
20
-0.858634859055599
30
0
41
1
10
14.5308535675269
20
-0.987811322791913
30
0
0
LINE
5
7D
100
AcDbEntity
8
80
62
256
6
ByLayer
370
18
48
1
60
0
100
AcDbLine
10
0
20
0
30
0
11
-5
21
0
31
0
39
0
210
0
220
0
230
1
0
LINE
5
7E
100
AcDbEntity
8
SK4
62
256
6
ByLayer
370
18
48
0.05
60
0
100
AcDbLine
10
-53
20
0
30
0
11
108
21
0
31
0
39
0
210
0
220
0
230
1
0
LINE
5
80
100
AcDbEntity
8
81
62
256
6
ByLayer
370
18
48
1
60
0
100
AcDbLine
10
103
20
0
30
0
11
108
21
0
31
0
39
0
210
0
220
0
230
1
0
LINE
5
81
100
AcDbEntity
8
4
62
256
6
ByLayer
370
18
48
0.05
60
0
100
AcDbLine
10
-5
20
0
30
0
11
108
21
0
31
0
39
0
210
0
220
0
230
1
0
LINE
5
83
100
AcDbEntity
8
1
62
256
6
ByLayer
370
18
48
1
60
0
100
AcDbLine
10
0
20
5.953
30
0
11
0
21
-5.953
31
0
39
0
210
0
220
0
230
1
0
LINE
5
84
100
AcDbEntity
8
1
62
256
6
ByLayer
370
18
48
1
60
0
100
AcDbLine
10
99.780769
20
-5.953
30
0
11
99.780769
21
-2.083245
31
0
39
0
210
0
220
0
230
1
0
LINE
5
85
100
AcDbEntity
8
1
62
256
6
ByLayer
370
18
48
1
60
0
100
AcDbLine
10
99.780769
20
5.953
30
0
11
99.780769
21
5.7639
31
0
39
0
210
0
220
0
230
1
0
LINE
5
86
100
AcDbEntity
8
1
62
256
6
ByLayer
370
18
48
1
60
0
100
AcDbLine
10
0.4
20
-5.915732
30
0
11
0.4
21
5.915732
31
0
39
0
210
0
220
0
230
1
0
LINE
5
87
100
AcDbEntity
8
SK1
62
256
6
ByLayer
370
18
48
1
60
0
100
AcDbLine
10
0
20
5.953
30
0
11
0
21
-5.953
31
0
39
0
210
0
220
0
230
1
0
LINE
5
89
100
AcDbEntity
8
SK1
62
256
6
ByLayer
370
18
48
1
60
0
100
AcDbLine
10
-48
20
-4.955
30
0
11
-48
21
4.955
31
0
39
0
210
0
220
0
230
1
0
LINE
5
8A
100
AcDbEntity
8
SK1
62
256
6
ByLayer
370
18
48
1
60
0
100
AcDbLine
10
-47.002
20
-5.953
30
0
11
-47.002
21
5.953
31
0
39
0
210
0
220
0
230
1
0
LINE
5
8B
100
AcDbEntity
8
1
62
256
6
ByLayer
370
18
48
1
60
0
100
AcDbLine
10
103
20
0
30
0
11
99.780769
21
5.953
31
0
39
0
210
0
220
0
230
1
0
LINE
5
8C
100
AcDbEntity
8
1
62
256
6
ByLayer
370
18
48
1
60
0
100
AcDbLine
10
99.780769
20
-5.953
30
0
11
103
21
0
31
0
39
0
210
0
220
0
230
1
0
LINE
5
8D
100
AcDbEntity
8
1
62
256
6
ByLayer
370
18
48
1
60
0
100
AcDbLine
10
0.4
20
5.915732
30
0
11
0
21
5.953
31
0
39
0
210
0
220
0
230
1
0
LINE
5
8E
100
AcDbEntity
8
1
62
256
6
ByLayer
370
18
48
1
60
0
100
AcDbLine
10
0
20
-5.953
30
0
11
0.4
21
-5.915732
31
0
39
0
210
0
220
0
230
1
0
LINE
5
8F
100
AcDbEntity
8
1
62
256
6
ByLayer
370
18
48
1
60
0
100
AcDbLine
10
0.4
20
-5.915732
30
0
11
10.894242
21
-5.919668
31
0
39
0
210
0
220
0
230
1
0
LINE
5
90
100
AcDbEntity
8
1
62
256
6
ByLayer
370
18
48
1
60
0
100
AcDbLine
10
29.597551
20
-5.926681
30
0
11
45.3308
21
-5.932581
31
0
39
0
210
0
220
0
230
1
0
LINE
5
91
100
AcDbEntity
8
1
62
256
6
ByLayer
370
18
48
1
60
0
100
AcDbLine
10
63.333774
20
-5.939332
30
0
11
79.071498
21
-5.945234
31
0
39
0
210
0
220
0
230
1
0
LINE
5
92
100
AcDbEntity
8
1
62
256
6
ByLayer
370
18
48
1
60
0
100
AcDbLine
10
97.067796
20
-5.951983
30
0
11
99.780769
21
-5.953
31
0
39
0
210
0
220
0
230
1
0
LINE
5
93
100
AcDbEntity
8
1
62
256
6
ByLayer
370
18
48
1
60
0
100
AcDbLine
10
99.780769
20
5.953
30
0
11
97.067796
21
5.951983
31
0
39
0
210
0
220
0
230
1
0
LINE
5
94
100
AcDbEntity
8
1
62
256
6
ByLayer
370
18
48
1
60
0
100
AcDbLine
10
79.071498
20
5.945234
30
0
11
63.333774
21
5.939332
31
0
39
0
210
0
220
0
230
1
0
LINE
5
95
100
AcDbEntity
8
1
62
256
6
ByLayer
370
18
48
1
60
0
100
AcDbLine
10
45.3308
20
5.932581
30
0
11
29.597551
21
5.926681
31
0
39
0
210
0
220
0
230
1
0
LINE
5
96
100
AcDbEntity
8
1
62
256
6
ByLayer
370
18
48
1
60
0
100
AcDbLine
10
10.894242
20
5.919668
30
0
11
0.4
21
5.915732
31
0
39
0
210
0
220
0
230
1
0
LINE
5
97
100
AcDbEntity
8
SK1
62
256
6
ByLayer
370
18
48
1
60
0
100
AcDbLine
10
-47.002
20
-5.953
30
0
11
0
21
-5.953
31
0
39
0
210
0
220
0
230
1
0
LINE
5
98
100
AcDbEntity
8
SK1
62
256
6
ByLayer
370
18
48
1
60
0
100
AcDbLine
10
0
20
5.953
30
0
11
-47.002
21
5.953
31
0
39
0
210
0
220
0
230
1
0
LINE
5
99
100
AcDbEntity
8
SK1
62
256
6
ByLayer
370
18
48
1
60
0
100
AcDbLine
10
-48
20
-4.955
30
0
11
-47.002
21
-5.953
31
0
39
0
210
0
220
0
230
1
0
LINE
5
9A
100
AcDbEntity
8
SK1
62
256
6
ByLayer
370
18
48
1
60
0
100
AcDbLine
10
-47.002
20
5.953
30
0
11
-48
21
4.955
31
0
39
0
210
0
220
0
230
1
0
LINE
5
9B
100
AcDbEntity
8
SK2
62
256
6
ByLayer
370
13
48
1
60
0
100
AcDbLine
10
-54.5
20
-5.953
30
0
11
-54.5
21
33.477798
31
0
39
0
210
0
220
0
230
1
0
LINE
5
9D
100
AcDbEntity
8
SK2
62
256
6
ByLayer
370
13
48
1
60
0
100
AcDbLine
10
-49.5875
20
5.953
30
0
11
-56.5
21
5.953
31
0
39
0
210
0
220
0
230
1
0
LINE
5
9E
100
AcDbEntity
8
SK2
62
256
6
ByLayer
370
13
48
1
60
0
100
AcDbLine
10
-49.5875
20
-5.953
30
0
11
-56.5
21
-5.953
31
0
39
0
210
0
220
0
230
1
0
LINE
5
9F
100
AcDbEntity
8
1
62
256
6
ByLayer
370
18
48
1
60
1
100
AcDbLine
10
-54.5
20
5.953
30
0
11
-54.039216
21
2.453002
31
0
39
0
210
0
220
0
230
1
0
LINE
5
A0
100
AcDbEntity
8
1
62
256
6
ByLayer
370
18
48
1
60
1
100
AcDbLine
10
-54.039216
20
2.453002
30
0
11
-54.960784
21
2.452998
31
0
39
0
210
0
220
0
230
1
0
LINE
5
A1
100
AcDbEntity
8
1
62
256
6
ByLayer
370
18
48
1
60
1
100
AcDbLine
10
-54.960784
20
2.452998
30
0
11
-54.5
21
5.953
31
0
39
0
210
0
220
0
230
1
0
LINE
5
A2
100
AcDbEntity
8
1
62
256
6
ByLayer
370
18
48
1
60
1
100
AcDbLine
10
-54.5
20
-5.953
30
0
11
-54.960784
21
-2.453002
31
0
39
0
210
0
220
0
230
1
0
LINE
5
A3
100
AcDbEntity
8
1
62
256
6
ByLayer
370
18
48
1
60
1
100
AcDbLine
10
-54.960784
20
-2.453002
30
0
11
-54.039216
21
-2.452998
31
0
39
0
210
0
220
0
230
1
0
LINE
5
A4
100
AcDbEntity
8
1
62
256
6
ByLayer
370
18
48
1
60
1
100
AcDbLine
10
-54.039216
20
-2.452998
30
0
11
-54.5
21
-5.953
31
0
39
0
210
0
220
0
230
1
0
LINE
5
A5
100
AcDbEntity
8
2
62
256
6
ByLayer
370
13
48
1
60
0
100
AcDbLine
10
109.280769
20
-5.953
30
0
11
109.280769
21
33.477798
31
0
39
0
210
0
220
0
230
1
0
LINE
5
A7
100
AcDbEntity
8
2
62
256
6
ByLayer
370
13
48
1
60
0
100
AcDbLine
10
101.368269
20
5.953
30
0
11
111.280769
21
5.953
31
0
39
0
210
0
220
0
230
1
0
LINE
5
A8
100
AcDbEntity
8
2
62
256
6
ByLayer
370
13
48
1
60
0
100
AcDbLine
10
101.368269
20
-5.953
30
0
11
111.280769
21
-5.953
31
0
39
0
210
0
220
0
230
1
0
LINE
5
A9
100
AcDbEntity
8
1
62
256
6
ByLayer
370
18
48
1
60
1
100
AcDbLine
10
109.280769
20
5.953
30
0
11
109.741553
21
2.453002
31
0
39
0
210
0
220
0
230
1
0
LINE
5
AA
100
AcDbEntity
8
1
62
256
6
ByLayer
370
18
48
1
60
1
100
AcDbLine
10
109.741553
20
2.453002
30
0
11
108.819985
21
2.452998
31
0
39
0
210
0
220
0
230
1
0
LINE
5
AB
100
AcDbEntity
8
1
62
256
6
ByLayer
370
18
48
1
60
1
100
AcDbLine
10
108.819985
20
2.452998
30
0
11
109.280769
21
5.953
31
0
39
0
210
0
220
0
230
1
0
LINE
5
AC
100
AcDbEntity
8
1
62
256
6
ByLayer
370
18
48
1
60
1
100
AcDbLine
10
109.280769
20
-5.953
30
0
11
108.819985
21
-2.453002
31
0
39
0
210
0
220
0
230
1
0
LINE
5
AD
100
AcDbEntity
8
1
62
256
6
ByLayer
370
18
48
1
60
1
100
AcDbLine
10
108.819985
20
-2.453002
30
0
11
109.741553
21
-2.452998
31
0
39
0
210
0
220
0
230
1
0
LINE
5
AE
100
AcDbEntity
8
1
62
256
6
ByLayer
370
18
48
1
60
1
100
AcDbLine
10
109.741553
20
-2.452998
30
0
11
109.280769
21
-5.953
31
0
39
0
210
0
220
0
230
1
0
LINE
5
AF
100
AcDbEntity
8
2
62
256
6
ByLayer
370
13
48
1
60
0
100
AcDbLine
10
103.755136
20
-1.396397
30
0
11
114.416232
21
-21.110889
31
0
39
0
210
0
220
0
230
1
0
LINE
5
B0
100
AcDbEntity
8
2
62
256
6
ByLayer
370
13
48
1
60
0
100
AcDbLine
10
103.755136
20
1.396397
30
0
11
114.416232
21
21.110889
31
0
39
0
210
0
220
0
230
1
0
LINE
5
B1
100
AcDbEntity
8
1
62
256
6
ByLayer
370
18
48
1
60
1
100
AcDbLine
10
113.464879
20
-19.351649
30
0
11
116.239971
21
-17.169637
31
0
39
0
210
0
220
0
230
1
0
LINE
5
B2
100
AcDbEntity
8
1
62
256
6
ByLayer
370
18
48
1
60
1
100
AcDbLine
10
116.239971
20
-17.169637
30
0
11
116.710161
21
-17.962233
31
0
39
0
210
0
220
0
230
1
0
LINE
5
B3
100
AcDbEntity
8
1
62
256
6
ByLayer
370
18
48
1
60
1
100
AcDbLine
10
116.710161
20
-17.962233
30
0
11
113.464879
21
-19.351649
31
0
39
0
210
0
220
0
230
1
0
LINE
5
B4
100
AcDbEntity
8
1
62
256
6
ByLayer
370
18
48
1
60
1
100
AcDbLine
10
113.464879
20
19.351649
30
0
11
116.710158
21
17.962234
31
0
39
0
210
0
220
0
230
1
0
LINE
5
B5
100
AcDbEntity
8
1
62
256
6
ByLayer
370
18
48
1
60
1
100
AcDbLine
10
116.710158
20
17.962234
30
0
11
116.239974
21
17.169635
31
0
39
0
210
0
220
0
230
1
0
LINE
5
B6
100
AcDbEntity
8
1
62
256
6
ByLayer
370
18
48
1
60
1
100
AcDbLine
10
116.239974
20
17.169635
30
0
11
113.464879
21
19.351649
31
0
39
0
210
0
220
0
230
1
0
LINE
5
CD
100
AcDbEntity
8
1
62
256
6
ByLayer
370
18
48
1
60
1
100
AcDbLine
10
-54.5
20
5.953
30
0
11
-54.039216
21
2.453002
31
0
39
0
210
0
220
0
230
1
0
LINE
5
CE
100
AcDbEntity
8
1
62
256
6
ByLayer
370
18
48
1
60
1
100
AcDbLine
10
-54.039216
20
2.453002
30
0
11
-54.960784
21
2.452998
31
0
39
0
210
0
220
0
230
1
0
LINE
5
CF
100
AcDbEntity
8
1
62
256
6
ByLayer
370
18
48
1
60
1
100
AcDbLine
10
-54.960784
20
2.452998
30
0
11
-54.5
21
5.953
31
0
39
0
210
0
220
0
230
1
0
LINE
5
D1
100
AcDbEntity
8
1
62
256
6
ByLayer
370
18
48
1
60
1
100
AcDbLine
10
-54.5
20
-5.953
30
0
11
-54.960784
21
-2.453002
31
0
39
0
210
0
220
0
230
1
0
LINE
5
D2
100
AcDbEntity
8
1
62
256
6
ByLayer
370
18
48
1
60
1
100
AcDbLine
10
-54.960784
20
-2.453002
30
0
11
-54.039216
21
-2.452998
31
0
39
0
210
0
220
0
230
1
0
LINE
5
D3
100
AcDbEntity
8
1
62
256
6
ByLayer
370
18
48
1
60
1
100
AcDbLine
10
-54.039216
20
-2.452998
30
0
11
-54.5
21
-5.953
31
0
39
0
210
0
220
0
230
1
0
LINE
5
D7
100
AcDbEntity
8
1
62
256
6
ByLayer
370
18
48
1
60
1
100
AcDbLine
10
109.280769
20
5.953
30
0
11
109.741553
21
2.453002
31
0
39
0
210
0
220
0
230
1
0
LINE
5
D8
100
AcDbEntity
8
1
62
256
6
ByLayer
370
18
48
1
60
1
100
AcDbLine
10
109.741553
20
2.453002
30
0
11
108.819985
21
2.452998
31
0
39
0
210
0
220
0
230
1
0
LINE
5
D9
100
AcDbEntity
8
1
62
256
6
ByLayer
370
18
48
1
60
1
100
AcDbLine
10
108.819985
20
2.452998
30
0
11
109.280769
21
5.953
31
0
39
0
210
0
220
0
230
1
0
LINE
5
DB
100
AcDbEntity
8
1
62
256
6
ByLayer
370
18
48
1
60
1
100
AcDbLine
10
109.280769
20
-5.953
30
0
11
108.819985
21
-2.453002
31
0
39
0
210
0
220
0
230
1
0
LINE
5
DC
100
AcDbEntity
8
1
62
256
6
ByLayer
370
18
48
1
60
1
100
AcDbLine
10
108.819985
20
-2.453002
30
0
11
109.741553
21
-2.452998
31
0
39
0
210
0
220
0
230
1
0
LINE
5
DD
100
AcDbEntity
8
1
62
256
6
ByLayer
370
18
48
1
60
1
100
AcDbLine
10
109.741553
20
-2.452998
30
0
11
109.280769
21
-5.953
31
0
39
0
210
0
220
0
230
1
0
LINE
5
E0
100
AcDbEntity
8
1
62
256
6
ByLayer
370
18
48
1
60
1
100
AcDbLine
10
113.464879
20
-19.351649
30
0
11
116.239971
21
-17.169637
31
0
39
0
210
0
220
0
230
1
0
LINE
5
E1
100
AcDbEntity
8
1
62
256
6
ByLayer
370
18
48
1
60
1
100
AcDbLine
10
116.239971
20
-17.169637
30
0
11
116.710161
21
-17.962233
31
0
39
0
210
0
220
0
230
1
0
LINE
5
E2
100
AcDbEntity
8
1
62
256
6
ByLayer
370
18
48
1
60
1
100
AcDbLine
10
116.710161
20
-17.962233
30
0
11
113.464879
21
-19.351649
31
0
39
0
210
0
220
0
230
1
0
LINE
5
E4
100
AcDbEntity
8
1
62
256
6
ByLayer
370
18
48
1
60
1
100
AcDbLine
10
113.464879
20
19.351649
30
0
11
116.710158
21
17.962234
31
0
39
0
210
0
220
0
230
1
0
LINE
5
E5
100
AcDbEntity
8
1
62
256
6
ByLayer
370
18
48
1
60
1
100
AcDbLine
10
116.710158
20
17.962234
30
0
11
116.239974
21
17.169635
31
0
39
0
210
0
220
0
230
1
0
LINE
5
E6
100
AcDbEntity
8
1
62
256
6
ByLayer
370
18
48
1
60
1
100
AcDbLine
10
116.239974
20
17.169635
30
0
11
113.464879
21
19.351649
31
0
39
0
210
0
220
0
230
1
0
MTEXT
5
C9
100
AcDbEntity
8
SK2
62
256
6
ByLayer
370
18
48
1
60
0
100
AcDbMText
10
-55.841114
20
17.611438
30
0
210
0
220
0
230
1
1
%%c
40
3
41
0
44
1.084337
50
90
71
7
72
5
7
iso_b_vert
0
MTEXT
5
CC
100
AcDbEntity
8
SK2
62
256
6
ByLayer
370
18
48
1
60
0
100
AcDbMText
10
-55.841114
20
23.588
30
0
210
0
220
0
230
1
1
\W0.6532;11.906
40
3
41
0
44
1.084337
50
90
71
7
72
5
7
iso_b_vert
0
MTEXT
5
D5
100
AcDbEntity
8
2
62
256
6
ByLayer
370
18
48
1
60
0
100
AcDbMText
10
107.939655
20
17.611438
30
0
210
0
220
0
230
1
1
%%c
40
3
41
0
44
1.084337
50
90
71
7
72
5
7
iso_b_vert
0
MTEXT
5
D6
100
AcDbEntity
8
2
62
256
6
ByLayer
370
18
48
1
60
0
100
AcDbMText
10
107.939655
20
23.588
30
0
210
0
220
0
230
1
1
\W0.6532;11.906
40
3
41
0
44
1.084337
50
90
71
7
72
5
7
iso_b_vert
0
MTEXT
5
DF
100
AcDbEntity
8
2
62
256
6
ByLayer
370
18
48
1
60
0
100
AcDbMText
10
122.092229
20
-2.114886
30
0
210
0
220
0
230
1
1
\W0.6008;118%%d
40
3
41
0
44
1.084337
50
0
71
7
72
5
7
iso_b_vert
0
MTEXT
5
E8
100
AcDbEntity
8
SK6
62
256
6
ByLayer
370
18
48
1
60
0
100
AcDbMText
10
17.902202
20
-67.114886
30
0
210
0
220
0
230
1
1
\W0.7583;R00315/32
40
3
41
0
44
1.084337
50
0
71
7
72
5
7
iso_b_vert
0
HATCH
5
D0
100
AcDbEntity
8
SK2
62
256
6
ByLayer
370
13
48
1
60
0
100
AcDbHatch
10
0
20
0
30
0
210
0
220
0
230
1
2
ANSI31
70
0
71
0
91
1
92
5
93
3
72
1
10
-54.5
20
5.953
11
-54.0392162584472
21
2.45300169255319
72
1
10
-54.0392162584472
20
2.45300169255319
11
-54.9607837415528
21
2.45299830744682
72
1
10
-54.9607837415528
20
2.45299830744682
11
-54.5
21
5.953
97
0
75
0
76
1
52
0
41
0.0062
77
0
78
1
53
45
43
0
44
0
45
-0.0139193969876572
46
0.0139193969876572
79
0
47
0
98
1
10
0
20
0
0
HATCH
5
D4
100
AcDbEntity
8
SK2
62
256
6
ByLayer
370
13
48
1
60
0
100
AcDbHatch
10
0
20
0
30
0
210
0
220
0
230
1
2
ANSI31
70
0
71
0
91
1
92
5
93
3
72
1
10
-54.5
20
-5.953
11
-54.9607837415528
21
-2.45300169255319
72
1
10
-54.9607837415528
20
-2.45300169255319
11
-54.0392162584472
21
-2.45299830744682
72
1
10
-54.0392162584472
20
-2.45299830744682
11
-54.5
21
-5.953
97
0
75
0
76
1
52
0
41
0.0062
77
0
78
1
53
45
43
0
44
0
45
-0.0139193969876572
46
0.0139193969876572
79
0
47
0
98
1
10
0
20
0
0
HATCH
5
DA
100
AcDbEntity
8
2
62
256
6
ByLayer
370
13
48
1
60
0
100
AcDbHatch
10
0
20
0
30
0
210
0
220
0
230
1
2
ANSI31
70
0
71
0
91
1
92
5
93
3
72
1
10
109.280769061436
20
5.953
11
109.741552802989
21
2.45300169255319
72
1
10
109.741552802989
20
2.45300169255319
11
108.819985319883
21
2.45299830744682
72
1
10
108.819985319883
20
2.45299830744682
11
109.280769061436
21
5.953
97
0
75
0
76
1
52
0
41
0.0062
77
0
78
1
53
45
43
0
44
0
45
-0.0139193969876572
46
0.0139193969876572
79
0
47
0
98
1
10
0
20
0
0
HATCH
5
DE
100
AcDbEntity
8
2
62
256
6
ByLayer
370
13
48
1
60
0
100
AcDbHatch
10
0
20
0
30
0
210
0
220
0
230
1
2
ANSI31
70
0
71
0
91
1
92
5
93
3
72
1
10
109.280769061436
20
-5.953
11
108.819985319883
21
-2.45300169255319
72
1
10
108.819985319883
20
-2.45300169255319
11
109.741552802989
21
-2.45299830744682
72
1
10
109.741552802989
20
-2.45299830744682
11
109.280769061436
21
-5.953
97
0
75
0
76
1
52
0
41
0.0062
77
0
78
1
53
45
43
0
44
0
45
-0.0139193969876572
46
0.0139193969876572
79
0
47
0
98
1
10
0
20
0
0
HATCH
5
E3
100
AcDbEntity
8
2
62
256
6
ByLayer
370
13
48
1
60
0
100
AcDbHatch
10
0
20
0
30
0
210
0
220
0
230
1
2
ANSI31
70
0
71
0
91
1
92
5
93
3
72
1
10
113.464879198752
20
-19.3516485952885
11
116.239971107838
21
-17.1696369764528
72
1
10
116.239971107838
20
-17.1696369764528
11
116.710161392925
21
-17.9622325364573
72
1
10
116.710161392925
20
-17.9622325364573
11
113.464879198752
21
-19.3516485952885
97
0
75
0
76
1
52
0
41
0.0062
77
0
78
1
53
45
43
0
44
0
45
-0.0139193969876572
46
0.0139193969876572
79
0
47
0
98
1
10
0
20
0
0
HATCH
5
E7
100
AcDbEntity
8
2
62
256
6
ByLayer
370
13
48
1
60
0
100
AcDbHatch
10
0
20
0
30
0
210
0
220
0
230
1
2
ANSI31
70
0
71
0
91
1
92
5
93
3
72
1
10
113.464879198752
20
19.3516485952885
11
116.710158481552
21
17.962234263552
72
1
10
116.710158481552
20
17.962234263552
11
116.239974019211
21
17.1696352493581
72
1
10
116.239974019211
20
17.1696352493581
11
113.464879198752
21
19.3516485952885
97
0
75
0
76
1
52
0
41
0.0062
77
0
78
1
53
45
43
0
44
0
45
-0.0139193969876572
46
0.0139193969876572
79
0
47
0
98
1
10
0
20
0
0
DIMENSION
5
EB
100
AcDbEntity
8
SK2
62
256
6
ByLayer
370
18
48
1
60
0
100
AcDbDimension
2
_U0
10
103
20
-51.182915
30
0
11
27.5
21
-51.182915
31
0
70
32
71
1
72
1
41
1
210
0
220
0
230
1
3
Standard
100
AcDbAlignedDimension
13
-48
23
-5.953
33
0
14
103
24
0
34
0
50
0
100
AcDbRotatedDimension
1001
ACAD
1000
DSTYLE
1002
{
1070
   371
1070
    13
1070
   372
1070
    13
1070
     3
1000

1070
   170
1070
     0
1070
   144
1040
1.0
1070
   277
1070
     2
1070
   284
1070
     8
1070
   278
1070
    46
1070
   146
1040
1.166667
1070
   345
1005
16
1070
   347
1005
16
1070
   346
1005
16
1070
   344
1005
0
1070
   343
1005
0
1070
   172
1070
     1
1070
    76
1070
     0
1070
    75
1070
     0
1070
   282
1070
     0
1070
   281
1070
     0
1070
    71
1070
     0
1070
    74
1070
     0
1070
   279
1070
     0
1070
   173
1070
     1
1070
   340
1005
CA
1070
   271
1070
     2
1070
   272
1070
     3
1070
    77
1070
     1
1070
    73
1070
     1
1070
   171
1070
     3
1070
   274
1070
     4
1070
   177
1070
     2
1070
   176
1070
     2
1070
   178
1070
     2
1070
    78
1070
     8
1070
    48
1040
-0.1
1070
    41
1040
3.5
1070
   147
1040
1.5
1070
    42
1040
1.5875
1070
    44
1040
2.0
1070
   140
1040
3.0
1002
}
1001
ACAD_DSTYLE_DIM_LINETYPE
1070
   380
1005
16
1001
ACAD_DSTYLE_DIM_EXT1_LINETYPE
1070
   381
1005
16
1001
ACAD_DSTYLE_DIM_EXT2_LINETYPE
1070
   382
1005
16
0
DIMENSION
5
104
100
AcDbEntity
8
2
62
256
6
ByLayer
370
18
48
1
60
0
100
AcDbDimension
2
_U1
10
2
20
-41.182915
30
0
11
52.5
21
-41.182915
31
0
70
32
71
1
72
1
41
1
210
0
220
0
230
1
3
Standard
100
AcDbAlignedDimension
13
103
23
0
33
0
14
2
24
-5.953
34
0
50
0
100
AcDbRotatedDimension
1001
ACAD
1000
DSTYLE
1002
{
1070
   371
1070
    13
1070
   372
1070
    13
1070
     3
1000

1070
   170
1070
     0
1070
   144
1040
1.0
1070
   277
1070
     2
1070
   284
1070
     8
1070
   278
1070
    46
1070
   146
1040
1.166667
1070
   345
1005
16
1070
   347
1005
16
1070
   346
1005
16
1070
   344
1005
0
1070
   343
1005
0
1070
   172
1070
     1
1070
    76
1070
     0
1070
    75
1070
     0
1070
   282
1070
     0
1070
   281
1070
     0
1070
    71
1070
     0
1070
    74
1070
     0
1070
   279
1070
     0
1070
   173
1070
     1
1070
   340
1005
CA
1070
   271
1070
     2
1070
   272
1070
     3
1070
    77
1070
     1
1070
    73
1070
     1
1070
   171
1070
     3
1070
   274
1070
     4
1070
   177
1070
     2
1070
   176
1070
     2
1070
   178
1070
     2
1070
    78
1070
     8
1070
    48
1040
-0.1
1070
    41
1040
3.5
1070
   147
1040
1.5
1070
    42
1040
1.5875
1070
    44
1040
2.0
1070
   140
1040
3.0
1002
}
1001
ACAD_DSTYLE_DIM_LINETYPE
1070
   380
1005
16
1001
ACAD_DSTYLE_DIM_EXT1_LINETYPE
1070
   381
1005
16
1001
ACAD_DSTYLE_DIM_EXT2_LINETYPE
1070
   382
1005
16
0
DIMENSION
5
11C
100
AcDbEntity
8
SK2
62
256
6
ByLayer
370
18
48
1
60
0
100
AcDbDimension
2
_U2
10
0
20
-36.182915
30
0
11
-24
21
-36.182915
31
0
70
32
71
1
72
1
41
1
210
0
220
0
230
1
3
Standard
100
AcDbAlignedDimension
13
-48
23
-5.953
33
0
14
0
24
-5.953
34
0
50
0
100
AcDbRotatedDimension
1001
ACAD
1000
DSTYLE
1002
{
1070
   371
1070
    13
1070
   372
1070
    13
1070
     3
1000

1070
   170
1070
     0
1070
   144
1040
1.0
1070
   277
1070
     2
1070
   284
1070
     8
1070
   278
1070
    46
1070
   146
1040
1.166667
1070
   345
1005
16
1070
   347
1005
16
1070
   346
1005
16
1070
   344
1005
0
1070
   343
1005
0
1070
   172
1070
     1
1070
    76
1070
     0
1070
    75
1070
     0
1070
   282
1070
     0
1070
   281
1070
     0
1070
    71
1070
     0
1070
    74
1070
     0
1070
   279
1070
     0
1070
   173
1070
     1
1070
   340
1005
CA
1070
   271
1070
     2
1070
   272
1070
     3
1070
    77
1070
     1
1070
    73
1070
     1
1070
   171
1070
     3
1070
   274
1070
     4
1070
   177
1070
     2
1070
   176
1070
     2
1070
   178
1070
     2
1070
    78
1070
     8
1070
    48
1040
-0.1
1070
    41
1040
3.5
1070
   147
1040
1.5
1070
    42
1040
1.5875
1070
    44
1040
2.0
1070
   140
1040
3.0
1002
}
1001
ACAD_DSTYLE_DIM_LINETYPE
1070
   380
1005
16
1001
ACAD_DSTYLE_DIM_EXT1_LINETYPE
1070
   381
1005
16
1001
ACAD_DSTYLE_DIM_EXT2_LINETYPE
1070
   382
1005
16
0
DIMENSION
5
134
100
AcDbEntity
8
2
62
256
6
ByLayer
370
18
48
1
60
0
100
AcDbDimension
2
_U3
10
27.25
20
-34.182915
30
0
11
65.125
21
-34.182915
31
0
70
32
71
1
72
1
41
1
210
0
220
0
230
1
3
Standard
100
AcDbAlignedDimension
13
103
23
0
33
0
14
27.25
24
-5.953
34
0
50
0
100
AcDbRotatedDimension
1001
ACAD
1000
DSTYLE
1002
{
1070
   371
1070
    13
1070
   372
1070
    13
1070
     3
1000

1070
   170
1070
     0
1070
   144
1040
1.0
1070
   277
1070
     2
1070
   284
1070
     8
1070
   278
1070
    46
1070
   146
1040
1.166667
1070
   345
1005
16
1070
   347
1005
16
1070
   346
1005
16
1070
   344
1005
0
1070
   343
1005
0
1070
   172
1070
     1
1070
    76
1070
     0
1070
    75
1070
     0
1070
   282
1070
     0
1070
   281
1070
     0
1070
    71
1070
     0
1070
    74
1070
     0
1070
   279
1070
     0
1070
   173
1070
     1
1070
   340
1005
CA
1070
   271
1070
     2
1070
   272
1070
     3
1070
    77
1070
     1
1070
    73
1070
     1
1070
   171
1070
     3
1070
   274
1070
     4
1070
   177
1070
     2
1070
   176
1070
     2
1070
   178
1070
     2
1070
    78
1070
     8
1070
    48
1040
-0.1
1070
    41
1040
3.5
1070
   147
1040
1.5
1070
    42
1040
1.5875
1070
    44
1040
2.0
1070
   140
1040
3.0
1002
}
1001
ACAD_DSTYLE_DIM_LINETYPE
1070
   380
1005
16
1001
ACAD_DSTYLE_DIM_EXT1_LINETYPE
1070
   381
1005
16
1001
ACAD_DSTYLE_DIM_EXT2_LINETYPE
1070
   382
1005
16
0
ENDSEC
0
SECTION
2
OBJECTS
0
DICTIONARY
5
1be
330
0
100
AcDbDictionary
280
0
281
1
3
ACAD_GROUP
350
1bf
3
ACAD_MLINESTYLE
350
1c0
0
DICTIONARY
5
1bf
330
0
100
AcDbDictionary
280
0
281
1
0
DICTIONARY
5
1c0
330
0
100
AcDbDictionary
280
0
281
1
3
Standard
350
18
0
MLINESTYLE
5
18
330
1c0
100
AcDbMlineStyle
2
Standard
70
0
3

62
256
51
90
52
90
71
2
49
-0.5
62
256
6
ByLayer
49
0.5
62
256
6
ByLayer
0
RASTERVARIABLES
5
1aa
330

100
AcDbRasterVariables
90
0
70
1
71
1
72
1
0
ENDSEC
0
EOF
