0
SECTION
2
HEADER
9
$ACADVER
1
AC1015
9
$DWGCODEPAGE
3
ANSI_1252
9
$HANDSEED
5
1d5
9
$ANGBASE
50
0
9
$ANGDIR
70
0
9
$ATTMODE
70
1
9
$AUNITS
70
0
9
$AUPREC
70
0
9
$CECOLOR
62
256
9
$CELTSCALE
40
1
9
$CELTYPE
6
ByLayer
9
$CELWEIGHT
370
18
9
$CLAYER
8
0
9
$CMLJUST
70
0
9
$CMLSCALE
40
1
9
$CMLSTYLE
2
Standard
9
$DIMSTYLE
2
Standard
9
$TEXTSIZE
40
0.2
9
$TEXTSTYLE
7
Standard
9
$LUNITS
70
2
9
$LUPREC
70
4
9
$EXTNAMES
290
1
9
$INSUNITS
70
4
9
$LTSCALE
40
1
9
$LWDISPLAY
290
1
9
$PDMODE
70
0
9
$PDSIZE
40
0
9
$PLINEGEN
70
0
0
ENDSEC
0
SECTION
2
CLASSES
0
CLASS
1
RASTERVARIABLES
2
AcDbRasterVariables
3
ISM
90
0
280
0
281
0
0
ENDSEC
0
SECTION
2
TABLES
0
TABLE
2
VPORT
5
1cb
100
AcDbSymbolTable
0
VPORT
5
1
100
AcDbSymbolTableRecord
100
AcDbViewportTableRecord
2
*Active
70
0
10
0
20
0
11
1
21
1
12
-1
22
1
13
0
23
0
14
0.5
24
0.5
15
10
25
10
16
0
26
0
36
1
17
0
27
0
37
0
0
ENDTAB
0
TABLE
2
LTYPE
5
1cc
100
AcDbSymbolTable
0
LTYPE
5
14
100
AcDbSymbolTableRecord
100
AcDbLinetypeTableRecord
70
0
2
ByBlock
3

72
65
73
0
40
0
0
LTYPE
5
15
100
AcDbSymbolTableRecord
100
AcDbLinetypeTableRecord
70
0
2
ByLayer
3

72
65
73
0
40
0
0
LTYPE
5
16
100
AcDbSymbolTableRecord
100
AcDbLinetypeTableRecord
70
0
2
Continuous
3
Solid line
72
65
73
0
40
0
0
LTYPE
5
6E
100
AcDbSymbolTableRecord
100
AcDbLinetypeTableRecord
70
0
2
CENTER
3
____ _ ____ _ ____ _ ____
72
65
73
4
40
47.5
49
22
74
0
49
-8.5
74
0
49
8.5
74
0
49
-8.5
74
0
0
LTYPE
5
6F
100
AcDbSymbolTableRecord
100
AcDbLinetypeTableRecord
70
0
2
DASHED
3
__ __ __ __ __ __ __ __ __
72
65
73
2
40
25.72
49
12.86
74
0
49
-12.86
74
0
0
ENDTAB
0
TABLE
2
LAYER
5
1cd
100
AcDbSymbolTable
0
LAYER
5
10
100
AcDbSymbolTableRecord
100
AcDbLayerTableRecord
2
0
70
0
62
7
6
Continuous
290
1
370
-3
390
0
0
LAYER
5
71
100
AcDbSymbolTableRecord
100
AcDbLayerTableRecord
2
81
70
0
62
-3
6
Continuous
290
1
370
-3
390
0
0
LAYER
5
73
100
AcDbSymbolTableRecord
100
AcDbLayerTableRecord
2
80
70
0
62
-6
6
Continuous
290
1
370
-3
390
0
0
LAYER
5
75
100
AcDbSymbolTableRecord
100
AcDbLayerTableRecord
2
1
70
0
62
4
6
Continuous
290
1
370
-3
390
0
0
LAYER
5
7E
100
AcDbSymbolTableRecord
100
AcDbLayerTableRecord
2
4
70
0
62
-2
6
CENTER
290
1
370
-3
390
0
0
LAYER
5
A8
100
AcDbSymbolTableRecord
100
AcDbLayerTableRecord
2
2
70
0
62
7
6
Continuous
290
1
370
-3
390
0
0
LAYER
5
F8
100
AcDbSymbolTableRecord
100
AcDbLayerTableRecord
2
Defpoints
70
0
62
7
6
Continuous
290
0
370
-3
390
0
0
LAYER
5
1b5
100
AcDbSymbolTableRecord
100
AcDbLayerTableRecord
2
SK4
70
0
62
2
6
CENTER
290
1
370
-3
390
0
0
LAYER
5
1b6
100
AcDbSymbolTableRecord
100
AcDbLayerTableRecord
2
SK1
70
0
62
4
6
Continuous
290
1
370
-3
390
0
0
LAYER
5
1b7
100
AcDbSymbolTableRecord
100
AcDbLayerTableRecord
2
SK2
70
0
62
7
6
Continuous
290
1
370
-3
390
0
0
LAYER
5
1b8
100
AcDbSymbolTableRecord
100
AcDbLayerTableRecord
2
NOCUT
70
0
62
-7
6
Continuous
290
1
370
-3
390
0
0
LAYER
5
1b9
100
AcDbSymbolTableRecord
100
AcDbLayerTableRecord
2
CUT
70
0
62
-1
6
Continuous
290
1
370
-3
390
0
0
LAYER
5
1ba
100
AcDbSymbolTableRecord
100
AcDbLayerTableRecord
2
SK6
70
0
62
5
6
Continuous
290
1
370
-3
390
0
0
ENDTAB
0
TABLE
2
STYLE
5
1ce
100
AcDbSymbolTable
0
STYLE
5
11
100
AcDbSymbolTableRecord
100
AcDbTextStyleTableRecord
2
Standard
3
txt
70
0
71
0
40
0
41
1
42
0
50
0
0
STYLE
5
D4
100
AcDbSymbolTableRecord
100
AcDbTextStyleTableRecord
2
iso_b_vert
3
simplex.shx
70
0
71
0
40
0
41
1
42
0
50
0
0
STYLE
5
D5
100
AcDbSymbolTableRecord
100
AcDbTextStyleTableRecord
2
DWGDirectTextStyle
3
simplex
70
0
71
0
40
0
41
1
42
0
50
0
0
ENDTAB
0
TABLE
2
DIMSTYLE
5
1cf
100
AcDbSymbolTable
100
AcDbDimStyleTable
0
DIMSTYLE
105
27
100
AcDbSymbolTableRecord
100
AcDbDimStyleTableRecord
2
Standard
70
0
3
<>
41
0.18
42
0.0625
44
0.18
140
0.18
147
0.09
73
0
74
0
77
1
271
2
275
0
278
52
280
0
340
11
0
ENDTAB
0
TABLE
2
VIEW
5
1d0
100
AcDbSymbolTable
0
ENDTAB
0
TABLE
2
UCS
5
1d1
100
AcDbSymbolTable
0
ENDTAB
0
TABLE
2
APPID
5
1d2
100
AcDbSymbolTable
0
APPID
5
12
100
AcDbSymbolTableRecord
100
AcDbRegAppTableRecord
2
ACAD
70
0
0
APPID
5
F4
100
AcDbSymbolTableRecord
100
AcDbRegAppTableRecord
2
ACAD_DSTYLE_DIMBREAK
70
0
0
APPID
5
174
100
AcDbSymbolTableRecord
100
AcDbRegAppTableRecord
2
ACAD_DSTYLE_DIM_LINETYPE
70
0
0
APPID
5
175
100
AcDbSymbolTableRecord
100
AcDbRegAppTableRecord
2
ACAD_DSTYLE_DIM_EXT1_LINETYPE
70
0
0
APPID
5
176
100
AcDbSymbolTableRecord
100
AcDbRegAppTableRecord
2
ACAD_DSTYLE_DIM_EXT2_LINETYPE
70
0
0
APPID
5
1B1
100
AcDbSymbolTableRecord
100
AcDbRegAppTableRecord
2
ACAD_MLEADERVER
70
0
0
ENDTAB
0
TABLE
2
BLOCK_RECORD
5
1d3
100
AcDbSymbolTable
0
BLOCK_RECORD
5
1F
100
AcDbSymbolTableRecord
100
AcDbBlockTableRecord
2
*Model_Space
340
0
70
0
0
BLOCK_RECORD
5
1B
100
AcDbSymbolTableRecord
100
AcDbBlockTableRecord
2
*Paper_Space
340
0
70
0
0
BLOCK_RECORD
5
23
100
AcDbSymbolTableRecord
100
AcDbBlockTableRecord
2
*Paper_Space0
340
0
70
0
0
BLOCK_RECORD
5
F9
100
AcDbSymbolTableRecord
100
AcDbBlockTableRecord
2
*D1
340
0
70
0
0
BLOCK_RECORD
5
105
100
AcDbSymbolTableRecord
100
AcDbBlockTableRecord
2
_U0
340
0
70
0
0
BLOCK_RECORD
5
111
100
AcDbSymbolTableRecord
100
AcDbBlockTableRecord
2
*D3
340
0
70
0
0
BLOCK_RECORD
5
11D
100
AcDbSymbolTableRecord
100
AcDbBlockTableRecord
2
_U1
340
0
70
0
0
BLOCK_RECORD
5
129
100
AcDbSymbolTableRecord
100
AcDbBlockTableRecord
2
*D5
340
0
70
0
0
BLOCK_RECORD
5
135
100
AcDbSymbolTableRecord
100
AcDbBlockTableRecord
2
_U2
340
0
70
0
0
BLOCK_RECORD
5
141
100
AcDbSymbolTableRecord
100
AcDbBlockTableRecord
2
*D7
340
0
70
0
0
BLOCK_RECORD
5
14D
100
AcDbSymbolTableRecord
100
AcDbBlockTableRecord
2
_U3
340
0
70
0
0
ENDTAB
0
ENDSEC
0
SECTION
2
BLOCKS
0
BLOCK
5
20
100
AcDbEntity
8
0
100
AcDbBlockBegin
2
*Model_Space
70
0
10
0
20
0
30
0
3
*Model_Space
0
ENDBLK
5
21
100
AcDbEntity
8
0
100
AcDbBlockEnd
0
BLOCK
5
1C
100
AcDbEntity
8
0
100
AcDbBlockBegin
2
*Paper_Space
70
0
10
0
20
0
30
0
3
*Paper_Space
0
ENDBLK
5
1D
100
AcDbEntity
8
0
100
AcDbBlockEnd
0
BLOCK
5
24
100
AcDbEntity
8
0
100
AcDbBlockBegin
2
*Paper_Space0
70
0
10
0
20
0
30
0
3
*Paper_Space0
0
ENDBLK
5
25
100
AcDbEntity
8
0
100
AcDbBlockEnd
0
BLOCK
5
FA
100
AcDbEntity
8
0
100
AcDbBlockBegin
2
*D1
70
1
10
0
20
0
30
0
3
*D1
0
LINE
5
FC
100
AcDbEntity
8
0
62
256
6
ByLayer
370
-2
48
1
60
0
100
AcDbLine
10
-32
20
-4.167
30
0
11
-32
21
-53.375509
31
0
39
0
210
0
220
0
230
1
0
LINE
5
FD
100
AcDbEntity
8
0
62
256
6
ByLayer
370
-2
48
1
60
0
100
AcDbLine
10
54
20
-1.5875
30
0
11
54
21
-53.375509
31
0
39
0
210
0
220
0
230
1
0
LINE
5
FE
100
AcDbEntity
8
0
62
256
6
ByLayer
370
-2
48
1
60
0
100
AcDbLine
10
-28.5
20
-51.375509
30
0
11
50.5
21
-51.375509
31
0
39
0
210
0
220
0
230
1
0
SOLID
5
FF
100
AcDbEntity
8
0
62
256
6
ByLayer
370
-1
48
1
60
0
100
AcDbTrace
10
-28.5
20
-50.792175
30
0
11
-28.5
21
-51.958842
31
0
12
-32
22
-51.375509
32
0
13
-32
23
-51.375509
33
0
39
0
210
0
220
0
230
1
0
SOLID
5
100
100
AcDbEntity
8
0
62
256
6
ByLayer
370
-1
48
1
60
0
100
AcDbTrace
10
50.5
20
-51.958842
30
0
11
50.5
21
-50.792175
31
0
12
54
22
-51.375509
32
0
13
54
23
-51.375509
33
0
39
0
210
0
220
0
230
1
0
MTEXT
5
101
100
AcDbEntity
8
0
62
256
6
ByLayer
370
18
48
1
60
0
100
AcDbMText
10
11
20
-45.375509
30
0
210
0
220
0
230
1
1
\A1;86
40
3
41
0
44
1
50
0
71
5
72
5
7
iso_b_vert
0
POINT
5
102
100
AcDbEntity
8
Defpoints
62
0
6
ByLayer
370
-1
48
1
60
0
100
AcDbPoint
10
-32
20
-2.5795
30
0
39
0
210
0
220
0
230
1
50
360
0
POINT
5
103
100
AcDbEntity
8
Defpoints
62
0
6
ByLayer
370
-1
48
1
60
0
100
AcDbPoint
10
54
20
0
30
0
39
0
210
0
220
0
230
1
50
360
0
POINT
5
104
100
AcDbEntity
8
Defpoints
62
0
6
ByLayer
370
-1
48
1
60
0
100
AcDbPoint
10
54
20
-51.375509
30
0
39
0
210
0
220
0
230
1
50
360
0
ENDBLK
5
FB
100
AcDbEntity
8
0
100
AcDbBlockEnd
0
BLOCK
5
10C
100
AcDbEntity
8
0
100
AcDbBlockBegin
2
_U0
70
0
10
0
20
0
30
0
3
_U0
0
MTEXT
5
106
100
AcDbEntity
8
SK2
62
256
6
ByLayer
370
18
48
1
60
0
100
AcDbMText
10
6.51763
20
-50.490394
30
0
210
0
220
0
230
1
1
\W0.7468;86.00
40
3
41
0
44
1.084337
50
0
71
7
72
5
7
iso_b_vert
0
LINE
5
107
100
AcDbEntity
8
SK2
62
256
6
ByLayer
370
13
48
1
60
0
100
AcDbLine
10
-32
20
-4.167
30
0
11
-32
21
-53.375509
31
0
39
0
210
0
220
0
230
1
0
LINE
5
108
100
AcDbEntity
8
SK2
62
256
6
ByLayer
370
13
48
1
60
0
100
AcDbLine
10
54
20
-1.5875
30
0
11
54
21
-53.375509
31
0
39
0
210
0
220
0
230
1
0
LINE
5
109
100
AcDbEntity
8
SK2
62
256
6
ByLayer
370
13
48
1
60
0
100
AcDbLine
10
-32
20
-51.375509
30
0
11
54
21
-51.375509
31
0
39
0
210
0
220
0
230
1
0
SOLID
5
10A
100
AcDbEntity
8
SK2
62
256
6
ByLayer
370
18
48
1
60
0
100
AcDbTrace
10
-32
20
-51.375509
30
0
11
-28.500002
21
-50.914725
31
0
12
-28.499998
22
-51.836292
32
0
13
-28.499998
23
-51.836292
33
0
39
0
210
0
220
0
230
1
0
SOLID
5
10B
100
AcDbEntity
8
SK2
62
256
6
ByLayer
370
18
48
1
60
0
100
AcDbTrace
10
54
20
-51.375509
30
0
11
50.500002
21
-51.836292
31
0
12
50.499998
22
-50.914725
32
0
13
50.499998
23
-50.914725
33
0
39
0
210
0
220
0
230
1
0
ENDBLK
5
10D
100
AcDbEntity
8
0
100
AcDbBlockEnd
0
BLOCK
5
112
100
AcDbEntity
8
0
100
AcDbBlockBegin
2
*D3
70
1
10
0
20
0
30
0
3
*D3
0
LINE
5
114
100
AcDbEntity
8
0
62
256
6
ByLayer
370
-2
48
1
60
0
100
AcDbLine
10
54
20
-1.5875
30
0
11
54
21
-43.375509
31
0
39
0
210
0
220
0
230
1
0
LINE
5
115
100
AcDbEntity
8
0
62
256
6
ByLayer
370
-2
48
1
60
0
100
AcDbLine
10
2
20
-4.167
30
0
11
2
21
-43.375509
31
0
39
0
210
0
220
0
230
1
0
LINE
5
116
100
AcDbEntity
8
0
62
256
6
ByLayer
370
-2
48
1
60
0
100
AcDbLine
10
50.5
20
-41.375509
30
0
11
5.5
21
-41.375509
31
0
39
0
210
0
220
0
230
1
0
SOLID
5
117
100
AcDbEntity
8
0
62
256
6
ByLayer
370
-1
48
1
60
0
100
AcDbTrace
10
50.5
20
-41.958842
30
0
11
50.5
21
-40.792175
31
0
12
54
22
-41.375509
32
0
13
54
23
-41.375509
33
0
39
0
210
0
220
0
230
1
0
SOLID
5
118
100
AcDbEntity
8
0
62
256
6
ByLayer
370
-1
48
1
60
0
100
AcDbTrace
10
5.5
20
-40.792175
30
0
11
5.5
21
-41.958842
31
0
12
2
22
-41.375509
32
0
13
2
23
-41.375509
33
0
39
0
210
0
220
0
230
1
0
MTEXT
5
119
100
AcDbEntity
8
0
62
256
6
ByLayer
370
18
48
1
60
0
100
AcDbMText
10
28
20
-35.375509
30
0
210
0
220
0
230
1
1
\A1;52
40
3
41
0
44
1
50
0
71
5
72
5
7
iso_b_vert
0
POINT
5
11A
100
AcDbEntity
8
Defpoints
62
0
6
ByLayer
370
-1
48
1
60
0
100
AcDbPoint
10
54
20
0
30
0
39
0
210
0
220
0
230
1
50
360
0
POINT
5
11B
100
AcDbEntity
8
Defpoints
62
0
6
ByLayer
370
-1
48
1
60
0
100
AcDbPoint
10
2
20
-2.5795
30
0
39
0
210
0
220
0
230
1
50
360
0
POINT
5
11C
100
AcDbEntity
8
Defpoints
62
0
6
ByLayer
370
-1
48
1
60
0
100
AcDbPoint
10
2
20
-41.375509
30
0
39
0
210
0
220
0
230
1
50
360
0
ENDBLK
5
113
100
AcDbEntity
8
0
100
AcDbBlockEnd
0
BLOCK
5
124
100
AcDbEntity
8
0
100
AcDbBlockBegin
2
_U1
70
0
10
0
20
0
30
0
3
_U1
0
MTEXT
5
11E
100
AcDbEntity
8
2
62
256
6
ByLayer
370
18
48
1
60
0
100
AcDbMText
10
23.51763
20
-40.490394
30
0
210
0
220
0
230
1
1
\W0.7468;52.00
40
3
41
0
44
1.084337
50
0
71
7
72
5
7
iso_b_vert
0
LINE
5
11F
100
AcDbEntity
8
2
62
256
6
ByLayer
370
13
48
1
60
0
100
AcDbLine
10
54
20
-1.5875
30
0
11
54
21
-43.375509
31
0
39
0
210
0
220
0
230
1
0
LINE
5
120
100
AcDbEntity
8
2
62
256
6
ByLayer
370
13
48
1
60
0
100
AcDbLine
10
2
20
-4.167
30
0
11
2
21
-43.375509
31
0
39
0
210
0
220
0
230
1
0
LINE
5
121
100
AcDbEntity
8
2
62
256
6
ByLayer
370
13
48
1
60
0
100
AcDbLine
10
54
20
-41.375509
30
0
11
2
21
-41.375509
31
0
39
0
210
0
220
0
230
1
0
SOLID
5
122
100
AcDbEntity
8
2
62
256
6
ByLayer
370
18
48
1
60
0
100
AcDbTrace
10
54
20
-41.375509
30
0
11
50.500002
21
-41.836292
31
0
12
50.499998
22
-40.914725
32
0
13
50.499998
23
-40.914725
33
0
39
0
210
0
220
0
230
1
0
SOLID
5
123
100
AcDbEntity
8
2
62
256
6
ByLayer
370
18
48
1
60
0
100
AcDbTrace
10
2
20
-41.375509
30
0
11
5.499998
21
-40.914725
31
0
12
5.500002
22
-41.836292
32
0
13
5.500002
23
-41.836292
33
0
39
0
210
0
220
0
230
1
0
ENDBLK
5
125
100
AcDbEntity
8
0
100
AcDbBlockEnd
0
BLOCK
5
12A
100
AcDbEntity
8
0
100
AcDbBlockBegin
2
*D5
70
1
10
0
20
0
30
0
3
*D5
0
LINE
5
12C
100
AcDbEntity
8
0
62
256
6
ByLayer
370
-2
48
1
60
0
100
AcDbLine
10
-32
20
-4.167
30
0
11
-32
21
-38.375509
31
0
39
0
210
0
220
0
230
1
0
LINE
5
12D
100
AcDbEntity
8
0
62
256
6
ByLayer
370
-2
48
1
60
0
100
AcDbLine
10
0
20
-4.167
30
0
11
0
21
-38.375509
31
0
39
0
210
0
220
0
230
1
0
LINE
5
12E
100
AcDbEntity
8
0
62
256
6
ByLayer
370
-2
48
1
60
0
100
AcDbLine
10
-28.5
20
-36.375509
30
0
11
-3.5
21
-36.375509
31
0
39
0
210
0
220
0
230
1
0
SOLID
5
12F
100
AcDbEntity
8
0
62
256
6
ByLayer
370
-1
48
1
60
0
100
AcDbTrace
10
-28.5
20
-35.792175
30
0
11
-28.5
21
-36.958842
31
0
12
-32
22
-36.375509
32
0
13
-32
23
-36.375509
33
0
39
0
210
0
220
0
230
1
0
SOLID
5
130
100
AcDbEntity
8
0
62
256
6
ByLayer
370
-1
48
1
60
0
100
AcDbTrace
10
-3.5
20
-36.958842
30
0
11
-3.5
21
-35.792175
31
0
12
0
22
-36.375509
32
0
13
0
23
-36.375509
33
0
39
0
210
0
220
0
230
1
0
MTEXT
5
131
100
AcDbEntity
8
0
62
256
6
ByLayer
370
18
48
1
60
0
100
AcDbMText
10
-16
20
-30.375509
30
0
210
0
220
0
230
1
1
\A1;32
40
3
41
0
44
1
50
0
71
5
72
5
7
iso_b_vert
0
POINT
5
132
100
AcDbEntity
8
Defpoints
62
0
6
ByLayer
370
-1
48
1
60
0
100
AcDbPoint
10
-32
20
-2.5795
30
0
39
0
210
0
220
0
230
1
50
360
0
POINT
5
133
100
AcDbEntity
8
Defpoints
62
0
6
ByLayer
370
-1
48
1
60
0
100
AcDbPoint
10
0
20
-2.5795
30
0
39
0
210
0
220
0
230
1
50
360
0
POINT
5
134
100
AcDbEntity
8
Defpoints
62
0
6
ByLayer
370
-1
48
1
60
0
100
AcDbPoint
10
0
20
-36.375509
30
0
39
0
210
0
220
0
230
1
50
360
0
ENDBLK
5
12B
100
AcDbEntity
8
0
100
AcDbBlockEnd
0
BLOCK
5
13C
100
AcDbEntity
8
0
100
AcDbBlockBegin
2
_U2
70
0
10
0
20
0
30
0
3
_U2
0
MTEXT
5
136
100
AcDbEntity
8
SK2
62
256
6
ByLayer
370
18
48
1
60
0
100
AcDbMText
10
-20.48237
20
-35.490394
30
0
210
0
220
0
230
1
1
\W0.7468;32.00
40
3
41
0
44
1.084337
50
0
71
7
72
5
7
iso_b_vert
0
LINE
5
137
100
AcDbEntity
8
SK2
62
256
6
ByLayer
370
13
48
1
60
0
100
AcDbLine
10
-32
20
-4.167
30
0
11
-32
21
-38.375509
31
0
39
0
210
0
220
0
230
1
0
LINE
5
138
100
AcDbEntity
8
SK2
62
256
6
ByLayer
370
13
48
1
60
0
100
AcDbLine
10
0
20
-4.167
30
0
11
0
21
-38.375509
31
0
39
0
210
0
220
0
230
1
0
LINE
5
139
100
AcDbEntity
8
SK2
62
256
6
ByLayer
370
13
48
1
60
0
100
AcDbLine
10
-32
20
-36.375509
30
0
11
0
21
-36.375509
31
0
39
0
210
0
220
0
230
1
0
SOLID
5
13A
100
AcDbEntity
8
SK2
62
256
6
ByLayer
370
18
48
1
60
0
100
AcDbTrace
10
-32
20
-36.375509
30
0
11
-28.500002
21
-35.914725
31
0
12
-28.499998
22
-36.836292
32
0
13
-28.499998
23
-36.836292
33
0
39
0
210
0
220
0
230
1
0
SOLID
5
13B
100
AcDbEntity
8
SK2
62
256
6
ByLayer
370
18
48
1
60
0
100
AcDbTrace
10
0
20
-36.375509
30
0
11
-3.499998
21
-36.836292
31
0
12
-3.500002
22
-35.914725
32
0
13
-3.500002
23
-35.914725
33
0
39
0
210
0
220
0
230
1
0
ENDBLK
5
13D
100
AcDbEntity
8
0
100
AcDbBlockEnd
0
BLOCK
5
142
100
AcDbEntity
8
0
100
AcDbBlockBegin
2
*D7
70
1
10
0
20
0
30
0
3
*D7
0
LINE
5
144
100
AcDbEntity
8
0
62
256
6
ByLayer
370
-2
48
1
60
0
100
AcDbLine
10
54
20
-1.5875
30
0
11
54
21
-36.375509
31
0
39
0
210
0
220
0
230
1
0
LINE
5
145
100
AcDbEntity
8
0
62
256
6
ByLayer
370
-2
48
1
60
0
100
AcDbLine
10
15
20
-4.167
30
0
11
15
21
-36.375509
31
0
39
0
210
0
220
0
230
1
0
LINE
5
146
100
AcDbEntity
8
0
62
256
6
ByLayer
370
-2
48
1
60
0
100
AcDbLine
10
50.5
20
-34.375509
30
0
11
18.5
21
-34.375509
31
0
39
0
210
0
220
0
230
1
0
SOLID
5
147
100
AcDbEntity
8
0
62
256
6
ByLayer
370
-1
48
1
60
0
100
AcDbTrace
10
50.5
20
-34.958842
30
0
11
50.5
21
-33.792175
31
0
12
54
22
-34.375509
32
0
13
54
23
-34.375509
33
0
39
0
210
0
220
0
230
1
0
SOLID
5
148
100
AcDbEntity
8
0
62
256
6
ByLayer
370
-1
48
1
60
0
100
AcDbTrace
10
18.5
20
-33.792175
30
0
11
18.5
21
-34.958842
31
0
12
15
22
-34.375509
32
0
13
15
23
-34.375509
33
0
39
0
210
0
220
0
230
1
0
MTEXT
5
149
100
AcDbEntity
8
0
62
256
6
ByLayer
370
18
48
1
60
0
100
AcDbMText
10
34.5
20
-28.375509
30
0
210
0
220
0
230
1
1
\A1;39
40
3
41
0
44
1
50
0
71
5
72
5
7
iso_b_vert
0
POINT
5
14A
100
AcDbEntity
8
Defpoints
62
0
6
ByLayer
370
-1
48
1
60
0
100
AcDbPoint
10
54
20
0
30
0
39
0
210
0
220
0
230
1
50
360
0
POINT
5
14B
100
AcDbEntity
8
Defpoints
62
0
6
ByLayer
370
-1
48
1
60
0
100
AcDbPoint
10
15
20
-2.5795
30
0
39
0
210
0
220
0
230
1
50
360
0
POINT
5
14C
100
AcDbEntity
8
Defpoints
62
0
6
ByLayer
370
-1
48
1
60
0
100
AcDbPoint
10
15
20
-34.375509
30
0
39
0
210
0
220
0
230
1
50
360
0
ENDBLK
5
143
100
AcDbEntity
8
0
100
AcDbBlockEnd
0
BLOCK
5
154
100
AcDbEntity
8
0
100
AcDbBlockBegin
2
_U3
70
0
10
0
20
0
30
0
3
_U3
0
MTEXT
5
14E
100
AcDbEntity
8
2
62
256
6
ByLayer
370
18
48
1
60
0
100
AcDbMText
10
30.01763
20
-33.490394
30
0
210
0
220
0
230
1
1
\W0.7468;39.00
40
3
41
0
44
1.084337
50
0
71
7
72
5
7
iso_b_vert
0
LINE
5
14F
100
AcDbEntity
8
2
62
256
6
ByLayer
370
13
48
1
60
0
100
AcDbLine
10
54
20
-1.5875
30
0
11
54
21
-36.375509
31
0
39
0
210
0
220
0
230
1
0
LINE
5
150
100
AcDbEntity
8
2
62
256
6
ByLayer
370
13
48
1
60
0
100
AcDbLine
10
15
20
-4.167
30
0
11
15
21
-36.375509
31
0
39
0
210
0
220
0
230
1
0
LINE
5
151
100
AcDbEntity
8
2
62
256
6
ByLayer
370
13
48
1
60
0
100
AcDbLine
10
54
20
-34.375509
30
0
11
15
21
-34.375509
31
0
39
0
210
0
220
0
230
1
0
SOLID
5
152
100
AcDbEntity
8
2
62
256
6
ByLayer
370
18
48
1
60
0
100
AcDbTrace
10
54
20
-34.375509
30
0
11
50.500002
21
-34.836292
31
0
12
50.499998
22
-33.914725
32
0
13
50.499998
23
-33.914725
33
0
39
0
210
0
220
0
230
1
0
SOLID
5
153
100
AcDbEntity
8
2
62
256
6
ByLayer
370
18
48
1
60
0
100
AcDbTrace
10
15
20
-34.375509
30
0
11
18.499998
21
-33.914725
31
0
12
18.500002
22
-34.836292
32
0
13
18.500002
23
-34.836292
33
0
39
0
210
0
220
0
230
1
0
ENDBLK
5
155
100
AcDbEntity
8
0
100
AcDbBlockEnd
0
ENDSEC
0
SECTION
2
ENTITIES
0
ARC
5
B9
100
AcDbEntity
8
2
62
256
6
ByLayer
370
13
48
1
60
0
100
AcDbCircle
39
0
10
54
20
0
30
0
40
22
210
0
220
0
230
1
100
AcDbArc
50
7.83748
51
61.596605
0
ARC
5
BA
100
AcDbEntity
8
2
62
256
6
ByLayer
370
13
48
1
60
0
100
AcDbCircle
39
0
10
54
20
0
30
0
40
22
210
0
220
0
230
1
100
AcDbArc
50
298.403395
51
352.16252
0
POINT
5
70
100
AcDbEntity
8
81
62
256
6
ByLayer
370
18
48
1
60
0
100
AcDbPoint
10
54
20
0
30
0
39
0
210
0
220
0
230
1
50
360
0
POINT
5
72
100
AcDbEntity
8
80
62
256
6
ByLayer
370
18
48
1
60
0
100
AcDbPoint
10
0
20
0
30
0
39
0
210
0
220
0
230
1
50
360
0
POINT
5
74
100
AcDbEntity
8
1
62
256
6
ByLayer
370
18
48
1
60
1
100
AcDbPoint
10
-32
20
-2.5795
30
0
39
0
210
0
220
0
230
1
50
360
0
POINT
5
76
100
AcDbEntity
8
1
62
256
6
ByLayer
370
18
48
1
60
1
100
AcDbPoint
10
54
20
0
30
0
39
0
210
0
220
0
230
1
50
360
0
POINT
5
77
100
AcDbEntity
8
1
62
256
6
ByLayer
370
18
48
1
60
1
100
AcDbPoint
10
54
20
0
30
0
39
0
210
0
220
0
230
1
50
360
0
POINT
5
78
100
AcDbEntity
8
1
62
256
6
ByLayer
370
18
48
1
60
1
100
AcDbPoint
10
2
20
-2.5795
30
0
39
0
210
0
220
0
230
1
50
360
0
POINT
5
79
100
AcDbEntity
8
1
62
256
6
ByLayer
370
18
48
1
60
1
100
AcDbPoint
10
-32
20
-2.5795
30
0
39
0
210
0
220
0
230
1
50
360
0
POINT
5
7A
100
AcDbEntity
8
1
62
256
6
ByLayer
370
18
48
1
60
1
100
AcDbPoint
10
0
20
-2.5795
30
0
39
0
210
0
220
0
230
1
50
360
0
POINT
5
7B
100
AcDbEntity
8
1
62
256
6
ByLayer
370
18
48
1
60
1
100
AcDbPoint
10
54
20
0
30
0
39
0
210
0
220
0
230
1
50
360
0
POINT
5
7C
100
AcDbEntity
8
1
62
256
6
ByLayer
370
18
48
1
60
1
100
AcDbPoint
10
15
20
-2.5795
30
0
39
0
210
0
220
0
230
1
50
360
0
SPLINE
5
BB
100
AcDbEntity
8
NOCUT
62
256
6
ByLayer
370
18
48
1
60
0
100
AcDbSpline
70
2053
71
3
72
26
73
22
40
0
40
0
40
0
40
0
40
0.318659186020196
40
0.318659186020196
40
0.318659186020196
40
0.325805127997306
40
0.325805127997306
40
0.325805127997306
40
0.346846416450636
40
0.346846416450636
40
0.346846416450636
40
0.822298607462364
40
0.822298607462364
40
0.822298607462364
40
0.848250185046756
40
0.848250185046756
40
0.848250185046756
40
0.997967055722163
40
0.997967055722163
40
0.997967055722163
40
1
40
1
40
1
40
1
41
1
10
0
20
2.5795
30
0
41
1
10
-10.5001666666667
20
2.5795
30
0
41
1
10
-21.0003333333333
20
2.5795
30
0
41
1
10
-31.5005
20
2.5795
30
0
41
1
10
-31.667
20
2.41300000000001
30
0
41
1
10
-31.8335
20
2.2465
30
0
41
1
10
-32
20
2.08000000000001
30
0
41
1
10
-32
20
1.38666666666666
30
0
41
1
10
-32
20
0.693333333333328
30
0
41
1
10
-32
20
0
30
0
41
1
10
-16.3333333333334
20
0
30
0
41
1
10
-0.666666666666771
20
0
30
0
41
1
10
14.9999999999999
20
0
30
0
41
1
10
15
20
0.855132699330085
30
0
41
1
10
15
20
1.71026539866017
30
0
41
1
10
15
20
2.56539809799025
30
0
41
1
10
10.0666666666662
20
2.56354809799035
30
0
41
1
10
5.13333333333239
20
2.56169809799047
30
0
41
1
10
0.199999999760053
20
2.55984809798954
30
0
41
1
10
0.133333333014349
20
2.56639873199234
30
0
41
1
10
0.0666666665071887
20
2.57294936599618
30
0
41
1
10
0
20
2.5795
30
0
0
SPLINE
5
BD
100
AcDbEntity
8
CUT
62
256
6
ByLayer
370
18
48
1
60
0
100
AcDbSpline
70
2053
71
3
72
17
73
13
40
0
40
0
40
0
40
0
40
0.475013163990851
40
0.475013163990851
40
0.475013163990851
40
0.50625926315443
40
0.50625926315443
40
0.50625926315443
40
0.964282481180301
40
0.964282481180301
40
0.964282481180301
40
1
40
1
40
1
40
1
41
1
10
54
20
0
30
0
41
1
10
41
20
0
30
0
41
1
10
28
20
0
30
0
41
1
10
15
20
0
30
0
41
1
10
15
20
0.855132699330085
30
0
41
1
10
15
20
1.71026539866017
30
0
41
1
10
14.9999999999999
20
2.56539809799023
30
0
41
1
10
27.5350240099652
20
2.57009873199368
30
0
41
1
10
40.0700480199307
20
2.57479936599714
30
0
41
1
10
52.6050720298962
20
2.57950000000059
30
0
41
1
10
53.0700480199308
20
1.71966666666705
30
0
41
1
10
53.5350240099654
20
0.859833333333512
30
0
41
1
10
54
20
0
30
0
0
SPLINE
5
BF
100
AcDbEntity
8
1
62
256
6
ByLayer
370
18
48
1
60
0
100
AcDbSpline
70
4
71
3
72
109
73
105
40
0
40
0
40
0
40
0
40
0.0312499999999982
40
0.0312499999999982
40
0.0624999999999964
40
0.0624999999999964
40
0.0937499999999945
40
0.0937499999999945
40
0.124999999999993
40
0.124999999999993
40
0.187499999999989
40
0.187499999999989
40
0.218749999999986
40
0.218749999999986
40
0.234374999999986
40
0.234374999999986
40
0.249999999999986
40
0.249999999999986
40
0.265624999999986
40
0.265624999999986
40
0.281249999999986
40
0.281249999999986
40
0.289062499999987
40
0.289062499999987
40
0.296874999999989
40
0.296874999999989
40
0.304687499999991
40
0.304687499999991
40
0.312499999999992
40
0.312499999999992
40
0.328124999999992
40
0.328124999999992
40
0.343749999999992
40
0.343749999999992
40
0.359374999999992
40
0.359374999999992
40
0.374999999999991
40
0.374999999999991
40
0.406249999999991
40
0.406249999999991
40
0.437499999999991
40
0.437499999999991
40
0.45312499999999
40
0.45312499999999
40
0.46874999999999
40
0.46874999999999
40
0.47656249999999
40
0.47656249999999
40
0.48437499999999
40
0.48437499999999
40
0.49218749999999
40
0.49218749999999
40
0.49999999999999
40
0.49999999999999
40
0.507812499999989
40
0.507812499999989
40
0.515624999999989
40
0.515624999999989
40
0.531249999999989
40
0.531249999999989
40
0.539062499999988
40
0.539062499999988
40
0.546874999999987
40
0.546874999999987
40
0.562499999999984
40
0.562499999999984
40
0.578124999999982
40
0.578124999999982
40
0.585937499999981
40
0.585937499999981
40
0.59374999999998
40
0.59374999999998
40
0.609374999999981
40
0.609374999999981
40
0.624999999999982
40
0.640624999999983
40
0.640624999999983
40
0.656249999999985
40
0.656249999999985
40
0.687499999999983
40
0.687499999999983
40
0.718749999999982
40
0.718749999999982
40
0.749999999999981
40
0.749999999999981
40
0.765624999999982
40
0.765624999999982
40
0.781249999999983
40
0.781249999999983
40
0.796874999999984
40
0.796874999999984
40
0.812499999999986
40
0.812499999999986
40
0.843749999999988
40
0.843749999999988
40
0.87499999999999
40
0.87499999999999
40
0.906249999999993
40
0.906249999999993
40
0.937499999999995
40
0.937499999999995
40
0.968749999999998
40
0.968749999999998
40
1
40
1
40
1
40
1
41
1
10
52.6050720298962
20
2.49769802018662
30
0
41
1
10
52.6320968906219
20
2.44752272719828
30
0
41
1
10
52.6590207829198
20
2.3972134979474
30
0
41
1
10
52.7128613285821
20
2.29662173974708
30
0
41
1
10
52.7397729024573
20
2.24633004890293
30
0
41
1
10
52.7935184987572
20
2.14567947841175
30
0
41
1
10
52.8203343059442
20
2.09529616691287
30
0
41
1
10
52.8738390293013
20
1.99441561215417
30
0
41
1
10
52.9005314717742
20
1.94392331633182
30
0
41
1
10
52.9804602371422
20
1.7923574975172
30
0
41
1
10
53.0335838759975
20
1.69122870091957
30
0
41
1
10
53.1125985679786
20
1.53904768107984
30
0
41
1
10
53.1388262770993
20
1.48824365656904
30
0
41
1
10
53.1780134547157
20
1.41196099935121
30
0
41
1
10
53.1910509336433
20
1.38652151987054
30
0
41
1
10
53.2170764834168
20
1.33562311289467
30
0
41
1
10
53.2300623650901
20
1.310161636327
30
0
41
1
10
53.2559294032843
20
1.25916752499762
30
0
41
1
10
53.2688108857163
20
1.23363631415367
30
0
41
1
10
53.2944745335149
20
1.18251352615903
30
0
41
1
10
53.3072477606225
20
1.15688761343225
30
0
41
1
10
53.3265358391714
20
1.11912538669364
30
0
41
1
10
53.3329845952075
20
1.10664060011362
30
0
41
1
10
53.3459875135991
20
1.08208187273649
30
0
41
1
10
53.3525484647182
20
1.07003020972442
30
0
41
1
10
53.3658017499611
20
1.04638921737219
30
0
41
1
10
53.3724921752808
20
1.03479288470064
30
0
41
1
10
53.3859183809482
20
1.01175530235946
30
0
41
1
10
53.3926468831256
20
1.00028985344918
30
0
41
1
10
53.4127621543139
20
0.965662409168971
30
0
41
1
10
53.4261003188564
20
0.94234359756959
30
0
41
1
10
53.4526736424665
20
0.895415717360095
30
0
41
1
10
53.4659048667862
20
0.871793168901178
30
0
41
1
10
53.492249880525
20
0.824264255468478
30
0
41
1
10
53.5053608543769
20
0.80034798124376
30
0
41
1
10
53.5314142398102
20
0.752157170627157
30
0
41
1
10
53.5443729925537
20
0.727858773450009
30
0
41
1
10
53.5828012055795
20
0.654664242015201
30
0
41
1
10
53.6078741724642
20
0.605512930926039
30
0
41
1
10
53.6558155642084
20
0.505944892805616
30
0
41
1
10
53.6786955509822
20
0.455525419800153
30
0
41
1
10
53.7096276795521
20
0.378182111942749
30
0
41
1
10
53.7193676469002
20
0.352115503128317
30
0
41
1
10
53.7373453362023
20
0.299287039769666
30
0
41
1
10
53.7455963360776
20
0.272532993244738
30
0
41
1
10
53.7564224215849
20
0.231713906252026
30
0
41
1
10
53.7597727776411
20
0.217977061447442
30
0
41
1
10
53.7658449362162
20
0.190293735493157
30
0
41
1
10
53.7685591114375
20
0.176428996195426
30
0
41
1
10
53.7731158059939
20
0.148668181142398
30
0
41
1
10
53.7749591192275
20
0.134771856405848
30
0
41
1
10
53.7774834556785
20
0.106971405134345
30
0
41
1
10
53.7781442543324
20
0.0930700091507504
30
0
41
1
10
53.7780859760706
20
0.0652770761576562
30
0
41
1
10
53.7773709867291
20
0.0512977873304123
30
0
41
1
10
53.7747208441637
20
0.0238975957729508
30
0
41
1
10
53.7728017681294
20
0.0104463001330544
30
0
41
1
10
53.7656302933858
20
-0.0293552688065404
30
0
41
1
10
53.7589867469489
20
-0.0551693852422375
30
0
41
1
10
53.7471438762388
20
-0.0931523505578866
30
0
41
1
10
53.7428790793966
20
-0.105687190866206
30
0
41
1
10
53.7338466858806
20
-0.130188428780229
30
0
41
1
10
53.7290665526991
20
-0.142181531909557
30
0
41
1
10
53.714044528611
20
-0.17737028858059
30
0
41
1
10
53.70313043748
20
-0.199777511508273
30
0
41
1
10
53.6800884606396
20
-0.242742881461282
30
0
41
1
10
53.6679630886314
20
-0.263312432892349
30
0
41
1
10
53.6491536595409
20
-0.2929926474213
30
0
41
1
10
53.6427861345837
20
-0.302672376166043
30
0
41
1
10
53.6299917502991
20
-0.32147182871762
30
0
41
1
10
53.6235499495813
20
-0.330615278122906
30
0
41
1
10
53.604121448374
20
-0.357324338698248
30
0
41
1
10
53.591032406912
20
-0.37415505001178
30
0
41
1
10
53.5646928696399
20
-0.406231397759285
30
0
41
1
10
53.5381915942301
20
-0.436748947657946
30
0
41
1
10
53.511438391869
20
-0.464226434642768
30
0
41
1
10
53.4845714827477
20
-0.49021148229366
30
0
41
1
10
53.4710509844161
20
-0.502488033734835
30
0
41
1
10
53.4308064730626
20
-0.536701391662092
30
0
41
1
10
53.4042661002359
20
-0.556117215619594
30
0
41
1
10
53.3516200828956
20
-0.588181997273068
30
0
41
1
10
53.3255074227164
20
-0.600889099773298
30
0
41
1
10
53.2734747595429
20
-0.61990301650971
30
0
41
1
10
53.2480061113026
20
-0.625990584406168
30
0
41
1
10
53.2103819883661
20
-0.630561499172813
30
0
41
1
10
53.1979386292196
20
-0.631311641666485
30
0
41
1
10
53.1732210133139
20
-0.631268919879091
30
0
41
1
10
53.1609472969743
20
-0.630466630842932
30
0
41
1
10
53.1364308841248
20
-0.628023147969316
30
0
41
1
10
53.124169611198
20
-0.626491266150111
30
0
41
1
10
53.0994503599115
20
-0.624090965671826
30
0
41
1
10
53.086993984899
20
-0.62322141615536
30
0
41
1
10
53.0492842113168
20
-0.622234661995691
30
0
41
1
10
53.0236403225727
20
-0.623725822750714
30
0
41
1
10
52.9721118492747
20
-0.630691492298325
30
0
41
1
10
52.9461980384521
20
-0.636192590782656
30
0
41
1
10
52.8941940289998
20
-0.650764574911477
30
0
41
1
10
52.8681062877265
20
-0.659733646042611
30
0
41
1
10
52.8158113988261
20
-0.680919509613091
30
0
41
1
10
52.7896032349351
20
-0.693153864305913
30
0
41
1
10
52.7370813644644
20
-0.720984080733729
30
0
41
1
10
52.7107667348278
20
-0.736606048019269
30
0
41
1
10
52.6580149593752
20
-0.771618061414159
30
0
41
1
10
52.6315770885825
20
-0.791020228312362
30
0
41
1
10
52.6050720298948
20
-0.812136505283092
30
0
0
SPLINE
5
C0
100
AcDbEntity
8
1
62
256
6
ByLayer
370
18
48
1
60
0
100
AcDbSpline
70
4
71
3
72
41
73
37
40
0
40
0
40
0
40
0
40
0.0251213677648367
40
0.0517291254595945
40
0.0783368831543525
40
0.10494464084911
40
0.158160156238626
40
0.211375671628142
40
0.264591187017658
40
0.291198944712416
40
0.317806702407174
40
0.344414460101932
40
0.357718338949311
40
0.37102221779669
40
0.384326096644069
40
0.390978036067758
40
0.397629975491448
40
0.404281914915137
40
0.410933854338827
40
0.424237733186206
40
0.450845490880963
40
0.477453248575721
40
0.530668763965237
40
0.583884279354753
40
0.637099794744269
40
0.690315310133785
40
0.743530825523301
40
0.770138583218059
40
0.796746340912817
40
0.823354098607575
40
0.849961856302332
40
0.87656961399709
40
0.903177371691848
40
0.929785129386606
40
0.956392887081364
40
1
40
1
40
1
40
1
41
1
10
10.4858507179695
20
2.07848958222132
30
0
41
1
10
10.4780072452398
20
2.05611874698317
30
0
41
1
10
10.4595791673051
20
2.0098420561763
30
0
41
1
10
10.4278045732845
20
1.93949162055384
30
0
41
1
10
10.3913832549187
20
1.86773263340098
30
0
41
1
10
10.3351244566924
20
1.77184925271445
30
0
41
1
10
10.2502167822551
20
1.65088511305979
30
0
41
1
10
10.1279491300577
20
1.50544820160067
30
0
41
1
10
10.0107078259719
20
1.38816316308595
30
0
41
1
10
9.90971190865838
20
1.29670919227513
30
0
41
1
10
9.83024481961948
20
1.22886925877495
30
0
41
1
10
9.76022195143585
20
1.17337162470778
30
0
41
1
10
9.70233971149435
20
1.12961679312127
30
0
41
1
10
9.65925870508477
20
1.09657420972425
30
0
41
1
10
9.62464027756428
20
1.06834740921892
30
0
41
1
10
9.59954420729883
20
1.04501967405292
30
0
41
1
10
9.58197704709033
20
1.02722030728776
30
0
41
1
10
9.56516814994728
20
1.00924494503263
30
0
41
1
10
9.54243667926067
20
0.985300779778157
30
0
41
1
10
9.49987241371227
20
0.943918366889108
30
0
41
1
10
9.43419521470517
20
0.886782201963598
30
0
41
1
10
9.32137928157053
20
0.799161529611325
30
0
41
1
10
9.16529210920243
20
0.695839207888781
30
0
41
1
10
8.96731000261551
20
0.584768297245631
30
0
41
1
10
8.76088961712586
20
0.485029131563834
30
0
41
1
10
8.54759929987745
20
0.39510478672409
30
0
41
1
10
8.36978764972665
20
0.327607118670386
30
0
41
1
10
8.22722576653609
20
0.277021951732649
30
0
41
1
10
8.12008998700259
20
0.241547505616865
30
0
41
1
10
8.01270228681142
20
0.209502682074685
30
0
41
1
10
7.90504272991072
20
0.180488822401713
30
0
41
1
10
7.79707084815999
20
0.153900019742395
30
0
41
1
10
7.68918398492403
20
0.129471381963924
30
0
41
1
10
7.5819604895666
20
0.107271235991192
30
0
41
1
10
7.45329053012722
20
0.0839858969348768
30
0
41
1
10
7.36166712163362
20
0.0710619679682907
30
0
41
1
10
7.30535301579471
20
0.0647263478782065
30
0
0
SPLINE
5
C1
100
AcDbEntity
8
1
62
256
6
ByLayer
370
18
48
1
60
0
100
AcDbSpline
70
4
71
3
72
10
73
6
40
0
40
0
40
0
40
0
40
0.175556576515794
40
0.65441305974305
40
1
40
1
40
1
40
1
41
1
10
6.20682935206841
20
0.591196284177357
30
0
41
1
10
6.19258463086888
20
0.600332177240944
30
0
41
1
10
6.13807686121635
20
0.633448434359025
30
0
41
1
10
6.04790877090809
20
0.679096403624044
30
0
41
1
10
5.96799044122435
20
0.712017736199925
30
0
41
1
10
5.93372917801474
20
0.7252210058478
30
0
0
SPLINE
5
C2
100
AcDbEntity
8
1
62
256
6
ByLayer
370
18
48
1
60
0
100
AcDbSpline
70
4
71
3
72
60
73
56
40
0
40
0
40
0
40
0
40
0.041431885980039
40
0.041431885980039
40
0.082863771960078
40
0.082863771960078
40
0.124295657940117
40
0.124295657940117
40
0.165727543920156
40
0.165727543920156
40
0.207159429900195
40
0.207159429900195
40
0.248591315880234
40
0.248591315880234
40
0.290023201860273
40
0.290023201860273
40
0.310739144850293
40
0.310739144850293
40
0.331455087840312
40
0.331455087840312
40
0.372886973820348
40
0.372886973820348
40
0.414318859800383
40
0.414318859800383
40
0.455750745780418
40
0.455750745780418
40
0.497182631760454
40
0.497182631760454
40
0.538614517740489
40
0.538614517740489
40
0.580046403720525
40
0.580046403720525
40
0.62147828970056
40
0.62147828970056
40
0.662910175680595
40
0.662910175680595
40
0.683626118670613
40
0.683626118670613
40
0.704342061660631
40
0.704342061660631
40
0.745773947640666
40
0.745773947640666
40
0.787205833620702
40
0.787205833620702
40
0.828637719600737
40
0.828637719600737
40
0.870069605580773
40
0.870069605580773
40
0.911501491560808
40
0.911501491560808
40
0.952933377540844
40
0.952933377540844
40
0.994365263520879
40
0.994365263520879
40
1
40
1
40
1
40
1
41
1
10
52.6050720298956
20
-0.812136505284599
30
0
41
1
10
52.4825837303212
20
-0.747510450499334
30
0
41
1
10
52.3603466271424
20
-0.682316927955128
30
0
41
1
10
52.1161875972219
20
-0.551138700979436
30
0
41
1
10
51.9943353831135
20
-0.485027951343341
30
0
41
1
10
51.7511042225556
20
-0.351729330255694
30
0
41
1
10
51.6296738310099
20
-0.284634395700522
30
0
41
1
10
51.3866624390347
20
-0.150503604976166
30
0
41
1
10
51.2651168618859
20
-0.0834038852769368
30
0
41
1
10
51.0221490948636
20
0.0512352554347331
30
0
41
1
10
50.9007378757091
20
0.1187954318479
30
0
41
1
10
50.657546898381
20
0.25345770409686
30
0
41
1
10
50.5357076842501
20
0.32045015114835
30
0
41
1
10
50.2916235429283
20
0.453907755549835
30
0
41
1
10
50.1694468522438
20
0.520498815785032
30
0
41
1
10
49.9857890781692
20
0.619830871936955
30
0
41
1
10
49.9245522776216
20
0.652803759817147
30
0
41
1
10
49.8023063929652
20
0.718154866544211
30
0
41
1
10
49.7412443285919
20
0.750553988523563
30
0
41
1
10
49.5582591144921
20
0.846972722511509
30
0
41
1
10
49.4365509455666
20
0.910242091447742
30
0
41
1
10
49.1938006860287
20
1.0349601652309
30
0
41
1
10
49.0727197554517
20
1.09633220899724
30
0
41
1
10
48.8305941085725
20
1.21619965433143
30
0
41
1
10
48.7095627150513
20
1.27472698250594
30
0
41
1
10
48.4677413997516
20
1.38927811324689
30
0
41
1
10
48.3469933208211
20
1.44535956406264
30
0
41
1
10
48.1053685665577
20
1.55441594766896
30
0
41
1
10
47.9844229599109
20
1.60729320996569
30
0
41
1
10
47.7422400483218
20
1.70972666948754
30
0
41
1
10
47.6210728270166
20
1.75938125578045
30
0
41
1
10
47.3784719137554
20
1.85535417286795
30
0
41
1
10
47.2569756169082
20
1.90158435308288
30
0
41
1
10
47.0131663612025
20
1.98996954447935
30
0
41
1
10
46.8909057042225
20
2.03219882940468
30
0
41
1
10
46.7071062016084
20
2.09270042476979
30
0
41
1
10
46.6459039810843
20
2.11233645746853
30
0
41
1
10
46.5237322190129
20
2.15043461175654
30
0
41
1
10
46.4627365208533
20
2.16890474803816
30
0
41
1
10
46.2799053480907
20
2.22248122685215
30
0
41
1
10
46.1582060901842
20
2.25574440837457
30
0
41
1
10
45.9153315768788
20
2.31759753489536
30
0
41
1
10
45.7942147572472
20
2.34622542450981
30
0
41
1
10
45.5522522603313
20
2.39858641318193
30
0
41
1
10
45.431332692937
20
2.42227115200552
30
0
41
1
10
45.1894638772252
20
2.4646237081306
30
0
41
1
10
45.0685824269419
20
2.48333495102929
30
0
41
1
10
44.8269368228543
20
2.51578939840306
30
0
41
1
10
44.7061217969632
20
2.52949781251593
30
0
41
1
10
44.4639993084878
20
2.55169425285263
30
0
41
1
10
44.3427273543658
20
2.56020975634257
30
0
41
1
10
44.0999579697988
20
2.57207437427095
30
0
41
1
10
43.9784711170025
20
2.57540853178568
30
0
41
1
10
43.8400571251126
20
2.57616668300852
30
0
41
1
10
43.82347877731
20
2.57620836632478
30
0
41
1
10
43.8068928630944
20
2.57620090928347
30
0
0
SPLINE
5
C3
100
AcDbEntity
8
1
62
256
6
ByLayer
370
18
48
1
60
0
100
AcDbSpline
70
4
71
3
72
110
73
106
40
0
40
0
40
0
40
0
40
0.0045483551559952
40
0.0045483551559952
40
0.0243237068588556
40
0.0243237068588556
40
0.0440990585617161
40
0.0440990585617161
40
0.0638744102645764
40
0.0638744102645764
40
0.0836497619674367
40
0.0836497619674367
40
0.103425113670297
40
0.103425113670297
40
0.123200465373158
40
0.123200465373158
40
0.142975817076018
40
0.142975817076018
40
0.162751168778878
40
0.162751168778878
40
0.182526520481739
40
0.182526520481739
40
0.202301872184599
40
0.202301872184599
40
0.22207722388746
40
0.22207722388746
40
0.24185257559032
40
0.24185257559032
40
0.26162792729318
40
0.26162792729318
40
0.281403278996041
40
0.281403278996041
40
0.301178630698901
40
0.301178630698901
40
0.320953982401761
40
0.320953982401761
40
0.340729334104621
40
0.340729334104621
40
0.360504685807482
40
0.360504685807482
40
0.380280037510342
40
0.380280037510342
40
0.400055389213203
40
0.400055389213203
40
0.419830740916063
40
0.419830740916063
40
0.439606092618924
40
0.439606092618924
40
0.459381444321784
40
0.459381444321784
40
0.479156796024644
40
0.479156796024644
40
0.498932147727505
40
0.498932147727505
40
0.518707499430365
40
0.518707499430365
40
0.538482851133225
40
0.538482851133225
40
0.558258202836086
40
0.558258202836086
40
0.578033554538946
40
0.578033554538946
40
0.597808906241806
40
0.597808906241806
40
0.617584257944667
40
0.617584257944667
40
0.637359609647527
40
0.637359609647527
40
0.657134961350388
40
0.657134961350388
40
0.676910313053248
40
0.676910313053248
40
0.696685664756108
40
0.696685664756108
40
0.716461016458969
40
0.716461016458969
40
0.736236368161829
40
0.736236368161829
40
0.75601171986469
40
0.75601171986469
40
0.77578707156755
40
0.77578707156755
40
0.79556242327041
40
0.79556242327041
40
0.815337774973271
40
0.815337774973271
40
0.835113126676131
40
0.835113126676131
40
0.854888478378991
40
0.854888478378991
40
0.874663830081852
40
0.874663830081852
40
0.894439181784712
40
0.894439181784712
40
0.914214533487572
40
0.914214533487572
40
0.933989885190433
40
0.933989885190433
40
0.953765236893293
40
0.953765236893293
40
0.973540588596153
40
0.973540588596153
40
0.993315940299014
40
0.993315940299014
40
1
40
1
40
1
40
1
41
1
10
33.0044983110787
20
-1.75556613219342
30
0
41
1
10
32.9765399788199
20
-1.76684404972443
30
0
41
1
10
32.9485978594151
20
-1.77802746237475
30
0
41
1
10
32.7992613082253
20
-1.83733796709927
30
0
41
1
10
32.6781546014727
20
-1.88376015744799
30
0
41
1
10
32.4360182553336
20
-1.97235575715308
30
0
41
1
10
32.3149595934896
20
-2.01450719940618
30
0
41
1
10
32.0730156941941
20
-2.09474137829565
30
0
41
1
10
31.9521891814532
20
-2.13287919896087
30
0
41
1
10
31.7104653915341
20
-2.20477549556193
30
0
41
1
10
31.5894943659969
20
-2.23846461108135
30
0
41
1
10
31.3471726355543
20
-2.30120117347707
30
0
41
1
10
31.2258897684169
20
-2.33031164426879
30
0
41
1
10
30.9830942048219
20
-2.38395317799021
30
0
41
1
10
30.861530358243
20
-2.40843476197068
30
0
41
1
10
30.617558963389
20
-2.45233632938462
30
0
41
1
10
30.4951595880913
20
-2.4717977167133
30
0
41
1
10
30.2498870436678
20
-2.50573979835164
30
0
41
1
10
30.1277471640179
20
-2.52010801730378
30
0
41
1
10
29.8839490916442
20
-2.54349852397797
30
0
41
1
10
29.7622333943219
20
-2.55251716894074
30
0
41
1
10
29.5192496872223
20
-2.56533657507049
30
0
41
1
10
29.3980483437251
20
-2.56914087125082
30
0
41
1
10
29.1559787008112
20
-2.57150269154897
30
0
41
1
10
29.035039186768
20
-2.57005695567892
30
0
41
1
10
28.7930630275808
20
-2.56199614761627
30
0
41
1
10
28.6720878334517
20
-2.55538386792205
30
0
41
1
10
28.4302786389207
20
-2.5369366041619
30
0
41
1
10
28.3094063214388
20
-2.52509536595738
30
0
41
1
10
28.0671755597901
20
-2.49635061432815
30
0
41
1
10
27.9458275684487
20
-2.47946059856011
30
0
41
1
10
27.7028422650089
20
-2.4405324860935
30
0
41
1
10
27.5812481884561
20
-2.41845532975199
30
0
41
1
10
27.3374010865819
20
-2.36924886297285
30
0
41
1
10
27.2150415793635
20
-2.34216930613644
30
0
41
1
10
26.9696461226314
20
-2.28309988140788
30
0
41
1
10
26.8473829957643
20
-2.25121779313068
30
0
41
1
10
26.6035991265379
20
-2.18290057656617
30
0
41
1
10
26.4820148811252
20
-2.1465220666407
30
0
41
1
10
26.2390455344661
20
-2.06983184260298
30
0
41
1
10
26.1177125384661
20
-2.02947411304848
30
0
41
1
10
25.8755273317936
20
-1.94454634050282
30
0
41
1
10
25.7546525134671
20
-1.89999095875893
30
0
41
1
10
25.5128066400928
20
-1.80736535587977
30
0
41
1
10
25.3918073021113
20
-1.75934285871568
30
0
41
1
10
25.1498122610588
20
-1.65969118010864
30
0
41
1
10
25.0288750339594
20
-1.60797261223749
30
0
41
1
10
24.7867568163211
20
-1.50122196997304
30
0
41
1
10
24.665502029203
20
-1.44630262424479
30
0
41
1
10
24.4224421233972
20
-1.33362740188352
30
0
41
1
10
24.3007054360366
20
-1.27576618986924
30
0
41
1
10
24.0568220520781
20
-1.15690918981315
30
0
41
1
10
23.9345918344289
20
-1.09597711326018
30
0
41
1
10
23.6892344413859
20
-0.972045753697557
30
0
41
1
10
23.5668611421187
20
-0.909352370092648
30
0
41
1
10
23.3229145474804
20
-0.782173230202176
30
0
41
1
10
23.2013471064469
20
-0.71767570648916
30
0
41
1
10
22.9585139323486
20
-0.587795269007927
30
0
41
1
10
22.8371920945071
20
-0.522515607302836
30
0
41
1
10
22.5948293622279
20
-0.391115789213416
30
0
41
1
10
22.4738545697188
20
-0.324873953898162
30
0
41
1
10
22.2320666098822
20
-0.191766602405039
30
0
41
1
10
22.1111821660657
20
-0.125032315540778
30
0
41
1
10
21.8691497943493
20
0.008272613256878
30
0
41
1
10
21.7480636987206
20
0.0749570958614356
30
0
41
1
10
21.505863210074
20
0.208600763978723
30
0
41
1
10
21.3847097454
20
0.275488296297311
30
0
41
1
10
21.1417452984469
20
0.408369078739071
30
0
41
1
10
21.01994661619
20
0.474384180888109
30
0
41
1
10
20.7758902214362
20
0.605893030585833
30
0
41
1
10
20.6536551096125
20
0.67147455379191
30
0
41
1
10
20.4084145655108
20
0.80136084507842
30
0
41
1
10
20.2860871246908
20
0.865143092702027
30
0
41
1
10
20.0419899127537
20
0.990424706903923
30
0
41
1
10
19.9202912467144
20
1.05204945822794
30
0
41
1
10
19.6774576467801
20
1.17303673642715
30
0
41
1
10
19.5562585994203
20
1.23228634833498
30
0
41
1
10
19.3138912562018
20
1.34768213266707
30
0
41
1
10
19.1927759414915
20
1.40392207598416
30
0
41
1
10
18.9508593438025
20
1.51376178848543
30
0
41
1
10
18.8300342354699
20
1.56731498867967
30
0
41
1
10
18.5881178399584
20
1.67089879484365
30
0
41
1
10
18.4670001585418
20
1.72090143654413
30
0
41
1
10
18.2246039823832
20
1.81755343578501
30
0
41
1
10
18.1033832910847
20
1.86427319866968
30
0
41
1
10
17.8605237233761
20
1.95395672836139
30
0
41
1
10
17.7388109906991
20
1.99683054731258
30
0
41
1
10
17.494669452302
20
2.07845328898034
30
0
41
1
10
17.3722952724535
20
2.11729025810217
30
0
41
1
10
17.1270122227453
20
2.19088177165412
30
0
41
1
10
17.0048028182706
20
2.22534240490228
30
0
41
1
10
16.7607445343439
20
2.28922204652753
30
0
41
1
10
16.638933473899
20
2.31869317625171
30
0
41
1
10
16.395943303002
20
2.37291805258735
30
0
41
1
10
16.2747659272495
20
2.39765574352646
30
0
41
1
10
16.0325363060608
20
2.44205352770803
30
0
41
1
10
15.911429633567
20
2.46169450619459
30
0
41
1
10
15.6693336664851
20
2.49597992111455
30
0
41
1
10
15.5484099009184
20
2.51064717196311
30
0
41
1
10
15.3065513680234
20
2.5348737208364
30
0
41
1
10
15.1855449175729
20
2.54440844832706
30
0
41
1
10
14.9431040127257
20
2.55827733534647
30
0
41
1
10
14.8217322654397
20
2.56263288716849
30
0
41
1
10
14.6592022860391
20
2.56496334961139
30
0
41
1
10
14.6181285370919
20
2.56525137557648
30
0
41
1
10
14.5770280036725
20
2.565238038659
30
0
0
SPLINE
5
C4
100
AcDbEntity
8
1
62
256
6
ByLayer
370
18
48
1
60
0
100
AcDbSpline
70
4
71
3
72
82
73
78
40
0
40
0
40
0
40
0
40
0.0565080959058258
40
0.0565080959058258
40
0.0943567807936958
40
0.0943567807936958
40
0.113281123237631
40
0.113281123237631
40
0.132205465681566
40
0.132205465681566
40
0.151129808125501
40
0.151129808125501
40
0.170054150569436
40
0.170054150569436
40
0.179516321791404
40
0.179516321791404
40
0.188978493013371
40
0.188978493013371
40
0.198440664235338
40
0.198440664235338
40
0.207902835457306
40
0.207902835457306
40
0.226827177901241
40
0.226827177901241
40
0.245751520345176
40
0.245751520345176
40
0.28360020523305
40
0.28360020523305
40
0.359297575008796
40
0.359297575008796
40
0.434994944784542
40
0.434994944784542
40
0.510692314560289
40
0.510692314560289
40
0.529616657004225
40
0.529616657004225
40
0.548540999448162
40
0.548540999448162
40
0.586389684336032
40
0.586389684336032
40
0.624238369223901
40
0.624238369223901
40
0.662087054111771
40
0.662087054111771
40
0.699935738999641
40
0.699935738999641
40
0.737784423887511
40
0.737784423887511
40
0.775633108775381
40
0.775633108775381
40
0.81348179366325
40
0.81348179366325
40
0.832406136107185
40
0.832406136107185
40
0.85133047855112
40
0.85133047855112
40
0.889179163438987
40
0.889179163438987
40
0.90810350588292
40
0.90810350588292
40
0.927027848326853
40
0.927027848326853
40
0.936490019548818
40
0.936490019548818
40
0.945952190770783
40
0.945952190770783
40
0.964876533214716
40
0.964876533214716
40
0.9696076188257
40
0.9696076188257
40
0.974338704436683
40
0.974338704436683
40
0.983800875658649
40
0.983800875658649
40
0.993263046880616
40
0.993263046880616
40
1
40
1
40
1
40
1
41
1
10
7.64004099436005
20
-2.56263402399631
30
0
41
1
10
7.53838055132601
20
-2.56251448690477
30
0
41
1
10
7.43587659227234
20
-2.56108749553457
30
0
41
1
10
7.2632032711501
20
-2.55691531534208
30
0
41
1
10
7.19352362458076
20
-2.55475956491583
30
0
41
1
10
7.08814268736938
20
-2.55096852341413
30
0
41
1
10
7.05285246263048
20
-2.54961281042429
30
0
41
1
10
6.98217340479778
20
-2.54674263103553
30
0
41
1
10
6.94676612459256
20
-2.54522941755027
30
0
41
1
10
6.875942296955
20
-2.54200883664831
30
0
41
1
10
6.8405244472427
20
-2.54030353866492
30
0
41
1
10
6.76996901441831
20
-2.53654807138378
30
0
41
1
10
6.73483019410679
20
-2.53450075180317
30
0
41
1
10
6.68268513553357
20
-2.53092534729424
30
0
41
1
10
6.6654027285656
20
-2.52964556601313
30
0
41
1
10
6.63108590084744
20
-2.52686035803069
30
0
41
1
10
6.6140580206233
20
-2.52534991067725
30
0
41
1
10
6.58010503663937
20
-2.52216807821588
30
0
41
1
10
6.56316515620711
20
-2.52050569515535
30
0
41
1
10
6.52920128308728
20
-2.517138271146
30
0
41
1
10
6.51217937793396
20
-2.51543264339782
30
0
41
1
10
6.46093913132609
20
-2.51030283649092
30
0
41
1
10
6.42655654023122
20
-2.50686106773918
30
0
41
1
10
6.35745894188645
20
-2.49993274207841
30
0
41
1
10
6.32274371540802
20
-2.49644530790786
30
0
41
1
10
6.21814203562212
20
-2.48596989591613
30
0
41
1
10
6.1477864240774
20
-2.47898066891958
30
0
41
1
10
5.93487389942766
20
-2.45860719520155
30
0
41
1
10
5.79051673789024
20
-2.44582419017439
30
0
41
1
10
5.49782359255113
20
-2.42330004634886
30
0
41
1
10
5.34945356709454
20
-2.41357369860432
30
0
41
1
10
5.04901480342738
20
-2.39815294073787
30
0
41
1
10
4.89695082278547
20
-2.39244991668804
30
0
41
1
10
4.70504359379163
20
-2.38763767207322
30
0
41
1
10
4.66657219877263
20
-2.38678763920146
30
0
41
1
10
4.5894683183102
20
-2.38529286699372
30
0
41
1
10
4.55081420551949
20
-2.38464754842423
30
0
41
1
10
4.43496966801524
20
-2.38299722520924
30
0
41
1
10
4.35779708859047
20
-2.38225953655768
30
0
41
1
10
4.2035765485071
20
-2.38158930625869
30
0
41
1
10
4.12653079128035
20
-2.3816715316095
30
0
41
1
10
3.97263810652208
20
-2.38311639033319
30
0
41
1
10
3.89579543341156
20
-2.38450726998411
30
0
41
1
10
3.74233941827163
20
-2.3887172696551
30
0
41
1
10
3.66572281979555
20
-2.39151354391851
30
0
41
1
10
3.51265273441769
20
-2.39802702223537
30
0
41
1
10
3.43619427825081
20
-2.40171420371436
30
0
41
1
10
3.28342695409941
20
-2.40983462266669
30
0
41
1
10
3.20708306357386
20
-2.41429402169857
30
0
41
1
10
3.05552252008644
20
-2.42425650211627
30
0
41
1
10
2.98022781667058
20
-2.42977467873169
30
0
41
1
10
2.86819307606888
20
-2.43889615094773
30
0
41
1
10
2.83099819644852
20
-2.44207480879666
30
0
41
1
10
2.75694723539112
20
-2.44871039992361
30
0
41
1
10
2.72002881121233
20
-2.45217356506092
30
0
41
1
10
2.61046995671586
20
-2.46295334814687
30
0
41
1
10
2.53899412074017
20
-2.47067396653344
30
0
41
1
10
2.43513657003854
20
-2.48303458186601
30
0
41
1
10
2.40107556083751
20
-2.48728053429326
30
0
41
1
10
2.33429942438218
20
-2.49598635513331
30
0
41
1
10
2.30157720501526
20
-2.50044517788336
30
0
41
1
10
2.25382216545012
20
-2.50727426204892
30
0
41
1
10
2.23812766698967
20
-2.50957442654897
30
0
41
1
10
2.20728005416549
20
-2.51422096523936
30
0
41
1
10
2.19216301628151
20
-2.51656263854468
30
0
41
1
10
2.14849962757844
20
-2.52353581701129
30
0
41
1
10
2.12139991516432
20
-2.52815086480302
30
0
41
1
10
2.09099513242674
20
-2.53375005761583
30
0
41
1
10
2.08509023910207
20
-2.53486114136052
30
0
41
1
10
2.07367153104818
20
-2.53706151252078
30
0
41
1
10
2.06814997449999
20
-2.53815254326943
30
0
41
1
10
2.0524322509726
20
-2.54134681060745
30
0
41
1
10
2.0430155443955
20
-2.54338360732848
30
0
41
1
10
2.02665918750978
20
-2.54722610631953
30
0
41
1
10
2.01972012615781
20
-2.54903269011746
30
0
41
1
10
2.01033305262914
20
-2.55187242047734
30
0
41
1
10
2.00724773757358
20
-2.55295409527074
30
0
41
1
10
2.00496107084328
20
-2.55393260883082
30
0
0
SPLINE
5
C5
100
AcDbEntity
8
1
62
256
6
ByLayer
370
18
48
1
60
0
100
AcDbSpline
70
4
71
3
72
29
73
25
40
0
40
0
40
0
40
0
40
0.0131452675282892
40
0.0131452675282892
40
0.0447347293946026
40
0.107913653127226
40
0.107913653127226
40
0.139503114993534
40
0.139503114993534
40
0.171092576859842
40
0.171092576859842
40
0.297450424325056
40
0.297450424325056
40
0.423808271790272
40
0.423808271790272
40
0.550166119255486
40
0.550166119255486
40
0.6765239667207
40
0.6765239667207
40
0.802881814185914
40
0.802881814185914
40
0.92923966165113
40
0.92923966165113
40
1
40
1
40
1
40
1
41
1
10
2.00131452750873
20
-2.55888084416009
30
0
41
1
10
2.00165346195172
20
-2.55902725717391
30
0
41
1
10
2.00205590712065
20
-2.55916381310479
30
0
41
1
10
2.00363477177919
20
-2.55959348363805
30
0
41
1
10
2.00803831951998
20
-2.56032905500137
30
0
41
1
10
2.01538529689566
20
-2.56056697660867
30
0
41
1
10
2.02443969924832
20
-2.56050159224623
30
0
41
1
10
2.02775249081696
20
-2.56042880554077
30
0
41
1
10
2.03485864818563
20
-2.56018784129714
30
0
41
1
10
2.03864484072309
20
-2.56002019002594
30
0
41
1
10
2.05861127609617
20
-2.55896496520205
30
0
41
1
10
2.07782885089813
20
-2.55743445012149
30
0
41
1
10
2.1206466299368
20
-2.55332046469107
30
0
41
1
10
2.14442267474172
20
-2.55072369239227
30
0
41
1
10
2.19451246366452
20
-2.54474367032691
30
0
41
1
10
2.22088074042713
20
-2.54136340370528
30
0
41
1
10
2.27419153307244
20
-2.53376213425088
30
0
41
1
10
2.30104671027166
20
-2.52952599302753
30
0
41
1
10
2.35401837885374
20
-2.52002686893806
30
0
41
1
10
2.38017235993846
20
-2.51476433811672
30
0
41
1
10
2.43174552823345
20
-2.50314659315444
30
0
41
1
10
2.45717794790656
20
-2.49679244658398
30
0
41
1
10
2.49644535880446
20
-2.48601574648509
30
0
41
1
10
2.51046134869148
20
-2.48197262962052
30
0
41
1
10
2.52442076905328
20
-2.47775808522525
30
0
0
SPLINE
5
C6
100
AcDbEntity
8
1
62
256
6
ByLayer
370
18
48
1
60
0
100
AcDbSpline
70
4
71
3
72
136
73
132
40
0
40
0
40
0
40
0
40
0.0002499891941021
40
0.0002499891941021
40
0.0181058562533046
40
0.0181058562533046
40
0.0359617233125071
40
0.0359617233125071
40
0.0538175903717096
40
0.0538175903717096
40
0.0716734574309122
40
0.0716734574309122
40
0.0895293244901146
40
0.0895293244901146
40
0.0984572580197155
40
0.0984572580197155
40
0.107385191549316
40
0.107385191549316
40
0.125241058608518
40
0.125241058608518
40
0.14309692566772
40
0.14309692566772
40
0.160952792726921
40
0.160952792726921
40
0.178808659786123
40
0.178808659786123
40
0.196664526845324
40
0.196664526845324
40
0.214520393904526
40
0.214520393904526
40
0.232376260963728
40
0.232376260963728
40
0.241304194493328
40
0.241304194493328
40
0.250232128022928
40
0.250232128022928
40
0.268087995082128
40
0.268087995082128
40
0.277015928611728
40
0.277015928611728
40
0.285943862141327
40
0.285943862141327
40
0.303799729200527
40
0.303799729200527
40
0.321655596259726
40
0.321655596259726
40
0.339511463318925
40
0.339511463318925
40
0.357367330378124
40
0.357367330378124
40
0.375223197437323
40
0.375223197437323
40
0.393079064496522
40
0.393079064496522
40
0.410934931555721
40
0.410934931555721
40
0.42879079861492
40
0.42879079861492
40
0.446646665674119
40
0.446646665674119
40
0.455574599203719
40
0.455574599203719
40
0.464502532733319
40
0.464502532733319
40
0.482358399792519
40
0.482358399792519
40
0.500214266851719
40
0.500214266851719
40
0.518070133910919
40
0.518070133910919
40
0.535926000970119
40
0.535926000970119
40
0.553781868029318
40
0.553781868029318
40
0.571637735088518
40
0.571637735088518
40
0.589493602147718
40
0.589493602147718
40
0.607349469206918
40
0.607349469206918
40
0.616277402736518
40
0.616277402736518
40
0.625205336266118
40
0.625205336266118
40
0.634133269795718
40
0.634133269795718
40
0.643061203325318
40
0.643061203325318
40
0.660917070384518
40
0.660917070384518
40
0.678772937443717
40
0.678772937443717
40
0.696628804502916
40
0.696628804502916
40
0.714484671562115
40
0.714484671562115
40
0.732340538621314
40
0.732340538621314
40
0.750196405680513
40
0.750196405680513
40
0.768052272739712
40
0.768052272739712
40
0.785908139798911
40
0.785908139798911
40
0.80376400685811
40
0.80376400685811
40
0.812691940387709
40
0.812691940387709
40
0.821619873917309
40
0.821619873917309
40
0.83947574097651
40
0.83947574097651
40
0.857331608035711
40
0.857331608035711
40
0.875187475094911
40
0.875187475094911
40
0.893043342154112
40
0.893043342154112
40
0.910899209213313
40
0.910899209213313
40
0.928755076272514
40
0.928755076272514
40
0.946610943331715
40
0.946610943331715
40
0.964466810390915
40
0.964466810390915
40
0.982322677450116
40
0.982322677450116
40
0.991250610979716
40
0.991250610979716
40
1
40
1
40
1
40
1
41
1
10
18.383866533626
20
1.75346990152312
30
0
41
1
10
18.3853951596041
20
1.75408711249665
30
0
41
1
10
18.3869237938857
20
1.75470400999478
30
0
41
1
10
18.4976381642595
20
1.79936099320463
30
0
41
1
10
18.6069119536865
20
1.84175144699367
30
0
41
1
10
18.8254578492711
20
1.9235004835902
30
0
41
1
10
18.9346754267606
20
1.96292360256049
30
0
41
1
10
19.1530840555306
20
2.03871155992979
30
0
41
1
10
19.2623434817152
20
2.07499113491548
30
0
41
1
10
19.4814112481904
20
2.1438452632047
30
0
41
1
10
19.5911885627691
20
2.17646464675553
30
0
41
1
10
19.8109467806801
20
2.23834794378399
30
0
41
1
10
19.9208937051884
20
2.26763263633865
30
0
41
1
10
20.0862619011025
20
2.30870012027364
30
0
41
1
10
20.1414625519552
20
2.32191093191824
30
0
41
1
10
20.2520693621661
20
2.3473335623159
30
0
41
1
10
20.3075186665895
20
2.35954897285612
30
0
41
1
10
20.4735344224742
20
2.3946064951005
30
0
41
1
10
20.5839118710347
20
2.41592217680954
30
0
41
1
10
20.8039306818006
20
2.45454353242022
30
0
41
1
10
20.9136191041084
20
2.47180560535165
30
0
41
1
10
21.1328678213467
20
2.50201561418834
30
0
41
1
10
21.2424634064778
20
2.51496458073677
30
0
41
1
10
21.4613331627226
20
2.53672537665287
30
0
41
1
10
21.5705628478099
20
2.54554160040567
30
0
41
1
10
21.78881729265
20
2.55894827376503
30
0
41
1
10
21.8979080705535
20
2.56352190323824
30
0
41
1
10
22.1163801182099
20
2.56841708415536
30
0
41
1
10
22.2257022398604
20
2.56875620574496
30
0
41
1
10
22.4442713317656
20
2.56519095269397
30
0
41
1
10
22.5534940282363
20
2.56126832744016
30
0
41
1
10
22.7176312038113
20
2.55217975727646
30
0
41
1
10
22.7723932643918
20
2.54861780660622
30
0
41
1
10
22.8820664783356
20
2.54044468937821
30
0
41
1
10
22.9369760633781
20
2.53583419743245
30
0
41
1
10
23.1018558803035
20
2.52041177357995
30
0
41
1
10
23.2119531707785
20
2.50800277598543
30
0
41
1
10
23.3773246643293
20
2.48609284866657
30
0
41
1
10
23.4324985999173
20
2.47824413140435
30
0
41
1
10
23.5430200112247
20
2.46148222514893
30
0
41
1
10
23.5984018452906
20
2.45256195277065
30
0
41
1
10
23.7642699441253
20
2.42435213220159
30
0
41
1
10
23.8746806777829
20
2.40361530101808
30
0
41
1
10
24.0948725546698
20
2.35815669763588
30
0
41
1
10
24.2046132803385
20
2.33339393655407
30
0
41
1
10
24.4237128849783
20
2.28004899174889
30
0
41
1
10
24.5331337129
20
2.25151950336959
30
0
41
1
10
24.7519874544106
20
2.19106120860502
30
0
41
1
10
24.8613480837765
20
2.15907294641502
30
0
41
1
10
25.0797283039975
20
2.09135977613261
30
0
41
1
10
25.1887492995685
20
2.05562329686376
30
0
41
1
10
25.4069964977116
20
1.9809752223974
30
0
41
1
10
25.5162650149786
20
1.94212370714931
30
0
41
1
10
25.7349630774463
20
1.86124303051153
30
0
41
1
10
25.8443326523057
20
1.81913618985396
30
0
41
1
10
26.063151974046
20
1.73156875084709
30
0
41
1
10
26.172670077654
20
1.68619317896736
30
0
41
1
10
26.3923778301666
20
1.59289672972011
30
0
41
1
10
26.5025523936419
20
1.54496763777138
30
0
41
1
10
26.6680748821508
20
1.47078826305486
30
0
41
1
10
26.7232929539061
20
1.44567964145202
30
0
41
1
10
26.8338306885107
20
1.39470446066466
30
0
41
1
10
26.8891842797497
20
1.36883506989432
30
0
41
1
10
27.0549035503078
20
1.29058974842229
30
0
41
1
10
27.1651526882775
20
1.23754101917064
30
0
41
1
10
27.3853558388809
20
1.12998047612297
30
0
41
1
10
27.4952369148594
20
1.07534637750507
30
0
41
1
10
27.7143933104471
20
0.964087873761372
30
0
41
1
10
27.8237054616811
20
0.907523752119857
30
0
41
1
10
28.0423225596886
20
0.793447894808139
30
0
41
1
10
28.1516674210899
20
0.736009906511981
30
0
41
1
10
28.3701955699191
20
0.619931727479724
30
0
41
1
10
28.4793309132337
20
0.561204121546837
30
0
41
1
10
28.6974960562856
20
0.44263255902726
30
0
41
1
10
28.8065930696506
20
0.382909313041154
30
0
41
1
10
29.0252144895401
20
0.263324494143518
30
0
41
1
10
29.1346899344247
20
0.203375901102646
30
0
41
1
10
29.3537072524324
20
0.0826701809890835
30
0
41
1
10
29.4632188830872
20
0.0218528024230125
30
0
41
1
10
29.6278698808662
20
-0.0693685561130621
30
0
41
1
10
29.6828182423996
20
-0.0997730515533704
30
0
41
1
10
29.792894589152
20
-0.160480537908569
30
0
41
1
10
29.8480248899547
20
-0.190778853244694
30
0
41
1
10
29.9584255806228
20
-0.251349653480986
30
0
41
1
10
30.0136938106575
20
-0.281626354325596
30
0
41
1
10
30.1243425223553
20
-0.342210837932384
30
0
41
1
10
30.1797292420749
20
-0.372527362549903
30
0
41
1
10
30.345428080924
20
-0.463167107822301
30
0
41
1
10
30.4555279986277
20
-0.523217035871795
30
0
41
1
10
30.6754910508103
20
-0.641665757704914
30
0
41
1
10
30.7853796550083
20
-0.700025676742058
30
0
41
1
10
31.0046829325082
20
-0.815578409822962
30
0
41
1
10
31.1140558025333
20
-0.872840243301113
30
0
41
1
10
31.3325209613103
20
-0.985833338711984
30
0
41
1
10
31.4416774505236
20
-1.04145297305462
30
0
41
1
10
31.6601545077073
20
-1.15043549695579
30
0
41
1
10
31.7694065130508
20
-1.20391850850774
30
0
41
1
10
31.9877113706068
20
-1.30922845381411
30
0
41
1
10
32.0967521826044
20
-1.36106703912924
30
0
41
1
10
32.315151629253
20
-1.46223957016812
30
0
41
1
10
32.4245534224548
20
-1.51151281464942
30
0
41
1
10
32.6436891590684
20
-1.60755582574049
30
0
41
1
10
32.7533581074564
20
-1.6544218395122
30
0
41
1
10
32.9728925892755
20
-1.74580126136678
30
0
41
1
10
33.0828252729278
20
-1.79021369415031
30
0
41
1
10
33.2483245280602
20
-1.85441696830944
30
0
41
1
10
33.3035925216367
20
-1.87541469258409
30
0
41
1
10
33.4142895081078
20
-1.91665949244265
30
0
41
1
10
33.4697020444093
20
-1.93690353385986
30
0
41
1
10
33.6355033436779
20
-1.99633717511762
30
0
41
1
10
33.7456161489259
20
-2.03435947097987
30
0
41
1
10
33.9653820000111
20
-2.10675490121662
30
0
41
1
10
34.0750929822929
20
-2.14106659386147
30
0
41
1
10
34.2943808548954
20
-2.20579756088091
30
0
41
1
10
34.403884881105
20
-2.23629800719579
30
0
41
1
10
34.6224241187497
20
-2.29373628535072
30
0
41
1
10
34.7314806276475
20
-2.3206405586111
30
0
41
1
10
34.9497057968448
20
-2.37038798658915
30
0
41
1
10
35.0589168320413
20
-2.39321365893068
30
0
41
1
10
35.2773463823125
20
-2.43494614964038
30
0
41
1
10
35.3865118014369
20
-2.45388121065338
30
0
41
1
10
35.6048395920204
20
-2.48776428894848
30
0
41
1
10
35.7140698698796
20
-2.50267027492106
30
0
41
1
10
35.9330916146721
20
-2.52823204430956
30
0
41
1
10
36.0428486345821
20
-2.53891617242644
30
0
41
1
10
36.2625766661494
20
-2.55614122132079
30
0
41
1
10
36.3725136827006
20
-2.5626753511863
30
0
41
1
10
36.5378848867969
20
-2.56921328769045
30
0
41
1
10
36.5930890581162
20
-2.57084981013023
30
0
41
1
10
36.7026026695777
20
-2.57300965760913
30
0
41
1
10
36.7568829667568
20
-2.57355355838823
30
0
41
1
10
36.8110544774286
20
-2.5735772267706
30
0
0
SPLINE
5
C7
100
AcDbEntity
8
1
62
256
6
ByLayer
370
18
48
1
60
0
100
AcDbSpline
70
4
71
3
72
40
73
36
40
0
40
0
40
0
40
0
40
0.0089851501086573
40
0.0089851501086573
40
0.0750528067680768
40
0.0750528067680768
40
0.141120463427495
40
0.141120463427495
40
0.207188120086915
40
0.207188120086915
40
0.273255776746334
40
0.273255776746334
40
0.339323433405754
40
0.339323433405754
40
0.405391090065173
40
0.405391090065173
40
0.438424918394883
40
0.438424918394883
40
0.471458746724594
40
0.471458746724594
40
0.53752640338402
40
0.53752640338402
40
0.603594060043446
40
0.603594060043446
40
0.669661716702872
40
0.669661716702872
40
0.735729373362297
40
0.735729373362297
40
0.801797030021723
40
0.801797030021723
40
0.867864686681149
40
0.867864686681149
40
0.933932343340575
40
0.933932343340575
40
1
40
1
40
1
40
1
41
1
10
47.6238482010473
20
1.76236328988833
30
0
41
1
10
47.6386965146644
20
1.76838692293202
30
0
41
1
10
47.6535420554966
20
1.77438391636514
30
0
41
1
10
47.777526238337
20
1.82425006911538
30
0
41
1
10
47.8865995045333
20
1.86659291461797
30
0
41
1
10
48.1049299615865
20
1.9478148449497
30
0
41
1
10
48.2141202067237
20
1.98678591058362
30
0
41
1
10
48.4323215311238
20
2.06170161219524
30
0
41
1
10
48.5413179554587
20
2.09765023774639
30
0
41
1
10
48.7596473125856
20
2.16590413898121
30
0
41
1
10
48.8690242692467
20
2.19817353834711
30
0
41
1
10
49.0881441294428
20
2.25907622598803
30
0
41
1
10
49.1978208403587
20
2.28777133270546
30
0
41
1
10
49.4173929220339
20
2.34158006907998
30
0
41
1
10
49.5273545207006
20
2.36662953178234
30
0
41
1
10
49.6929109056977
20
2.40112896924484
30
0
41
1
10
49.7482173809258
20
2.4121201110506
30
0
41
1
10
49.8589279484915
20
2.43309296925341
30
0
41
1
10
49.9142168228535
20
2.44305524478298
30
0
41
1
10
50.0798430503239
20
2.47140101131444
30
0
41
1
10
50.1898913708795
20
2.48826396186308
30
0
41
1
10
50.4096302308078
20
2.51772051832299
30
0
41
1
10
50.5193810186876
20
2.53029089594648
30
0
41
1
10
50.738871244334
20
2.55112745397724
30
0
41
1
10
50.8485358177431
20
2.55942622309965
30
0
41
1
10
51.0675083223978
20
2.57181202668897
30
0
41
1
10
51.1768350091774
20
2.5758796612289
30
0
41
1
10
51.3957123782141
20
2.57969544128292
30
0
41
1
10
51.5053054159136
20
2.57945693509851
30
0
41
1
10
51.7246129004295
20
2.57472003068972
30
0
41
1
10
51.8342724179836
20
2.57021156212454
30
0
41
1
10
52.0537029433665
20
2.55683764656365
30
0
41
1
10
52.1635436080057
20
2.54797870217735
30
0
41
1
10
52.3839155700106
20
2.52604119734451
30
0
41
1
10
52.4944091069373
20
2.51296635434898
30
0
41
1
10
52.6050720298957
20
2.4976980201867
30
0
0
SPLINE
5
C8
100
AcDbEntity
8
1
62
256
6
ByLayer
370
18
48
1
60
0
100
AcDbSpline
70
4
71
3
72
112
73
108
40
0
40
0
40
0
40
0
40
0.0067621067690788
40
0.0067621067690788
40
0.0265343304623795
40
0.0265343304623795
40
0.0463065541556801
40
0.0463065541556801
40
0.0561926660023313
40
0.0561926660023313
40
0.0660787778489825
40
0.0660787778489825
40
0.0858510015422866
40
0.0858510015422866
40
0.105623225235591
40
0.105623225235591
40
0.125395448928895
40
0.125395448928895
40
0.145167672622199
40
0.145167672622199
40
0.164939896315503
40
0.164939896315503
40
0.184712120008807
40
0.184712120008807
40
0.204484343702111
40
0.204484343702111
40
0.224256567395415
40
0.224256567395415
40
0.244028791088719
40
0.244028791088719
40
0.263801014782023
40
0.263801014782023
40
0.283573238475327
40
0.283573238475327
40
0.303345462168631
40
0.303345462168631
40
0.323117685861936
40
0.323117685861936
40
0.34288990955524
40
0.34288990955524
40
0.362662133248544
40
0.362662133248544
40
0.382434356941848
40
0.382434356941848
40
0.402206580635152
40
0.402206580635152
40
0.421978804328456
40
0.421978804328456
40
0.44175102802176
40
0.44175102802176
40
0.461523251715064
40
0.461523251715064
40
0.481295475408368
40
0.481295475408368
40
0.501067699101672
40
0.501067699101672
40
0.520839922794976
40
0.520839922794976
40
0.54061214648828
40
0.54061214648828
40
0.560384370181584
40
0.560384370181584
40
0.580156593874888
40
0.580156593874888
40
0.599928817568193
40
0.599928817568193
40
0.619701041261496
40
0.619701041261496
40
0.639473264954801
40
0.639473264954801
40
0.659245488648105
40
0.659245488648105
40
0.679017712341409
40
0.679017712341409
40
0.698789936034713
40
0.698789936034713
40
0.718562159728017
40
0.718562159728017
40
0.738334383421321
40
0.738334383421321
40
0.758106607114625
40
0.758106607114625
40
0.777878830807929
40
0.777878830807929
40
0.797651054501233
40
0.797651054501233
40
0.817423278194537
40
0.817423278194537
40
0.837195501887841
40
0.837195501887841
40
0.856967725581145
40
0.856967725581145
40
0.876739949274449
40
0.876739949274449
40
0.896512172967754
40
0.896512172967754
40
0.916284396661058
40
0.916284396661058
40
0.936056620354362
40
0.936056620354362
40
0.955828844047666
40
0.955828844047666
40
0.97560106774097
40
0.97560106774097
40
0.995373291434274
40
0.995373291434274
40
1
40
1
40
1
40
1
41
1
10
47.6241823018117
20
-1.75755246803152
30
0
41
1
10
47.5827263758379
20
-1.7743498350101
30
0
41
1
10
47.5412571649946
20
-1.79095633029496
30
0
41
1
10
47.3784719137554
20
-1.85535417286795
30
0
41
1
10
47.2569756169081
20
-1.90158435308294
30
0
41
1
10
47.0131663612024
20
-1.98996954447938
30
0
41
1
10
46.8909057042223
20
-2.03219882940471
30
0
41
1
10
46.7071062016083
20
-2.09270042476984
30
0
41
1
10
46.6459039810841
20
-2.11233645746859
30
0
41
1
10
46.5237322190128
20
-2.15043461175657
30
0
41
1
10
46.4627365208531
20
-2.16890474803819
30
0
41
1
10
46.2799053480906
20
-2.22248122685215
30
0
41
1
10
46.1582060901841
20
-2.25574440837457
30
0
41
1
10
45.9153315768787
20
-2.31759753489536
30
0
41
1
10
45.7942147572472
20
-2.34622542450981
30
0
41
1
10
45.5522522603313
20
-2.39858641318193
30
0
41
1
10
45.431332692937
20
-2.42227115200552
30
0
41
1
10
45.1894638772251
20
-2.4646237081306
30
0
41
1
10
45.0685824269419
20
-2.48333495102929
30
0
41
1
10
44.8269368228544
20
-2.51578939840306
30
0
41
1
10
44.7061217969632
20
-2.52949781251593
30
0
41
1
10
44.4639993084878
20
-2.55169425285266
30
0
41
1
10
44.3427273543657
20
-2.56020975634257
30
0
41
1
10
44.0999579697988
20
-2.57207437427098
30
0
41
1
10
43.9784711170025
20
-2.57540853178568
30
0
41
1
10
43.734784511489
20
-2.57674330506575
30
0
41
1
10
43.6125271370765
20
-2.57475707650173
30
0
41
1
10
43.3672575964628
20
-2.56543040662945
30
0
41
1
10
43.2450443334678
20
-2.55809977122826
30
0
41
1
10
43.0013536593238
20
-2.53819578937919
30
0
41
1
10
42.8797813280393
20
-2.52564093233079
30
0
41
1
10
42.6368887168043
20
-2.49554115522471
30
0
41
1
10
42.5156300827845
20
-2.47797917134673
30
0
41
1
10
42.2735976211675
20
-2.43778310426069
30
0
41
1
10
42.1527853865491
20
-2.41515573160572
30
0
41
1
10
41.9110180550585
20
-2.36522041816843
30
0
41
1
10
41.7900744297113
20
-2.33792052460129
30
0
41
1
10
41.5482457105357
20
-2.2785348794294
30
0
41
1
10
41.4274039710864
20
-2.24639998327896
30
0
41
1
10
41.1854159704587
20
-2.17758851945501
30
0
41
1
10
41.0642004209744
20
-2.1409869112789
30
0
41
1
10
40.8212925623818
20
-2.06343441624409
30
0
41
1
10
40.6996706328982
20
-2.02240570883024
30
0
41
1
10
40.4559755323136
20
-1.93586390266205
30
0
41
1
10
40.3338392980072
20
-1.89042028419712
30
0
41
1
10
40.0885626528885
20
-1.79569778174658
30
0
41
1
10
39.966238963923
20
-1.74665541450267
30
0
41
1
10
39.722436578451
20
-1.64501628610728
30
0
41
1
10
39.6009296730725
20
-1.59243845216611
30
0
41
1
10
39.3581688163066
20
-1.48458540503333
30
0
41
1
10
39.2368858738733
20
-1.42936131513451
30
0
41
1
10
38.9946666253294
20
-1.31611699400014
30
0
41
1
10
38.8737889755349
20
-1.2579991029593
30
0
41
1
10
38.6321337966526
20
-1.13934374512118
30
0
41
1
10
38.5112825115546
20
-1.07892893972888
30
0
41
1
10
38.2693736473268
20
-0.956213340112242
30
0
41
1
10
38.148383683582
20
-0.893799712991097
30
0
41
1
10
37.9063491656165
20
-0.766803136663327
30
0
41
1
10
37.7852539931636
20
-0.702303615564205
30
0
41
1
10
37.5423965386304
20
-0.572211484907058
30
0
41
1
10
37.420669278631
20
-0.506562699807489
30
0
41
1
10
37.1768093885743
20
-0.373672463878961
30
0
41
1
10
37.0546872976365
20
-0.306403317925629
30
0
41
1
10
36.8095450997685
20
-0.171152442215515
30
0
41
1
10
36.687244510424
20
-0.103714994045134
30
0
41
1
10
36.4432726227827
20
0.0309418122331522
30
0
41
1
10
36.3216652365861
20
0.0982897857984426
30
0
41
1
10
36.0789607470312
20
0.232559980795855
30
0
41
1
10
35.957792276241
20
0.299347932387064
30
0
41
1
10
35.7155317415296
20
0.431713283290264
30
0
41
1
10
35.5945010688569
20
0.497406137769531
30
0
41
1
10
35.3527534231408
20
0.628016684893424
30
0
41
1
10
35.2319983300967
20
0.692861543042198
30
0
41
1
10
34.9901751904728
20
0.820652371523806
30
0
41
1
10
34.8691173885243
20
0.883620928013841
30
0
41
1
10
34.6268867318816
20
1.00801249705498
30
0
41
1
10
34.5057578230011
20
1.06950759781253
30
0
41
1
10
34.2630228253493
20
1.19030527557115
30
0
41
1
10
34.1413473865856
20
1.24949320903704
30
0
41
1
10
33.8973437780168
20
1.36538216855146
30
0
41
1
10
33.7750782312275
20
1.42220338398982
30
0
41
1
10
33.5299431578639
20
1.53333288692031
30
0
41
1
10
33.4077778792393
20
1.5871859477069
30
0
41
1
10
33.1638230357888
20
1.69092444257706
30
0
41
1
10
33.0420847264656
20
1.74089821822324
30
0
41
1
10
32.7992613082252
20
1.8373379670993
30
0
41
1
10
32.6781546014727
20
1.88376015744802
30
0
41
1
10
32.4360182553336
20
1.97235575715308
30
0
41
1
10
32.3149595934895
20
2.01450719940618
30
0
41
1
10
32.073015694194
20
2.09474137829565
30
0
41
1
10
31.9521891814532
20
2.13287919896087
30
0
41
1
10
31.7104653915341
20
2.20477549556193
30
0
41
1
10
31.5894943659969
20
2.23846461108135
30
0
41
1
10
31.3471726355543
20
2.30120117347707
30
0
41
1
10
31.2258897684169
20
2.33031164426879
30
0
41
1
10
30.9830942048218
20
2.38395317799024
30
0
41
1
10
30.8615303582429
20
2.40843476197068
30
0
41
1
10
30.6175589633888
20
2.45233632938465
30
0
41
1
10
30.4951595880912
20
2.47179771671333
30
0
41
1
10
30.2498870436677
20
2.50573979835164
30
0
41
1
10
30.1277471640178
20
2.52010801730378
30
0
41
1
10
29.8839490916441
20
2.54349852397797
30
0
41
1
10
29.7622333943218
20
2.55251716894074
30
0
41
1
10
29.5192496872222
20
2.56533657507049
30
0
41
1
10
29.3980483437251
20
2.56914087125082
30
0
41
1
10
29.2486913237197
20
2.57059811486582
30
0
41
1
10
29.2203743438425
20
2.57073062319117
30
0
41
1
10
29.1920607391964
20
2.57071984423709
30
0
0
SPLINE
5
C9
100
AcDbEntity
8
1
62
256
6
ByLayer
370
18
48
1
60
0
100
AcDbSpline
70
4
71
3
72
76
73
72
40
0
40
0
40
0
40
0
40
0.0030494928886414
40
0.0030494928886414
40
0.0323715666272107
40
0.0323715666272107
40
0.06169364036578
40
0.06169364036578
40
0.0910157141043497
40
0.0910157141043497
40
0.120337787842919
40
0.120337787842919
40
0.149659861581488
40
0.149659861581488
40
0.178981935320057
40
0.178981935320057
40
0.208304009058627
40
0.208304009058627
40
0.237626082797196
40
0.237626082797196
40
0.266948156535766
40
0.266948156535766
40
0.296270230274335
40
0.296270230274335
40
0.325592304012905
40
0.325592304012905
40
0.354914377751474
40
0.354914377751474
40
0.384236451490043
40
0.384236451490043
40
0.413558525228613
40
0.413558525228613
40
0.442880598967182
40
0.442880598967182
40
0.472202672705752
40
0.472202672705752
40
0.501524746444321
40
0.501524746444321
40
0.53084682018289
40
0.53084682018289
40
0.56016889392146
40
0.56016889392146
40
0.589490967660029
40
0.589490967660029
40
0.618813041398599
40
0.618813041398599
40
0.648135115137168
40
0.648135115137168
40
0.677457188875737
40
0.677457188875737
40
0.706779262614307
40
0.706779262614307
40
0.736101336352876
40
0.736101336352876
40
0.765423410091445
40
0.765423410091445
40
0.794745483830015
40
0.794745483830015
40
0.824067557568584
40
0.824067557568584
40
0.853389631307154
40
0.853389631307154
40
0.882711705045723
40
0.882711705045723
40
0.912033778784292
40
0.912033778784292
40
0.941355852522862
40
0.941355852522862
40
0.970677926261431
40
0.970677926261431
40
1
40
1
40
1
40
1
41
1
10
18.3836131414878
20
-1.75409520776498
30
0
41
1
10
18.3710103801234
20
-1.75915750287987
30
0
41
1
10
18.3584066601314
20
-1.76420153678603
30
0
41
1
10
18.2246039823832
20
-1.81755343578499
30
0
41
1
10
18.1033832910847
20
-1.86427319866968
30
0
41
1
10
17.8605237233761
20
-1.95395672836139
30
0
41
1
10
17.7388109906991
20
-1.99683054731261
30
0
41
1
10
17.494669452302
20
-2.07845328898034
30
0
41
1
10
17.3722952724534
20
-2.1172902581022
30
0
41
1
10
17.1270122227452
20
-2.19088177165415
30
0
41
1
10
17.0048028182705
20
-2.22534240490231
30
0
41
1
10
16.7607445343439
20
-2.28922204652753
30
0
41
1
10
16.638933473899
20
-2.31869317625171
30
0
41
1
10
16.395943303002
20
-2.37291805258735
30
0
41
1
10
16.2747659272495
20
-2.39765574352643
30
0
41
1
10
16.0325363060608
20
-2.442053527708
30
0
41
1
10
15.911429633567
20
-2.46169450619459
30
0
41
1
10
15.6693336664852
20
-2.49597992111455
30
0
41
1
10
15.5484099009184
20
-2.51064717196309
30
0
41
1
10
15.3065513680235
20
-2.5348737208364
30
0
41
1
10
15.1855449175729
20
-2.54440844832706
30
0
41
1
10
14.9431040127258
20
-2.55827733534647
30
0
41
1
10
14.8217322654397
20
-2.56263288716849
30
0
41
1
10
14.5787875184195
20
-2.56611638978578
30
0
41
1
10
14.4571738412
20
-2.56522617797518
30
0
41
1
10
14.2131127150297
20
-2.55814672644419
30
0
41
1
10
14.0906649512255
20
-2.5519732707084
30
0
41
1
10
13.8452060841377
20
-2.53425496791266
30
0
41
1
10
13.7229785037347
20
-2.52273873190296
30
0
41
1
10
13.4790564255251
20
-2.49459718401201
30
0
41
1
10
13.3572939901055
20
-2.47801015370698
30
0
41
1
10
13.114162289274
20
-2.43991316865132
30
0
41
1
10
12.9928635520541
20
-2.41836181572134
30
0
41
1
10
12.7506525928851
20
-2.3703334500612
30
0
41
1
10
12.6296754403905
20
-2.34389463984885
30
0
41
1
10
12.3875856242777
20
-2.28651588024997
30
0
41
1
10
12.2665270842772
20
-2.25554481101307
30
0
41
1
10
12.0245565978553
20
-2.1888661336659
30
0
41
1
10
11.9036191020803
20
-2.15316700687103
30
0
41
1
10
11.6613039222371
20
-2.0775599958688
30
0
41
1
10
11.5399036000018
20
-2.03769100508245
30
0
41
1
10
11.2967772783669
20
-1.95362953158028
30
0
41
1
10
11.1751077549939
20
-1.90935823321274
30
0
41
1
10
10.931167164054
20
-1.81671679295101
30
0
41
1
10
10.8088170908677
20
-1.76844754304969
30
0
41
1
10
10.5632553823394
20
-1.66818034418407
30
0
41
1
10
10.440881142087
20
-1.6163959814331
30
0
41
1
10
10.1969176664715
20
-1.509583502216
30
0
41
1
10
10.0752739133712
20
-1.45463422032009
30
0
41
1
10
9.83217442997477
20
-1.34244801919417
30
0
41
1
10
9.71075926841033
20
-1.28515318784156
30
0
41
1
10
9.46839772937787
20
-1.16785011717391
30
0
41
1
10
9.34744890195694
20
-1.1078394096962
30
0
41
1
10
9.10550316124568
20
-0.985954608968598
30
0
41
1
10
8.98445411839265
20
-0.92417435409061
30
0
41
1
10
8.74231442925219
20
-0.798763518878985
30
0
41
1
10
8.62128857081362
20
-0.735016381505744
30
0
41
1
10
8.3790521393492
20
-0.605894761866722
30
0
41
1
10
8.25776922782427
20
-0.540650598114212
30
0
41
1
10
8.01461453517811
20
-0.409273425326802
30
0
41
1
10
7.89280681842678
20
-0.343024864186617
30
0
41
1
10
7.64881453086218
20
-0.20920868114581
30
0
41
1
10
7.52658669907331
20
-0.141717573268039
30
0
41
1
10
7.28111747023073
20
-0.0066117919246551
30
0
41
1
10
7.15842584101068
20
0.0607490934217765
30
0
41
1
10
6.91342109482156
20
0.195393606087549
30
0
41
1
10
6.79112533096557
20
0.262745682346662
30
0
41
1
10
6.54645368554168
20
0.396609895097868
30
0
41
1
10
6.42400953668417
20
0.463000214304572
30
0
41
1
10
6.1789376986228
20
0.594761726754541
30
0
41
1
10
6.05632293408985
20
0.660156569416614
30
0
41
1
10
5.93372258665838
20
0.725223545949092
30
0
0
SPLINE
5
CA
100
AcDbEntity
8
1
62
256
6
ByLayer
370
18
48
1
60
0
100
AcDbSpline
70
4
71
3
72
78
73
74
40
0
40
0
40
0
40
0
40
0.0529815380993214
40
0.0529815380993214
40
0.0794723071489812
40
0.0794723071489812
40
0.105963076198641
40
0.105963076198641
40
0.158944614297958
40
0.158944614297958
40
0.211926152397275
40
0.211926152397275
40
0.264907690496593
40
0.264907690496593
40
0.31788922859591
40
0.31788922859591
40
0.370870766695227
40
0.370870766695227
40
0.423852304794544
40
0.423852304794544
40
0.450343073844204
40
0.450343073844204
40
0.463588458369034
40
0.463588458369034
40
0.476833842893864
40
0.476833842893864
40
0.490079227418694
40
0.490079227418694
40
0.503324611943524
40
0.503324611943524
40
0.50994730420594
40
0.50994730420594
40
0.516569996468356
40
0.516569996468356
40
0.523192688730772
40
0.523192688730772
40
0.529815380993188
40
0.529815380993188
40
0.543060765518018
40
0.543060765518018
40
0.556306150042848
40
0.556306150042848
40
0.582796919092506
40
0.582796919092506
40
0.635778457191823
40
0.635778457191823
40
0.688759995291141
40
0.688759995291141
40
0.741741533390458
40
0.741741533390458
40
0.754986917915288
40
0.754986917915288
40
0.768232302440117
40
0.768232302440117
40
0.794723071489776
40
0.794723071489776
40
0.821213840539435
40
0.821213840539435
40
0.847704609589094
40
0.847704609589094
40
0.874195378638752
40
0.874195378638752
40
0.900686147688411
40
0.900686147688411
40
0.92717691673807
40
0.92717691673807
40
0.953667685787729
40
0.953667685787729
40
0.966913070312558
40
0.966913070312558
40
0.980158454837388
40
0.980158454837388
40
1
40
1
40
1
40
1
41
1
10
10.4858513030048
20
2.07848971493596
30
0
41
1
10
10.3561052298138
20
2.12392341158852
30
0
41
1
10
10.2264263441182
20
2.16640155758586
30
0
41
1
10
10.0318356291664
20
2.22555969157338
30
0
41
1
10
9.96696406678959
20
2.24452257612776
30
0
41
1
10
9.83718571662291
20
2.28091709409961
30
0
41
1
10
9.7722650856106
20
2.29835155901714
30
0
41
1
10
9.57789479929386
20
2.34817166663947
30
0
41
1
10
9.44869108502635
20
2.37812318655995
30
0
41
1
10
9.19022200082256
20
2.43110509180499
30
0
41
1
10
9.06091685047932
20
2.45411128957002
30
0
41
1
10
8.80141036692825
20
2.49319208706751
30
0
41
1
10
8.67123867872607
20
2.50928826073348
30
0
41
1
10
8.40955304631126
20
2.53496702504481
30
0
41
1
10
8.27803261621833
20
2.5445342506942
30
0
41
1
10
8.01264192305109
20
2.5576630279543
30
0
41
1
10
7.87874355092774
20
2.56122842343061
30
0
41
1
10
7.60789357435806
20
2.56336007727671
30
0
41
1
10
7.47099304729721
20
2.56193598896209
30
0
41
1
10
7.26320327114999
20
2.55691531534205
30
0
41
1
10
7.19352362458068
20
2.55475956491583
30
0
41
1
10
7.08814268736927
20
2.55096852341413
30
0
41
1
10
7.05285246263037
20
2.54961281042432
30
0
41
1
10
6.98217340479766
20
2.54674263103553
30
0
41
1
10
6.94676612459247
20
2.54522941755025
30
0
41
1
10
6.87594229695492
20
2.54200883664828
30
0
41
1
10
6.84052444724259
20
2.54030353866492
30
0
41
1
10
6.76996901441819
20
2.53654807138378
30
0
41
1
10
6.73483019410668
20
2.53450075180317
30
0
41
1
10
6.68268513553346
20
2.53092534729424
30
0
41
1
10
6.66540272856551
20
2.52964556601313
30
0
41
1
10
6.63108590084735
20
2.52686035803069
30
0
41
1
10
6.61405802062319
20
2.52534991067725
30
0
41
1
10
6.58010503663925
20
2.52216807821588
30
0
41
1
10
6.56316515620699
20
2.52050569515532
30
0
41
1
10
6.52920128308716
20
2.517138271146
30
0
41
1
10
6.51217937793388
20
2.51543264339782
30
0
41
1
10
6.46093913132597
20
2.51030283649092
30
0
41
1
10
6.4265565402311
20
2.50686106773915
30
0
41
1
10
6.35745894188634
20
2.49993274207839
30
0
41
1
10
6.32274371540791
20
2.49644530790786
30
0
41
1
10
6.21814203562201
20
2.48596989591613
30
0
41
1
10
6.14778642407731
20
2.47898066891958
30
0
41
1
10
5.93487389942754
20
2.45860719520155
30
0
41
1
10
5.79051673789013
20
2.44582419017436
30
0
41
1
10
5.49782359255101
20
2.42330004634886
30
0
41
1
10
5.3494535670944
20
2.41357369860432
30
0
41
1
10
5.04901480342721
20
2.39815294073787
30
0
41
1
10
4.89695082278533
20
2.39244991668804
30
0
41
1
10
4.70504359379146
20
2.38763767207322
30
0
41
1
10
4.66657219877246
20
2.38678763920143
30
0
41
1
10
4.58946831831003
20
2.38529286699372
30
0
41
1
10
4.55081420551934
20
2.38464754842423
30
0
41
1
10
4.43496966801513
20
2.38299722520924
30
0
41
1
10
4.3577970885903
20
2.38225953655771
30
0
41
1
10
4.20357654850693
20
2.38158930625869
30
0
41
1
10
4.12653079128018
20
2.3816715316095
30
0
41
1
10
3.97263810652194
20
2.38311639033319
30
0
41
1
10
3.89579543341142
20
2.38450726998411
30
0
41
1
10
3.74233941827143
20
2.38871726965513
30
0
41
1
10
3.66572281979538
20
2.39151354391851
30
0
41
1
10
3.51265273441754
20
2.39802702223537
30
0
41
1
10
3.43619427825067
20
2.40171420371439
30
0
41
1
10
3.28342695409924
20
2.40983462266669
30
0
41
1
10
3.20708306357369
20
2.41429402169857
30
0
41
1
10
3.05552252008627
20
2.42425650211629
30
0
41
1
10
2.98022781667041
20
2.42977467873172
30
0
41
1
10
2.86819307606871
20
2.43889615094775
30
0
41
1
10
2.83099819644838
20
2.44207480879669
30
0
41
1
10
2.75694723539098
20
2.44871039992364
30
0
41
1
10
2.72002881121213
20
2.45217356506095
30
0
41
1
10
2.62880291768005
20
2.46114952002705
30
0
41
1
10
2.57497370786427
20
2.46683184130535
30
0
41
1
10
2.52230479851755
20
2.47280777935995
30
0
0
SPLINE
5
CB
100
AcDbEntity
8
1
62
256
6
ByLayer
370
18
48
1
60
0
100
AcDbSpline
70
4
71
3
72
56
73
52
40
0
40
0
40
0
40
0
40
0.0011221382270199
40
0.0011221382270199
40
0.006733811607767
40
0.006733811607767
40
0.0123454849885144
40
0.0123454849885144
40
0.034792178511503
40
0.034792178511503
40
0.057238872034492
40
0.057238872034492
40
0.079685565557481
40
0.079685565557481
40
0.10213225908047
40
0.10213225908047
40
0.124578952603459
40
0.124578952603459
40
0.147025646126448
40
0.147025646126448
40
0.191919033172425
40
0.191919033172425
40
0.214365726695414
40
0.214365726695414
40
0.236812420218402
40
0.236812420218402
40
0.28170580726438
40
0.28170580726438
40
0.326599194310357
40
0.326599194310357
40
0.371492581356335
40
0.371492581356335
40
0.461279355448289
40
0.461279355448289
40
0.483726048971278
40
0.483726048971278
40
0.506172742494267
40
0.506172742494267
40
0.551066129540241
40
0.551066129540241
40
0.640852903632193
40
0.640852903632193
40
0.730639677724145
40
0.730639677724145
40
0.820426451816097
40
0.820426451816097
40
0.865319838862072
40
0.865319838862072
40
0.910213225908048
40
0.910213225908048
40
1
40
1
40
1
40
1
41
1
10
2.01964530799438
20
2.56053037865758
30
0
41
1
10
2.02022590164552
20
2.56053008209076
30
0
41
1
10
2.02081804396383
20
2.56052774522823
30
0
41
1
10
2.02443969924838
20
2.56050159224623
30
0
41
1
10
2.02775249081705
20
2.56042880554077
30
0
41
1
10
2.03485864818572
20
2.56018784129714
30
0
41
1
10
2.03864484072318
20
2.56002019002594
30
0
41
1
10
2.05861127609629
20
2.55896496520202
30
0
41
1
10
2.07782885089819
20
2.55743445012149
30
0
41
1
10
2.12064662993691
20
2.55332046469107
30
0
41
1
10
2.14442267474186
20
2.55072369239227
30
0
41
1
10
2.19451246366464
20
2.54474367032691
30
0
41
1
10
2.22088074042728
20
2.54136340370525
30
0
41
1
10
2.27419153307261
20
2.53376213425088
30
0
41
1
10
2.3010467102718
20
2.52952599302751
30
0
41
1
10
2.35401837885388
20
2.52002686893803
30
0
41
1
10
2.38017235993857
20
2.51476433811669
30
0
41
1
10
2.43174552823359
20
2.50314659315441
30
0
41
1
10
2.45717794790667
20
2.49679244658395
30
0
41
1
10
2.5326922211753
20
2.47606801740483
30
0
41
1
10
2.5820147037561
20
2.46002519936141
30
0
41
1
10
2.65606867442116
20
2.43283520745001
30
0
41
1
10
2.68076045490102
20
2.42325351641119
30
0
41
1
10
2.73034864614971
20
2.40310535016272
30
0
41
1
10
2.755263115942
20
2.39253074054801
30
0
41
1
10
2.83040645593638
20
2.35946772332861
30
0
41
1
10
2.88084670763965
20
2.33573308927399
30
0
41
1
10
2.98314728174756
20
2.2854760225876
30
0
41
1
10
3.03500296379792
20
2.25895482591966
30
0
41
1
10
3.14051374492181
20
2.20363842694951
30
0
41
1
10
3.19416446484269
20
2.17484262721206
30
0
41
1
10
3.35808776494986
20
2.08567305128671
30
0
41
1
10
3.47134924704159
20
2.02254097974165
30
0
41
1
10
3.61823612541349
20
1.94064768083939
30
0
41
1
10
3.64787697319198
20
1.9241180236375
30
0
41
1
10
3.70768636746632
20
1.89078906300944
30
0
41
1
10
3.73789486002599
20
1.87396757905947
30
0
41
1
10
3.82890213763443
20
1.8233679815412
30
0
41
1
10
3.89013288193428
20
1.78942913685833
30
0
41
1
10
4.0754417799202
20
1.68725031375757
30
0
41
1
10
4.20113935216125
20
1.61866750842199
30
0
41
1
10
4.45634073967912
20
1.48127772972626
30
0
41
1
10
4.58583794842068
20
1.41245724520175
30
0
41
1
10
4.84811061588081
20
1.27481730932584
30
0
41
1
10
4.98088597431206
20
1.20599381247723
30
0
41
1
10
5.18218251236442
20
1.10279123171614
30
0
41
1
10
5.24963758400509
20
1.06839463317732
30
0
41
1
10
5.3852121250103
20
0.999602964937878
30
0
41
1
10
5.45337385972169
20
0.965186789430533
30
0
41
1
10
5.65837750236778
20
0.862121874004089
30
0
41
1
10
5.79577549913074
20
0.793642118989567
30
0
41
1
10
5.93375752151607
20
0.725236360047631
30
0
0
SPLINE
5
CC
100
AcDbEntity
8
1
62
256
6
ByLayer
370
18
48
1
60
0
100
AcDbSpline
70
4
71
3
72
82
73
78
40
0
40
0
40
0
40
0
40
0.0562303176545753
40
0.0562303176545753
40
0.0843454764818637
40
0.0843454764818637
40
0.112460635309152
40
0.112460635309152
40
0.14057579413644
40
0.14057579413644
40
0.168690952963729
40
0.168690952963729
40
0.196806111791017
40
0.196806111791017
40
0.224921270618305
40
0.224921270618305
40
0.253036429445594
40
0.253036429445594
40
0.267094008859239
40
0.267094008859239
40
0.281151588272883
40
0.281151588272883
40
0.309266747100173
40
0.309266747100173
40
0.337381905927463
40
0.337381905927463
40
0.365497064754753
40
0.365497064754753
40
0.393612223582042
40
0.393612223582042
40
0.421727382409332
40
0.421727382409332
40
0.449842541236622
40
0.449842541236622
40
0.477957700063911
40
0.477957700063911
40
0.506072858891201
40
0.506072858891201
40
0.534188017718491
40
0.534188017718491
40
0.548245597132135
40
0.548245597132135
40
0.56230317654578
40
0.56230317654578
40
0.590418335373068
40
0.590418335373068
40
0.618533494200356
40
0.618533494200356
40
0.646648653027645
40
0.646648653027645
40
0.674763811854933
40
0.674763811854933
40
0.702878970682221
40
0.702878970682221
40
0.73099412950951
40
0.73099412950951
40
0.759109288336798
40
0.759109288336798
40
0.787224447164086
40
0.787224447164086
40
0.815339605991375
40
0.815339605991375
40
0.829397185405018
40
0.829397185405018
40
0.843454764818662
40
0.843454764818662
40
0.871569923645949
40
0.871569923645949
40
0.899685082473236
40
0.899685082473236
40
0.927800241300523
40
0.927800241300523
40
0.955915400127809
40
0.955915400127809
40
0.984030558955096
40
0.984030558955096
40
1
40
1
40
1
40
1
41
1
10
10.4858507179578
20
2.07848958218787
30
0
41
1
10
10.7070548281074
20
2.00665378923122
30
0
41
1
10
10.9278465015069
20
1.92914204523646
30
0
41
1
10
11.2571422266527
20
1.80311055719656
30
0
41
1
10
11.366616035461
20
1.75948075066893
30
0
41
1
10
11.5855221396677
20
1.66973371594764
30
0
41
1
10
11.6949917575691
20
1.62367779218559
30
0
41
1
10
11.9137524072676
20
1.52893428215427
30
0
41
1
10
12.0229929408863
20
1.48016855731876
30
0
41
1
10
12.2413205960709
20
1.38000650895856
30
0
41
1
10
12.3504760076282
20
1.32871159402799
30
0
41
1
10
12.5691898923112
20
1.22437766888555
30
0
41
1
10
12.6787052264101
20
1.17127768757553
30
0
41
1
10
12.8977795001109
20
1.0627456529995
30
0
41
1
10
13.0073064891788
20
1.00725034830174
30
0
41
1
10
13.2268254276248
20
0.894593290445812
30
0
41
1
10
13.3368661537762
20
0.837522560866233
30
0
41
1
10
13.5024062958579
20
0.750910178300813
30
0
41
1
10
13.5576513454454
20
0.721844506146169
30
0
41
1
10
13.6682457713655
20
0.663268629353496
30
0
41
1
10
13.7236424056767
20
0.633729825124732
30
0
41
1
10
13.8896181908729
20
0.544632451629838
30
0
41
1
10
13.999885162293
20
0.484740620249795
30
0
41
1
10
14.2201596835149
20
0.364926215929188
30
0
41
1
10
14.3301971547124
20
0.305058402160483
30
0
41
1
10
14.549793017504
20
0.184865898605352
30
0
41
1
10
14.6593088024788
20
0.124462404401072
30
0
41
1
10
14.8780280370569
20
0.0035152714560809
30
0
41
1
10
14.9872962891481
20
-0.0569073232928758
30
0
41
1
10
15.2059786471658
20
-0.177047703213077
30
0
41
1
10
15.3153270160749
20
-0.236888475773554
30
0
41
1
10
15.5338053414386
20
-0.356538747608823
30
0
41
1
10
15.6429188949342
20
-0.416376684583014
30
0
41
1
10
15.8614372341717
20
-0.535080765624855
30
0
41
1
10
15.9708863167801
20
-0.593867379832545
30
0
41
1
10
16.1901128608221
20
-0.710406679039835
30
0
41
1
10
16.2998235046895
20
-0.768280385394888
30
0
41
1
10
16.5194171749928
20
-0.883265837695745
30
0
41
1
10
16.6293660884332
20
-0.940257948237587
30
0
41
1
10
16.7948686381128
20
-1.02436455707354
30
0
41
1
10
16.8501349500565
20
-1.0521660708707
30
0
41
1
10
16.960824983425
20
-1.10737250716812
30
0
41
1
10
17.0162885196526
20
-1.13480264839774
30
0
41
1
10
17.1822852860976
20
-1.2162955753987
30
0
41
1
10
17.2925218095225
20
-1.26971155189173
30
0
41
1
10
17.5125092336189
20
-1.37409770687492
30
0
41
1
10
17.6223198922124
20
-1.42497242464287
30
0
41
1
10
17.841804050709
20
-1.52380304250087
30
0
41
1
10
17.9514041237738
20
-1.57187886975891
30
0
41
1
10
18.170127097698
20
-1.66563532269581
30
0
41
1
10
18.2792667101531
20
-1.71128019279348
30
0
41
1
10
18.4976381642595
20
-1.79936099320463
30
0
41
1
10
18.6069119536865
20
-1.8417514469937
30
0
41
1
10
18.8254578492711
20
-1.9235004835902
30
0
41
1
10
18.9346754267606
20
-1.96292360256049
30
0
41
1
10
19.1530840555306
20
-2.03871155992979
30
0
41
1
10
19.2623434817152
20
-2.07499113491548
30
0
41
1
10
19.4814112481904
20
-2.1438452632047
30
0
41
1
10
19.5911885627691
20
-2.17646464675553
30
0
41
1
10
19.8109467806801
20
-2.23834794378399
30
0
41
1
10
19.9208937051884
20
-2.26763263633868
30
0
41
1
10
20.0862619011025
20
-2.30870012027367
30
0
41
1
10
20.1414625519552
20
-2.32191093191824
30
0
41
1
10
20.2520693621662
20
-2.3473335623159
30
0
41
1
10
20.3075186665895
20
-2.35954897285612
30
0
41
1
10
20.4735344224742
20
-2.3946064951005
30
0
41
1
10
20.5839118710347
20
-2.41592217680954
30
0
41
1
10
20.8039306818006
20
-2.45454353242022
30
0
41
1
10
20.9136191041084
20
-2.47180560535165
30
0
41
1
10
21.1328678213467
20
-2.50201561418834
30
0
41
1
10
21.2424634064778
20
-2.51496458073677
30
0
41
1
10
21.4613331627226
20
-2.53672537665287
30
0
41
1
10
21.5705628478098
20
-2.54554160040567
30
0
41
1
10
21.78881729265
20
-2.55894827376503
30
0
41
1
10
21.8979080705535
20
-2.56352190323824
30
0
41
1
10
22.069190275704
20
-2.56735972776127
30
0
41
1
10
22.1312642343574
20
-2.56806971653879
30
0
41
1
10
22.1933433069847
20
-2.56809702658765
30
0
0
SPLINE
5
CD
100
AcDbEntity
8
1
62
256
6
ByLayer
370
18
48
1
60
0
100
AcDbSpline
70
4
71
3
72
130
73
126
40
0
40
0
40
0
40
0
40
0.0101785865252252
40
0.0101785865252252
40
0.0191071580329222
40
0.0191071580329222
40
0.0280357295406191
40
0.0280357295406191
40
0.0458928725560132
40
0.0458928725560132
40
0.0637500155714076
40
0.0637500155714076
40
0.0816071585868018
40
0.0816071585868018
40
0.0994643016021959
40
0.0994643016021959
40
0.11732144461759
40
0.11732144461759
40
0.135178587632984
40
0.135178587632984
40
0.153035730648379
40
0.153035730648379
40
0.170892873663773
40
0.170892873663773
40
0.188750016679167
40
0.188750016679167
40
0.197678588186864
40
0.197678588186864
40
0.206607159694561
40
0.206607159694561
40
0.224464302709954
40
0.224464302709954
40
0.242321445725346
40
0.242321445725346
40
0.260178588740738
40
0.260178588740738
40
0.278035731756131
40
0.278035731756131
40
0.295892874771523
40
0.295892874771523
40
0.313750017786916
40
0.313750017786916
40
0.331607160802308
40
0.331607160802308
40
0.349464303817701
40
0.349464303817701
40
0.367321446833093
40
0.367321446833093
40
0.37625001834079
40
0.37625001834079
40
0.385178589848487
40
0.385178589848487
40
0.40303573286388
40
0.40303573286388
40
0.420892875879272
40
0.420892875879272
40
0.438750018894665
40
0.438750018894665
40
0.456607161910057
40
0.456607161910057
40
0.474464304925449
40
0.474464304925449
40
0.492321447940842
40
0.492321447940842
40
0.510178590956234
40
0.510178590956234
40
0.528035733971627
40
0.528035733971627
40
0.545892876987019
40
0.545892876987019
40
0.554821448494716
40
0.554821448494716
40
0.563750020002413
40
0.563750020002413
40
0.581607163017806
40
0.581607163017806
40
0.599464306033198
40
0.599464306033198
40
0.617321449048591
40
0.617321449048591
40
0.635178592063983
40
0.635178592063983
40
0.653035735079375
40
0.653035735079375
40
0.670892878094768
40
0.670892878094768
40
0.68875002111016
40
0.68875002111016
40
0.706607164125553
40
0.706607164125553
40
0.724464307140945
40
0.724464307140945
40
0.742321450156338
40
0.742321450156338
40
0.76017859317173
40
0.76017859317173
40
0.778035736187123
40
0.778035736187123
40
0.795892879202515
40
0.795892879202515
40
0.813750022217907
40
0.813750022217907
40
0.8316071652333
40
0.8316071652333
40
0.849464308248692
40
0.849464308248692
40
0.867321451264085
40
0.867321451264085
40
0.885178594279477
40
0.885178594279477
40
0.90303573729487
40
0.90303573729487
40
0.911964308802566
40
0.911964308802566
40
0.920892880310262
40
0.920892880310262
40
0.938750023325656
40
0.938750023325656
40
0.956607166341051
40
0.956607166341051
40
0.974464309356445
40
0.974464309356445
40
0.992321452371839
40
0.992321452371839
40
1
40
1
40
1
40
1
41
1
10
33.0048352441447
20
1.75831618549205
30
0
41
1
10
33.0675085004696
20
1.78369814485239
30
0
41
1
10
33.130268300013
20
1.8086185967733
30
0
41
1
10
33.2483245280602
20
1.85441696830944
30
0
41
1
10
33.3035925216367
20
1.87541469258409
30
0
41
1
10
33.4142895081077
20
1.91665949244265
30
0
41
1
10
33.4697020444092
20
1.93690353385986
30
0
41
1
10
33.635503343678
20
1.99633717511762
30
0
41
1
10
33.7456161489259
20
2.03435947097987
30
0
41
1
10
33.9653820000111
20
2.10675490121662
30
0
41
1
10
34.0750929822929
20
2.1410665938615
30
0
41
1
10
34.2943808548954
20
2.20579756088094
30
0
41
1
10
34.403884881105
20
2.23629800719579
30
0
41
1
10
34.6224241187497
20
2.29373628535072
30
0
41
1
10
34.7314806276475
20
2.3206405586111
30
0
41
1
10
34.9497057968449
20
2.37038798658912
30
0
41
1
10
35.0589168320413
20
2.39321365893068
30
0
41
1
10
35.2773463823124
20
2.43494614964038
30
0
41
1
10
35.3865118014369
20
2.45388121065338
30
0
41
1
10
35.6048395920204
20
2.48776428894848
30
0
41
1
10
35.7140698698796
20
2.50267027492106
30
0
41
1
10
35.9330916146721
20
2.52823204430956
30
0
41
1
10
36.0428486345821
20
2.53891617242647
30
0
41
1
10
36.2625766661494
20
2.55614122132079
30
0
41
1
10
36.3725136827006
20
2.5626753511863
30
0
41
1
10
36.5378848867969
20
2.56921328769045
30
0
41
1
10
36.5930890581161
20
2.57084981013023
30
0
41
1
10
36.7037087790559
20
2.57303147250261
30
0
41
1
10
36.7590983416704
20
2.57357553795182
30
0
41
1
10
36.9249154005985
20
2.5735830016913
30
0
41
1
10
37.0351667298404
20
2.57142942472427
30
0
41
1
10
37.2549530426018
20
2.56280380680227
30
0
41
1
10
37.3645368835155
20
2.55632461372554
30
0
41
1
10
37.5835918357135
20
2.53919140069132
30
0
41
1
10
37.6930966677966
20
2.52856285431781
30
0
41
1
10
37.9117925583971
20
2.50315465287756
30
0
41
1
10
38.0209393463476
20
2.48834739170442
30
0
41
1
10
38.239046495694
20
2.45458246942917
30
0
41
1
10
38.3480730448237
20
2.4356560258197
30
0
41
1
10
38.5664360728979
20
2.39397978302705
30
0
41
1
10
38.6757116476588
20
2.37120349509738
30
0
41
1
10
38.8942056834042
20
2.32157384610457
30
0
41
1
10
39.0034013475922
20
2.29468716822822
30
0
41
1
10
39.2222159349378
20
2.2371492839917
30
0
41
1
10
39.3318797028241
20
2.20654909260094
30
0
41
1
10
39.5517112885322
20
2.14169309210675
30
0
41
1
10
39.6618099681361
20
2.10736826048648
30
0
41
1
10
39.8271960785561
20
2.05290862316764
30
0
41
1
10
39.8823772260658
20
2.03427299123234
30
0
41
1
10
39.9929183258288
20
1.99611440981187
30
0
41
1
10
40.0482274633261
20
1.97660691716499
30
0
41
1
10
40.2138818663587
20
1.91707168889204
30
0
41
1
10
40.3241605298508
20
1.87600727997759
30
0
41
1
10
40.5441064880311
20
1.79078876111785
30
0
41
1
10
40.6537342237802
20
1.74657407084271
30
0
41
1
10
40.8726289986454
20
1.65538191534338
30
0
41
1
10
40.9819571823702
20
1.60849149115046
30
0
41
1
10
41.2006379751462
20
1.51254866651016
30
0
41
1
10
41.3099188438438
20
1.46339551141983
30
0
41
1
10
41.528153452361
20
1.36240177199102
30
0
41
1
10
41.6371088115522
20
1.3105552569383
30
0
41
1
10
41.8552449679411
20
1.20502228448058
30
0
41
1
10
41.9644686950641
20
1.1514125259138
30
0
41
1
10
42.1830985783437
20
1.04231435959639
30
0
41
1
10
42.2924447188989
20
0.986723469091828
30
0
41
1
10
42.5112390074576
20
0.873479114453374
30
0
41
1
10
42.6207551080593
20
0.815939467695529
30
0
41
1
10
42.8404747031177
20
0.69982294849197
30
0
41
1
10
42.9506629707598
20
0.641227305901737
30
0
41
1
10
43.1162189849858
20
0.552101244182239
30
0
41
1
10
43.1714502962683
20
0.522186566310126
30
0
41
1
10
43.2820190703063
20
0.461961883794317
30
0
41
1
10
43.3372774013083
20
0.431711565173714
30
0
41
1
10
43.5027647689813
20
0.340934121601606
30
0
41
1
10
43.6128697420491
20
0.280368376951714
30
0
41
1
10
43.8328094794282
20
0.159444342292659
30
0
41
1
10
43.9425705441408
20
0.0989451999531923
30
0
41
1
10
44.1615096553943
20
-0.0224385512061929
30
0
41
1
10
44.2707238945768
20
-0.0832528880723373
30
0
41
1
10
44.4891620613379
20
-0.204162839871884
30
0
41
1
10
44.5984255909271
20
-0.264187813892022
30
0
41
1
10
44.8168098608493
20
-0.383813205528668
30
0
41
1
10
44.925882179961
20
-0.443500900733568
30
0
41
1
10
45.1439365106214
20
-0.562344515742893
30
0
41
1
10
45.2529862163848
20
-0.621377047030109
30
0
41
1
10
45.471538384341
20
-0.737936212304788
30
0
41
1
10
45.5809925595912
20
-0.795551582349447
30
0
41
1
10
45.7999921706695
20
-0.90991865703802
30
0
41
1
10
45.9095074656298
20
-0.966720853201792
30
0
41
1
10
46.1290676792678
20
-1.0786737046796
30
0
41
1
10
46.2391602744783
20
-1.13374281221675
30
0
41
1
10
46.4600262132898
20
-1.24197014062682
30
0
41
1
10
46.5708956492448
20
-1.29533028325434
30
0
41
1
10
46.7915065375283
20
-1.39977332586827
30
0
41
1
10
46.9014539007674
20
-1.45082939101326
30
0
41
1
10
47.1211349439499
20
-1.54986949122573
30
0
41
1
10
47.2308958235286
20
-1.59782539020836
30
0
41
1
10
47.4499711580743
20
-1.69109427522179
30
0
41
1
10
47.5592440773938
20
-1.73645748678041
30
0
41
1
10
47.777526238337
20
-1.82425006911541
30
0
41
1
10
47.8865995045332
20
-1.866592914618
30
0
41
1
10
48.1049299615865
20
-1.9478148449497
30
0
41
1
10
48.2141202067238
20
-1.98678591058362
30
0
41
1
10
48.4323215311238
20
-2.06170161219526
30
0
41
1
10
48.5413179554587
20
-2.09765023774639
30
0
41
1
10
48.7596473125856
20
-2.16590413898123
30
0
41
1
10
48.8690242692467
20
-2.19817353834711
30
0
41
1
10
49.0881441294428
20
-2.25907622598803
30
0
41
1
10
49.1978208403587
20
-2.28777133270546
30
0
41
1
10
49.4173929220339
20
-2.34158006907998
30
0
41
1
10
49.5273545207006
20
-2.36662953178234
30
0
41
1
10
49.6929109056977
20
-2.40112896924487
30
0
41
1
10
49.7482173809257
20
-2.4121201110506
30
0
41
1
10
49.8589279484916
20
-2.43309296925341
30
0
41
1
10
49.9142168228535
20
-2.44305524478298
30
0
41
1
10
50.079843050324
20
-2.47140101131447
30
0
41
1
10
50.1898913708795
20
-2.48826396186311
30
0
41
1
10
50.4096302308078
20
-2.51772051832299
30
0
41
1
10
50.5193810186876
20
-2.53029089594651
30
0
41
1
10
50.738871244334
20
-2.55112745397724
30
0
41
1
10
50.848535817743
20
-2.55942622309965
30
0
41
1
10
51.0675083223978
20
-2.57181202668897
30
0
41
1
10
51.1768350091774
20
-2.5758796612289
30
0
41
1
10
51.3333321817592
20
-2.57860794141737
30
0
41
1
10
51.3804192095484
20
-2.57903146538664
30
0
41
1
10
51.4275273314118
20
-2.57905943105686
30
0
0
SPLINE
5
CE
100
AcDbEntity
8
1
62
256
6
ByLayer
370
18
48
1
60
0
100
AcDbSpline
70
4
71
3
72
15
73
11
40
0
40
0
40
0
40
0
40
0.01628062261811
40
0.0671698021125501
40
0.127158217778308
40
0.20179613099993
40
0.404927293495231
40
0.584276297575923
40
0.800116508921476
40
1
40
1
40
1
40
1
41
1
10
51.1115622150614
20
0.0167101543628405
30
0
41
1
10
51.1125910279561
20
0.0200406095046333
30
0
41
1
10
51.1147643593661
20
0.035087573584434
30
0
41
1
10
51.1041637814087
20
0.0730818619180411
30
0
41
1
10
51.0320929092596
20
0.131134799217534
30
0
41
1
10
50.8462823186874
20
0.23276259592248
30
0
41
1
10
50.5410736140618
20
0.372801995319236
30
0
41
1
10
50.1298559171341
20
0.568667596291078
30
0
41
1
10
49.7111253341133
20
0.772439724667748
30
0
41
1
10
49.4178639509999
20
0.920747124499343
30
0
41
1
10
49.2761841745674
20
0.993480825872041
30
0
0
SPLINE
5
CF
100
AcDbEntity
8
1
62
256
6
ByLayer
370
18
48
1
60
0
100
AcDbSpline
70
4
71
3
72
16
73
12
40
0
40
0
40
0
40
0
40
0.0230007969352773
40
0.0639119844749498
40
0.168293366311113
40
0.288990698435157
40
0.426793285413698
40
0.535124246578778
40
0.619123829258216
40
0.79944224380288
40
1
40
1
40
1
40
1
41
1
10
21.8334359136335
20
0.0279726140502135
30
0
41
1
10
21.8310350718095
20
0.033611071434791
30
0
41
1
10
21.8213903263287
20
0.0508797474745393
30
0
41
1
10
21.7777418276004
20
0.105666678792204
30
0
41
1
10
21.638488666497
20
0.193690615923003
30
0
41
1
10
21.425103708276
20
0.304248025923926
30
0
41
1
10
21.2005076931494
20
0.415781734889976
30
0
41
1
10
20.9915455421806
20
0.517917789312122
30
0
41
1
10
20.7474872296274
20
0.636903049216698
30
0
41
1
10
20.4416693861065
20
0.788107257153428
30
0
41
1
10
20.1894233935415
20
0.915616569621989
30
0
41
1
10
20.056138069747
20
0.983733033485493
30
0
0
SPLINE
5
D0
100
AcDbEntity
8
1
62
256
6
ByLayer
370
18
48
1
60
0
100
AcDbSpline
70
4
71
3
72
17
73
13
40
0
40
0
40
0
40
0
40
0.0304912162211688
40
0.125235675373252
40
0.200068136053783
40
0.257530054807378
40
0.280787607442404
40
0.329499765961645
40
0.41169762556794
40
0.559797238501183
40
0.773318109858117
40
1
40
1
40
1
40
1
41
1
10
36.4059870427888
20
0.0510198508401913
30
0
41
1
10
36.4045649553723
20
0.0587535207842791
30
0
41
1
10
36.3956886074935
20
0.092563293671617
30
0
41
1
10
36.3644386257511
20
0.152408598880243
30
0
41
1
10
36.2809974271473
20
0.206465874358486
30
0
41
1
10
36.2020619019915
20
0.246039859055685
30
0
41
1
10
36.1224618967724
20
0.283087016254058
30
0
41
1
10
36.0087553741632
20
0.333254616234967
30
0
41
1
10
35.8152224615389
20
0.421610942662596
30
0
41
1
10
35.5111172740947
20
0.566578299985167
30
0
41
1
10
35.1109871551464
20
0.762915015316025
30
0
41
1
10
34.8102894028734
20
0.914692278664006
30
0
41
1
10
34.6554486854504
20
0.994048177768292
30
0
0
SPLINE
5
D1
100
AcDbEntity
8
1
62
256
6
ByLayer
370
18
48
1
60
0
100
AcDbSpline
70
4
71
3
72
13
73
9
40
0
40
0
40
0
40
0
40
0.0607369531897834
40
0.131931648109193
40
0.21079801661482
40
0.40722910037955
40
0.668479945900829
40
1
40
1
40
1
40
1
41
1
10
7.33721083513933
20
0.0122862492119964
30
0
41
1
10
7.33985854906095
20
0.0206101136051302
30
0
41
1
10
7.33814926698844
20
0.0418901256471997
30
0
41
1
10
7.29830402167158
20
0.0789169514450521
30
0
41
1
10
7.18840378135647
20
0.141684756760441
30
0
41
1
10
6.9632550306076
20
0.24447280456198
30
0
41
1
10
6.61235480789776
20
0.403987864411988
30
0
41
1
10
6.34618380044077
20
0.527819577409474
30
0
41
1
10
6.19491874160957
20
0.598722779020846
30
0
0
SPLINE
5
D2
100
AcDbEntity
8
1
62
256
6
ByLayer
370
18
48
1
60
0
100
AcDbSpline
70
4
71
2
72
6
73
3
40
0
40
0
40
0
40
1
40
1
40
1
41
1
10
6.13940861811639
20
0.631187662447587
30
0
41
1
10
4.637659860349
20
1.38517370200344
30
0
41
1
10
3.14164129953622
20
2.20835022652747
30
0
0
LINE
5
7D
100
AcDbEntity
8
4
62
256
6
ByLayer
370
18
48
0.05
60
0
100
AcDbLine
10
-5
20
0
30
0
11
59
21
0
31
0
39
0
210
0
220
0
230
1
0
LINE
5
7F
100
AcDbEntity
8
81
62
256
6
ByLayer
370
18
48
1
60
0
100
AcDbLine
10
54
20
0
30
0
11
59
21
0
31
0
39
0
210
0
220
0
230
1
0
LINE
5
80
100
AcDbEntity
8
SK4
62
256
6
ByLayer
370
18
48
0.05
60
0
100
AcDbLine
10
-37
20
0
30
0
11
59
21
0
31
0
39
0
210
0
220
0
230
1
0
LINE
5
82
100
AcDbEntity
8
80
62
256
6
ByLayer
370
18
48
1
60
0
100
AcDbLine
10
0
20
0
30
0
11
-5
21
0
31
0
39
0
210
0
220
0
230
1
0
LINE
5
83
100
AcDbEntity
8
1
62
256
6
ByLayer
370
18
48
1
60
0
100
AcDbLine
10
0
20
2.5795
30
0
11
0
21
-2.5795
31
0
39
0
210
0
220
0
230
1
0
LINE
5
84
100
AcDbEntity
8
1
62
256
6
ByLayer
370
18
48
1
60
0
100
AcDbLine
10
52.605072
20
-2.5795
30
0
11
52.605072
21
-0.812137
31
0
39
0
210
0
220
0
230
1
0
LINE
5
85
100
AcDbEntity
8
1
62
256
6
ByLayer
370
18
48
1
60
0
100
AcDbLine
10
52.605072
20
2.5795
30
0
11
52.605072
21
2.497698
31
0
39
0
210
0
220
0
230
1
0
LINE
5
86
100
AcDbEntity
8
1
62
256
6
ByLayer
370
18
48
1
60
0
100
AcDbLine
10
0.2
20
-2.559848
30
0
11
0.2
21
2.559848
31
0
39
0
210
0
220
0
230
1
0
LINE
5
87
100
AcDbEntity
8
SK1
62
256
6
ByLayer
370
18
48
1
60
0
100
AcDbLine
10
0
20
2.5795
30
0
11
0
21
-2.5795
31
0
39
0
210
0
220
0
230
1
0
LINE
5
89
100
AcDbEntity
8
SK1
62
256
6
ByLayer
370
18
48
1
60
0
100
AcDbLine
10
-32
20
-2.08
30
0
11
-32
21
2.08
31
0
39
0
210
0
220
0
230
1
0
LINE
5
8A
100
AcDbEntity
8
SK1
62
256
6
ByLayer
370
18
48
1
60
0
100
AcDbLine
10
-31.5005
20
-2.5795
30
0
11
-31.5005
21
2.5795
31
0
39
0
210
0
220
0
230
1
0
LINE
5
8B
100
AcDbEntity
8
1
62
256
6
ByLayer
370
18
48
1
60
0
100
AcDbLine
10
0.2
20
2.559848
30
0
11
0
21
2.5795
31
0
39
0
210
0
220
0
230
1
0
LINE
5
8C
100
AcDbEntity
8
1
62
256
6
ByLayer
370
18
48
1
60
0
100
AcDbLine
10
0
20
-2.5795
30
0
11
0.2
21
-2.559848
31
0
39
0
210
0
220
0
230
1
0
LINE
5
8D
100
AcDbEntity
8
1
62
256
6
ByLayer
370
18
48
1
60
0
100
AcDbLine
10
54
20
0
30
0
11
52.605072
21
2.5795
31
0
39
0
210
0
220
0
230
1
0
LINE
5
8E
100
AcDbEntity
8
1
62
256
6
ByLayer
370
18
48
1
60
0
100
AcDbLine
10
52.605072
20
-2.5795
30
0
11
54
21
0
31
0
39
0
210
0
220
0
230
1
0
LINE
5
8F
100
AcDbEntity
8
1
62
256
6
ByLayer
370
18
48
1
60
0
100
AcDbLine
10
0.2
20
-2.559848
30
0
11
2.022429
21
-2.560532
31
0
39
0
210
0
220
0
230
1
0
LINE
5
90
100
AcDbEntity
8
1
62
256
6
ByLayer
370
18
48
1
60
0
100
AcDbLine
10
7.638089
20
-2.562637
30
0
11
14.576408
21
-2.565239
31
0
39
0
210
0
220
0
230
1
0
LINE
5
91
100
AcDbEntity
8
1
62
256
6
ByLayer
370
18
48
1
60
0
100
AcDbLine
10
22.193102
20
-2.568096
30
0
11
29.191709
21
-2.57072
31
0
39
0
210
0
220
0
230
1
0
LINE
5
92
100
AcDbEntity
8
1
62
256
6
ByLayer
370
18
48
1
60
0
100
AcDbLine
10
36.811065
20
-2.573577
30
0
11
43.806967
21
-2.576201
31
0
39
0
210
0
220
0
230
1
0
LINE
5
93
100
AcDbEntity
8
1
62
256
6
ByLayer
370
18
48
1
60
0
100
AcDbLine
10
51.428543
20
-2.579059
30
0
11
52.605072
21
-2.5795
31
0
39
0
210
0
220
0
230
1
0
LINE
5
94
100
AcDbEntity
8
1
62
256
6
ByLayer
370
18
48
1
60
0
100
AcDbLine
10
52.605072
20
2.5795
30
0
11
51.428543
21
2.579059
31
0
39
0
210
0
220
0
230
1
0
LINE
5
95
100
AcDbEntity
8
1
62
256
6
ByLayer
370
18
48
1
60
0
100
AcDbLine
10
43.806967
20
2.576201
30
0
11
36.811065
21
2.573577
31
0
39
0
210
0
220
0
230
1
0
LINE
5
96
100
AcDbEntity
8
1
62
256
6
ByLayer
370
18
48
1
60
0
100
AcDbLine
10
29.191709
20
2.57072
30
0
11
22.193102
21
2.568096
31
0
39
0
210
0
220
0
230
1
0
LINE
5
97
100
AcDbEntity
8
1
62
256
6
ByLayer
370
18
48
1
60
0
100
AcDbLine
10
14.576408
20
2.565239
30
0
11
7.638089
21
2.562637
31
0
39
0
210
0
220
0
230
1
0
LINE
5
98
100
AcDbEntity
8
1
62
256
6
ByLayer
370
18
48
1
60
0
100
AcDbLine
10
2.022429
20
2.560532
30
0
11
0.2
21
2.559848
31
0
39
0
210
0
220
0
230
1
0
LINE
5
99
100
AcDbEntity
8
SK1
62
256
6
ByLayer
370
18
48
1
60
0
100
AcDbLine
10
-31.5005
20
-2.5795
30
0
11
0
21
-2.5795
31
0
39
0
210
0
220
0
230
1
0
LINE
5
9A
100
AcDbEntity
8
SK1
62
256
6
ByLayer
370
18
48
1
60
0
100
AcDbLine
10
0
20
2.5795
30
0
11
-31.5005
21
2.5795
31
0
39
0
210
0
220
0
230
1
0
LINE
5
9B
100
AcDbEntity
8
SK1
62
256
6
ByLayer
370
18
48
1
60
0
100
AcDbLine
10
-32
20
-2.08
30
0
11
-31.5005
21
-2.5795
31
0
39
0
210
0
220
0
230
1
0
LINE
5
9C
100
AcDbEntity
8
SK1
62
256
6
ByLayer
370
18
48
1
60
0
100
AcDbLine
10
-31.5005
20
2.5795
30
0
11
-32
21
2.08
31
0
39
0
210
0
220
0
230
1
0
LINE
5
9D
100
AcDbEntity
8
SK2
62
256
6
ByLayer
370
13
48
1
60
0
100
AcDbLine
10
-38.5
20
28.612355
30
0
11
-38.5
21
-10.0795
31
0
39
0
210
0
220
0
230
1
0
LINE
5
9F
100
AcDbEntity
8
SK2
62
256
6
ByLayer
370
13
48
1
60
0
100
AcDbLine
10
-33.5875
20
2.5795
30
0
11
-40.5
21
2.5795
31
0
39
0
210
0
220
0
230
1
0
LINE
5
A0
100
AcDbEntity
8
SK2
62
256
6
ByLayer
370
13
48
1
60
0
100
AcDbLine
10
-33.5875
20
-2.5795
30
0
11
-40.5
21
-2.5795
31
0
39
0
210
0
220
0
230
1
0
LINE
5
A1
100
AcDbEntity
8
1
62
256
6
ByLayer
370
18
48
1
60
1
100
AcDbLine
10
-38.5
20
2.5795
30
0
11
-38.960784
21
6.079498
31
0
39
0
210
0
220
0
230
1
0
LINE
5
A2
100
AcDbEntity
8
1
62
256
6
ByLayer
370
18
48
1
60
1
100
AcDbLine
10
-38.960784
20
6.079498
30
0
11
-38.039216
21
6.079502
31
0
39
0
210
0
220
0
230
1
0
LINE
5
A3
100
AcDbEntity
8
1
62
256
6
ByLayer
370
18
48
1
60
1
100
AcDbLine
10
-38.039216
20
6.079502
30
0
11
-38.5
21
2.5795
31
0
39
0
210
0
220
0
230
1
0
LINE
5
A4
100
AcDbEntity
8
1
62
256
6
ByLayer
370
18
48
1
60
1
100
AcDbLine
10
-38.5
20
-2.5795
30
0
11
-38.039216
21
-6.079498
31
0
39
0
210
0
220
0
230
1
0
LINE
5
A5
100
AcDbEntity
8
1
62
256
6
ByLayer
370
18
48
1
60
1
100
AcDbLine
10
-38.039216
20
-6.079498
30
0
11
-38.960784
21
-6.079502
31
0
39
0
210
0
220
0
230
1
0
LINE
5
A6
100
AcDbEntity
8
1
62
256
6
ByLayer
370
18
48
1
60
1
100
AcDbLine
10
-38.960784
20
-6.079502
30
0
11
-38.5
21
-2.5795
31
0
39
0
210
0
220
0
230
1
0
LINE
5
A7
100
AcDbEntity
8
2
62
256
6
ByLayer
370
13
48
1
60
0
100
AcDbLine
10
62.105072
20
28.612355
30
0
11
62.105072
21
-10.0795
31
0
39
0
210
0
220
0
230
1
0
LINE
5
A9
100
AcDbEntity
8
2
62
256
6
ByLayer
370
13
48
1
60
0
100
AcDbLine
10
54.192572
20
2.5795
30
0
11
64.105072
21
2.5795
31
0
39
0
210
0
220
0
230
1
0
LINE
5
AA
100
AcDbEntity
8
2
62
256
6
ByLayer
370
13
48
1
60
0
100
AcDbLine
10
54.192572
20
-2.5795
30
0
11
64.105072
21
-2.5795
31
0
39
0
210
0
220
0
230
1
0
LINE
5
AB
100
AcDbEntity
8
1
62
256
6
ByLayer
370
18
48
1
60
1
100
AcDbLine
10
62.105072
20
2.5795
30
0
11
61.644288
21
6.079498
31
0
39
0
210
0
220
0
230
1
0
LINE
5
AC
100
AcDbEntity
8
1
62
256
6
ByLayer
370
18
48
1
60
1
100
AcDbLine
10
61.644288
20
6.079498
30
0
11
62.565856
21
6.079502
31
0
39
0
210
0
220
0
230
1
0
LINE
5
AD
100
AcDbEntity
8
1
62
256
6
ByLayer
370
18
48
1
60
1
100
AcDbLine
10
62.565856
20
6.079502
30
0
11
62.105072
21
2.5795
31
0
39
0
210
0
220
0
230
1
0
LINE
5
AE
100
AcDbEntity
8
1
62
256
6
ByLayer
370
18
48
1
60
1
100
AcDbLine
10
62.105072
20
-2.5795
30
0
11
62.565856
21
-6.079498
31
0
39
0
210
0
220
0
230
1
0
LINE
5
AF
100
AcDbEntity
8
1
62
256
6
ByLayer
370
18
48
1
60
1
100
AcDbLine
10
62.565856
20
-6.079498
30
0
11
61.644288
21
-6.079502
31
0
39
0
210
0
220
0
230
1
0
LINE
5
B0
100
AcDbEntity
8
1
62
256
6
ByLayer
370
18
48
1
60
1
100
AcDbLine
10
61.644288
20
-6.079502
30
0
11
62.105072
21
-2.5795
31
0
39
0
210
0
220
0
230
1
0
LINE
5
B1
100
AcDbEntity
8
2
62
256
6
ByLayer
370
13
48
1
60
0
100
AcDbLine
10
54.755136
20
-1.396397
30
0
11
65.416232
21
-21.110889
31
0
39
0
210
0
220
0
230
1
0
LINE
5
B2
100
AcDbEntity
8
2
62
256
6
ByLayer
370
13
48
1
60
0
100
AcDbLine
10
54.755136
20
1.396397
30
0
11
65.416232
21
21.110889
31
0
39
0
210
0
220
0
230
1
0
LINE
5
B3
100
AcDbEntity
8
1
62
256
6
ByLayer
370
18
48
1
60
1
100
AcDbLine
10
64.464879
20
-19.351649
30
0
11
67.239971
21
-17.169637
31
0
39
0
210
0
220
0
230
1
0
LINE
5
B4
100
AcDbEntity
8
1
62
256
6
ByLayer
370
18
48
1
60
1
100
AcDbLine
10
67.239971
20
-17.169637
30
0
11
67.710161
21
-17.962233
31
0
39
0
210
0
220
0
230
1
0
LINE
5
B5
100
AcDbEntity
8
1
62
256
6
ByLayer
370
18
48
1
60
1
100
AcDbLine
10
67.710161
20
-17.962233
30
0
11
64.464879
21
-19.351649
31
0
39
0
210
0
220
0
230
1
0
LINE
5
B6
100
AcDbEntity
8
1
62
256
6
ByLayer
370
18
48
1
60
1
100
AcDbLine
10
64.464879
20
19.351649
30
0
11
67.710158
21
17.962234
31
0
39
0
210
0
220
0
230
1
0
LINE
5
B7
100
AcDbEntity
8
1
62
256
6
ByLayer
370
18
48
1
60
1
100
AcDbLine
10
67.710158
20
17.962234
30
0
11
67.239974
21
17.169635
31
0
39
0
210
0
220
0
230
1
0
LINE
5
B8
100
AcDbEntity
8
1
62
256
6
ByLayer
370
18
48
1
60
1
100
AcDbLine
10
67.239974
20
17.169635
30
0
11
64.464879
21
19.351649
31
0
39
0
210
0
220
0
230
1
0
LINE
5
D7
100
AcDbEntity
8
1
62
256
6
ByLayer
370
18
48
1
60
1
100
AcDbLine
10
-38.5
20
2.5795
30
0
11
-38.960784
21
6.079498
31
0
39
0
210
0
220
0
230
1
0
LINE
5
D8
100
AcDbEntity
8
1
62
256
6
ByLayer
370
18
48
1
60
1
100
AcDbLine
10
-38.960784
20
6.079498
30
0
11
-38.039216
21
6.079502
31
0
39
0
210
0
220
0
230
1
0
LINE
5
D9
100
AcDbEntity
8
1
62
256
6
ByLayer
370
18
48
1
60
1
100
AcDbLine
10
-38.039216
20
6.079502
30
0
11
-38.5
21
2.5795
31
0
39
0
210
0
220
0
230
1
0
LINE
5
DB
100
AcDbEntity
8
1
62
256
6
ByLayer
370
18
48
1
60
1
100
AcDbLine
10
-38.5
20
-2.5795
30
0
11
-38.039216
21
-6.079498
31
0
39
0
210
0
220
0
230
1
0
LINE
5
DC
100
AcDbEntity
8
1
62
256
6
ByLayer
370
18
48
1
60
1
100
AcDbLine
10
-38.039216
20
-6.079498
30
0
11
-38.960784
21
-6.079502
31
0
39
0
210
0
220
0
230
1
0
LINE
5
DD
100
AcDbEntity
8
1
62
256
6
ByLayer
370
18
48
1
60
1
100
AcDbLine
10
-38.960784
20
-6.079502
30
0
11
-38.5
21
-2.5795
31
0
39
0
210
0
220
0
230
1
0
LINE
5
E1
100
AcDbEntity
8
1
62
256
6
ByLayer
370
18
48
1
60
1
100
AcDbLine
10
62.105072
20
2.5795
30
0
11
61.644288
21
6.079498
31
0
39
0
210
0
220
0
230
1
0
LINE
5
E2
100
AcDbEntity
8
1
62
256
6
ByLayer
370
18
48
1
60
1
100
AcDbLine
10
61.644288
20
6.079498
30
0
11
62.565856
21
6.079502
31
0
39
0
210
0
220
0
230
1
0
LINE
5
E3
100
AcDbEntity
8
1
62
256
6
ByLayer
370
18
48
1
60
1
100
AcDbLine
10
62.565856
20
6.079502
30
0
11
62.105072
21
2.5795
31
0
39
0
210
0
220
0
230
1
0
LINE
5
E5
100
AcDbEntity
8
1
62
256
6
ByLayer
370
18
48
1
60
1
100
AcDbLine
10
62.105072
20
-2.5795
30
0
11
62.565856
21
-6.079498
31
0
39
0
210
0
220
0
230
1
0
LINE
5
E6
100
AcDbEntity
8
1
62
256
6
ByLayer
370
18
48
1
60
1
100
AcDbLine
10
62.565856
20
-6.079498
30
0
11
61.644288
21
-6.079502
31
0
39
0
210
0
220
0
230
1
0
LINE
5
E7
100
AcDbEntity
8
1
62
256
6
ByLayer
370
18
48
1
60
1
100
AcDbLine
10
61.644288
20
-6.079502
30
0
11
62.105072
21
-2.5795
31
0
39
0
210
0
220
0
230
1
0
LINE
5
EA
100
AcDbEntity
8
1
62
256
6
ByLayer
370
18
48
1
60
1
100
AcDbLine
10
64.464879
20
-19.351649
30
0
11
67.239971
21
-17.169637
31
0
39
0
210
0
220
0
230
1
0
LINE
5
EB
100
AcDbEntity
8
1
62
256
6
ByLayer
370
18
48
1
60
1
100
AcDbLine
10
67.239971
20
-17.169637
30
0
11
67.710161
21
-17.962233
31
0
39
0
210
0
220
0
230
1
0
LINE
5
EC
100
AcDbEntity
8
1
62
256
6
ByLayer
370
18
48
1
60
1
100
AcDbLine
10
67.710161
20
-17.962233
30
0
11
64.464879
21
-19.351649
31
0
39
0
210
0
220
0
230
1
0
LINE
5
EE
100
AcDbEntity
8
1
62
256
6
ByLayer
370
18
48
1
60
1
100
AcDbLine
10
64.464879
20
19.351649
30
0
11
67.710158
21
17.962234
31
0
39
0
210
0
220
0
230
1
0
LINE
5
EF
100
AcDbEntity
8
1
62
256
6
ByLayer
370
18
48
1
60
1
100
AcDbLine
10
67.710158
20
17.962234
30
0
11
67.239974
21
17.169635
31
0
39
0
210
0
220
0
230
1
0
LINE
5
F0
100
AcDbEntity
8
1
62
256
6
ByLayer
370
18
48
1
60
1
100
AcDbLine
10
67.239974
20
17.169635
30
0
11
64.464879
21
19.351649
31
0
39
0
210
0
220
0
230
1
0
MTEXT
5
D3
100
AcDbEntity
8
SK2
62
256
6
ByLayer
370
18
48
1
60
0
100
AcDbMText
10
-39.841114
20
14.237937
30
0
210
0
220
0
230
1
1
%%c
40
3
41
0
44
1.084337
50
90
71
7
72
5
7
iso_b_vert
0
MTEXT
5
D6
100
AcDbEntity
8
SK2
62
256
6
ByLayer
370
18
48
1
60
0
100
AcDbMText
10
-39.841114
20
20.2145
30
0
210
0
220
0
230
1
1
\W0.6944;5.159
40
3
41
0
44
1.084337
50
90
71
7
72
5
7
iso_b_vert
0
MTEXT
5
DF
100
AcDbEntity
8
2
62
256
6
ByLayer
370
18
48
1
60
0
100
AcDbMText
10
60.763958
20
14.237937
30
0
210
0
220
0
230
1
1
%%c
40
3
41
0
44
1.084337
50
90
71
7
72
5
7
iso_b_vert
0
MTEXT
5
E0
100
AcDbEntity
8
2
62
256
6
ByLayer
370
18
48
1
60
0
100
AcDbMText
10
60.763958
20
20.2145
30
0
210
0
220
0
230
1
1
\W0.6944;5.159
40
3
41
0
44
1.084337
50
90
71
7
72
5
7
iso_b_vert
0
MTEXT
5
E9
100
AcDbEntity
8
2
62
256
6
ByLayer
370
18
48
1
60
0
100
AcDbMText
10
73.092229
20
-2.114886
30
0
210
0
220
0
230
1
1
\W0.6008;118%%d
40
3
41
0
44
1.084337
50
0
71
7
72
5
7
iso_b_vert
0
MTEXT
5
F2
100
AcDbEntity
8
SK6
62
256
6
ByLayer
370
18
48
1
60
0
100
AcDbMText
10
1.244259
20
-67.114886
30
0
210
0
220
0
230
1
1
\W0.7668;R00313/64
40
3
41
0
44
1.084337
50
0
71
7
72
5
7
iso_b_vert
0
HATCH
5
DA
100
AcDbEntity
8
SK2
62
256
6
ByLayer
370
13
48
1
60
0
100
AcDbHatch
10
0
20
0
30
0
210
0
220
0
230
1
2
ANSI31
70
0
71
0
91
1
92
5
93
3
72
1
10
-38.5
20
2.5795
11
-38.9607837415528
21
6.07949830744681
72
1
10
-38.9607837415528
20
6.07949830744681
11
-38.0392162584472
21
6.07950169255318
72
1
10
-38.0392162584472
20
6.07950169255318
11
-38.5
21
2.5795
97
0
75
0
76
1
52
0
41
0.0062
77
0
78
1
53
45
43
0
44
0
45
-0.0139193969876572
46
0.0139193969876572
79
0
47
0
98
1
10
0
20
0
0
HATCH
5
DE
100
AcDbEntity
8
SK2
62
256
6
ByLayer
370
13
48
1
60
0
100
AcDbHatch
10
0
20
0
30
0
210
0
220
0
230
1
2
ANSI31
70
0
71
0
91
1
92
5
93
3
72
1
10
-38.5
20
-2.5795
11
-38.0392162584472
21
-6.07949830744681
72
1
10
-38.0392162584472
20
-6.07949830744681
11
-38.9607837415528
21
-6.07950169255318
72
1
10
-38.9607837415528
20
-6.07950169255318
11
-38.5
21
-2.5795
97
0
75
0
76
1
52
0
41
0.0062
77
0
78
1
53
45
43
0
44
0
45
-0.0139193969876572
46
0.0139193969876572
79
0
47
0
98
1
10
0
20
0
0
HATCH
5
E4
100
AcDbEntity
8
2
62
256
6
ByLayer
370
13
48
1
60
0
100
AcDbHatch
10
0
20
0
30
0
210
0
220
0
230
1
2
ANSI31
70
0
71
0
91
1
92
5
93
3
72
1
10
62.1050720298966
20
2.5795
11
61.6442882883438
21
6.07949830744681
72
1
10
61.6442882883438
20
6.07949830744681
11
62.5658557714494
21
6.07950169255318
72
1
10
62.5658557714494
20
6.07950169255318
11
62.1050720298966
21
2.5795
97
0
75
0
76
1
52
0
41
0.0062
77
0
78
1
53
45
43
0
44
0
45
-0.0139193969876572
46
0.0139193969876572
79
0
47
0
98
1
10
0
20
0
0
HATCH
5
E8
100
AcDbEntity
8
2
62
256
6
ByLayer
370
13
48
1
60
0
100
AcDbHatch
10
0
20
0
30
0
210
0
220
0
230
1
2
ANSI31
70
0
71
0
91
1
92
5
93
3
72
1
10
62.1050720298966
20
-2.5795
11
62.5658557714494
21
-6.07949830744681
72
1
10
62.5658557714494
20
-6.07949830744681
11
61.6442882883438
21
-6.07950169255318
72
1
10
61.6442882883438
20
-6.07950169255318
11
62.1050720298966
21
-2.5795
97
0
75
0
76
1
52
0
41
0.0062
77
0
78
1
53
45
43
0
44
0
45
-0.0139193969876572
46
0.0139193969876572
79
0
47
0
98
1
10
0
20
0
0
HATCH
5
ED
100
AcDbEntity
8
2
62
256
6
ByLayer
370
13
48
1
60
0
100
AcDbHatch
10
0
20
0
30
0
210
0
220
0
230
1
2
ANSI31
70
0
71
0
91
1
92
5
93
3
72
1
10
64.4648791987519
20
-19.3516485952884
11
67.2399711078381
21
-17.1696369764527
72
1
10
67.2399711078381
20
-17.1696369764527
11
67.7101613929249
21
-17.9622325364572
72
1
10
67.7101613929249
20
-17.9622325364572
11
64.4648791987519
21
-19.3516485952884
97
0
75
0
76
1
52
0
41
0.0062
77
0
78
1
53
45
43
0
44
0
45
-0.0139193969876572
46
0.0139193969876572
79
0
47
0
98
1
10
0
20
0
0
HATCH
5
F1
100
AcDbEntity
8
2
62
256
6
ByLayer
370
13
48
1
60
0
100
AcDbHatch
10
0
20
0
30
0
210
0
220
0
230
1
2
ANSI31
70
0
71
0
91
1
92
5
93
3
72
1
10
64.4648791987519
20
19.3516485952884
11
67.7101584815525
21
17.9622342635519
72
1
10
67.7101584815525
20
17.9622342635519
11
67.2399740192105
21
17.169635249358
72
1
10
67.2399740192105
20
17.169635249358
11
64.4648791987519
21
19.3516485952884
97
0
75
0
76
1
52
0
41
0.0062
77
0
78
1
53
45
43
0
44
0
45
-0.0139193969876572
46
0.0139193969876572
79
0
47
0
98
1
10
0
20
0
0
DIMENSION
5
F5
100
AcDbEntity
8
SK2
62
256
6
ByLayer
370
18
48
1
60
0
100
AcDbDimension
2
_U0
10
54
20
-51.375509
30
0
11
11
21
-51.375509
31
0
70
32
71
1
72
1
41
1
210
0
220
0
230
1
3
Standard
100
AcDbAlignedDimension
13
-32
23
-2.5795
33
0
14
54
24
0
34
0
50
0
100
AcDbRotatedDimension
1001
ACAD
1000
DSTYLE
1002
{
1070
   371
1070
    13
1070
   372
1070
    13
1070
     3
1000

1070
   170
1070
     0
1070
   144
1040
1.0
1070
   277
1070
     2
1070
   284
1070
     8
1070
   278
1070
    46
1070
   146
1040
1.166667
1070
   345
1005
16
1070
   347
1005
16
1070
   346
1005
16
1070
   344
1005
0
1070
   343
1005
0
1070
   172
1070
     1
1070
    76
1070
     0
1070
    75
1070
     0
1070
   282
1070
     0
1070
   281
1070
     0
1070
    71
1070
     0
1070
    74
1070
     0
1070
   279
1070
     0
1070
   173
1070
     1
1070
   340
1005
D4
1070
   271
1070
     2
1070
   272
1070
     3
1070
    77
1070
     1
1070
    73
1070
     1
1070
   171
1070
     3
1070
   274
1070
     4
1070
   177
1070
     2
1070
   176
1070
     2
1070
   178
1070
     2
1070
    78
1070
     8
1070
    48
1040
-0.1
1070
    41
1040
3.5
1070
   147
1040
1.5
1070
    42
1040
1.5875
1070
    44
1040
2.0
1070
   140
1040
3.0
1002
}
1001
ACAD_DSTYLE_DIM_LINETYPE
1070
   380
1005
16
1001
ACAD_DSTYLE_DIM_EXT1_LINETYPE
1070
   381
1005
16
1001
ACAD_DSTYLE_DIM_EXT2_LINETYPE
1070
   382
1005
16
0
DIMENSION
5
10E
100
AcDbEntity
8
2
62
256
6
ByLayer
370
18
48
1
60
0
100
AcDbDimension
2
_U1
10
2
20
-41.375509
30
0
11
28
21
-41.375509
31
0
70
32
71
1
72
1
41
1
210
0
220
0
230
1
3
Standard
100
AcDbAlignedDimension
13
54
23
0
33
0
14
2
24
-2.5795
34
0
50
0
100
AcDbRotatedDimension
1001
ACAD
1000
DSTYLE
1002
{
1070
   371
1070
    13
1070
   372
1070
    13
1070
     3
1000

1070
   170
1070
     0
1070
   144
1040
1.0
1070
   277
1070
     2
1070
   284
1070
     8
1070
   278
1070
    46
1070
   146
1040
1.166667
1070
   345
1005
16
1070
   347
1005
16
1070
   346
1005
16
1070
   344
1005
0
1070
   343
1005
0
1070
   172
1070
     1
1070
    76
1070
     0
1070
    75
1070
     0
1070
   282
1070
     0
1070
   281
1070
     0
1070
    71
1070
     0
1070
    74
1070
     0
1070
   279
1070
     0
1070
   173
1070
     1
1070
   340
1005
D4
1070
   271
1070
     2
1070
   272
1070
     3
1070
    77
1070
     1
1070
    73
1070
     1
1070
   171
1070
     3
1070
   274
1070
     4
1070
   177
1070
     2
1070
   176
1070
     2
1070
   178
1070
     2
1070
    78
1070
     8
1070
    48
1040
-0.1
1070
    41
1040
3.5
1070
   147
1040
1.5
1070
    42
1040
1.5875
1070
    44
1040
2.0
1070
   140
1040
3.0
1002
}
1001
ACAD_DSTYLE_DIM_LINETYPE
1070
   380
1005
16
1001
ACAD_DSTYLE_DIM_EXT1_LINETYPE
1070
   381
1005
16
1001
ACAD_DSTYLE_DIM_EXT2_LINETYPE
1070
   382
1005
16
0
DIMENSION
5
126
100
AcDbEntity
8
SK2
62
256
6
ByLayer
370
18
48
1
60
0
100
AcDbDimension
2
_U2
10
0
20
-36.375509
30
0
11
-16
21
-36.375509
31
0
70
32
71
1
72
1
41
1
210
0
220
0
230
1
3
Standard
100
AcDbAlignedDimension
13
-32
23
-2.5795
33
0
14
0
24
-2.5795
34
0
50
0
100
AcDbRotatedDimension
1001
ACAD
1000
DSTYLE
1002
{
1070
   371
1070
    13
1070
   372
1070
    13
1070
     3
1000

1070
   170
1070
     0
1070
   144
1040
1.0
1070
   277
1070
     2
1070
   284
1070
     8
1070
   278
1070
    46
1070
   146
1040
1.166667
1070
   345
1005
16
1070
   347
1005
16
1070
   346
1005
16
1070
   344
1005
0
1070
   343
1005
0
1070
   172
1070
     1
1070
    76
1070
     0
1070
    75
1070
     0
1070
   282
1070
     0
1070
   281
1070
     0
1070
    71
1070
     0
1070
    74
1070
     0
1070
   279
1070
     0
1070
   173
1070
     1
1070
   340
1005
D4
1070
   271
1070
     2
1070
   272
1070
     3
1070
    77
1070
     1
1070
    73
1070
     1
1070
   171
1070
     3
1070
   274
1070
     4
1070
   177
1070
     2
1070
   176
1070
     2
1070
   178
1070
     2
1070
    78
1070
     8
1070
    48
1040
-0.1
1070
    41
1040
3.5
1070
   147
1040
1.5
1070
    42
1040
1.5875
1070
    44
1040
2.0
1070
   140
1040
3.0
1002
}
1001
ACAD_DSTYLE_DIM_LINETYPE
1070
   380
1005
16
1001
ACAD_DSTYLE_DIM_EXT1_LINETYPE
1070
   381
1005
16
1001
ACAD_DSTYLE_DIM_EXT2_LINETYPE
1070
   382
1005
16
0
DIMENSION
5
13E
100
AcDbEntity
8
2
62
256
6
ByLayer
370
18
48
1
60
0
100
AcDbDimension
2
_U3
10
15
20
-34.375509
30
0
11
34.5
21
-34.375509
31
0
70
32
71
1
72
1
41
1
210
0
220
0
230
1
3
Standard
100
AcDbAlignedDimension
13
54
23
0
33
0
14
15
24
-2.5795
34
0
50
0
100
AcDbRotatedDimension
1001
ACAD
1000
DSTYLE
1002
{
1070
   371
1070
    13
1070
   372
1070
    13
1070
     3
1000

1070
   170
1070
     0
1070
   144
1040
1.0
1070
   277
1070
     2
1070
   284
1070
     8
1070
   278
1070
    46
1070
   146
1040
1.166667
1070
   345
1005
16
1070
   347
1005
16
1070
   346
1005
16
1070
   344
1005
0
1070
   343
1005
0
1070
   172
1070
     1
1070
    76
1070
     0
1070
    75
1070
     0
1070
   282
1070
     0
1070
   281
1070
     0
1070
    71
1070
     0
1070
    74
1070
     0
1070
   279
1070
     0
1070
   173
1070
     1
1070
   340
1005
D4
1070
   271
1070
     2
1070
   272
1070
     3
1070
    77
1070
     1
1070
    73
1070
     1
1070
   171
1070
     3
1070
   274
1070
     4
1070
   177
1070
     2
1070
   176
1070
     2
1070
   178
1070
     2
1070
    78
1070
     8
1070
    48
1040
-0.1
1070
    41
1040
3.5
1070
   147
1040
1.5
1070
    42
1040
1.5875
1070
    44
1040
2.0
1070
   140
1040
3.0
1002
}
1001
ACAD_DSTYLE_DIM_LINETYPE
1070
   380
1005
16
1001
ACAD_DSTYLE_DIM_EXT1_LINETYPE
1070
   381
1005
16
1001
ACAD_DSTYLE_DIM_EXT2_LINETYPE
1070
   382
1005
16
0
ENDSEC
0
SECTION
2
OBJECTS
0
DICTIONARY
5
1c8
330
0
100
AcDbDictionary
280
0
281
1
3
ACAD_GROUP
350
1c9
3
ACAD_MLINESTYLE
350
1ca
0
DICTIONARY
5
1c9
330
0
100
AcDbDictionary
280
0
281
1
0
DICTIONARY
5
1ca
330
0
100
AcDbDictionary
280
0
281
1
3
Standard
350
18
0
MLINESTYLE
5
18
330
1ca
100
AcDbMlineStyle
2
Standard
70
0
3

62
256
51
90
52
90
71
2
49
-0.5
62
256
6
ByLayer
49
0.5
62
256
6
ByLayer
0
RASTERVARIABLES
5
1b4
330

100
AcDbRasterVariables
90
0
70
1
71
1
72
1
0
ENDSEC
0
EOF
