0
SECTION
2
HEADER
9
$ACADVER
1
AC1015
9
$DWGCODEPAGE
3
ANSI_1252
9
$HANDSEED
5
1d1
9
$ANGBASE
50
0
9
$ANGDIR
70
0
9
$ATTMODE
70
1
9
$AUNITS
70
0
9
$AUPREC
70
0
9
$CECOLOR
62
256
9
$CELTSCALE
40
1
9
$CELTYPE
6
ByLayer
9
$CELWEIGHT
370
18
9
$CLAYER
8
0
9
$CMLJUST
70
0
9
$CMLSCALE
40
1
9
$CMLSTYLE
2
Standard
9
$DIMSTYLE
2
Standard
9
$TEXTSIZE
40
0.2
9
$TEXTSTYLE
7
Standard
9
$LUNITS
70
2
9
$LUPREC
70
4
9
$EXTNAMES
290
1
9
$INSUNITS
70
4
9
$LTSCALE
40
1
9
$LWDISPLAY
290
1
9
$PDMODE
70
0
9
$PDSIZE
40
0
9
$PLINEGEN
70
0
0
ENDSEC
0
SECTION
2
CLASSES
0
CLASS
1
RASTERVARIABLES
2
AcDbRasterVariables
3
ISM
90
0
280
0
281
0
0
ENDSEC
0
SECTION
2
TABLES
0
TABLE
2
VPORT
5
1c7
100
AcDbSymbolTable
0
VPORT
5
1
100
AcDbSymbolTableRecord
100
AcDbViewportTableRecord
2
*Active
70
0
10
0
20
0
11
1
21
1
12
-1
22
1
13
0
23
0
14
0.5
24
0.5
15
10
25
10
16
0
26
0
36
1
17
0
27
0
37
0
0
ENDTAB
0
TABLE
2
LTYPE
5
1c8
100
AcDbSymbolTable
0
LTYPE
5
14
100
AcDbSymbolTableRecord
100
AcDbLinetypeTableRecord
70
0
2
ByBlock
3

72
65
73
0
40
0
0
LTYPE
5
15
100
AcDbSymbolTableRecord
100
AcDbLinetypeTableRecord
70
0
2
ByLayer
3

72
65
73
0
40
0
0
LTYPE
5
16
100
AcDbSymbolTableRecord
100
AcDbLinetypeTableRecord
70
0
2
Continuous
3
Solid line
72
65
73
0
40
0
0
LTYPE
5
6E
100
AcDbSymbolTableRecord
100
AcDbLinetypeTableRecord
70
0
2
CENTER
3
____ _ ____ _ ____ _ ____
72
65
73
4
40
47.5
49
22
74
0
49
-8.5
74
0
49
8.5
74
0
49
-8.5
74
0
0
LTYPE
5
6F
100
AcDbSymbolTableRecord
100
AcDbLinetypeTableRecord
70
0
2
DASHED
3
__ __ __ __ __ __ __ __ __
72
65
73
2
40
25.72
49
12.86
74
0
49
-12.86
74
0
0
ENDTAB
0
TABLE
2
LAYER
5
1c9
100
AcDbSymbolTable
0
LAYER
5
10
100
AcDbSymbolTableRecord
100
AcDbLayerTableRecord
2
0
70
0
62
7
6
Continuous
290
1
370
-3
390
0
0
LAYER
5
71
100
AcDbSymbolTableRecord
100
AcDbLayerTableRecord
2
81
70
0
62
-3
6
Continuous
290
1
370
-3
390
0
0
LAYER
5
73
100
AcDbSymbolTableRecord
100
AcDbLayerTableRecord
2
80
70
0
62
-6
6
Continuous
290
1
370
-3
390
0
0
LAYER
5
75
100
AcDbSymbolTableRecord
100
AcDbLayerTableRecord
2
1
70
0
62
4
6
Continuous
290
1
370
-3
390
0
0
LAYER
5
7E
100
AcDbSymbolTableRecord
100
AcDbLayerTableRecord
2
4
70
0
62
-2
6
CENTER
290
1
370
-3
390
0
0
LAYER
5
A6
100
AcDbSymbolTableRecord
100
AcDbLayerTableRecord
2
2
70
0
62
7
6
Continuous
290
1
370
-3
390
0
0
LAYER
5
F4
100
AcDbSymbolTableRecord
100
AcDbLayerTableRecord
2
Defpoints
70
0
62
7
6
Continuous
290
0
370
-3
390
0
0
LAYER
5
1b1
100
AcDbSymbolTableRecord
100
AcDbLayerTableRecord
2
SK4
70
0
62
2
6
CENTER
290
1
370
-3
390
0
0
LAYER
5
1b2
100
AcDbSymbolTableRecord
100
AcDbLayerTableRecord
2
SK1
70
0
62
4
6
Continuous
290
1
370
-3
390
0
0
LAYER
5
1b3
100
AcDbSymbolTableRecord
100
AcDbLayerTableRecord
2
SK2
70
0
62
7
6
Continuous
290
1
370
-3
390
0
0
LAYER
5
1b4
100
AcDbSymbolTableRecord
100
AcDbLayerTableRecord
2
NOCUT
70
0
62
-7
6
Continuous
290
1
370
-3
390
0
0
LAYER
5
1b5
100
AcDbSymbolTableRecord
100
AcDbLayerTableRecord
2
CUT
70
0
62
-1
6
Continuous
290
1
370
-3
390
0
0
LAYER
5
1b6
100
AcDbSymbolTableRecord
100
AcDbLayerTableRecord
2
SK6
70
0
62
5
6
Continuous
290
1
370
-3
390
0
0
ENDTAB
0
TABLE
2
STYLE
5
1ca
100
AcDbSymbolTable
0
STYLE
5
11
100
AcDbSymbolTableRecord
100
AcDbTextStyleTableRecord
2
Standard
3
txt
70
0
71
0
40
0
41
1
42
0
50
0
0
STYLE
5
D0
100
AcDbSymbolTableRecord
100
AcDbTextStyleTableRecord
2
iso_b_vert
3
simplex.shx
70
0
71
0
40
0
41
1
42
0
50
0
0
STYLE
5
D1
100
AcDbSymbolTableRecord
100
AcDbTextStyleTableRecord
2
DWGDirectTextStyle
3
simplex
70
0
71
0
40
0
41
1
42
0
50
0
0
ENDTAB
0
TABLE
2
DIMSTYLE
5
1cb
100
AcDbSymbolTable
100
AcDbDimStyleTable
0
DIMSTYLE
105
27
100
AcDbSymbolTableRecord
100
AcDbDimStyleTableRecord
2
Standard
70
0
3
<>
41
0.18
42
0.0625
44
0.18
140
0.18
147
0.09
73
0
74
0
77
1
271
2
275
0
278
52
280
0
340
11
0
ENDTAB
0
TABLE
2
VIEW
5
1cc
100
AcDbSymbolTable
0
ENDTAB
0
TABLE
2
UCS
5
1cd
100
AcDbSymbolTable
0
ENDTAB
0
TABLE
2
APPID
5
1ce
100
AcDbSymbolTable
0
APPID
5
12
100
AcDbSymbolTableRecord
100
AcDbRegAppTableRecord
2
ACAD
70
0
0
APPID
5
F0
100
AcDbSymbolTableRecord
100
AcDbRegAppTableRecord
2
ACAD_DSTYLE_DIMBREAK
70
0
0
APPID
5
170
100
AcDbSymbolTableRecord
100
AcDbRegAppTableRecord
2
ACAD_DSTYLE_DIM_LINETYPE
70
0
0
APPID
5
171
100
AcDbSymbolTableRecord
100
AcDbRegAppTableRecord
2
ACAD_DSTYLE_DIM_EXT1_LINETYPE
70
0
0
APPID
5
172
100
AcDbSymbolTableRecord
100
AcDbRegAppTableRecord
2
ACAD_DSTYLE_DIM_EXT2_LINETYPE
70
0
0
APPID
5
1AD
100
AcDbSymbolTableRecord
100
AcDbRegAppTableRecord
2
ACAD_MLEADERVER
70
0
0
ENDTAB
0
TABLE
2
BLOCK_RECORD
5
1cf
100
AcDbSymbolTable
0
BLOCK_RECORD
5
1F
100
AcDbSymbolTableRecord
100
AcDbBlockTableRecord
2
*Model_Space
340
0
70
0
0
BLOCK_RECORD
5
1B
100
AcDbSymbolTableRecord
100
AcDbBlockTableRecord
2
*Paper_Space
340
0
70
0
0
BLOCK_RECORD
5
23
100
AcDbSymbolTableRecord
100
AcDbBlockTableRecord
2
*Paper_Space0
340
0
70
0
0
BLOCK_RECORD
5
F5
100
AcDbSymbolTableRecord
100
AcDbBlockTableRecord
2
*D1
340
0
70
0
0
BLOCK_RECORD
5
101
100
AcDbSymbolTableRecord
100
AcDbBlockTableRecord
2
_U0
340
0
70
0
0
BLOCK_RECORD
5
10D
100
AcDbSymbolTableRecord
100
AcDbBlockTableRecord
2
*D3
340
0
70
0
0
BLOCK_RECORD
5
119
100
AcDbSymbolTableRecord
100
AcDbBlockTableRecord
2
_U1
340
0
70
0
0
BLOCK_RECORD
5
125
100
AcDbSymbolTableRecord
100
AcDbBlockTableRecord
2
*D5
340
0
70
0
0
BLOCK_RECORD
5
131
100
AcDbSymbolTableRecord
100
AcDbBlockTableRecord
2
_U2
340
0
70
0
0
BLOCK_RECORD
5
13D
100
AcDbSymbolTableRecord
100
AcDbBlockTableRecord
2
*D7
340
0
70
0
0
BLOCK_RECORD
5
149
100
AcDbSymbolTableRecord
100
AcDbBlockTableRecord
2
_U3
340
0
70
0
0
ENDTAB
0
ENDSEC
0
SECTION
2
BLOCKS
0
BLOCK
5
20
100
AcDbEntity
8
0
100
AcDbBlockBegin
2
*Model_Space
70
0
10
0
20
0
30
0
3
*Model_Space
0
ENDBLK
5
21
100
AcDbEntity
8
0
100
AcDbBlockEnd
0
BLOCK
5
1C
100
AcDbEntity
8
0
100
AcDbBlockBegin
2
*Paper_Space
70
0
10
0
20
0
30
0
3
*Paper_Space
0
ENDBLK
5
1D
100
AcDbEntity
8
0
100
AcDbBlockEnd
0
BLOCK
5
24
100
AcDbEntity
8
0
100
AcDbBlockBegin
2
*Paper_Space0
70
0
10
0
20
0
30
0
3
*Paper_Space0
0
ENDBLK
5
25
100
AcDbEntity
8
0
100
AcDbBlockEnd
0
BLOCK
5
F6
100
AcDbEntity
8
0
100
AcDbBlockBegin
2
*D1
70
1
10
0
20
0
30
0
3
*D1
0
LINE
5
F8
100
AcDbEntity
8
0
62
256
6
ByLayer
370
-2
48
1
60
0
100
AcDbLine
10
-46
20
-7.3375
30
0
11
-46
21
-49.412351
31
0
39
0
210
0
220
0
230
1
0
LINE
5
F9
100
AcDbEntity
8
0
62
256
6
ByLayer
370
-2
48
1
60
0
100
AcDbLine
10
96
20
-1.5875
30
0
11
96
21
-49.412351
31
0
39
0
210
0
220
0
230
1
0
LINE
5
FA
100
AcDbEntity
8
0
62
256
6
ByLayer
370
-2
48
1
60
0
100
AcDbLine
10
-42.5
20
-47.412351
30
0
11
92.5
21
-47.412351
31
0
39
0
210
0
220
0
230
1
0
SOLID
5
FB
100
AcDbEntity
8
0
62
256
6
ByLayer
370
-1
48
1
60
0
100
AcDbTrace
10
-42.5
20
-46.829017
30
0
11
-42.5
21
-47.995684
31
0
12
-46
22
-47.412351
32
0
13
-46
23
-47.412351
33
0
39
0
210
0
220
0
230
1
0
SOLID
5
FC
100
AcDbEntity
8
0
62
256
6
ByLayer
370
-1
48
1
60
0
100
AcDbTrace
10
92.5
20
-47.995684
30
0
11
92.5
21
-46.829017
31
0
12
96
22
-47.412351
32
0
13
96
23
-47.412351
33
0
39
0
210
0
220
0
230
1
0
MTEXT
5
FD
100
AcDbEntity
8
0
62
256
6
ByLayer
370
18
48
1
60
0
100
AcDbMText
10
25
20
-41.412351
30
0
210
0
220
0
230
1
1
\A1;142
40
3
41
0
44
1
50
0
71
5
72
5
7
iso_b_vert
0
POINT
5
FE
100
AcDbEntity
8
Defpoints
62
0
6
ByLayer
370
-1
48
1
60
0
100
AcDbPoint
10
-46
20
-5.75
30
0
39
0
210
0
220
0
230
1
50
360
0
POINT
5
FF
100
AcDbEntity
8
Defpoints
62
0
6
ByLayer
370
-1
48
1
60
0
100
AcDbPoint
10
96
20
0
30
0
39
0
210
0
220
0
230
1
50
360
0
POINT
5
100
100
AcDbEntity
8
Defpoints
62
0
6
ByLayer
370
-1
48
1
60
0
100
AcDbPoint
10
96
20
-47.412351
30
0
39
0
210
0
220
0
230
1
50
360
0
ENDBLK
5
F7
100
AcDbEntity
8
0
100
AcDbBlockEnd
0
BLOCK
5
108
100
AcDbEntity
8
0
100
AcDbBlockBegin
2
_U0
70
0
10
0
20
0
30
0
3
_U0
0
MTEXT
5
102
100
AcDbEntity
8
SK2
62
256
6
ByLayer
370
18
48
1
60
0
100
AcDbMText
10
19.613715
20
-46.527236
30
0
210
0
220
0
230
1
1
\W0.7237;142.00
40
3
41
0
44
1.084337
50
0
71
7
72
5
7
iso_b_vert
0
LINE
5
103
100
AcDbEntity
8
SK2
62
256
6
ByLayer
370
13
48
1
60
0
100
AcDbLine
10
-46
20
-7.3375
30
0
11
-46
21
-49.412351
31
0
39
0
210
0
220
0
230
1
0
LINE
5
104
100
AcDbEntity
8
SK2
62
256
6
ByLayer
370
13
48
1
60
0
100
AcDbLine
10
96
20
-1.5875
30
0
11
96
21
-49.412351
31
0
39
0
210
0
220
0
230
1
0
LINE
5
105
100
AcDbEntity
8
SK2
62
256
6
ByLayer
370
13
48
1
60
0
100
AcDbLine
10
-46
20
-47.412351
30
0
11
96
21
-47.412351
31
0
39
0
210
0
220
0
230
1
0
SOLID
5
106
100
AcDbEntity
8
SK2
62
256
6
ByLayer
370
18
48
1
60
0
100
AcDbTrace
10
-46
20
-47.412351
30
0
11
-42.500002
21
-46.951567
31
0
12
-42.499998
22
-47.873134
32
0
13
-42.499998
23
-47.873134
33
0
39
0
210
0
220
0
230
1
0
SOLID
5
107
100
AcDbEntity
8
SK2
62
256
6
ByLayer
370
18
48
1
60
0
100
AcDbTrace
10
96
20
-47.412351
30
0
11
92.500002
21
-47.873134
31
0
12
92.499998
22
-46.951567
32
0
13
92.499998
23
-46.951567
33
0
39
0
210
0
220
0
230
1
0
ENDBLK
5
109
100
AcDbEntity
8
0
100
AcDbBlockEnd
0
BLOCK
5
10E
100
AcDbEntity
8
0
100
AcDbBlockBegin
2
*D3
70
1
10
0
20
0
30
0
3
*D3
0
LINE
5
110
100
AcDbEntity
8
0
62
256
6
ByLayer
370
-2
48
1
60
0
100
AcDbLine
10
96
20
-1.5875
30
0
11
96
21
-39.412351
31
0
39
0
210
0
220
0
230
1
0
LINE
5
111
100
AcDbEntity
8
0
62
256
6
ByLayer
370
-2
48
1
60
0
100
AcDbLine
10
2
20
-7.3375
30
0
11
2
21
-39.412351
31
0
39
0
210
0
220
0
230
1
0
LINE
5
112
100
AcDbEntity
8
0
62
256
6
ByLayer
370
-2
48
1
60
0
100
AcDbLine
10
92.5
20
-37.412351
30
0
11
5.5
21
-37.412351
31
0
39
0
210
0
220
0
230
1
0
SOLID
5
113
100
AcDbEntity
8
0
62
256
6
ByLayer
370
-1
48
1
60
0
100
AcDbTrace
10
92.5
20
-37.995684
30
0
11
92.5
21
-36.829017
31
0
12
96
22
-37.412351
32
0
13
96
23
-37.412351
33
0
39
0
210
0
220
0
230
1
0
SOLID
5
114
100
AcDbEntity
8
0
62
256
6
ByLayer
370
-1
48
1
60
0
100
AcDbTrace
10
5.5
20
-36.829017
30
0
11
5.5
21
-37.995684
31
0
12
2
22
-37.412351
32
0
13
2
23
-37.412351
33
0
39
0
210
0
220
0
230
1
0
MTEXT
5
115
100
AcDbEntity
8
0
62
256
6
ByLayer
370
18
48
1
60
0
100
AcDbMText
10
49
20
-31.412351
30
0
210
0
220
0
230
1
1
\A1;94
40
3
41
0
44
1
50
0
71
5
72
5
7
iso_b_vert
0
POINT
5
116
100
AcDbEntity
8
Defpoints
62
0
6
ByLayer
370
-1
48
1
60
0
100
AcDbPoint
10
96
20
0
30
0
39
0
210
0
220
0
230
1
50
360
0
POINT
5
117
100
AcDbEntity
8
Defpoints
62
0
6
ByLayer
370
-1
48
1
60
0
100
AcDbPoint
10
2
20
-5.75
30
0
39
0
210
0
220
0
230
1
50
360
0
POINT
5
118
100
AcDbEntity
8
Defpoints
62
0
6
ByLayer
370
-1
48
1
60
0
100
AcDbPoint
10
2
20
-37.412351
30
0
39
0
210
0
220
0
230
1
50
360
0
ENDBLK
5
10F
100
AcDbEntity
8
0
100
AcDbBlockEnd
0
BLOCK
5
120
100
AcDbEntity
8
0
100
AcDbBlockBegin
2
_U1
70
0
10
0
20
0
30
0
3
_U1
0
MTEXT
5
11A
100
AcDbEntity
8
2
62
256
6
ByLayer
370
18
48
1
60
0
100
AcDbMText
10
44.359687
20
-36.527236
30
0
210
0
220
0
230
1
1
\W0.7694;94.00
40
3
41
0
44
1.084337
50
0
71
7
72
5
7
iso_b_vert
0
LINE
5
11B
100
AcDbEntity
8
2
62
256
6
ByLayer
370
13
48
1
60
0
100
AcDbLine
10
96
20
-1.5875
30
0
11
96
21
-39.412351
31
0
39
0
210
0
220
0
230
1
0
LINE
5
11C
100
AcDbEntity
8
2
62
256
6
ByLayer
370
13
48
1
60
0
100
AcDbLine
10
2
20
-7.3375
30
0
11
2
21
-39.412351
31
0
39
0
210
0
220
0
230
1
0
LINE
5
11D
100
AcDbEntity
8
2
62
256
6
ByLayer
370
13
48
1
60
0
100
AcDbLine
10
96
20
-37.412351
30
0
11
2
21
-37.412351
31
0
39
0
210
0
220
0
230
1
0
SOLID
5
11E
100
AcDbEntity
8
2
62
256
6
ByLayer
370
18
48
1
60
0
100
AcDbTrace
10
96
20
-37.412351
30
0
11
92.500002
21
-37.873134
31
0
12
92.499998
22
-36.951567
32
0
13
92.499998
23
-36.951567
33
0
39
0
210
0
220
0
230
1
0
SOLID
5
11F
100
AcDbEntity
8
2
62
256
6
ByLayer
370
18
48
1
60
0
100
AcDbTrace
10
2
20
-37.412351
30
0
11
5.499998
21
-36.951567
31
0
12
5.500002
22
-37.873134
32
0
13
5.500002
23
-37.873134
33
0
39
0
210
0
220
0
230
1
0
ENDBLK
5
121
100
AcDbEntity
8
0
100
AcDbBlockEnd
0
BLOCK
5
126
100
AcDbEntity
8
0
100
AcDbBlockBegin
2
*D5
70
1
10
0
20
0
30
0
3
*D5
0
LINE
5
128
100
AcDbEntity
8
0
62
256
6
ByLayer
370
-2
48
1
60
0
100
AcDbLine
10
-46
20
-7.3375
30
0
11
-46
21
-34.412351
31
0
39
0
210
0
220
0
230
1
0
LINE
5
129
100
AcDbEntity
8
0
62
256
6
ByLayer
370
-2
48
1
60
0
100
AcDbLine
10
0
20
-7.3375
30
0
11
0
21
-34.412351
31
0
39
0
210
0
220
0
230
1
0
LINE
5
12A
100
AcDbEntity
8
0
62
256
6
ByLayer
370
-2
48
1
60
0
100
AcDbLine
10
-42.5
20
-32.412351
30
0
11
-3.5
21
-32.412351
31
0
39
0
210
0
220
0
230
1
0
SOLID
5
12B
100
AcDbEntity
8
0
62
256
6
ByLayer
370
-1
48
1
60
0
100
AcDbTrace
10
-42.5
20
-31.829017
30
0
11
-42.5
21
-32.995684
31
0
12
-46
22
-32.412351
32
0
13
-46
23
-32.412351
33
0
39
0
210
0
220
0
230
1
0
SOLID
5
12C
100
AcDbEntity
8
0
62
256
6
ByLayer
370
-1
48
1
60
0
100
AcDbTrace
10
-3.5
20
-32.995684
30
0
11
-3.5
21
-31.829017
31
0
12
0
22
-32.412351
32
0
13
0
23
-32.412351
33
0
39
0
210
0
220
0
230
1
0
MTEXT
5
12D
100
AcDbEntity
8
0
62
256
6
ByLayer
370
18
48
1
60
0
100
AcDbMText
10
-23
20
-26.412351
30
0
210
0
220
0
230
1
1
\A1;46
40
3
41
0
44
1
50
0
71
5
72
5
7
iso_b_vert
0
POINT
5
12E
100
AcDbEntity
8
Defpoints
62
0
6
ByLayer
370
-1
48
1
60
0
100
AcDbPoint
10
-46
20
-5.75
30
0
39
0
210
0
220
0
230
1
50
360
0
POINT
5
12F
100
AcDbEntity
8
Defpoints
62
0
6
ByLayer
370
-1
48
1
60
0
100
AcDbPoint
10
0
20
-5.75
30
0
39
0
210
0
220
0
230
1
50
360
0
POINT
5
130
100
AcDbEntity
8
Defpoints
62
0
6
ByLayer
370
-1
48
1
60
0
100
AcDbPoint
10
0
20
-32.412351
30
0
39
0
210
0
220
0
230
1
50
360
0
ENDBLK
5
127
100
AcDbEntity
8
0
100
AcDbBlockEnd
0
BLOCK
5
138
100
AcDbEntity
8
0
100
AcDbBlockBegin
2
_U2
70
0
10
0
20
0
30
0
3
_U2
0
MTEXT
5
132
100
AcDbEntity
8
SK2
62
256
6
ByLayer
370
18
48
1
60
0
100
AcDbMText
10
-27.640313
20
-31.527236
30
0
210
0
220
0
230
1
1
\W0.7694;46.00
40
3
41
0
44
1.084337
50
0
71
7
72
5
7
iso_b_vert
0
LINE
5
133
100
AcDbEntity
8
SK2
62
256
6
ByLayer
370
13
48
1
60
0
100
AcDbLine
10
-46
20
-7.3375
30
0
11
-46
21
-34.412351
31
0
39
0
210
0
220
0
230
1
0
LINE
5
134
100
AcDbEntity
8
SK2
62
256
6
ByLayer
370
13
48
1
60
0
100
AcDbLine
10
0
20
-7.3375
30
0
11
0
21
-34.412351
31
0
39
0
210
0
220
0
230
1
0
LINE
5
135
100
AcDbEntity
8
SK2
62
256
6
ByLayer
370
13
48
1
60
0
100
AcDbLine
10
-46
20
-32.412351
30
0
11
0
21
-32.412351
31
0
39
0
210
0
220
0
230
1
0
SOLID
5
136
100
AcDbEntity
8
SK2
62
256
6
ByLayer
370
18
48
1
60
0
100
AcDbTrace
10
-46
20
-32.412351
30
0
11
-42.500002
21
-31.951567
31
0
12
-42.499998
22
-32.873134
32
0
13
-42.499998
23
-32.873134
33
0
39
0
210
0
220
0
230
1
0
SOLID
5
137
100
AcDbEntity
8
SK2
62
256
6
ByLayer
370
18
48
1
60
0
100
AcDbTrace
10
0
20
-32.412351
30
0
11
-3.499998
21
-32.873134
31
0
12
-3.500002
22
-31.951567
32
0
13
-3.500002
23
-31.951567
33
0
39
0
210
0
220
0
230
1
0
ENDBLK
5
139
100
AcDbEntity
8
0
100
AcDbBlockEnd
0
BLOCK
5
13E
100
AcDbEntity
8
0
100
AcDbBlockBegin
2
*D7
70
1
10
0
20
0
30
0
3
*D7
0
LINE
5
140
100
AcDbEntity
8
0
62
256
6
ByLayer
370
-2
48
1
60
0
100
AcDbLine
10
96
20
-1.5875
30
0
11
96
21
-32.412351
31
0
39
0
210
0
220
0
230
1
0
LINE
5
141
100
AcDbEntity
8
0
62
256
6
ByLayer
370
-2
48
1
60
0
100
AcDbLine
10
25.5
20
-7.3375
30
0
11
25.5
21
-32.412351
31
0
39
0
210
0
220
0
230
1
0
LINE
5
142
100
AcDbEntity
8
0
62
256
6
ByLayer
370
-2
48
1
60
0
100
AcDbLine
10
92.5
20
-30.412351
30
0
11
29
21
-30.412351
31
0
39
0
210
0
220
0
230
1
0
SOLID
5
143
100
AcDbEntity
8
0
62
256
6
ByLayer
370
-1
48
1
60
0
100
AcDbTrace
10
92.5
20
-30.995684
30
0
11
92.5
21
-29.829017
31
0
12
96
22
-30.412351
32
0
13
96
23
-30.412351
33
0
39
0
210
0
220
0
230
1
0
SOLID
5
144
100
AcDbEntity
8
0
62
256
6
ByLayer
370
-1
48
1
60
0
100
AcDbTrace
10
29
20
-29.829017
30
0
11
29
21
-30.995684
31
0
12
25.5
22
-30.412351
32
0
13
25.5
23
-30.412351
33
0
39
0
210
0
220
0
230
1
0
MTEXT
5
145
100
AcDbEntity
8
0
62
256
6
ByLayer
370
18
48
1
60
0
100
AcDbMText
10
60.75
20
-24.412351
30
0
210
0
220
0
230
1
1
\A1;70.5
40
3
41
0
44
1
50
0
71
5
72
5
7
iso_b_vert
0
POINT
5
146
100
AcDbEntity
8
Defpoints
62
0
6
ByLayer
370
-1
48
1
60
0
100
AcDbPoint
10
96
20
0
30
0
39
0
210
0
220
0
230
1
50
360
0
POINT
5
147
100
AcDbEntity
8
Defpoints
62
0
6
ByLayer
370
-1
48
1
60
0
100
AcDbPoint
10
25.5
20
-5.75
30
0
39
0
210
0
220
0
230
1
50
360
0
POINT
5
148
100
AcDbEntity
8
Defpoints
62
0
6
ByLayer
370
-1
48
1
60
0
100
AcDbPoint
10
25.5
20
-30.412351
30
0
39
0
210
0
220
0
230
1
50
360
0
ENDBLK
5
13F
100
AcDbEntity
8
0
100
AcDbBlockEnd
0
BLOCK
5
150
100
AcDbEntity
8
0
100
AcDbBlockBegin
2
_U3
70
0
10
0
20
0
30
0
3
_U3
0
MTEXT
5
14A
100
AcDbEntity
8
2
62
256
6
ByLayer
370
18
48
1
60
0
100
AcDbMText
10
56.26763
20
-29.527236
30
0
210
0
220
0
230
1
1
\W0.7468;70.50
40
3
41
0
44
1.084337
50
0
71
7
72
5
7
iso_b_vert
0
LINE
5
14B
100
AcDbEntity
8
2
62
256
6
ByLayer
370
13
48
1
60
0
100
AcDbLine
10
96
20
-1.5875
30
0
11
96
21
-32.412351
31
0
39
0
210
0
220
0
230
1
0
LINE
5
14C
100
AcDbEntity
8
2
62
256
6
ByLayer
370
13
48
1
60
0
100
AcDbLine
10
25.5
20
-7.3375
30
0
11
25.5
21
-32.412351
31
0
39
0
210
0
220
0
230
1
0
LINE
5
14D
100
AcDbEntity
8
2
62
256
6
ByLayer
370
13
48
1
60
0
100
AcDbLine
10
96
20
-30.412351
30
0
11
25.5
21
-30.412351
31
0
39
0
210
0
220
0
230
1
0
SOLID
5
14E
100
AcDbEntity
8
2
62
256
6
ByLayer
370
18
48
1
60
0
100
AcDbTrace
10
96
20
-30.412351
30
0
11
92.500002
21
-30.873134
31
0
12
92.499998
22
-29.951567
32
0
13
92.499998
23
-29.951567
33
0
39
0
210
0
220
0
230
1
0
SOLID
5
14F
100
AcDbEntity
8
2
62
256
6
ByLayer
370
18
48
1
60
0
100
AcDbTrace
10
25.5
20
-30.412351
30
0
11
28.999998
21
-29.951567
31
0
12
29.000002
22
-30.873134
32
0
13
29.000002
23
-30.873134
33
0
39
0
210
0
220
0
230
1
0
ENDBLK
5
151
100
AcDbEntity
8
0
100
AcDbBlockEnd
0
ENDSEC
0
SECTION
2
ENTITIES
0
ARC
5
B7
100
AcDbEntity
8
2
62
256
6
ByLayer
370
13
48
1
60
0
100
AcDbCircle
39
0
10
96
20
0
30
0
40
22.0000000000001
210
0
220
0
230
1
100
AcDbArc
50
7.83748
51
61.596605
0
ARC
5
B8
100
AcDbEntity
8
2
62
256
6
ByLayer
370
13
48
1
60
0
100
AcDbCircle
39
0
10
96
20
0
30
0
40
22.0000000000001
210
0
220
0
230
1
100
AcDbArc
50
298.403395
51
352.16252
0
POINT
5
70
100
AcDbEntity
8
81
62
256
6
ByLayer
370
18
48
1
60
0
100
AcDbPoint
10
96
20
0
30
0
39
0
210
0
220
0
230
1
50
360
0
POINT
5
72
100
AcDbEntity
8
80
62
256
6
ByLayer
370
18
48
1
60
0
100
AcDbPoint
10
0
20
0
30
0
39
0
210
0
220
0
230
1
50
360
0
POINT
5
74
100
AcDbEntity
8
1
62
256
6
ByLayer
370
18
48
1
60
1
100
AcDbPoint
10
-46
20
-5.75
30
0
39
0
210
0
220
0
230
1
50
360
0
POINT
5
76
100
AcDbEntity
8
1
62
256
6
ByLayer
370
18
48
1
60
1
100
AcDbPoint
10
96
20
0
30
0
39
0
210
0
220
0
230
1
50
360
0
POINT
5
77
100
AcDbEntity
8
1
62
256
6
ByLayer
370
18
48
1
60
1
100
AcDbPoint
10
96
20
0
30
0
39
0
210
0
220
0
230
1
50
360
0
POINT
5
78
100
AcDbEntity
8
1
62
256
6
ByLayer
370
18
48
1
60
1
100
AcDbPoint
10
2
20
-5.75
30
0
39
0
210
0
220
0
230
1
50
360
0
POINT
5
79
100
AcDbEntity
8
1
62
256
6
ByLayer
370
18
48
1
60
1
100
AcDbPoint
10
-46
20
-5.75
30
0
39
0
210
0
220
0
230
1
50
360
0
POINT
5
7A
100
AcDbEntity
8
1
62
256
6
ByLayer
370
18
48
1
60
1
100
AcDbPoint
10
0
20
-5.75
30
0
39
0
210
0
220
0
230
1
50
360
0
POINT
5
7B
100
AcDbEntity
8
1
62
256
6
ByLayer
370
18
48
1
60
1
100
AcDbPoint
10
96
20
0
30
0
39
0
210
0
220
0
230
1
50
360
0
POINT
5
7C
100
AcDbEntity
8
1
62
256
6
ByLayer
370
18
48
1
60
1
100
AcDbPoint
10
25.5
20
-5.75
30
0
39
0
210
0
220
0
230
1
50
360
0
SPLINE
5
B9
100
AcDbEntity
8
NOCUT
62
256
6
ByLayer
370
18
48
1
60
0
100
AcDbSpline
70
2053
71
3
72
26
73
22
40
0
40
0
40
0
40
0
40
0.292415816104199
40
0.292415816104199
40
0.292415816104199
40
0.301605558614566
40
0.301605558614566
40
0.301605558614566
40
0.332471672536095
40
0.332471672536095
40
0.332471672536095
40
0.797087913679817
40
0.797087913679817
40
0.797087913679817
40
0.834287939668575
40
0.834287939668575
40
0.834287939668575
40
0.997390995230512
40
0.997390995230512
40
0.997390995230512
40
1
40
1
40
1
40
1
41
1
10
0
20
5.75
30
0
41
1
10
-15
20
5.75
30
0
41
1
10
-30
20
5.75
30
0
41
1
10
-45
20
5.75
30
0
41
1
10
-45.3333333333333
20
5.41666666666666
30
0
41
1
10
-45.6666666666667
20
5.08333333333334
30
0
41
1
10
-46
20
4.75
30
0
41
1
10
-46
20
3.16666666666666
30
0
41
1
10
-46
20
1.58333333333334
30
0
41
1
10
-46
20
0
30
0
41
1
10
-22.1666666666669
20
0
30
0
41
1
10
1.66666666666623
20
0
30
0
41
1
10
25.4999999999997
20
0
30
0
41
1
10
25.5000000000001
20
1.90824284839704
30
0
41
1
10
25.5000000000001
20
3.81648569679405
30
0
41
1
10
25.5000000000001
20
5.72472854519108
30
0
41
1
10
17.1333333333325
20
5.72159104519127
30
0
41
1
10
8.76666666666497
20
5.71845354519147
30
0
41
1
10
0.399999999701777
20
5.71531604521741
30
0
41
1
10
0.266666666270737
20
5.72687736349545
30
0
41
1
10
0.133333333135368
20
5.73843868174771
30
0
41
1
10
0
20
5.75
30
0
0
SPLINE
5
BB
100
AcDbEntity
8
CUT
62
256
6
ByLayer
370
18
48
1
60
0
100
AcDbSpline
70
2053
71
3
72
17
73
13
40
0
40
0
40
0
40
0
40
0.469523620258384
40
0.469523620258384
40
0.469523620258384
40
0.513058854402068
40
0.513058854402068
40
0.513058854402068
40
0.961873825936232
40
0.961873825936232
40
0.961873825936232
40
1
40
1
40
1
40
1
41
1
10
25.5000000000001
20
0
30
0
41
1
10
49.0000000000001
20
0
30
0
41
1
10
72.5000000000001
20
0
30
0
41
1
10
96.0000000000001
20
0
30
0
41
1
10
94.9635154321684
20
1.91666666668357
30
0
41
1
10
93.9270308643367
20
3.83333333336717
30
0
41
1
10
92.890546296505
20
5.75000000005073
30
0
41
1
10
70.427030864336
20
5.74157618176417
30
0
41
1
10
47.963515432167
20
5.73315236347764
30
0
41
1
10
25.4999999999991
20
5.72472854519108
30
0
41
1
10
25.5000000000001
20
3.81648569679405
30
0
41
1
10
25.5000000000001
20
1.90824284839704
30
0
41
1
10
25.5000000000001
20
0
30
0
0
SPLINE
5
BD
100
AcDbEntity
8
1
62
256
6
ByLayer
370
18
48
1
60
0
100
AcDbSpline
70
4
71
3
72
123
73
119
40
0
40
0
40
0
40
0
40
0.0312499999999997
40
0.0312499999999997
40
0.0624999999999995
40
0.0624999999999995
40
0.0937499999999992
40
0.0937499999999992
40
0.124999999999999
40
0.124999999999999
40
0.156249999999999
40
0.156249999999999
40
0.187499999999998
40
0.187499999999998
40
0.218749999999998
40
0.218749999999998
40
0.234374999999996
40
0.234374999999996
40
0.249999999999995
40
0.249999999999995
40
0.265624999999993
40
0.265624999999993
40
0.273437499999992
40
0.273437499999992
40
0.281249999999991
40
0.281249999999991
40
0.28906249999999
40
0.28906249999999
40
0.296874999999989
40
0.296874999999989
40
0.304687499999988
40
0.304687499999988
40
0.312499999999988
40
0.312499999999988
40
0.320312499999987
40
0.320312499999987
40
0.328124999999986
40
0.328124999999986
40
0.335937499999985
40
0.335937499999985
40
0.343749999999984
40
0.343749999999984
40
0.359374999999982
40
0.359374999999982
40
0.37499999999998
40
0.37499999999998
40
0.390624999999978
40
0.390624999999978
40
0.406249999999976
40
0.406249999999976
40
0.421874999999975
40
0.421874999999975
40
0.437499999999973
40
0.437499999999973
40
0.453124999999971
40
0.453124999999971
40
0.46093749999997
40
0.46093749999997
40
0.468749999999969
40
0.468749999999969
40
0.484374999999967
40
0.484374999999967
40
0.492187499999967
40
0.492187499999967
40
0.496093749999967
40
0.496093749999967
40
0.499999999999967
40
0.499999999999967
40
0.515624999999966
40
0.515624999999966
40
0.523437499999966
40
0.523437499999966
40
0.527343749999966
40
0.527343749999966
40
0.531249999999967
40
0.531249999999967
40
0.546874999999969
40
0.562499999999972
40
0.562499999999972
40
0.570312499999974
40
0.570312499999974
40
0.578124999999975
40
0.578124999999975
40
0.593749999999978
40
0.593749999999978
40
0.60937499999998
40
0.60937499999998
40
0.61718749999998
40
0.61718749999998
40
0.62499999999998
40
0.62499999999998
40
0.640624999999979
40
0.640624999999979
40
0.656249999999979
40
0.656249999999979
40
0.687499999999978
40
0.687499999999978
40
0.703124999999979
40
0.703124999999979
40
0.71874999999998
40
0.71874999999998
40
0.749999999999982
40
0.749999999999982
40
0.781249999999984
40
0.781249999999984
40
0.812499999999987
40
0.812499999999987
40
0.843749999999989
40
0.843749999999989
40
0.874999999999991
40
0.874999999999991
40
0.906249999999993
40
0.906249999999993
40
0.937499999999996
40
0.937499999999996
40
0.968749999999998
40
0.968749999999998
40
1
40
1
40
1
40
1
41
1
10
92.890546296505
20
5.56720738640223
30
0
41
1
10
92.9497066657615
20
5.45496702099311
30
0
41
1
10
93.008928178694
20
5.34282185521135
30
0
41
1
10
93.1272781105429
20
5.11850622057534
30
0
41
1
10
93.1864061582002
20
5.00633606490271
30
0
41
1
10
93.3044836557567
20
4.78190084551932
30
0
41
1
10
93.3634351712007
20
4.66963783496388
30
0
41
1
10
93.4810976709108
20
4.4449766835564
30
0
41
1
10
93.5398075972766
20
4.33257775351271
30
0
41
1
10
93.6569580383458
20
4.10764045057917
30
0
41
1
10
93.7153995578666
20
3.99510297363318
30
0
41
1
10
93.8319877522157
20
3.76988979943749
30
0
41
1
10
93.8901412623176
20
3.65721973181778
30
0
41
1
10
94.0060777404342
20
3.4317037527459
30
0
41
1
10
94.0638620903473
20
3.31885840533448
30
0
41
1
10
94.1500974778132
20
3.14935291851543
30
0
41
1
10
94.1787619979631
20
3.09280606219551
30
0
41
1
10
94.2359487532
20
2.97964380203433
30
0
41
1
10
94.2644785659115
20
2.92303437719372
30
0
41
1
10
94.3214041274933
20
2.80975887912507
30
0
41
1
10
94.3497880305064
20
2.7530866605438
30
0
41
1
10
94.3921868742088
20
2.66797064352991
30
0
41
1
10
94.4062919757524
20
2.63958002121308
30
0
41
1
10
94.4344473967414
20
2.58277717415069
30
0
41
1
10
94.4484933717242
20
2.55435245289664
30
0
41
1
10
94.4765892606088
20
2.49767000333134
30
0
41
1
10
94.4906402406941
20
2.46941557745913
30
0
41
1
10
94.518831748898
20
2.41330491209098
30
0
41
1
10
94.532977383317
20
2.38546248059444
30
0
41
1
10
94.5614018376599
20
2.33025734506089
30
0
41
1
10
94.5756785172139
20
2.30288823918295
30
0
41
1
10
94.6043771457523
20
2.24862412388183
30
0
41
1
10
94.6187929619828
20
2.22171272047669
30
0
41
1
10
94.6478206055849
20
2.16846720328118
30
0
41
1
10
94.6624440940352
20
2.14216407848446
30
0
41
1
10
94.6919736080459
20
2.0903260185712
30
0
41
1
10
94.706888455137
20
2.06481253050887
30
0
41
1
10
94.7367505827668
20
2.01387855021858
30
0
41
1
10
94.7517042049215
20
1.98847550909596
30
0
41
1
10
94.7815142284113
20
1.93743230573278
30
0
41
1
10
94.7963676437167
20
1.91178525405525
30
0
41
1
10
94.8408033734953
20
1.83456226585616
30
0
41
1
10
94.8702734518908
20
1.78273310148387
30
0
41
1
10
94.9288313996256
20
1.67830447212924
30
0
41
1
10
94.957930062161
20
1.62567063066331
30
0
41
1
10
95.0155625476845
20
1.51971935074144
30
0
41
1
10
95.0440968938262
20
1.46640356409452
30
0
41
1
10
95.1004446667885
20
1.35900766628265
30
0
41
1
10
95.1282615215696
20
1.30493052720121
30
0
41
1
10
95.1828875902122
20
1.19582704835068
30
0
41
1
10
95.2097004115477
20
1.14080352137009
30
0
41
1
10
95.2618890530691
20
1.02956647982424
30
0
41
1
10
95.2872658600392
20
0.973351841502023
30
0
41
1
10
95.335948463301
20
0.859423414187489
30
0
41
1
10
95.3592640489134
20
0.801716475046106
30
0
41
1
10
95.3919054706358
20
0.713639616055815
30
0
41
1
10
95.4024089437829
20
0.683974439998394
30
0
41
1
10
95.422314498178
20
0.624480122842471
30
0
41
1
10
95.431734510035
20
0.594618842850508
30
0
41
1
10
95.4580813519001
20
0.504619564723782
30
0
41
1
10
95.4730923509329
20
0.444066809359072
30
0
41
1
10
95.4899978211761
20
0.352011058124049
30
0
41
1
10
95.4946961148068
20
0.321120841576743
30
0
41
1
10
95.5000455399406
20
0.274415778007579
30
0
41
1
10
95.5015462212204
20
0.2587570402886
30
0
41
1
10
95.5039172178025
20
0.227609142567047
30
0
41
1
10
95.5047922994581
20
0.212089854673309
30
0
41
1
10
95.5075853715563
20
0.134775421824628
30
0
41
1
10
95.504651018701
20
0.0738488667940942
30
0
41
1
10
95.4930260161192
20
-0.0161814455652234
30
0
41
1
10
95.4879835907612
20
-0.045976048575028
30
0
41
1
10
95.4788864673628
20
-0.0903845596641304
30
0
41
1
10
95.4755961315323
20
-0.105124816471346
30
0
41
1
10
95.468579911698
20
-0.134252651515169
30
0
41
1
10
95.4648478238242
20
-0.148671927022349
30
0
41
1
10
95.445153228809
20
-0.220065034093608
30
0
41
1
10
95.40706333948
20
-0.329794691151164
30
0
41
1
10
95.3597842779725
20
-0.431699468232864
30
0
41
1
10
95.3219379455968
20
-0.505584754902316
30
0
41
1
10
95.3089725376746
20
-0.52967486023698
30
0
41
1
10
95.2826310343461
20
-0.576587692840349
30
0
41
1
10
95.2692316755491
20
-0.599461971341412
30
0
41
1
10
95.2284788368221
20
-0.666402389767654
30
0
41
1
10
95.2005662152712
20
-0.708721166773131
30
0
41
1
10
95.1438243283739
20
-0.789640514466186
30
0
41
1
10
95.1149962034297
20
-0.828279773338892
30
0
41
1
10
95.0712231249539
20
-0.883569131222885
30
0
41
1
10
95.0565426485358
20
-0.901554135776678
30
0
41
1
10
95.0270277036791
20
-0.936699477483955
30
0
41
1
10
95.012179600959
20
-0.953873966685791
30
0
41
1
10
94.9677740071446
20
-1.00387094394503
30
0
41
1
10
94.9382433787961
20
-1.03530541013575
30
0
41
1
10
94.8793395366931
20
-1.09476142781705
30
0
41
1
10
94.8499711090934
20
-1.12267058072234
30
0
41
1
10
94.7621507623531
20
-1.19991457755808
30
0
41
1
10
94.7039470876054
20
-1.24321569444544
30
0
41
1
10
94.6165939219284
20
-1.30640223615259
30
0
41
1
10
94.5874694546378
20
-1.32723282482382
30
0
41
1
10
94.5291835861696
20
-1.36922562398345
30
0
41
1
10
94.5000234276757
20
-1.39036215128539
30
0
41
1
10
94.412489243062
20
-1.45466487600137
30
0
41
1
10
94.3540687463016
20
-1.4985562447423
30
0
41
1
10
94.2371678178518
20
-1.5873769655407
30
0
41
1
10
94.1786874893249
20
-1.63226565836774
30
0
41
1
10
94.0616995137293
20
-1.7228279668316
30
0
41
1
10
94.0031904275596
20
-1.76846498303485
30
0
41
1
10
93.886151464322
20
-1.86069050469448
30
0
41
1
10
93.8276212712973
20
-1.90731539824324
30
0
41
1
10
93.7105462823879
20
-2.00194341589034
30
0
41
1
10
93.6520016918033
20
-2.04992135951991
30
0
41
1
10
93.5349033552928
20
-2.14735448064411
30
0
41
1
10
93.4763495527065
20
-2.19681714386996
30
0
41
1
10
93.3592333860991
20
-2.29767310154699
30
0
41
1
10
93.3006713137041
20
-2.34902332974696
30
0
41
1
10
93.1835327719509
20
-2.45468438265388
30
0
41
1
10
93.1249560438619
20
-2.50908917880673
30
0
41
1
10
93.0077737974483
20
-2.62174213609052
30
0
41
1
10
92.9491671847995
20
-2.68000478427785
30
0
41
1
10
92.890546296505
20
-2.73904341550391
30
0
0
SPLINE
5
BE
100
AcDbEntity
8
1
62
256
6
ByLayer
370
18
48
1
60
0
100
AcDbSpline
70
4
71
3
72
20
73
16
40
0
40
0
40
0
40
0
40
0.0402198118055661
40
0.108975822458689
40
0.177731833111811
40
0.315243854418057
40
0.452755875724302
40
0.590267897030547
40
0.727779918336792
40
0.796535928989915
40
0.830913934316476
40
0.865291939643038
40
0.899669944969599
40
0.93404795029616
40
1
40
1
40
1
40
1
41
1
10
20.3479627907026
20
5.13387956073598
30
0
41
1
10
20.3327473546253
20
5.08720231331856
30
0
41
1
10
20.2907169150512
20
4.96107980620818
30
0
41
1
10
20.2171585171695
20
4.75760804695537
30
0
41
1
10
20.0904231763686
20
4.4475191731035
30
0
41
1
10
19.9085962036639
20
4.07579089489775
30
0
41
1
10
19.6521184420587
20
3.6585568273718
30
0
41
1
10
19.3570937160349
20
3.27006475703024
30
0
41
1
10
19.0789640014585
20
2.96916640068554
30
0
41
1
10
18.870980588182
20
2.77551770559504
30
0
41
1
10
18.7488857177348
20
2.66885850415704
30
0
41
1
10
18.6556046258479
20
2.59087341802402
30
0
41
1
10
18.5603461219461
20
2.51521165398333
30
0
41
1
10
18.4334879984191
20
2.41953891154543
30
0
41
1
10
18.3367603078491
20
2.351467227239
30
0
41
1
10
18.2745453116838
20
2.30485469059747
30
0
0
SPLINE
5
BF
100
AcDbEntity
8
1
62
256
6
ByLayer
370
18
48
1
60
0
100
AcDbSpline
70
4
71
3
72
84
73
80
40
0
40
0
40
0
40
0
40
0.0304952423659087
40
0.0304952423659087
40
0.0609904847318175
40
0.0609904847318175
40
0.0762381059147718
40
0.0762381059147718
40
0.0914857270977262
40
0.0914857270977262
40
0.121980969463635
40
0.121980969463635
40
0.152476211829544
40
0.152476211829544
40
0.182971454195452
40
0.182971454195452
40
0.213466696561361
40
0.213466696561361
40
0.24396193892727
40
0.24396193892727
40
0.274457181293179
40
0.274457181293179
40
0.304952423659087
40
0.304952423659087
40
0.320200044842042
40
0.320200044842042
40
0.335447666024996
40
0.335447666024996
40
0.343071476616472
40
0.343071476616472
40
0.350695287207948
40
0.350695287207948
40
0.365942908390899
40
0.365942908390899
40
0.396438150756805
40
0.396438150756805
40
0.426933393122711
40
0.426933393122711
40
0.442181014305664
40
0.442181014305664
40
0.457428635488617
40
0.457428635488617
40
0.487923877854522
40
0.487923877854522
40
0.518419120220428
40
0.518419120220428
40
0.548914362586334
40
0.548914362586334
40
0.57940960495224
40
0.57940960495224
40
0.609904847318146
40
0.609904847318146
40
0.640400089684051
40
0.640400089684051
40
0.670895332049957
40
0.670895332049957
40
0.686142953232911
40
0.686142953232911
40
0.701390574415865
40
0.701390574415865
40
0.731885816781772
40
0.731885816781772
40
0.76238105914768
40
0.76238105914768
40
0.792876301513587
40
0.792876301513587
40
0.823371543879494
40
0.823371543879494
40
0.853866786245402
40
0.853866786245402
40
0.884362028611309
40
0.884362028611309
40
0.914857270977217
40
0.914857270977217
40
0.945352513343124
40
0.945352513343124
40
0.975847755709032
40
0.975847755709032
40
1
40
1
40
1
40
1
41
1
10
92.8905462965049
20
-2.73904341550386
30
0
41
1
10
92.6704780449898
20
-2.63180794637853
30
0
41
1
10
92.4508705224757
20
-2.52317818100374
30
0
41
1
10
92.012771902404
20
-2.30280858252064
30
0
41
1
10
91.7943206856536
20
-2.1909970025867
30
0
41
1
10
91.4671467695375
20
-2.02153474506415
30
0
41
1
10
91.3581689090411
20
-1.96476320199881
30
0
41
1
10
91.1402920775159
20
-1.8507979139136
30
0
41
1
10
91.0313982895711
20
-1.79359514161237
30
0
41
1
10
90.7048774265023
20
-1.62128243595811
30
0
41
1
10
90.4874208308128
20
-1.50545110830319
30
0
41
1
10
90.0531079085697
20
-1.27160404489416
30
0
41
1
10
89.8362110280219
20
-1.15365897116752
30
0
41
1
10
89.4023300307489
20
-0.916822317642158
30
0
41
1
10
89.185293530184
20
-0.798027723782553
30
0
41
1
10
88.7511515028662
20
-0.559469265991879
30
0
41
1
10
88.5341070614164
20
-0.439592901231606
30
0
41
1
10
88.0999179523689
20
-0.198916464958415
30
0
41
1
10
87.8827246848217
20
-0.0782048427139443
30
0
41
1
10
87.447544431313
20
0.162859788039498
30
0
41
1
10
87.2295979544543
20
0.283285987045133
30
0
41
1
10
86.7931859031747
20
0.524296198491328
30
0
41
1
10
86.574775080966
20
0.644985143145334
30
0
41
1
10
86.2464891453092
20
0.825624500250228
30
0
41
1
10
86.1369450140828
20
0.885764485279367
30
0
41
1
10
85.9175393865153
20
1.00573463558061
30
0
41
1
10
85.8076769745044
20
1.06556289222487
30
0
41
1
10
85.642656740453
20
1.15509508446991
30
0
41
1
10
85.5876086073399
20
1.18490602767039
30
0
41
1
10
85.4776267342282
20
1.2443618395526
30
0
41
1
10
85.422669714177
20
1.27401946291152
30
0
41
1
10
85.2579056182422
20
1.3627926708341
30
0
41
1
10
85.1482087993086
20
1.42171494963847
30
0
41
1
10
84.8195704997501
20
1.59773268359635
30
0
41
1
10
84.6010618857102
20
1.71403802564439
30
0
41
1
10
84.164617750068
20
1.94352497809416
30
0
41
1
10
83.9466190051789
20
2.05660036370912
30
0
41
1
10
83.6200106259562
20
2.2238557159537
30
0
41
1
10
83.5112098737318
20
2.27922060318525
30
0
41
1
10
83.2937782929288
20
2.38923252934032
30
0
41
1
10
83.1851500083957
20
2.44388339335987
30
0
41
1
10
82.859432133914
20
2.60660703071073
30
0
41
1
10
82.6425129464026
20
2.71345298121571
30
0
41
1
10
82.2085018922206
20
2.92287811301932
30
0
41
1
10
81.9914396139481
20
3.02551313001405
30
0
41
1
10
81.5573913256641
20
3.22693870893946
30
0
41
1
10
81.340466728032
20
3.32581808670588
30
0
41
1
10
80.9063967739346
20
3.51923627705986
30
0
41
1
10
80.6891895610678
20
3.61368374829382
30
0
41
1
10
80.2540691509148
20
3.79753961823897
30
0
41
1
10
80.0362096615992
20
3.88703058268354
30
0
41
1
10
79.6001085941161
20
4.06139486567702
30
0
41
1
10
79.3818518916262
20
4.14623913779181
30
0
41
1
10
78.9443442042149
20
4.31042270826839
30
0
41
1
10
78.7250228175907
20
4.38967712080657
30
0
41
1
10
78.39518910453
20
4.50428448740055
30
0
41
1
10
78.285037559651
20
4.54180401525437
30
0
41
1
10
78.0651972919337
20
4.61522344643151
30
0
41
1
10
77.9554444875139
20
4.65115558791845
30
0
41
1
10
77.6266054048632
20
4.75653065539407
30
0
41
1
10
77.4079417016656
20
4.82354836657257
30
0
41
1
10
76.9710964364266
20
4.95055444947783
30
0
41
1
10
76.7529271179178
20
5.01057095925563
30
0
41
1
10
76.3172688526296
20
5.1238860992668
30
0
41
1
10
76.0998450970365
20
5.17723164686569
30
0
41
1
10
75.6654352967157
20
5.27698267573095
30
0
41
1
10
75.448389946044
20
5.32334169035499
30
0
41
1
10
75.0141934668823
20
5.40880208832846
30
0
41
1
10
74.7970959093493
20
5.44795066314884
30
0
41
1
10
74.3631295221228
20
5.51921194439373
30
0
41
1
10
74.1462626726411
20
5.55131135944356
30
0
41
1
10
73.7122042601187
20
5.60813122026107
30
0
41
1
10
73.4949404724051
20
5.63282916366515
30
0
41
1
10
73.0598836806947
20
5.6748017827706
30
0
41
1
10
72.8421472692687
20
5.69209736548532
30
0
41
1
10
72.4063159334708
20
5.71922073202063
30
0
41
1
10
72.1881743048117
20
5.72902518186132
30
0
41
1
10
71.7962901967054
20
5.73971749876981
30
0
41
1
10
71.6227399574379
20
5.74204473621188
30
0
41
1
10
71.4488784349214
20
5.74195986574031
30
0
0
SPLINE
5
C0
100
AcDbEntity
8
1
62
256
6
ByLayer
370
18
48
1
60
0
100
AcDbSpline
70
4
71
3
72
144
73
140
40
0
40
0
40
0
40
0
40
0.0133449305083388
40
0.0133449305083388
40
0.0300678977878615
40
0.0300678977878615
40
0.0467908650673842
40
0.0467908650673842
40
0.0635138323469068
40
0.0635138323469068
40
0.0802367996264292
40
0.0802367996264292
40
0.0969597669059519
40
0.0969597669059519
40
0.113682734185475
40
0.113682734185475
40
0.130405701464997
40
0.130405701464997
40
0.14712866874452
40
0.14712866874452
40
0.163851636024043
40
0.163851636024043
40
0.172213119663804
40
0.172213119663804
40
0.180574603303565
40
0.180574603303565
40
0.197297570583087
40
0.197297570583087
40
0.214020537862609
40
0.214020537862609
40
0.23074350514213
40
0.23074350514213
40
0.247466472421652
40
0.247466472421652
40
0.264189439701174
40
0.264189439701174
40
0.280912406980695
40
0.280912406980695
40
0.297635374260217
40
0.297635374260217
40
0.314358341539739
40
0.314358341539739
40
0.33108130881926
40
0.33108130881926
40
0.339442792459021
40
0.339442792459021
40
0.347804276098782
40
0.347804276098782
40
0.356165759738542
40
0.356165759738542
40
0.364527243378303
40
0.364527243378303
40
0.381250210657824
40
0.381250210657824
40
0.397973177937345
40
0.397973177937345
40
0.414696145216866
40
0.414696145216866
40
0.431419112496387
40
0.431419112496387
40
0.448142079775908
40
0.448142079775908
40
0.464865047055429
40
0.464865047055429
40
0.473226530695189
40
0.473226530695189
40
0.48158801433495
40
0.48158801433495
40
0.498310981614471
40
0.498310981614471
40
0.515033948893992
40
0.515033948893992
40
0.531756916173513
40
0.531756916173513
40
0.535937657993393
40
0.535937657993393
40
0.540118399813272
40
0.540118399813272
40
0.548479883453032
40
0.548479883453032
40
0.56520285073255
40
0.56520285073255
40
0.581925818012069
40
0.581925818012069
40
0.598648785291587
40
0.598648785291587
40
0.607010268931346
40
0.607010268931346
40
0.615371752571105
40
0.615371752571105
40
0.632094719850623
40
0.632094719850623
40
0.648817687130141
40
0.648817687130141
40
0.665540654409659
40
0.665540654409659
40
0.682263621689177
40
0.682263621689177
40
0.698986588968695
40
0.698986588968695
40
0.715709556248213
40
0.715709556248213
40
0.724071039887972
40
0.724071039887972
40
0.728251781707851
40
0.728251781707851
40
0.732432523527731
40
0.732432523527731
40
0.749155490807248
40
0.749155490807248
40
0.765878458086765
40
0.765878458086765
40
0.782601425366282
40
0.782601425366282
40
0.799324392645798
40
0.799324392645798
40
0.816047359925315
40
0.816047359925315
40
0.832770327204832
40
0.832770327204832
40
0.849493294484349
40
0.849493294484349
40
0.866216261763865
40
0.866216261763865
40
0.882939229043382
40
0.882939229043382
40
0.899662196322899
40
0.899662196322899
40
0.908023679962657
40
0.908023679962657
40
0.916385163602415
40
0.916385163602415
40
0.933108130881932
40
0.933108130881932
40
0.949831098161449
40
0.949831098161449
40
0.966554065440966
40
0.966554065440966
40
1
40
1
40
1
40
1
41
1
10
48.2758718919968
20
-3.53254433730572
30
0
41
1
10
48.1011869264585
20
-3.6085324153469
30
0
41
1
10
47.9268418558796
20
-3.68300034615965
30
0
41
1
10
47.5345676942369
20
-3.84705193563502
30
0
41
1
10
47.316716981227
20
-3.93560343142195
30
0
41
1
10
46.8812407577778
20
-4.10684581298844
30
0
41
1
10
46.6636685433002
20
-4.18961783727951
30
0
41
1
10
46.2290817408468
20
-4.34977140931605
30
0
41
1
10
46.0120650582942
20
-4.42713803298028
30
0
41
1
10
45.5780259637071
20
-4.57577834414226
30
0
41
1
10
45.3609311284339
20
-4.64697716796326
30
0
41
1
10
44.9265461534954
20
-4.78312976126256
30
0
41
1
10
44.7093126532603
20
-4.84814460316474
30
0
41
1
10
44.2748145878253
20
-4.97204488124902
30
0
41
1
10
44.0575034799354
20
-5.03087496464883
30
0
41
1
10
43.6221237696998
20
-5.14169593835331
30
0
41
1
10
43.4040412221883
20
-5.19368760300497
30
0
41
1
10
42.9672594837319
20
-5.29094882804512
30
0
41
1
10
42.7486243449904
20
-5.33625995716091
30
0
41
1
10
42.3105601366207
20
-5.41990550443202
30
0
41
1
10
42.0910748769066
20
-5.45819904788206
30
0
41
1
10
41.7607980307896
20
-5.51008405925356
30
0
41
1
10
41.6507096095348
20
-5.52643637304115
30
0
41
1
10
41.430902719476
20
-5.55723029178677
30
0
41
1
10
41.3211310728646
20
-5.57168061924347
30
0
41
1
10
40.9922588331447
20
-5.6122241894648
30
0
41
1
10
40.7736149766004
20
-5.63550613115953
30
0
41
1
10
40.3369791097064
20
-5.67442249660405
30
0
41
1
10
40.1189149863225
20
-5.69004413576585
30
0
41
1
10
39.6831832798123
20
-5.7137160979012
30
0
41
1
10
39.4655715303626
20
-5.72178062409608
30
0
41
1
10
39.0309526253255
20
-5.73037645801284
30
0
41
1
10
38.8139007216827
20
-5.73089082232332
30
0
41
1
10
38.3796943915346
20
-5.72437699175779
30
0
41
1
10
38.1625077581028
20
-5.71736536632022
30
0
41
1
10
37.7281263804747
20
-5.69585892763206
30
0
41
1
10
37.5109950696685
20
-5.6813460950217
30
0
41
1
10
37.0766136692008
20
-5.64477759937287
30
0
41
1
10
36.8593117528204
20
-5.6227303326317
30
0
41
1
10
36.4239375290867
20
-5.57130268709557
30
0
41
1
10
36.2059153175417
20
-5.54191734560973
30
0
41
1
10
35.7694057512537
20
-5.47565054212618
30
0
41
1
10
35.5509588124934
20
-5.43873354646288
30
0
41
1
10
35.2226060118924
20
-5.37781445467749
30
0
41
1
10
35.1130377609802
20
-5.35658750453018
30
0
41
1
10
34.8935851843823
20
-5.31234302874165
30
0
41
1
10
34.7837057894214
20
-5.28932308531696
30
0
41
1
10
34.563658256494
20
-5.24146860779513
30
0
41
1
10
34.4534313309252
20
-5.21661962578543
30
0
41
1
10
34.2334384772474
20
-5.16524461197332
30
0
41
1
10
34.1235983742809
20
-5.13869678001103
30
0
41
1
10
33.7945312823042
20
-5.05648994972162
30
0
41
1
10
33.5757417935136
20
-4.99827466831141
30
0
41
1
10
33.1387240898052
20
-4.87565643461647
30
0
41
1
10
32.9204475814664
20
-4.81131111886194
30
0
41
1
10
32.4844852945466
20
-4.67650595587818
30
0
41
1
10
32.266861812656
20
-4.60597591276175
30
0
41
1
10
31.832149205842
20
-4.45885153311559
30
0
41
1
10
31.6150108189211
20
-4.38230772393879
30
0
41
1
10
31.180590189825
20
-4.22398926756128
30
0
41
1
10
30.9633519372059
20
-4.14217170171992
30
0
41
1
10
30.529021665369
20
-3.97297382951598
30
0
41
1
10
30.3119812800346
20
-3.88551662348215
30
0
41
1
10
29.9862417930425
20
-3.7505026197156
30
0
41
1
10
29.8776286615154
20
-3.70486534673825
30
0
41
1
10
29.6602501104858
20
-3.61244857425174
30
0
41
1
10
29.5514850639705
20
-3.56566926947008
30
0
41
1
10
29.2249900563573
20
-3.42358238989726
30
0
41
1
10
29.007062917411
20
-3.32652619765989
30
0
41
1
10
28.5708688120395
20
-3.12740124025686
30
0
41
1
10
28.3525695270081
20
-3.02537153530514
30
0
41
1
10
27.9149733187759
20
-2.81726255354488
30
0
41
1
10
27.6956145879933
20
-2.71129492684531
30
0
41
1
10
27.4207619320513
20
-2.57634427577168
30
0
41
1
10
27.3657596305304
20
-2.54922771847208
30
0
41
1
10
27.2556950560862
20
-2.49473382618603
30
0
41
1
10
27.2006092515205
20
-2.46734470159126
30
0
41
1
10
27.0354829687654
20
-2.3848800025327
30
0
41
1
10
26.9255706600358
20
-2.32950296637847
30
0
41
1
10
26.5962520387655
20
-2.16234451796478
30
0
41
1
10
26.3772654331284
20
-2.04953261163271
30
0
41
1
10
25.9397874518851
20
-1.82229216698749
30
0
41
1
10
25.7213301447409
20
-1.70780390087961
30
0
41
1
10
25.2851654545724
20
-1.4767629727954
30
0
41
1
10
25.0675166246463
20
-1.36010317112604
30
0
41
1
10
24.741358004551
20
-1.18401363779861
30
0
41
1
10
24.632686564082
20
-1.12514178060061
30
0
41
1
10
24.4153549522313
20
-1.00720316893228
30
0
41
1
10
24.3066910541309
20
-0.94814330955009
30
0
41
1
10
23.9807291392646
20
-0.770649739283527
30
0
41
1
10
23.7634598408339
20
-0.651904555881202
30
0
41
1
10
23.3292125214784
20
-0.413187160287237
30
0
41
1
10
23.1122115947885
20
-0.293255727860867
30
0
41
1
10
22.6778757510756
20
-0.0533151501030602
30
0
41
1
10
22.4604716351562
20
0.0665647080056715
30
0
41
1
10
22.0252240131398
20
0.306202475699365
30
0
41
1
10
21.8074392280394
20
0.426069903562876
30
0
41
1
10
21.3715137103897
20
0.665848165504599
30
0
41
1
10
21.1533261875046
20
0.785672425283195
30
0
41
1
10
20.7158668858381
20
1.02400241261554
30
0
41
1
10
20.4966115662763
20
1.14253762708785
30
0
41
1
10
20.167070462744
20
1.31964741003981
30
0
41
1
10
20.0571211474474
20
1.37858272060399
30
0
41
1
10
19.892032985054
20
1.46681502045538
30
0
41
1
10
19.8369656988893
20
1.49619904285905
30
0
41
1
10
19.726951397948
20
1.55478906737269
30
0
41
1
10
19.6719819097998
20
1.58400720653427
30
0
41
1
10
19.3973005660844
20
1.72967382401046
30
0
41
1
10
19.1780476715466
20
1.84477425843059
30
0
41
1
10
18.7401235691101
20
2.07146382618242
30
0
41
1
10
18.5215055450322
20
2.18315604150922
30
0
41
1
10
18.0851759167028
20
2.40365285283025
30
0
41
1
10
17.8674544056641
20
2.51243110173854
30
0
41
1
10
17.4323310815551
20
2.72610400549979
30
0
41
1
10
17.2148573490218
20
2.83088553478689
30
0
41
1
10
16.7800717333848
20
3.03636952004464
30
0
41
1
10
16.5628174855219
20
3.13716411845374
30
0
41
1
10
16.1286054240384
20
3.33486643373328
30
0
41
1
10
15.91160138419
20
3.43169626243645
30
0
41
1
10
15.4771602466568
20
3.6203692472991
30
0
41
1
10
15.2597216995576
20
3.71221937732793
30
0
41
1
10
14.8245844327462
20
3.89120032557204
30
0
41
1
10
14.6069504988609
20
3.97841576078142
30
0
41
1
10
14.1712259183578
20
4.14779243969608
30
0
41
1
10
13.9530785405187
20
4.22987684538612
30
0
41
1
10
13.5157468000667
20
4.38822649981509
30
0
41
1
10
13.2966161235109
20
4.46456725941829
30
0
41
1
10
12.9673823276798
20
4.57497487613804
30
0
41
1
10
12.8575499003806
20
4.61109409761713
30
0
41
1
10
12.6376425829859
20
4.68187502648001
30
0
41
1
10
12.5275058509115
20
4.71655635660781
30
0
41
1
10
12.1973534633706
20
4.81804641946948
30
0
41
1
10
11.9773789760426
20
4.88228670649818
30
0
41
1
10
11.5375999848016
20
5.00394028862866
30
0
41
1
10
11.3178562570265
20
5.06141203836165
30
0
41
1
10
10.8787283505046
20
5.16967712048614
30
0
41
1
10
10.6592971075107
20
5.22041956737547
30
0
41
1
10
10.000427861595
20
5.36174795722701
30
0
41
1
10
9.56035468152911
20
5.44152914269625
30
0
41
1
10
9.12013433623324
20
5.50704229547048
30
0
0
SPLINE
5
C1
100
AcDbEntity
8
1
62
256
6
ByLayer
370
18
48
1
60
0
100
AcDbSpline
70
4
71
3
72
18
73
14
40
0
40
0
40
0
40
0
40
0.183032872018735
40
0.183032872018735
40
0.36606574403747
40
0.36606574403747
40
0.549098616056206
40
0.549098616056206
40
0.732131488074941
40
0.732131488074941
40
0.915164360093676
40
0.915164360093676
40
1
40
1
40
1
40
1
41
1
10
20.3479634848343
20
5.13387944174224
30
0
41
1
10
20.0689077475911
20
5.06074257495698
30
0
41
1
10
19.7904233046929
20
4.98154366541522
30
0
41
1
10
19.2340706895087
20
4.81177816399165
30
0
41
1
10
18.9562022096485
20
4.72120447428901
30
0
41
1
10
18.4001989603219
20
4.52984713262205
30
0
41
1
10
18.122060090548
20
4.42906292190756
30
0
41
1
10
17.5643793727453
20
4.21894703600768
30
0
41
1
10
17.2848426679793
20
4.10960326882665
30
0
41
1
10
16.7229503532896
20
3.88471419891002
30
0
41
1
10
16.440578479642
20
3.76918720434202
30
0
41
1
10
16.0241223682761
20
3.59778326035601
30
0
41
1
10
15.8917616347929
20
3.54315020218681
30
0
41
1
10
15.7588526355128
20
3.48835157183183
30
0
0
SPLINE
5
C2
100
AcDbEntity
8
1
62
256
6
ByLayer
370
18
48
1
60
0
100
AcDbSpline
70
4
71
3
72
18
73
14
40
0
40
0
40
0
40
0
40
0.0582327417256597
40
0.0582327417256597
40
0.372155161150432
40
0.372155161150432
40
0.450635766006628
40
0.450635766006628
40
0.529116370862823
40
0.529116370862823
40
0.686077580575216
40
0.686077580575216
40
1
40
1
40
1
40
1
41
1
10
6.43430523383736
20
5.71758092362683
30
0
41
1
10
6.48459828152789
20
5.71757437973247
30
0
41
1
10
6.53502246818204
20
5.71728877622758
30
0
41
1
10
6.8580891568981
20
5.71374592601143
30
0
41
1
10
7.13431731370798
20
5.70293046078487
30
0
41
1
10
7.48375148197394
20
5.68102338165525
30
0
41
1
10
7.55384634276004
20
5.67622074456935
30
0
41
1
10
7.69444199389716
20
5.66580119033188
30
0
41
1
10
7.76496758212744
20
5.66018208523735
30
0
41
1
10
7.97693025011222
20
5.64216048945715
30
0
41
1
10
8.11873133864279
20
5.6285980533271
30
0
41
1
10
8.54554406331059
20
5.58359289211148
30
0
41
1
10
8.83196515351028
20
5.54784604334077
30
0
41
1
10
9.12011436012529
20
5.50704018621136
30
0
0
SPLINE
5
C3
100
AcDbEntity
8
1
62
256
6
ByLayer
370
18
48
1
60
0
100
AcDbSpline
70
4
71
3
72
149
73
145
40
0
40
0
40
0
40
0
40
0.0303711353196787
40
0.0303711353196787
40
0.045556702979518
40
0.045556702979518
40
0.0607422706393574
40
0.0607422706393574
40
0.0759278382991967
40
0.0759278382991967
40
0.0911134059590361
40
0.0911134059590361
40
0.106298973618875
40
0.106298973618875
40
0.121484541278715
40
0.121484541278715
40
0.136670108938554
40
0.136670108938554
40
0.151855676598393
40
0.151855676598393
40
0.167041244258233
40
0.167041244258233
40
0.182226811918072
40
0.182226811918072
40
0.189819595747991
40
0.189819595747991
40
0.197412379577911
40
0.197412379577911
40
0.212597947237748
40
0.212597947237748
40
0.227783514897586
40
0.227783514897586
40
0.242969082557424
40
0.242969082557424
40
0.258154650217261
40
0.258154650217261
40
0.273340217877099
40
0.273340217877099
40
0.288525785536937
40
0.288525785536937
40
0.303711353196774
40
0.303711353196774
40
0.318896920856612
40
0.318896920856612
40
0.33408248851645
40
0.33408248851645
40
0.341675272346369
40
0.341675272346369
40
0.349268056176287
40
0.349268056176287
40
0.364453623836124
40
0.364453623836124
40
0.379639191495961
40
0.379639191495961
40
0.387231975325879
40
0.387231975325879
40
0.394824759155798
40
0.394824759155798
40
0.410010326815635
40
0.410010326815635
40
0.425195894475471
40
0.425195894475471
40
0.440381462135308
40
0.440381462135308
40
0.455567029795145
40
0.455567029795145
40
0.470752597454982
40
0.470752597454982
40
0.485938165114819
40
0.485938165114819
40
0.501123732774655
40
0.501123732774655
40
0.516309300434492
40
0.516309300434492
40
0.531494868094329
40
0.531494868094329
40
0.546680435754166
40
0.546680435754166
40
0.561866003414002
40
0.561866003414002
40
0.577051571073839
40
0.577051571073839
40
0.584644354903758
40
0.584644354903758
40
0.592237138733677
40
0.592237138733677
40
0.607422706393515
40
0.607422706393515
40
0.622608274053354
40
0.622608274053354
40
0.637793841713192
40
0.637793841713192
40
0.652979409373031
40
0.652979409373031
40
0.668164977032869
40
0.668164977032869
40
0.683350544692708
40
0.683350544692708
40
0.698536112352546
40
0.698536112352546
40
0.713721680012385
40
0.713721680012385
40
0.728907247672223
40
0.728907247672223
40
0.744092815332062
40
0.744092815332062
40
0.7592783829919
40
0.7592783829919
40
0.774463950651739
40
0.774463950651739
40
0.782056734481658
40
0.782056734481658
40
0.789649518311578
40
0.789649518311578
40
0.804835085971417
40
0.804835085971417
40
0.812427869801337
40
0.820020653631257
40
0.820020653631257
40
0.835206221291096
40
0.835206221291096
40
0.850391788950935
40
0.850391788950935
40
0.865577356610775
40
0.865577356610775
40
0.880762924270614
40
0.880762924270614
40
0.895948491930453
40
0.895948491930453
40
0.911134059590293
40
0.911134059590293
40
0.926319627250132
40
0.926319627250132
40
0.941505194909971
40
0.941505194909971
40
0.956690762569811
40
0.956690762569811
40
0.97187633022965
40
0.97187633022965
40
0.979469114059569
40
0.979469114059569
40
0.987061897889489
40
0.987061897889489
40
1
40
1
40
1
40
1
41
1
10
20.347962790701
20
5.1338795607308
30
0
41
1
10
20.7290431791745
20
5.22747645050168
30
0
41
1
10
21.1094317944852
20
5.30936867715516
30
0
41
1
10
21.6777453293055
20
5.41629161966219
30
0
41
1
10
21.8667429563284
20
5.44929000172553
30
0
41
1
10
22.2442735881017
20
5.50974778849891
30
0
41
1
10
22.4328471453906
20
5.53718606656017
30
0
41
1
10
22.8099882669054
20
5.58638537589522
30
0
41
1
10
22.9985083416196
20
5.60817852154071
30
0
41
1
10
23.3751563970271
20
5.64628618906733
30
0
41
1
10
23.5632485767316
20
5.66260268655282
30
0
41
1
10
23.9392823237887
20
5.68962347365394
30
0
41
1
10
24.1272723077352
20
5.70031412635274
30
0
41
1
10
24.5036378660843
20
5.71601820020743
30
0
41
1
10
24.6919983846995
20
5.72104649241541
30
0
41
1
10
25.0687471573761
20
5.72548753811483
30
0
41
1
10
25.2571092663243
20
5.72489272986783
30
0
41
1
10
25.6339982215253
20
5.71798989225243
30
0
41
1
10
25.8225858025867
20
5.71168103634568
30
0
41
1
10
26.2005020971759
20
5.69339965758869
30
0
41
1
10
26.3898518926358
20
5.68144428290529
30
0
41
1
10
26.769008555972
20
5.65181285284859
30
0
41
1
10
26.9587933003968
20
5.63412364182625
30
0
41
1
10
27.2438503605366
20
5.60320581231542
30
0
41
1
10
27.3389464629907
20
5.59217370296943
30
0
41
1
10
27.5293654217846
20
5.56867746898646
30
0
41
1
10
27.6247555402933
20
5.55620304040181
30
0
41
1
10
27.9106505981678
20
5.51676138761894
30
0
41
1
10
28.1010070273217
20
5.48780167313726
30
0
41
1
10
28.4809602177274
20
5.42449549551225
30
0
41
1
10
28.6705312773249
20
5.39012936070662
30
0
41
1
10
29.048865528126
20
5.31596737146532
30
0
41
1
10
29.237691633326
20
5.27620672181013
30
0
41
1
10
29.6151638818379
20
5.19173678506087
30
0
41
1
10
29.803855863886
20
5.14707273965723
30
0
41
1
10
30.1809374268431
20
5.05277977079663
30
0
41
1
10
30.3692921124353
20
5.003119266943
30
0
41
1
10
30.7455480182985
20
4.89866559458343
30
0
41
1
10
30.9335010060779
20
4.8439120993923
30
0
41
1
10
31.3095891997269
20
4.72987856364273
30
0
41
1
10
31.4977693250578
20
4.67065295008194
30
0
41
1
10
31.8742996430061
20
4.547719618108
30
0
41
1
10
32.06260016442
20
4.48395795787323
30
0
41
1
10
32.439128298049
20
4.35162679708253
30
0
41
1
10
32.6273825809674
20
4.28307900923937
30
0
41
1
10
32.9101646193748
20
4.1771688291625
30
0
41
1
10
33.004488942243
20
4.14134797771482
30
0
41
1
10
33.1933166811225
20
4.06874155671753
30
0
41
1
10
33.287819818965
20
4.03195632025628
30
0
41
1
10
33.5715298024371
20
3.92006669877353
30
0
41
1
10
33.7609211087285
20
3.84340931162413
30
0
41
1
10
34.1400371072061
20
3.68565022397382
30
0
41
1
10
34.329755996612
20
3.60452889710487
30
0
41
1
10
34.6150100508355
20
3.48007335687041
30
0
41
1
10
34.7102048437318
20
3.43812347291532
30
0
41
1
10
34.9008676071471
20
3.35337575877972
30
0
41
1
10
34.9962908787247
20
3.31060955896254
30
0
41
1
10
35.2821115006528
20
3.18135713410641
30
0
41
1
10
35.4722930884866
20
3.0937716811101
30
0
41
1
10
35.8517301174621
20
2.91545953277802
30
0
41
1
10
36.0409597392677
20
2.82468688873507
30
0
41
1
10
36.4189910527888
20
2.64082165310174
30
0
41
1
10
36.6078183033214
20
2.54777322165106
30
0
41
1
10
36.9853297699371
20
2.35986619799704
30
0
41
1
10
37.1739419413613
20
2.26488770180509
30
0
41
1
10
37.5506473386334
20
2.07248677194443
30
0
41
1
10
37.73870290929
20
1.97499614571421
30
0
41
1
10
38.1147110924717
20
1.77828010792774
30
0
41
1
10
38.302692936552
20
1.67910657756531
30
0
41
1
10
38.6789468959183
20
1.47973671263054
30
0
41
1
10
38.8671559476672
20
1.379431067746
30
0
41
1
10
39.2434671622501
20
1.17708946839787
30
0
41
1
10
39.4315315549092
20
1.07498236606762
30
0
41
1
10
39.8078640338278
20
0.869578730661857
30
0
41
1
10
39.9961716641729
20
0.766354535077539
30
0
41
1
10
40.3734724603838
20
0.559611496170248
30
0
41
1
10
40.5624264186019
20
0.456023057337717
30
0
41
1
10
40.9406396096983
20
0.247836802321387
30
0
41
1
10
41.1298662991372
20
0.143174771760698
30
0
41
1
10
41.5088443485586
20
-0.0667772856889428
30
0
41
1
10
41.6986482163561
20
-0.171967500699623
30
0
41
1
10
41.9841608299037
20
-0.329431542894014
30
0
41
1
10
42.0794654237242
20
-0.381866901187863
30
0
41
1
10
42.2702978252419
20
-0.48671947089224
30
0
41
1
10
42.3656440159174
20
-0.539040920354608
30
0
41
1
10
42.6512863475706
20
-0.695710867441846
30
0
41
1
10
42.841213109748
20
-0.799862483629738
30
0
41
1
10
43.2202469610126
20
-1.00722567041046
30
0
41
1
10
43.40941460287
20
-1.11032060141559
30
0
41
1
10
43.7875124115523
20
-1.31451241692878
30
0
41
1
10
43.9764642625619
20
-1.41557494243662
30
0
41
1
10
44.3538490891971
20
-1.61625556719994
30
0
41
1
10
44.5422600233917
20
-1.71591050310374
30
0
41
1
10
44.9185954031491
20
-1.91369890211473
30
0
41
1
10
45.106585524169
20
-2.0117137465183
30
0
41
1
10
45.4826969025307
20
-2.20515491017235
30
0
41
1
10
45.6708597637737
20
-2.30051498702232
30
0
41
1
10
46.0471216237552
20
-2.48900633646039
30
0
41
1
10
46.235194247412
20
-2.58218015232345
30
0
41
1
10
46.6111945855576
20
-2.76640369097515
30
0
41
1
10
46.7991827622498
20
-2.85735067525431
30
0
41
1
10
47.1756437381054
20
-3.03609027842541
30
0
41
1
10
47.364162316355
20
-3.12381471619906
30
0
41
1
10
47.7415995762399
20
-3.29625868616824
30
0
41
1
10
47.9304780454644
20
-3.38104019751228
30
0
41
1
10
48.3084533500903
20
-3.54783576356939
30
0
41
1
10
48.4975950277996
20
-3.62977737991548
30
0
41
1
10
48.8767311459461
20
-3.78991474441207
30
0
41
1
10
49.0667679801363
20
-3.86805298779723
30
0
41
1
10
49.3524790114159
20
-3.98243089425242
30
0
41
1
10
49.4478567096786
20
-4.02011860677848
30
0
41
1
10
49.638590446407
20
-4.0945367308866
30
0
41
1
10
49.7338319030605
20
-4.13122132630062
30
0
41
1
10
50.0191582986461
20
-4.23973141356583
30
0
41
1
10
50.2088629171675
20
-4.30998138773296
30
0
41
1
10
50.493069082016
20
-4.41171941756895
30
0
41
1
10
50.6824169646032
20
-4.47834280470542
30
0
41
1
10
50.8716256068724
20
-4.54246286218597
30
0
41
1
10
51.1552690195815
20
-4.63686174403267
30
0
41
1
10
51.3441225648126
20
-4.69743888424347
30
0
41
1
10
51.7211681588173
20
-4.81407390872039
30
0
41
1
10
51.9093511493364
20
-4.87012958918493
30
0
41
1
10
52.2856098821236
20
-4.97714818213601
30
0
41
1
10
52.4737130136399
20
-5.02809146984896
30
0
41
1
10
52.8500264075427
20
-5.12477289123254
30
0
41
1
10
53.0381635930964
20
-5.17057941835657
30
0
41
1
10
53.4141878245334
20
-5.2572745536531
30
0
41
1
10
53.6020436849976
20
-5.29817590926154
30
0
41
1
10
53.9779737592329
20
-5.37466176893375
30
0
41
1
10
54.166073066329
20
-5.4102331442999
30
0
41
1
10
54.5428129919211
20
-5.47589839727044
30
0
41
1
10
54.7313837150798
20
-5.50604128290129
30
0
41
1
10
55.1086804760977
20
-5.56103733041769
30
0
41
1
10
55.2973679155393
20
-5.58589860277408
30
0
41
1
10
55.6752782645367
20
-5.63005930069193
30
0
41
1
10
55.8645348246057
20
-5.64934657077313
30
0
41
1
10
56.2440156377637
20
-5.68221149430639
30
0
41
1
10
56.4341828263355
20
-5.69581699119058
30
0
41
1
10
56.7198700567726
20
-5.71198545310878
30
0
41
1
10
56.8152433192526
20
-5.71666898269743
30
0
41
1
10
57.0057568931361
20
-5.72458554358099
30
0
41
1
10
57.1008819040447
20
-5.72781736336822
30
0
41
1
10
57.3578432323103
20
-5.73458661134811
30
0
41
1
10
57.5195068090128
20
-5.73673465293106
30
0
41
1
10
57.6810326010416
20
-5.73679619959651
30
0
0
SPLINE
5
C4
100
AcDbEntity
8
1
62
256
6
ByLayer
370
18
48
1
60
0
100
AcDbSpline
70
4
71
3
72
54
73
50
40
0
40
0
40
0
40
0
40
0.0117647033697504
40
0.0117647033697504
40
0.0588235270188059
40
0.0588235270188059
40
0.105882350667861
40
0.105882350667861
40
0.152941174316917
40
0.152941174316917
40
0.199999997965973
40
0.199999997965973
40
0.247058821615027
40
0.247058821615027
40
0.270588233439558
40
0.270588233439558
40
0.294117645264088
40
0.294117645264088
40
0.341176468913149
40
0.341176468913149
40
0.38823529256221
40
0.38823529256221
40
0.41176470438674
40
0.41176470438674
40
0.435294116211271
40
0.435294116211271
40
0.482352939860332
40
0.482352939860332
40
0.529411763509393
40
0.529411763509393
40
0.576470587158453
40
0.576470587158453
40
0.623529410807514
40
0.623529410807514
40
0.670588234456575
40
0.670588234456575
40
0.717647058105636
40
0.717647058105636
40
0.764705881754696
40
0.764705881754696
40
0.811764705403757
40
0.811764705403757
40
0.858823529052818
40
0.858823529052818
40
0.905882352701879
40
0.905882352701879
40
0.95294117635094
40
0.95294117635094
40
1
40
1
40
1
40
1
41
1
10
80.8529723270805
20
3.53659465880986
30
0
41
1
10
80.9001001662301
20
3.55712571160129
30
0
41
1
10
80.9472192286046
20
3.57754004331545
30
0
41
1
10
81.1827621123689
20
3.6790432238225
30
0
41
1
10
81.3709943505414
20
3.7584742149956
30
0
41
1
10
81.7469785263103
20
3.91387534503016
30
0
41
1
10
81.9347827638401
20
3.98976622757149
30
0
41
1
10
82.3105406790244
20
4.13723560489518
30
0
41
1
10
82.4985389231359
20
4.20876368702361
30
0
41
1
10
82.8746660084395
20
4.34758214931881
30
0
41
1
10
83.0627463974936
20
4.41493261344965
30
0
41
1
10
83.4387976811468
20
4.54564097973022
30
0
41
1
10
83.6267961979154
20
4.60895832413362
30
0
41
1
10
83.9091725691188
20
4.70038968223298
30
0
41
1
10
84.003358022099
20
4.73028048664332
30
0
41
1
10
84.1919015950065
20
4.78883663481187
30
0
41
1
10
84.2862593338485
20
4.81750298722775
30
0
41
1
10
84.569522859866
20
4.90173837611741
30
0
41
1
10
84.7586026737323
20
4.95556251751444
30
0
41
1
10
85.1370679033752
20
5.05864415830979
30
0
41
1
10
85.3264471898616
20
5.10789775176156
30
0
41
1
10
85.6111660935567
20
5.17791506747776
30
0
41
1
10
85.7061782419343
20
5.20061364710523
30
0
41
1
10
85.8964664376166
20
5.24468543779443
30
0
41
1
10
85.991806119359
20
5.26606690164553
30
0
41
1
10
86.2777636465554
20
5.32816071886117
30
0
41
1
10
86.4680400817348
20
5.36679059965331
30
0
41
1
10
86.8476706228206
20
5.43869115580023
30
0
41
1
10
87.0369976125943
20
5.47196580553094
30
0
41
1
10
87.4152329814785
20
5.53284948834809
30
0
41
1
10
87.6041675790342
20
5.56045003632815
30
0
41
1
10
87.9819141777148
20
5.60995419093371
30
0
41
1
10
88.1706528591241
20
5.63189798080541
30
0
41
1
10
88.5476266619862
20
5.67026779217392
30
0
41
1
10
88.7358243899644
20
5.68669427713283
30
0
41
1
10
89.1121302940904
20
5.71386287575581
30
0
41
1
10
89.3002679015615
20
5.72460066680907
30
0
41
1
10
89.6768450723885
20
5.74038419419432
30
0
41
1
10
89.8652218505612
20
5.74544858946157
30
0
41
1
10
90.2418794423512
20
5.74993104770229
30
0
41
1
10
90.4301214909221
20
5.74933954724335
30
0
41
1
10
90.8068258786351
20
5.74242413619601
30
0
41
1
10
90.9953283054976
20
5.73610229944973
30
0
41
1
10
91.3730453213315
20
5.71780033989205
30
0
41
1
10
91.5622193537295
20
5.70582588257639
30
0
41
1
10
91.9408947395841
20
5.67612740721128
30
0
41
1
10
92.1303637019464
20
5.65838454870135
30
0
41
1
10
92.509852819913
20
5.61708766025944
30
0
41
1
10
92.6999250017013
20
5.5935500326307
30
0
41
1
10
92.8905462965049
20
5.56720738640223
30
0
0
SPLINE
5
C5
100
AcDbEntity
8
1
62
256
6
ByLayer
370
18
48
1
60
0
100
AcDbSpline
70
4
71
3
72
161
73
157
40
0
40
0
40
0
40
0
40
0.009132857635333
40
0.009132857635333
40
0.0247179207433052
40
0.0247179207433052
40
0.0403029838512774
40
0.0403029838512774
40
0.0558880469592496
40
0.0558880469592496
40
0.0636805785132357
40
0.0636805785132357
40
0.0714731100672218
40
0.0714731100672218
40
0.0870581731751941
40
0.0870581731751941
40
0.102643236283166
40
0.102643236283166
40
0.118228299391139
40
0.118228299391139
40
0.133813362499111
40
0.133813362499111
40
0.149398425607083
40
0.149398425607083
40
0.164983488715055
40
0.164983488715055
40
0.180568551823028
40
0.180568551823028
40
0.196153614931
40
0.196153614931
40
0.211738678038972
40
0.211738678038972
40
0.227323741146945
40
0.227323741146945
40
0.231220006923938
40
0.231220006923938
40
0.235116272700931
40
0.235116272700931
40
0.242908804254918
40
0.242908804254918
40
0.25849386736289
40
0.25849386736289
40
0.274078930470862
40
0.274078930470862
40
0.289663993578834
40
0.289663993578834
40
0.305249056686806
40
0.305249056686806
40
0.320834119794779
40
0.320834119794779
40
0.336419182902751
40
0.336419182902751
40
0.352004246010723
40
0.352004246010723
40
0.367589309118695
40
0.367589309118695
40
0.383174372226667
40
0.383174372226667
40
0.39875943533464
40
0.39875943533464
40
0.406551966888626
40
0.406551966888626
40
0.410448232665618
40
0.410448232665618
40
0.414344498442611
40
0.422137029996596
40
0.422137029996596
40
0.429929561550582
40
0.429929561550582
40
0.445514624658553
40
0.445514624658553
40
0.461099687766525
40
0.461099687766525
40
0.476684750874496
40
0.476684750874496
40
0.492269813982468
40
0.492269813982468
40
0.507854877090439
40
0.507854877090439
40
0.52343994019841
40
0.52343994019841
40
0.539025003306382
40
0.539025003306382
40
0.546817534860368
40
0.546817534860368
40
0.554610066414354
40
0.554610066414354
40
0.570195129522326
40
0.570195129522326
40
0.577987661076312
40
0.577987661076312
40
0.585780192630298
40
0.585780192630298
40
0.601365255738271
40
0.601365255738271
40
0.609157787292258
40
0.609157787292258
40
0.616950318846244
40
0.616950318846244
40
0.632535381954217
40
0.632535381954217
40
0.648120445062189
40
0.648120445062189
40
0.663705508170161
40
0.663705508170161
40
0.671498039724147
40
0.671498039724147
40
0.679290571278133
40
0.679290571278133
40
0.694875634386106
40
0.694875634386106
40
0.710460697494079
40
0.710460697494079
40
0.726045760602052
40
0.726045760602052
40
0.741630823710025
40
0.741630823710025
40
0.749423355264012
40
0.749423355264012
40
0.753319621041004
40
0.753319621041004
40
0.757215886817997
40
0.757215886817997
40
0.77280094992597
40
0.77280094992597
40
0.788386013033943
40
0.788386013033943
40
0.803971076141916
40
0.803971076141916
40
0.819556139249889
40
0.819556139249889
40
0.835141202357862
40
0.835141202357862
40
0.850726265465835
40
0.850726265465835
40
0.866311328573808
40
0.866311328573808
40
0.881896391681781
40
0.881896391681781
40
0.897481454789754
40
0.897481454789754
40
0.913066517897727
40
0.913066517897727
40
0.9286515810057
40
0.9286515810057
40
0.936444112559687
40
0.936444112559687
40
0.944236644113673
40
0.944236644113673
40
0.959821707221647
40
0.959821707221647
40
0.97540677032962
40
0.97540677032962
40
0.990991833437594
40
0.990991833437594
40
1
40
1
40
1
40
1
41
1
10
80.853773367252
20
-3.54145848287081
30
0
41
1
10
80.7264889973967
20
-3.59700681710069
30
0
41
1
10
80.5991197848919
20
-3.65174185052982
30
0
41
1
10
80.2540691509148
20
-3.79753961823894
30
0
41
1
10
80.0362096615991
20
-3.88703058268354
30
0
41
1
10
79.6001085941161
20
-4.06139486567704
30
0
41
1
10
79.3818518916262
20
-4.14623913779178
30
0
41
1
10
78.944344204215
20
-4.31042270826842
30
0
41
1
10
78.7250228175907
20
-4.38967712080657
30
0
41
1
10
78.39518910453
20
-4.50428448740055
30
0
41
1
10
78.285037559651
20
-4.54180401525437
30
0
41
1
10
78.0651972919337
20
-4.61522344643151
30
0
41
1
10
77.9554444875139
20
-4.65115558791845
30
0
41
1
10
77.6266054048632
20
-4.75653065539407
30
0
41
1
10
77.4079417016656
20
-4.82354836657254
30
0
41
1
10
76.9710964364267
20
-4.95055444947783
30
0
41
1
10
76.7529271179179
20
-5.01057095925563
30
0
41
1
10
76.3172688526296
20
-5.1238860992668
30
0
41
1
10
76.0998450970365
20
-5.17723164686569
30
0
41
1
10
75.6654352967157
20
-5.27698267573092
30
0
41
1
10
75.448389946044
20
-5.32334169035499
30
0
41
1
10
75.0141934668824
20
-5.40880208832846
30
0
41
1
10
74.7970959093493
20
-5.44795066314884
30
0
41
1
10
74.3631295221228
20
-5.51921194439373
30
0
41
1
10
74.1462626726411
20
-5.55131135944353
30
0
41
1
10
73.7122042601188
20
-5.60813122026107
30
0
41
1
10
73.4949404724051
20
-5.63282916366515
30
0
41
1
10
73.0598836806947
20
-5.6748017827706
30
0
41
1
10
72.8421472692687
20
-5.69209736548535
30
0
41
1
10
72.4063159334708
20
-5.71922073202063
30
0
41
1
10
72.1881743048116
20
-5.72902518186132
30
0
41
1
10
71.7508037471834
20
-5.74095856857403
30
0
41
1
10
71.531558242346
20
-5.74310169855067
30
0
41
1
10
71.2569020429988
20
-5.74096663089728
30
0
41
1
10
71.2019411927137
20
-5.74029848532177
30
0
41
1
10
71.0919640885083
20
-5.73847711536203
30
0
41
1
10
71.0369251437022
20
-5.73732313174582
30
0
41
1
10
70.8719330945837
20
-5.73313462117756
30
0
41
1
10
70.7621041177748
20
-5.72937445742883
30
0
41
1
10
70.4330151174265
20
-5.71521395086595
30
0
41
1
10
70.2141288976175
20
-5.70193324914646
30
0
41
1
10
69.7768713885614
20
-5.66793587938349
30
0
41
1
10
69.5585522131884
20
-5.64721866919672
30
0
41
1
10
69.122747109683
20
-5.59833722547293
30
0
41
1
10
68.9052828934021
20
-5.57015047306575
30
0
41
1
10
68.4706800519845
20
-5.50653844021048
30
0
41
1
10
68.2534698781708
20
-5.47115608624114
30
0
41
1
10
67.819110871897
20
-5.39338981796732
30
0
41
1
10
67.6020171633321
20
-5.35097704651378
30
0
41
1
10
67.1681139313358
20
-5.25898687412624
30
0
41
1
10
66.9512600679569
20
-5.20942777225417
30
0
41
1
10
66.5171346910571
20
-5.10364053517625
30
0
41
1
10
66.299825146518
20
-5.04745692293591
30
0
41
1
10
65.864863371779
20
-4.92838974317109
30
0
41
1
10
65.6472739786598
20
-4.86544184321664
30
0
41
1
10
65.2116558976867
20
-4.73282997228787
30
0
41
1
10
64.9935755161851
20
-4.6632127080355
30
0
41
1
10
64.5563102285668
20
-4.5179382051725
30
0
41
1
10
64.3371743318995
20
-4.44223965160074
30
0
41
1
10
64.0078627288736
20
-4.32385638532838
30
0
41
1
10
63.8979987447456
20
-4.2835772600385
30
0
41
1
10
63.7330208690355
20
-4.22196816287737
30
0
41
1
10
63.6779979359359
20
-4.20123394692052
30
0
41
1
10
63.5680710280213
20
-4.1594515930544
30
0
41
1
10
63.4032887062487
20
-4.09628040791085
30
0
41
1
10
63.23878276593
20
-4.03168385440404
30
0
41
1
10
63.0196038197058
20
-3.94441255370768
30
0
41
1
10
62.9101002142985
20
-3.90019956991409
30
0
41
1
10
62.5818719026358
20
-3.76580731449928
30
0
41
1
10
62.363439242432
20
-3.67386365279262
30
0
41
1
10
61.9274954796539
20
-3.4850796293251
30
0
41
1
10
61.7099444294884
20
-3.38829108209382
30
0
41
1
10
61.2750755401304
20
-3.19085714829365
30
0
41
1
10
61.0577057450384
20
-3.09029763239113
30
0
41
1
10
60.6232174760624
20
-2.88534189542239
30
0
41
1
10
60.4061603673578
20
-2.78084623436868
30
0
41
1
10
59.9722641628595
20
-2.56804983050529
30
0
41
1
10
59.7553766570497
20
-2.45982426323846
30
0
41
1
10
59.3211296603606
20
-2.24071645700315
30
0
41
1
10
59.1038109130786
20
-2.12977254174365
30
0
41
1
10
58.6689805149749
20
-1.90475821997703
30
0
41
1
10
58.4515239769949
20
-1.79058604583031
30
0
41
1
10
58.1249206343368
20
-1.61742543558617
30
0
41
1
10
58.0159792222758
20
-1.55939546162858
30
0
41
1
10
57.7978634071534
20
-1.44287009960718
30
0
41
1
10
57.6886873657967
20
-1.38437817110099
30
0
41
1
10
57.3608312572698
20
-1.20816572473669
30
0
41
1
10
57.1418248171498
20
-1.08970853129927
30
0
41
1
10
56.8128011482528
20
-0.910243351152417
30
0
41
1
10
56.7030314480843
20
-0.850141964489154
30
0
41
1
10
56.4832345288605
20
-0.729499519700994
30
0
41
1
10
56.3731422851624
20
-0.668921623754699
30
0
41
1
10
56.0434312748814
20
-0.487354726902083
30
0
41
1
10
55.8240203062713
20
-0.366472713534108
30
0
41
1
10
55.4955421165735
20
-0.185281278197124
30
0
41
1
10
55.3861597312556
20
-0.12489866225377
30
0
41
1
10
55.1676475854428
20
-0.0041004723650246
30
0
41
1
10
55.058520296548
20
0.0563195739237017
30
0
41
1
10
54.7314288398637
20
0.237461139056705
30
0
41
1
10
54.513758053851
20
0.358068116193209
30
0
41
1
10
54.0785712194013
20
0.597823203658123
30
0
41
1
10
53.8610857889617
20
0.717031900331023
30
0
41
1
10
53.4265196330367
20
0.95447254138179
30
0
41
1
10
53.2094997985101
20
1.07281334950753
30
0
41
1
10
52.8840455763072
20
1.24916806579549
30
0
41
1
10
52.7755686133338
20
1.3077516581896
30
0
41
1
10
52.5585460194228
20
1.4243658629822
30
0
41
1
10
52.4499948379294
20
1.48238673631945
30
0
41
1
10
52.1242412650558
20
1.65562843906341
30
0
41
1
10
51.9069379730809
20
1.77002829909046
30
0
41
1
10
51.4722832212034
20
1.99701655929144
30
0
41
1
10
51.2549153754117
20
2.10957268936267
30
0
41
1
10
50.8195217848871
20
2.33178953967138
30
0
41
1
10
50.6014252802956
20
2.44133071304148
30
0
41
1
10
50.164437931731
20
2.65728547117013
30
0
41
1
10
49.9456059020952
20
2.76379895563926
30
0
41
1
10
49.6168351893493
20
2.92132269121171
30
0
41
1
10
49.5071446674039
20
2.97343383825896
30
0
41
1
10
49.3424030176533
20
3.05091048756333
30
0
41
1
10
49.2874545943156
20
3.07662066639225
30
0
41
1
10
49.1774780177325
20
3.1277924263367
30
0
41
1
10
49.1224273925538
20
3.15326358637964
30
0
41
1
10
48.8473546647092
20
3.27977334723852
30
0
41
1
10
48.6277209724603
20
3.37837265643265
30
0
41
1
10
48.1894673593605
20
3.57072569038254
30
0
41
1
10
47.9709126636148
20
3.6645696495566
30
0
41
1
10
47.5345676942368
20
3.84705193563502
30
0
41
1
10
47.316716981227
20
3.93560343142192
30
0
41
1
10
46.8812407577778
20
4.10684581298844
30
0
41
1
10
46.6636685433002
20
4.18961783727949
30
0
41
1
10
46.2290817408467
20
4.34977140931605
30
0
41
1
10
46.0120650582941
20
4.42713803298028
30
0
41
1
10
45.5780259637071
20
4.57577834414226
30
0
41
1
10
45.3609311284339
20
4.64697716796326
30
0
41
1
10
44.9265461534954
20
4.78312976126256
30
0
41
1
10
44.7093126532603
20
4.84814460316477
30
0
41
1
10
44.2748145878253
20
4.97204488124899
30
0
41
1
10
44.0575034799354
20
5.03087496464883
30
0
41
1
10
43.6221237696997
20
5.14169593835331
30
0
41
1
10
43.4040412221884
20
5.19368760300497
30
0
41
1
10
42.9672594837318
20
5.29094882804512
30
0
41
1
10
42.7486243449904
20
5.33625995716091
30
0
41
1
10
42.3105601366207
20
5.41990550443202
30
0
41
1
10
42.0910748769065
20
5.45819904788206
30
0
41
1
10
41.7607980307896
20
5.51008405925356
30
0
41
1
10
41.6507096095348
20
5.52643637304115
30
0
41
1
10
41.430902719476
20
5.55723029178677
30
0
41
1
10
41.3211310728646
20
5.57168061924347
30
0
41
1
10
40.9922588331447
20
5.6122241894648
30
0
41
1
10
40.7736149766003
20
5.63550613115953
30
0
41
1
10
40.3369791097064
20
5.67442249660405
30
0
41
1
10
40.1189149863225
20
5.69004413576585
30
0
41
1
10
39.6831832798123
20
5.7137160979012
30
0
41
1
10
39.4655715303626
20
5.72178062409608
30
0
41
1
10
39.1226572130893
20
5.72856273708013
30
0
41
1
10
38.9971383912947
20
5.72978290867883
30
0
41
1
10
38.8716459810179
20
5.72974142578425
30
0
0
SPLINE
5
C6
100
AcDbEntity
8
1
62
256
6
ByLayer
370
18
48
1
60
0
100
AcDbSpline
70
4
71
3
72
28
73
24
40
0
40
0
40
0
40
0
40
0.0095087111251528
40
0.0095087111251528
40
0.108557840012637
40
0.108557840012637
40
0.207606968900121
40
0.207606968900121
40
0.306656097787607
40
0.306656097787607
40
0.405705226675091
40
0.405705226675091
40
0.455229791118833
40
0.455229791118833
40
0.504754355562574
40
0.504754355562574
40
0.60380348445006
40
0.60380348445006
40
0.702852613337544
40
0.702852613337544
40
0.801901742225029
40
0.801901742225029
40
1
40
1
40
1
40
1
41
1
10
15.7569345999209
20
-3.49879534195861
30
0
41
1
10
15.7360851460797
20
-3.50789717975593
30
0
41
1
10
15.7152339785157
20
-3.51697645659269
30
0
41
1
10
15.4771602466568
20
-3.6203692472991
30
0
41
1
10
15.2597216995577
20
-3.7122193773279
30
0
41
1
10
14.8245844327462
20
-3.89120032557202
30
0
41
1
10
14.6069504988609
20
-3.97841576078142
30
0
41
1
10
14.1712259183578
20
-4.14779243969608
30
0
41
1
10
13.9530785405187
20
-4.22987684538609
30
0
41
1
10
13.5157468000667
20
-4.38822649981509
30
0
41
1
10
13.2966161235109
20
-4.46456725941829
30
0
41
1
10
12.9673823276798
20
-4.57497487613801
30
0
41
1
10
12.8575499003806
20
-4.61109409761713
30
0
41
1
10
12.6376425829859
20
-4.68187502648001
30
0
41
1
10
12.5275058509115
20
-4.71655635660781
30
0
41
1
10
12.1973534633706
20
-4.81804641946948
30
0
41
1
10
11.9773789760426
20
-4.88228670649818
30
0
41
1
10
11.5375999848015
20
-5.00394028862866
30
0
41
1
10
11.3178562570265
20
-5.06141203836165
30
0
41
1
10
10.8787283505046
20
-5.16967712048614
30
0
41
1
10
10.6592971075107
20
-5.22041956737547
30
0
41
1
10
10.0004278615949
20
-5.36174795722701
30
0
41
1
10
9.56035468152908
20
-5.44152914269625
30
0
41
1
10
9.12013433623309
20
-5.50704229547051
30
0
0
SPLINE
5
C7
100
AcDbEntity
8
1
62
256
6
ByLayer
370
18
48
1
60
0
100
AcDbSpline
70
4
71
3
72
22
73
18
40
0
40
0
40
0
40
0
40
0.238663504815585
40
0.238663504815585
40
0.357995257223377
40
0.357995257223377
40
0.47732700963117
40
0.47732700963117
40
0.596658762038962
40
0.596658762038962
40
0.715990514446755
40
0.715990514446755
40
0.835322266854547
40
0.835322266854547
40
0.95465401926234
40
0.95465401926234
40
1
40
1
40
1
40
1
41
1
10
20.3479627907009
20
-5.1338795607308
30
0
41
1
10
20.7290431791745
20
-5.22747645050168
30
0
41
1
10
21.1094317944852
20
-5.30936867715519
30
0
41
1
10
21.6777453293055
20
-5.41629161966222
30
0
41
1
10
21.8667429563284
20
-5.44929000172553
30
0
41
1
10
22.2442735881017
20
-5.50974778849891
30
0
41
1
10
22.4328471453906
20
-5.53718606656017
30
0
41
1
10
22.8099882669054
20
-5.58638537589519
30
0
41
1
10
22.9985083416196
20
-5.60817852154071
30
0
41
1
10
23.3751563970271
20
-5.64628618906733
30
0
41
1
10
23.5632485767317
20
-5.66260268655282
30
0
41
1
10
23.9392823237887
20
-5.68962347365397
30
0
41
1
10
24.1272723077352
20
-5.70031412635274
30
0
41
1
10
24.5036378660842
20
-5.71601820020743
30
0
41
1
10
24.6919983846994
20
-5.72104649241541
30
0
41
1
10
24.9519549033874
20
-5.72411081236302
30
0
41
1
10
25.0235352628885
20
-5.72454807717781
30
0
41
1
10
25.0951190429295
20
-5.72457654463551
30
0
0
SPLINE
5
C8
100
AcDbEntity
8
1
62
256
6
ByLayer
370
18
48
1
60
0
100
AcDbSpline
70
4
71
3
72
169
73
165
40
0
40
0
40
0
40
0
40
0.0097700500005322
40
0.0097700500005322
40
0.0232645983242522
40
0.0232645983242522
40
0.0300118724861126
40
0.0300118724861126
40
0.0367591466479729
40
0.0367591466479729
40
0.0502536949716928
40
0.0502536949716928
40
0.0570009691335528
40
0.0637482432954127
40
0.0637482432954127
40
0.0772427916191334
40
0.0772427916191334
40
0.090737339942854
40
0.090737339942854
40
0.104231888266575
40
0.104231888266575
40
0.117726436590295
40
0.117726436590295
40
0.131220984914016
40
0.131220984914016
40
0.144715533237737
40
0.144715533237737
40
0.158210081561457
40
0.158210081561457
40
0.171704629885178
40
0.171704629885178
40
0.185199178208899
40
0.185199178208899
40
0.198693726532619
40
0.198693726532619
40
0.205441000694479
40
0.205441000694479
40
0.212188274856339
40
0.212188274856339
40
0.22568282318006
40
0.22568282318006
40
0.23917737150378
40
0.23917737150378
40
0.252671919827501
40
0.252671919827501
40
0.266166468151222
40
0.266166468151222
40
0.279661016474943
40
0.279661016474943
40
0.293155564798663
40
0.293155564798663
40
0.306650113122384
40
0.306650113122384
40
0.320144661446105
40
0.320144661446105
40
0.333639209769825
40
0.333639209769825
40
0.347133758093546
40
0.347133758093546
40
0.360628306417267
40
0.360628306417267
40
0.374122854740988
40
0.374122854740988
40
0.380870128902848
40
0.380870128902848
40
0.387617403064709
40
0.387617403064709
40
0.401111951388431
40
0.401111951388431
40
0.414606499712153
40
0.414606499712153
40
0.428101048035875
40
0.428101048035875
40
0.441595596359597
40
0.441595596359597
40
0.455090144683319
40
0.455090144683319
40
0.468584693007042
40
0.468584693007042
40
0.482079241330764
40
0.482079241330764
40
0.495573789654486
40
0.495573789654486
40
0.509068337978208
40
0.509068337978208
40
0.52256288630193
40
0.52256288630193
40
0.536057434625652
40
0.536057434625652
40
0.549551982949374
40
0.549551982949374
40
0.556299257111235
40
0.556299257111235
40
0.563046531273096
40
0.563046531273096
40
0.576541079596816
40
0.576541079596816
40
0.590035627920537
40
0.590035627920537
40
0.603530176244257
40
0.603530176244257
40
0.617024724567978
40
0.617024724567978
40
0.630519272891698
40
0.630519272891698
40
0.644013821215419
40
0.644013821215419
40
0.657508369539139
40
0.657508369539139
40
0.67100291786286
40
0.67100291786286
40
0.68449746618658
40
0.68449746618658
40
0.697992014510301
40
0.697992014510301
40
0.711486562834022
40
0.711486562834022
40
0.724981111157742
40
0.724981111157742
40
0.738475659481462
40
0.738475659481462
40
0.751970207805183
40
0.751970207805183
40
0.765464756128904
40
0.765464756128904
40
0.778959304452624
40
0.778959304452624
40
0.792453852776345
40
0.792453852776345
40
0.805948401100065
40
0.805948401100065
40
0.819442949423786
40
0.819442949423786
40
0.832937497747506
40
0.832937497747506
40
0.846432046071227
40
0.846432046071227
40
0.853179320233088
40
0.853179320233088
40
0.859926594394949
40
0.859926594394949
40
0.873421142718671
40
0.873421142718671
40
0.886915691042393
40
0.886915691042393
40
0.893662965204254
40
0.893662965204254
40
0.900410239366116
40
0.900410239366116
40
0.913904787689838
40
0.913904787689838
40
0.92739933601356
40
0.92739933601356
40
0.940893884337282
40
0.940893884337282
40
0.954388432661004
40
0.954388432661004
40
0.967882980984726
40
0.967882980984726
40
0.981377529308448
40
0.981377529308448
40
0.99487207763217
40
0.99487207763217
40
1
40
1
40
1
40
1
41
1
10
48.275988524695
20
3.53314986247452
30
0
41
1
10
48.4128921199647
20
3.5929248991971
30
0
41
1
10
48.5499158540481
20
3.65187635393221
30
0
41
1
10
48.876731145946
20
3.78991474441204
30
0
41
1
10
49.0667679801363
20
3.86805298779723
30
0
41
1
10
49.3524790114159
20
3.98243089425239
30
0
41
1
10
49.4478567096785
20
4.02011860677848
30
0
41
1
10
49.638590446407
20
4.0945367308866
30
0
41
1
10
49.7338319030605
20
4.13122132630062
30
0
41
1
10
50.0191582986461
20
4.23973141356583
30
0
41
1
10
50.2088629171674
20
4.30998138773296
30
0
41
1
10
50.493069082016
20
4.41171941756895
30
0
41
1
10
50.6824168092694
20
4.47834221078548
30
0
41
1
10
50.8716256068723
20
4.54246286218597
30
0
41
1
10
51.1552690195815
20
4.63686174403267
30
0
41
1
10
51.3441225648126
20
4.69743888424347
30
0
41
1
10
51.7211681588173
20
4.81407390872039
30
0
41
1
10
51.9093511493364
20
4.87012958918493
30
0
41
1
10
52.2856098821235
20
4.97714818213601
30
0
41
1
10
52.4737130136398
20
5.02809146984896
30
0
41
1
10
52.8500264075426
20
5.12477289123251
30
0
41
1
10
53.0381635930963
20
5.17057941835657
30
0
41
1
10
53.4141878245333
20
5.2572745536531
30
0
41
1
10
53.6020436849975
20
5.29817590926157
30
0
41
1
10
53.9779737592328
20
5.37466176893375
30
0
41
1
10
54.166073066329
20
5.4102331442999
30
0
41
1
10
54.542812991921
20
5.47589839727047
30
0
41
1
10
54.7313837150798
20
5.50604128290129
30
0
41
1
10
55.1086804760977
20
5.56103733041769
30
0
41
1
10
55.2973679155393
20
5.58589860277408
30
0
41
1
10
55.6752782645366
20
5.6300593006919
30
0
41
1
10
55.8645348246056
20
5.64934657077313
30
0
41
1
10
56.2440156377635
20
5.68221149430639
30
0
41
1
10
56.4341828263355
20
5.69581699119058
30
0
41
1
10
56.7198700567726
20
5.71198545310878
30
0
41
1
10
56.8152433192525
20
5.71666898269743
30
0
41
1
10
57.005756893136
20
5.72458554358099
30
0
41
1
10
57.1008819040447
20
5.72781736336822
30
0
41
1
10
57.3859721564328
20
5.73532762426268
30
0
41
1
10
57.5756635879202
20
5.73741701764629
30
0
41
1
10
57.9547289904897
20
5.7358620989927
30
0
41
1
10
58.1440674784043
20
5.73222955492153
30
0
41
1
10
58.5220545691287
20
5.71928950585567
30
0
41
1
10
58.7106704014997
20
5.70996836024273
30
0
41
1
10
59.0874126235009
20
5.68564804405872
30
0
41
1
10
59.2755925874591
20
5.67065773321707
30
0
41
1
10
59.6520196149042
20
5.63520496227741
30
0
41
1
10
59.8402675645997
20
5.61475548196847
30
0
41
1
10
60.2164977966734
20
5.56832253004984
30
0
41
1
10
60.4044568637603
20
5.5423217350571
30
0
41
1
10
60.7802039445473
20
5.48476165061217
30
0
41
1
10
60.9680554454628
20
5.45322960289451
30
0
41
1
10
61.3441787182296
20
5.38494264857718
30
0
41
1
10
61.532482508182
20
5.34821981209475
30
0
41
1
10
61.9092607869279
20
5.2694228820616
30
0
41
1
10
62.0977129180993
20
5.22732755323548
30
0
41
1
10
62.4747739584595
20
5.1376750066274
30
0
41
1
10
62.6634481613174
20
5.0901623901334
30
0
41
1
10
63.0415837658454
20
4.99016720001208
30
0
41
1
10
63.2310895172027
20
4.93773738973965
30
0
41
1
10
63.6107395635438
20
4.82777723709847
30
0
41
1
10
63.8008514837793
20
4.77021115575653
30
0
41
1
10
64.0864197964563
20
4.67985355377462
30
0
41
1
10
64.1817458571879
20
4.64905859892471
30
0
41
1
10
64.3721081088095
20
4.5864027304039
30
0
41
1
10
64.4671930153259
20
4.55452869991447
30
0
41
1
10
64.7522404249875
20
4.45737642847777
30
0
41
1
10
64.9420527291399
20
4.39063991698919
30
0
41
1
10
65.3210920931201
20
4.25311751133344
30
0
41
1
10
65.5102766398053
20
4.18227770509725
30
0
41
1
10
65.8878619737852
20
4.03629088499434
30
0
41
1
10
66.0763043904537
20
3.9611921687229
30
0
41
1
10
66.4530348076743
20
3.80753727928635
30
0
41
1
10
66.6413650519729
20
3.72904481775041
30
0
41
1
10
67.0179133464046
20
3.56871809137604
30
0
41
1
10
67.2060748599419
20
3.48680402443802
30
0
41
1
10
67.5820102571543
20
3.31921969171148
30
0
41
1
10
67.769794944279
20
3.23355867924303
30
0
41
1
10
68.1455608194483
20
3.05934263704469
30
0
41
1
10
68.3335733924833
20
2.97084050288044
30
0
41
1
10
68.7099451532233
20
2.79121412454725
30
0
41
1
10
68.8982350104634
20
2.69998164185191
30
0
41
1
10
69.2748311617647
20
2.51433442886707
30
0
41
1
10
69.4631157398187
20
2.41987651038716
30
0
41
1
10
69.8402225027816
20
2.22860666872558
30
0
41
1
10
70.0290700105779
20
2.131841461059
30
0
41
1
10
70.4075682827071
20
1.9364361172999
30
0
41
1
10
70.5971452350441
20
1.83766952180184
30
0
41
1
10
70.9767368202525
20
1.63756861345354
30
0
41
1
10
71.1667172539463
20
1.53616406612832
30
0
41
1
10
71.4523512989357
20
1.38269722406974
30
0
41
1
10
71.5476572093232
20
1.33133033366116
30
0
41
1
10
71.7379835540608
20
1.22855791278215
30
0
41
1
10
71.8330798920552
20
1.17712637141858
30
0
41
1
10
72.1181770042436
20
1.02270899363518
30
0
41
1
10
72.3079489802258
20
0.919529806925311
30
0
41
1
10
72.6866590112191
20
0.71222875265812
30
0
41
1
10
72.8755574224878
20
0.608033553515156
30
0
41
1
10
73.2528808756931
20
0.399379836725217
30
0
41
1
10
73.441340727925
20
0.294986344288844
30
0
41
1
10
73.8182383499316
20
0.086768366527707
30
0
41
1
10
74.0066234951528
20
-0.017155244455779
30
0
41
1
10
74.3829782801645
20
-0.225168844157736
30
0
41
1
10
74.570912192988
20
-0.329323823060435
30
0
41
1
10
74.9466201688029
20
-0.537322161194453
30
0
41
1
10
75.1344400441535
20
-0.641081080671341
30
0
41
1
10
75.5104398305169
20
-0.847338126597037
30
0
41
1
10
75.6985992731562
20
-0.949875014386492
30
0
41
1
10
76.0749151350794
20
-1.15435302845998
30
0
41
1
10
76.2630436830257
20
-1.25634389092912
30
0
41
1
10
76.6394484391077
20
-1.45944623446709
30
0
41
1
10
76.8277845578222
20
-1.5604489755712
30
0
41
1
10
77.2051828475614
20
-1.76053166180401
30
0
41
1
10
77.394263364454
20
-1.85958011557219
30
0
41
1
10
77.7728570203039
20
-2.05628044404216
30
0
41
1
10
77.9623485464106
20
-2.15397011644819
30
0
41
1
10
78.3418228743109
20
-2.3478338311871
30
0
41
1
10
78.5318711227799
20
-2.44389103987336
30
0
41
1
10
78.9130689228898
20
-2.63340434749801
30
0
41
1
10
79.1034750190661
20
-2.72641287757318
30
0
41
1
10
79.4834171570883
20
-2.90940040560366
30
0
41
1
10
79.6729612977929
20
-2.99943443389242
30
0
41
1
10
80.0512062534764
20
-3.17656225159826
30
0
41
1
10
80.2399708099477
20
-3.26354774005526
30
0
41
1
10
80.6172912665671
20
-3.43361639332937
30
0
41
1
10
80.8058934820566
20
-3.51663812799168
30
0
41
1
10
81.1827621123689
20
-3.6790432238225
30
0
41
1
10
81.3709943505414
20
-3.7584742149956
30
0
41
1
10
81.7469785263103
20
-3.91387534503016
30
0
41
1
10
81.93478276384
20
-3.98976622757149
30
0
41
1
10
82.3105406790243
20
-4.13723560489521
30
0
41
1
10
82.4985389231358
20
-4.20876368702363
30
0
41
1
10
82.8746660084395
20
-4.34758214931884
30
0
41
1
10
83.0627463974936
20
-4.41493261344965
30
0
41
1
10
83.4387976811468
20
-4.54564097973022
30
0
41
1
10
83.6267961979154
20
-4.60895832413362
30
0
41
1
10
83.9091725691188
20
-4.70038968223301
30
0
41
1
10
84.003358022099
20
-4.73028048664332
30
0
41
1
10
84.1919015950065
20
-4.78883663481187
30
0
41
1
10
84.2862593338485
20
-4.81750298722775
30
0
41
1
10
84.569522859866
20
-4.90173837611744
30
0
41
1
10
84.7586026737323
20
-4.95556251751444
30
0
41
1
10
85.1370679033752
20
-5.05864415830982
30
0
41
1
10
85.3264471898617
20
-5.10789775176156
30
0
41
1
10
85.6111660935567
20
-5.17791506747778
30
0
41
1
10
85.7061782419343
20
-5.20061364710523
30
0
41
1
10
85.8964664376166
20
-5.24468543779443
30
0
41
1
10
85.991806119359
20
-5.26606690164553
30
0
41
1
10
86.2777636465554
20
-5.32816071886117
30
0
41
1
10
86.4680400817348
20
-5.36679059965331
30
0
41
1
10
86.8476706228207
20
-5.43869115580023
30
0
41
1
10
87.0369976125944
20
-5.47196580553097
30
0
41
1
10
87.4152329814786
20
-5.53284948834812
30
0
41
1
10
87.6041675790342
20
-5.56045003632815
30
0
41
1
10
87.9819141777148
20
-5.60995419093373
30
0
41
1
10
88.1706528591241
20
-5.63189798080541
30
0
41
1
10
88.5476266619862
20
-5.67026779217392
30
0
41
1
10
88.7358243899645
20
-5.68669427713283
30
0
41
1
10
89.1121302940905
20
-5.71386287575581
30
0
41
1
10
89.3002679015615
20
-5.72460066680907
30
0
41
1
10
89.6768450723885
20
-5.74038419419429
30
0
41
1
10
89.8652218505612
20
-5.74544858946157
30
0
41
1
10
90.1251155052279
20
-5.74854148465195
30
0
41
1
10
90.1966678377154
20
-5.7489841055272
30
0
41
1
10
90.2682184477721
20
-5.74901584434718
30
0
0
SPLINE
5
C9
100
AcDbEntity
8
1
62
256
6
ByLayer
370
18
48
1
60
0
100
AcDbSpline
70
4
71
3
72
174
73
170
40
0
40
0
40
0
40
0
40
0.0312499999999992
40
0.0312499999999992
40
0.0624999999999984
40
0.0624999999999984
40
0.0937499999999975
40
0.0937499999999975
40
0.124999999999997
40
0.124999999999997
40
0.156249999999996
40
0.156249999999996
40
0.187499999999995
40
0.187499999999995
40
0.195312499999995
40
0.195312499999995
40
0.203124999999995
40
0.218749999999995
40
0.218749999999995
40
0.249999999999994
40
0.249999999999994
40
0.265624999999994
40
0.265624999999994
40
0.281249999999994
40
0.281249999999994
40
0.289062499999994
40
0.289062499999994
40
0.296874999999994
40
0.296874999999994
40
0.304687499999994
40
0.304687499999994
40
0.312499999999995
40
0.312499999999995
40
0.320312499999995
40
0.320312499999995
40
0.328124999999995
40
0.328124999999995
40
0.332031249999995
40
0.332031249999995
40
0.335937499999995
40
0.335937499999995
40
0.339843749999994
40
0.339843749999994
40
0.343749999999994
40
0.343749999999994
40
0.351562499999994
40
0.351562499999994
40
0.359374999999995
40
0.359374999999995
40
0.374999999999995
40
0.374999999999995
40
0.390624999999994
40
0.390624999999994
40
0.394531249999994
40
0.394531249999994
40
0.398437499999993
40
0.406249999999992
40
0.406249999999992
40
0.42187499999999
40
0.42187499999999
40
0.437499999999988
40
0.437499999999988
40
0.468749999999984
40
0.468749999999984
40
0.484374999999981
40
0.484374999999981
40
0.49218749999998
40
0.49218749999998
40
0.49999999999998
40
0.49999999999998
40
0.515624999999978
40
0.515624999999978
40
0.531249999999977
40
0.531249999999977
40
0.546874999999976
40
0.546874999999976
40
0.562499999999975
40
0.562499999999975
40
0.578124999999974
40
0.578124999999974
40
0.585937499999974
40
0.585937499999974
40
0.593749999999974
40
0.593749999999974
40
0.597656249999974
40
0.597656249999974
40
0.601562499999974
40
0.601562499999974
40
0.609374999999974
40
0.609374999999974
40
0.617187499999975
40
0.617187499999975
40
0.621093749999975
40
0.621093749999975
40
0.624999999999975
40
0.624999999999975
40
0.628906249999976
40
0.628906249999976
40
0.632812499999976
40
0.632812499999976
40
0.636718749999976
40
0.636718749999976
40
0.638671874999976
40
0.638671874999976
40
0.640624999999976
40
0.640624999999976
40
0.644531249999977
40
0.648437499999977
40
0.648437499999977
40
0.650390624999977
40
0.650390624999977
40
0.652343749999978
40
0.652343749999978
40
0.656249999999978
40
0.656249999999978
40
0.660156249999978
40
0.660156249999978
40
0.664062499999979
40
0.664062499999979
40
0.67187499999998
40
0.67187499999998
40
0.67578124999998
40
0.67578124999998
40
0.67968749999998
40
0.67968749999998
40
0.687499999999981
40
0.687499999999981
40
0.703124999999982
40
0.703124999999982
40
0.707031249999983
40
0.707031249999983
40
0.710937499999983
40
0.710937499999983
40
0.718749999999983
40
0.718749999999983
40
0.734374999999985
40
0.734374999999985
40
0.742187499999985
40
0.742187499999985
40
0.749999999999986
40
0.749999999999986
40
0.765624999999987
40
0.765624999999987
40
0.781249999999988
40
0.781249999999988
40
0.796874999999989
40
0.796874999999989
40
0.81249999999999
40
0.81249999999999
40
0.82031249999999
40
0.82031249999999
40
0.82421874999999
40
0.82421874999999
40
0.828124999999991
40
0.843749999999991
40
0.843749999999991
40
0.874999999999993
40
0.874999999999993
40
0.906249999999994
40
0.906249999999994
40
0.937499999999996
40
0.937499999999996
40
0.945312499999996
40
0.945312499999996
40
0.953124999999997
40
0.953124999999997
40
0.968749999999998
40
0.968749999999998
40
1
40
1
40
1
40
1
41
1
10
20.3479634848343
20
-5.13387944174224
30
0
41
1
10
20.068907747591
20
-5.06074257495698
30
0
41
1
10
19.7904233046929
20
-4.98154366541522
30
0
41
1
10
19.2340706895086
20
-4.81177816399159
30
0
41
1
10
18.9562022096482
20
-4.72120447428892
30
0
41
1
10
18.4001989603214
20
-4.52984713262188
30
0
41
1
10
18.1220600905473
20
-4.4290629219073
30
0
41
1
10
17.5643793727443
20
-4.21894703600731
30
0
41
1
10
17.2848426679782
20
-4.10960326882616
30
0
41
1
10
16.722950353288
20
-3.88471419890936
30
0
41
1
10
16.44057847964
20
-3.76918720434125
30
0
41
1
10
15.871454788428
20
-3.53494872727893
30
0
41
1
10
15.5847216264491
20
-3.41620797472993
30
0
41
1
10
15.2225641824227
20
-3.26804966340868
30
0
41
1
10
15.1499134566998
20
-3.23842127900806
30
0
41
1
10
15.0043742751318
20
-3.17932550682698
30
0
41
1
10
14.7857657023774
20
-3.0909466449375
30
0
41
1
10
14.5661754174274
20
-3.00361512833587
30
0
41
1
10
14.1255107044206
20
-2.83093358385952
30
0
41
1
10
13.8297722579369
20
-2.71840749075648
30
0
41
1
10
13.3821640137101
20
-2.5567691267612
30
0
41
1
10
13.2323027009678
20
-2.50406509029699
30
0
41
1
10
12.9313240033132
20
-2.40099147535725
30
0
41
1
10
12.7802376675803
20
-2.35054507605565
30
0
41
1
10
12.5524135319529
20
-2.27732950541591
30
0
41
1
10
12.4762608491729
20
-2.25336335347978
30
0
41
1
10
12.32352753059
20
-2.20634053656337
30
0
41
1
10
12.2469398490467
20
-2.18330168485562
30
0
41
1
10
12.0935830939561
20
-2.13754352301575
30
0
41
1
10
12.0168261996611
20
-2.11479485372058
30
0
41
1
10
11.8636692768277
20
-2.06828824803142
30
0
41
1
10
11.7872878053597
20
-2.04448397375225
30
0
41
1
10
11.6351861086621
20
-1.9950887132415
30
0
41
1
10
11.5594351415334
20
-1.96957362382412
30
0
41
1
10
11.4085908567706
20
-1.9167354185345
30
0
41
1
10
11.3334790765721
20
-1.8894608028275
30
0
41
1
10
11.2219435240364
20
-1.84555466788632
30
0
41
1
10
11.1849657130208
20
-1.83038928659545
30
0
41
1
10
11.1113567786798
20
-1.79912632757959
30
0
41
1
10
11.0747198144542
20
-1.78304298461302
30
0
41
1
10
11.0014118036272
20
-1.75090172000304
30
0
41
1
10
10.964726505571
20
-1.73488016264255
30
0
41
1
10
10.89108560439
20
-1.70346702420809
30
0
41
1
10
10.8541357447849
20
-1.6880611438331
30
0
41
1
10
10.7428774791541
20
-1.6428082560877
30
0
41
1
10
10.668182325282
20
-1.61387047598097
30
0
41
1
10
10.5178381819934
20
-1.55827041358759
30
0
41
1
10
10.4421836475157
20
-1.53162214611993
30
0
41
1
10
10.2137937594153
20
-1.45514402092442
30
0
41
1
10
10.0596310051591
20
-1.4087865776298
30
0
41
1
10
9.74777740354369
20
-1.32489965736573
30
0
41
1
10
9.59008824394866
20
-1.28736536801927
30
0
41
1
10
9.39095012521591
20
-1.24563441543145
30
0
41
1
10
9.35102670142737
20
-1.23754963635943
30
0
41
1
10
9.27120729091084
20
-1.22193543444962
30
0
41
1
10
9.15143384837006
20
-1.1993289735062
30
0
41
1
10
9.03153092084759
20
-1.17910817036645
30
0
41
1
10
8.79156135052227
20
-1.14169470643935
30
0
41
1
10
8.63136382719671
20
-1.12078180368272
30
0
41
1
10
8.31057440737476
20
-1.0862972277059
30
0
41
1
10
8.14998243064559
20
-1.07272681111724
30
0
41
1
10
7.66765902924163
20
-1.04224869717538
30
0
41
1
10
7.34537965196742
20
-1.03558955891756
30
0
41
1
10
6.8610136997537
20
-1.04334880683246
30
0
41
1
10
6.69940020049333
20
-1.0488984100582
30
0
41
1
10
6.45673550565829
20
-1.06179385118003
30
0
41
1
10
6.37580622803654
20
-1.06685979344428
30
0
41
1
10
6.21386195913263
20
-1.07859182501215
30
0
41
1
10
6.1327971838823
20
-1.08526447753403
30
0
41
1
10
5.89042673749762
20
-1.10769107067651
30
0
41
1
10
5.72966506869852
20
-1.12587222243079
30
0
41
1
10
5.40985880270091
20
-1.16895976860164
30
0
41
1
10
5.25082128845986
20
-1.19389394370433
30
0
41
1
10
4.93443061659019
20
-1.25028727392237
30
0
41
1
10
4.77705094651731
20
-1.28164241306734
30
0
41
1
10
4.46404476367996
20
-1.35105984383137
30
0
41
1
10
4.30843760672536
20
-1.38919966255935
30
0
41
1
10
3.99949453021281
20
-1.47408573117678
30
0
41
1
10
3.84614839090702
20
-1.52079343542434
30
0
41
1
10
3.61825786641302
20
-1.59881305212656
30
0
41
1
10
3.54265061060175
20
-1.62615096731304
30
0
41
1
10
3.39226703028766
20
-1.6839113781507
30
0
41
1
10
3.31748885935235
20
-1.71432707231622
30
0
41
1
10
3.20609133863684
20
-1.76279218935747
30
0
41
1
10
3.1690879589234
20
-1.7794239064205
30
0
41
1
10
3.09537290450487
20
-1.8137611014408
30
0
41
1
10
3.05859769261153
20
-1.83149976037848
30
0
41
1
10
2.9493657702165
20
-1.88621783257531
30
0
41
1
10
2.87797074807344
20
-1.92469656085305
30
0
41
1
10
2.73851234266118
20
-2.0062589822268
30
0
41
1
10
2.67041850235626
20
-2.04929911438305
30
0
41
1
10
2.57153852577434
20
-2.11832684708818
30
0
41
1
10
2.53906826601408
20
-2.14214838565505
30
0
41
1
10
2.47605370692457
20
-2.19108264361498
30
0
41
1
10
2.44545280996809
20
-2.21623487875047
30
0
41
1
10
2.3862138030799
20
-2.26800506566875
30
0
41
1
10
2.35756927294978
20
-2.29461767014982
30
0
41
1
10
2.30236390446794
20
-2.34937486923215
30
0
41
1
10
2.27579217506971
20
-2.37751071953082
30
0
41
1
10
2.22508734543646
20
-2.43556685466035
30
0
41
1
10
2.20095593876312
20
-2.46548911611717
30
0
41
1
10
2.1672250583984
20
-2.51219129571302
30
0
41
1
10
2.15637628717772
20
-2.52809529780126
30
0
41
1
10
2.13572092080625
20
-2.56047809296098
30
0
41
1
10
2.12600618651834
20
-2.57681207789284
30
0
41
1
10
2.09877448470479
20
-2.62625531483556
30
0
41
1
10
2.06760955889661
20
-2.69336934954416
30
0
41
1
10
2.0463837003752
20
-2.76266447628163
30
0
41
1
10
2.03355099787066
20
-2.81523197233577
30
0
41
1
10
2.02978172445768
20
-2.83285214193168
30
0
41
1
10
2.02310758436826
20
-2.86823883808924
30
0
41
1
10
2.02020050786592
20
-2.88602404242243
30
0
41
1
10
2.0126075394779
20
-2.93907052273124
30
0
41
1
10
2.00899574670416
20
-2.97418392611334
30
0
41
1
10
2.00368542998771
20
-3.04391213985358
30
0
41
1
10
2.00199394834377
20
-3.07852693819501
30
0
41
1
10
2.00004308506752
20
-3.14725971019087
30
0
41
1
10
1.99978834539076
20
-3.18137767609323
30
0
41
1
10
2.00092529567934
20
-3.28298726351818
30
0
41
1
10
2.00418713772098
20
-3.34973495339543
30
0
41
1
10
2.01325606038924
20
-3.44836406839872
30
0
41
1
10
2.01698727540341
20
-3.48099160250189
30
0
41
1
10
2.02596433835666
20
-3.5457472050928
30
0
41
1
10
2.03120139672512
20
-3.57779302357528
30
0
41
1
10
2.04910699055307
20
-3.67246627390031
30
0
41
1
10
2.06400343309633
20
-3.73382619730754
30
0
41
1
10
2.11727755891459
20
-3.91290141570028
30
0
41
1
10
2.1642203493617
20
-4.02562764950031
30
0
41
1
10
2.23537483047798
20
-4.15907328587247
30
0
41
1
10
2.25025581385
20
-4.18542884202003
30
0
41
1
10
2.28101820115171
20
-4.23707065015518
30
0
41
1
10
2.29691372339556
20
-4.26238859243662
30
0
41
1
10
2.34605358886054
20
-4.33691242041326
30
0
41
1
10
2.38074712940505
20
-4.38469111217415
30
0
41
1
10
2.49007715698119
20
-4.52282900277388
30
0
41
1
10
2.56994280895574
20
-4.6080097086369
30
0
41
1
10
2.69877506063264
20
-4.72687874670615
30
0
41
1
10
2.74323183242757
20
-4.76501198629316
30
0
41
1
10
2.83498891748553
20
-4.83848674007427
30
0
41
1
10
2.88232182580742
20
-4.87385063854887
30
0
41
1
10
3.02814321943524
20
-4.9758560310031
30
0
41
1
10
3.12929681646295
20
-5.0376548822413
30
0
41
1
10
3.33814366719591
20
-5.15092636667569
30
0
41
1
10
3.44583594421962
20
-5.20239170602207
30
0
41
1
10
3.66685825890249
20
-5.29642298848506
30
0
41
1
10
3.78019301876728
20
-5.33898166413655
30
0
41
1
10
4.01200972818344
20
-5.41619819033096
30
0
41
1
10
4.13049765205261
20
-5.45085107121267
30
0
41
1
10
4.31189497241098
20
-5.49747609853114
30
0
41
1
10
4.37297284162196
20
-5.51212399260928
30
0
41
1
10
4.46548882348975
20
-5.53281753213125
30
0
41
1
10
4.49648253151639
20
-5.53950298216191
30
0
41
1
10
4.55860369343782
20
-5.55242500241926
30
0
41
1
10
4.71434136592231
20
-5.58362937663406
30
0
41
1
10
4.87221760963126
20
-5.60953252470321
30
0
41
1
10
5.2549438615487
20
-5.66276730871624
30
0
41
1
10
5.5151859753885
20
-5.68640937466841
30
0
41
1
10
6.04424838707322
20
-5.71490090303161
30
0
41
1
10
6.31305908801468
20
-5.71972289598313
30
0
41
1
10
6.85808915689231
20
-5.7137459260116
30
0
41
1
10
7.13431731370241
20
-5.70293046078513
30
0
41
1
10
7.48375148196826
20
-5.68102338165562
30
0
41
1
10
7.5538463427543
20
-5.67622074456972
30
0
41
1
10
7.69444199389133
20
-5.6658011903323
30
0
41
1
10
7.76496758212147
20
-5.66018208523781
30
0
41
1
10
7.97693025010733
20
-5.64216048945761
30
0
41
1
10
8.11873133863855
20
-5.62859805332752
30
0
41
1
10
8.54554406330828
20
-5.58359289211177
30
0
41
1
10
8.83196515350917
20
-5.54784604334091
30
0
41
1
10
9.12011436012531
20
-5.50704018621136
30
0
0
SPLINE
5
CA
100
AcDbEntity
8
1
62
256
6
ByLayer
370
18
48
1
60
0
100
AcDbSpline
70
4
71
3
72
22
73
18
40
0
40
0
40
0
40
0
40
0.016063184040841
40
0.0453241167053494
40
0.0745850493698579
40
0.103845982034366
40
0.162367847363382
40
0.220889712692399
40
0.279411578021415
40
0.396455308679449
40
0.513499039337482
40
0.630542769995515
40
0.747586500653548
40
0.864630231311581
40
0.923152096640598
40
0.981673961969614
40
1
40
1
40
1
40
1
41
1
10
11.8431450691192
20
-2.03178539229432
30
0
41
1
10
11.8269178682943
20
-2.0486836286718
30
0
41
1
10
11.7816795474342
20
-2.09711927602464
30
0
41
1
10
11.7097488570219
20
-2.17980386093686
30
0
41
1
10
11.6284570879027
20
-2.28007312745575
30
0
41
1
10
11.5224142179161
20
-2.41591226562926
30
0
41
1
10
11.3911393283483
20
-2.58681082567361
30
0
41
1
10
11.232488245811
20
-2.79085833190967
30
0
41
1
10
11.0205910470264
20
-3.06258266697688
30
0
41
1
10
10.7570522485005
20
-3.4034621122012
30
0
41
1
10
10.4435184597413
20
-3.8148690147693
30
0
41
1
10
10.1299787682052
20
-4.22612421018195
30
0
41
1
10
9.81558516968821
20
-4.63673231551377
30
0
41
1
10
9.55106804000144
20
-4.97686620188526
30
0
41
1
10
9.33534723599732
20
-5.2452527748267
30
0
41
1
10
9.20908096667137
20
-5.39906294220873
30
0
41
1
10
9.1372607210493
20
-5.48625606703303
30
0
41
1
10
9.12013053339126
20
-5.50704691096544
30
0
0
SPLINE
5
CB
100
AcDbEntity
8
1
62
256
6
ByLayer
370
18
48
1
60
0
100
AcDbSpline
70
4
71
3
72
18
73
14
40
0
40
0
40
0
40
0
40
0.0213211148257267
40
0.0470989229736468
40
0.107005843355028
40
0.182104568533887
40
0.267455672911357
40
0.34957213442587
40
0.428480110878554
40
0.522141002773359
40
0.653586478270516
40
0.823650072769625
40
1
40
1
40
1
40
1
41
1
10
88.3807596939199
20
0.178710184206096
30
0
41
1
10
88.3811192038476
20
0.180556786960153
30
0
41
1
10
88.3727035673809
20
0.186087282024886
30
0
41
1
10
88.3026421923351
20
0.209222486767544
30
0
41
1
10
88.0994415211358
20
0.269562949394924
30
0
41
1
10
87.7640809557097
20
0.37756079179789
30
0
41
1
10
87.4059483146773
20
0.501535619189866
30
0
41
1
10
87.0390685874838
20
0.637479402010229
30
0
41
1
10
86.6618618634949
20
0.785311787137942
30
0
41
1
10
86.2032325439392
20
0.97516619731357
30
0
41
1
10
85.5970303487211
20
1.24353090880908
30
0
41
1
10
84.8596683278673
20
1.5935147106444
30
0
41
1
10
84.3214213523714
20
1.86434561047741
30
0
41
1
10
84.0464623140041
20
2.00700369426943
30
0
0
SPLINE
5
CC
100
AcDbEntity
8
1
62
256
6
ByLayer
370
18
48
1
60
0
100
AcDbSpline
70
4
71
3
72
19
73
15
40
0
40
0
40
0
40
0
40
0.0200763625881481
40
0.0457673117960619
40
0.101465713325099
40
0.169648512628657
40
0.244753011749291
40
0.319806438291076
40
0.394835359877141
40
0.470763401452289
40
0.568360796763832
40
0.696691420140867
40
0.856405658494712
40
1
40
1
40
1
40
1
41
1
10
23.201429338428
20
0.17541686554722
30
0
41
1
10
23.201966335369
20
0.177511212143571
30
0
41
1
10
23.1966072942121
20
0.183286810121928
30
0
41
1
10
23.1474280523091
20
0.202359952626239
30
0
41
1
10
22.9906192785507
20
0.249160500255101
30
0
41
1
10
22.701686033299
20
0.33994587774086
30
0
41
1
10
22.3763552407057
20
0.4496550398583
30
0
41
1
10
22.0439642617338
20
0.569168425155993
30
0
41
1
10
21.7094203738859
20
0.696421789867657
30
0
41
1
10
21.3431739646356
20
0.842911102646582
30
0
41
1
10
20.8868024200091
20
1.03551632851028
30
0
41
1
10
20.297681334802
20
1.30098295757094
30
0
41
1
10
19.6330192839799
20
1.61839966328009
30
0
41
1
10
19.1631781140424
20
1.85556191423512
30
0
41
1
10
18.9400315052035
20
1.97107396403888
30
0
0
SPLINE
5
CD
100
AcDbEntity
8
1
62
256
6
ByLayer
370
18
48
1
60
0
100
AcDbSpline
70
4
71
3
72
13
73
9
40
0
40
0
40
0
40
0
40
0.058657956006939
40
0.140482210911198
40
0.233027991433373
40
0.342946758210855
40
0.631971137269046
40
1
40
1
40
1
40
1
41
1
10
41.5323382259987
20
-0.257437168498058
30
0
41
1
10
41.5320428819071
20
-0.258847368286297
30
0
41
1
10
41.5356570152746
20
-0.263533382996286
30
0
41
1
10
41.5603521734633
20
-0.276506187824282
30
0
41
1
10
41.6104642074419
20
-0.295573691043501
30
0
41
1
10
41.7200751730303
20
-0.327925335798796
30
0
41
1
10
41.9180206712986
20
-0.375730320589042
30
0
41
1
10
42.0921989981617
20
-0.418439605130516
30
0
41
1
10
42.1900580646968
20
-0.442599330861583
30
0
0
SPLINE
5
CE
100
AcDbEntity
8
1
62
256
6
ByLayer
370
18
48
1
60
0
100
AcDbSpline
70
4
71
3
72
18
73
14
40
0
40
0
40
0
40
0
40
0.0049956506645105
40
0.0269566446656138
40
0.0821605382373301
40
0.146394132097605
40
0.31742808253138
40
0.42898621693974
40
0.529557594742047
40
0.619299164893516
40
0.724596103680902
40
0.864359779655452
40
1
40
1
40
1
40
1
41
1
10
56.1007259038248
20
0.0811359813903323
30
0
41
1
10
56.1007015849607
20
0.0814620136285384
30
0
41
1
10
56.0927675610337
20
0.0851514755534311
30
0
41
1
10
56.0174043232955
20
0.110193903087946
30
0
41
1
10
55.8507199001027
20
0.164337740720782
30
0
41
1
10
55.478514991636
20
0.27876510425051
30
0
41
1
10
54.9607094276157
20
0.446391051968987
30
0
41
1
10
54.343199021385
20
0.677327252581591
30
0
41
1
10
53.8583199811368
20
0.873087042809885
30
0
41
1
10
53.3763086925738
20
1.08004818931312
30
0
41
1
10
52.8211677409556
20
1.3320975116489
30
0
41
1
10
52.1843170391327
20
1.63605386372302
30
0
41
1
10
51.721218660806
20
1.87032743136336
30
0
41
1
10
51.4923792926446
20
1.9891775530067
30
0
0
LINE
5
7D
100
AcDbEntity
8
4
62
256
6
ByLayer
370
18
48
0.05
60
0
100
AcDbLine
10
-5
20
0
30
0
11
101
21
0
31
0
39
0
210
0
220
0
230
1
0
LINE
5
7F
100
AcDbEntity
8
81
62
256
6
ByLayer
370
18
48
1
60
0
100
AcDbLine
10
96
20
0
30
0
11
101
21
0
31
0
39
0
210
0
220
0
230
1
0
LINE
5
80
100
AcDbEntity
8
SK4
62
256
6
ByLayer
370
18
48
0.05
60
0
100
AcDbLine
10
-51
20
0
30
0
11
101
21
0
31
0
39
0
210
0
220
0
230
1
0
LINE
5
82
100
AcDbEntity
8
80
62
256
6
ByLayer
370
18
48
1
60
0
100
AcDbLine
10
0
20
0
30
0
11
-5
21
0
31
0
39
0
210
0
220
0
230
1
0
LINE
5
83
100
AcDbEntity
8
1
62
256
6
ByLayer
370
18
48
1
60
0
100
AcDbLine
10
0
20
5.75
30
0
11
0
21
-5.75
31
0
39
0
210
0
220
0
230
1
0
LINE
5
84
100
AcDbEntity
8
1
62
256
6
ByLayer
370
18
48
1
60
0
100
AcDbLine
10
92.890546
20
-5.75
30
0
11
92.890546
21
-2.739043
31
0
39
0
210
0
220
0
230
1
0
LINE
5
85
100
AcDbEntity
8
1
62
256
6
ByLayer
370
18
48
1
60
0
100
AcDbLine
10
92.890546
20
5.75
30
0
11
92.890546
21
5.567207
31
0
39
0
210
0
220
0
230
1
0
LINE
5
86
100
AcDbEntity
8
1
62
256
6
ByLayer
370
18
48
1
60
0
100
AcDbLine
10
0.4
20
-5.715316
30
0
11
0.4
21
5.715316
31
0
39
0
210
0
220
0
230
1
0
LINE
5
87
100
AcDbEntity
8
SK1
62
256
6
ByLayer
370
18
48
1
60
0
100
AcDbLine
10
0
20
5.75
30
0
11
0
21
-5.75
31
0
39
0
210
0
220
0
230
1
0
LINE
5
89
100
AcDbEntity
8
SK1
62
256
6
ByLayer
370
18
48
1
60
0
100
AcDbLine
10
-46
20
-4.75
30
0
11
-46
21
4.75
31
0
39
0
210
0
220
0
230
1
0
LINE
5
8A
100
AcDbEntity
8
SK1
62
256
6
ByLayer
370
18
48
1
60
0
100
AcDbLine
10
-45
20
-5.75
30
0
11
-45
21
5.75
31
0
39
0
210
0
220
0
230
1
0
LINE
5
8B
100
AcDbEntity
8
1
62
256
6
ByLayer
370
18
48
1
60
0
100
AcDbLine
10
96
20
0
30
0
11
92.890546
21
5.75
31
0
39
0
210
0
220
0
230
1
0
LINE
5
8C
100
AcDbEntity
8
1
62
256
6
ByLayer
370
18
48
1
60
0
100
AcDbLine
10
92.890546
20
-5.75
30
0
11
96
21
0
31
0
39
0
210
0
220
0
230
1
0
LINE
5
8D
100
AcDbEntity
8
1
62
256
6
ByLayer
370
18
48
1
60
0
100
AcDbLine
10
0.4
20
5.715316
30
0
11
0
21
5.75
31
0
39
0
210
0
220
0
230
1
0
LINE
5
8E
100
AcDbEntity
8
1
62
256
6
ByLayer
370
18
48
1
60
0
100
AcDbLine
10
0
20
-5.75
30
0
11
0.4
21
-5.715316
31
0
39
0
210
0
220
0
230
1
0
LINE
5
8F
100
AcDbEntity
8
1
62
256
6
ByLayer
370
18
48
1
60
0
100
AcDbLine
10
0.4
20
-5.715316
30
0
11
6.437412
21
-5.71758
31
0
39
0
210
0
220
0
230
1
0
LINE
5
90
100
AcDbEntity
8
1
62
256
6
ByLayer
370
18
48
1
60
0
100
AcDbLine
10
25.094618
20
-5.724577
30
0
11
38.870643
21
-5.729743
31
0
39
0
210
0
220
0
230
1
0
LINE
5
91
100
AcDbEntity
8
1
62
256
6
ByLayer
370
18
48
1
60
0
100
AcDbLine
10
57.682468
20
-5.736797
30
0
11
71.449867
21
-5.74196
31
0
39
0
210
0
220
0
230
1
0
LINE
5
92
100
AcDbEntity
8
1
62
256
6
ByLayer
370
18
48
1
60
0
100
AcDbLine
10
90.268001
20
-5.749017
30
0
11
92.890546
21
-5.75
31
0
39
0
210
0
220
0
230
1
0
LINE
5
93
100
AcDbEntity
8
1
62
256
6
ByLayer
370
18
48
1
60
0
100
AcDbLine
10
92.890546
20
5.75
30
0
11
90.268001
21
5.749017
31
0
39
0
210
0
220
0
230
1
0
LINE
5
94
100
AcDbEntity
8
1
62
256
6
ByLayer
370
18
48
1
60
0
100
AcDbLine
10
71.449867
20
5.74196
30
0
11
57.682468
21
5.736797
31
0
39
0
210
0
220
0
230
1
0
LINE
5
95
100
AcDbEntity
8
1
62
256
6
ByLayer
370
18
48
1
60
0
100
AcDbLine
10
38.870643
20
5.729743
30
0
11
25.094618
21
5.724577
31
0
39
0
210
0
220
0
230
1
0
LINE
5
96
100
AcDbEntity
8
1
62
256
6
ByLayer
370
18
48
1
60
0
100
AcDbLine
10
6.437412
20
5.71758
30
0
11
0.4
21
5.715316
31
0
39
0
210
0
220
0
230
1
0
LINE
5
97
100
AcDbEntity
8
SK1
62
256
6
ByLayer
370
18
48
1
60
0
100
AcDbLine
10
-45
20
-5.75
30
0
11
0
21
-5.75
31
0
39
0
210
0
220
0
230
1
0
LINE
5
98
100
AcDbEntity
8
SK1
62
256
6
ByLayer
370
18
48
1
60
0
100
AcDbLine
10
0
20
5.75
30
0
11
-45
21
5.75
31
0
39
0
210
0
220
0
230
1
0
LINE
5
99
100
AcDbEntity
8
SK1
62
256
6
ByLayer
370
18
48
1
60
0
100
AcDbLine
10
-46
20
-4.75
30
0
11
-45
21
-5.75
31
0
39
0
210
0
220
0
230
1
0
LINE
5
9A
100
AcDbEntity
8
SK1
62
256
6
ByLayer
370
18
48
1
60
0
100
AcDbLine
10
-45
20
5.75
30
0
11
-46
21
4.75
31
0
39
0
210
0
220
0
230
1
0
LINE
5
9B
100
AcDbEntity
8
SK2
62
256
6
ByLayer
370
13
48
1
60
0
100
AcDbLine
10
-52.5
20
-5.75
30
0
11
-52.5
21
33.274798
31
0
39
0
210
0
220
0
230
1
0
LINE
5
9D
100
AcDbEntity
8
SK2
62
256
6
ByLayer
370
13
48
1
60
0
100
AcDbLine
10
-47.5875
20
5.75
30
0
11
-54.5
21
5.75
31
0
39
0
210
0
220
0
230
1
0
LINE
5
9E
100
AcDbEntity
8
SK2
62
256
6
ByLayer
370
13
48
1
60
0
100
AcDbLine
10
-47.5875
20
-5.75
30
0
11
-54.5
21
-5.75
31
0
39
0
210
0
220
0
230
1
0
LINE
5
9F
100
AcDbEntity
8
1
62
256
6
ByLayer
370
18
48
1
60
1
100
AcDbLine
10
-52.5
20
5.75
30
0
11
-52.039216
21
2.250002
31
0
39
0
210
0
220
0
230
1
0
LINE
5
A0
100
AcDbEntity
8
1
62
256
6
ByLayer
370
18
48
1
60
1
100
AcDbLine
10
-52.039216
20
2.250002
30
0
11
-52.960784
21
2.249998
31
0
39
0
210
0
220
0
230
1
0
LINE
5
A1
100
AcDbEntity
8
1
62
256
6
ByLayer
370
18
48
1
60
1
100
AcDbLine
10
-52.960784
20
2.249998
30
0
11
-52.5
21
5.75
31
0
39
0
210
0
220
0
230
1
0
LINE
5
A2
100
AcDbEntity
8
1
62
256
6
ByLayer
370
18
48
1
60
1
100
AcDbLine
10
-52.5
20
-5.75
30
0
11
-52.960784
21
-2.250002
31
0
39
0
210
0
220
0
230
1
0
LINE
5
A3
100
AcDbEntity
8
1
62
256
6
ByLayer
370
18
48
1
60
1
100
AcDbLine
10
-52.960784
20
-2.250002
30
0
11
-52.039216
21
-2.249998
31
0
39
0
210
0
220
0
230
1
0
LINE
5
A4
100
AcDbEntity
8
1
62
256
6
ByLayer
370
18
48
1
60
1
100
AcDbLine
10
-52.039216
20
-2.249998
30
0
11
-52.5
21
-5.75
31
0
39
0
210
0
220
0
230
1
0
LINE
5
A5
100
AcDbEntity
8
2
62
256
6
ByLayer
370
13
48
1
60
0
100
AcDbLine
10
102.390546
20
-5.75
30
0
11
102.390546
21
33.274798
31
0
39
0
210
0
220
0
230
1
0
LINE
5
A7
100
AcDbEntity
8
2
62
256
6
ByLayer
370
13
48
1
60
0
100
AcDbLine
10
94.478046
20
5.75
30
0
11
104.390546
21
5.75
31
0
39
0
210
0
220
0
230
1
0
LINE
5
A8
100
AcDbEntity
8
2
62
256
6
ByLayer
370
13
48
1
60
0
100
AcDbLine
10
94.478046
20
-5.75
30
0
11
104.390546
21
-5.75
31
0
39
0
210
0
220
0
230
1
0
LINE
5
A9
100
AcDbEntity
8
1
62
256
6
ByLayer
370
18
48
1
60
1
100
AcDbLine
10
102.390546
20
5.75
30
0
11
102.85133
21
2.250002
31
0
39
0
210
0
220
0
230
1
0
LINE
5
AA
100
AcDbEntity
8
1
62
256
6
ByLayer
370
18
48
1
60
1
100
AcDbLine
10
102.85133
20
2.250002
30
0
11
101.929763
21
2.249998
31
0
39
0
210
0
220
0
230
1
0
LINE
5
AB
100
AcDbEntity
8
1
62
256
6
ByLayer
370
18
48
1
60
1
100
AcDbLine
10
101.929763
20
2.249998
30
0
11
102.390546
21
5.75
31
0
39
0
210
0
220
0
230
1
0
LINE
5
AC
100
AcDbEntity
8
1
62
256
6
ByLayer
370
18
48
1
60
1
100
AcDbLine
10
102.390546
20
-5.75
30
0
11
101.929763
21
-2.250002
31
0
39
0
210
0
220
0
230
1
0
LINE
5
AD
100
AcDbEntity
8
1
62
256
6
ByLayer
370
18
48
1
60
1
100
AcDbLine
10
101.929763
20
-2.250002
30
0
11
102.85133
21
-2.249998
31
0
39
0
210
0
220
0
230
1
0
LINE
5
AE
100
AcDbEntity
8
1
62
256
6
ByLayer
370
18
48
1
60
1
100
AcDbLine
10
102.85133
20
-2.249998
30
0
11
102.390546
21
-5.75
31
0
39
0
210
0
220
0
230
1
0
LINE
5
AF
100
AcDbEntity
8
2
62
256
6
ByLayer
370
13
48
1
60
0
100
AcDbLine
10
96.755136
20
-1.396397
30
0
11
107.416232
21
-21.110889
31
0
39
0
210
0
220
0
230
1
0
LINE
5
B0
100
AcDbEntity
8
2
62
256
6
ByLayer
370
13
48
1
60
0
100
AcDbLine
10
96.755136
20
1.396397
30
0
11
107.416232
21
21.110889
31
0
39
0
210
0
220
0
230
1
0
LINE
5
B1
100
AcDbEntity
8
1
62
256
6
ByLayer
370
18
48
1
60
1
100
AcDbLine
10
106.464879
20
-19.351649
30
0
11
109.239971
21
-17.169637
31
0
39
0
210
0
220
0
230
1
0
LINE
5
B2
100
AcDbEntity
8
1
62
256
6
ByLayer
370
18
48
1
60
1
100
AcDbLine
10
109.239971
20
-17.169637
30
0
11
109.710161
21
-17.962233
31
0
39
0
210
0
220
0
230
1
0
LINE
5
B3
100
AcDbEntity
8
1
62
256
6
ByLayer
370
18
48
1
60
1
100
AcDbLine
10
109.710161
20
-17.962233
30
0
11
106.464879
21
-19.351649
31
0
39
0
210
0
220
0
230
1
0
LINE
5
B4
100
AcDbEntity
8
1
62
256
6
ByLayer
370
18
48
1
60
1
100
AcDbLine
10
106.464879
20
19.351649
30
0
11
109.710158
21
17.962234
31
0
39
0
210
0
220
0
230
1
0
LINE
5
B5
100
AcDbEntity
8
1
62
256
6
ByLayer
370
18
48
1
60
1
100
AcDbLine
10
109.710158
20
17.962234
30
0
11
109.239974
21
17.169635
31
0
39
0
210
0
220
0
230
1
0
LINE
5
B6
100
AcDbEntity
8
1
62
256
6
ByLayer
370
18
48
1
60
1
100
AcDbLine
10
109.239974
20
17.169635
30
0
11
106.464879
21
19.351649
31
0
39
0
210
0
220
0
230
1
0
LINE
5
D3
100
AcDbEntity
8
1
62
256
6
ByLayer
370
18
48
1
60
1
100
AcDbLine
10
-52.5
20
5.75
30
0
11
-52.039216
21
2.250002
31
0
39
0
210
0
220
0
230
1
0
LINE
5
D4
100
AcDbEntity
8
1
62
256
6
ByLayer
370
18
48
1
60
1
100
AcDbLine
10
-52.039216
20
2.250002
30
0
11
-52.960784
21
2.249998
31
0
39
0
210
0
220
0
230
1
0
LINE
5
D5
100
AcDbEntity
8
1
62
256
6
ByLayer
370
18
48
1
60
1
100
AcDbLine
10
-52.960784
20
2.249998
30
0
11
-52.5
21
5.75
31
0
39
0
210
0
220
0
230
1
0
LINE
5
D7
100
AcDbEntity
8
1
62
256
6
ByLayer
370
18
48
1
60
1
100
AcDbLine
10
-52.5
20
-5.75
30
0
11
-52.960784
21
-2.250002
31
0
39
0
210
0
220
0
230
1
0
LINE
5
D8
100
AcDbEntity
8
1
62
256
6
ByLayer
370
18
48
1
60
1
100
AcDbLine
10
-52.960784
20
-2.250002
30
0
11
-52.039216
21
-2.249998
31
0
39
0
210
0
220
0
230
1
0
LINE
5
D9
100
AcDbEntity
8
1
62
256
6
ByLayer
370
18
48
1
60
1
100
AcDbLine
10
-52.039216
20
-2.249998
30
0
11
-52.5
21
-5.75
31
0
39
0
210
0
220
0
230
1
0
LINE
5
DD
100
AcDbEntity
8
1
62
256
6
ByLayer
370
18
48
1
60
1
100
AcDbLine
10
102.390546
20
5.75
30
0
11
102.85133
21
2.250002
31
0
39
0
210
0
220
0
230
1
0
LINE
5
DE
100
AcDbEntity
8
1
62
256
6
ByLayer
370
18
48
1
60
1
100
AcDbLine
10
102.85133
20
2.250002
30
0
11
101.929763
21
2.249998
31
0
39
0
210
0
220
0
230
1
0
LINE
5
DF
100
AcDbEntity
8
1
62
256
6
ByLayer
370
18
48
1
60
1
100
AcDbLine
10
101.929763
20
2.249998
30
0
11
102.390546
21
5.75
31
0
39
0
210
0
220
0
230
1
0
LINE
5
E1
100
AcDbEntity
8
1
62
256
6
ByLayer
370
18
48
1
60
1
100
AcDbLine
10
102.390546
20
-5.75
30
0
11
101.929763
21
-2.250002
31
0
39
0
210
0
220
0
230
1
0
LINE
5
E2
100
AcDbEntity
8
1
62
256
6
ByLayer
370
18
48
1
60
1
100
AcDbLine
10
101.929763
20
-2.250002
30
0
11
102.85133
21
-2.249998
31
0
39
0
210
0
220
0
230
1
0
LINE
5
E3
100
AcDbEntity
8
1
62
256
6
ByLayer
370
18
48
1
60
1
100
AcDbLine
10
102.85133
20
-2.249998
30
0
11
102.390546
21
-5.75
31
0
39
0
210
0
220
0
230
1
0
LINE
5
E6
100
AcDbEntity
8
1
62
256
6
ByLayer
370
18
48
1
60
1
100
AcDbLine
10
106.464879
20
-19.351649
30
0
11
109.239971
21
-17.169637
31
0
39
0
210
0
220
0
230
1
0
LINE
5
E7
100
AcDbEntity
8
1
62
256
6
ByLayer
370
18
48
1
60
1
100
AcDbLine
10
109.239971
20
-17.169637
30
0
11
109.710161
21
-17.962233
31
0
39
0
210
0
220
0
230
1
0
LINE
5
E8
100
AcDbEntity
8
1
62
256
6
ByLayer
370
18
48
1
60
1
100
AcDbLine
10
109.710161
20
-17.962233
30
0
11
106.464879
21
-19.351649
31
0
39
0
210
0
220
0
230
1
0
LINE
5
EA
100
AcDbEntity
8
1
62
256
6
ByLayer
370
18
48
1
60
1
100
AcDbLine
10
106.464879
20
19.351649
30
0
11
109.710158
21
17.962234
31
0
39
0
210
0
220
0
230
1
0
LINE
5
EB
100
AcDbEntity
8
1
62
256
6
ByLayer
370
18
48
1
60
1
100
AcDbLine
10
109.710158
20
17.962234
30
0
11
109.239974
21
17.169635
31
0
39
0
210
0
220
0
230
1
0
LINE
5
EC
100
AcDbEntity
8
1
62
256
6
ByLayer
370
18
48
1
60
1
100
AcDbLine
10
109.239974
20
17.169635
30
0
11
106.464879
21
19.351649
31
0
39
0
210
0
220
0
230
1
0
MTEXT
5
CF
100
AcDbEntity
8
SK2
62
256
6
ByLayer
370
18
48
1
60
0
100
AcDbMText
10
-53.841114
20
17.408438
30
0
210
0
220
0
230
1
1
%%c
40
3
41
0
44
1.084337
50
90
71
7
72
5
7
iso_b_vert
0
MTEXT
5
D2
100
AcDbEntity
8
SK2
62
256
6
ByLayer
370
18
48
1
60
0
100
AcDbMText
10
-53.841114
20
23.385
30
0
210
0
220
0
230
1
1
\W0.6532;11.500
40
3
41
0
44
1.084337
50
90
71
7
72
5
7
iso_b_vert
0
MTEXT
5
DB
100
AcDbEntity
8
2
62
256
6
ByLayer
370
18
48
1
60
0
100
AcDbMText
10
101.049432
20
17.408438
30
0
210
0
220
0
230
1
1
%%c
40
3
41
0
44
1.084337
50
90
71
7
72
5
7
iso_b_vert
0
MTEXT
5
DC
100
AcDbEntity
8
2
62
256
6
ByLayer
370
18
48
1
60
0
100
AcDbMText
10
101.049432
20
23.385
30
0
210
0
220
0
230
1
1
\W0.6532;11.500
40
3
41
0
44
1.084337
50
90
71
7
72
5
7
iso_b_vert
0
MTEXT
5
E5
100
AcDbEntity
8
2
62
256
6
ByLayer
370
18
48
1
60
0
100
AcDbMText
10
115.092229
20
-2.114886
30
0
210
0
220
0
230
1
1
\W0.6008;118%%d
40
3
41
0
44
1.084337
50
0
71
7
72
5
7
iso_b_vert
0
MTEXT
5
EE
100
AcDbEntity
8
SK6
62
256
6
ByLayer
370
18
48
1
60
0
100
AcDbMText
10
19.588784
20
-67.114886
30
0
210
0
220
0
230
1
1
\W0.7006;R00311.5
40
3
41
0
44
1.084337
50
0
71
7
72
5
7
iso_b_vert
0
HATCH
5
D6
100
AcDbEntity
8
SK2
62
256
6
ByLayer
370
13
48
1
60
0
100
AcDbHatch
10
0
20
0
30
0
210
0
220
0
230
1
2
ANSI31
70
0
71
0
91
1
92
5
93
3
72
1
10
-52.5
20
5.75
11
-52.0392162584472
21
2.25000169255318
72
1
10
-52.0392162584472
20
2.25000169255318
11
-52.9607837415528
21
2.24999830744682
72
1
10
-52.9607837415528
20
2.24999830744682
11
-52.5
21
5.75
97
0
75
0
76
1
52
0
41
0.0062
77
0
78
1
53
45
43
0
44
0
45
-0.0139193969876572
46
0.0139193969876572
79
0
47
0
98
1
10
0
20
0
0
HATCH
5
DA
100
AcDbEntity
8
SK2
62
256
6
ByLayer
370
13
48
1
60
0
100
AcDbHatch
10
0
20
0
30
0
210
0
220
0
230
1
2
ANSI31
70
0
71
0
91
1
92
5
93
3
72
1
10
-52.5
20
-5.75
11
-52.9607837415528
21
-2.25000169255318
72
1
10
-52.9607837415528
20
-2.25000169255318
11
-52.0392162584472
21
-2.24999830744682
72
1
10
-52.0392162584472
20
-2.24999830744682
11
-52.5
21
-5.75
97
0
75
0
76
1
52
0
41
0.0062
77
0
78
1
53
45
43
0
44
0
45
-0.0139193969876572
46
0.0139193969876572
79
0
47
0
98
1
10
0
20
0
0
HATCH
5
E0
100
AcDbEntity
8
2
62
256
6
ByLayer
370
13
48
1
60
0
100
AcDbHatch
10
0
20
0
30
0
210
0
220
0
230
1
2
ANSI31
70
0
71
0
91
1
92
5
93
3
72
1
10
102.390546296532
20
5.75
11
102.851330038085
21
2.25000169255318
72
1
10
102.851330038085
20
2.25000169255318
11
101.92976255498
21
2.24999830744682
72
1
10
101.92976255498
20
2.24999830744682
11
102.390546296532
21
5.75
97
0
75
0
76
1
52
0
41
0.0062
77
0
78
1
53
45
43
0
44
0
45
-0.0139193969876572
46
0.0139193969876572
79
0
47
0
98
1
10
0
20
0
0
HATCH
5
E4
100
AcDbEntity
8
2
62
256
6
ByLayer
370
13
48
1
60
0
100
AcDbHatch
10
0
20
0
30
0
210
0
220
0
230
1
2
ANSI31
70
0
71
0
91
1
92
5
93
3
72
1
10
102.390546296532
20
-5.75
11
101.92976255498
21
-2.25000169255318
72
1
10
101.92976255498
20
-2.25000169255318
11
102.851330038085
21
-2.24999830744682
72
1
10
102.851330038085
20
-2.24999830744682
11
102.390546296532
21
-5.75
97
0
75
0
76
1
52
0
41
0.0062
77
0
78
1
53
45
43
0
44
0
45
-0.0139193969876572
46
0.0139193969876572
79
0
47
0
98
1
10
0
20
0
0
HATCH
5
E9
100
AcDbEntity
8
2
62
256
6
ByLayer
370
13
48
1
60
0
100
AcDbHatch
10
0
20
0
30
0
210
0
220
0
230
1
2
ANSI31
70
0
71
0
91
1
92
5
93
3
72
1
10
106.464879198752
20
-19.3516485952885
11
109.239971107838
21
-17.1696369764528
72
1
10
109.239971107838
20
-17.1696369764528
11
109.710161392925
21
-17.9622325364573
72
1
10
109.710161392925
20
-17.9622325364573
11
106.464879198752
21
-19.3516485952885
97
0
75
0
76
1
52
0
41
0.0062
77
0
78
1
53
45
43
0
44
0
45
-0.0139193969876572
46
0.0139193969876572
79
0
47
0
98
1
10
0
20
0
0
HATCH
5
ED
100
AcDbEntity
8
2
62
256
6
ByLayer
370
13
48
1
60
0
100
AcDbHatch
10
0
20
0
30
0
210
0
220
0
230
1
2
ANSI31
70
0
71
0
91
1
92
5
93
3
72
1
10
106.464879198752
20
19.3516485952885
11
109.710158481552
21
17.9622342635519
72
1
10
109.710158481552
20
17.9622342635519
11
109.239974019211
21
17.1696352493581
72
1
10
109.239974019211
20
17.1696352493581
11
106.464879198752
21
19.3516485952885
97
0
75
0
76
1
52
0
41
0.0062
77
0
78
1
53
45
43
0
44
0
45
-0.0139193969876572
46
0.0139193969876572
79
0
47
0
98
1
10
0
20
0
0
DIMENSION
5
F1
100
AcDbEntity
8
SK2
62
256
6
ByLayer
370
18
48
1
60
0
100
AcDbDimension
2
_U0
10
96
20
-47.412351
30
0
11
25
21
-47.412351
31
0
70
32
71
1
72
1
41
1
210
0
220
0
230
1
3
Standard
100
AcDbAlignedDimension
13
-46
23
-5.75
33
0
14
96
24
0
34
0
50
0
100
AcDbRotatedDimension
1001
ACAD
1000
DSTYLE
1002
{
1070
   371
1070
    13
1070
   372
1070
    13
1070
     3
1000

1070
   170
1070
     0
1070
   144
1040
1.0
1070
   277
1070
     2
1070
   284
1070
     8
1070
   278
1070
    46
1070
   146
1040
1.166667
1070
   345
1005
16
1070
   347
1005
16
1070
   346
1005
16
1070
   344
1005
0
1070
   343
1005
0
1070
   172
1070
     1
1070
    76
1070
     0
1070
    75
1070
     0
1070
   282
1070
     0
1070
   281
1070
     0
1070
    71
1070
     0
1070
    74
1070
     0
1070
   279
1070
     0
1070
   173
1070
     1
1070
   340
1005
D0
1070
   271
1070
     2
1070
   272
1070
     3
1070
    77
1070
     1
1070
    73
1070
     1
1070
   171
1070
     3
1070
   274
1070
     4
1070
   177
1070
     2
1070
   176
1070
     2
1070
   178
1070
     2
1070
    78
1070
     8
1070
    48
1040
-0.1
1070
    41
1040
3.5
1070
   147
1040
1.5
1070
    42
1040
1.5875
1070
    44
1040
2.0
1070
   140
1040
3.0
1002
}
1001
ACAD_DSTYLE_DIM_LINETYPE
1070
   380
1005
16
1001
ACAD_DSTYLE_DIM_EXT1_LINETYPE
1070
   381
1005
16
1001
ACAD_DSTYLE_DIM_EXT2_LINETYPE
1070
   382
1005
16
0
DIMENSION
5
10A
100
AcDbEntity
8
2
62
256
6
ByLayer
370
18
48
1
60
0
100
AcDbDimension
2
_U1
10
2
20
-37.412351
30
0
11
49
21
-37.412351
31
0
70
32
71
1
72
1
41
1
210
0
220
0
230
1
3
Standard
100
AcDbAlignedDimension
13
96
23
0
33
0
14
2
24
-5.75
34
0
50
0
100
AcDbRotatedDimension
1001
ACAD
1000
DSTYLE
1002
{
1070
   371
1070
    13
1070
   372
1070
    13
1070
     3
1000

1070
   170
1070
     0
1070
   144
1040
1.0
1070
   277
1070
     2
1070
   284
1070
     8
1070
   278
1070
    46
1070
   146
1040
1.166667
1070
   345
1005
16
1070
   347
1005
16
1070
   346
1005
16
1070
   344
1005
0
1070
   343
1005
0
1070
   172
1070
     1
1070
    76
1070
     0
1070
    75
1070
     0
1070
   282
1070
     0
1070
   281
1070
     0
1070
    71
1070
     0
1070
    74
1070
     0
1070
   279
1070
     0
1070
   173
1070
     1
1070
   340
1005
D0
1070
   271
1070
     2
1070
   272
1070
     3
1070
    77
1070
     1
1070
    73
1070
     1
1070
   171
1070
     3
1070
   274
1070
     4
1070
   177
1070
     2
1070
   176
1070
     2
1070
   178
1070
     2
1070
    78
1070
     8
1070
    48
1040
-0.1
1070
    41
1040
3.5
1070
   147
1040
1.5
1070
    42
1040
1.5875
1070
    44
1040
2.0
1070
   140
1040
3.0
1002
}
1001
ACAD_DSTYLE_DIM_LINETYPE
1070
   380
1005
16
1001
ACAD_DSTYLE_DIM_EXT1_LINETYPE
1070
   381
1005
16
1001
ACAD_DSTYLE_DIM_EXT2_LINETYPE
1070
   382
1005
16
0
DIMENSION
5
122
100
AcDbEntity
8
SK2
62
256
6
ByLayer
370
18
48
1
60
0
100
AcDbDimension
2
_U2
10
0
20
-32.412351
30
0
11
-23
21
-32.412351
31
0
70
32
71
1
72
1
41
1
210
0
220
0
230
1
3
Standard
100
AcDbAlignedDimension
13
-46
23
-5.75
33
0
14
0
24
-5.75
34
0
50
0
100
AcDbRotatedDimension
1001
ACAD
1000
DSTYLE
1002
{
1070
   371
1070
    13
1070
   372
1070
    13
1070
     3
1000

1070
   170
1070
     0
1070
   144
1040
1.0
1070
   277
1070
     2
1070
   284
1070
     8
1070
   278
1070
    46
1070
   146
1040
1.166667
1070
   345
1005
16
1070
   347
1005
16
1070
   346
1005
16
1070
   344
1005
0
1070
   343
1005
0
1070
   172
1070
     1
1070
    76
1070
     0
1070
    75
1070
     0
1070
   282
1070
     0
1070
   281
1070
     0
1070
    71
1070
     0
1070
    74
1070
     0
1070
   279
1070
     0
1070
   173
1070
     1
1070
   340
1005
D0
1070
   271
1070
     2
1070
   272
1070
     3
1070
    77
1070
     1
1070
    73
1070
     1
1070
   171
1070
     3
1070
   274
1070
     4
1070
   177
1070
     2
1070
   176
1070
     2
1070
   178
1070
     2
1070
    78
1070
     8
1070
    48
1040
-0.1
1070
    41
1040
3.5
1070
   147
1040
1.5
1070
    42
1040
1.5875
1070
    44
1040
2.0
1070
   140
1040
3.0
1002
}
1001
ACAD_DSTYLE_DIM_LINETYPE
1070
   380
1005
16
1001
ACAD_DSTYLE_DIM_EXT1_LINETYPE
1070
   381
1005
16
1001
ACAD_DSTYLE_DIM_EXT2_LINETYPE
1070
   382
1005
16
0
DIMENSION
5
13A
100
AcDbEntity
8
2
62
256
6
ByLayer
370
18
48
1
60
0
100
AcDbDimension
2
_U3
10
25.5
20
-30.412351
30
0
11
60.75
21
-30.412351
31
0
70
32
71
1
72
1
41
1
210
0
220
0
230
1
3
Standard
100
AcDbAlignedDimension
13
96
23
0
33
0
14
25.5
24
-5.75
34
0
50
0
100
AcDbRotatedDimension
1001
ACAD
1000
DSTYLE
1002
{
1070
   371
1070
    13
1070
   372
1070
    13
1070
     3
1000

1070
   170
1070
     0
1070
   144
1040
1.0
1070
   277
1070
     2
1070
   284
1070
     8
1070
   278
1070
    46
1070
   146
1040
1.166667
1070
   345
1005
16
1070
   347
1005
16
1070
   346
1005
16
1070
   344
1005
0
1070
   343
1005
0
1070
   172
1070
     1
1070
    76
1070
     0
1070
    75
1070
     0
1070
   282
1070
     0
1070
   281
1070
     0
1070
    71
1070
     0
1070
    74
1070
     0
1070
   279
1070
     0
1070
   173
1070
     1
1070
   340
1005
D0
1070
   271
1070
     2
1070
   272
1070
     3
1070
    77
1070
     1
1070
    73
1070
     1
1070
   171
1070
     3
1070
   274
1070
     4
1070
   177
1070
     2
1070
   176
1070
     2
1070
   178
1070
     2
1070
    78
1070
     8
1070
    48
1040
-0.1
1070
    41
1040
3.5
1070
   147
1040
1.5
1070
    42
1040
1.5875
1070
    44
1040
2.0
1070
   140
1040
3.0
1002
}
1001
ACAD_DSTYLE_DIM_LINETYPE
1070
   380
1005
16
1001
ACAD_DSTYLE_DIM_EXT1_LINETYPE
1070
   381
1005
16
1001
ACAD_DSTYLE_DIM_EXT2_LINETYPE
1070
   382
1005
16
0
ENDSEC
0
SECTION
2
OBJECTS
0
DICTIONARY
5
1c4
330
0
100
AcDbDictionary
280
0
281
1
3
ACAD_GROUP
350
1c5
3
ACAD_MLINESTYLE
350
1c6
0
DICTIONARY
5
1c5
330
0
100
AcDbDictionary
280
0
281
1
0
DICTIONARY
5
1c6
330
0
100
AcDbDictionary
280
0
281
1
3
Standard
350
18
0
MLINESTYLE
5
18
330
1c6
100
AcDbMlineStyle
2
Standard
70
0
3

62
256
51
90
52
90
71
2
49
-0.5
62
256
6
ByLayer
49
0.5
62
256
6
ByLayer
0
RASTERVARIABLES
5
1b0
330

100
AcDbRasterVariables
90
0
70
1
71
1
72
1
0
ENDSEC
0
EOF
