0
SECTION
2
HEADER
9
$ACADVER
1
AC1015
9
$DWGCODEPAGE
3
ANSI_1252
9
$HANDSEED
5
1cb
9
$ANGBASE
50
0
9
$ANGDIR
70
0
9
$ATTMODE
70
1
9
$AUNITS
70
0
9
$AUPREC
70
0
9
$CECOLOR
62
256
9
$CELTSCALE
40
1
9
$CELTYPE
6
ByLayer
9
$CELWEIGHT
370
18
9
$CLAYER
8
0
9
$CMLJUST
70
0
9
$CMLSCALE
40
1
9
$CMLSTYLE
2
Standard
9
$DIMSTYLE
2
Standard
9
$TEXTSIZE
40
0.2
9
$TEXTSTYLE
7
Standard
9
$LUNITS
70
2
9
$LUPREC
70
4
9
$EXTNAMES
290
1
9
$INSUNITS
70
4
9
$LTSCALE
40
1
9
$LWDISPLAY
290
1
9
$PDMODE
70
0
9
$PDSIZE
40
0
9
$PLINEGEN
70
0
0
ENDSEC
0
SECTION
2
CLASSES
0
CLASS
1
RASTERVARIABLES
2
AcDbRasterVariables
3
ISM
90
0
280
0
281
0
0
ENDSEC
0
SECTION
2
TABLES
0
TABLE
2
VPORT
5
1c1
100
AcDbSymbolTable
0
VPORT
5
1
100
AcDbSymbolTableRecord
100
AcDbViewportTableRecord
2
*Active
70
0
10
0
20
0
11
1
21
1
12
-1
22
1
13
0
23
0
14
0.5
24
0.5
15
10
25
10
16
0
26
0
36
1
17
0
27
0
37
0
0
ENDTAB
0
TABLE
2
LTYPE
5
1c2
100
AcDbSymbolTable
0
LTYPE
5
14
100
AcDbSymbolTableRecord
100
AcDbLinetypeTableRecord
70
0
2
ByBlock
3

72
65
73
0
40
0
0
LTYPE
5
15
100
AcDbSymbolTableRecord
100
AcDbLinetypeTableRecord
70
0
2
ByLayer
3

72
65
73
0
40
0
0
LTYPE
5
16
100
AcDbSymbolTableRecord
100
AcDbLinetypeTableRecord
70
0
2
Continuous
3
Solid line
72
65
73
0
40
0
0
LTYPE
5
6E
100
AcDbSymbolTableRecord
100
AcDbLinetypeTableRecord
70
0
2
CENTER
3
____ _ ____ _ ____ _ ____
72
65
73
4
40
47.5
49
22
74
0
49
-8.5
74
0
49
8.5
74
0
49
-8.5
74
0
0
LTYPE
5
6F
100
AcDbSymbolTableRecord
100
AcDbLinetypeTableRecord
70
0
2
DASHED
3
__ __ __ __ __ __ __ __ __
72
65
73
2
40
25.72
49
12.86
74
0
49
-12.86
74
0
0
ENDTAB
0
TABLE
2
LAYER
5
1c3
100
AcDbSymbolTable
0
LAYER
5
10
100
AcDbSymbolTableRecord
100
AcDbLayerTableRecord
2
0
70
0
62
7
6
Continuous
290
1
370
-3
390
0
0
LAYER
5
71
100
AcDbSymbolTableRecord
100
AcDbLayerTableRecord
2
81
70
0
62
-3
6
Continuous
290
1
370
-3
390
0
0
LAYER
5
73
100
AcDbSymbolTableRecord
100
AcDbLayerTableRecord
2
80
70
0
62
-6
6
Continuous
290
1
370
-3
390
0
0
LAYER
5
75
100
AcDbSymbolTableRecord
100
AcDbLayerTableRecord
2
1
70
0
62
4
6
Continuous
290
1
370
-3
390
0
0
LAYER
5
7F
100
AcDbSymbolTableRecord
100
AcDbLayerTableRecord
2
4
70
0
62
-2
6
CENTER
290
1
370
-3
390
0
0
LAYER
5
A6
100
AcDbSymbolTableRecord
100
AcDbLayerTableRecord
2
2
70
0
62
7
6
Continuous
290
1
370
-3
390
0
0
LAYER
5
EE
100
AcDbSymbolTableRecord
100
AcDbLayerTableRecord
2
Defpoints
70
0
62
7
6
Continuous
290
0
370
-3
390
0
0
LAYER
5
1ab
100
AcDbSymbolTableRecord
100
AcDbLayerTableRecord
2
SK4
70
0
62
2
6
CENTER
290
1
370
-3
390
0
0
LAYER
5
1ac
100
AcDbSymbolTableRecord
100
AcDbLayerTableRecord
2
SK1
70
0
62
4
6
Continuous
290
1
370
-3
390
0
0
LAYER
5
1ad
100
AcDbSymbolTableRecord
100
AcDbLayerTableRecord
2
SK2
70
0
62
7
6
Continuous
290
1
370
-3
390
0
0
LAYER
5
1ae
100
AcDbSymbolTableRecord
100
AcDbLayerTableRecord
2
NOCUT
70
0
62
-7
6
Continuous
290
1
370
-3
390
0
0
LAYER
5
1af
100
AcDbSymbolTableRecord
100
AcDbLayerTableRecord
2
CUT
70
0
62
-1
6
Continuous
290
1
370
-3
390
0
0
LAYER
5
1b0
100
AcDbSymbolTableRecord
100
AcDbLayerTableRecord
2
SK6
70
0
62
5
6
Continuous
290
1
370
-3
390
0
0
ENDTAB
0
TABLE
2
STYLE
5
1c4
100
AcDbSymbolTable
0
STYLE
5
11
100
AcDbSymbolTableRecord
100
AcDbTextStyleTableRecord
2
Standard
3
txt
70
0
71
0
40
0
41
1
42
0
50
0
0
STYLE
5
CA
100
AcDbSymbolTableRecord
100
AcDbTextStyleTableRecord
2
iso_b_vert
3
simplex.shx
70
0
71
0
40
0
41
1
42
0
50
0
0
STYLE
5
CB
100
AcDbSymbolTableRecord
100
AcDbTextStyleTableRecord
2
DWGDirectTextStyle
3
simplex
70
0
71
0
40
0
41
1
42
0
50
0
0
ENDTAB
0
TABLE
2
DIMSTYLE
5
1c5
100
AcDbSymbolTable
100
AcDbDimStyleTable
0
DIMSTYLE
105
27
100
AcDbSymbolTableRecord
100
AcDbDimStyleTableRecord
2
Standard
70
0
3
<>
41
0.18
42
0.0625
44
0.18
140
0.18
147
0.09
73
0
74
0
77
1
271
2
275
0
278
52
280
0
340
11
0
ENDTAB
0
TABLE
2
VIEW
5
1c6
100
AcDbSymbolTable
0
ENDTAB
0
TABLE
2
UCS
5
1c7
100
AcDbSymbolTable
0
ENDTAB
0
TABLE
2
APPID
5
1c8
100
AcDbSymbolTable
0
APPID
5
12
100
AcDbSymbolTableRecord
100
AcDbRegAppTableRecord
2
ACAD
70
0
0
APPID
5
EA
100
AcDbSymbolTableRecord
100
AcDbRegAppTableRecord
2
ACAD_DSTYLE_DIMBREAK
70
0
0
APPID
5
16A
100
AcDbSymbolTableRecord
100
AcDbRegAppTableRecord
2
ACAD_DSTYLE_DIM_LINETYPE
70
0
0
APPID
5
16B
100
AcDbSymbolTableRecord
100
AcDbRegAppTableRecord
2
ACAD_DSTYLE_DIM_EXT1_LINETYPE
70
0
0
APPID
5
16C
100
AcDbSymbolTableRecord
100
AcDbRegAppTableRecord
2
ACAD_DSTYLE_DIM_EXT2_LINETYPE
70
0
0
APPID
5
1A7
100
AcDbSymbolTableRecord
100
AcDbRegAppTableRecord
2
ACAD_MLEADERVER
70
0
0
ENDTAB
0
TABLE
2
BLOCK_RECORD
5
1c9
100
AcDbSymbolTable
0
BLOCK_RECORD
5
1F
100
AcDbSymbolTableRecord
100
AcDbBlockTableRecord
2
*Model_Space
340
0
70
0
0
BLOCK_RECORD
5
1B
100
AcDbSymbolTableRecord
100
AcDbBlockTableRecord
2
*Paper_Space
340
0
70
0
0
BLOCK_RECORD
5
23
100
AcDbSymbolTableRecord
100
AcDbBlockTableRecord
2
*Paper_Space0
340
0
70
0
0
BLOCK_RECORD
5
EF
100
AcDbSymbolTableRecord
100
AcDbBlockTableRecord
2
*D1
340
0
70
0
0
BLOCK_RECORD
5
FB
100
AcDbSymbolTableRecord
100
AcDbBlockTableRecord
2
_U0
340
0
70
0
0
BLOCK_RECORD
5
107
100
AcDbSymbolTableRecord
100
AcDbBlockTableRecord
2
*D3
340
0
70
0
0
BLOCK_RECORD
5
113
100
AcDbSymbolTableRecord
100
AcDbBlockTableRecord
2
_U1
340
0
70
0
0
BLOCK_RECORD
5
11F
100
AcDbSymbolTableRecord
100
AcDbBlockTableRecord
2
*D5
340
0
70
0
0
BLOCK_RECORD
5
12B
100
AcDbSymbolTableRecord
100
AcDbBlockTableRecord
2
_U2
340
0
70
0
0
BLOCK_RECORD
5
137
100
AcDbSymbolTableRecord
100
AcDbBlockTableRecord
2
*D7
340
0
70
0
0
BLOCK_RECORD
5
143
100
AcDbSymbolTableRecord
100
AcDbBlockTableRecord
2
_U3
340
0
70
0
0
ENDTAB
0
ENDSEC
0
SECTION
2
BLOCKS
0
BLOCK
5
20
100
AcDbEntity
8
0
100
AcDbBlockBegin
2
*Model_Space
70
0
10
0
20
0
30
0
3
*Model_Space
0
ENDBLK
5
21
100
AcDbEntity
8
0
100
AcDbBlockEnd
0
BLOCK
5
1C
100
AcDbEntity
8
0
100
AcDbBlockBegin
2
*Paper_Space
70
0
10
0
20
0
30
0
3
*Paper_Space
0
ENDBLK
5
1D
100
AcDbEntity
8
0
100
AcDbBlockEnd
0
BLOCK
5
24
100
AcDbEntity
8
0
100
AcDbBlockBegin
2
*Paper_Space0
70
0
10
0
20
0
30
0
3
*Paper_Space0
0
ENDBLK
5
25
100
AcDbEntity
8
0
100
AcDbBlockEnd
0
BLOCK
5
F0
100
AcDbEntity
8
0
100
AcDbBlockBegin
2
*D1
70
1
10
0
20
0
30
0
3
*D1
0
LINE
5
F2
100
AcDbEntity
8
0
62
256
6
ByLayer
370
-2
48
1
60
0
100
AcDbLine
10
-46
20
-7.0875
30
0
11
-46
21
-53.292965
31
0
39
0
210
0
220
0
230
1
0
LINE
5
F3
100
AcDbEntity
8
0
62
256
6
ByLayer
370
-2
48
1
60
0
100
AcDbLine
10
96
20
-1.5875
30
0
11
96
21
-53.292965
31
0
39
0
210
0
220
0
230
1
0
LINE
5
F4
100
AcDbEntity
8
0
62
256
6
ByLayer
370
-2
48
1
60
0
100
AcDbLine
10
-42.5
20
-51.292965
30
0
11
92.5
21
-51.292965
31
0
39
0
210
0
220
0
230
1
0
SOLID
5
F5
100
AcDbEntity
8
0
62
256
6
ByLayer
370
-1
48
1
60
0
100
AcDbTrace
10
-42.5
20
-50.709632
30
0
11
-42.5
21
-51.876298
31
0
12
-46
22
-51.292965
32
0
13
-46
23
-51.292965
33
0
39
0
210
0
220
0
230
1
0
SOLID
5
F6
100
AcDbEntity
8
0
62
256
6
ByLayer
370
-1
48
1
60
0
100
AcDbTrace
10
92.5
20
-51.876298
30
0
11
92.5
21
-50.709632
31
0
12
96
22
-51.292965
32
0
13
96
23
-51.292965
33
0
39
0
210
0
220
0
230
1
0
MTEXT
5
F7
100
AcDbEntity
8
0
62
256
6
ByLayer
370
18
48
1
60
0
100
AcDbMText
10
25
20
-45.292965
30
0
210
0
220
0
230
1
1
\A1;142
40
3
41
0
44
1
50
0
71
5
72
5
7
iso_b_vert
0
POINT
5
F8
100
AcDbEntity
8
Defpoints
62
0
6
ByLayer
370
-1
48
1
60
0
100
AcDbPoint
10
-46
20
-5.5
30
0
39
0
210
0
220
0
230
1
50
360
0
POINT
5
F9
100
AcDbEntity
8
Defpoints
62
0
6
ByLayer
370
-1
48
1
60
0
100
AcDbPoint
10
96
20
0
30
0
39
0
210
0
220
0
230
1
50
360
0
POINT
5
FA
100
AcDbEntity
8
Defpoints
62
0
6
ByLayer
370
-1
48
1
60
0
100
AcDbPoint
10
96
20
-51.292965
30
0
39
0
210
0
220
0
230
1
50
360
0
ENDBLK
5
F1
100
AcDbEntity
8
0
100
AcDbBlockEnd
0
BLOCK
5
102
100
AcDbEntity
8
0
100
AcDbBlockBegin
2
_U0
70
0
10
0
20
0
30
0
3
_U0
0
MTEXT
5
FC
100
AcDbEntity
8
SK2
62
256
6
ByLayer
370
18
48
1
60
0
100
AcDbMText
10
19.613715
20
-50.40785
30
0
210
0
220
0
230
1
1
\W0.7237;142.00
40
3
41
0
44
1.084337
50
0
71
7
72
5
7
iso_b_vert
0
LINE
5
FD
100
AcDbEntity
8
SK2
62
256
6
ByLayer
370
13
48
1
60
0
100
AcDbLine
10
-46
20
-7.0875
30
0
11
-46
21
-53.292965
31
0
39
0
210
0
220
0
230
1
0
LINE
5
FE
100
AcDbEntity
8
SK2
62
256
6
ByLayer
370
13
48
1
60
0
100
AcDbLine
10
96
20
-1.5875
30
0
11
96
21
-53.292965
31
0
39
0
210
0
220
0
230
1
0
LINE
5
FF
100
AcDbEntity
8
SK2
62
256
6
ByLayer
370
13
48
1
60
0
100
AcDbLine
10
-46
20
-51.292965
30
0
11
96
21
-51.292965
31
0
39
0
210
0
220
0
230
1
0
SOLID
5
100
100
AcDbEntity
8
SK2
62
256
6
ByLayer
370
18
48
1
60
0
100
AcDbTrace
10
-46
20
-51.292965
30
0
11
-42.500002
21
-50.832181
31
0
12
-42.499998
22
-51.753749
32
0
13
-42.499998
23
-51.753749
33
0
39
0
210
0
220
0
230
1
0
SOLID
5
101
100
AcDbEntity
8
SK2
62
256
6
ByLayer
370
18
48
1
60
0
100
AcDbTrace
10
96
20
-51.292965
30
0
11
92.500002
21
-51.753749
31
0
12
92.499998
22
-50.832181
32
0
13
92.499998
23
-50.832181
33
0
39
0
210
0
220
0
230
1
0
ENDBLK
5
103
100
AcDbEntity
8
0
100
AcDbBlockEnd
0
BLOCK
5
108
100
AcDbEntity
8
0
100
AcDbBlockBegin
2
*D3
70
1
10
0
20
0
30
0
3
*D3
0
LINE
5
10A
100
AcDbEntity
8
0
62
256
6
ByLayer
370
-2
48
1
60
0
100
AcDbLine
10
96
20
-1.5875
30
0
11
96
21
-43.292965
31
0
39
0
210
0
220
0
230
1
0
LINE
5
10B
100
AcDbEntity
8
0
62
256
6
ByLayer
370
-2
48
1
60
0
100
AcDbLine
10
2
20
-7.0875
30
0
11
2
21
-43.292965
31
0
39
0
210
0
220
0
230
1
0
LINE
5
10C
100
AcDbEntity
8
0
62
256
6
ByLayer
370
-2
48
1
60
0
100
AcDbLine
10
92.5
20
-41.292965
30
0
11
5.5
21
-41.292965
31
0
39
0
210
0
220
0
230
1
0
SOLID
5
10D
100
AcDbEntity
8
0
62
256
6
ByLayer
370
-1
48
1
60
0
100
AcDbTrace
10
92.5
20
-41.876298
30
0
11
92.5
21
-40.709632
31
0
12
96
22
-41.292965
32
0
13
96
23
-41.292965
33
0
39
0
210
0
220
0
230
1
0
SOLID
5
10E
100
AcDbEntity
8
0
62
256
6
ByLayer
370
-1
48
1
60
0
100
AcDbTrace
10
5.5
20
-40.709632
30
0
11
5.5
21
-41.876298
31
0
12
2
22
-41.292965
32
0
13
2
23
-41.292965
33
0
39
0
210
0
220
0
230
1
0
MTEXT
5
10F
100
AcDbEntity
8
0
62
256
6
ByLayer
370
18
48
1
60
0
100
AcDbMText
10
49
20
-35.292965
30
0
210
0
220
0
230
1
1
\A1;94
40
3
41
0
44
1
50
0
71
5
72
5
7
iso_b_vert
0
POINT
5
110
100
AcDbEntity
8
Defpoints
62
0
6
ByLayer
370
-1
48
1
60
0
100
AcDbPoint
10
96
20
0
30
0
39
0
210
0
220
0
230
1
50
360
0
POINT
5
111
100
AcDbEntity
8
Defpoints
62
0
6
ByLayer
370
-1
48
1
60
0
100
AcDbPoint
10
2
20
-5.5
30
0
39
0
210
0
220
0
230
1
50
360
0
POINT
5
112
100
AcDbEntity
8
Defpoints
62
0
6
ByLayer
370
-1
48
1
60
0
100
AcDbPoint
10
2
20
-41.292965
30
0
39
0
210
0
220
0
230
1
50
360
0
ENDBLK
5
109
100
AcDbEntity
8
0
100
AcDbBlockEnd
0
BLOCK
5
11A
100
AcDbEntity
8
0
100
AcDbBlockBegin
2
_U1
70
0
10
0
20
0
30
0
3
_U1
0
MTEXT
5
114
100
AcDbEntity
8
2
62
256
6
ByLayer
370
18
48
1
60
0
100
AcDbMText
10
44.359687
20
-40.40785
30
0
210
0
220
0
230
1
1
\W0.7694;94.00
40
3
41
0
44
1.084337
50
0
71
7
72
5
7
iso_b_vert
0
LINE
5
115
100
AcDbEntity
8
2
62
256
6
ByLayer
370
13
48
1
60
0
100
AcDbLine
10
96
20
-1.5875
30
0
11
96
21
-43.292965
31
0
39
0
210
0
220
0
230
1
0
LINE
5
116
100
AcDbEntity
8
2
62
256
6
ByLayer
370
13
48
1
60
0
100
AcDbLine
10
2
20
-7.0875
30
0
11
2
21
-43.292965
31
0
39
0
210
0
220
0
230
1
0
LINE
5
117
100
AcDbEntity
8
2
62
256
6
ByLayer
370
13
48
1
60
0
100
AcDbLine
10
96
20
-41.292965
30
0
11
2
21
-41.292965
31
0
39
0
210
0
220
0
230
1
0
SOLID
5
118
100
AcDbEntity
8
2
62
256
6
ByLayer
370
18
48
1
60
0
100
AcDbTrace
10
96
20
-41.292965
30
0
11
92.500002
21
-41.753749
31
0
12
92.499998
22
-40.832181
32
0
13
92.499998
23
-40.832181
33
0
39
0
210
0
220
0
230
1
0
SOLID
5
119
100
AcDbEntity
8
2
62
256
6
ByLayer
370
18
48
1
60
0
100
AcDbTrace
10
2
20
-41.292965
30
0
11
5.499998
21
-40.832181
31
0
12
5.500002
22
-41.753749
32
0
13
5.500002
23
-41.753749
33
0
39
0
210
0
220
0
230
1
0
ENDBLK
5
11B
100
AcDbEntity
8
0
100
AcDbBlockEnd
0
BLOCK
5
120
100
AcDbEntity
8
0
100
AcDbBlockBegin
2
*D5
70
1
10
0
20
0
30
0
3
*D5
0
LINE
5
122
100
AcDbEntity
8
0
62
256
6
ByLayer
370
-2
48
1
60
0
100
AcDbLine
10
-46
20
-7.0875
30
0
11
-46
21
-38.292965
31
0
39
0
210
0
220
0
230
1
0
LINE
5
123
100
AcDbEntity
8
0
62
256
6
ByLayer
370
-2
48
1
60
0
100
AcDbLine
10
0
20
-7.0875
30
0
11
0
21
-38.292965
31
0
39
0
210
0
220
0
230
1
0
LINE
5
124
100
AcDbEntity
8
0
62
256
6
ByLayer
370
-2
48
1
60
0
100
AcDbLine
10
-42.5
20
-36.292965
30
0
11
-3.5
21
-36.292965
31
0
39
0
210
0
220
0
230
1
0
SOLID
5
125
100
AcDbEntity
8
0
62
256
6
ByLayer
370
-1
48
1
60
0
100
AcDbTrace
10
-42.5
20
-35.709632
30
0
11
-42.5
21
-36.876298
31
0
12
-46
22
-36.292965
32
0
13
-46
23
-36.292965
33
0
39
0
210
0
220
0
230
1
0
SOLID
5
126
100
AcDbEntity
8
0
62
256
6
ByLayer
370
-1
48
1
60
0
100
AcDbTrace
10
-3.5
20
-36.876298
30
0
11
-3.5
21
-35.709632
31
0
12
0
22
-36.292965
32
0
13
0
23
-36.292965
33
0
39
0
210
0
220
0
230
1
0
MTEXT
5
127
100
AcDbEntity
8
0
62
256
6
ByLayer
370
18
48
1
60
0
100
AcDbMText
10
-23
20
-30.292965
30
0
210
0
220
0
230
1
1
\A1;46
40
3
41
0
44
1
50
0
71
5
72
5
7
iso_b_vert
0
POINT
5
128
100
AcDbEntity
8
Defpoints
62
0
6
ByLayer
370
-1
48
1
60
0
100
AcDbPoint
10
-46
20
-5.5
30
0
39
0
210
0
220
0
230
1
50
360
0
POINT
5
129
100
AcDbEntity
8
Defpoints
62
0
6
ByLayer
370
-1
48
1
60
0
100
AcDbPoint
10
0
20
-5.5
30
0
39
0
210
0
220
0
230
1
50
360
0
POINT
5
12A
100
AcDbEntity
8
Defpoints
62
0
6
ByLayer
370
-1
48
1
60
0
100
AcDbPoint
10
0
20
-36.292965
30
0
39
0
210
0
220
0
230
1
50
360
0
ENDBLK
5
121
100
AcDbEntity
8
0
100
AcDbBlockEnd
0
BLOCK
5
132
100
AcDbEntity
8
0
100
AcDbBlockBegin
2
_U2
70
0
10
0
20
0
30
0
3
_U2
0
MTEXT
5
12C
100
AcDbEntity
8
SK2
62
256
6
ByLayer
370
18
48
1
60
0
100
AcDbMText
10
-27.640313
20
-35.40785
30
0
210
0
220
0
230
1
1
\W0.7694;46.00
40
3
41
0
44
1.084337
50
0
71
7
72
5
7
iso_b_vert
0
LINE
5
12D
100
AcDbEntity
8
SK2
62
256
6
ByLayer
370
13
48
1
60
0
100
AcDbLine
10
-46
20
-7.0875
30
0
11
-46
21
-38.292965
31
0
39
0
210
0
220
0
230
1
0
LINE
5
12E
100
AcDbEntity
8
SK2
62
256
6
ByLayer
370
13
48
1
60
0
100
AcDbLine
10
0
20
-7.0875
30
0
11
0
21
-38.292965
31
0
39
0
210
0
220
0
230
1
0
LINE
5
12F
100
AcDbEntity
8
SK2
62
256
6
ByLayer
370
13
48
1
60
0
100
AcDbLine
10
-46
20
-36.292965
30
0
11
0
21
-36.292965
31
0
39
0
210
0
220
0
230
1
0
SOLID
5
130
100
AcDbEntity
8
SK2
62
256
6
ByLayer
370
18
48
1
60
0
100
AcDbTrace
10
-46
20
-36.292965
30
0
11
-42.500002
21
-35.832181
31
0
12
-42.499998
22
-36.753749
32
0
13
-42.499998
23
-36.753749
33
0
39
0
210
0
220
0
230
1
0
SOLID
5
131
100
AcDbEntity
8
SK2
62
256
6
ByLayer
370
18
48
1
60
0
100
AcDbTrace
10
0
20
-36.292965
30
0
11
-3.499998
21
-36.753749
31
0
12
-3.500002
22
-35.832181
32
0
13
-3.500002
23
-35.832181
33
0
39
0
210
0
220
0
230
1
0
ENDBLK
5
133
100
AcDbEntity
8
0
100
AcDbBlockEnd
0
BLOCK
5
138
100
AcDbEntity
8
0
100
AcDbBlockBegin
2
*D7
70
1
10
0
20
0
30
0
3
*D7
0
LINE
5
13A
100
AcDbEntity
8
0
62
256
6
ByLayer
370
-2
48
1
60
0
100
AcDbLine
10
96
20
-1.5875
30
0
11
96
21
-36.292965
31
0
39
0
210
0
220
0
230
1
0
LINE
5
13B
100
AcDbEntity
8
0
62
256
6
ByLayer
370
-2
48
1
60
0
100
AcDbLine
10
25.5
20
-7.0875
30
0
11
25.5
21
-36.292965
31
0
39
0
210
0
220
0
230
1
0
LINE
5
13C
100
AcDbEntity
8
0
62
256
6
ByLayer
370
-2
48
1
60
0
100
AcDbLine
10
92.5
20
-34.292965
30
0
11
29
21
-34.292965
31
0
39
0
210
0
220
0
230
1
0
SOLID
5
13D
100
AcDbEntity
8
0
62
256
6
ByLayer
370
-1
48
1
60
0
100
AcDbTrace
10
92.5
20
-34.876298
30
0
11
92.5
21
-33.709632
31
0
12
96
22
-34.292965
32
0
13
96
23
-34.292965
33
0
39
0
210
0
220
0
230
1
0
SOLID
5
13E
100
AcDbEntity
8
0
62
256
6
ByLayer
370
-1
48
1
60
0
100
AcDbTrace
10
29
20
-33.709632
30
0
11
29
21
-34.876298
31
0
12
25.5
22
-34.292965
32
0
13
25.5
23
-34.292965
33
0
39
0
210
0
220
0
230
1
0
MTEXT
5
13F
100
AcDbEntity
8
0
62
256
6
ByLayer
370
18
48
1
60
0
100
AcDbMText
10
60.75
20
-28.292965
30
0
210
0
220
0
230
1
1
\A1;70.5
40
3
41
0
44
1
50
0
71
5
72
5
7
iso_b_vert
0
POINT
5
140
100
AcDbEntity
8
Defpoints
62
0
6
ByLayer
370
-1
48
1
60
0
100
AcDbPoint
10
96
20
0
30
0
39
0
210
0
220
0
230
1
50
360
0
POINT
5
141
100
AcDbEntity
8
Defpoints
62
0
6
ByLayer
370
-1
48
1
60
0
100
AcDbPoint
10
25.5
20
-5.5
30
0
39
0
210
0
220
0
230
1
50
360
0
POINT
5
142
100
AcDbEntity
8
Defpoints
62
0
6
ByLayer
370
-1
48
1
60
0
100
AcDbPoint
10
25.5
20
-34.292965
30
0
39
0
210
0
220
0
230
1
50
360
0
ENDBLK
5
139
100
AcDbEntity
8
0
100
AcDbBlockEnd
0
BLOCK
5
14A
100
AcDbEntity
8
0
100
AcDbBlockBegin
2
_U3
70
0
10
0
20
0
30
0
3
_U3
0
MTEXT
5
144
100
AcDbEntity
8
2
62
256
6
ByLayer
370
18
48
1
60
0
100
AcDbMText
10
56.26763
20
-33.40785
30
0
210
0
220
0
230
1
1
\W0.7468;70.50
40
3
41
0
44
1.084337
50
0
71
7
72
5
7
iso_b_vert
0
LINE
5
145
100
AcDbEntity
8
2
62
256
6
ByLayer
370
13
48
1
60
0
100
AcDbLine
10
96
20
-1.5875
30
0
11
96
21
-36.292965
31
0
39
0
210
0
220
0
230
1
0
LINE
5
146
100
AcDbEntity
8
2
62
256
6
ByLayer
370
13
48
1
60
0
100
AcDbLine
10
25.5
20
-7.0875
30
0
11
25.5
21
-36.292965
31
0
39
0
210
0
220
0
230
1
0
LINE
5
147
100
AcDbEntity
8
2
62
256
6
ByLayer
370
13
48
1
60
0
100
AcDbLine
10
96
20
-34.292965
30
0
11
25.5
21
-34.292965
31
0
39
0
210
0
220
0
230
1
0
SOLID
5
148
100
AcDbEntity
8
2
62
256
6
ByLayer
370
18
48
1
60
0
100
AcDbTrace
10
96
20
-34.292965
30
0
11
92.500002
21
-34.753749
31
0
12
92.499998
22
-33.832181
32
0
13
92.499998
23
-33.832181
33
0
39
0
210
0
220
0
230
1
0
SOLID
5
149
100
AcDbEntity
8
2
62
256
6
ByLayer
370
18
48
1
60
0
100
AcDbTrace
10
25.5
20
-34.292965
30
0
11
28.999998
21
-33.832181
31
0
12
29.000002
22
-34.753749
32
0
13
29.000002
23
-34.753749
33
0
39
0
210
0
220
0
230
1
0
ENDBLK
5
14B
100
AcDbEntity
8
0
100
AcDbBlockEnd
0
ENDSEC
0
SECTION
2
ENTITIES
0
ARC
5
B7
100
AcDbEntity
8
2
62
256
6
ByLayer
370
13
48
1
60
0
100
AcDbCircle
39
0
10
96
20
0
30
0
40
22.0000000000001
210
0
220
0
230
1
100
AcDbArc
50
7.83748
51
61.596605
0
ARC
5
B8
100
AcDbEntity
8
2
62
256
6
ByLayer
370
13
48
1
60
0
100
AcDbCircle
39
0
10
96
20
0
30
0
40
22.0000000000001
210
0
220
0
230
1
100
AcDbArc
50
298.403395
51
352.16252
0
POINT
5
70
100
AcDbEntity
8
81
62
256
6
ByLayer
370
18
48
1
60
0
100
AcDbPoint
10
96
20
0
30
0
39
0
210
0
220
0
230
1
50
360
0
POINT
5
72
100
AcDbEntity
8
80
62
256
6
ByLayer
370
18
48
1
60
0
100
AcDbPoint
10
0
20
0
30
0
39
0
210
0
220
0
230
1
50
360
0
POINT
5
74
100
AcDbEntity
8
1
62
256
6
ByLayer
370
18
48
1
60
1
100
AcDbPoint
10
-46
20
-5.5
30
0
39
0
210
0
220
0
230
1
50
360
0
POINT
5
76
100
AcDbEntity
8
1
62
256
6
ByLayer
370
18
48
1
60
1
100
AcDbPoint
10
96
20
0
30
0
39
0
210
0
220
0
230
1
50
360
0
POINT
5
77
100
AcDbEntity
8
1
62
256
6
ByLayer
370
18
48
1
60
1
100
AcDbPoint
10
96
20
0
30
0
39
0
210
0
220
0
230
1
50
360
0
POINT
5
78
100
AcDbEntity
8
1
62
256
6
ByLayer
370
18
48
1
60
1
100
AcDbPoint
10
2
20
-5.5
30
0
39
0
210
0
220
0
230
1
50
360
0
POINT
5
79
100
AcDbEntity
8
1
62
256
6
ByLayer
370
18
48
1
60
1
100
AcDbPoint
10
-46
20
-5.5
30
0
39
0
210
0
220
0
230
1
50
360
0
POINT
5
7A
100
AcDbEntity
8
1
62
256
6
ByLayer
370
18
48
1
60
1
100
AcDbPoint
10
0
20
-5.5
30
0
39
0
210
0
220
0
230
1
50
360
0
POINT
5
7B
100
AcDbEntity
8
1
62
256
6
ByLayer
370
18
48
1
60
1
100
AcDbPoint
10
96
20
0
30
0
39
0
210
0
220
0
230
1
50
360
0
POINT
5
7C
100
AcDbEntity
8
1
62
256
6
ByLayer
370
18
48
1
60
1
100
AcDbPoint
10
25.5
20
-5.5
30
0
39
0
210
0
220
0
230
1
50
360
0
SPLINE
5
B9
100
AcDbEntity
8
NOCUT
62
256
6
ByLayer
370
18
48
1
60
0
100
AcDbSpline
70
2053
71
3
72
26
73
22
40
0
40
0
40
0
40
0
40
0.293369079493825
40
0.293369079493825
40
0.293369079493825
40
0.302588780182282
40
0.302588780182282
40
0.302588780182282
40
0.33192568813173
40
0.33192568813173
40
0.33192568813173
40
0.798056558883414
40
0.798056558883414
40
0.798056558883414
40
0.833747696675634
40
0.833747696675634
40
0.833747696675634
40
0.997382461410059
40
0.997382461410059
40
0.997382461410059
40
1
40
1
40
1
40
1
41
1
10
0
20
5.5
30
0
41
1
10
-15
20
5.5
30
0
41
1
10
-30
20
5.5
30
0
41
1
10
-45
20
5.5
30
0
41
1
10
-45.3333333333333
20
5.16666666666666
30
0
41
1
10
-45.6666666666667
20
4.83333333333334
30
0
41
1
10
-46
20
4.5
30
0
41
1
10
-46
20
3
30
0
41
1
10
-46
20
1.5
30
0
41
1
10
-46
20
0
30
0
41
1
10
-22.1666666666669
20
0
30
0
41
1
10
1.6666666666662
20
0
30
0
41
1
10
25.4999999999997
20
0
30
0
41
1
10
25.5000000000001
20
1.82489261585744
30
0
41
1
10
25.5000000000001
20
3.64978523171484
30
0
41
1
10
25.5000000000001
20
5.47467784757228
30
0
41
1
10
17.1333333333331
20
5.47154034757247
30
0
41
1
10
8.76666666666617
20
5.46840284757266
30
0
41
1
10
0.399999999813701
20
5.465265347589
30
0
41
1
10
0.266666666418814
20
5.47684356507008
30
0
41
1
10
0.133333333209407
20
5.48842178253506
30
0
41
1
10
0
20
5.5
30
0
0
SPLINE
5
BB
100
AcDbEntity
8
CUT
62
256
6
ByLayer
370
18
48
1
60
0
100
AcDbSpline
70
2053
71
3
72
17
73
13
40
0
40
0
40
0
40
0
40
0.470774833285055
40
0.470774833285055
40
0.470774833285055
40
0.512528202172114
40
0.512528202172114
40
0.512528202172114
40
0.963441978000711
40
0.963441978000711
40
0.963441978000711
40
1
40
1
40
1
40
1
41
1
10
25.5000000000001
20
0
30
0
41
1
10
49.0000000000001
20
0
30
0
41
1
10
72.5000000000001
20
0
30
0
41
1
10
96.0000000000001
20
0
30
0
41
1
10
95.0085799785962
20
1.83333333334889
30
0
41
1
10
94.0171599571923
20
3.66666666669775
30
0
41
1
10
93.0257399357884
20
5.50000000004664
30
0
41
1
10
70.5171599571917
20
5.49155928255519
30
0
41
1
10
48.0085799785949
20
5.48311856506373
30
0
41
1
10
25.4999999999991
20
5.47467784757228
30
0
41
1
10
25.5000000000001
20
3.64978523171484
30
0
41
1
10
25.5000000000001
20
1.82489261585744
30
0
41
1
10
25.5000000000001
20
0
30
0
0
SPLINE
5
BD
100
AcDbEntity
8
1
62
256
6
ByLayer
370
18
48
1
60
0
100
AcDbSpline
70
4
71
3
72
87
73
83
40
0
40
0
40
0
40
0
40
0.0624999999999951
40
0.0624999999999951
40
0.12499999999999
40
0.12499999999999
40
0.187499999999985
40
0.187499999999985
40
0.218749999999983
40
0.218749999999983
40
0.24999999999998
40
0.24999999999998
40
0.265624999999981
40
0.265624999999981
40
0.281249999999981
40
0.281249999999981
40
0.312499999999982
40
0.312499999999982
40
0.343749999999983
40
0.343749999999983
40
0.374999999999984
40
0.374999999999984
40
0.406249999999985
40
0.406249999999985
40
0.437499999999986
40
0.437499999999986
40
0.468749999999987
40
0.468749999999987
40
0.484374999999987
40
0.484374999999987
40
0.492187499999988
40
0.492187499999988
40
0.496093749999986
40
0.496093749999986
40
0.499999999999985
40
0.499999999999985
40
0.503906249999984
40
0.503906249999984
40
0.507812499999983
40
0.507812499999983
40
0.509765624999983
40
0.509765624999983
40
0.511718749999983
40
0.511718749999983
40
0.515624999999984
40
0.515624999999984
40
0.517578124999984
40
0.517578124999984
40
0.519531249999984
40
0.519531249999984
40
0.523437499999984
40
0.523437499999984
40
0.527343749999984
40
0.527343749999984
40
0.531249999999985
40
0.531249999999985
40
0.546874999999986
40
0.546874999999986
40
0.562499999999987
40
0.562499999999987
40
0.593749999999986
40
0.593749999999986
40
0.624999999999985
40
0.624999999999985
40
0.656249999999984
40
0.656249999999984
40
0.671874999999983
40
0.671874999999983
40
0.687499999999983
40
0.687499999999983
40
0.749999999999987
40
0.749999999999987
40
0.812499999999992
40
0.812499999999992
40
0.874999999999997
40
0.874999999999997
40
0.890624999999998
40
0.890624999999998
40
0.906249999999998
40
0.937499999999999
40
0.937499999999999
40
1
40
1
40
1
40
1
41
1
10
93.0257399357885
20
5.32524563120029
30
0
41
1
10
93.1359877745065
20
5.12012122055108
30
0
41
1
10
93.2459325258732
20
4.91462538078039
30
0
41
1
10
93.4650618841048
20
4.50289075380419
30
0
41
1
10
93.574248086912
20
4.29665201767205
30
0
41
1
10
93.7915742316886
20
3.88334876434701
30
0
41
1
10
93.8996999074805
20
3.67632502203568
30
0
41
1
10
94.0606748435137
20
3.36509923843161
30
0
41
1
10
94.1141273388913
20
3.26123706317486
30
0
41
1
10
94.2205312133641
20
3.05323540438954
30
0
41
1
10
94.2734667250583
20
2.94908286276842
30
0
41
1
10
94.3524009067839
20
2.79260631637496
30
0
41
1
10
94.3786200237753
20
2.74039505449289
30
0
41
1
10
94.4308630035372
20
2.63586709813836
30
0
41
1
10
94.456904484346
20
2.58355870888991
30
0
41
1
10
94.5349306607962
20
2.42668606925079
30
0
41
1
10
94.5868058141175
20
2.32216950405274
30
0
41
1
10
94.6901886446158
20
2.11323281726771
30
0
41
1
10
94.7416919213783
20
2.00880760851908
30
0
41
1
10
94.8441499851638
20
1.79996105825359
30
0
41
1
10
94.8951199381747
20
1.69551915819235
30
0
41
1
10
94.9961619757695
20
1.48659987899117
30
0
41
1
10
95.0462085014395
20
1.38219106821757
30
0
41
1
10
95.1447553905715
20
1.17319846797227
30
0
41
1
10
95.1932764940496
20
1.06860703292975
30
0
41
1
10
95.2875923299137
20
0.858786206926197
30
0
41
1
10
95.3333874919274
20
0.753681717788112
30
0
41
1
10
95.3980686932873
20
0.594929329990748
30
0
41
1
10
95.4189502974289
20
0.541800642523526
30
0
41
1
10
95.4487627230376
20
0.461734860477748
30
0
41
1
10
95.4584461599693
20
0.434982741778953
30
0
41
1
10
95.4725279473346
20
0.394746691706388
30
0
41
1
10
95.4771485137295
20
0.381315512640271
30
0
41
1
10
95.4862322622105
20
0.354427057720926
30
0
41
1
10
95.4907066405342
20
0.340977084127104
30
0
41
1
10
95.4994173715625
20
0.31400711064245
30
0
41
1
10
95.5036542591452
20
0.300486542824586
30
0
41
1
10
95.5111996955679
20
0.272961939112264
30
0
41
1
10
95.5144767662709
20
0.258939052596787
30
0
41
1
10
95.5183882953608
20
0.237379039050609
30
0
41
1
10
95.519528618939
20
0.230107185483462
30
0
41
1
10
95.521456846853
20
0.215382344325121
30
0
41
1
10
95.5222484431249
20
0.207884242265237
30
0
41
1
10
95.524023070247
20
0.185433702939889
30
0
41
1
10
95.5244071545328
20
0.170699052357492
30
0
41
1
10
95.5237732076127
20
0.148949749662393
30
0
41
1
10
95.5233591303717
20
0.141759243263437
30
0
41
1
10
95.5221124669051
20
0.127502502914297
30
0
41
1
10
95.5212734020532
20
0.120405607387795
30
0
41
1
10
95.5181733618164
20
0.0997598278580369
30
0
41
1
10
95.5153205311983
20
0.0867405053858192
30
0
41
1
10
95.5082045000628
20
0.0621033110486167
30
0
41
1
10
95.5039106726778
20
0.0504739996348746
30
0
41
1
10
95.4948193822356
20
0.0279766366987246
30
0
41
1
10
95.4900629768217
20
0.0169676200681295
30
0
41
1
10
95.4658973959615
20
-0.0380932582463913
30
0
41
1
10
95.4449392403988
20
-0.0814050756074494
30
0
41
1
10
95.4005462034155
20
-0.166135505517531
30
0
41
1
10
95.3771330113481
20
-0.207671453746229
30
0
41
1
10
95.3047636963911
20
-0.32963505170946
30
0
41
1
10
95.2536313835889
20
-0.407515582210465
30
0
41
1
10
95.148637872436
20
-0.55775093977158
30
0
41
1
10
95.0947177463225
20
-0.630066973957071
30
0
41
1
10
94.985315879911
20
-0.769663250320662
30
0
41
1
10
94.9298146912074
20
-0.836937594627585
30
0
41
1
10
94.8457946675383
20
-0.934234865095533
30
0
41
1
10
94.8176410811117
20
-0.966081584941804
30
0
41
1
10
94.7611773604249
20
-1.02850936803873
30
0
41
1
10
94.7329299677097
20
-1.05902148902294
30
0
41
1
10
94.5916804197656
20
-1.20815266307378
30
0
41
1
10
94.4786934866639
20
-1.31653739619517
30
0
41
1
10
94.2532421589541
20
-1.51260309801518
30
0
41
1
10
94.1407494052658
20
-1.60025996031573
30
0
41
1
10
93.9159834661576
20
-1.75532827908981
30
0
41
1
10
93.8037026622802
20
-1.82275969196337
30
0
41
1
10
93.6631689141337
20
-1.89426605122733
30
0
41
1
10
93.635026540388
20
-1.9079375607549
30
0
41
1
10
93.5788973016037
20
-1.93390507169698
30
0
41
1
10
93.4949060782608
20
-1.97081294102802
30
0
41
1
10
93.4114759307576
20
-2.00163627572761
30
0
41
1
10
93.2452367385791
20
-2.05528532131589
30
0
41
1
10
93.1352375478265
20
-2.08040634070949
30
0
41
1
10
93.0257399357885
20
-2.09498732721991
30
0
0
SPLINE
5
BE
100
AcDbEntity
8
1
62
256
6
ByLayer
370
18
48
1
60
0
100
AcDbSpline
70
4
71
3
72
78
73
74
40
0
40
0
40
0
40
0
40
0.0317722562894414
40
0.0317722562894414
40
0.0635445125788829
40
0.0635445125788829
40
0.0953167688683243
40
0.0953167688683243
40
0.127089025157766
40
0.127089025157766
40
0.158861281447207
40
0.158861281447207
40
0.190633537736649
40
0.190633537736649
40
0.22240579402609
40
0.22240579402609
40
0.254178050315531
40
0.254178050315531
40
0.285950306604973
40
0.285950306604973
40
0.317722562894414
40
0.317722562894414
40
0.349494819183856
40
0.349494819183856
40
0.365380947328578
40
0.365380947328578
40
0.381267075473301
40
0.381267075473301
40
0.397153203618023
40
0.397153203618023
40
0.413039331762745
40
0.413039331762745
40
0.444811588052193
40
0.444811588052193
40
0.476583844341641
40
0.476583844341641
40
0.508356100631089
40
0.508356100631089
40
0.540128356920537
40
0.540128356920537
40
0.571900613209985
40
0.571900613209985
40
0.603672869499433
40
0.603672869499433
40
0.635445125788881
40
0.635445125788881
40
0.667217382078329
40
0.667217382078329
40
0.698989638367777
40
0.698989638367777
40
0.714875766512499
40
0.714875766512499
40
0.730761894657222
40
0.730761894657222
40
0.746648022801944
40
0.746648022801944
40
0.762534150946667
40
0.762534150946667
40
0.794306407236111
40
0.794306407236111
40
0.826078663525556
40
0.826078663525556
40
0.857850919815001
40
0.857850919815001
40
0.889623176104445
40
0.889623176104445
40
0.92139543239389
40
0.92139543239389
40
0.953167688683335
40
0.953167688683335
40
0.984939944972779
40
0.984939944972779
40
1
40
1
40
1
40
1
41
1
10
93.0257399357875
20
-2.09498732721946
30
0
41
1
10
92.817606293568
20
-1.98829803704058
30
0
41
1
10
92.6100617404521
20
-1.88038467291193
30
0
41
1
10
92.1958385998743
20
-1.6626799207647
30
0
41
1
10
91.9890460132975
20
-1.55309609296103
30
0
41
1
10
91.5761012172952
20
-1.3324662757345
30
0
41
1
10
91.3699875481679
20
-1.22134987887625
30
0
41
1
10
90.9583268043463
20
-0.99779098232375
30
0
41
1
10
90.7528217884038
20
-0.885271323698447
30
0
41
1
10
90.3419679156792
20
-0.659658260929206
30
0
41
1
10
90.1365558874675
20
-0.546681171305067
30
0
41
1
10
89.7259526061194
20
-0.320037365075734
30
0
41
1
10
89.5207359113927
20
-0.206417139909007
30
0
41
1
10
89.1103323437181
20
0.0211632777306932
30
0
41
1
10
88.9051757337357
20
0.135179583765449
30
0
41
1
10
88.4943359061754
20
0.36252640607907
30
0
41
1
10
88.2887093178517
20
0.475960943018606
30
0
41
1
10
87.877143164946
20
0.70253907189408
30
0
41
1
10
87.6711731384079
20
0.815626452573923
30
0
41
1
10
87.2587163619045
20
1.04113659116052
30
0
41
1
10
87.0521852299261
20
1.15347722339607
30
0
41
1
10
86.638067568016
20
1.37649489526936
30
0
41
1
10
86.4305849894648
20
1.48736505846637
30
0
41
1
10
86.1186839606315
20
1.65263829868076
30
0
41
1
10
86.0145518006256
20
1.70757536849234
30
0
41
1
10
85.8067198750467
20
1.81669797968789
30
0
41
1
10
85.7029463228326
20
1.87093350948075
30
0
41
1
10
85.4956256547102
20
1.9786523347093
30
0
41
1
10
85.3920733477751
20
2.03212610120536
30
0
41
1
10
85.1851033402883
20
2.13816825237203
30
0
41
1
10
85.08169269982
20
2.19074985554258
30
0
41
1
10
84.7717320153614
20
2.3472743012741
30
0
41
1
10
84.5654693168453
20
2.45002375685152
30
0
41
1
10
84.1535556843662
20
2.65210457484704
30
0
41
1
10
83.9479408714621
20
2.75149245770777
30
0
41
1
10
83.5369697164406
20
2.94629232345704
30
0
41
1
10
83.3315202840193
20
3.04156352313055
30
0
41
1
10
82.9208535157969
20
3.22813281247466
30
0
41
1
10
82.715627097176
20
3.31941353981318
30
0
41
1
10
82.3052456828196
20
3.49774414327658
30
0
41
1
10
82.1001317306834
20
3.58484804115653
30
0
41
1
10
81.6894593843045
20
3.75408805538217
30
0
41
1
10
81.483915618636
20
3.83625310960369
30
0
41
1
10
81.0725637813132
20
3.99586506570324
30
0
41
1
10
80.8667223772225
20
4.07326509664389
30
0
41
1
10
80.4545682811857
20
4.22302596954523
30
0
41
1
10
80.2482452533149
20
4.29536906309778
30
0
41
1
10
79.8345633886805
20
4.43430702775467
30
0
41
1
10
79.6273028782192
20
4.50102264705546
30
0
41
1
10
79.3157796182392
20
4.59691605213888
30
0
41
1
10
79.211827649799
20
4.62817737351207
30
0
41
1
10
79.0036830452675
20
4.68926262583261
30
0
41
1
10
78.8997483618561
20
4.71901457331848
30
0
41
1
10
78.6921416984589
20
4.77689631806598
30
0
41
1
10
78.5884601514416
20
4.80502237665553
30
0
41
1
10
78.3812500818019
20
4.85957692150845
30
0
41
1
10
78.2777216884169
20
4.88600677781574
30
0
41
1
10
77.9674138502285
20
4.96282171831555
30
0
41
1
10
77.7609371595881
20
5.01075283870088
30
0
41
1
10
77.3486515303583
20
5.10000965313807
30
0
41
1
10
77.142868668334
20
5.14134996497955
30
0
41
1
10
76.7316656182088
20
5.21724295861182
30
0
41
1
10
76.5261357362118
20
5.25173609573469
30
0
41
1
10
76.1153103577585
20
5.31393579534154
30
0
41
1
10
75.910030015729
20
5.34164550708152
30
0
41
1
10
75.4995878501728
20
5.39020580614039
30
0
41
1
10
75.2944689858551
20
5.41106602343149
30
0
41
1
10
74.8838948577271
20
5.44575696948775
30
0
41
1
10
74.678404553904
20
5.45959142722242
30
0
41
1
10
74.2672061788058
20
5.48027809434583
30
0
41
1
10
74.0614662904176
20
5.48711878075574
30
0
41
1
10
73.7578947063599
20
5.4919745700011
30
0
41
1
10
73.6602302042971
20
5.49273746071529
30
0
41
1
10
73.5624900232488
20
5.49269975320993
30
0
0
SPLINE
5
BF
100
AcDbEntity
8
1
62
256
6
ByLayer
370
18
48
1
60
0
100
AcDbSpline
70
4
71
3
72
152
73
148
40
0
40
0
40
0
40
0
40
0.0146302428493436
40
0.0146302428493436
40
0.0313314251739327
40
0.0313314251739327
40
0.0396820163362268
40
0.0396820163362268
40
0.0480326074985213
40
0.0480326074985213
40
0.0647337898231096
40
0.0647337898231096
40
0.081434972147698
40
0.081434972147698
40
0.0897855633099917
40
0.0897855633099917
40
0.0981361544722854
40
0.0981361544722854
40
0.114837336796872
40
0.114837336796872
40
0.131538519121459
40
0.131538519121459
40
0.148239701446045
40
0.148239701446045
40
0.164940883770632
40
0.164940883770632
40
0.173291474932925
40
0.173291474932925
40
0.181642066095219
40
0.181642066095219
40
0.198343248419806
40
0.198343248419806
40
0.215044430744394
40
0.215044430744394
40
0.231745613068981
40
0.231745613068981
40
0.248446795393569
40
0.248446795393569
40
0.265147977718156
40
0.265147977718156
40
0.273498568880449
40
0.273498568880449
40
0.281849160042743
40
0.281849160042743
40
0.29855034236733
40
0.29855034236733
40
0.315251524691918
40
0.315251524691918
40
0.331952707016505
40
0.331952707016505
40
0.348653889341093
40
0.348653889341093
40
0.36535507166568
40
0.36535507166568
40
0.373705662827975
40
0.373705662827975
40
0.382056253990269
40
0.382056253990269
40
0.398757436314856
40
0.398757436314856
40
0.415458618639444
40
0.415458618639444
40
0.432159800964031
40
0.432159800964031
40
0.448860983288619
40
0.448860983288619
40
0.457211574450912
40
0.457211574450912
40
0.465562165613206
40
0.465562165613206
40
0.482263347937793
40
0.482263347937793
40
0.498964530262381
40
0.498964530262381
40
0.515665712586968
40
0.515665712586968
40
0.532366894911556
40
0.532366894911556
40
0.549068077236143
40
0.549068077236143
40
0.557418668398437
40
0.557418668398437
40
0.565769259560731
40
0.565769259560731
40
0.582470441885319
40
0.582470441885319
40
0.599171624209907
40
0.599171624209907
40
0.615872806534495
40
0.615872806534495
40
0.632573988859083
40
0.632573988859083
40
0.640924580021377
40
0.640924580021377
40
0.649275171183671
40
0.649275171183671
40
0.665976353508259
40
0.665976353508259
40
0.682677535832846
40
0.682677535832846
40
0.69102812699514
40
0.69102812699514
40
0.699378718157433
40
0.699378718157433
40
0.716079900482021
40
0.716079900482021
40
0.732781082806608
40
0.732781082806608
40
0.741131673968902
40
0.741131673968902
40
0.745306969550048
40
0.745306969550048
40
0.749482265131195
40
0.749482265131195
40
0.766183447455782
40
0.766183447455782
40
0.782884629780368
40
0.782884629780368
40
0.799585812104955
40
0.799585812104955
40
0.816286994429541
40
0.816286994429541
40
0.832988176754128
40
0.832988176754128
40
0.849689359078714
40
0.849689359078714
40
0.866390541403301
40
0.866390541403301
40
0.874741132565594
40
0.874741132565594
40
0.883091723727888
40
0.883091723727888
40
0.899792906052476
40
0.899792906052476
40
0.916494088377063
40
0.916494088377063
40
0.93319527070165
40
0.93319527070165
40
0.941545861863944
40
0.941545861863944
40
0.949896453026238
40
0.949896453026238
40
0.966597635350825
40
0.966597635350825
40
0.983298817675413
40
0.983298817675413
40
1
40
1
40
1
40
1
41
1
10
50.8752064900423
20
-3.59843636575181
30
0
41
1
10
50.693150650137
20
-3.67425986054278
30
0
41
1
10
50.5114306968083
20
-3.74806632490709
30
0
41
1
10
50.1230176905928
20
-3.90191021585471
30
0
41
1
10
49.9164076799452
20
-3.98131527939074
30
0
41
1
10
49.6070232121214
20
-4.09639126965774
30
0
41
1
10
49.5039775128624
20
-4.13406976291336
30
0
41
1
10
49.2979626630794
20
-4.20796582571745
30
0
41
1
10
49.1949863793723
20
-4.24417566737017
30
0
41
1
10
48.8861873477237
20
-4.35065151978426
30
0
41
1
10
48.6805303704496
20
-4.41880579449702
30
0
41
1
10
48.2695503467354
20
-4.54937579458687
30
0
41
1
10
48.064239494614
20
-4.61180119202456
30
0
41
1
10
47.7563280997194
20
-4.70092619272771
30
0
41
1
10
47.6536863657847
20
-4.72986912016847
30
0
41
1
10
47.4483279503938
20
-4.78616878457109
30
0
41
1
10
47.3456201474647
20
-4.81353449478138
30
0
41
1
10
47.0374615100117
20
-4.89332743804664
30
0
41
1
10
46.8319834484069
20
-4.94345610505354
30
0
41
1
10
46.4208010864706
20
-5.03741896584881
30
0
41
1
10
46.2151369111109
20
-5.08127876507211
30
0
41
1
10
45.8031975579563
20
-5.16237662039296
30
0
41
1
10
45.5968462728254
20
-5.19957472613581
30
0
41
1
10
45.1835601476859
20
-5.2673529736179
30
0
41
1
10
44.9766047887345
20
-5.29791599039791
30
0
41
1
10
44.6655900034666
20
-5.33864079537781
30
0
41
1
10
44.5618263453688
20
-5.35136416065154
30
0
41
1
10
44.3540530276074
20
-5.37506760735417
30
0
41
1
10
44.2499864093257
20
-5.38605023534805
30
0
41
1
10
43.9376284272253
20
-5.41629218130933
30
0
41
1
10
43.7298317680271
20
-5.43281773930471
30
0
41
1
10
43.3152115409695
20
-5.45873145904307
30
0
41
1
10
43.1083578313021
20
-5.46810794463227
30
0
41
1
10
42.695420995197
20
-5.47972608894739
30
0
41
1
10
42.4892921547865
20
-5.48195737702275
30
0
41
1
10
42.0772687314317
20
-5.47934532109724
30
0
41
1
10
41.8714775279017
20
-5.47450752711256
30
0
41
1
10
41.4602906556127
20
-5.45779836636143
30
0
41
1
10
41.254894601733
20
-5.44592346419563
30
0
41
1
10
40.9469223417976
20
-5.42285891539655
30
0
41
1
10
40.8442745064029
20
-5.41429771863776
30
0
41
1
10
40.6389146908076
20
-5.39545962767278
30
0
41
1
10
40.5362087552111
20
-5.38518198696886
30
0
41
1
10
40.2280632300059
20
-5.35176303879186
30
0
41
1
10
40.0226153516812
20
-5.32602736321468
30
0
41
1
10
39.611548184823
20
-5.26766230155326
30
0
41
1
10
39.4059621547601
20
-5.23501209116861
30
0
41
1
10
38.9942838797874
20
-5.16293928027116
30
0
41
1
10
38.7880923463337
20
-5.12358572331487
30
0
41
1
10
38.3751448424269
20
-5.0381336982077
30
0
41
1
10
38.1683860786435
20
-4.99203166869421
30
0
41
1
10
37.75414589077
20
-4.89308996580266
30
0
41
1
10
37.5467058047013
20
-4.84020681690504
30
0
41
1
10
37.2346178307051
20
-4.75609606593827
30
0
41
1
10
37.1303723736253
20
-4.72724725677034
30
0
41
1
10
36.9222711060503
20
-4.66811689886052
30
0
41
1
10
36.8183483056737
20
-4.63781257894527
30
0
41
1
10
36.506948618423
20
-4.54470777281639
30
0
41
1
10
36.2998320118902
20
-4.47972448910059
30
0
41
1
10
35.8864238489021
20
-4.34412131930458
30
0
41
1
10
35.6801178662662
20
-4.27351270872725
30
0
41
1
10
35.2677688643145
20
-4.12736858524292
30
0
41
1
10
35.0618249967866
20
-4.05172006842977
30
0
41
1
10
34.6503961683298
20
-3.89529704871541
30
0
41
1
10
34.4448988772932
20
-3.81453599810118
30
0
41
1
10
34.1368367745961
20
-3.68975561735164
30
0
41
1
10
34.0341716006863
20
-3.64756677084662
30
0
41
1
10
33.8287968009419
20
-3.56212461748515
30
0
41
1
10
33.7260862239111
20
-3.51887338258629
30
0
41
1
10
33.417934983116
20
-3.38746491035752
30
0
41
1
10
33.2125016951366
20
-3.29761389427017
30
0
41
1
10
32.8015230827883
20
-3.11356855584063
30
0
41
1
10
32.5960012502085
20
-3.01933617222466
30
0
41
1
10
32.1845530055799
20
-2.82694239696738
30
0
41
1
10
31.9785153604065
20
-2.72896153428613
30
0
41
1
10
31.5658841311927
20
-2.5293111326522
30
0
41
1
10
31.3593117108323
20
-2.42760388161088
30
0
41
1
10
30.9454981066896
20
-2.22062598572089
30
0
41
1
10
30.7382995960613
20
-2.11527636749363
30
0
41
1
10
30.4266576242003
20
-1.9551364901005
30
0
41
1
10
30.3226253221838
20
-1.90142532549137
30
0
41
1
10
30.1142862431041
20
-1.7932839430654
30
0
41
1
10
30.010153948802
20
-1.73893383042469
30
0
41
1
10
29.6982811043631
20
-1.57525318469882
30
0
41
1
10
29.490877449844
20
-1.46522990208669
30
0
41
1
10
29.0769495927564
20
-1.24364372823564
30
0
41
1
10
28.8704366754314
20
-1.1320599988654
30
0
41
1
10
28.4577218824006
20
-0.908406764749259
30
0
41
1
10
28.2516045557827
20
-0.796180255861202
30
0
41
1
10
27.8398928593548
20
-0.570847437876466
30
0
41
1
10
27.6342760803628
20
-0.457782716787392
30
0
41
1
10
27.3260911513831
20
-0.28780746564226
30
0
41
1
10
27.2233967332324
20
-0.231097417154302
30
0
41
1
10
27.0179874561612
20
-0.117737355866893
30
0
41
1
10
26.9152655042255
20
-0.0611004614427486
30
0
41
1
10
26.6070853208352
20
0.108750594940688
30
0
41
1
10
26.4016487363685
20
0.221971707386558
30
0
41
1
10
25.9907264221356
20
0.448234474947242
30
0
41
1
10
25.7852527264438
20
0.561298336313484
30
0
41
1
10
25.4768117903637
20
0.730401268286585
30
0
41
1
10
25.3739460022679
20
0.786661373992672
30
0
41
1
10
25.1680450194112
20
0.89884623783243
30
0
41
1
10
25.0650186852653
20
0.954787374105535
30
0
41
1
10
24.7557623045447
20
1.12224945482924
30
0
41
1
10
24.5493625022206
20
1.2334231247255
30
0
41
1
10
24.1359501412711
20
1.45454786724946
30
0
41
1
10
23.9289779409043
20
1.56457330860252
30
0
41
1
10
23.6177596495608
20
1.72813957617515
30
0
41
1
10
23.5138773447264
20
1.78238649641801
30
0
41
1
10
23.3578497626839
20
1.86336285616215
30
0
41
1
10
23.3058072504201
20
1.89029059961649
30
0
41
1
10
23.2016595839157
20
1.94402467247633
30
0
41
1
10
23.1495421348617
20
1.9708383823492
30
0
41
1
10
22.8892217197115
20
2.10438020056577
30
0
41
1
10
22.6815064340586
20
2.2096794532157
30
0
41
1
10
22.2670108117737
20
2.41699411076428
30
0
41
1
10
22.0602601327899
20
2.51905498315179
30
0
41
1
10
21.6471378657392
20
2.71899987487825
30
0
41
1
10
21.4408259595887
20
2.81699262890183
30
0
41
1
10
21.0287884035411
20
3.00920235052834
30
0
41
1
10
20.8230332464262
20
3.10336944178812
30
0
41
1
10
20.4119098015579
20
3.28761562719544
30
0
41
1
10
20.2064926444246
20
3.37761720331963
30
0
41
1
10
19.7955123956544
20
3.55277567474903
30
0
41
1
10
19.5900531088912
20
3.63808631887787
30
0
41
1
10
19.179150435131
20
3.80409887240091
30
0
41
1
10
18.9737070631343
20
3.884798481644
30
0
41
1
10
18.6653804119926
20
4.00213625795823
30
0
41
1
10
18.5625670755974
20
4.04061610871256
30
0
41
1
10
18.3567827722001
20
4.11620833226436
30
0
41
1
10
18.25381807908
20
4.15332925117113
30
0
41
1
10
17.9447566689954
20
4.26272745102659
30
0
41
1
10
17.7385114951067
20
4.3330620095773
30
0
41
1
10
17.3254689372077
20
4.46831540401536
30
0
41
1
10
17.118705715651
20
4.5332690716919
30
0
41
1
10
16.7042753257848
20
4.65731261665945
30
0
41
1
10
16.4965131724356
20
4.7163108684951
30
0
41
1
10
16.1841550943778
20
4.80034810876978
30
0
41
1
10
16.0799047109936
20
4.82761606963399
30
0
41
1
10
15.871616190618
20
4.88051202694757
30
0
41
1
10
15.7675194809497
20
4.90615649868846
30
0
41
1
10
15.4553447617107
20
4.98065660148217
30
0
41
1
10
15.2474183304151
20
5.02710022393313
30
0
41
1
10
14.8313594402072
20
5.11312892951918
30
0
41
1
10
14.6232309799931
20
5.15272872529755
30
0
41
1
10
14.2068671995156
20
5.22517273082249
30
0
41
1
10
13.998632109838
20
5.25801866216068
30
0
41
1
10
13.7904298644947
20
5.28748014029571
30
0
0
SPLINE
5
C0
100
AcDbEntity
8
1
62
256
6
ByLayer
370
18
48
1
60
0
100
AcDbSpline
70
4
71
3
72
10
73
6
40
0
40
0
40
0
40
0
40
0.992678962653647
40
0.992678962653647
40
1
40
1
40
1
40
1
41
1
10
13.7904298644947
20
5.28748014029571
30
0
41
1
10
12.6868287146586
20
5.39850126177029
30
0
41
1
10
11.6035087459799
20
5.46803453402444
30
0
41
1
10
10.5266386233677
20
5.46905150848147
30
0
41
1
10
10.5187555952851
20
5.46905523901984
30
0
41
1
10
10.5108733435365
20
5.46905524250246
30
0
0
SPLINE
5
C1
100
AcDbEntity
8
1
62
256
6
ByLayer
370
18
48
1
60
0
100
AcDbSpline
70
4
71
3
72
182
73
178
40
0
40
0
40
0
40
0
40
0.0065608615400064
40
0.0065608615400064
40
0.0143714089165751
40
0.0143714089165751
40
0.0221819562931438
40
0.0221819562931438
40
0.0299925036697125
40
0.0299925036697125
40
0.0378030510462812
40
0.0378030510462812
40
0.0534241457994187
40
0.0534241457994187
40
0.0690452405525561
40
0.0690452405525561
40
0.0768557879291252
40
0.0768557879291252
40
0.0846663353056943
40
0.0846663353056943
40
0.100287430058833
40
0.100287430058833
40
0.115908524811971
40
0.115908524811971
40
0.131529619565109
40
0.131529619565109
40
0.147150714318247
40
0.147150714318247
40
0.162771809071385
40
0.162771809071385
40
0.178392903824524
40
0.178392903824524
40
0.186203451201093
40
0.186203451201093
40
0.194013998577663
40
0.194013998577663
40
0.201824545954232
40
0.201824545954232
40
0.209635093330802
40
0.209635093330802
40
0.225256188083941
40
0.225256188083941
40
0.24087728283708
40
0.24087728283708
40
0.24868783021365
40
0.24868783021365
40
0.25649837759022
40
0.25649837759022
40
0.272119472343359
40
0.272119472343359
40
0.287740567096498
40
0.287740567096498
40
0.295551114473067
40
0.295551114473067
40
0.303361661849637
40
0.303361661849637
40
0.318982756602777
40
0.318982756602777
40
0.334603851355917
40
0.334603851355917
40
0.350224946109057
40
0.350224946109057
40
0.358035493485626
40
0.358035493485626
40
0.365846040862196
40
0.365846040862196
40
0.373656588238766
40
0.373656588238766
40
0.381467135615336
40
0.381467135615336
40
0.397088230368477
40
0.397088230368477
40
0.412709325121618
40
0.412709325121618
40
0.420519872498188
40
0.420519872498188
40
0.428330419874758
40
0.428330419874758
40
0.443951514627899
40
0.443951514627899
40
0.459572609381039
40
0.459572609381039
40
0.467383156757609
40
0.467383156757609
40
0.47519370413418
40
0.47519370413418
40
0.490814798887319
40
0.490814798887319
40
0.506435893640459
40
0.506435893640459
40
0.522056988393599
40
0.522056988393599
40
0.529867535770169
40
0.529867535770169
40
0.537678083146739
40
0.537678083146739
40
0.55329917789988
40
0.55329917789988
40
0.557204451588165
40
0.557204451588165
40
0.56110972527645
40
0.56110972527645
40
0.56892027265302
40
0.56892027265302
40
0.58454136740616
40
0.58454136740616
40
0.6001624621593
40
0.6001624621593
40
0.61578355691244
40
0.61578355691244
40
0.631404651665579
40
0.631404651665579
40
0.63921519904215
40
0.63921519904215
40
0.64702574641872
40
0.64702574641872
40
0.66264684117186
40
0.66264684117186
40
0.678267935924999
40
0.678267935924999
40
0.693889030678139
40
0.693889030678139
40
0.709510125431279
40
0.709510125431279
40
0.725131220184419
40
0.725131220184419
40
0.729036493872703
40
0.729036493872703
40
0.732941767560988
40
0.732941767560988
40
0.740752314937557
40
0.740752314937557
40
0.748562862314126
40
0.748562862314126
40
0.756373409690695
40
0.756373409690695
40
0.771994504443832
40
0.771994504443832
40
0.78761559919697
40
0.78761559919697
40
0.803236693950107
40
0.803236693950107
40
0.811047241326676
40
0.811047241326676
40
0.818857788703244
40
0.818857788703244
40
0.834478883456381
40
0.834478883456381
40
0.850099978209518
40
0.850099978209518
40
0.857910525586085
40
0.857910525586085
40
0.865721072962653
40
0.865721072962653
40
0.881342167715789
40
0.881342167715789
40
0.896963262468925
40
0.896963262468925
40
0.904773809845493
40
0.904773809845493
40
0.912584357222062
40
0.912584357222062
40
0.92039490459863
40
0.92039490459863
40
0.928205451975198
40
0.928205451975198
40
0.943826546728335
40
0.943826546728335
40
0.959447641481471
40
0.959447641481471
40
0.975068736234608
40
0.975068736234608
40
0.982879283611176
40
0.982879283611176
40
0.990689830987743
40
0.990689830987743
40
1
40
1
40
1
40
1
41
1
10
19.7176476212684
20
3.59876192036813
30
0
41
1
10
19.8045992453987
20
3.63482100719705
30
0
41
1
10
19.8916149381565
20
3.67049456625358
30
0
41
1
10
20.0823299107244
20
3.74783484102457
30
0
41
1
10
20.1860539809477
20
3.78934199253791
30
0
41
1
10
20.3936501898576
20
3.87129584633024
30
0
41
1
10
20.4975297111141
20
3.91173185579081
30
0
41
1
10
20.7055451139016
20
3.99138517336553
30
0
41
1
10
20.8097334131938
20
4.03061914371415
30
0
41
1
10
21.017766570956
20
4.10750941312114
30
0
41
1
10
21.121696196868
20
4.14518606071317
30
0
41
1
10
21.4332448096805
20
4.25592116607743
30
0
41
1
10
21.6405674164412
20
4.32676312063975
30
0
41
1
10
22.0541940444476
20
4.46285339862442
30
0
41
1
10
22.260470818231
20
4.52811486104031
30
0
41
1
10
22.5695879353004
20
4.62130141809374
30
0
41
1
10
22.6725776543685
20
4.65158078249928
30
0
41
1
10
22.8785343969375
20
4.71051372445154
30
0
41
1
10
22.9815037687011
20
4.73916622656827
30
0
41
1
10
23.2902986892447
20
4.82278205696932
30
0
41
1
10
23.4959869288187
20
4.87542885317981
30
0
41
1
10
23.9068537064394
20
4.97463180664874
30
0
41
1
10
24.1120746821607
20
5.02113853163124
30
0
41
1
10
24.5227880634962
20
5.1074401274609
30
0
41
1
10
24.7283502845251
20
5.14720247930072
30
0
41
1
10
25.1396465914589
20
5.2201510125474
30
0
41
1
10
25.3453208837929
20
5.25336772433477
30
0
41
1
10
25.7567798661026
20
5.31315675277799
30
0
41
1
10
25.962637601524
20
5.33968253706814
30
0
41
1
10
26.375259365575
20
5.38570005238134
30
0
41
1
10
26.5820423980704
20
5.40520390767375
30
0
41
1
10
26.8926273374112
20
5.42926990359067
30
0
41
1
10
26.9962288911896
20
5.43642329757256
30
0
41
1
10
27.2035645924798
20
5.44897529553288
30
0
41
1
10
27.30730262181
20
5.45437204138111
30
0
41
1
10
27.5150122139608
20
5.46337165638138
30
0
41
1
10
27.6189850261771
20
5.46697442790241
30
0
41
1
10
27.8272479989755
20
5.47236775655574
30
0
41
1
10
27.9313046152684
20
5.47415192935927
30
0
41
1
10
28.2431956070456
20
5.47680002243428
30
0
41
1
10
28.4507439785733
20
5.4749729939353
30
0
41
1
10
28.8647844370115
20
5.46419736175486
30
0
41
1
10
29.0712392788314
20
5.45522698489617
30
0
41
1
10
29.3805435986083
20
5.43648271914873
30
0
41
1
10
29.4835849894657
20
5.42935544829265
30
0
41
1
10
29.6896240469435
20
5.41337616783784
30
0
41
1
10
29.7926297503278
20
5.40452743926204
30
0
41
1
10
30.1015359882832
20
5.37540682292064
30
0
41
1
10
30.3072953242615
20
5.35255517424434
30
0
41
1
10
30.7182543273009
20
5.29987788213626
30
0
41
1
10
30.9234737544501
20
5.27004408993153
30
0
41
1
10
31.2314432871888
20
5.22030668851389
30
0
41
1
10
31.3341244469931
20
5.20289925446653
30
0
41
1
10
31.5395890419927
20
5.16646953948489
30
0
41
1
10
31.6423628163275
20
5.14744250913731
30
0
41
1
10
31.9507210033453
20
5.08787498371274
30
0
41
1
10
32.1563153216199
20
5.04483125536484
30
0
41
1
10
32.5675284399762
20
4.95197242498742
30
0
41
1
10
32.7732156467907
20
4.90219665066121
30
0
41
1
10
33.1854149870119
20
4.79647403614487
30
0
41
1
10
33.3919715205528
20
4.74058567112002
30
0
41
1
10
33.7022088714913
20
4.65193228974672
30
0
41
1
10
33.8056909329884
20
4.62157790734284
30
0
41
1
10
34.0127779610278
20
4.55922628124623
30
0
41
1
10
34.1163799441363
20
4.52722484202152
30
0
41
1
10
34.3237925547267
20
4.46164946716675
30
0
41
1
10
34.4276045149416
20
4.42807705354295
30
0
41
1
10
34.6355243940667
20
4.35944969307755
30
0
41
1
10
34.7397198216348
20
4.32436622547715
30
0
41
1
10
35.0519902902633
20
4.21730583029111
30
0
41
1
10
35.2597895483761
20
4.14344203917602
30
0
41
1
10
35.6742944262853
20
3.99036992307299
30
0
41
1
10
35.8809586086741
20
3.91109824320199
30
0
41
1
10
36.190490754776
20
3.78864674722195
30
0
41
1
10
36.2935970368621
20
3.74724812607249
30
0
41
1
10
36.4997442043256
20
3.66340150674105
30
0
41
1
10
36.6027948793466
20
3.62096760222309
30
0
41
1
10
36.9118420231546
20
3.4920979757535
30
0
41
1
10
37.1176907972042
20
3.40403692642707
30
0
41
1
10
37.5287894905901
20
3.22327747834876
30
0
41
1
10
37.7340324704147
20
3.1305591685738
30
0
41
1
10
38.041969792208
20
2.98877329698206
30
0
41
1
10
38.1446268974877
20
2.94105979993651
30
0
41
1
10
38.3500346390359
20
2.84484638900244
30
0
41
1
10
38.4527791443962
20
2.79633750317439
30
0
41
1
10
38.7610466463586
20
2.64946970737961
30
0
41
1
10
38.9665780292415
20
2.54972983001653
30
0
41
1
10
39.3775867143861
20
2.34639520362387
30
0
41
1
10
39.5831228472866
20
2.24289027694232
30
0
41
1
10
39.994936139318
20
2.03333675050257
30
0
41
1
10
40.2012740725578
20
1.92740336020538
30
0
41
1
10
40.5111844185691
20
1.76633810590343
30
0
41
1
10
40.6145533652774
20
1.71228459839403
30
0
41
1
10
40.8214059232238
20
1.60340804455024
30
0
41
1
10
40.9248823024904
20
1.54857131568832
30
0
41
1
10
41.2355819117408
20
1.38306923753569
30
0
41
1
10
41.4430936842486
20
1.27144150737036
30
0
41
1
10
41.7033589894532
20
1.13103313977561
30
0
41
1
10
41.7554677157848
20
1.10289937481116
30
0
41
1
10
41.8595933488031
20
1.04661960852332
30
0
41
1
10
41.911629491481
20
1.01846323646521
30
0
41
1
10
42.067647444469
20
0.933924060157352
30
0
41
1
10
42.1715358472953
20
0.877465521408652
30
0
41
1
10
42.4827908155227
20
0.707715303246857
30
0
41
1
10
42.6896885755556
20
0.593938341544373
30
0
41
1
10
43.1027448204719
20
0.366058785787629
30
0
41
1
10
43.3089708145144
20
0.252083752099395
30
0
41
1
10
43.7212498625808
20
0.024855113103456
30
0
41
1
10
43.9272036371391
20
-0.0885865702765329
30
0
41
1
10
44.3384733098355
20
-0.315623401415223
30
0
41
1
10
44.5437633579329
20
-0.429263884222991
30
0
41
1
10
44.8516955164317
20
-0.598954982429348
30
0
41
1
10
44.9543391551002
20
-0.655390560482203
30
0
41
1
10
45.15970169938
20
-0.76786741859712
30
0
41
1
10
45.2624226037587
20
-0.823905222624404
30
0
41
1
10
45.5706167365622
20
-0.991578610466604
30
0
41
1
10
45.7760971670661
20
-1.10281883288192
30
0
41
1
10
46.1869364781978
20
-1.32448925240766
30
0
41
1
10
46.3923382123104
20
-1.43483961819507
30
0
41
1
10
46.8037964193933
20
-1.65332315814339
30
0
41
1
10
47.0099215171762
20
-1.76133610506903
30
0
41
1
10
47.4227218668343
20
-1.97533647203801
30
0
41
1
10
47.6293375497945
20
-2.08142866395167
30
0
41
1
10
48.0430760406056
20
-2.29164047335303
30
0
41
1
10
48.2502730250347
20
-2.39562806902256
30
0
41
1
10
48.5100908477248
20
-2.52349023333397
30
0
41
1
10
48.5620962045222
20
-2.54895540999527
30
0
41
1
10
48.6661855854142
20
-2.59967979572161
30
0
41
1
10
48.7182911720884
20
-2.62495019008023
30
0
41
1
10
48.8745230591568
20
-2.7003804637146
30
0
41
1
10
48.9785530850162
20
-2.7501603779873
30
0
41
1
10
49.1863290136889
20
-2.84877313819817
30
0
41
1
10
49.2900765881561
20
-2.89760299629489
30
0
41
1
10
49.4972782553662
20
-2.99433075047364
30
0
41
1
10
49.6007375347181
20
-3.04221941806554
30
0
41
1
10
49.9108274060932
20
-3.18424568070532
30
0
41
1
10
50.1171922236216
20
-3.2767056806558
30
0
41
1
10
50.5297208894225
20
-3.4564846842091
30
0
41
1
10
50.735797574969
20
-3.54394518902274
30
0
41
1
10
51.1472741350186
20
-3.71446491633694
30
0
41
1
10
51.3526368689008
20
-3.79756222375553
30
0
41
1
10
51.6605947543926
20
-3.91830777682273
30
0
41
1
10
51.7632357516792
20
-3.95790391998707
30
0
41
1
10
51.9685710157132
20
-4.0357012879193
30
0
41
1
10
52.071273398626
20
-4.07389312909913
30
0
41
1
10
52.3794145715703
20
-4.18644816599513
30
0
41
1
10
52.584856587204
20
-4.25883201224684
30
0
41
1
10
52.9955660786006
20
-4.39848954323995
30
0
41
1
10
53.2008524301001
20
-4.46572871265337
30
0
41
1
10
53.5092061786925
20
-4.56210329138491
30
0
41
1
10
53.6120625431673
20
-4.59348133128319
30
0
41
1
10
53.8179717015877
20
-4.65469491465652
30
0
41
1
10
53.921014938605
20
-4.68454088177955
30
0
41
1
10
54.2303236308282
20
-4.77187981975317
30
0
41
1
10
54.4367405180511
20
-4.82720095266311
30
0
41
1
10
54.8499865217323
20
-4.93193472269891
30
0
41
1
10
55.056885241039
20
-4.9812761062559
30
0
41
1
10
55.3681525568761
20
-5.05029788976847
30
0
41
1
10
55.4720691128852
20
-5.07246993845339
30
0
41
1
10
55.6801905592715
20
-5.11516798679853
30
0
41
1
10
55.7844466752489
20
-5.13570747732865
30
0
41
1
10
55.9925172840545
20
-5.17504364090397
30
0
41
1
10
56.0964086144876
20
-5.19385403849279
30
0
41
1
10
56.3038858789414
20
-5.22977261810516
30
0
41
1
10
56.407470351889
20
-5.24688054171355
30
0
41
1
10
56.7178970976911
20
-5.29557673768525
30
0
41
1
10
56.9244273929814
20
-5.32452413728475
30
0
41
1
10
57.3372410620926
20
-5.37524181714164
30
0
41
1
10
57.5434593816884
20
-5.39705771496185
30
0
41
1
10
57.9551816731246
20
-5.43377438495088
30
0
41
1
10
58.1606437844769
20
-5.44866996186977
30
0
41
1
10
58.4686614633676
20
-5.46569970706946
30
0
41
1
10
58.5713109898871
20
-5.47049090033349
30
0
41
1
10
58.7766409393997
20
-5.4783010491301
30
0
41
1
10
58.879331215949
20
-5.48131972809733
30
0
41
1
10
59.1044582447542
20
-5.4860106482831
30
0
41
1
10
59.2268850981632
20
-5.48731634155124
30
0
41
1
10
59.3492906990881
20
-5.48737263493109
30
0
0
SPLINE
5
C2
100
AcDbEntity
8
1
62
256
6
ByLayer
370
18
48
1
60
0
100
AcDbSpline
70
4
71
3
72
52
73
48
40
0
40
0
40
0
40
0
40
0.0414975047523602
40
0.0414975047523602
40
0.0696887546125858
40
0.0696887546125858
40
0.0978800044728123
40
0.0978800044728123
40
0.126071254333038
40
0.126071254333038
40
0.154262504193264
40
0.154262504193264
40
0.210645003913717
40
0.210645003913717
40
0.26702750363417
40
0.26702750363417
40
0.295218753494393
40
0.295218753494393
40
0.323410003354617
40
0.323410003354617
40
0.379792503075065
40
0.379792503075065
40
0.436175002795512
40
0.436175002795512
40
0.492557502515959
40
0.492557502515959
40
0.548940002236406
40
0.548940002236406
40
0.605322501956854
40
0.605322501956854
40
0.661705001677301
40
0.661705001677301
40
0.689896251537521
40
0.689896251537521
40
0.718087501397742
40
0.718087501397742
40
0.774470001118189
40
0.774470001118189
40
0.802661250978415
40
0.802661250978415
40
0.830852500838641
40
0.830852500838641
40
0.887235000559094
40
0.887235000559094
40
0.943617500279547
40
0.943617500279547
40
1
40
1
40
1
40
1
41
1
10
82.029642166027
20
3.60350886518634
30
0
41
1
10
82.1812131268071
20
3.66704696546117
30
0
41
1
10
82.3328731648346
20
3.7294654797806
30
0
41
1
10
82.5879509482715
20
3.83205771485618
30
0
41
1
10
82.6912434504942
20
3.87294883878636
30
0
41
1
10
82.8981134170976
20
3.95341126630333
30
0
41
1
10
83.0016863878163
20
3.99298927837918
30
0
41
1
10
83.2090504943274
20
4.07091373389358
30
0
41
1
10
83.3128387529424
20
4.10926377754765
30
0
41
1
10
83.5206038366168
20
4.18476114799915
30
0
41
1
10
83.6246201105665
20
4.22192616101364
30
0
41
1
10
83.9366887405261
20
4.331490209641
30
0
41
1
10
84.1440997743931
20
4.40165749477347
30
0
41
1
10
84.5583411930222
20
4.53553967291475
30
0
41
1
10
84.7652331003393
20
4.5992056977403
30
0
41
1
10
85.0749888109279
20
4.69013942794436
30
0
41
1
10
85.1781420563152
20
4.71968934373353
30
0
41
1
10
85.384233380031
20
4.77728271681889
30
0
41
1
10
85.4871643010338
20
4.80533202379661
30
0
41
1
10
85.7957325102317
20
4.8871231231625
30
0
41
1
10
86.0011620848882
20
4.93848681589836
30
0
41
1
10
86.4121004324052
20
5.03443435259561
30
0
41
1
10
86.6175862133616
20
5.07905473085967
30
0
41
1
10
87.0282048214934
20
5.16190106415303
30
0
41
1
10
87.2332979652384
20
5.20013869637921
30
0
41
1
10
87.6434951670966
20
5.26990864169207
30
0
41
1
10
87.8486661215835
20
5.30140294223227
30
0
41
1
10
88.2596142203899
20
5.35742756719813
30
0
41
1
10
88.4652952234218
20
5.38201512160919
30
0
41
1
10
88.8767898870494
20
5.42439436933938
30
0
41
1
10
89.0825726077081
20
5.44217922523725
30
0
41
1
10
89.3918050313677
20
5.46353103854108
30
0
41
1
10
89.4949766184481
20
5.46976224855842
30
0
41
1
10
89.7015842406185
20
5.48043829748542
30
0
41
1
10
89.8050251415926
20
5.48488354689519
30
0
41
1
10
90.1156763721561
20
5.49555272136129
30
0
41
1
10
90.3231889193327
20
5.49911719169597
30
0
41
1
10
90.6349595756878
20
5.49903253286496
30
0
41
1
10
90.7390150417632
20
5.49809503282142
30
0
41
1
10
90.9469478149427
20
5.49439872677948
30
0
41
1
10
91.0508756097513
20
5.49164082004819
30
0
41
1
10
91.3626676864051
20
5.4806617849205
30
0
41
1
10
91.570621605671
20
5.46975534900261
30
0
41
1
10
91.9864617610727
20
5.44079698906543
30
0
41
1
10
92.1942837903936
20
5.42272414026709
30
0
41
1
10
92.6098103880129
20
5.37932820317653
30
0
41
1
10
92.8175933267054
20
5.35402035078806
30
0
41
1
10
93.025739935788
20
5.32524563120035
30
0
0
SPLINE
5
C3
100
AcDbEntity
8
1
62
256
6
ByLayer
370
18
48
1
60
0
100
AcDbSpline
70
4
71
3
72
164
73
160
40
0
40
0
40
0
40
0
40
0.0034351441137981
40
0.0034351441137981
40
0.0190494092035573
40
0.0190494092035573
40
0.0346636742933165
40
0.0346636742933165
40
0.0502779393830758
40
0.0502779393830758
40
0.065892204472835
40
0.065892204472835
40
0.0736993370177138
40
0.0736993370177138
40
0.0815064695625926
40
0.0815064695625926
40
0.0893136021074714
40
0.0893136021074714
40
0.0971207346523501
40
0.0971207346523501
40
0.112734999742108
40
0.112734999742108
40
0.128349264831865
40
0.128349264831865
40
0.143963529921623
40
0.143963529921623
40
0.159577795011381
40
0.159577795011381
40
0.175192060101138
40
0.175192060101138
40
0.190806325190896
40
0.190806325190896
40
0.206420590280653
40
0.206420590280653
40
0.222034855370411
40
0.222034855370411
40
0.237649120460169
40
0.237649120460169
40
0.245456253005047
40
0.245456253005047
40
0.253263385549926
40
0.253263385549926
40
0.261070518094804
40
0.261070518094804
40
0.268877650639682
40
0.268877650639682
40
0.28449191572944
40
0.28449191572944
40
0.300106180819197
40
0.300106180819197
40
0.315720445908955
40
0.315720445908955
40
0.331334710998713
40
0.331334710998713
40
0.34694897608847
40
0.34694897608847
40
0.362563241178228
40
0.362563241178228
40
0.378177506267985
40
0.378177506267985
40
0.393791771357743
40
0.393791771357743
40
0.4094060364475
40
0.4094060364475
40
0.425020301537258
40
0.425020301537258
40
0.432827434082137
40
0.432827434082137
40
0.440634566627016
40
0.440634566627016
40
0.456248831716774
40
0.456248831716774
40
0.471863096806532
40
0.471863096806532
40
0.479670229351411
40
0.479670229351411
40
0.48747736189629
40
0.48747736189629
40
0.503091626986048
40
0.503091626986048
40
0.518705892075807
40
0.518705892075807
40
0.534320157165565
40
0.534320157165565
40
0.549934422255324
40
0.549934422255324
40
0.565548687345082
40
0.565548687345082
40
0.58116295243484
40
0.58116295243484
40
0.596777217524599
40
0.596777217524599
40
0.600680783797038
40
0.600680783797038
40
0.604584350069477
40
0.604584350069477
40
0.612391482614354
40
0.612391482614354
40
0.628005747704107
40
0.628005747704107
40
0.643620012793861
40
0.643620012793861
40
0.651427145338738
40
0.651427145338738
40
0.659234277883615
40
0.659234277883615
40
0.674848542973371
40
0.674848542973371
40
0.690462808063126
40
0.690462808063126
40
0.706077073152881
40
0.706077073152881
40
0.721691338242636
40
0.721691338242636
40
0.737305603332392
40
0.737305603332392
40
0.752919868422147
40
0.752919868422147
40
0.768534133511902
40
0.768534133511902
40
0.77634126605678
40
0.77634126605678
40
0.780244832329219
40
0.780244832329219
40
0.784148398601658
40
0.784148398601658
40
0.799762663691414
40
0.799762663691414
40
0.81537692878117
40
0.81537692878117
40
0.823184061326048
40
0.823184061326048
40
0.830991193870926
40
0.830991193870926
40
0.846605458960683
40
0.846605458960683
40
0.86221972405044
40
0.86221972405044
40
0.870026856595318
40
0.870026856595318
40
0.877833989140196
40
0.877833989140196
40
0.893448254229952
40
0.893448254229952
40
0.909062519319708
40
0.909062519319708
40
0.924676784409464
40
0.924676784409464
40
0.94029104949922
40
0.94029104949922
40
0.948098182044098
40
0.948098182044098
40
0.955905314588976
40
0.955905314588976
40
0.971519579678733
40
0.971519579678733
40
0.98713384476849
40
0.98713384476849
40
1
40
1
40
1
40
1
41
1
10
82.0302885772916
20
-3.61326258588139
30
0
41
1
10
81.9851328705519
20
-3.6321149616204
30
0
41
1
10
81.9399695917905
20
-3.65085161530422
30
0
41
1
10
81.6894593843044
20
-3.75408805538214
30
0
41
1
10
81.483915618636
20
-3.83625310960372
30
0
41
1
10
81.0725637813131
20
-3.99586506570327
30
0
41
1
10
80.8667223772224
20
-4.07326509664389
30
0
41
1
10
80.4545682811856
20
-4.22302596954523
30
0
41
1
10
80.2482452533149
20
-4.29536906309778
30
0
41
1
10
79.8345633886804
20
-4.43430702775467
30
0
41
1
10
79.6273028782191
20
-4.50102264705549
30
0
41
1
10
79.3157796182392
20
-4.59691605213891
30
0
41
1
10
79.2118276497989
20
-4.6281773735121
30
0
41
1
10
79.0036830452673
20
-4.68926262583261
30
0
41
1
10
78.899748361856
20
-4.71901457331848
30
0
41
1
10
78.6921416984588
20
-4.77689631806598
30
0
41
1
10
78.5884601514415
20
-4.80502237665553
30
0
41
1
10
78.3812500818018
20
-4.85957692150848
30
0
41
1
10
78.2777216884169
20
-4.88600677781574
30
0
41
1
10
77.9674138502285
20
-4.96282171831555
30
0
41
1
10
77.7609371595881
20
-5.01075283870088
30
0
41
1
10
77.3486515303583
20
-5.10000965313807
30
0
41
1
10
77.142868668334
20
-5.14134996497955
30
0
41
1
10
76.7316656182088
20
-5.21724295861182
30
0
41
1
10
76.5261357362118
20
-5.25173609573469
30
0
41
1
10
76.1153103577585
20
-5.31393579534154
30
0
41
1
10
75.910030015729
20
-5.34164550708152
30
0
41
1
10
75.4995878501728
20
-5.39020580614036
30
0
41
1
10
75.294468985855
20
-5.41106602343149
30
0
41
1
10
74.883894857727
20
-5.44575696948775
30
0
41
1
10
74.678404553904
20
-5.45959142722242
30
0
41
1
10
74.2672061788058
20
-5.48027809434583
30
0
41
1
10
74.0614662904176
20
-5.48711878075574
30
0
41
1
10
73.6495645969199
20
-5.49370736782538
30
0
41
1
10
73.443418959798
20
-5.4934471899962
30
0
41
1
10
73.0301387570581
20
-5.48578045897347
30
0
41
1
10
72.8230839625386
20
-5.47838197868052
30
0
41
1
10
72.5119169402736
20
-5.4618677619616
30
0
41
1
10
72.408090203832
20
-5.45546038679655
30
0
41
1
10
72.2002092668686
20
-5.44082786874964
30
0
41
1
10
72.0960740516352
20
-5.43259428038664
30
0
41
1
10
71.8881599426188
20
-5.4143542669002
30
0
41
1
10
71.7843368347864
20
-5.40434731805706
30
0
41
1
10
71.5768686966504
20
-5.38260473743946
30
0
41
1
10
71.473216512835
20
-5.37087277167814
30
0
41
1
10
71.1625400396705
20
-5.33310740041054
30
0
41
1
10
70.9558312698834
20
-5.30448956495678
30
0
41
1
10
70.5431409405751
20
-5.24046819129526
30
0
41
1
10
70.3371729735534
20
-5.20505385006777
30
0
41
1
10
69.9256980813849
20
-5.12761658838622
30
0
41
1
10
69.720077517323
20
-5.08567049052814
30
0
41
1
10
69.3090623689969
20
-4.99539894232836
30
0
41
1
10
69.1037123276968
20
-4.94703828793919
30
0
41
1
10
68.693178660269
20
-4.84397796842902
30
0
41
1
10
68.4880358200765
20
-4.78923874529178
30
0
41
1
10
68.0775222380299
20
-4.67375587186822
30
0
41
1
10
67.87207825272
20
-4.61309191895103
30
0
41
1
10
67.4610027878308
20
-4.48574298305815
30
0
41
1
10
67.255349533316
20
-4.41907512299247
30
0
41
1
10
66.8436701095641
20
-4.27984890986824
30
0
41
1
10
66.6376776560265
20
-4.20724391730994
30
0
41
1
10
66.2247736381057
20
-4.05674426272435
30
0
41
1
10
66.0179107261062
20
-3.97880178278783
30
0
41
1
10
65.6034657642657
20
-3.81733356754569
30
0
41
1
10
65.3958525369398
20
-3.73384556982424
30
0
41
1
10
65.0837310786463
20
-3.60455518985498
30
0
41
1
10
64.9796945987378
20
-3.56083411592314
30
0
41
1
10
64.7719484413307
20
-3.47244981121238
30
0
41
1
10
64.6681675273522
20
-3.42777530298764
30
0
41
1
10
64.3571029546694
20
-3.29231383897303
30
0
41
1
10
64.1501460789399
20
-3.20001571638051
30
0
41
1
10
63.7370209426226
20
-3.01154192639316
30
0
41
1
10
63.5308528934362
20
-2.9153645249053
30
0
41
1
10
63.2220148279746
20
-2.76847888049002
30
0
41
1
10
63.1191268414455
20
-2.71909792353523
30
0
41
1
10
62.9133848362074
20
-2.61963524352808
30
0
41
1
10
62.8105372921081
20
-2.56954338279067
30
0
41
1
10
62.5021147912563
20
-2.41810972803222
30
0
41
1
10
62.2966782808809
20
-2.31557914509307
30
0
41
1
10
61.8860239264921
20
-2.10759946366883
30
0
41
1
10
61.6808401997973
20
-2.00209080720043
30
0
41
1
10
61.2703500519549
20
-1.7887331625227
30
0
41
1
10
61.0649450830543
20
-1.68105872752255
30
0
41
1
10
60.6539627848887
20
-1.46346775489482
30
0
41
1
10
60.4483816202743
20
-1.35355602906543
30
0
41
1
10
60.036894926131
20
-1.13173769757626
30
0
41
1
10
59.8310314417586
20
-1.01975161803586
30
0
41
1
10
59.418478074659
20
-0.794685814429982
30
0
41
1
10
59.2117938815285
20
-0.681600856394454
30
0
41
1
10
58.7977625810163
20
-0.454019497894223
30
0
41
1
10
58.5903819247305
20
-0.339584775322948
30
0
41
1
10
58.3306053924373
20
-0.195889165673634
30
0
41
1
10
58.2786230606857
20
-0.167116403696923
30
0
41
1
10
58.1745943678901
20
-0.109522317793477
30
0
41
1
10
58.1225354405606
20
-0.0806944075469573
30
0
41
1
10
57.9665024893881
20
0.0056870041921968
30
0
41
1
10
57.8625862424409
20
0.0631658309123395
30
0
41
1
10
57.5511140085737
20
0.235207825367866
30
0
41
1
10
57.3438937788178
20
0.349492756338748
30
0
41
1
10
56.9303040007425
20
0.57726050879802
30
0
41
1
10
56.7239219410534
20
0.690718266670331
30
0
41
1
10
56.4148246465198
20
0.860005546818314
30
0
41
1
10
56.3118630789857
20
0.916268866166575
30
0
41
1
10
56.1059926572618
20
1.02830319838338
30
0
41
1
10
56.003083248354
20
1.08407358287749
30
0
41
1
10
55.6944816947486
20
1.25074024724174
30
0
41
1
10
55.4889426808012
20
1.36103988838454
30
0
41
1
10
55.078139438794
20
1.57981008287996
30
0
41
1
10
54.8728993323557
20
1.68832219783297
30
0
41
1
10
54.4623970718077
20
1.90298832083724
30
0
41
1
10
54.2570233458979
20
2.00895026478275
30
0
41
1
10
53.8461058063857
20
2.21827178599108
30
0
41
1
10
53.64058290975
20
2.3216656950157
30
0
41
1
10
53.2292610653595
20
2.52565294853702
30
0
41
1
10
53.0235049987803
20
2.62631544797301
30
0
41
1
10
52.611274697407
20
2.82409100637406
30
0
41
1
10
52.4047593310988
20
2.92114163683803
30
0
41
1
10
51.9911129967616
20
3.11185171730574
30
0
41
1
10
51.7839509643018
20
3.20545959169451
30
0
41
1
10
51.4725867071881
20
3.34304371278537
30
0
41
1
10
51.368699902666
20
3.38844101044433
30
0
41
1
10
51.2126644179325
20
3.45574901751493
30
0
41
1
10
51.1605968793663
20
3.47806192816196
30
0
41
1
10
51.0565300673123
20
3.5223432425567
30
0
41
1
10
51.0045213269027
20
3.54431373722511
30
0
41
1
10
50.7446032939373
20
3.6533255112939
30
0
41
1
10
50.5371039568915
20
3.73789757627787
30
0
41
1
10
50.1230176905927
20
3.90191021585474
30
0
41
1
10
49.9164076799452
20
3.98131527939074
30
0
41
1
10
49.6070232121214
20
4.09639126965774
30
0
41
1
10
49.5039775128624
20
4.13406976291333
30
0
41
1
10
49.2979626630796
20
4.20796582571742
30
0
41
1
10
49.1949863793723
20
4.24417566737014
30
0
41
1
10
48.8861873477237
20
4.35065151978424
30
0
41
1
10
48.6805303704496
20
4.41880579449699
30
0
41
1
10
48.2695503467355
20
4.54937579458684
30
0
41
1
10
48.064239494614
20
4.61180119202453
30
0
41
1
10
47.7563280997194
20
4.70092619272771
30
0
41
1
10
47.6536863657848
20
4.72986912016844
30
0
41
1
10
47.4483279503939
20
4.78616878457109
30
0
41
1
10
47.3456201474648
20
4.81353449478138
30
0
41
1
10
47.0374615100117
20
4.89332743804661
30
0
41
1
10
46.8319834484069
20
4.94345610505351
30
0
41
1
10
46.4208010864706
20
5.03741896584879
30
0
41
1
10
46.2151369111109
20
5.08127876507209
30
0
41
1
10
45.8031975579563
20
5.16237662039296
30
0
41
1
10
45.5968462728254
20
5.19957472613578
30
0
41
1
10
45.1835601476859
20
5.2673529736179
30
0
41
1
10
44.9766047887344
20
5.29791599039788
30
0
41
1
10
44.6655900034665
20
5.33864079537781
30
0
41
1
10
44.5618263453688
20
5.35136416065157
30
0
41
1
10
44.3540530276074
20
5.37506760735417
30
0
41
1
10
44.2499864093256
20
5.38605023534805
30
0
41
1
10
43.9376284272253
20
5.41629218130936
30
0
41
1
10
43.7298317680271
20
5.43281773930471
30
0
41
1
10
43.3152115409695
20
5.45873145904307
30
0
41
1
10
43.1083578313021
20
5.46810794463224
30
0
41
1
10
42.7317594262282
20
5.47870369254434
30
0
41
1
10
42.5618600043045
20
5.48106113847274
30
0
41
1
10
42.3920666925798
20
5.48101199548768
30
0
0
SPLINE
5
C4
100
AcDbEntity
8
1
62
256
6
ByLayer
370
18
48
1
60
0
100
AcDbSpline
70
4
71
3
72
30
73
26
40
0
40
0
40
0
40
0
40
0.0566038265859767
40
0.0566038265859767
40
0.161425623631973
40
0.161425623631973
40
0.213836522154975
40
0.213836522154975
40
0.266247420677975
40
0.266247420677975
40
0.371069217723978
40
0.371069217723978
40
0.47589101476998
40
0.47589101476998
40
0.580712811815982
40
0.580712811815982
40
0.633123710338984
40
0.633123710338984
40
0.685534608861984
40
0.685534608861984
40
0.79035640590799
40
0.79035640590799
40
0.895178202953995
40
0.895178202953995
40
1
40
1
40
1
40
1
41
1
10
19.7174438266802
20
-3.58461206265935
30
0
41
1
10
19.606491754263
20
-3.63077377290128
30
0
41
1
10
19.4955456040418
20
-3.67626916169937
30
0
41
1
10
19.1791504351311
20
-3.80409887240086
30
0
41
1
10
18.9737070631344
20
-3.88479848164397
30
0
41
1
10
18.6653804119928
20
-4.00213625795817
30
0
41
1
10
18.5625670755974
20
-4.04061610871253
30
0
41
1
10
18.3567827722002
20
-4.11620833226436
30
0
41
1
10
18.2538180790802
20
-4.1533292511711
30
0
41
1
10
17.9447566689956
20
-4.26272745102659
30
0
41
1
10
17.7385114951067
20
-4.33306200957728
30
0
41
1
10
17.3254689372077
20
-4.46831540401536
30
0
41
1
10
17.1187057156511
20
-4.53326907169188
30
0
41
1
10
16.7042753257849
20
-4.65731261665943
30
0
41
1
10
16.4965131724356
20
-4.7163108684951
30
0
41
1
10
16.1841550943777
20
-4.80034810876975
30
0
41
1
10
16.0799047109936
20
-4.82761606963399
30
0
41
1
10
15.8716161906179
20
-4.88051202694757
30
0
41
1
10
15.7675194809497
20
-4.90615649868846
30
0
41
1
10
15.4553447617107
20
-4.98065660148217
30
0
41
1
10
15.2474183304151
20
-5.02710022393313
30
0
41
1
10
14.8313594402072
20
-5.11312892951915
30
0
41
1
10
14.6232309799931
20
-5.15272872529755
30
0
41
1
10
14.2068671995156
20
-5.22517273082249
30
0
41
1
10
13.998632109838
20
-5.25801866216068
30
0
41
1
10
13.7904298644947
20
-5.28748014029571
30
0
0
SPLINE
5
C5
100
AcDbEntity
8
1
62
256
6
ByLayer
370
18
48
1
60
0
100
AcDbSpline
70
4
71
3
72
66
73
62
40
0
40
0
40
0
40
0
40
0.0430403711053606
40
0.0430403711053606
40
0.0860807422107211
40
0.0860807422107211
40
0.129121113316082
40
0.129121113316082
40
0.150641298868763
40
0.150641298868763
40
0.172161484421443
40
0.172161484421443
40
0.215201855526806
40
0.215201855526806
40
0.258242226632169
40
0.258242226632169
40
0.301282597737532
40
0.301282597737532
40
0.344322968842894
40
0.344322968842894
40
0.387363339948257
40
0.387363339948257
40
0.43040371105362
40
0.43040371105362
40
0.451923896606302
40
0.451923896606302
40
0.473444082158985
40
0.473444082158985
40
0.494964267711667
40
0.494964267711667
40
0.51648445326435
40
0.51648445326435
40
0.559524824369717
40
0.559524824369717
40
0.602565195475084
40
0.602565195475084
40
0.624085381027769
40
0.624085381027769
40
0.645605566580454
40
0.645605566580454
40
0.688645937685823
40
0.688645937685823
40
0.731686308791193
40
0.731686308791193
40
0.774726679896562
40
0.774726679896562
40
0.817767051001932
40
0.817767051001932
40
0.860807422107301
40
0.860807422107301
40
0.903847793212671
40
0.903847793212671
40
0.925367978765354
40
0.925367978765354
40
0.946888164318038
40
0.946888164318038
40
0.968408349870721
40
0.968408349870721
40
0.989928535423405
40
0.989928535423405
40
1
40
1
40
1
40
1
41
1
10
13.7904298644946
20
-0.655953359430072
30
0
41
1
10
13.9985681541904
20
-0.770525841885473
30
0
41
1
10
14.2064709642415
20
-0.883803581917533
30
0
41
1
10
14.621537706955
20
-1.10839407971906
30
0
41
1
10
14.828688596611
20
-1.21973050015146
30
0
41
1
10
15.242025749935
20
-1.44087764362553
30
0
41
1
10
15.4481947879269
20
-1.55071187828051
30
0
41
1
10
15.7572196768027
20
-1.7134207132342
30
0
41
1
10
15.8601890601995
20
-1.76731895200089
30
0
41
1
10
16.066120787659
20
-1.87432162964302
30
0
41
1
10
16.1690777451795
20
-1.92743611403392
30
0
41
1
10
16.477835053733
20
-2.08577820670411
30
0
41
1
10
16.6834964933862
20
-2.19004939206258
30
0
41
1
10
17.0943650781001
20
-2.39616129060752
30
0
41
1
10
17.2996301904594
20
-2.49789771552142
30
0
41
1
10
17.7105080607522
20
-2.69760092474229
30
0
41
1
10
17.9161840237381
20
-2.79547346615695
30
0
41
1
10
18.3276896301688
20
-2.98779040346989
30
0
41
1
10
18.533470773886
20
-3.08230734607162
30
0
41
1
10
18.9452303346331
20
-3.26778947612942
30
0
41
1
10
19.1512818620171
20
-3.35863871996969
30
0
41
1
10
19.5643653661422
20
-3.53559603659588
30
0
41
1
10
19.7713816236128
20
-3.621736582241
30
0
41
1
10
20.0823299107243
20
-3.74783484102457
30
0
41
1
10
20.1860539809476
20
-3.78934199253789
30
0
41
1
10
20.3936501898576
20
-3.87129584633024
30
0
41
1
10
20.4975297111141
20
-3.91173185579081
30
0
41
1
10
20.7055451139015
20
-3.9913851733655
30
0
41
1
10
20.8097334131938
20
-4.03061914371412
30
0
41
1
10
21.017766570956
20
-4.10750941312114
30
0
41
1
10
21.1216961968679
20
-4.14518606071314
30
0
41
1
10
21.4332448096804
20
-4.25592116607743
30
0
41
1
10
21.6405674164411
20
-4.32676312063975
30
0
41
1
10
22.0541940444476
20
-4.46285339862436
30
0
41
1
10
22.260470818231
20
-4.52811486104031
30
0
41
1
10
22.5695879353003
20
-4.62130141809374
30
0
41
1
10
22.6725776543684
20
-4.65158078249925
30
0
41
1
10
22.8785343969374
20
-4.71051372445154
30
0
41
1
10
22.9815037687011
20
-4.73916622656827
30
0
41
1
10
23.2902986892447
20
-4.82278205696932
30
0
41
1
10
23.4959869288187
20
-4.87542885317981
30
0
41
1
10
23.9068537064393
20
-4.97463180664874
30
0
41
1
10
24.1120746821606
20
-5.02113853163124
30
0
41
1
10
24.5227880634962
20
-5.10744012746088
30
0
41
1
10
24.7283502845251
20
-5.14720247930069
30
0
41
1
10
25.1396465914588
20
-5.2201510125474
30
0
41
1
10
25.3453208837928
20
-5.25336772433474
30
0
41
1
10
25.7567798661025
20
-5.31315675277796
30
0
41
1
10
25.9626376015239
20
-5.33968253706814
30
0
41
1
10
26.375259365575
20
-5.38570005238134
30
0
41
1
10
26.5820423980703
20
-5.40520390767375
30
0
41
1
10
26.8926273374111
20
-5.42926990359067
30
0
41
1
10
26.9962288911896
20
-5.43642329757256
30
0
41
1
10
27.2035645924797
20
-5.44897529553288
30
0
41
1
10
27.3073026218099
20
-5.45437204138111
30
0
41
1
10
27.5150122139607
20
-5.46337165638138
30
0
41
1
10
27.618985026177
20
-5.46697442790241
30
0
41
1
10
27.8272479989755
20
-5.47236775655571
30
0
41
1
10
27.9313046152683
20
-5.47415192935927
30
0
41
1
10
28.083923359603
20
-5.47544773029819
30
0
41
1
10
28.1325576898064
20
-5.47566412609049
30
0
41
1
10
28.1811693582884
20
-5.47568421978272
30
0
0
SPLINE
5
C6
100
AcDbEntity
8
1
62
256
6
ByLayer
370
18
48
1
60
0
100
AcDbSpline
70
4
71
3
72
176
73
172
40
0
40
0
40
0
40
0
40
0.0016851797950214
40
0.0016851797950214
40
0.0172887250732511
40
0.0172887250732511
40
0.025090497712366
40
0.025090497712366
40
0.0328922703514808
40
0.0328922703514808
40
0.0484958156297105
40
0.0484958156297105
40
0.0640993609079402
40
0.0640993609079402
40
0.0719011335470546
40
0.0719011335470546
40
0.0797029061861689
40
0.0797029061861689
40
0.0953064514643987
40
0.0953064514643987
40
0.110909996742628
40
0.110909996742628
40
0.118711769381743
40
0.118711769381743
40
0.126513542020858
40
0.126513542020858
40
0.134315314659973
40
0.134315314659973
40
0.142117087299088
40
0.142117087299088
40
0.157720632577318
40
0.157720632577318
40
0.173324177855549
40
0.173324177855549
40
0.188927723133779
40
0.188927723133779
40
0.196729495772894
40
0.196729495772894
40
0.204531268412009
40
0.204531268412009
40
0.220134813690238
40
0.220134813690238
40
0.235738358968467
40
0.235738358968467
40
0.243540131607581
40
0.243540131607581
40
0.251341904246695
40
0.251341904246695
40
0.266945449524922
40
0.266945449524922
40
0.282548994803149
40
0.282548994803149
40
0.298152540081377
40
0.298152540081377
40
0.305954312720491
40
0.305954312720491
40
0.313756085359604
40
0.313756085359604
40
0.329359630637831
40
0.329359630637831
40
0.344963175916057
40
0.344963175916057
40
0.360566721194284
40
0.360566721194284
40
0.37617026647251
40
0.37617026647251
40
0.391773811750737
40
0.391773811750737
40
0.407377357028963
40
0.407377357028963
40
0.415179129668077
40
0.415179129668077
40
0.422980902307191
40
0.422980902307191
40
0.438584447585417
40
0.438584447585417
40
0.454187992863644
40
0.454187992863644
40
0.469791538141871
40
0.469791538141871
40
0.473692424461427
40
0.473692424461427
40
0.477593310780983
40
0.477593310780983
40
0.485395083420097
40
0.485395083420097
40
0.500998628698323
40
0.500998628698323
40
0.51660217397655
40
0.51660217397655
40
0.524403946615664
40
0.524403946615664
40
0.532205719254777
40
0.532205719254777
40
0.547809264533005
40
0.547809264533005
40
0.563412809811232
40
0.563412809811232
40
0.579016355089459
40
0.579016355089459
40
0.586818127728573
40
0.586818127728573
40
0.594619900367686
40
0.594619900367686
40
0.610223445645913
40
0.610223445645913
40
0.62582699092414
40
0.62582699092414
40
0.633628763563252
40
0.633628763563252
40
0.641430536202365
40
0.641430536202365
40
0.649232308841478
40
0.649232308841478
40
0.653133195161035
40
0.653133195161035
40
0.657034081480591
40
0.657034081480591
40
0.672637626758816
40
0.672637626758816
40
0.688241172037041
40
0.688241172037041
40
0.696042944676154
40
0.696042944676154
40
0.703844717315266
40
0.703844717315266
40
0.719448262593491
40
0.719448262593491
40
0.735051807871717
40
0.735051807871717
40
0.750655353149943
40
0.750655353149943
40
0.766258898428168
40
0.766258898428168
40
0.781862443706394
40
0.781862443706394
40
0.79746598898462
40
0.79746598898462
40
0.805267761623732
40
0.805267761623732
40
0.813069534262844
40
0.813069534262844
40
0.820871306901956
40
0.820871306901956
40
0.828673079541068
40
0.828673079541068
40
0.844276624819292
40
0.844276624819292
40
0.859880170097516
40
0.859880170097516
40
0.867681942736628
40
0.867681942736628
40
0.87548371537574
40
0.87548371537574
40
0.891087260653965
40
0.891087260653965
40
0.906690805932191
40
0.906690805932191
40
0.922294351210417
40
0.922294351210417
40
0.937897896488642
40
0.937897896488642
40
0.953501441766868
40
0.953501441766868
40
0.969104987045094
40
0.969104987045094
40
0.976906759684207
40
0.976906759684207
40
0.984708532323321
40
0.984708532323321
40
1
40
1
40
1
40
1
41
1
10
50.8748651231609
20
3.60150361537632
30
0
41
1
10
50.8970925209787
20
3.61076328776895
30
0
41
1
10
50.9193161615599
20
3.61999700431645
30
0
41
1
10
51.1472741350183
20
3.71446491633691
30
0
41
1
10
51.3526368689006
20
3.79756222375545
30
0
41
1
10
51.6605947543924
20
3.91830777682264
30
0
41
1
10
51.763235751679
20
3.95790391998702
30
0
41
1
10
51.968571015713
20
4.03570128791921
30
0
41
1
10
52.0712733986257
20
4.07389312909905
30
0
41
1
10
52.37941457157
20
4.18644816599505
30
0
41
1
10
52.5848565872037
20
4.25883201224678
30
0
41
1
10
52.9955660786003
20
4.39848954323986
30
0
41
1
10
53.2008524300998
20
4.46572871265332
30
0
41
1
10
53.5092061786923
20
4.56210329138483
30
0
41
1
10
53.6120625431671
20
4.59348133128313
30
0
41
1
10
53.8179717015875
20
4.65469491465646
30
0
41
1
10
53.9210149386048
20
4.6845408817795
30
0
41
1
10
54.2303236308279
20
4.77187981975311
30
0
41
1
10
54.4367405180508
20
4.82720095266305
30
0
41
1
10
54.849986521732
20
4.93193472269885
30
0
41
1
10
55.0568852410387
20
4.98127610625582
30
0
41
1
10
55.3681525568759
20
5.05029788976842
30
0
41
1
10
55.472069112885
20
5.07246993845334
30
0
41
1
10
55.6801905592712
20
5.1151679867985
30
0
41
1
10
55.7844466752487
20
5.13570747732859
30
0
41
1
10
55.9925172840543
20
5.17504364090394
30
0
41
1
10
56.0964086144874
20
5.19385403849276
30
0
41
1
10
56.3038858789412
20
5.22977261810513
30
0
41
1
10
56.4074703518888
20
5.24688054171352
30
0
41
1
10
56.7178970976909
20
5.29557673768522
30
0
41
1
10
56.9244273929811
20
5.32452413728473
30
0
41
1
10
57.3372410620924
20
5.37524181714161
30
0
41
1
10
57.5434593816881
20
5.39705771496182
30
0
41
1
10
57.9551816731243
20
5.43377438495085
30
0
41
1
10
58.1606437844766
20
5.44866996186974
30
0
41
1
10
58.4686614633673
20
5.46569970706943
30
0
41
1
10
58.5713109898868
20
5.47049090033346
30
0
41
1
10
58.7766409393994
20
5.47830104913007
30
0
41
1
10
58.8793312159487
20
5.48131972809733
30
0
41
1
10
59.1874430877236
20
5.4877397843938
30
0
41
1
10
59.3928616489025
20
5.48851432364245
30
0
41
1
10
59.8034835663238
20
5.48301280644591
30
0
41
1
10
60.0086783018916
20
5.47671840166697
30
0
41
1
10
60.3168235787547
20
5.46197866362465
30
0
41
1
10
60.4195966172129
20
5.45618429193846
30
0
41
1
10
60.6253295320071
20
5.44285398030741
30
0
41
1
10
60.7282838809846
20
5.43531808548937
30
0
41
1
10
61.0373229668854
20
5.41007815449012
30
0
41
1
10
61.2435578828877
20
5.38973707492161
30
0
41
1
10
61.6563549913174
20
5.34186414895797
30
0
41
1
10
61.8629764497155
20
5.31433994681319
30
0
41
1
10
62.2773544847528
20
5.25236130828259
30
0
41
1
10
62.4851707299173
20
5.21795907375693
30
0
41
1
10
62.7975963724061
20
5.16105953228859
30
0
41
1
10
62.9016827103441
20
5.14123759680299
30
0
41
1
10
63.1094559284788
20
5.09992387223329
30
0
41
1
10
63.2131788672205
20
5.07841871707609
30
0
41
1
10
63.5239777829724
20
5.01144849575945
30
0
41
1
10
63.73069988401
20
4.96353550443604
30
0
41
1
10
64.1438295390778
20
4.86179401322917
30
0
41
1
10
64.3502059493411
20
4.80795476116282
30
0
41
1
10
64.7622100426372
20
4.69406215888483
30
0
41
1
10
64.9677963237853
20
4.63395702655276
30
0
41
1
10
65.3786112562307
20
4.50787582374412
30
0
41
1
10
65.5839069998393
20
4.4419693537626
30
0
41
1
10
65.9947152786101
20
4.30497190309939
30
0
41
1
10
66.2001283619078
20
4.23378027908757
30
0
41
1
10
66.6106998726783
20
4.08567624258112
30
0
41
1
10
66.8158310465418
20
4.00871710139262
30
0
41
1
10
67.1238019710756
20
3.88951754555714
30
0
41
1
10
67.226505011085
20
3.84915946685547
30
0
41
1
10
67.4320782693193
20
3.76729728845436
30
0
41
1
10
67.5349517357504
20
3.72579852185771
30
0
41
1
10
67.8437464204836
20
3.59948665719205
30
0
41
1
10
68.0498171240776
20
3.51282655373626
30
0
41
1
10
68.4622153984729
20
3.33428604239094
30
0
41
1
10
68.6685844333338
20
3.24245339279432
30
0
41
1
10
69.0823659006242
20
3.05467208278043
30
0
41
1
10
69.2898468579521
20
2.95884566617508
30
0
41
1
10
69.5497905992515
20
2.83639311866463
30
0
41
1
10
69.6018071328855
20
2.81176566252697
30
0
41
1
10
69.7058939622565
20
2.76223183838564
30
0
41
1
10
69.7579751479541
20
2.73732012612197
30
0
41
1
10
69.9140373670613
20
2.66228345666536
30
0
41
1
10
70.0179098007026
20
2.61180495402363
30
0
41
1
10
70.3291102023149
20
2.45916182705494
30
0
41
1
10
70.5360473929818
20
2.35583295863887
30
0
41
1
10
70.9495196742466
20
2.14719827851323
30
0
41
1
10
71.1560655384121
20
2.04191485539224
30
0
41
1
10
71.4653027601636
20
1.88203552529458
30
0
41
1
10
71.5682895796517
20
1.82842448567288
30
0
41
1
10
71.7740649242365
20
1.72054142534745
30
0
41
1
10
71.8768585651854
20
1.66627826445
30
0
41
1
10
72.1850949905551
20
1.50276732831995
30
0
41
1
10
72.3904144078761
20
1.39283494451715
30
0
41
1
10
72.8012435332453
20
1.17208993756881
30
0
41
1
10
73.0066676204918
20
1.06112624644149
30
0
41
1
10
73.417224022494
20
0.837453982531912
30
0
41
1
10
73.6223186624943
20
0.724673911118344
30
0
41
1
10
73.9301495036559
20
0.554927998300229
30
0
41
1
10
74.0327945812198
20
0.498256425755784
30
0
41
1
10
74.2382298403405
20
0.384874121876038
30
0
41
1
10
74.3410287393987
20
0.328179683347571
30
0
41
1
10
74.6496048674977
20
0.157969023928445
30
0
41
1
10
74.8555281059536
20
0.0442642996847553
30
0
41
1
10
75.2675803731752
20
-0.184008513256714
30
0
41
1
10
75.4737237596511
20
-0.298552822400182
30
0
41
1
10
75.7836519494528
20
-0.469978717360618
30
0
41
1
10
75.8870809575073
20
-0.52705374328292
30
0
41
1
10
76.0942341901995
20
-0.640962923609578
30
0
41
1
10
76.1979489625649
20
-0.697814910076801
30
0
41
1
10
76.4055976546406
20
-0.811424227997037
30
0
41
1
10
76.509529669469
20
-0.868185283607659
30
0
41
1
10
76.6655765484824
20
-0.953288478364584
30
0
41
1
10
76.7176390190998
20
-0.981661636445523
30
0
41
1
10
76.8216729091554
20
-1.03832356190949
30
0
41
1
10
76.8736473466828
20
-1.0666143668584
30
0
41
1
10
77.1333351290455
20
-1.20781395119613
30
0
41
1
10
77.3405030875961
20
-1.31993968866234
30
0
41
1
10
77.7543476376595
20
-1.54132281442804
30
0
41
1
10
77.9610662189612
20
-1.65051367201823
30
0
41
1
10
78.2705557472764
20
-1.81260504008873
30
0
41
1
10
78.3736237503502
20
-1.86634662364145
30
0
41
1
10
78.579551124504
20
-1.97328279702299
30
0
41
1
10
78.6824085442921
20
-2.02648026417879
30
0
41
1
10
78.9907984407787
20
-2.1850216888441
30
0
41
1
10
79.1961624710257
20
-2.2892879280524
30
0
41
1
10
79.607036450288
20
-2.49398881898867
30
0
41
1
10
79.812485627781
20
-2.59453383833846
30
0
41
1
10
80.2230589512104
20
-2.79259163891729
30
0
41
1
10
80.4281418964345
20
-2.89016205031504
30
0
41
1
10
80.8384400791363
20
-3.08150243753707
30
0
41
1
10
81.0437201560432
20
-3.17517375338366
30
0
41
1
10
81.4548964719427
20
-3.35800754476867
30
0
41
1
10
81.6606893944701
20
-3.44732990259561
30
0
41
1
10
82.0724430954505
20
-3.62209754003018
30
0
41
1
10
82.2783904646619
20
-3.70755254832753
30
0
41
1
10
82.587950948271
20
-3.83205771485598
30
0
41
1
10
82.6912434504939
20
-3.87294883878622
30
0
41
1
10
82.8981134170973
20
-3.95341126630316
30
0
41
1
10
83.0016863878159
20
-3.99298927837904
30
0
41
1
10
83.2090504943269
20
-4.07091373389343
30
0
41
1
10
83.312838752942
20
-4.10926377754748
30
0
41
1
10
83.5206038366164
20
-4.18476114799901
30
0
41
1
10
83.6246201105662
20
-4.2219261610135
30
0
41
1
10
83.9366887405257
20
-4.33149020964086
30
0
41
1
10
84.1440997743927
20
-4.40165749477336
30
0
41
1
10
84.5583411930219
20
-4.53553967291461
30
0
41
1
10
84.7652331003389
20
-4.59920569774016
30
0
41
1
10
85.0749888109274
20
-4.69013942794425
30
0
41
1
10
85.1781420563147
20
-4.71968934373345
30
0
41
1
10
85.3842333800307
20
-4.77728271681877
30
0
41
1
10
85.4871643010333
20
-4.80533202379647
30
0
41
1
10
85.7957325102311
20
-4.88712312316238
30
0
41
1
10
86.0011620848877
20
-4.93848681589824
30
0
41
1
10
86.4121004324047
20
-5.0344343525955
30
0
41
1
10
86.617586213361
20
-5.07905473085958
30
0
41
1
10
87.0282048214929
20
-5.16190106415294
30
0
41
1
10
87.233297965238
20
-5.20013869637913
30
0
41
1
10
87.6434951670961
20
-5.26990864169201
30
0
41
1
10
87.848666121583
20
-5.30140294223222
30
0
41
1
10
88.2596142203894
20
-5.35742756719804
30
0
41
1
10
88.4652952234213
20
-5.3820151216091
30
0
41
1
10
88.8767898870489
20
-5.42439436933935
30
0
41
1
10
89.0825726077077
20
-5.44217922523723
30
0
41
1
10
89.3918050313673
20
-5.46353103854105
30
0
41
1
10
89.4949766184476
20
-5.4697622485584
30
0
41
1
10
89.701584240618
20
-5.48043829748539
30
0
41
1
10
89.8050251415922
20
-5.48488354689516
30
0
41
1
10
90.1115342668746
20
-5.49541046264943
30
0
41
1
10
90.3148884040423
20
-5.49897319043734
30
0
41
1
10
90.5185653318362
20
-5.4990597942041
30
0
0
SPLINE
5
C7
100
AcDbEntity
8
1
62
256
6
ByLayer
370
18
48
1
60
0
100
AcDbSpline
70
4
71
5
72
82
73
76
40
0
40
0
40
0
40
0
40
0
40
0
40
0.0167537948584681
40
0.0370001309146725
40
0.0572697148148273
40
0.0775624190009585
40
0.0978766001008678
40
0.118211002900342
40
0.138565554343873
40
0.158938208883252
40
0.179328274076256
40
0.199734987140332
40
0.220156738484719
40
0.240592982522432
40
0.261042463067504
40
0.281503904598139
40
0.30197680503922
40
0.322459612359461
40
0.342951370384498
40
0.363451220690628
40
0.38393964501405
40
0.403954932518366
40
0.423513498227604
40
0.442900772529386
40
0.459082818543305
40
0.474854151729182
40
0.482261882350946
40
0.485414402757087
40
0.488199152098121
40
0.490872726555253
40
0.493210687234908
40
0.495589249394685
40
0.498340797796695
40
0.501075551470754
40
0.50353951720021
40
0.506089364281259
40
0.508782140997312
40
0.511462373856431
40
0.511560004958173
40
0.512768728326825
40
0.515089389627435
40
0.516609535253676
40
0.518129680879918
40
0.518342694916716
40
0.5211699721324
40
0.535055437957914
40
0.558996441130933
40
0.564277009770837
40
0.590882951764199
40
0.652312119280255
40
0.706608180698778
40
0.724154840798279
40
0.737623797883849
40
0.751043297556412
40
0.764441677669558
40
0.777818528690463
40
0.791173667563674
40
0.804505405665794
40
0.817812334408397
40
0.831094035429701
40
0.844348288948846
40
0.857574514223294
40
0.870771943818605
40
0.883937784090207
40
0.897072418006836
40
0.910174119761477
40
0.923240927877407
40
0.936272877116262
40
0.949267547199054
40
0.962224031804894
40
0.975141890819882
40
0.988017800613591
40
1
40
1
40
1
40
1
40
1
40
1
41
1
10
13.7904298644947
20
-5.28748014029884
30
0
41
1
10
13.7904298644947
20
-5.25516429667098
30
0
41
1
10
13.7904298644946
20
-5.18386398632055
30
0
41
1
10
13.7904298644946
20
-5.07373514453792
30
0
41
1
10
13.7904298644947
20
-4.92505181245394
30
0
41
1
10
13.7904298644946
20
-4.73825094945977
30
0
41
1
10
13.7904298644947
20
-4.54548032342277
30
0
41
1
10
13.7904298644946
20
-4.3533787716172
30
0
41
1
10
13.7904298644946
20
-4.16194352046537
30
0
41
1
10
13.7904298644947
20
-3.97118933061663
30
0
41
1
10
13.7904298644946
20
-3.78111899665302
30
0
41
1
10
13.7904298644947
20
-3.59174326601737
30
0
41
1
10
13.7904298644946
20
-3.40306947274374
30
0
41
1
10
13.7904298644946
20
-3.21510677447162
30
0
41
1
10
13.7904298644946
20
-3.02786375201543
30
0
41
1
10
13.7904298644946
20
-2.8413500177486
30
0
41
1
10
13.7904298644947
20
-2.65557461828311
30
0
41
1
10
13.7904298644946
20
-2.47054799643209
30
0
41
1
10
13.7904298644946
20
-2.28628012190407
30
0
41
1
10
13.7904298644946
20
-2.1028133896354
30
0
41
1
10
13.7904298644947
20
-1.92101397408382
30
0
41
1
10
13.7904298644946
20
-1.7416929749358
30
0
41
1
10
13.7904298644946
20
-1.56516427330666
30
0
41
1
10
13.7904298644947
20
-1.39696740381385
30
0
41
1
10
13.7904298644946
20
-1.23814956491614
30
0
41
1
10
13.7904298644947
20
-1.10217043020671
30
0
41
1
10
13.7904298644946
20
-0.99513970178117
30
0
41
1
10
13.7904298644947
20
-0.917260365441109
30
0
41
1
10
13.7904298644946
20
-0.862523867860943
30
0
41
1
10
13.7904298644947
20
-0.830944792625957
30
0
41
1
10
13.7904298644948
20
-0.808898153727625
30
0
41
1
10
13.7904298644946
20
-0.788807724942586
30
0
41
1
10
13.7904298644946
20
-0.770352598407271
30
0
41
1
10
13.7904298644946
20
-0.75391433053332
30
0
41
1
10
13.7904298644946
20
-0.73893862002879
30
0
41
1
10
13.7904298644946
20
-0.725434890994251
30
0
41
1
10
13.7904298644946
20
-0.714027679393496
30
0
41
1
10
13.7904298644946
20
-0.70667113168696
30
0
41
1
10
13.7904298644946
20
-0.701450629714145
30
0
41
1
10
13.7904298644946
20
-0.697387026243433
30
0
41
1
10
13.7904298644946
20
-0.694649437623326
30
0
41
1
10
13.7904298644946
20
-0.69279839780296
30
0
41
1
10
13.7904298644946
20
-0.691279739413034
30
0
41
1
10
13.7904298644946
20
-0.689508589887879
30
0
41
1
10
13.7904298644946
20
-0.685391877911428
30
0
41
1
10
13.7904298644946
20
-0.676338544446082
30
0
41
1
10
13.7904298644947
20
-0.666389152129369
30
0
41
1
10
13.7904298644946
20
-0.650914308356079
30
0
41
1
10
13.7904298644947
20
-0.623048586935624
30
0
41
1
10
13.7904298644946
20
-0.58671220292436
30
0
41
1
10
13.7904298644947
20
-0.552314557344403
30
0
41
1
10
13.7904298644946
20
-0.516160949170285
30
0
41
1
10
13.7904298644947
20
-0.483462778668695
30
0
41
1
10
13.7904298644946
20
-0.460417771823188
30
0
41
1
10
13.7904298644947
20
-0.446027740335381
30
0
41
1
10
13.7904298644946
20
-0.436091597307268
30
0
41
1
10
13.7904298644946
20
-0.427883788450742
30
0
41
1
10
13.7904298644947
20
-0.422510484882253
30
0
41
1
10
13.7904298644946
20
-0.419256974624574
30
0
41
1
10
13.7904298644947
20
-0.418564355128524
30
0
41
1
10
13.7904298644946
20
-0.420135314807965
30
0
41
1
10
13.7904298644947
20
-0.424151892418394
30
0
41
1
10
13.7904298644946
20
-0.430488946175728
30
0
41
1
10
13.7904298644946
20
-0.439222824910928
30
0
41
1
10
13.7904298644947
20
-0.450302603127284
30
0
41
1
10
13.7904298644946
20
-0.463762142490111
30
0
41
1
10
13.7904298644947
20
-0.479583850850474
30
0
41
1
10
13.7904298644946
20
-0.497785736657107
30
0
41
1
10
13.7904298644947
20
-0.518367003374095
30
0
41
1
10
13.7904298644946
20
-0.54134007269144
30
0
41
1
10
13.7904298644947
20
-0.566715366929003
30
0
41
1
10
13.7904298644946
20
-0.594135834995967
30
0
41
1
10
13.7904298644946
20
-0.617919189714229
30
0
41
1
10
13.7904298644947
20
-0.636726350920782
30
0
41
1
10
13.7904298644947
20
-0.649584895270124
30
0
41
1
10
13.7904298644946
20
-0.65589610501803
30
0
0
SPLINE
5
C8
100
AcDbEntity
8
1
62
256
6
ByLayer
370
18
48
1
60
0
100
AcDbSpline
70
4
71
3
72
145
73
141
40
0
40
0
40
0
40
0
40
0.124999999999983
40
0.124999999999983
40
0.187499999999975
40
0.187499999999975
40
0.203124999999972
40
0.203124999999972
40
0.21874999999997
40
0.21874999999997
40
0.249999999999965
40
0.249999999999965
40
0.28124999999996
40
0.28124999999996
40
0.312499999999955
40
0.312499999999955
40
0.34374999999995
40
0.34374999999995
40
0.359374999999947
40
0.359374999999947
40
0.367187499999946
40
0.367187499999946
40
0.374999999999945
40
0.374999999999945
40
0.390624999999943
40
0.390624999999943
40
0.406249999999941
40
0.406249999999941
40
0.421874999999939
40
0.421874999999939
40
0.437499999999937
40
0.437499999999937
40
0.445312499999935
40
0.445312499999935
40
0.449218749999935
40
0.449218749999935
40
0.453124999999935
40
0.453124999999935
40
0.468749999999934
40
0.468749999999934
40
0.476562499999933
40
0.476562499999933
40
0.480468749999933
40
0.480468749999933
40
0.484374999999932
40
0.484374999999932
40
0.49999999999993
40
0.49999999999993
40
0.507812499999929
40
0.507812499999929
40
0.511718749999928
40
0.511718749999928
40
0.513671874999928
40
0.513671874999928
40
0.515624999999927
40
0.531249999999924
40
0.531249999999924
40
0.535156249999924
40
0.535156249999924
40
0.537109374999923
40
0.537109374999923
40
0.539062499999923
40
0.546874999999921
40
0.55468749999992
40
0.55468749999992
40
0.558593749999919
40
0.558593749999919
40
0.562499999999919
40
0.562499999999919
40
0.578124999999916
40
0.578124999999916
40
0.585937499999914
40
0.585937499999914
40
0.589843749999914
40
0.589843749999914
40
0.593749999999913
40
0.593749999999913
40
0.609374999999912
40
0.609374999999912
40
0.624999999999911
40
0.624999999999911
40
0.64062499999991
40
0.64062499999991
40
0.64843749999991
40
0.64843749999991
40
0.656249999999909
40
0.656249999999909
40
0.671874999999909
40
0.671874999999909
40
0.679687499999908
40
0.679687499999908
40
0.681640624999908
40
0.681640624999908
40
0.683593749999908
40
0.683593749999908
40
0.684570312499908
40
0.684570312499908
40
0.685546874999908
40
0.685546874999908
40
0.687499999999907
40
0.687499999999907
40
0.691406249999907
40
0.691406249999907
40
0.693359374999907
40
0.693359374999907
40
0.695312499999907
40
0.695312499999907
40
0.697265624999907
40
0.697265624999907
40
0.699218749999907
40
0.699218749999907
40
0.703124999999908
40
0.703124999999908
40
0.718749999999913
40
0.718749999999913
40
0.749999999999923
40
0.749999999999923
40
0.812499999999945
40
0.812499999999945
40
0.820312499999947
40
0.820312499999947
40
0.82812499999995
40
0.82812499999995
40
0.835937499999952
40
0.835937499999952
40
0.843749999999954
40
0.843749999999954
40
0.859374999999958
40
0.859374999999958
40
0.874999999999963
40
0.874999999999963
40
0.890624999999967
40
0.890624999999967
40
0.906249999999971
40
0.906249999999971
40
0.937499999999981
40
0.937499999999981
40
0.96874999999999
40
0.96874999999999
40
1
40
1
40
1
40
1
41
1
10
13.7904298644947
20
-5.28748014029571
30
0
41
1
10
12.6868287146625
20
-5.39850126176989
30
0
41
1
10
11.6035087459876
20
-5.46803453402393
30
0
41
1
10
10.0000292716519
20
-5.46954882774821
30
0
41
1
10
9.4691134570061
20
-5.45297923831379
30
0
41
1
10
8.80917377070892
20
-5.40613861058128
30
0
41
1
10
8.67737204172064
20
-5.39545945702068
30
0
41
1
10
8.41412642800603
20
-5.37133558014222
30
0
41
1
10
8.28263334126177
20
-5.35788305332818
30
0
41
1
10
7.88990749245036
20
-5.31329313446815
30
0
41
1
10
7.63004169294493
20
-5.27790194006306
30
0
41
1
10
7.11432153634945
20
-5.19468865787672
30
0
41
1
10
6.85846516665822
20
-5.14687274730403
30
0
41
1
10
6.35101888838739
20
-5.0373613071007
30
0
41
1
10
6.09942546027906
20
-4.97567655410535
30
0
41
1
10
5.60098830688429
20
-4.83638068806863
30
0
41
1
10
5.35413766168296
20
-4.75879051999794
30
0
41
1
10
4.98806801587307
20
-4.62814068775151
30
0
41
1
10
4.86674935374316
20
-4.58220341998012
30
0
41
1
10
4.6859540277562
20
-4.50929595617501
30
0
41
1
10
4.62588640400338
20
-4.48432545760855
30
0
41
1
10
4.50617245258104
20
-4.43296274663308
30
0
41
1
10
4.44651715914105
20
-4.4065644397179
30
0
41
1
10
4.26893400929444
20
-4.32542324905725
30
0
41
1
10
4.1521554206364
20
-4.26864371627218
30
0
41
1
10
3.92222393495226
20
-4.1490750782998
30
0
41
1
10
3.80906914239233
20
-4.0862888254963
30
0
41
1
10
3.58693399159722
20
-3.95385509271327
30
0
41
1
10
3.47795041098476
20
-3.88421247023285
30
0
41
1
10
3.26492590659816
20
-3.73688674147445
30
0
41
1
10
3.1608787571956
20
-3.65921283109438
30
0
41
1
10
3.0093563510984
20
-3.53539161353504
30
0
41
1
10
2.95961025054396
20
-3.49289455918
30
0
41
1
10
2.88627925788396
20
-3.4270929359067
30
0
41
1
10
2.86205061540449
20
-3.40481589524714
30
0
41
1
10
2.81405233915183
20
-3.35953173115905
30
0
41
1
10
2.79031143332719
20
-3.3365504677428
30
0
41
1
10
2.67332051989274
20
-3.22020464230093
30
0
41
1
10
2.58484095247783
20
-3.12225151940365
30
0
41
1
10
2.46171473528085
20
-2.96629397711871
30
0
41
1
10
2.42227918280807
20
-2.91279662679241
30
0
41
1
10
2.36587534034396
20
-2.8299814896418
30
0
41
1
10
2.34753318686492
20
-2.80194749351765
30
0
41
1
10
2.31183598045487
20
-2.74496056031208
30
0
41
1
10
2.29451537622049
20
-2.71605790036418
30
0
41
1
10
2.21113568445764
20
-2.57015209745276
30
0
41
1
10
2.15425003476167
20
-2.44833334031639
30
0
41
1
10
2.08691913842938
20
-2.25642287934036
30
0
41
1
10
2.06748840806006
20
-2.19091607018089
30
0
41
1
10
2.04343436004737
20
-2.09008128342623
30
0
41
1
10
2.03626638556605
20
-2.05603994989184
30
0
41
1
10
2.02687563101404
20
-2.00429282258756
30
0
41
1
10
2.02396808867297
20
-1.98689967195793
30
0
41
1
10
2.01864899265115
20
-1.95205643668316
30
0
41
1
10
1.99694010183663
20
-1.79500996931304
30
0
41
1
10
1.99527525201387
20
-1.63570853783466
30
0
41
1
10
2.01417616540471
20
-1.45649847887009
30
0
41
1
10
2.01899605960603
20
-1.42054587614947
30
0
41
1
10
2.02781003027786
20
-1.36645093361653
30
0
41
1
10
2.03101412667485
20
-1.34838622628658
30
0
41
1
10
2.03790572757742
20
-1.31243640946482
30
0
41
1
10
2.0563666000055
20
-1.22286406671992
30
0
41
1
10
2.10043805597249
20
-1.06429973315258
30
0
41
1
10
2.15391479965226
20
-0.9269013607163
30
0
41
1
10
2.19904250336296
20
-0.825108932796155
30
0
41
1
10
2.21492238707782
20
-0.7913876627251
30
0
41
1
10
2.24830686740287
20
-0.724353537643992
30
0
41
1
10
2.26569179336968
20
-0.691280843843572
30
0
41
1
10
2.35577171600761
20
-0.528114579257448
30
0
41
1
10
2.43791585444421
20
-0.404409102714993
30
0
41
1
10
2.57289785628737
20
-0.226843886102699
30
0
41
1
10
2.61987081075435
20
-0.168999724512645
30
0
41
1
10
2.69300263791123
20
-0.0840515254256786
30
0
41
1
10
2.71782592321225
20
-0.0560388733373145
30
0
41
1
10
2.76832217536514
20
-0.0005920383846387
30
0
41
1
10
2.79402944754091
20
0.0268766239962588
30
0
41
1
10
2.92391450926323
20
0.162140499758863
30
0
41
1
10
3.03242814193851
20
0.264146520833464
30
0
41
1
10
3.25661891193243
20
0.458540338846575
30
0
41
1
10
3.3723128305414
20
0.550905446018902
30
0
41
1
10
3.60956706509273
20
0.727786560318322
30
0
41
1
10
3.73113987377818
20
0.812286079044696
30
0
41
1
10
3.91721667798527
20
0.934079152487755
30
0
41
1
10
3.97986876037479
20
0.973841881790605
30
0
41
1
10
4.10633021290585
20
1.05182747252439
30
0
41
1
10
4.17015263737326
20
1.09006416390846
30
0
41
1
10
4.36264592097817
20
1.20228953534482
30
0
41
1
10
4.49253797496465
20
1.27392086410163
30
0
41
1
10
4.68941508583163
20
1.37725180261103
30
0
41
1
10
4.7554537427217
20
1.41087956425557
30
0
41
1
10
4.83816347277269
20
1.45253320476144
30
0
41
1
10
4.85468377967354
20
1.4608974053267
30
0
41
1
10
4.88798285394108
20
1.477158702906
30
0
41
1
10
4.90483054805247
20
1.48493363649615
30
0
41
1
10
4.93091436782561
20
1.49515387036905
30
0
41
1
10
4.9397371063427
20
1.49833312334172
30
0
41
1
10
4.95764086936174
20
1.50423367205366
30
0
41
1
10
4.96674914236019
20
1.50696405210863
30
0
41
1
10
4.99408137464758
20
1.5144301088342
30
0
41
1
10
5.01239110051125
20
1.51848321511366
30
0
41
1
10
5.0675347543833
20
1.52839971406397
30
0
41
1
10
5.10457865252098
20
1.53206771721696
30
0
41
1
10
5.16050448940149
20
1.53381241565987
30
0
41
1
10
5.17920823877864
20
1.53374878542138
30
0
41
1
10
5.21674530977398
20
1.53226881338111
30
0
41
1
10
5.23563631955273
20
1.53083212097027
30
0
41
1
10
5.27323938207746
20
1.52667954454435
30
0
41
1
10
5.29192837967122
20
1.52397231899411
30
0
41
1
10
5.32922464927412
20
1.51809829353792
30
0
41
1
10
5.34783982390283
20
1.51497580265826
30
0
41
1
10
5.40370275318614
20
1.50570357342309
30
0
41
1
10
5.44095065431875
20
1.49955243366813
30
0
41
1
10
5.62719536539015
20
1.46881108293837
30
0
41
1
10
5.77617052908761
20
1.44405484541707
30
0
41
1
10
6.22293164823836
20
1.36871238383145
30
0
41
1
10
6.52061992399175
20
1.31737923909699
30
0
41
1
10
7.41298381587126
20
1.15985811256851
30
0
41
1
10
8.00702979801912
20
1.05021158398139
30
0
41
1
10
8.67435201052001
20
0.921462476696092
30
0
41
1
10
8.74848693455471
20
0.907089775145096
30
0
41
1
10
8.89673078114603
20
0.878199691471991
30
0
41
1
10
8.97084335276617
20
0.86369984624136
30
0
41
1
10
9.1189962686191
20
0.834333068023483
30
0
41
1
10
9.19302866049506
20
0.819428064183057
30
0
41
1
10
9.34089206297728
20
0.788628196601223
30
0
41
1
10
9.41472602384829
20
0.77274732430763
30
0
41
1
10
9.63599845792459
20
0.723962711715615
30
0
41
1
10
9.78319729325909
20
0.689868360164525
30
0
41
1
10
10.0769228295335
20
0.618313853103871
30
0
41
1
10
10.2234705054533
20
0.580954853776433
30
0
41
1
10
10.5159267923878
20
0.502997165233353
30
0
41
1
10
10.6618785530992
20
0.462438301181663
30
0
41
1
10
10.9525772757955
20
0.378371707765808
30
0
41
1
10
11.0974035723672
20
0.334868797784765
30
0
41
1
10
11.5303595537629
20
0.200086126461457
30
0
41
1
10
11.8169742969389
20
0.104554921525846
30
0
41
1
10
12.3865419766783
20
-0.0967549402856775
30
0
41
1
10
12.669495624524
20
-0.202531550978961
30
0
41
1
10
13.232215386099
20
-0.422971741583353
30
0
41
1
10
13.5119815241723
20
-0.537635216844137
30
0
41
1
10
13.7904298644946
20
-0.655953359430072
30
0
0
LINE
5
7D
100
AcDbEntity
8
80
62
256
6
ByLayer
370
18
48
1
60
0
100
AcDbLine
10
0
20
0
30
0
11
-5
21
0
31
0
39
0
210
0
220
0
230
1
0
LINE
5
7E
100
AcDbEntity
8
4
62
256
6
ByLayer
370
18
48
0.05
60
0
100
AcDbLine
10
-5
20
0
30
0
11
101
21
0
31
0
39
0
210
0
220
0
230
1
0
LINE
5
80
100
AcDbEntity
8
81
62
256
6
ByLayer
370
18
48
1
60
0
100
AcDbLine
10
96
20
0
30
0
11
101
21
0
31
0
39
0
210
0
220
0
230
1
0
LINE
5
81
100
AcDbEntity
8
SK4
62
256
6
ByLayer
370
18
48
0.05
60
0
100
AcDbLine
10
-51
20
0
30
0
11
101
21
0
31
0
39
0
210
0
220
0
230
1
0
LINE
5
83
100
AcDbEntity
8
1
62
256
6
ByLayer
370
18
48
1
60
0
100
AcDbLine
10
0
20
5.5
30
0
11
0
21
-5.5
31
0
39
0
210
0
220
0
230
1
0
LINE
5
84
100
AcDbEntity
8
1
62
256
6
ByLayer
370
18
48
1
60
0
100
AcDbLine
10
93.02574
20
-5.5
30
0
11
93.02574
21
-2.094987
31
0
39
0
210
0
220
0
230
1
0
LINE
5
85
100
AcDbEntity
8
1
62
256
6
ByLayer
370
18
48
1
60
0
100
AcDbLine
10
93.02574
20
5.5
30
0
11
93.02574
21
5.325246
31
0
39
0
210
0
220
0
230
1
0
LINE
5
86
100
AcDbEntity
8
1
62
256
6
ByLayer
370
18
48
1
60
0
100
AcDbLine
10
0.4
20
-5.465265
30
0
11
0.4
21
5.465265
31
0
39
0
210
0
220
0
230
1
0
LINE
5
87
100
AcDbEntity
8
SK1
62
256
6
ByLayer
370
18
48
1
60
0
100
AcDbLine
10
0
20
5.5
30
0
11
0
21
-5.5
31
0
39
0
210
0
220
0
230
1
0
LINE
5
89
100
AcDbEntity
8
SK1
62
256
6
ByLayer
370
18
48
1
60
0
100
AcDbLine
10
-46
20
-4.5
30
0
11
-46
21
4.5
31
0
39
0
210
0
220
0
230
1
0
LINE
5
8A
100
AcDbEntity
8
SK1
62
256
6
ByLayer
370
18
48
1
60
0
100
AcDbLine
10
-45
20
-5.5
30
0
11
-45
21
5.5
31
0
39
0
210
0
220
0
230
1
0
LINE
5
8B
100
AcDbEntity
8
1
62
256
6
ByLayer
370
18
48
1
60
0
100
AcDbLine
10
96
20
0
30
0
11
93.02574
21
5.5
31
0
39
0
210
0
220
0
230
1
0
LINE
5
8C
100
AcDbEntity
8
1
62
256
6
ByLayer
370
18
48
1
60
0
100
AcDbLine
10
93.02574
20
-5.5
30
0
11
96
21
0
31
0
39
0
210
0
220
0
230
1
0
LINE
5
8D
100
AcDbEntity
8
1
62
256
6
ByLayer
370
18
48
1
60
0
100
AcDbLine
10
0.4
20
5.465265
30
0
11
0
21
5.5
31
0
39
0
210
0
220
0
230
1
0
LINE
5
8E
100
AcDbEntity
8
1
62
256
6
ByLayer
370
18
48
1
60
0
100
AcDbLine
10
0
20
-5.5
30
0
11
0.4
21
-5.465265
31
0
39
0
210
0
220
0
230
1
0
LINE
5
8F
100
AcDbEntity
8
1
62
256
6
ByLayer
370
18
48
1
60
0
100
AcDbLine
10
0.4
20
-5.465265
30
0
11
10.512903
21
-5.469058
31
0
39
0
210
0
220
0
230
1
0
LINE
5
90
100
AcDbEntity
8
1
62
256
6
ByLayer
370
18
48
1
60
0
100
AcDbLine
10
28.180947
20
-5.475683
30
0
11
42.390816
21
-5.481012
31
0
39
0
210
0
220
0
230
1
0
LINE
5
91
100
AcDbEntity
8
1
62
256
6
ByLayer
370
18
48
1
60
0
100
AcDbLine
10
59.350154
20
-5.487372
30
0
11
73.562691
21
-5.492701
31
0
39
0
210
0
220
0
230
1
0
LINE
5
92
100
AcDbEntity
8
1
62
256
6
ByLayer
370
18
48
1
60
0
100
AcDbLine
10
90.519549
20
-5.49906
30
0
11
93.02574
21
-5.5
31
0
39
0
210
0
220
0
230
1
0
LINE
5
93
100
AcDbEntity
8
1
62
256
6
ByLayer
370
18
48
1
60
0
100
AcDbLine
10
93.02574
20
5.5
30
0
11
90.519549
21
5.49906
31
0
39
0
210
0
220
0
230
1
0
LINE
5
94
100
AcDbEntity
8
1
62
256
6
ByLayer
370
18
48
1
60
0
100
AcDbLine
10
73.562691
20
5.492701
30
0
11
59.350154
21
5.487372
31
0
39
0
210
0
220
0
230
1
0
LINE
5
95
100
AcDbEntity
8
1
62
256
6
ByLayer
370
18
48
1
60
0
100
AcDbLine
10
42.390816
20
5.481012
30
0
11
28.180947
21
5.475683
31
0
39
0
210
0
220
0
230
1
0
LINE
5
96
100
AcDbEntity
8
1
62
256
6
ByLayer
370
18
48
1
60
0
100
AcDbLine
10
10.512903
20
5.469058
30
0
11
0.4
21
5.465265
31
0
39
0
210
0
220
0
230
1
0
LINE
5
97
100
AcDbEntity
8
SK1
62
256
6
ByLayer
370
18
48
1
60
0
100
AcDbLine
10
-45
20
-5.5
30
0
11
0
21
-5.5
31
0
39
0
210
0
220
0
230
1
0
LINE
5
98
100
AcDbEntity
8
SK1
62
256
6
ByLayer
370
18
48
1
60
0
100
AcDbLine
10
0
20
5.5
30
0
11
-45
21
5.5
31
0
39
0
210
0
220
0
230
1
0
LINE
5
99
100
AcDbEntity
8
SK1
62
256
6
ByLayer
370
18
48
1
60
0
100
AcDbLine
10
-46
20
-4.5
30
0
11
-45
21
-5.5
31
0
39
0
210
0
220
0
230
1
0
LINE
5
9A
100
AcDbEntity
8
SK1
62
256
6
ByLayer
370
18
48
1
60
0
100
AcDbLine
10
-45
20
5.5
30
0
11
-46
21
4.5
31
0
39
0
210
0
220
0
230
1
0
LINE
5
9B
100
AcDbEntity
8
SK2
62
256
6
ByLayer
370
13
48
1
60
0
100
AcDbLine
10
-52.5
20
-5.5
30
0
11
-52.5
21
33.024798
31
0
39
0
210
0
220
0
230
1
0
LINE
5
9D
100
AcDbEntity
8
SK2
62
256
6
ByLayer
370
13
48
1
60
0
100
AcDbLine
10
-47.5875
20
5.5
30
0
11
-54.5
21
5.5
31
0
39
0
210
0
220
0
230
1
0
LINE
5
9E
100
AcDbEntity
8
SK2
62
256
6
ByLayer
370
13
48
1
60
0
100
AcDbLine
10
-47.5875
20
-5.5
30
0
11
-54.5
21
-5.5
31
0
39
0
210
0
220
0
230
1
0
LINE
5
9F
100
AcDbEntity
8
1
62
256
6
ByLayer
370
18
48
1
60
1
100
AcDbLine
10
-52.5
20
5.5
30
0
11
-52.039216
21
2.000002
31
0
39
0
210
0
220
0
230
1
0
LINE
5
A0
100
AcDbEntity
8
1
62
256
6
ByLayer
370
18
48
1
60
1
100
AcDbLine
10
-52.039216
20
2.000002
30
0
11
-52.960784
21
1.999998
31
0
39
0
210
0
220
0
230
1
0
LINE
5
A1
100
AcDbEntity
8
1
62
256
6
ByLayer
370
18
48
1
60
1
100
AcDbLine
10
-52.960784
20
1.999998
30
0
11
-52.5
21
5.5
31
0
39
0
210
0
220
0
230
1
0
LINE
5
A2
100
AcDbEntity
8
1
62
256
6
ByLayer
370
18
48
1
60
1
100
AcDbLine
10
-52.5
20
-5.5
30
0
11
-52.960784
21
-2.000002
31
0
39
0
210
0
220
0
230
1
0
LINE
5
A3
100
AcDbEntity
8
1
62
256
6
ByLayer
370
18
48
1
60
1
100
AcDbLine
10
-52.960784
20
-2.000002
30
0
11
-52.039216
21
-1.999998
31
0
39
0
210
0
220
0
230
1
0
LINE
5
A4
100
AcDbEntity
8
1
62
256
6
ByLayer
370
18
48
1
60
1
100
AcDbLine
10
-52.039216
20
-1.999998
30
0
11
-52.5
21
-5.5
31
0
39
0
210
0
220
0
230
1
0
LINE
5
A5
100
AcDbEntity
8
2
62
256
6
ByLayer
370
13
48
1
60
0
100
AcDbLine
10
102.52574
20
-5.5
30
0
11
102.52574
21
33.024798
31
0
39
0
210
0
220
0
230
1
0
LINE
5
A7
100
AcDbEntity
8
2
62
256
6
ByLayer
370
13
48
1
60
0
100
AcDbLine
10
94.61324
20
5.5
30
0
11
104.52574
21
5.5
31
0
39
0
210
0
220
0
230
1
0
LINE
5
A8
100
AcDbEntity
8
2
62
256
6
ByLayer
370
13
48
1
60
0
100
AcDbLine
10
94.61324
20
-5.5
30
0
11
104.52574
21
-5.5
31
0
39
0
210
0
220
0
230
1
0
LINE
5
A9
100
AcDbEntity
8
1
62
256
6
ByLayer
370
18
48
1
60
1
100
AcDbLine
10
102.52574
20
5.5
30
0
11
102.986524
21
2.000002
31
0
39
0
210
0
220
0
230
1
0
LINE
5
AA
100
AcDbEntity
8
1
62
256
6
ByLayer
370
18
48
1
60
1
100
AcDbLine
10
102.986524
20
2.000002
30
0
11
102.064956
21
1.999998
31
0
39
0
210
0
220
0
230
1
0
LINE
5
AB
100
AcDbEntity
8
1
62
256
6
ByLayer
370
18
48
1
60
1
100
AcDbLine
10
102.064956
20
1.999998
30
0
11
102.52574
21
5.5
31
0
39
0
210
0
220
0
230
1
0
LINE
5
AC
100
AcDbEntity
8
1
62
256
6
ByLayer
370
18
48
1
60
1
100
AcDbLine
10
102.52574
20
-5.5
30
0
11
102.064956
21
-2.000002
31
0
39
0
210
0
220
0
230
1
0
LINE
5
AD
100
AcDbEntity
8
1
62
256
6
ByLayer
370
18
48
1
60
1
100
AcDbLine
10
102.064956
20
-2.000002
30
0
11
102.986524
21
-1.999998
31
0
39
0
210
0
220
0
230
1
0
LINE
5
AE
100
AcDbEntity
8
1
62
256
6
ByLayer
370
18
48
1
60
1
100
AcDbLine
10
102.986524
20
-1.999998
30
0
11
102.52574
21
-5.5
31
0
39
0
210
0
220
0
230
1
0
LINE
5
AF
100
AcDbEntity
8
2
62
256
6
ByLayer
370
13
48
1
60
0
100
AcDbLine
10
96.755136
20
-1.396397
30
0
11
107.416232
21
-21.110889
31
0
39
0
210
0
220
0
230
1
0
LINE
5
B0
100
AcDbEntity
8
2
62
256
6
ByLayer
370
13
48
1
60
0
100
AcDbLine
10
96.755136
20
1.396397
30
0
11
107.416232
21
21.110889
31
0
39
0
210
0
220
0
230
1
0
LINE
5
B1
100
AcDbEntity
8
1
62
256
6
ByLayer
370
18
48
1
60
1
100
AcDbLine
10
106.464879
20
-19.351649
30
0
11
109.239971
21
-17.169637
31
0
39
0
210
0
220
0
230
1
0
LINE
5
B2
100
AcDbEntity
8
1
62
256
6
ByLayer
370
18
48
1
60
1
100
AcDbLine
10
109.239971
20
-17.169637
30
0
11
109.710161
21
-17.962233
31
0
39
0
210
0
220
0
230
1
0
LINE
5
B3
100
AcDbEntity
8
1
62
256
6
ByLayer
370
18
48
1
60
1
100
AcDbLine
10
109.710161
20
-17.962233
30
0
11
106.464879
21
-19.351649
31
0
39
0
210
0
220
0
230
1
0
LINE
5
B4
100
AcDbEntity
8
1
62
256
6
ByLayer
370
18
48
1
60
1
100
AcDbLine
10
106.464879
20
19.351649
30
0
11
109.710158
21
17.962234
31
0
39
0
210
0
220
0
230
1
0
LINE
5
B5
100
AcDbEntity
8
1
62
256
6
ByLayer
370
18
48
1
60
1
100
AcDbLine
10
109.710158
20
17.962234
30
0
11
109.239974
21
17.169635
31
0
39
0
210
0
220
0
230
1
0
LINE
5
B6
100
AcDbEntity
8
1
62
256
6
ByLayer
370
18
48
1
60
1
100
AcDbLine
10
109.239974
20
17.169635
30
0
11
106.464879
21
19.351649
31
0
39
0
210
0
220
0
230
1
0
LINE
5
CD
100
AcDbEntity
8
1
62
256
6
ByLayer
370
18
48
1
60
1
100
AcDbLine
10
-52.5
20
5.5
30
0
11
-52.039216
21
2.000002
31
0
39
0
210
0
220
0
230
1
0
LINE
5
CE
100
AcDbEntity
8
1
62
256
6
ByLayer
370
18
48
1
60
1
100
AcDbLine
10
-52.039216
20
2.000002
30
0
11
-52.960784
21
1.999998
31
0
39
0
210
0
220
0
230
1
0
LINE
5
CF
100
AcDbEntity
8
1
62
256
6
ByLayer
370
18
48
1
60
1
100
AcDbLine
10
-52.960784
20
1.999998
30
0
11
-52.5
21
5.5
31
0
39
0
210
0
220
0
230
1
0
LINE
5
D1
100
AcDbEntity
8
1
62
256
6
ByLayer
370
18
48
1
60
1
100
AcDbLine
10
-52.5
20
-5.5
30
0
11
-52.960784
21
-2.000002
31
0
39
0
210
0
220
0
230
1
0
LINE
5
D2
100
AcDbEntity
8
1
62
256
6
ByLayer
370
18
48
1
60
1
100
AcDbLine
10
-52.960784
20
-2.000002
30
0
11
-52.039216
21
-1.999998
31
0
39
0
210
0
220
0
230
1
0
LINE
5
D3
100
AcDbEntity
8
1
62
256
6
ByLayer
370
18
48
1
60
1
100
AcDbLine
10
-52.039216
20
-1.999998
30
0
11
-52.5
21
-5.5
31
0
39
0
210
0
220
0
230
1
0
LINE
5
D7
100
AcDbEntity
8
1
62
256
6
ByLayer
370
18
48
1
60
1
100
AcDbLine
10
102.52574
20
5.5
30
0
11
102.986524
21
2.000002
31
0
39
0
210
0
220
0
230
1
0
LINE
5
D8
100
AcDbEntity
8
1
62
256
6
ByLayer
370
18
48
1
60
1
100
AcDbLine
10
102.986524
20
2.000002
30
0
11
102.064956
21
1.999998
31
0
39
0
210
0
220
0
230
1
0
LINE
5
D9
100
AcDbEntity
8
1
62
256
6
ByLayer
370
18
48
1
60
1
100
AcDbLine
10
102.064956
20
1.999998
30
0
11
102.52574
21
5.5
31
0
39
0
210
0
220
0
230
1
0
LINE
5
DB
100
AcDbEntity
8
1
62
256
6
ByLayer
370
18
48
1
60
1
100
AcDbLine
10
102.52574
20
-5.5
30
0
11
102.064956
21
-2.000002
31
0
39
0
210
0
220
0
230
1
0
LINE
5
DC
100
AcDbEntity
8
1
62
256
6
ByLayer
370
18
48
1
60
1
100
AcDbLine
10
102.064956
20
-2.000002
30
0
11
102.986524
21
-1.999998
31
0
39
0
210
0
220
0
230
1
0
LINE
5
DD
100
AcDbEntity
8
1
62
256
6
ByLayer
370
18
48
1
60
1
100
AcDbLine
10
102.986524
20
-1.999998
30
0
11
102.52574
21
-5.5
31
0
39
0
210
0
220
0
230
1
0
LINE
5
E0
100
AcDbEntity
8
1
62
256
6
ByLayer
370
18
48
1
60
1
100
AcDbLine
10
106.464879
20
-19.351649
30
0
11
109.239971
21
-17.169637
31
0
39
0
210
0
220
0
230
1
0
LINE
5
E1
100
AcDbEntity
8
1
62
256
6
ByLayer
370
18
48
1
60
1
100
AcDbLine
10
109.239971
20
-17.169637
30
0
11
109.710161
21
-17.962233
31
0
39
0
210
0
220
0
230
1
0
LINE
5
E2
100
AcDbEntity
8
1
62
256
6
ByLayer
370
18
48
1
60
1
100
AcDbLine
10
109.710161
20
-17.962233
30
0
11
106.464879
21
-19.351649
31
0
39
0
210
0
220
0
230
1
0
LINE
5
E4
100
AcDbEntity
8
1
62
256
6
ByLayer
370
18
48
1
60
1
100
AcDbLine
10
106.464879
20
19.351649
30
0
11
109.710158
21
17.962234
31
0
39
0
210
0
220
0
230
1
0
LINE
5
E5
100
AcDbEntity
8
1
62
256
6
ByLayer
370
18
48
1
60
1
100
AcDbLine
10
109.710158
20
17.962234
30
0
11
109.239974
21
17.169635
31
0
39
0
210
0
220
0
230
1
0
LINE
5
E6
100
AcDbEntity
8
1
62
256
6
ByLayer
370
18
48
1
60
1
100
AcDbLine
10
109.239974
20
17.169635
30
0
11
106.464879
21
19.351649
31
0
39
0
210
0
220
0
230
1
0
MTEXT
5
C9
100
AcDbEntity
8
SK2
62
256
6
ByLayer
370
18
48
1
60
0
100
AcDbMText
10
-53.841114
20
17.158438
30
0
210
0
220
0
230
1
1
%%c
40
3
41
0
44
1.084337
50
90
71
7
72
5
7
iso_b_vert
0
MTEXT
5
CC
100
AcDbEntity
8
SK2
62
256
6
ByLayer
370
18
48
1
60
0
100
AcDbMText
10
-53.841114
20
23.135
30
0
210
0
220
0
230
1
1
\W0.6532;11.000
40
3
41
0
44
1.084337
50
90
71
7
72
5
7
iso_b_vert
0
MTEXT
5
D5
100
AcDbEntity
8
2
62
256
6
ByLayer
370
18
48
1
60
0
100
AcDbMText
10
101.184625
20
17.158438
30
0
210
0
220
0
230
1
1
%%c
40
3
41
0
44
1.084337
50
90
71
7
72
5
7
iso_b_vert
0
MTEXT
5
D6
100
AcDbEntity
8
2
62
256
6
ByLayer
370
18
48
1
60
0
100
AcDbMText
10
101.184625
20
23.135
30
0
210
0
220
0
230
1
1
\W0.6532;11.000
40
3
41
0
44
1.084337
50
90
71
7
72
5
7
iso_b_vert
0
MTEXT
5
DF
100
AcDbEntity
8
2
62
256
6
ByLayer
370
18
48
1
60
0
100
AcDbMText
10
115.092229
20
-2.114886
30
0
210
0
220
0
230
1
1
\W0.6008;118%%d
40
3
41
0
44
1.084337
50
0
71
7
72
5
7
iso_b_vert
0
MTEXT
5
E8
100
AcDbEntity
8
SK6
62
256
6
ByLayer
370
18
48
1
60
0
100
AcDbMText
10
17.74683
20
-67.114886
30
0
210
0
220
0
230
1
1
\W0.7006;R00311.0
40
3
41
0
44
1.084337
50
0
71
7
72
5
7
iso_b_vert
0
HATCH
5
D0
100
AcDbEntity
8
SK2
62
256
6
ByLayer
370
13
48
1
60
0
100
AcDbHatch
10
0
20
0
30
0
210
0
220
0
230
1
2
ANSI31
70
0
71
0
91
1
92
5
93
3
72
1
10
-52.5
20
5.5
11
-52.0392162584472
21
2.00000169255318
72
1
10
-52.0392162584472
20
2.00000169255318
11
-52.9607837415528
21
1.99999830744682
72
1
10
-52.9607837415528
20
1.99999830744682
11
-52.5
21
5.5
97
0
75
0
76
1
52
0
41
0.0062
77
0
78
1
53
45
43
0
44
0
45
-0.0139193969876572
46
0.0139193969876572
79
0
47
0
98
1
10
0
20
0
0
HATCH
5
D4
100
AcDbEntity
8
SK2
62
256
6
ByLayer
370
13
48
1
60
0
100
AcDbHatch
10
0
20
0
30
0
210
0
220
0
230
1
2
ANSI31
70
0
71
0
91
1
92
5
93
3
72
1
10
-52.5
20
-5.5
11
-52.9607837415528
21
-2.00000169255318
72
1
10
-52.9607837415528
20
-2.00000169255318
11
-52.0392162584472
21
-1.99999830744682
72
1
10
-52.0392162584472
20
-1.99999830744682
11
-52.5
21
-5.5
97
0
75
0
76
1
52
0
41
0.0062
77
0
78
1
53
45
43
0
44
0
45
-0.0139193969876572
46
0.0139193969876572
79
0
47
0
98
1
10
0
20
0
0
HATCH
5
DA
100
AcDbEntity
8
2
62
256
6
ByLayer
370
13
48
1
60
0
100
AcDbHatch
10
0
20
0
30
0
210
0
220
0
230
1
2
ANSI31
70
0
71
0
91
1
92
5
93
3
72
1
10
102.525739935814
20
5.5
11
102.986523677366
21
2.00000169255318
72
1
10
102.986523677366
20
2.00000169255318
11
102.064956194261
21
1.99999830744682
72
1
10
102.064956194261
20
1.99999830744682
11
102.525739935814
21
5.5
97
0
75
0
76
1
52
0
41
0.0062
77
0
78
1
53
45
43
0
44
0
45
-0.0139193969876572
46
0.0139193969876572
79
0
47
0
98
1
10
0
20
0
0
HATCH
5
DE
100
AcDbEntity
8
2
62
256
6
ByLayer
370
13
48
1
60
0
100
AcDbHatch
10
0
20
0
30
0
210
0
220
0
230
1
2
ANSI31
70
0
71
0
91
1
92
5
93
3
72
1
10
102.525739935814
20
-5.5
11
102.064956194261
21
-2.00000169255318
72
1
10
102.064956194261
20
-2.00000169255318
11
102.986523677366
21
-1.99999830744682
72
1
10
102.986523677366
20
-1.99999830744682
11
102.525739935814
21
-5.5
97
0
75
0
76
1
52
0
41
0.0062
77
0
78
1
53
45
43
0
44
0
45
-0.0139193969876572
46
0.0139193969876572
79
0
47
0
98
1
10
0
20
0
0
HATCH
5
E3
100
AcDbEntity
8
2
62
256
6
ByLayer
370
13
48
1
60
0
100
AcDbHatch
10
0
20
0
30
0
210
0
220
0
230
1
2
ANSI31
70
0
71
0
91
1
92
5
93
3
72
1
10
106.464879198752
20
-19.3516485952886
11
109.239971107838
21
-17.1696369764528
72
1
10
109.239971107838
20
-17.1696369764528
11
109.710161392925
21
-17.9622325364574
72
1
10
109.710161392925
20
-17.9622325364574
11
106.464879198752
21
-19.3516485952886
97
0
75
0
76
1
52
0
41
0.0062
77
0
78
1
53
45
43
0
44
0
45
-0.0139193969876572
46
0.0139193969876572
79
0
47
0
98
1
10
0
20
0
0
HATCH
5
E7
100
AcDbEntity
8
2
62
256
6
ByLayer
370
13
48
1
60
0
100
AcDbHatch
10
0
20
0
30
0
210
0
220
0
230
1
2
ANSI31
70
0
71
0
91
1
92
5
93
3
72
1
10
106.464879198752
20
19.3516485952886
11
109.710158481552
21
17.962234263552
72
1
10
109.710158481552
20
17.962234263552
11
109.239974019211
21
17.1696352493582
72
1
10
109.239974019211
20
17.1696352493582
11
106.464879198752
21
19.3516485952886
97
0
75
0
76
1
52
0
41
0.0062
77
0
78
1
53
45
43
0
44
0
45
-0.0139193969876572
46
0.0139193969876572
79
0
47
0
98
1
10
0
20
0
0
DIMENSION
5
EB
100
AcDbEntity
8
SK2
62
256
6
ByLayer
370
18
48
1
60
0
100
AcDbDimension
2
_U0
10
96
20
-51.292965
30
0
11
25
21
-51.292965
31
0
70
32
71
1
72
1
41
1
210
0
220
0
230
1
3
Standard
100
AcDbAlignedDimension
13
-46
23
-5.5
33
0
14
96
24
0
34
0
50
0
100
AcDbRotatedDimension
1001
ACAD
1000
DSTYLE
1002
{
1070
   371
1070
    13
1070
   372
1070
    13
1070
     3
1000

1070
   170
1070
     0
1070
   144
1040
1.0
1070
   277
1070
     2
1070
   284
1070
     8
1070
   278
1070
    46
1070
   146
1040
1.166667
1070
   345
1005
16
1070
   347
1005
16
1070
   346
1005
16
1070
   344
1005
0
1070
   343
1005
0
1070
   172
1070
     1
1070
    76
1070
     0
1070
    75
1070
     0
1070
   282
1070
     0
1070
   281
1070
     0
1070
    71
1070
     0
1070
    74
1070
     0
1070
   279
1070
     0
1070
   173
1070
     1
1070
   340
1005
CA
1070
   271
1070
     2
1070
   272
1070
     3
1070
    77
1070
     1
1070
    73
1070
     1
1070
   171
1070
     3
1070
   274
1070
     4
1070
   177
1070
     2
1070
   176
1070
     2
1070
   178
1070
     2
1070
    78
1070
     8
1070
    48
1040
-0.1
1070
    41
1040
3.5
1070
   147
1040
1.5
1070
    42
1040
1.5875
1070
    44
1040
2.0
1070
   140
1040
3.0
1002
}
1001
ACAD_DSTYLE_DIM_LINETYPE
1070
   380
1005
16
1001
ACAD_DSTYLE_DIM_EXT1_LINETYPE
1070
   381
1005
16
1001
ACAD_DSTYLE_DIM_EXT2_LINETYPE
1070
   382
1005
16
0
DIMENSION
5
104
100
AcDbEntity
8
2
62
256
6
ByLayer
370
18
48
1
60
0
100
AcDbDimension
2
_U1
10
2
20
-41.292965
30
0
11
49
21
-41.292965
31
0
70
32
71
1
72
1
41
1
210
0
220
0
230
1
3
Standard
100
AcDbAlignedDimension
13
96
23
0
33
0
14
2
24
-5.5
34
0
50
0
100
AcDbRotatedDimension
1001
ACAD
1000
DSTYLE
1002
{
1070
   371
1070
    13
1070
   372
1070
    13
1070
     3
1000

1070
   170
1070
     0
1070
   144
1040
1.0
1070
   277
1070
     2
1070
   284
1070
     8
1070
   278
1070
    46
1070
   146
1040
1.166667
1070
   345
1005
16
1070
   347
1005
16
1070
   346
1005
16
1070
   344
1005
0
1070
   343
1005
0
1070
   172
1070
     1
1070
    76
1070
     0
1070
    75
1070
     0
1070
   282
1070
     0
1070
   281
1070
     0
1070
    71
1070
     0
1070
    74
1070
     0
1070
   279
1070
     0
1070
   173
1070
     1
1070
   340
1005
CA
1070
   271
1070
     2
1070
   272
1070
     3
1070
    77
1070
     1
1070
    73
1070
     1
1070
   171
1070
     3
1070
   274
1070
     4
1070
   177
1070
     2
1070
   176
1070
     2
1070
   178
1070
     2
1070
    78
1070
     8
1070
    48
1040
-0.1
1070
    41
1040
3.5
1070
   147
1040
1.5
1070
    42
1040
1.5875
1070
    44
1040
2.0
1070
   140
1040
3.0
1002
}
1001
ACAD_DSTYLE_DIM_LINETYPE
1070
   380
1005
16
1001
ACAD_DSTYLE_DIM_EXT1_LINETYPE
1070
   381
1005
16
1001
ACAD_DSTYLE_DIM_EXT2_LINETYPE
1070
   382
1005
16
0
DIMENSION
5
11C
100
AcDbEntity
8
SK2
62
256
6
ByLayer
370
18
48
1
60
0
100
AcDbDimension
2
_U2
10
0
20
-36.292965
30
0
11
-23
21
-36.292965
31
0
70
32
71
1
72
1
41
1
210
0
220
0
230
1
3
Standard
100
AcDbAlignedDimension
13
-46
23
-5.5
33
0
14
0
24
-5.5
34
0
50
0
100
AcDbRotatedDimension
1001
ACAD
1000
DSTYLE
1002
{
1070
   371
1070
    13
1070
   372
1070
    13
1070
     3
1000

1070
   170
1070
     0
1070
   144
1040
1.0
1070
   277
1070
     2
1070
   284
1070
     8
1070
   278
1070
    46
1070
   146
1040
1.166667
1070
   345
1005
16
1070
   347
1005
16
1070
   346
1005
16
1070
   344
1005
0
1070
   343
1005
0
1070
   172
1070
     1
1070
    76
1070
     0
1070
    75
1070
     0
1070
   282
1070
     0
1070
   281
1070
     0
1070
    71
1070
     0
1070
    74
1070
     0
1070
   279
1070
     0
1070
   173
1070
     1
1070
   340
1005
CA
1070
   271
1070
     2
1070
   272
1070
     3
1070
    77
1070
     1
1070
    73
1070
     1
1070
   171
1070
     3
1070
   274
1070
     4
1070
   177
1070
     2
1070
   176
1070
     2
1070
   178
1070
     2
1070
    78
1070
     8
1070
    48
1040
-0.1
1070
    41
1040
3.5
1070
   147
1040
1.5
1070
    42
1040
1.5875
1070
    44
1040
2.0
1070
   140
1040
3.0
1002
}
1001
ACAD_DSTYLE_DIM_LINETYPE
1070
   380
1005
16
1001
ACAD_DSTYLE_DIM_EXT1_LINETYPE
1070
   381
1005
16
1001
ACAD_DSTYLE_DIM_EXT2_LINETYPE
1070
   382
1005
16
0
DIMENSION
5
134
100
AcDbEntity
8
2
62
256
6
ByLayer
370
18
48
1
60
0
100
AcDbDimension
2
_U3
10
25.5
20
-34.292965
30
0
11
60.75
21
-34.292965
31
0
70
32
71
1
72
1
41
1
210
0
220
0
230
1
3
Standard
100
AcDbAlignedDimension
13
96
23
0
33
0
14
25.5
24
-5.5
34
0
50
0
100
AcDbRotatedDimension
1001
ACAD
1000
DSTYLE
1002
{
1070
   371
1070
    13
1070
   372
1070
    13
1070
     3
1000

1070
   170
1070
     0
1070
   144
1040
1.0
1070
   277
1070
     2
1070
   284
1070
     8
1070
   278
1070
    46
1070
   146
1040
1.166667
1070
   345
1005
16
1070
   347
1005
16
1070
   346
1005
16
1070
   344
1005
0
1070
   343
1005
0
1070
   172
1070
     1
1070
    76
1070
     0
1070
    75
1070
     0
1070
   282
1070
     0
1070
   281
1070
     0
1070
    71
1070
     0
1070
    74
1070
     0
1070
   279
1070
     0
1070
   173
1070
     1
1070
   340
1005
CA
1070
   271
1070
     2
1070
   272
1070
     3
1070
    77
1070
     1
1070
    73
1070
     1
1070
   171
1070
     3
1070
   274
1070
     4
1070
   177
1070
     2
1070
   176
1070
     2
1070
   178
1070
     2
1070
    78
1070
     8
1070
    48
1040
-0.1
1070
    41
1040
3.5
1070
   147
1040
1.5
1070
    42
1040
1.5875
1070
    44
1040
2.0
1070
   140
1040
3.0
1002
}
1001
ACAD_DSTYLE_DIM_LINETYPE
1070
   380
1005
16
1001
ACAD_DSTYLE_DIM_EXT1_LINETYPE
1070
   381
1005
16
1001
ACAD_DSTYLE_DIM_EXT2_LINETYPE
1070
   382
1005
16
0
ENDSEC
0
SECTION
2
OBJECTS
0
DICTIONARY
5
1be
330
0
100
AcDbDictionary
280
0
281
1
3
ACAD_GROUP
350
1bf
3
ACAD_MLINESTYLE
350
1c0
0
DICTIONARY
5
1bf
330
0
100
AcDbDictionary
280
0
281
1
0
DICTIONARY
5
1c0
330
0
100
AcDbDictionary
280
0
281
1
3
Standard
350
18
0
MLINESTYLE
5
18
330
1c0
100
AcDbMlineStyle
2
Standard
70
0
3

62
256
51
90
52
90
71
2
49
-0.5
62
256
6
ByLayer
49
0.5
62
256
6
ByLayer
0
RASTERVARIABLES
5
1aa
330

100
AcDbRasterVariables
90
0
70
1
71
1
72
1
0
ENDSEC
0
EOF
