0
SECTION
2
HEADER
9
$ACADVER
1
AC1015
9
$DWGCODEPAGE
3
ANSI_1252
9
$HANDSEED
5
1cd
9
$ANGBASE
50
0
9
$ANGDIR
70
0
9
$ATTMODE
70
1
9
$AUNITS
70
0
9
$AUPREC
70
0
9
$CECOLOR
62
256
9
$CELTSCALE
40
1
9
$CELTYPE
6
ByLayer
9
$CELWEIGHT
370
18
9
$CLAYER
8
0
9
$CMLJUST
70
0
9
$CMLSCALE
40
1
9
$CMLSTYLE
2
Standard
9
$DIMSTYLE
2
Standard
9
$TEXTSIZE
40
0.2
9
$TEXTSTYLE
7
Standard
9
$LUNITS
70
2
9
$LUPREC
70
4
9
$EXTNAMES
290
1
9
$INSUNITS
70
4
9
$LTSCALE
40
1
9
$LWDISPLAY
290
1
9
$PDMODE
70
0
9
$PDSIZE
40
0
9
$PLINEGEN
70
0
0
ENDSEC
0
SECTION
2
CLASSES
0
CLASS
1
RASTERVARIABLES
2
AcDbRasterVariables
3
ISM
90
0
280
0
281
0
0
ENDSEC
0
SECTION
2
TABLES
0
TABLE
2
VPORT
5
1c3
100
AcDbSymbolTable
0
VPORT
5
1
100
AcDbSymbolTableRecord
100
AcDbViewportTableRecord
2
*Active
70
0
10
0
20
0
11
1
21
1
12
-1
22
1
13
0
23
0
14
0.5
24
0.5
15
10
25
10
16
0
26
0
36
1
17
0
27
0
37
0
0
ENDTAB
0
TABLE
2
LTYPE
5
1c4
100
AcDbSymbolTable
0
LTYPE
5
14
100
AcDbSymbolTableRecord
100
AcDbLinetypeTableRecord
70
0
2
ByBlock
3

72
65
73
0
40
0
0
LTYPE
5
15
100
AcDbSymbolTableRecord
100
AcDbLinetypeTableRecord
70
0
2
ByLayer
3

72
65
73
0
40
0
0
LTYPE
5
16
100
AcDbSymbolTableRecord
100
AcDbLinetypeTableRecord
70
0
2
Continuous
3
Solid line
72
65
73
0
40
0
0
LTYPE
5
6E
100
AcDbSymbolTableRecord
100
AcDbLinetypeTableRecord
70
0
2
CENTER
3
____ _ ____ _ ____ _ ____
72
65
73
4
40
47.5
49
22
74
0
49
-8.5
74
0
49
8.5
74
0
49
-8.5
74
0
0
LTYPE
5
6F
100
AcDbSymbolTableRecord
100
AcDbLinetypeTableRecord
70
0
2
DASHED
3
__ __ __ __ __ __ __ __ __
72
65
73
2
40
25.72
49
12.86
74
0
49
-12.86
74
0
0
ENDTAB
0
TABLE
2
LAYER
5
1c5
100
AcDbSymbolTable
0
LAYER
5
10
100
AcDbSymbolTableRecord
100
AcDbLayerTableRecord
2
0
70
0
62
7
6
Continuous
290
1
370
-3
390
0
0
LAYER
5
71
100
AcDbSymbolTableRecord
100
AcDbLayerTableRecord
2
81
70
0
62
-3
6
Continuous
290
1
370
-3
390
0
0
LAYER
5
73
100
AcDbSymbolTableRecord
100
AcDbLayerTableRecord
2
80
70
0
62
-6
6
Continuous
290
1
370
-3
390
0
0
LAYER
5
75
100
AcDbSymbolTableRecord
100
AcDbLayerTableRecord
2
1
70
0
62
4
6
Continuous
290
1
370
-3
390
0
0
LAYER
5
7F
100
AcDbSymbolTableRecord
100
AcDbLayerTableRecord
2
4
70
0
62
-2
6
CENTER
290
1
370
-3
390
0
0
LAYER
5
A6
100
AcDbSymbolTableRecord
100
AcDbLayerTableRecord
2
2
70
0
62
7
6
Continuous
290
1
370
-3
390
0
0
LAYER
5
F0
100
AcDbSymbolTableRecord
100
AcDbLayerTableRecord
2
Defpoints
70
0
62
7
6
Continuous
290
0
370
-3
390
0
0
LAYER
5
1ad
100
AcDbSymbolTableRecord
100
AcDbLayerTableRecord
2
SK4
70
0
62
2
6
CENTER
290
1
370
-3
390
0
0
LAYER
5
1ae
100
AcDbSymbolTableRecord
100
AcDbLayerTableRecord
2
SK1
70
0
62
4
6
Continuous
290
1
370
-3
390
0
0
LAYER
5
1af
100
AcDbSymbolTableRecord
100
AcDbLayerTableRecord
2
SK2
70
0
62
7
6
Continuous
290
1
370
-3
390
0
0
LAYER
5
1b0
100
AcDbSymbolTableRecord
100
AcDbLayerTableRecord
2
CUT
70
0
62
-1
6
Continuous
290
1
370
-3
390
0
0
LAYER
5
1b1
100
AcDbSymbolTableRecord
100
AcDbLayerTableRecord
2
NOCUT
70
0
62
-7
6
Continuous
290
1
370
-3
390
0
0
LAYER
5
1b2
100
AcDbSymbolTableRecord
100
AcDbLayerTableRecord
2
SK6
70
0
62
5
6
Continuous
290
1
370
-3
390
0
0
ENDTAB
0
TABLE
2
STYLE
5
1c6
100
AcDbSymbolTable
0
STYLE
5
11
100
AcDbSymbolTableRecord
100
AcDbTextStyleTableRecord
2
Standard
3
txt
70
0
71
0
40
0
41
1
42
0
50
0
0
STYLE
5
CC
100
AcDbSymbolTableRecord
100
AcDbTextStyleTableRecord
2
iso_b_vert
3
simplex.shx
70
0
71
0
40
0
41
1
42
0
50
0
0
STYLE
5
CD
100
AcDbSymbolTableRecord
100
AcDbTextStyleTableRecord
2
DWGDirectTextStyle
3
simplex
70
0
71
0
40
0
41
1
42
0
50
0
0
ENDTAB
0
TABLE
2
DIMSTYLE
5
1c7
100
AcDbSymbolTable
100
AcDbDimStyleTable
0
DIMSTYLE
105
27
100
AcDbSymbolTableRecord
100
AcDbDimStyleTableRecord
2
Standard
70
0
3
<>
41
0.18
42
0.0625
44
0.18
140
0.18
147
0.09
73
0
74
0
77
1
271
2
275
0
278
52
280
0
340
11
0
ENDTAB
0
TABLE
2
VIEW
5
1c8
100
AcDbSymbolTable
0
ENDTAB
0
TABLE
2
UCS
5
1c9
100
AcDbSymbolTable
0
ENDTAB
0
TABLE
2
APPID
5
1ca
100
AcDbSymbolTable
0
APPID
5
12
100
AcDbSymbolTableRecord
100
AcDbRegAppTableRecord
2
ACAD
70
0
0
APPID
5
EC
100
AcDbSymbolTableRecord
100
AcDbRegAppTableRecord
2
ACAD_DSTYLE_DIMBREAK
70
0
0
APPID
5
16C
100
AcDbSymbolTableRecord
100
AcDbRegAppTableRecord
2
ACAD_DSTYLE_DIM_LINETYPE
70
0
0
APPID
5
16D
100
AcDbSymbolTableRecord
100
AcDbRegAppTableRecord
2
ACAD_DSTYLE_DIM_EXT1_LINETYPE
70
0
0
APPID
5
16E
100
AcDbSymbolTableRecord
100
AcDbRegAppTableRecord
2
ACAD_DSTYLE_DIM_EXT2_LINETYPE
70
0
0
APPID
5
1A9
100
AcDbSymbolTableRecord
100
AcDbRegAppTableRecord
2
ACAD_MLEADERVER
70
0
0
ENDTAB
0
TABLE
2
BLOCK_RECORD
5
1cb
100
AcDbSymbolTable
0
BLOCK_RECORD
5
1F
100
AcDbSymbolTableRecord
100
AcDbBlockTableRecord
2
*Model_Space
340
0
70
0
0
BLOCK_RECORD
5
1B
100
AcDbSymbolTableRecord
100
AcDbBlockTableRecord
2
*Paper_Space
340
0
70
0
0
BLOCK_RECORD
5
23
100
AcDbSymbolTableRecord
100
AcDbBlockTableRecord
2
*Paper_Space0
340
0
70
0
0
BLOCK_RECORD
5
F1
100
AcDbSymbolTableRecord
100
AcDbBlockTableRecord
2
*D1
340
0
70
0
0
BLOCK_RECORD
5
FD
100
AcDbSymbolTableRecord
100
AcDbBlockTableRecord
2
_U0
340
0
70
0
0
BLOCK_RECORD
5
109
100
AcDbSymbolTableRecord
100
AcDbBlockTableRecord
2
*D3
340
0
70
0
0
BLOCK_RECORD
5
115
100
AcDbSymbolTableRecord
100
AcDbBlockTableRecord
2
_U1
340
0
70
0
0
BLOCK_RECORD
5
121
100
AcDbSymbolTableRecord
100
AcDbBlockTableRecord
2
*D5
340
0
70
0
0
BLOCK_RECORD
5
12D
100
AcDbSymbolTableRecord
100
AcDbBlockTableRecord
2
_U2
340
0
70
0
0
BLOCK_RECORD
5
139
100
AcDbSymbolTableRecord
100
AcDbBlockTableRecord
2
*D7
340
0
70
0
0
BLOCK_RECORD
5
145
100
AcDbSymbolTableRecord
100
AcDbBlockTableRecord
2
_U3
340
0
70
0
0
ENDTAB
0
ENDSEC
0
SECTION
2
BLOCKS
0
BLOCK
5
20
100
AcDbEntity
8
0
100
AcDbBlockBegin
2
*Model_Space
70
0
10
0
20
0
30
0
3
*Model_Space
0
ENDBLK
5
21
100
AcDbEntity
8
0
100
AcDbBlockEnd
0
BLOCK
5
1C
100
AcDbEntity
8
0
100
AcDbBlockBegin
2
*Paper_Space
70
0
10
0
20
0
30
0
3
*Paper_Space
0
ENDBLK
5
1D
100
AcDbEntity
8
0
100
AcDbBlockEnd
0
BLOCK
5
24
100
AcDbEntity
8
0
100
AcDbBlockBegin
2
*Paper_Space0
70
0
10
0
20
0
30
0
3
*Paper_Space0
0
ENDBLK
5
25
100
AcDbEntity
8
0
100
AcDbBlockEnd
0
BLOCK
5
F2
100
AcDbEntity
8
0
100
AcDbBlockBegin
2
*D1
70
1
10
0
20
0
30
0
3
*D1
0
LINE
5
F4
100
AcDbEntity
8
0
62
256
6
ByLayer
370
-2
48
1
60
0
100
AcDbLine
10
-42
20
-5.953
30
0
11
-42
21
-51.2287
31
0
39
0
210
0
220
0
230
1
0
LINE
5
F5
100
AcDbEntity
8
0
62
256
6
ByLayer
370
-2
48
1
60
0
100
AcDbLine
10
83
20
-1.5875
30
0
11
83
21
-51.2287
31
0
39
0
210
0
220
0
230
1
0
LINE
5
F6
100
AcDbEntity
8
0
62
256
6
ByLayer
370
-2
48
1
60
0
100
AcDbLine
10
-38.5
20
-49.2287
30
0
11
79.5
21
-49.2287
31
0
39
0
210
0
220
0
230
1
0
SOLID
5
F7
100
AcDbEntity
8
0
62
256
6
ByLayer
370
-1
48
1
60
0
100
AcDbTrace
10
-38.5
20
-48.645367
30
0
11
-38.5
21
-49.812034
31
0
12
-42
22
-49.2287
32
0
13
-42
23
-49.2287
33
0
39
0
210
0
220
0
230
1
0
SOLID
5
F8
100
AcDbEntity
8
0
62
256
6
ByLayer
370
-1
48
1
60
0
100
AcDbTrace
10
79.5
20
-49.812034
30
0
11
79.5
21
-48.645367
31
0
12
83
22
-49.2287
32
0
13
83
23
-49.2287
33
0
39
0
210
0
220
0
230
1
0
MTEXT
5
F9
100
AcDbEntity
8
0
62
256
6
ByLayer
370
18
48
1
60
0
100
AcDbMText
10
20.5
20
-43.2287
30
0
210
0
220
0
230
1
1
\A1;125
40
3
41
0
44
1
50
0
71
5
72
5
7
iso_b_vert
0
POINT
5
FA
100
AcDbEntity
8
Defpoints
62
0
6
ByLayer
370
-1
48
1
60
0
100
AcDbPoint
10
-42
20
-4.3655
30
0
39
0
210
0
220
0
230
1
50
360
0
POINT
5
FB
100
AcDbEntity
8
Defpoints
62
0
6
ByLayer
370
-1
48
1
60
0
100
AcDbPoint
10
83
20
0
30
0
39
0
210
0
220
0
230
1
50
360
0
POINT
5
FC
100
AcDbEntity
8
Defpoints
62
0
6
ByLayer
370
-1
48
1
60
0
100
AcDbPoint
10
83
20
-49.2287
30
0
39
0
210
0
220
0
230
1
50
360
0
ENDBLK
5
F3
100
AcDbEntity
8
0
100
AcDbBlockEnd
0
BLOCK
5
104
100
AcDbEntity
8
0
100
AcDbBlockBegin
2
_U0
70
0
10
0
20
0
30
0
3
_U0
0
MTEXT
5
FE
100
AcDbEntity
8
SK2
62
256
6
ByLayer
370
18
48
1
60
0
100
AcDbMText
10
15.271658
20
-48.343586
30
0
210
0
220
0
230
1
1
\W0.7022;125.00
40
3
41
0
44
1.084337
50
0
71
7
72
5
7
iso_b_vert
0
LINE
5
FF
100
AcDbEntity
8
SK2
62
256
6
ByLayer
370
13
48
1
60
0
100
AcDbLine
10
-42
20
-5.953
30
0
11
-42
21
-51.2287
31
0
39
0
210
0
220
0
230
1
0
LINE
5
100
100
AcDbEntity
8
SK2
62
256
6
ByLayer
370
13
48
1
60
0
100
AcDbLine
10
83
20
-1.5875
30
0
11
83
21
-51.2287
31
0
39
0
210
0
220
0
230
1
0
LINE
5
101
100
AcDbEntity
8
SK2
62
256
6
ByLayer
370
13
48
1
60
0
100
AcDbLine
10
-42
20
-49.2287
30
0
11
83
21
-49.2287
31
0
39
0
210
0
220
0
230
1
0
SOLID
5
102
100
AcDbEntity
8
SK2
62
256
6
ByLayer
370
18
48
1
60
0
100
AcDbTrace
10
-42
20
-49.2287
30
0
11
-38.500002
21
-48.767916
31
0
12
-38.499998
22
-49.689484
32
0
13
-38.499998
23
-49.689484
33
0
39
0
210
0
220
0
230
1
0
SOLID
5
103
100
AcDbEntity
8
SK2
62
256
6
ByLayer
370
18
48
1
60
0
100
AcDbTrace
10
83
20
-49.2287
30
0
11
79.500002
21
-49.689484
31
0
12
79.499998
22
-48.767916
32
0
13
79.499998
23
-48.767916
33
0
39
0
210
0
220
0
230
1
0
ENDBLK
5
105
100
AcDbEntity
8
0
100
AcDbBlockEnd
0
BLOCK
5
10A
100
AcDbEntity
8
0
100
AcDbBlockBegin
2
*D3
70
1
10
0
20
0
30
0
3
*D3
0
LINE
5
10C
100
AcDbEntity
8
0
62
256
6
ByLayer
370
-2
48
1
60
0
100
AcDbLine
10
83
20
-1.5875
30
0
11
83
21
-41.2287
31
0
39
0
210
0
220
0
230
1
0
LINE
5
10D
100
AcDbEntity
8
0
62
256
6
ByLayer
370
-2
48
1
60
0
100
AcDbLine
10
2
20
-5.953
30
0
11
2
21
-41.2287
31
0
39
0
210
0
220
0
230
1
0
LINE
5
10E
100
AcDbEntity
8
0
62
256
6
ByLayer
370
-2
48
1
60
0
100
AcDbLine
10
79.5
20
-39.2287
30
0
11
5.5
21
-39.2287
31
0
39
0
210
0
220
0
230
1
0
SOLID
5
10F
100
AcDbEntity
8
0
62
256
6
ByLayer
370
-1
48
1
60
0
100
AcDbTrace
10
79.5
20
-39.812034
30
0
11
79.5
21
-38.645367
31
0
12
83
22
-39.2287
32
0
13
83
23
-39.2287
33
0
39
0
210
0
220
0
230
1
0
SOLID
5
110
100
AcDbEntity
8
0
62
256
6
ByLayer
370
-1
48
1
60
0
100
AcDbTrace
10
5.5
20
-38.645367
30
0
11
5.5
21
-39.812034
31
0
12
2
22
-39.2287
32
0
13
2
23
-39.2287
33
0
39
0
210
0
220
0
230
1
0
MTEXT
5
111
100
AcDbEntity
8
0
62
256
6
ByLayer
370
18
48
1
60
0
100
AcDbMText
10
42.5
20
-33.2287
30
0
210
0
220
0
230
1
1
\A1;81
40
3
41
0
44
1
50
0
71
5
72
5
7
iso_b_vert
0
POINT
5
112
100
AcDbEntity
8
Defpoints
62
0
6
ByLayer
370
-1
48
1
60
0
100
AcDbPoint
10
83
20
0
30
0
39
0
210
0
220
0
230
1
50
360
0
POINT
5
113
100
AcDbEntity
8
Defpoints
62
0
6
ByLayer
370
-1
48
1
60
0
100
AcDbPoint
10
2
20
-4.3655
30
0
39
0
210
0
220
0
230
1
50
360
0
POINT
5
114
100
AcDbEntity
8
Defpoints
62
0
6
ByLayer
370
-1
48
1
60
0
100
AcDbPoint
10
2
20
-39.2287
30
0
39
0
210
0
220
0
230
1
50
360
0
ENDBLK
5
10B
100
AcDbEntity
8
0
100
AcDbBlockEnd
0
BLOCK
5
11C
100
AcDbEntity
8
0
100
AcDbBlockBegin
2
_U1
70
0
10
0
20
0
30
0
3
_U1
0
MTEXT
5
116
100
AcDbEntity
8
2
62
256
6
ByLayer
370
18
48
1
60
0
100
AcDbMText
10
38.392572
20
-38.343586
30
0
210
0
220
0
230
1
1
\W0.6864;81.00
40
3
41
0
44
1.084337
50
0
71
7
72
5
7
iso_b_vert
0
LINE
5
117
100
AcDbEntity
8
2
62
256
6
ByLayer
370
13
48
1
60
0
100
AcDbLine
10
83
20
-1.5875
30
0
11
83
21
-41.2287
31
0
39
0
210
0
220
0
230
1
0
LINE
5
118
100
AcDbEntity
8
2
62
256
6
ByLayer
370
13
48
1
60
0
100
AcDbLine
10
2
20
-5.953
30
0
11
2
21
-41.2287
31
0
39
0
210
0
220
0
230
1
0
LINE
5
119
100
AcDbEntity
8
2
62
256
6
ByLayer
370
13
48
1
60
0
100
AcDbLine
10
83
20
-39.2287
30
0
11
2
21
-39.2287
31
0
39
0
210
0
220
0
230
1
0
SOLID
5
11A
100
AcDbEntity
8
2
62
256
6
ByLayer
370
18
48
1
60
0
100
AcDbTrace
10
83
20
-39.2287
30
0
11
79.500002
21
-39.689484
31
0
12
79.499998
22
-38.767916
32
0
13
79.499998
23
-38.767916
33
0
39
0
210
0
220
0
230
1
0
SOLID
5
11B
100
AcDbEntity
8
2
62
256
6
ByLayer
370
18
48
1
60
0
100
AcDbTrace
10
2
20
-39.2287
30
0
11
5.499998
21
-38.767916
31
0
12
5.500002
22
-39.689484
32
0
13
5.500002
23
-39.689484
33
0
39
0
210
0
220
0
230
1
0
ENDBLK
5
11D
100
AcDbEntity
8
0
100
AcDbBlockEnd
0
BLOCK
5
122
100
AcDbEntity
8
0
100
AcDbBlockBegin
2
*D5
70
1
10
0
20
0
30
0
3
*D5
0
LINE
5
124
100
AcDbEntity
8
0
62
256
6
ByLayer
370
-2
48
1
60
0
100
AcDbLine
10
-42
20
-5.953
30
0
11
-42
21
-36.2287
31
0
39
0
210
0
220
0
230
1
0
LINE
5
125
100
AcDbEntity
8
0
62
256
6
ByLayer
370
-2
48
1
60
0
100
AcDbLine
10
0
20
-5.953
30
0
11
0
21
-36.2287
31
0
39
0
210
0
220
0
230
1
0
LINE
5
126
100
AcDbEntity
8
0
62
256
6
ByLayer
370
-2
48
1
60
0
100
AcDbLine
10
-38.5
20
-34.2287
30
0
11
-3.5
21
-34.2287
31
0
39
0
210
0
220
0
230
1
0
SOLID
5
127
100
AcDbEntity
8
0
62
256
6
ByLayer
370
-1
48
1
60
0
100
AcDbTrace
10
-38.5
20
-33.645367
30
0
11
-38.5
21
-34.812034
31
0
12
-42
22
-34.2287
32
0
13
-42
23
-34.2287
33
0
39
0
210
0
220
0
230
1
0
SOLID
5
128
100
AcDbEntity
8
0
62
256
6
ByLayer
370
-1
48
1
60
0
100
AcDbTrace
10
-3.5
20
-34.812034
30
0
11
-3.5
21
-33.645367
31
0
12
0
22
-34.2287
32
0
13
0
23
-34.2287
33
0
39
0
210
0
220
0
230
1
0
MTEXT
5
129
100
AcDbEntity
8
0
62
256
6
ByLayer
370
18
48
1
60
0
100
AcDbMText
10
-21
20
-28.2287
30
0
210
0
220
0
230
1
1
\A1;42
40
3
41
0
44
1
50
0
71
5
72
5
7
iso_b_vert
0
POINT
5
12A
100
AcDbEntity
8
Defpoints
62
0
6
ByLayer
370
-1
48
1
60
0
100
AcDbPoint
10
-42
20
-4.3655
30
0
39
0
210
0
220
0
230
1
50
360
0
POINT
5
12B
100
AcDbEntity
8
Defpoints
62
0
6
ByLayer
370
-1
48
1
60
0
100
AcDbPoint
10
0
20
-4.3655
30
0
39
0
210
0
220
0
230
1
50
360
0
POINT
5
12C
100
AcDbEntity
8
Defpoints
62
0
6
ByLayer
370
-1
48
1
60
0
100
AcDbPoint
10
0
20
-34.2287
30
0
39
0
210
0
220
0
230
1
50
360
0
ENDBLK
5
123
100
AcDbEntity
8
0
100
AcDbBlockEnd
0
BLOCK
5
134
100
AcDbEntity
8
0
100
AcDbBlockBegin
2
_U2
70
0
10
0
20
0
30
0
3
_U2
0
MTEXT
5
12E
100
AcDbEntity
8
SK2
62
256
6
ByLayer
370
18
48
1
60
0
100
AcDbMText
10
-25.640313
20
-33.343586
30
0
210
0
220
0
230
1
1
\W0.7694;42.00
40
3
41
0
44
1.084337
50
0
71
7
72
5
7
iso_b_vert
0
LINE
5
12F
100
AcDbEntity
8
SK2
62
256
6
ByLayer
370
13
48
1
60
0
100
AcDbLine
10
-42
20
-5.953
30
0
11
-42
21
-36.2287
31
0
39
0
210
0
220
0
230
1
0
LINE
5
130
100
AcDbEntity
8
SK2
62
256
6
ByLayer
370
13
48
1
60
0
100
AcDbLine
10
0
20
-5.953
30
0
11
0
21
-36.2287
31
0
39
0
210
0
220
0
230
1
0
LINE
5
131
100
AcDbEntity
8
SK2
62
256
6
ByLayer
370
13
48
1
60
0
100
AcDbLine
10
-42
20
-34.2287
30
0
11
0
21
-34.2287
31
0
39
0
210
0
220
0
230
1
0
SOLID
5
132
100
AcDbEntity
8
SK2
62
256
6
ByLayer
370
18
48
1
60
0
100
AcDbTrace
10
-42
20
-34.2287
30
0
11
-38.500002
21
-33.767916
31
0
12
-38.499998
22
-34.689484
32
0
13
-38.499998
23
-34.689484
33
0
39
0
210
0
220
0
230
1
0
SOLID
5
133
100
AcDbEntity
8
SK2
62
256
6
ByLayer
370
18
48
1
60
0
100
AcDbTrace
10
0
20
-34.2287
30
0
11
-3.499998
21
-34.689484
31
0
12
-3.500002
22
-33.767916
32
0
13
-3.500002
23
-33.767916
33
0
39
0
210
0
220
0
230
1
0
ENDBLK
5
135
100
AcDbEntity
8
0
100
AcDbBlockEnd
0
BLOCK
5
13A
100
AcDbEntity
8
0
100
AcDbBlockBegin
2
*D7
70
1
10
0
20
0
30
0
3
*D7
0
LINE
5
13C
100
AcDbEntity
8
0
62
256
6
ByLayer
370
-2
48
1
60
0
100
AcDbLine
10
83
20
-1.5875
30
0
11
83
21
-34.2287
31
0
39
0
210
0
220
0
230
1
0
LINE
5
13D
100
AcDbEntity
8
0
62
256
6
ByLayer
370
-2
48
1
60
0
100
AcDbLine
10
22.25
20
-5.953
30
0
11
22.25
21
-34.2287
31
0
39
0
210
0
220
0
230
1
0
LINE
5
13E
100
AcDbEntity
8
0
62
256
6
ByLayer
370
-2
48
1
60
0
100
AcDbLine
10
79.5
20
-32.2287
30
0
11
25.75
21
-32.2287
31
0
39
0
210
0
220
0
230
1
0
SOLID
5
13F
100
AcDbEntity
8
0
62
256
6
ByLayer
370
-1
48
1
60
0
100
AcDbTrace
10
79.5
20
-32.812034
30
0
11
79.5
21
-31.645367
31
0
12
83
22
-32.2287
32
0
13
83
23
-32.2287
33
0
39
0
210
0
220
0
230
1
0
SOLID
5
140
100
AcDbEntity
8
0
62
256
6
ByLayer
370
-1
48
1
60
0
100
AcDbTrace
10
25.75
20
-31.645367
30
0
11
25.75
21
-32.812034
31
0
12
22.25
22
-32.2287
32
0
13
22.25
23
-32.2287
33
0
39
0
210
0
220
0
230
1
0
MTEXT
5
141
100
AcDbEntity
8
0
62
256
6
ByLayer
370
18
48
1
60
0
100
AcDbMText
10
52.625
20
-26.2287
30
0
210
0
220
0
230
1
1
\A1;60.75
40
3
41
0
44
1
50
0
71
5
72
5
7
iso_b_vert
0
POINT
5
142
100
AcDbEntity
8
Defpoints
62
0
6
ByLayer
370
-1
48
1
60
0
100
AcDbPoint
10
83
20
0
30
0
39
0
210
0
220
0
230
1
50
360
0
POINT
5
143
100
AcDbEntity
8
Defpoints
62
0
6
ByLayer
370
-1
48
1
60
0
100
AcDbPoint
10
22.25
20
-4.3655
30
0
39
0
210
0
220
0
230
1
50
360
0
POINT
5
144
100
AcDbEntity
8
Defpoints
62
0
6
ByLayer
370
-1
48
1
60
0
100
AcDbPoint
10
22.25
20
-32.2287
30
0
39
0
210
0
220
0
230
1
50
360
0
ENDBLK
5
13B
100
AcDbEntity
8
0
100
AcDbBlockEnd
0
BLOCK
5
14C
100
AcDbEntity
8
0
100
AcDbBlockBegin
2
_U3
70
0
10
0
20
0
30
0
3
_U3
0
MTEXT
5
146
100
AcDbEntity
8
2
62
256
6
ByLayer
370
18
48
1
60
0
100
AcDbMText
10
48.14263
20
-31.343586
30
0
210
0
220
0
230
1
1
\W0.7468;60.75
40
3
41
0
44
1.084337
50
0
71
7
72
5
7
iso_b_vert
0
LINE
5
147
100
AcDbEntity
8
2
62
256
6
ByLayer
370
13
48
1
60
0
100
AcDbLine
10
83
20
-1.5875
30
0
11
83
21
-34.2287
31
0
39
0
210
0
220
0
230
1
0
LINE
5
148
100
AcDbEntity
8
2
62
256
6
ByLayer
370
13
48
1
60
0
100
AcDbLine
10
22.25
20
-5.953
30
0
11
22.25
21
-34.2287
31
0
39
0
210
0
220
0
230
1
0
LINE
5
149
100
AcDbEntity
8
2
62
256
6
ByLayer
370
13
48
1
60
0
100
AcDbLine
10
83
20
-32.2287
30
0
11
22.25
21
-32.2287
31
0
39
0
210
0
220
0
230
1
0
SOLID
5
14A
100
AcDbEntity
8
2
62
256
6
ByLayer
370
18
48
1
60
0
100
AcDbTrace
10
83
20
-32.2287
30
0
11
79.500002
21
-32.689484
31
0
12
79.499998
22
-31.767916
32
0
13
79.499998
23
-31.767916
33
0
39
0
210
0
220
0
230
1
0
SOLID
5
14B
100
AcDbEntity
8
2
62
256
6
ByLayer
370
18
48
1
60
0
100
AcDbTrace
10
22.25
20
-32.2287
30
0
11
25.749998
21
-31.767916
31
0
12
25.750002
22
-32.689484
32
0
13
25.750002
23
-32.689484
33
0
39
0
210
0
220
0
230
1
0
ENDBLK
5
14D
100
AcDbEntity
8
0
100
AcDbBlockEnd
0
ENDSEC
0
SECTION
2
ENTITIES
0
ARC
5
B7
100
AcDbEntity
8
2
62
256
6
ByLayer
370
13
48
1
60
0
100
AcDbCircle
39
0
10
83
20
0
30
0
40
22.0000000000001
210
0
220
0
230
1
100
AcDbArc
50
7.83748
51
61.596605
0
ARC
5
B8
100
AcDbEntity
8
2
62
256
6
ByLayer
370
13
48
1
60
0
100
AcDbCircle
39
0
10
83
20
0
30
0
40
22.0000000000001
210
0
220
0
230
1
100
AcDbArc
50
298.403395
51
352.16252
0
POINT
5
70
100
AcDbEntity
8
81
62
256
6
ByLayer
370
18
48
1
60
0
100
AcDbPoint
10
83
20
0
30
0
39
0
210
0
220
0
230
1
50
360
0
POINT
5
72
100
AcDbEntity
8
80
62
256
6
ByLayer
370
18
48
1
60
0
100
AcDbPoint
10
0
20
0
30
0
39
0
210
0
220
0
230
1
50
360
0
POINT
5
74
100
AcDbEntity
8
1
62
256
6
ByLayer
370
18
48
1
60
1
100
AcDbPoint
10
-42
20
-4.3655
30
0
39
0
210
0
220
0
230
1
50
360
0
POINT
5
76
100
AcDbEntity
8
1
62
256
6
ByLayer
370
18
48
1
60
1
100
AcDbPoint
10
83
20
0
30
0
39
0
210
0
220
0
230
1
50
360
0
POINT
5
77
100
AcDbEntity
8
1
62
256
6
ByLayer
370
18
48
1
60
1
100
AcDbPoint
10
83
20
0
30
0
39
0
210
0
220
0
230
1
50
360
0
POINT
5
78
100
AcDbEntity
8
1
62
256
6
ByLayer
370
18
48
1
60
1
100
AcDbPoint
10
2
20
-4.3655
30
0
39
0
210
0
220
0
230
1
50
360
0
POINT
5
79
100
AcDbEntity
8
1
62
256
6
ByLayer
370
18
48
1
60
1
100
AcDbPoint
10
-42
20
-4.3655
30
0
39
0
210
0
220
0
230
1
50
360
0
POINT
5
7A
100
AcDbEntity
8
1
62
256
6
ByLayer
370
18
48
1
60
1
100
AcDbPoint
10
0
20
-4.3655
30
0
39
0
210
0
220
0
230
1
50
360
0
POINT
5
7B
100
AcDbEntity
8
1
62
256
6
ByLayer
370
18
48
1
60
1
100
AcDbPoint
10
83
20
0
30
0
39
0
210
0
220
0
230
1
50
360
0
POINT
5
7C
100
AcDbEntity
8
1
62
256
6
ByLayer
370
18
48
1
60
1
100
AcDbPoint
10
22.25
20
-4.3655
30
0
39
0
210
0
220
0
230
1
50
360
0
SPLINE
5
B9
100
AcDbEntity
8
CUT
62
256
6
ByLayer
370
18
48
1
60
0
100
AcDbSpline
70
2053
71
3
72
17
73
13
40
0
40
0
40
0
40
0
40
0.472962161799049
40
0.472962161799049
40
0.472962161799049
40
0.511600533797684
40
0.511600533797684
40
0.511600533797684
40
0.966183368678387
40
0.966183368678387
40
0.966183368678387
40
1
40
1
40
1
40
1
41
1
10
22.25
20
0
30
0
41
1
10
42.5
20
0
30
0
41
1
10
62.75
20
0
30
0
41
1
10
83
20
0
30
0
41
1
10
82.2130828903027
20
1.45516666664426
30
0
41
1
10
81.4261657806053
20
2.91033333328852
30
0
41
1
10
80.639248670908
20
4.36549999993281
30
0
41
1
10
61.1761657806052
20
4.35820134384787
30
0
41
1
10
41.7130828903024
20
4.35090268776295
30
0
41
1
10
22.2499999999998
20
4.34360403167801
30
0
41
1
10
22.25
20
2.89573602111866
30
0
41
1
10
22.25
20
1.44786801055935
30
0
41
1
10
22.25
20
0
30
0
0
SPLINE
5
BB
100
AcDbEntity
8
NOCUT
62
256
6
ByLayer
370
18
48
1
60
0
100
AcDbSpline
70
2053
71
3
72
26
73
22
40
0
40
0
40
0
40
0
40
0.469764690629391
40
0.469764690629391
40
0.469764690629391
40
0.50152300664689
40
0.50152300664689
40
0.50152300664689
40
0.661279570257281
40
0.661279570257281
40
0.661279570257281
40
0.664212438381252
40
0.664212438381252
40
0.664212438381252
40
0.965808681278485
40
0.965808681278485
40
0.965808681278485
40
0.973568881608904
40
0.973568881608904
40
0.973568881608904
40
1
40
1
40
1
40
1
41
1
10
-42
20
0
30
0
41
1
10
-20.5833333333334
20
0
30
0
41
1
10
0.833333333333172
20
0
30
0
41
1
10
22.2499999999999
20
0
30
0
41
1
10
22.25
20
1.44786801055935
30
0
41
1
10
22.25
20
2.89573602111866
30
0
41
1
10
22.25
20
4.34360403167801
30
0
41
1
10
14.9666666666669
20
4.3408727816776
30
0
41
1
10
7.68333333333388
20
4.33814153167722
30
0
41
1
10
0.399999999709308
20
4.33541028169873
30
0
41
1
10
0.266666666278525
20
4.34544018781375
30
0
41
1
10
0.133333333139262
20
4.35547009390689
30
0
41
1
10
0
20
4.3655
30
0
41
1
10
-13.7498333333333
20
4.3655
30
0
41
1
10
-27.4996666666667
20
4.3655
30
0
41
1
10
-41.2495
20
4.3655
30
0
41
1
10
-41.4996666666667
20
4.11533333333333
30
0
41
1
10
-41.7498333333333
20
3.86516666666665
30
0
41
1
10
-42
20
3.61500000000001
30
0
41
1
10
-42
20
2.41
30
0
41
1
10
-42
20
1.20500000000001
30
0
41
1
10
-42
20
0
30
0
0
SPLINE
5
BD
100
AcDbEntity
8
1
62
256
6
ByLayer
370
18
48
1
60
0
100
AcDbSpline
70
4
71
3
72
120
73
116
40
0
40
0
40
0
40
0
40
0.0156249999999983
40
0.0156249999999983
40
0.0312499999999966
40
0.0312499999999966
40
0.0624999999999932
40
0.0624999999999932
40
0.0937499999999899
40
0.0937499999999899
40
0.124999999999986
40
0.124999999999986
40
0.18749999999998
40
0.18749999999998
40
0.218749999999976
40
0.218749999999976
40
0.234374999999975
40
0.234374999999975
40
0.249999999999973
40
0.249999999999973
40
0.265624999999971
40
0.265624999999971
40
0.28124999999997
40
0.28124999999997
40
0.296874999999968
40
0.296874999999968
40
0.304687499999966
40
0.304687499999966
40
0.312499999999964
40
0.312499999999964
40
0.316406249999964
40
0.316406249999964
40
0.320312499999964
40
0.320312499999964
40
0.328124999999967
40
0.328124999999967
40
0.343749999999969
40
0.343749999999969
40
0.359374999999972
40
0.359374999999972
40
0.374999999999974
40
0.374999999999974
40
0.40624999999998
40
0.40624999999998
40
0.421874999999981
40
0.421874999999981
40
0.437499999999983
40
0.437499999999983
40
0.445312499999984
40
0.445312499999984
40
0.453124999999984
40
0.453124999999984
40
0.468749999999986
40
0.468749999999986
40
0.484374999999988
40
0.484374999999988
40
0.492187499999989
40
0.492187499999989
40
0.499999999999989
40
0.499999999999989
40
0.515624999999991
40
0.515624999999991
40
0.523437499999992
40
0.523437499999992
40
0.531249999999993
40
0.531249999999993
40
0.546874999999994
40
0.546874999999994
40
0.554687499999995
40
0.554687499999995
40
0.562499999999996
40
0.562499999999996
40
0.578124999999997
40
0.578124999999997
40
0.593749999999999
40
0.593749999999999
40
0.609375000000001
40
0.609375000000001
40
0.6171875
40
0.6171875
40
0.625
40
0.625
40
0.656249999999999
40
0.656249999999999
40
0.671874999999998
40
0.671874999999998
40
0.687499999999996
40
0.687499999999996
40
0.718749999999995
40
0.718749999999995
40
0.734374999999994
40
0.734374999999994
40
0.749999999999994
40
0.749999999999994
40
0.765624999999993
40
0.765624999999993
40
0.781249999999993
40
0.781249999999993
40
0.796874999999992
40
0.796874999999992
40
0.812499999999992
40
0.812499999999992
40
0.84374999999999
40
0.84374999999999
40
0.874999999999989
40
0.874999999999989
40
0.89062499999999
40
0.89062499999999
40
0.90624999999999
40
0.90624999999999
40
0.937499999999994
40
0.937499999999994
40
0.968749999999997
40
0.968749999999997
40
1
40
1
40
1
40
1
41
1
10
80.639248670908
20
4.22680617085274
30
0
41
1
10
80.6618860231924
20
4.18384598411649
30
0
41
1
10
80.6845555473005
20
4.14093041683793
30
0
41
1
10
80.7299262452894
20
4.05514902478163
30
0
41
1
10
80.7526230162993
20
4.01227825618435
30
0
41
1
10
80.8206621790142
20
3.88363206428255
30
0
41
1
10
80.8659617619016
20
3.79783258265408
30
0
41
1
10
80.9564458256488
20
3.62618034504845
30
0
41
1
10
81.0016564035656
20
3.54035474573013
30
0
41
1
10
81.091948433766
20
3.36864596745886
30
0
41
1
10
81.1370236006435
20
3.28275645004703
30
0
41
1
10
81.2719572599051
20
3.02492957756675
30
0
41
1
10
81.3615139134214
20
2.85281984764896
30
0
41
1
10
81.4948994691314
20
2.59414681604028
30
0
41
1
10
81.5391971204743
20
2.50783343730342
30
0
41
1
10
81.6053731871036
20
2.37823517393465
30
0
41
1
10
81.6273885538982
20
2.33501597692131
30
0
41
1
10
81.6713345896214
20
2.24854420275392
30
0
41
1
10
81.6932658768068
20
2.20529206349008
30
0
41
1
10
81.7370130641331
20
2.11873314220898
30
0
41
1
10
81.7588165274049
20
2.07543294802204
30
0
41
1
10
81.8022118727449
20
1.98860700369431
30
0
41
1
10
81.8238081276467
20
1.94508669468789
30
0
41
1
10
81.8670333878976
20
1.85863066042481
30
0
41
1
10
81.8886766109562
20
1.81574291354292
30
0
41
1
10
81.9215139487862
20
1.7527472070924
30
0
41
1
10
81.9325208854705
20
1.7319660981228
30
0
41
1
10
81.9547253433944
20
1.69099655861288
30
0
41
1
10
81.9659234539841
20
1.67080913021195
30
0
41
1
10
81.9828940752542
20
1.64103018337443
30
0
41
1
10
81.9885826040635
20
1.63119532360244
30
0
41
1
10
82.0000047458696
20
1.61165406689878
30
0
41
1
10
82.0057338693414
20
1.60193505238627
30
0
41
1
10
82.0229124605236
20
1.57275567953604
30
0
41
1
10
82.0343556511826
20
1.55328011254665
30
0
41
1
10
82.0685839753496
20
1.49458792072031
30
0
41
1
10
82.0912954252807
20
1.45518200641567
30
0
41
1
10
82.1364891105898
20
1.37583957615843
30
0
41
1
10
82.1589734816625
20
1.33590766745428
30
0
41
1
10
82.2036487408687
20
1.25544195381713
30
0
41
1
10
82.225846485708
20
1.21488947061732
30
0
41
1
10
82.2916880807453
20
1.09247619174542
30
0
41
1
10
82.3346659891643
20
1.00979409604534
30
0
41
1
10
82.3966185085794
20
0.88353271269176
30
0
41
1
10
82.4168435616857
20
0.841071072471124
30
0
41
1
10
82.4560930093693
20
0.755228369798687
30
0
41
1
10
82.475122623753
20
0.711851562016534
30
0
41
1
10
82.50237579759
20
0.645917866591446
30
0
41
1
10
82.5112416595656
20
0.6237925420686
30
0
41
1
10
82.5284224901398
20
0.579183023485598
30
0
41
1
10
82.5367516536133
20
0.556658351239719
30
0
41
1
10
82.5605899645393
20
0.488731981219161
30
0
41
1
10
82.5749168982934
20
0.443125785595726
30
0
41
1
10
82.5990639448397
20
0.350945154231084
30
0
41
1
10
82.6088805667962
20
0.304369390058923
30
0
41
1
10
82.6188499350029
20
0.23346469400127
30
0
41
1
10
82.621377029735
20
0.209572803345026
30
0
41
1
10
82.624584645563
20
0.162213512615779
30
0
41
1
10
82.6252799424316
20
0.138669681680312
30
0
41
1
10
82.6245511520649
20
0.0684784572242734
30
0
41
1
10
82.6202749008346
20
0.0222745029676332
30
0
41
1
10
82.6085382993076
20
-0.0460697095020066
30
0
41
1
10
82.6037300564414
20
-0.0687362583106506
30
0
41
1
10
82.592751249018
20
-0.112939037007095
30
0
41
1
10
82.5865689704802
20
-0.134585665090299
30
0
41
1
10
82.5663201387111
20
-0.198320575276085
30
0
41
1
10
82.5505674210879
20
-0.239207371068744
30
0
41
1
10
82.5246432039404
20
-0.298529222651496
30
0
41
1
10
82.5156137131087
20
-0.317965549121851
30
0
41
1
10
82.4968998480175
20
-0.356196866156836
30
0
41
1
10
82.487200842254
20
-0.375014543077725
30
0
41
1
10
82.4575865376006
20
-0.429988051353973
30
0
41
1
10
82.4370775159432
20
-0.464896342021547
30
0
41
1
10
82.3950578600617
20
-0.531509852654125
30
0
41
1
10
82.3735404128887
20
-0.563199413770207
30
0
41
1
10
82.3298015937849
20
-0.623615067004891
30
0
41
1
10
82.3075803231159
20
-0.652354469452888
30
0
41
1
10
82.273842206887
20
-0.693401656787898
30
0
41
1
10
82.2625024736161
20
-0.706766665662116
30
0
41
1
10
82.2398394818505
20
-0.732651322906122
30
0
41
1
10
82.2285188599012
20
-0.745170052122603
30
0
41
1
10
82.1719816582414
20
-0.805692339193712
30
0
41
1
10
82.1269778199885
20
-0.847571792237574
30
0
41
1
10
82.0597331059426
20
-0.901807216651463
30
0
41
1
10
82.0373586323131
20
-0.918445613984659
30
0
41
1
10
81.9926556052948
20
-0.948871011121582
30
0
41
1
10
81.9703093426714
20
-0.962670462000858
30
0
41
1
10
81.9033759025494
20
-0.999957870272311
30
0
41
1
10
81.8596725094861
20
-1.0188996878951
30
0
41
1
10
81.7950834741617
20
-1.03929160383504
30
0
41
1
10
81.7737095490603
20
-1.04478484077941
30
0
41
1
10
81.7312122068506
20
-1.05327944742191
30
0
41
1
10
81.7100912070108
20
-1.05626692928817
30
0
41
1
10
81.6680735011885
20
-1.05963054654936
30
0
41
1
10
81.64719227194
20
-1.05988338643854
30
0
41
1
10
81.6054452310608
20
-1.05899758886025
30
0
41
1
10
81.5845668961075
20
-1.05792976544672
30
0
41
1
10
81.5424826952706
20
-1.05721628132989
30
0
41
1
10
81.5213005103674
20
-1.05745183196243
30
0
41
1
10
81.4787133619946
20
-1.05897747497727
30
0
41
1
10
81.4573239019279
20
-1.06012253149851
30
0
41
1
10
81.3929277019513
20
-1.06451636854041
30
0
41
1
10
81.3496788206904
20
-1.06886246624208
30
0
41
1
10
81.2626251644834
20
-1.08139047825895
30
0
41
1
10
81.2188027918939
20
-1.08981700485685
30
0
41
1
10
81.1528813309274
20
-1.10368634828774
30
0
41
1
10
81.1308735280509
20
-1.10853179589964
30
0
41
1
10
81.0867945272843
20
-1.11870437816998
30
0
41
1
10
81.0647251966136
20
-1.12400608919225
30
0
41
1
10
80.9983970413415
20
-1.14109664131533
30
0
41
1
10
80.9540069173295
20
-1.15421936229947
30
0
41
1
10
80.8647678446978
20
-1.18642100722016
30
0
41
1
10
80.8199203050897
20
-1.20550570801612
30
0
41
1
10
80.7298424453644
20
-1.24912643957433
30
0
41
1
10
80.6846126121159
20
-1.27364488331759
30
0
41
1
10
80.639248670908
20
-1.30008315391711
30
0
0
SPLINE
5
BE
100
AcDbEntity
8
1
62
256
6
ByLayer
370
18
48
1
60
0
100
AcDbSpline
70
4
71
3
72
72
73
68
40
0
40
0
40
0
40
0
40
0.0382292213541785
40
0.0382292213541785
40
0.0764584427083571
40
0.0764584427083571
40
0.114687664062536
40
0.114687664062536
40
0.133802274739626
40
0.133802274739626
40
0.152916885416716
40
0.152916885416716
40
0.191146106770897
40
0.191146106770897
40
0.229375328125078
40
0.229375328125078
40
0.267604549479258
40
0.267604549479258
40
0.28671916015635
40
0.28671916015635
40
0.305833770833441
40
0.324948381510533
40
0.324948381510533
40
0.344062992187624
40
0.344062992187624
40
0.382292213541807
40
0.382292213541807
40
0.42052143489599
40
0.42052143489599
40
0.458750656250173
40
0.458750656250173
40
0.496979877604356
40
0.496979877604356
40
0.516094488281446
40
0.516094488281446
40
0.535209098958536
40
0.535209098958536
40
0.573438320312717
40
0.573438320312717
40
0.611667541666898
40
0.611667541666898
40
0.649896763021078
40
0.649896763021078
40
0.669011373698168
40
0.669011373698168
40
0.688125984375257
40
0.707240595052346
40
0.707240595052346
40
0.726355205729436
40
0.726355205729436
40
0.764584427083616
40
0.764584427083616
40
0.802813648437797
40
0.802813648437797
40
0.841042869791978
40
0.841042869791978
40
0.879272091146158
40
0.879272091146158
40
0.89838670182325
40
0.89838670182325
40
0.917501312500341
40
0.917501312500341
40
0.955730533854524
40
0.955730533854524
40
0.993959755208707
40
0.993959755208707
40
1
40
1
40
1
40
1
41
1
10
80.6392486709092
20
-1.30008315391771
30
0
41
1
10
80.4497442852903
20
-1.19971917963764
30
0
41
1
10
80.2608644794851
20
-1.09824258940384
30
0
41
1
10
79.8836366323238
20
-0.894381538849984
30
0
41
1
10
79.6952287371235
20
-0.792106838875497
30
0
41
1
10
79.3189990589906
20
-0.586548300478228
30
0
41
1
10
79.1312640924188
20
-0.483105200287668
30
0
41
1
10
78.8499791476239
20
-0.327407963535592
30
0
41
1
10
78.7562604466528
20
-0.275438411789537
30
0
41
1
10
78.5688072032607
20
-0.171544890820854
30
0
41
1
10
78.4750641188387
20
-0.119636576053466
30
0
41
1
10
78.1937995510229
20
0.0359990206039811
30
0
41
1
10
78.0062488402845
20
0.139648194020083
30
0
41
1
10
77.6313334755081
20
0.347221686177846
30
0
41
1
10
77.4439359807281
20
0.451085645921751
30
0
41
1
10
77.0685522942184
20
0.657668900876217
30
0
41
1
10
76.8805056670528
20
0.760277712539562
30
0
41
1
10
76.5980366549364
20
0.91341032411006
30
0
41
1
10
76.5038211098968
20
0.96433777754342
30
0
41
1
10
76.315290560359
20
1.06599367617517
30
0
41
1
10
76.126643582267
20
1.16741950952752
30
0
41
1
10
75.9376065397144
20
1.26809733625768
30
0
41
1
10
75.7482720341803
20
1.36821381222273
30
0
41
1
10
75.6534489184499
20
1.41797456156161
30
0
41
1
10
75.3695016423435
20
1.5658877420735
30
0
41
1
10
75.1805784414586
20
1.6628626011036
30
0
41
1
10
74.8037355409644
20
1.85402504629397
30
0
41
1
10
74.6157820115324
20
1.94814135680801
30
0
41
1
10
74.2400951050446
20
2.1322782712746
30
0
41
1
10
74.0523050316909
20
2.22221786738629
30
0
41
1
10
73.6770175493122
20
2.39819125965607
30
0
41
1
10
73.4896063411238
20
2.48435265954953
30
0
41
1
10
73.2085816680399
20
2.61044012101368
30
0
41
1
10
73.1149122733104
20
2.65192880391541
30
0
41
1
10
72.9274829222707
20
2.73367906639336
30
0
41
1
10
72.8337145926815
20
2.77392927133229
30
0
41
1
10
72.5522643685406
20
2.89283583696962
30
0
41
1
10
72.364443677991
20
2.96966249555391
30
0
41
1
10
71.988690562004
20
3.11874144306631
30
0
41
1
10
71.8007239359798
20
3.19093548683173
30
0
41
1
10
71.4238961186418
20
3.32966720553623
30
0
41
1
10
71.2349775134222
20
3.39614529126573
30
0
41
1
10
70.9509769480833
20
3.49167486676109
30
0
41
1
10
70.8561272672808
20
3.52285540163024
30
0
41
1
10
70.6667746603227
20
3.5836685661061
30
0
41
1
10
70.4777467721681
20
3.64291789639364
30
0
41
1
10
70.2892143322535
20
3.69888603903462
30
0
41
1
10
70.1008264690536
20
3.75312571828343
30
0
41
1
10
70.0066972732691
20
3.77937526232449
30
0
41
1
10
69.7245200253507
20
3.85556342166484
30
0
41
1
10
69.536688065311
20
3.90295538298653
30
0
41
1
10
69.1618473028118
20
3.99118757087234
30
0
41
1
10
68.9748032181984
20
4.03197907817381
30
0
41
1
10
68.6007615904629
20
4.10643486674931
30
0
41
1
10
68.4137086466814
20
4.14008120408971
30
0
41
1
10
68.0397245184065
20
4.20039145076257
30
0
41
1
10
67.8528781940322
20
4.22709019527071
30
0
41
1
10
67.5725770282049
20
4.26177780179287
30
0
41
1
10
67.4791282257143
20
4.27244271566408
30
0
41
1
10
67.2921002749117
20
4.29194058699861
30
0
41
1
10
67.1985125710362
20
4.30077170403823
30
0
41
1
10
66.9175412464229
20
4.32452586167352
30
0
41
1
10
66.7299558188859
20
4.3367204070951
30
0
41
1
10
66.3545040902296
20
4.35379328005047
30
0
41
1
10
66.1666057635133
20
4.35864542756414
30
0
41
1
10
65.9484111438828
20
4.35990565622942
30
0
41
1
10
65.9186254913805
20
4.35998410370101
30
0
41
1
10
65.8888255740857
20
4.35996891956756
30
0
0
SPLINE
5
BF
100
AcDbEntity
8
1
62
256
6
ByLayer
370
18
48
1
60
0
100
AcDbSpline
70
4
71
3
72
159
73
155
40
0
40
0
40
0
40
0
40
0.0051074010968736
40
0.0051074010968736
40
0.0232187497700035
40
0.0232187497700035
40
0.0413300984431333
40
0.0413300984431333
40
0.059441447116263
40
0.059441447116263
40
0.0684971214528275
40
0.0684971214528275
40
0.0775527957893919
40
0.0866084701259563
40
0.0866084701259563
40
0.0956641444625208
40
0.0956641444625208
40
0.113775493135649
40
0.113775493135649
40
0.131886841808776
40
0.131886841808776
40
0.14094251614534
40
0.14094251614534
40
0.149998190481903
40
0.149998190481903
40
0.159053864818466
40
0.159053864818466
40
0.168109539155029
40
0.177165213491593
40
0.177165213491593
40
0.186220887828156
40
0.186220887828156
40
0.204332236501282
40
0.204332236501282
40
0.222443585174408
40
0.222443585174408
40
0.240554933847533
40
0.240554933847533
40
0.249610608184096
40
0.249610608184096
40
0.258666282520659
40
0.258666282520659
40
0.276777631193786
40
0.276777631193786
40
0.294888979866913
40
0.294888979866913
40
0.31300032854004
40
0.31300032854004
40
0.317528165708321
40
0.317528165708321
40
0.322056002876603
40
0.322056002876603
40
0.331111677213167
40
0.331111677213167
40
0.340167351549731
40
0.340167351549731
40
0.349223025886296
40
0.35827870022286
40
0.35827870022286
40
0.367334374559424
40
0.367334374559424
40
0.385445723232554
40
0.385445723232554
40
0.403557071905684
40
0.403557071905684
40
0.421668420578813
40
0.421668420578813
40
0.430724094915378
40
0.430724094915378
40
0.439779769251942
40
0.439779769251942
40
0.45789111792507
40
0.45789111792507
40
0.476002466598197
40
0.476002466598197
40
0.494113815271325
40
0.494113815271325
40
0.503169489607888
40
0.503169489607888
40
0.512225163944451
40
0.512225163944451
40
0.521280838281015
40
0.521280838281015
40
0.530336512617578
40
0.539392186954141
40
0.539392186954141
40
0.548447861290705
40
0.548447861290705
40
0.566559209963831
40
0.566559209963831
40
0.584670558636958
40
0.584670558636958
40
0.602781907310084
40
0.602781907310084
40
0.611837581646648
40
0.611837581646648
40
0.620893255983211
40
0.620893255983211
40
0.639004604656337
40
0.639004604656337
40
0.657115953329464
40
0.657115953329464
40
0.675227302002591
40
0.675227302002591
40
0.679755139170872
40
0.679755139170872
40
0.684282976339152
40
0.693338650675714
40
0.693338650675714
40
0.702394325012276
40
0.702394325012276
40
0.711449999348837
40
0.720505673685399
40
0.720505673685399
40
0.729561348021961
40
0.729561348021961
40
0.747672696695086
40
0.747672696695086
40
0.76578404536821
40
0.76578404536821
40
0.783895394041335
40
0.783895394041335
40
0.792951068377898
40
0.792951068377898
40
0.802006742714461
40
0.802006742714461
40
0.820118091387586
40
0.820118091387586
40
0.838229440060713
40
0.838229440060713
40
0.847285114397275
40
0.847285114397275
40
0.856340788733838
40
0.856340788733838
40
0.874452137406964
40
0.874452137406964
40
0.883507811743526
40
0.883507811743526
40
0.892563486080088
40
0.90161916041665
40
0.90161916041665
40
0.910674834753213
40
0.910674834753213
40
0.928786183426338
40
0.928786183426338
40
0.946897532099463
40
0.946897532099463
40
0.965008880772589
40
0.965008880772589
40
0.974064555109151
40
0.974064555109151
40
0.983120229445713
40
0.983120229445713
40
1
40
1
40
1
40
1
41
1
10
47.5339647937888
20
-3.00068813164032
30
0
41
1
10
47.4809807699846
20
-3.02189137203547
30
0
41
1
10
47.4280122155932
20
-3.0428669670695
30
0
41
1
10
47.1872833353315
20
-3.13719806745243
30
0
41
1
10
46.9997110179149
20
-3.2079573820493
30
0
41
1
10
46.6252463959978
20
-3.34420012444144
30
0
41
1
10
46.4383270415708
20
-3.40963274255535
30
0
41
1
10
46.06442231988
20
-3.53432322021104
30
0
41
1
10
45.8773702495911
20
-3.59352208781672
30
0
41
1
10
45.5967612764148
20
-3.67776398134498
30
0
41
1
10
45.5032263984571
20
-3.70509067415679
30
0
41
1
10
45.3161878641901
20
-3.75825383211117
30
0
41
1
10
45.1291643242599
20
-3.80990967408704
30
0
41
1
10
44.9420219663284
20
-3.85839278831798
30
0
41
1
10
44.7547208736098
20
-3.90520168902862
30
0
41
1
10
44.6609814286716
20
-3.92776189348396
30
0
41
1
10
44.3794939689082
20
-3.99291444987284
30
0
41
1
10
44.1914853064366
20
-4.03299382110316
30
0
41
1
10
43.8150407169849
20
-4.10655340886353
30
0
41
1
10
43.626581322953
20
-4.13999916994743
30
0
41
1
10
43.3430131083696
20
-4.18476718621497
30
0
41
1
10
43.2483314334107
20
-4.1987854420239
30
0
41
1
10
43.0586485936833
20
-4.2250096991622
30
0
41
1
10
42.9638394504333
20
-4.23719025964138
30
0
41
1
10
42.7745674735764
20
-4.25968553682651
30
0
41
1
10
42.6800680206765
20
-4.27000730142785
30
0
41
1
10
42.491368171292
20
-4.28881249132206
30
0
41
1
10
42.302951242561
20
-4.30577157701694
30
0
41
1
10
42.1149500064836
20
-4.31899904385281
30
0
41
1
10
41.9270560007794
20
-4.33035133728737
30
0
41
1
10
41.8331532842095
20
-4.33508913313446
30
0
41
1
10
41.5515793810702
20
-4.34651985988393
30
0
41
1
10
41.3640489565051
20
-4.35044066252607
30
0
41
1
10
40.9896351069609
20
-4.35092311867376
30
0
41
1
10
40.8027263408113
20
-4.34746328583933
30
0
41
1
10
40.4288156734182
20
-4.33319264183231
30
0
41
1
10
40.2417453102509
20
-4.32240887118871
30
0
41
1
10
39.9610816821458
20
-4.30078143108892
30
0
41
1
10
39.8675239495624
20
-4.29266061897465
30
0
41
1
10
39.6804320573163
20
-4.2745744225401
30
0
41
1
10
39.5868901613621
20
-4.26461038044377
30
0
41
1
10
39.3061636866299
20
-4.23197727645441
30
0
41
1
10
39.1188418969131
20
-4.20657649037855
30
0
41
1
10
38.7433294609893
20
-4.14873530580255
30
0
41
1
10
38.5552053422939
20
-4.11627855968561
30
0
41
1
10
38.1784959177099
20
-4.0440212764947
30
0
41
1
10
37.9898886911232
20
-4.00421257010601
30
0
41
1
10
37.7533783314901
20
-3.95008907085119
30
0
41
1
10
37.7060369779333
20
-3.9390483066403
30
0
41
1
10
37.6112691630953
20
-3.91653984709322
30
0
41
1
10
37.5638218747211
20
-3.90506583065465
30
0
41
1
10
37.4215932004167
20
-3.87005460707368
30
0
41
1
10
37.3268880953549
20
-3.84592177285634
30
0
41
1
10
37.1377346851722
20
-3.7960591508135
30
0
41
1
10
37.0432898269236
20
-3.77032612697258
30
0
41
1
10
36.8546911295668
20
-3.71723270024012
30
0
41
1
10
36.6663674575569
20
-3.66252603205516
30
0
41
1
10
36.4784443861495
20
-3.60474701622405
30
0
41
1
10
36.2906212400393
20
-3.54554723428558
30
0
41
1
10
36.1967501839632
20
-3.51524790951569
30
0
41
1
10
35.9152577631007
20
-3.4222743170352
30
0
41
1
10
35.7277639530197
20
-3.35752354680588
30
0
41
1
10
35.353390657922
20
-3.22217168757373
30
0
41
1
10
35.166487310101
20
-3.15158477419223
30
0
41
1
10
34.7925598204872
20
-3.00545862168965
30
0
41
1
10
34.6054658155923
20
-2.93002329868975
30
0
41
1
10
34.3247402465757
20
-2.81319035945748
30
0
41
1
10
34.2311573824773
20
-2.77362283330027
30
0
41
1
10
34.0440075331283
20
-2.6931880353969
30
0
41
1
10
33.9504329951524
20
-2.65233084685479
30
0
41
1
10
33.6695976032206
20
-2.52799210611474
30
0
41
1
10
33.4821897877392
20
-2.44279222939403
30
0
41
1
10
33.1064717571442
20
-2.26860222365309
30
0
41
1
10
32.9182277320164
20
-2.17952036076659
30
0
41
1
10
32.5412448865877
20
-1.99685617999754
30
0
41
1
10
32.352485371962
20
-1.90329276598837
30
0
41
1
10
32.0684214861641
20
-1.7604330233103
30
0
41
1
10
31.9734950695487
20
-1.71238145701531
30
0
41
1
10
31.7839881525495
20
-1.61584361529694
30
0
41
1
10
31.6893442768198
20
-1.56731960147033
30
0
41
1
10
31.5003044602118
20
-1.4697102978555
30
0
41
1
10
31.4059118345273
20
-1.42061899105113
30
0
41
1
10
31.2174095198836
20
-1.32181168170663
30
0
41
1
10
31.0291742777427
20
-1.22240839978568
30
0
41
1
10
30.841324292396
20
-1.1220844970068
30
0
41
1
10
30.6535667695181
20
-1.02148380414911
30
0
41
1
10
30.5597247127358
20
-0.971062525979562
30
0
41
1
10
30.2783060854169
20
-0.819442349913629
30
0
41
1
10
30.0908441273435
20
-0.717874732917409
30
0
41
1
10
29.7165020164759
20
-0.513250171021497
30
0
41
1
10
29.5295992150465
20
-0.410233631000523
30
0
41
1
10
29.155644370221
20
-0.204054917158061
30
0
41
1
10
28.9685213903571
20
-0.101024684441882
30
0
41
1
10
28.6877264573762
20
0.0536292559107494
30
0
41
1
10
28.5941161072357
20
0.105210547155167
30
0
41
1
10
28.4069035086588
20
0.208493534339425
30
0
41
1
10
28.3132938647791
20
0.260181567361258
30
0
41
1
10
28.0323419392928
20
0.415176491964189
30
0
41
1
10
27.8448424165555
20
0.518350792358575
30
0
41
1
10
27.4689078456448
20
0.723382987309492
30
0
41
1
10
27.2805387458161
20
0.825363001705909
30
0
41
1
10
26.9032722568029
20
1.02877299023584
30
0
41
1
10
26.7143550486403
20
1.13016709414813
30
0
41
1
10
26.4774182103513
20
1.25570750988513
30
0
41
1
10
26.4299766932523
20
1.28075904389914
30
0
41
1
10
26.3351830063165
20
1.3306285501661
30
0
41
1
10
26.1930690370242
20
1.40512191472976
30
0
41
1
10
26.0511919704038
20
1.47870686066224
30
0
41
1
10
25.86226173056
20
1.57607579406513
30
0
41
1
10
25.7679194246016
20
1.62439390366666
30
0
41
1
10
25.5795095755863
20
1.72035071180983
30
0
41
1
10
25.3913587253685
20
1.81559898070566
30
0
41
1
10
25.203577415914
20
1.90917378068343
30
0
41
1
10
25.0158808845078
20
2.00174965356521
30
0
41
1
10
24.9220654280919
20
2.04752270501786
30
0
41
1
10
24.6407136152602
20
2.18330890712031
30
0
41
1
10
24.4532790967357
20
2.2718070251488
30
0
41
1
10
24.0789593211508
20
2.44520976030643
30
0
41
1
10
23.8920523367928
20
2.53006758737246
30
0
41
1
10
23.5180596505211
20
2.69505398804819
30
0
41
1
10
23.3309022431089
20
2.77508747760882
30
0
41
1
10
23.0500301894858
20
2.89162194450137
30
0
41
1
10
22.9563898573937
20
2.92988891034614
30
0
41
1
10
22.7691093959039
20
3.00530404919363
30
0
41
1
10
22.6754619913232
20
3.04244161034086
30
0
41
1
10
22.3943852520578
20
3.15198029972623
30
0
41
1
10
22.2067877761845
20
3.22245988516664
30
0
41
1
10
21.8306243291596
20
3.35763292203041
30
0
41
1
10
21.6421241688791
20
3.42241932767914
30
0
41
1
10
21.358952522566
20
3.51559024818405
30
0
41
1
10
21.2644841178595
20
3.54596819670772
30
0
41
1
10
21.0753153487621
20
3.60526573322079
30
0
41
1
10
20.9805818362208
20
3.63419574993725
30
0
41
1
10
20.6960993428871
20
3.71856237183627
30
0
41
1
10
20.5068297672503
20
3.77128292845279
30
0
41
1
10
20.2235940242461
20
3.84530454599576
30
0
41
1
10
20.1293005343045
20
3.86914013539246
30
0
41
1
10
19.9409800269598
20
3.91516241097659
30
0
41
1
10
19.7529102854916
20
3.95952037673933
30
0
41
1
10
19.5651939265481
20
4.00043225313686
30
0
41
1
10
19.3775544017796
20
4.03955897594531
30
0
41
1
10
19.2837634456447
20
4.0582240114893
30
0
41
1
10
19.0024723222887
20
4.11154950866441
30
0
41
1
10
18.8150613284696
20
4.14355484940208
30
0
41
1
10
18.4407559401756
20
4.20064749450268
30
0
41
1
10
18.2538404251741
20
4.22570305621466
30
0
41
1
10
17.8798000400111
20
4.26851678283546
30
0
41
1
10
17.6926029820782
20
4.28626478717771
30
0
41
1
10
17.4116463087749
20
4.30746460087391
30
0
41
1
10
17.3179735666688
20
4.31362789995828
30
0
41
1
10
17.1306202455191
20
4.32414135770787
30
0
41
1
10
17.0369324667187
20
4.32848895939105
30
0
41
1
10
16.7684709482849
20
4.33829930082135
30
0
41
1
10
16.593547519697
20
4.3414718380624
30
0
41
1
10
16.4182052240154
20
4.34141699464018
30
0
0
SPLINE
5
C0
100
AcDbEntity
8
1
62
256
6
ByLayer
370
18
48
1
60
0
100
AcDbSpline
70
4
71
3
72
162
73
158
40
0
40
0
40
0
40
0
40
0.0119537442443822
40
0.0119537442443822
40
0.0281512238469358
40
0.0281512238469358
40
0.0443487034494894
40
0.0443487034494894
40
0.0605461830520429
40
0.0605461830520429
40
0.0686449228533192
40
0.0686449228533192
40
0.0767436626545955
40
0.0767436626545955
40
0.0929411422571471
40
0.0929411422571471
40
0.109138621859699
40
0.109138621859699
40
0.12533610146225
40
0.12533610146225
40
0.133434841263526
40
0.133434841263526
40
0.141533581064802
40
0.141533581064802
40
0.157731060667352
40
0.157731060667352
40
0.173928540269903
40
0.173928540269903
40
0.182027280071178
40
0.182027280071178
40
0.190126019872454
40
0.190126019872454
40
0.206323499475003
40
0.206323499475003
40
0.222520979077553
40
0.222520979077553
40
0.238718458680102
40
0.238718458680102
40
0.254915938282652
40
0.254915938282652
40
0.271113417885201
40
0.271113417885201
40
0.287310897487751
40
0.287310897487751
40
0.295409637289026
40
0.295409637289026
40
0.3035083770903
40
0.3035083770903
40
0.311607116891575
40
0.311607116891575
40
0.31970585669285
40
0.31970585669285
40
0.3359033362954
40
0.3359033362954
40
0.352100815897949
40
0.352100815897949
40
0.368298295500499
40
0.368298295500499
40
0.384495775103049
40
0.384495775103049
40
0.400693254705598
40
0.400693254705598
40
0.408791994506873
40
0.408791994506873
40
0.416890734308148
40
0.416890734308148
40
0.433088213910697
40
0.433088213910697
40
0.449285693513247
40
0.449285693513247
40
0.465483173115797
40
0.465483173115797
40
0.481680652718346
40
0.481680652718346
40
0.489779392519621
40
0.489779392519621
40
0.497878132320897
40
0.497878132320897
40
0.514075611923447
40
0.514075611923447
40
0.522174351724723
40
0.522174351724723
40
0.530273091525999
40
0.530273091525999
40
0.546470571128551
40
0.546470571128551
40
0.562668050731102
40
0.562668050731102
40
0.578865530333654
40
0.578865530333654
40
0.595063009936205
40
0.595063009936205
40
0.611260489538757
40
0.611260489538757
40
0.627457969141308
40
0.627457969141308
40
0.635556708942584
40
0.635556708942584
40
0.64365544874386
40
0.64365544874386
40
0.659852928346412
40
0.659852928346412
40
0.667951668147688
40
0.667951668147688
40
0.676050407948963
40
0.676050407948963
40
0.692247887551515
40
0.692247887551515
40
0.700346627352791
40
0.700346627352791
40
0.708445367154067
40
0.708445367154067
40
0.724642846756619
40
0.724642846756619
40
0.74084032635917
40
0.74084032635917
40
0.748939066160445
40
0.748939066160445
40
0.757037805961721
40
0.757037805961721
40
0.773235285564272
40
0.773235285564272
40
0.789432765166824
40
0.789432765166824
40
0.805630244769375
40
0.805630244769375
40
0.821827724371927
40
0.821827724371927
40
0.838025203974479
40
0.838025203974479
40
0.846123943775754
40
0.846123943775754
40
0.85422268357703
40
0.85422268357703
40
0.862321423378306
40
0.862321423378306
40
0.870420163179582
40
0.870420163179582
40
0.886617642782135
40
0.886617642782135
40
0.902815122384687
40
0.902815122384687
40
0.91901260198724
40
0.91901260198724
40
0.927111341788516
40
0.927111341788516
40
0.935210081589792
40
0.935210081589792
40
0.951407561192343
40
0.951407561192343
40
0.967605040794895
40
0.967605040794895
40
0.975703780596171
40
0.975703780596171
40
0.983802520397447
40
0.983802520397447
40
1
40
1
40
1
40
1
41
1
10
22.7851310142855
20
2.99384531552343
30
0
41
1
10
22.9091940631291
20
3.04350429243283
30
0
41
1
10
23.0330539010881
20
3.09208774999581
30
0
41
1
10
23.3245370014058
20
3.20360386114149
30
0
41
1
10
23.4921410780157
20
3.26544186378592
30
0
41
1
10
23.8273986358174
20
3.38422665831843
30
0
41
1
10
23.9949611401429
20
3.4412904708783
30
0
41
1
10
24.3296982813704
20
3.55103089691158
30
0
41
1
10
24.4968613824
20
3.60370490340583
30
0
41
1
10
24.7478182733872
20
3.67885665329311
30
0
41
1
10
24.8315027211711
20
3.70326908068799
30
0
41
1
10
24.9989989278388
20
3.75076368095049
30
0
41
1
10
25.0828082841286
20
3.77384910982252
30
0
41
1
10
25.3343354426406
20
3.84120407767051
30
0
41
1
10
25.50212940448
20
3.88359564365723
30
0
41
1
10
25.8377858979619
20
3.96339974242446
30
0
41
1
10
26.0057067685925
20
4.00075196456535
30
0
41
1
10
26.3423782419272
20
4.06983147987
30
0
41
1
10
26.5111806799382
20
4.10153769866238
30
0
41
1
10
26.7648864383355
20
4.14496776536166
30
0
41
1
10
26.8495331230823
20
4.15875813608238
30
0
41
1
10
27.0189638437238
20
4.18496074193277
30
0
41
1
10
27.1038107635214
20
4.19738628353861
30
0
41
1
10
27.3580553241556
20
4.23244837620686
30
0
41
1
10
27.5270732163694
20
4.25283669826098
30
0
41
1
10
27.8647404373226
20
4.28752485805194
30
0
41
1
10
28.0333997788714
20
4.30184176375627
30
0
41
1
10
28.2858362894228
20
4.31893064149142
30
0
41
1
10
28.3698936393814
20
4.32389246685585
30
0
41
1
10
28.537813967629
20
4.33234586116134
30
0
41
1
10
28.6216812771469
20
4.33583558859095
30
0
41
1
10
28.8731417304032
20
4.34407297297074
30
0
41
1
10
29.0406139339891
20
4.34658339432369
30
0
41
1
10
29.375688305707
20
4.34571795692088
30
0
41
1
10
29.5432228457679
20
4.34235696190646
30
0
41
1
10
29.8779553600812
20
4.32975694201673
30
0
41
1
10
30.0451083092719
20
4.32049422192506
30
0
41
1
10
30.3795738831189
20
4.29609614407912
30
0
41
1
10
30.5469404411958
20
4.28098042999494
30
0
41
1
10
30.8821980746037
20
4.2450526648777
30
0
41
1
10
31.049996857461
20
4.2242171943835
30
0
41
1
10
31.3856862435284
20
4.17662021660234
30
0
41
1
10
31.5535690145645
20
4.14983596757949
30
0
41
1
10
31.8059686979668
20
4.105402888763
30
0
41
1
10
31.8901945510216
20
4.08988270592994
30
0
41
1
10
32.0588923849923
20
4.05746613974606
30
0
41
1
10
32.1433606190409
20
4.04056848490379
30
0
41
1
10
32.312480363834
20
4.00535323330644
30
0
41
1
10
32.3971293541339
20
3.98703351865783
30
0
41
1
10
32.5665781790056
20
3.94893232126779
30
0
41
1
10
32.6514461163777
20
3.92913142785451
30
0
41
1
10
32.905719634401
20
3.86763501904474
30
0
41
1
10
33.0746992255609
20
3.82391669971116
30
0
41
1
10
33.4122332383921
20
3.73169520238994
30
0
41
1
10
33.580839795406
20
3.68325578886484
30
0
41
1
10
33.9174398839985
20
3.58151365321882
30
0
41
1
10
34.0853814825228
20
3.52815093407034
30
0
41
1
10
34.420646619436
20
3.41652812381616
30
0
41
1
10
34.5880529598013
20
3.35835484430061
30
0
41
1
10
34.9229783461339
20
3.23799792912448
30
0
41
1
10
35.0905010400552
20
3.17583195056818
30
0
41
1
10
35.3415778092712
20
3.07924807789473
30
0
41
1
10
35.4252396323056
20
3.04650131637641
30
0
41
1
10
35.5924850503874
20
2.97987291145847
30
0
41
1
10
35.6760735152505
20
2.94599700893363
30
0
41
1
10
35.9268746768182
20
2.84286404634136
30
0
41
1
10
36.094143946217
20
2.77212800474052
30
0
41
1
10
36.4292851538528
20
2.62738898792503
30
0
41
1
10
36.5970873447521
20
2.55329541374888
30
0
41
1
10
36.932827379415
20
2.40113582505276
30
0
41
1
10
37.1007221875902
20
2.32299054852206
30
0
41
1
10
37.4371539019698
20
2.16343225479247
30
0
41
1
10
37.6057443024351
20
2.08211125717082
30
0
41
1
10
37.8593685822626
20
1.95811749790363
30
0
41
1
10
37.9440144245166
20
1.91641959093545
30
0
41
1
10
38.1134687584748
20
1.83220143557477
30
0
41
1
10
38.1983478344411
20
1.78965092070439
30
0
41
1
10
38.4526856067417
20
1.66097122973449
30
0
41
1
10
38.6216481358459
20
1.57389031404696
30
0
41
1
10
38.8747216787253
20
1.4422746777168
30
0
41
1
10
38.9590150137888
20
1.3982321951033
30
0
41
1
10
39.1275319586821
20
1.30991479714851
30
0
41
1
10
39.2117494739186
20
1.26562892283738
30
0
41
1
10
39.4641966075583
20
1.13224153053076
30
0
41
1
10
39.6321963062953
20
1.04256588866474
30
0
41
1
10
39.96749012928
20
0.861513543239255
30
0
41
1
10
40.1348525295843
20
0.770260383651959
30
0
41
1
10
40.469634827943
20
0.587448859448898
30
0
41
1
10
40.6371046053613
20
0.495983186957801
30
0
41
1
10
40.9718881087298
20
0.312360981506316
30
0
41
1
10
41.1391517994561
20
0.220111777890509
30
0
41
1
10
41.4735290324938
20
0.0349271509697928
30
0
41
1
10
41.640726186549
20
-0.0578543182985243
30
0
41
1
10
41.9757062801513
20
-0.242739944301434
30
0
41
1
10
42.143491599111
20
-0.334838357734554
30
0
41
1
10
42.3953151607031
20
-0.473023434790378
30
0
41
1
10
42.4792848293473
20
-0.51908366756436
30
0
41
1
10
42.6472656392343
20
-0.611231362371484
30
0
41
1
10
42.7312819490301
20
-0.657309238166334
30
0
41
1
10
42.9835469741937
20
-0.795297374957187
30
0
41
1
10
43.152033664563
20
-0.886921375066834
30
0
41
1
10
43.4055653404654
20
-1.02317293311765
30
0
41
1
10
43.4901954866178
20
-1.06841893932378
30
0
41
1
10
43.6596402908365
20
-1.15867212155013
30
0
41
1
10
43.7445177634155
20
-1.20371483403809
30
0
41
1
10
43.9989241310944
20
-1.33829688266508
30
0
41
1
10
44.1679116837003
20
-1.42726328547786
30
0
41
1
10
44.4209316471718
20
-1.55874174243726
30
0
41
1
10
44.50519738079
20
-1.60223582885447
30
0
41
1
10
44.6736456043668
20
-1.68845453188098
30
0
41
1
10
44.7578364625896
20
-1.73116502523885
30
0
41
1
10
45.0102532174683
20
-1.85821463216922
30
0
41
1
10
45.1782922393631
20
-1.94152872724862
30
0
41
1
10
45.5136599568855
20
-2.10577824873531
30
0
41
1
10
45.6809969559011
20
-2.18668898556345
30
0
41
1
10
45.9319962944076
20
-2.30540782142276
30
0
41
1
10
46.01565884275
20
-2.34454546383248
30
0
41
1
10
46.1830316037863
20
-2.42187160199262
30
0
41
1
10
46.2667352277348
20
-2.46007094466094
30
0
41
1
10
46.5178138956517
20
-2.57341247934593
30
0
41
1
10
46.6851321862414
20
-2.64733659533593
30
0
41
1
10
47.0195267872819
20
-2.79202555609962
30
0
41
1
10
47.1866725968277
20
-2.86268145089318
30
0
41
1
10
47.5214932396674
20
-2.99972395015652
30
0
41
1
10
47.6892179569966
20
-3.06605322094291
30
0
41
1
10
48.0249814673799
20
-3.19475838257736
30
0
41
1
10
48.1929703877895
20
-3.25719421290583
30
0
41
1
10
48.5292807769381
20
-3.37800428611445
30
0
41
1
10
48.6976853497681
20
-3.43627074840748
30
0
41
1
10
48.9510874064132
20
-3.51995078257633
30
0
41
1
10
49.0356881175959
20
-3.54722499903068
30
0
41
1
10
49.2051020828532
20
-3.6005956141766
30
0
41
1
10
49.2899694326039
20
-3.62671165401827
30
0
41
1
10
49.4596120034558
20
-3.67771811780801
30
0
41
1
10
49.5443002768739
20
-3.70258236794169
30
0
41
1
10
49.7133988116883
20
-3.7510441010993
30
0
41
1
10
49.7978156271902
20
-3.77463390400243
30
0
41
1
10
50.0508075986457
20
-3.84335148196763
30
0
41
1
10
50.2191477358043
20
-3.88640295175915
30
0
41
1
10
50.5556243502056
20
-3.96674077247763
30
0
41
1
10
50.7236830508457
20
-4.00410531289728
30
0
41
1
10
51.0591326976626
20
-4.07348818371617
30
0
41
1
10
51.2264833639271
20
-4.10551630244132
30
0
41
1
10
51.4774161030182
20
-4.14925280503471
30
0
41
1
10
51.5610465289157
20
-4.16311489454344
30
0
41
1
10
51.7283428212454
20
-4.18938176143013
30
0
41
1
10
51.812016794319
20
-4.2017832816332
30
0
41
1
10
52.0630559058569
20
-4.23683888046611
30
0
41
1
10
52.230407991286
20
-4.25736317833997
30
0
41
1
10
52.5648638133813
20
-4.29276475101267
30
0
41
1
10
52.7319759932736
20
-4.30762134465928
30
0
41
1
10
52.9829904529159
20
-4.32545988069302
30
0
41
1
10
53.066716685165
20
-4.33066793031821
30
0
41
1
10
53.2343347603238
20
-4.33960390608718
30
0
41
1
10
53.3182200000142
20
-4.34333410439029
30
0
41
1
10
53.570020041377
20
-4.35232553649334
30
0
41
1
10
53.7380540294978
20
-4.35539283609634
30
0
41
1
10
53.906207455974
20
-4.35547501775329
30
0
0
SPLINE
5
C1
100
AcDbEntity
8
1
62
256
6
ByLayer
370
18
48
1
60
0
100
AcDbSpline
70
4
71
3
72
50
73
46
40
0
40
0
40
0
40
0
40
0.0342828987233109
40
0.0342828987233109
40
0.0644615581382104
40
0.0644615581382104
40
0.0946402175531091
40
0.0946402175531091
40
0.154997536382903
40
0.154997536382903
40
0.215354855212696
40
0.215354855212696
40
0.245533514627596
40
0.245533514627596
40
0.275712174042494
40
0.275712174042494
40
0.336069492872288
40
0.336069492872288
40
0.396426811702081
40
0.396426811702081
40
0.456784130531875
40
0.456784130531875
40
0.486962789946772
40
0.486962789946772
40
0.51714144936167
40
0.51714144936167
40
0.577498768191463
40
0.577498768191463
40
0.637856087021257
40
0.637856087021257
40
0.668034746436152
40
0.668034746436152
40
0.698213405851048
40
0.698213405851048
40
0.758570724680838
40
0.758570724680838
40
0.818928043510629
40
0.818928043510629
40
0.879285362340419
40
0.879285362340419
40
0.909464021755314
40
0.909464021755314
40
0.93964268117021
40
0.93964268117021
40
1
40
1
40
1
40
1
41
1
10
72.2762530638031
20
3.01049153571438
30
0
41
1
10
72.3718931493819
20
3.04894963407912
30
0
41
1
10
72.4674027491978
20
3.08673349021052
30
0
41
1
10
72.6468541472431
20
3.1563601722238
30
0
41
1
10
72.7308126478655
20
3.18837361128527
30
0
41
1
10
72.898685789872
20
3.25116415156387
30
0
41
1
10
72.9826075531366
20
3.28193319491209
30
0
41
1
10
73.2342594971946
20
3.37246758199518
30
0
41
1
10
73.4018500164354
20
3.43049620217175
30
0
41
1
10
73.7364539746759
20
3.54213921903204
30
0
41
1
10
73.9034887495704
20
3.59571475261132
30
0
41
1
10
74.154148557039
20
3.6721714179956
30
0
41
1
10
74.237717670708
20
3.69700993494379
30
0
41
1
10
74.4049368966617
20
3.74535465401505
30
0
41
1
10
74.4885791687098
20
3.76886927172981
30
0
41
1
10
74.7395199126842
20
3.83752425641558
30
0
41
1
10
74.906806626809
20
3.88080058615404
30
0
41
1
10
75.2412878720201
20
3.96235615949954
30
0
41
1
10
75.4085565560201
20
4.00056332557526
30
0
41
1
10
75.7437736794869
20
4.07134981925549
30
0
41
1
10
75.9117682310445
20
4.10391289292443
30
0
41
1
10
76.1640863512481
20
4.14867669384992
30
0
41
1
10
76.248245719293
20
4.16291668908872
30
0
41
1
10
76.4166517736284
20
4.19003024178349
30
0
41
1
10
76.5008913134462
20
4.2029068446034
30
0
41
1
10
76.7538413811615
20
4.23940653845466
30
0
41
1
10
76.922807459
20
4.2608823076649
30
0
41
1
10
77.2619590367779
20
4.29784470661471
30
0
41
1
10
77.4314406382483
20
4.31328228165526
30
0
41
1
10
77.6851438066414
20
4.33200166073902
30
0
41
1
10
77.7696323781107
20
4.33749926745568
30
0
41
1
10
77.9384459917398
20
4.34700383131954
30
0
41
1
10
78.0227791661024
20
4.35100829525507
30
0
41
1
10
78.2757009152026
20
4.36075444871537
30
0
41
1
10
78.4442384957422
20
4.36422375024242
30
0
41
1
10
78.7815670820546
20
4.36517181205969
30
0
41
1
10
78.9502709722121
20
4.36266504087178
30
0
41
1
10
79.2874515364815
20
4.35164896996113
30
0
41
1
10
79.4558933494047
20
4.34311678777877
30
0
41
1
10
79.7088398214259
20
4.32582223147412
30
0
41
1
10
79.7932023093948
20
4.31931000520188
30
0
41
1
10
79.9620862300119
20
4.30481348130272
30
0
41
1
10
80.0466136072212
20
4.29683204841874
30
0
41
1
10
80.3003730463025
20
4.27067027264843
30
0
41
1
10
80.4697570812279
20
4.25026841442016
30
0
41
1
10
80.6392486709091
20
4.22680617085257
30
0
0
SPLINE
5
C2
100
AcDbEntity
8
1
62
256
6
ByLayer
370
18
48
1
60
0
100
AcDbSpline
70
4
71
3
72
160
73
156
40
0
40
0
40
0
40
0
40
0.0031874964357287
40
0.0031874964357287
40
0.0212981888577669
40
0.0212981888577669
40
0.0394088812798051
40
0.0394088812798051
40
0.0484642274908247
40
0.0484642274908247
40
0.0575195737018443
40
0.066574919912864
40
0.066574919912864
40
0.0756302661238836
40
0.0756302661238836
40
0.0937409585459218
40
0.0937409585459218
40
0.11185165096796
40
0.11185165096796
40
0.129962343389998
40
0.129962343389998
40
0.148073035812037
40
0.148073035812037
40
0.157128382023056
40
0.157128382023056
40
0.166183728234075
40
0.166183728234075
40
0.184294420656113
40
0.184294420656113
40
0.202405113078151
40
0.202405113078151
40
0.220515805500189
40
0.220515805500189
40
0.225043478605699
40
0.225043478605699
40
0.229571151711209
40
0.229571151711209
40
0.238626497922228
40
0.247681844133247
40
0.247681844133247
40
0.256737190344266
40
0.256737190344266
40
0.274847882766303
40
0.274847882766303
40
0.29295857518834
40
0.29295857518834
40
0.311069267610378
40
0.311069267610378
40
0.329179960032415
40
0.329179960032415
40
0.338235306243433
40
0.338235306243433
40
0.347290652454452
40
0.347290652454452
40
0.365401344876489
40
0.365401344876489
40
0.383512037298526
40
0.383512037298526
40
0.401622729720564
40
0.401622729720564
40
0.410678075931583
40
0.410678075931583
40
0.419733422142602
40
0.428788768353621
40
0.428788768353621
40
0.43784411456464
40
0.43784411456464
40
0.455954806986679
40
0.455954806986679
40
0.474065499408718
40
0.474065499408718
40
0.492176191830758
40
0.492176191830758
40
0.501231538041777
40
0.501231538041777
40
0.510286884252796
40
0.519342230463815
40
0.519342230463815
40
0.528397576674834
40
0.528397576674834
40
0.546508269096871
40
0.546508269096871
40
0.564618961518908
40
0.564618961518908
40
0.573674307729927
40
0.573674307729927
40
0.578201980835437
40
0.582729653940947
40
0.582729653940947
40
0.591785000151966
40
0.591785000151966
40
0.600840346362986
40
0.609895692574005
40
0.609895692574005
40
0.618951038785025
40
0.618951038785025
40
0.637061731207064
40
0.637061731207064
40
0.655172423629104
40
0.655172423629104
40
0.673283116051143
40
0.673283116051143
40
0.682338462262162
40
0.682338462262162
40
0.691393808473181
40
0.7004491546842
40
0.7004491546842
40
0.709504500895219
40
0.709504500895219
40
0.727615193317256
40
0.727615193317256
40
0.745725885739293
40
0.745725885739293
40
0.754781231950312
40
0.754781231950312
40
0.76383657816133
40
0.76383657816133
40
0.772891924372348
40
0.772891924372348
40
0.781947270583366
40
0.791002616794384
40
0.791002616794384
40
0.800057963005402
40
0.800057963005402
40
0.818168655427439
40
0.818168655427439
40
0.836279347849476
40
0.836279347849476
40
0.854390040271513
40
0.854390040271513
40
0.863445386482532
40
0.863445386482532
40
0.872500732693552
40
0.881556078904571
40
0.881556078904571
40
0.89061142511559
40
0.89061142511559
40
0.908722117537628
40
0.908722117537628
40
0.926832809959666
40
0.926832809959666
40
0.935888156170685
40
0.935888156170685
40
0.944943502381704
40
0.944943502381704
40
0.953998848592723
40
0.953998848592723
40
0.963054194803743
40
0.972109541014762
40
0.972109541014762
40
0.981164887225781
40
0.981164887225781
40
0.999275579647819
40
0.999275579647819
40
1
40
1
40
1
40
1
41
1
10
72.2757604882956
20
-3.0046315447851
30
0
41
1
10
72.2426982401278
20
-3.01789310613336
30
0
41
1
10
72.2096335453463
20
-3.03108296196387
30
0
41
1
10
71.9886905620056
20
-3.11874144306566
30
0
41
1
10
71.8007239359815
20
-3.19093548683102
30
0
41
1
10
71.423896118644
20
-3.32966720553546
30
0
41
1
10
71.2349775134245
20
-3.3961452912649
30
0
41
1
10
70.950976948086
20
-3.49167486676015
30
0
41
1
10
70.8561272672837
20
-3.5228554016293
30
0
41
1
10
70.6667746603253
20
-3.58366856610527
30
0
41
1
10
70.4777471710444
20
-3.64291858537092
30
0
41
1
10
70.2892143322555
20
-3.69888603903402
30
0
41
1
10
70.1008264690554
20
-3.75312571828289
30
0
41
1
10
70.0066972732708
20
-3.77937526232398
30
0
41
1
10
69.7245200253522
20
-3.8555634216645
30
0
41
1
10
69.5366880653122
20
-3.90295538298622
30
0
41
1
10
69.1618473028128
20
-3.99118757087214
30
0
41
1
10
68.9748032181993
20
-4.03197907817363
30
0
41
1
10
68.6007615904636
20
-4.10643486674917
30
0
41
1
10
68.413708646682
20
-4.1400812040896
30
0
41
1
10
68.039724518407
20
-4.20039145076248
30
0
41
1
10
67.8528781940328
20
-4.22709019527065
30
0
41
1
10
67.5725770282055
20
-4.26177780179279
30
0
41
1
10
67.4791282257149
20
-4.27244271566403
30
0
41
1
10
67.2921002749124
20
-4.29194058699855
30
0
41
1
10
67.198512571037
20
-4.30077170403814
30
0
41
1
10
66.9175412464239
20
-4.32452586167344
30
0
41
1
10
66.729955818887
20
-4.33672040709504
30
0
41
1
10
66.3545040902309
20
-4.35379328005044
30
0
41
1
10
66.1666057635148
20
-4.35864542756411
30
0
41
1
10
65.7897586434377
20
-4.36082198693094
30
0
41
1
10
65.6007505305977
20
-4.35816484724839
30
0
41
1
10
65.3638636816715
20
-4.35012042040177
30
0
41
1
10
65.3164345498253
20
-4.34827370362157
30
0
41
1
10
65.2216797757394
20
-4.34411031778927
30
0
41
1
10
65.1743445481025
20
-4.34179328728877
30
0
41
1
10
65.0324589048373
20
-4.33413761188407
30
0
41
1
10
64.8435932576757
20
-4.32205102478244
30
0
41
1
10
64.6552049002125
20
-4.30625353978894
30
0
41
1
10
64.4669527064733
20
-4.28864639688476
30
0
41
1
10
64.3728865929171
20
-4.27894191743951
30
0
41
1
10
64.0908812801746
20
-4.24715344191708
30
0
41
1
10
63.903140775851
20
-4.22240046940905
30
0
41
1
10
63.5284433825179
20
-4.16568661861862
30
0
41
1
10
63.3414533503043
20
-4.13372297384834
30
0
41
1
10
62.9674887785256
20
-4.06301081829616
30
0
41
1
10
62.7804553352875
20
-4.02431709961013
30
0
41
1
10
62.4064648429084
20
-3.94019343047341
30
0
41
1
10
62.219593016555
20
-3.89468969479921
30
0
41
1
10
61.9392311592595
20
-3.82140785038331
30
0
41
1
10
61.845758144113
20
-3.79615137231562
30
0
41
1
10
61.6586740248505
20
-3.74407056861301
30
0
41
1
10
61.5650539851591
20
-3.71725561454693
30
0
41
1
10
61.2839687028428
20
-3.63448768575483
30
0
41
1
10
61.0962851195118
20
-3.57621354887942
30
0
41
1
10
60.7205969081945
20
-3.45310554177658
30
0
41
1
10
60.532562651159
20
-3.38828445079597
30
0
41
1
10
60.1554108387832
20
-3.25283853064923
30
0
41
1
10
59.9661995414309
20
-3.18229702301943
30
0
41
1
10
59.6816923787562
20
-3.07211334481917
30
0
41
1
10
59.5870083401694
20
-3.03474612210945
30
0
41
1
10
59.3979637021709
20
-2.95870706177104
30
0
41
1
10
59.2092258959132
20
-2.88138578467539
30
0
41
1
10
59.0209493397089
20
-2.80172276984573
30
0
41
1
10
58.8328015558592
20
-2.72104442125718
30
0
41
1
10
58.7387834921633
20
-2.68021077401809
30
0
41
1
10
58.4569066746235
20
-2.55622654489974
30
0
41
1
10
58.2692310472938
20
-2.47158799395641
30
0
41
1
10
57.8946277580094
20
-2.2979551967924
30
0
41
1
10
57.7076690981158
20
-2.20900006311985
30
0
41
1
10
57.3337396307454
20
-2.02793154401763
30
0
41
1
10
57.1467068586079
20
-1.93592647800642
30
0
41
1
10
56.8661842432761
20
-1.79552234655142
30
0
41
1
10
56.7726880299852
20
-1.74830934390096
30
0
41
1
10
56.5857421730027
20
-1.65301479849188
30
0
41
1
10
56.3988261952429
20
-1.55687927782796
30
0
41
1
10
56.2118195885711
20
-1.45931015987836
30
0
41
1
10
56.0246679176485
20
-1.36119796370863
30
0
41
1
10
55.9310103387951
20
-1.31188699635788
30
0
41
1
10
55.6497971007227
20
-1.16318508892601
30
0
41
1
10
55.4620082830953
20
-1.06301621068923
30
0
41
1
10
55.0860731070173
20
-0.86007852241525
30
0
41
1
10
54.8978993819009
20
-0.757350605339525
30
0
41
1
10
54.614803895915
20
-0.602318799840759
30
0
41
1
10
54.5202874597823
20
-0.550509325015213
30
0
41
1
10
54.3782875743894
20
-0.472592869007826
30
0
41
1
10
54.2835474441438
20
-0.420578474786709
30
0
41
1
10
54.1886652476643
20
-0.368411262196815
30
0
41
1
10
54.046518406324
20
-0.290182930842548
30
0
41
1
10
53.9519002597428
20
-0.238004134625982
30
0
41
1
10
53.7629791656479
20
-0.133548805197734
30
0
41
1
10
53.5743568841744
20
-0.0290279773375914
30
0
41
1
10
53.3861802902412
20
0.0753341270065562
30
0
41
1
10
53.1981253385533
20
0.179428314936928
30
0
41
1
10
53.1041497458083
20
0.231324818968062
30
0
41
1
10
52.8223854271484
20
0.386584202776333
30
0
41
1
10
52.6347651133637
20
0.489530578155552
30
0
41
1
10
52.2602380628818
20
0.694809880535814
30
0
41
1
10
52.073302376051
20
0.797083854475659
30
0
41
1
10
51.6993918649503
20
0.999636650899305
30
0
41
1
10
51.5123524899422
20
1.09980359522058
30
0
41
1
10
51.2317906937859
20
1.24862332240758
30
0
41
1
10
51.1382763654821
20
1.29800300403878
30
0
41
1
10
50.9512865769184
20
1.39635199254303
30
0
41
1
10
50.7643191680028
20
1.494261115835
30
0
41
1
10
50.57724700231
20
1.59102285140975
30
0
41
1
10
50.3900229317764
20
1.68703823612611
30
0
41
1
10
50.2963255419629
20
1.73465683622231
30
0
41
1
10
50.0149782713703
20
1.87634926603403
30
0
41
1
10
49.8270811988172
20
1.96927581294273
30
0
41
1
10
49.4508942468709
20
2.15249055383546
30
0
41
1
10
49.262579070874
20
2.24273065108193
30
0
41
1
10
48.9792493228924
20
2.3751501344303
30
0
41
1
10
48.8846509448964
20
2.41878058078529
30
0
41
1
10
48.6951440980006
20
2.50502228988844
30
0
41
1
10
48.6002174877782
20
2.54764500939368
30
0
41
1
10
48.4108208014312
20
2.63160186677209
30
0
41
1
10
48.3162638378965
20
2.67298368171998
30
0
41
1
10
48.127457007945
20
2.75459473024381
30
0
41
1
10
47.9389410017738
20
2.83502687310948
30
0
41
1
10
47.7508556650929
20
2.91288514195492
30
0
41
1
10
47.5628847717209
20
2.98932615486578
30
0
41
1
10
47.4689473824466
20
3.02682626879752
30
0
41
1
10
47.1872833353313
20
3.13719806745246
30
0
41
1
10
46.9997110179146
20
3.20795738204939
30
0
41
1
10
46.6252463959974
20
3.34420012444161
30
0
41
1
10
46.4383270415702
20
3.40963274255552
30
0
41
1
10
46.0644223198795
20
3.53432322021124
30
0
41
1
10
45.8773702495904
20
3.59352208781692
30
0
41
1
10
45.5967612764141
20
3.67776398134518
30
0
41
1
10
45.5032263984566
20
3.70509067415693
30
0
41
1
10
45.3161878641896
20
3.75825383211134
30
0
41
1
10
45.1291646849177
20
3.80990976944469
30
0
41
1
10
44.942021966328
20
3.85839278831807
30
0
41
1
10
44.7547208736096
20
3.9052016890287
30
0
41
1
10
44.6609814286715
20
3.92776189348396
30
0
41
1
10
44.3794939689083
20
3.99291444987279
30
0
41
1
10
44.1914853064368
20
4.03299382110313
30
0
41
1
10
43.8150407169854
20
4.10655340886342
30
0
41
1
10
43.6265813229537
20
4.13999916994732
30
0
41
1
10
43.3430131083707
20
4.1847671862148
30
0
41
1
10
43.248331433412
20
4.19878544202371
30
0
41
1
10
43.0586485936849
20
4.225009699162
30
0
41
1
10
42.9638394504344
20
4.23719025964124
30
0
41
1
10
42.7745674735773
20
4.25968553682642
30
0
41
1
10
42.6800680206772
20
4.27000730142777
30
0
41
1
10
42.4913681712925
20
4.28881249132201
30
0
41
1
10
42.3029514301694
20
4.30577135909957
30
0
41
1
10
42.1149500064837
20
4.31899904385281
30
0
41
1
10
41.9270560007793
20
4.33035133728737
30
0
41
1
10
41.8331532842093
20
4.33508913313446
30
0
41
1
10
41.5515793810698
20
4.34651985988393
30
0
41
1
10
41.3640489565045
20
4.35044066252607
30
0
41
1
10
41.1693538306623
20
4.35069153962505
30
0
41
1
10
41.1618661066364
20
4.35069526707278
30
0
41
1
10
41.1543788375927
20
4.35069307457971
30
0
0
SPLINE
5
C3
100
AcDbEntity
8
1
62
256
6
ByLayer
370
18
48
1
60
0
100
AcDbSpline
70
4
71
3
72
74
73
70
40
0
40
0
40
0
40
0
40
0.0142732917231302
40
0.0142732917231302
40
0.053702360054208
40
0.053702360054208
40
0.0931314283852865
40
0.0931314283852865
40
0.112845962550825
40
0.112845962550825
40
0.132560496716364
40
0.132560496716364
40
0.17198956504744
40
0.17198956504744
40
0.191704099212976
40
0.191704099212976
40
0.211418633378513
40
0.23113316754405
40
0.23113316754405
40
0.250847701709587
40
0.250847701709587
40
0.290276770040662
40
0.290276770040662
40
0.329705838371736
40
0.329705838371736
40
0.369134906702811
40
0.369134906702811
40
0.388849440868348
40
0.388849440868348
40
0.408563975033885
40
0.408563975033885
40
0.447993043364959
40
0.447993043364959
40
0.487422111696034
40
0.487422111696034
40
0.50713664586157
40
0.50713664586157
40
0.526851180027107
40
0.526851180027107
40
0.566280248358181
40
0.566280248358181
40
0.585994782523719
40
0.585994782523719
40
0.605709316689256
40
0.625423850854794
40
0.625423850854794
40
0.645138385020332
40
0.645138385020332
40
0.684567453351406
40
0.684567453351406
40
0.723996521682481
40
0.723996521682481
40
0.763425590013556
40
0.763425590013556
40
0.783140124179093
40
0.783140124179093
40
0.80285465834463
40
0.80285465834463
40
0.842283726675704
40
0.842283726675704
40
0.881712795006779
40
0.881712795006779
40
0.901427329172315
40
0.901427329172315
40
0.921141863337852
40
0.921141863337852
40
0.960570931668926
40
0.960570931668926
40
1
40
1
40
1
40
1
41
1
10
22.785212642269
20
-2.99868711172158
30
0
41
1
10
22.7174123180316
20
-3.02575651478929
30
0
41
1
10
22.6496027839232
20
-3.05251922720282
30
0
41
1
10
22.3943852520567
20
-3.15198029972663
30
0
41
1
10
22.2067877761836
20
-3.22245988516698
30
0
41
1
10
21.830624329159
20
-3.35763292203058
30
0
41
1
10
21.6421241688787
20
-3.42241932767922
30
0
41
1
10
21.358952522566
20
-3.51559024818405
30
0
41
1
10
21.2644841178598
20
-3.54596819670763
30
0
41
1
10
21.0753153487626
20
-3.60526573322062
30
0
41
1
10
20.9805818362216
20
-3.63419574993699
30
0
41
1
10
20.6960993428874
20
-3.71856237183616
30
0
41
1
10
20.5068297672503
20
-3.77128292845279
30
0
41
1
10
20.2235940242457
20
-3.84530454599582
30
0
41
1
10
20.129300534304
20
-3.86914013539257
30
0
41
1
10
19.9409800269591
20
-3.91516241097676
30
0
41
1
10
19.7529107114076
20
-3.95952044648843
30
0
41
1
10
19.5651939265471
20
-4.00043225313709
30
0
41
1
10
19.3775544017784
20
-4.03955897594557
30
0
41
1
10
19.2837634456434
20
-4.05822401148956
30
0
41
1
10
19.0024723222873
20
-4.11154950866467
30
0
41
1
10
18.815061328468
20
-4.14355484940234
30
0
41
1
10
18.4407559401739
20
-4.20064749450293
30
0
41
1
10
18.2538404251723
20
-4.22570305621488
30
0
41
1
10
17.8798000400094
20
-4.26851678283563
30
0
41
1
10
17.6926029820764
20
-4.28626478717786
30
0
41
1
10
17.4116463087733
20
-4.30746460087403
30
0
41
1
10
17.3179735666672
20
-4.31362789995836
30
0
41
1
10
17.1306202455176
20
-4.32414135770793
30
0
41
1
10
17.0369324667173
20
-4.32848895939111
30
0
41
1
10
16.7557227061292
20
-4.33876515756276
30
0
41
1
10
16.5680210133119
20
-4.34191768501123
30
0
41
1
10
16.1916161678582
20
-4.34078919954828
30
0
41
1
10
16.0029787979825
20
-4.33652655410214
30
0
41
1
10
15.7195759917897
20
-4.32447746079953
30
0
41
1
10
15.6250263402215
20
-4.31951620840601
30
0
41
1
10
15.4356865764536
20
-4.30769424198979
30
0
41
1
10
15.3408056697609
20
-4.30082485942057
30
0
41
1
10
15.0565306056401
20
-4.27746096313061
30
0
41
1
10
14.8673814560588
20
-4.258244094383
30
0
41
1
10
14.5843007133971
20
-4.22404529102803
30
0
41
1
10
14.4900545898775
20
-4.21174585299246
30
0
41
1
10
14.3018204348602
20
-4.18533478250046
30
0
41
1
10
14.113829110988
20
-4.15711672415381
30
0
41
1
10
13.9261737490827
20
-4.12536424841042
30
0
41
1
10
13.738587483182
20
-4.0919115050834
30
0
41
1
10
13.6448190561788
20
-4.07434203101627
30
0
41
1
10
13.3635829224995
20
-4.019132544408
30
0
41
1
10
13.1761918611592
20
-3.97899525693651
30
0
41
1
10
12.8018936367338
20
-3.89185647655984
30
0
41
1
10
12.6149656157172
20
-3.84485243896327
30
0
41
1
10
12.2408684904669
20
-3.74453830102314
30
0
41
1
10
12.0536270017562
20
-3.69130921145029
30
0
41
1
10
11.7725791653535
20
-3.60678528970891
30
0
41
1
10
11.6788719553243
20
-3.5778230592812
30
0
41
1
10
11.4914416734465
20
-3.51827550741433
30
0
41
1
10
11.3977114161342
20
-3.48769683452213
30
0
41
1
10
11.1163619267618
20
-3.39365135365145
30
0
41
1
10
10.9285506764541
20
-3.32790802685389
30
0
41
1
10
10.5518921200404
20
-3.19097380125657
30
0
41
1
10
10.3631108735956
20
-3.11971713826401
30
0
41
1
10
10.0794648704677
20
-3.00829372676452
30
0
41
1
10
9.98482959913224
20
-2.97040351462084
30
0
41
1
10
9.79531048268115
20
-2.89320962469972
30
0
41
1
10
9.70042539349262
20
-2.85390308764332
30
0
41
1
10
9.41593221112558
20
-2.73435563394662
30
0
41
1
10
9.22619593421663
20
-2.65248564322064
30
0
41
1
10
8.84672970305323
20
-2.48422255663158
30
0
41
1
10
8.65700536750856
20
-2.39782282426464
30
0
41
1
10
8.46742516250384
20
-2.30890946095513
30
0
0
SPLINE
5
C4
100
AcDbEntity
8
1
62
256
6
ByLayer
370
18
48
1
60
0
100
AcDbSpline
70
4
71
3
72
67
73
63
40
0
40
0
40
0
40
0
40
0.0385832246691791
40
0.0771664493383582
40
0.0771664493383582
40
0.115749674007537
40
0.115749674007537
40
0.135041286342127
40
0.135041286342127
40
0.154332898676717
40
0.154332898676717
40
0.192916123345897
40
0.192916123345897
40
0.231499348015077
40
0.231499348015077
40
0.270082572684258
40
0.270082572684258
40
0.308665797353438
40
0.308665797353438
40
0.347249022022618
40
0.347249022022618
40
0.385832246691799
40
0.385832246691799
40
0.405123859026389
40
0.405123859026389
40
0.424415471360979
40
0.424415471360979
40
0.462998696030157
40
0.462998696030157
40
0.501581920699335
40
0.501581920699335
40
0.540165145368513
40
0.540165145368513
40
0.578748370037691
40
0.578748370037691
40
0.617331594706869
40
0.617331594706869
40
0.655914819376047
40
0.655914819376047
40
0.675206431710636
40
0.675206431710636
40
0.694498044045225
40
0.694498044045225
40
0.733081268714403
40
0.733081268714403
40
0.771664493383581
40
0.771664493383581
40
0.810247718052759
40
0.810247718052759
40
0.829539330387348
40
0.829539330387348
40
0.848830942721937
40
0.848830942721937
40
0.887414167391113
40
0.887414167391113
40
0.925997392060288
40
0.925997392060288
40
0.945289004394876
40
0.945289004394876
40
0.964580616729464
40
0.964580616729464
40
1
40
1
40
1
40
1
41
1
10
16.0894097088776
20
0.389137834795946
30
0
41
1
10
16.258903752279
20
0.295422327802015
30
0
41
1
10
16.59757089328
20
0.109029043468951
30
0
41
1
10
16.9350920065829
20
-0.0763856239392737
30
0
41
1
10
17.2717694787293
20
-0.261837948407418
30
0
41
1
10
17.4396535617897
20
-0.354639952892683
30
0
41
1
10
17.6913288917891
20
-0.492961740145887
30
0
41
1
10
17.77519197951
20
-0.538929381409844
30
0
41
1
10
17.9429224247161
20
-0.63047498650576
30
0
41
1
10
18.02678834394
20
-0.676055907362496
30
0
41
1
10
18.2783053532023
20
-0.812379696836189
30
0
41
1
10
18.4458538079134
20
-0.902744543318903
30
0
41
1
10
18.780528376298
20
-1.08272240547225
30
0
41
1
10
18.9477100810989
20
-1.17223107056051
30
0
41
1
10
19.282416780723
20
-1.34911878720996
30
0
41
1
10
19.4499959402
20
-1.43640640989642
30
0
41
1
10
19.7853549350092
20
-1.60912081601444
30
0
41
1
10
19.9530771057343
20
-1.69464664085279
30
0
41
1
10
20.2886443125417
20
-1.86394214036386
30
0
41
1
10
20.4565724487568
20
-1.94756673665876
30
0
41
1
10
20.7932986438668
20
-2.11178110023067
30
0
41
1
10
20.9621172677053
20
-2.19234152062873
30
0
41
1
10
21.2157389856187
20
-2.31133595722625
30
0
41
1
10
21.3003488729879
20
-2.35068637387701
30
0
41
1
10
21.4696890060061
20
-2.42878254200596
30
0
41
1
10
21.5544684430778
20
-2.46754691832285
30
0
41
1
10
21.8088109358611
20
-2.58254193409132
30
0
41
1
10
21.9779468701344
20
-2.65723703614117
30
0
41
1
10
22.3158701705917
20
-2.80204203132436
30
0
41
1
10
22.4845948897202
20
-2.87226005613215
30
0
41
1
10
22.821239187259
20
-3.00885364443374
30
0
41
1
10
22.9891134619139
20
-3.07527694040371
30
0
41
1
10
23.3245370014058
20
-3.20360386114149
30
0
41
1
10
23.4921410780156
20
-3.26544186378595
30
0
41
1
10
23.8273986358174
20
-3.38422665831843
30
0
41
1
10
23.9949611401429
20
-3.44129047087827
30
0
41
1
10
24.3296982813704
20
-3.55103089691158
30
0
41
1
10
24.4968613824
20
-3.60370490340583
30
0
41
1
10
24.7478182733872
20
-3.67885665329314
30
0
41
1
10
24.8315027211711
20
-3.70326908068799
30
0
41
1
10
24.9989989278388
20
-3.75076368095049
30
0
41
1
10
25.0828082841286
20
-3.77384910982249
30
0
41
1
10
25.3343354426405
20
-3.84120407767051
30
0
41
1
10
25.50212940448
20
-3.88359564365723
30
0
41
1
10
25.8377858979619
20
-3.96339974242446
30
0
41
1
10
26.0057067685925
20
-4.00075196456532
30
0
41
1
10
26.3423782419272
20
-4.06983147987
30
0
41
1
10
26.5111806799382
20
-4.10153769866238
30
0
41
1
10
26.7648864383355
20
-4.14496776536166
30
0
41
1
10
26.8495331230823
20
-4.15875813608238
30
0
41
1
10
27.0189638437238
20
-4.18496074193277
30
0
41
1
10
27.1038107635213
20
-4.19738628353861
30
0
41
1
10
27.3580553241556
20
-4.23244837620689
30
0
41
1
10
27.5270732163693
20
-4.25283669826098
30
0
41
1
10
27.8647404373226
20
-4.28752485805194
30
0
41
1
10
28.0333997788713
20
-4.30184176375627
30
0
41
1
10
28.2858362894228
20
-4.31893064149142
30
0
41
1
10
28.3698936393814
20
-4.32389246685585
30
0
41
1
10
28.537813967629
20
-4.33234586116134
30
0
41
1
10
28.6216812771468
20
-4.33583558859095
30
0
41
1
10
28.8593951518671
20
-4.34362266020847
30
0
41
1
10
29.0131472149259
20
-4.34615163742242
30
0
41
1
10
29.1669379333099
20
-4.34619773436785
30
0
0
SPLINE
5
C5
100
AcDbEntity
8
1
62
256
6
ByLayer
370
18
48
1
60
0
100
AcDbSpline
70
4
71
3
72
170
73
166
40
0
40
0
40
0
40
0
40
0.0103710767364431
40
0.0103710767364431
40
0.0265759057221542
40
0.0265759057221542
40
0.0427807347078654
40
0.0427807347078654
40
0.0508831492007204
40
0.0508831492007204
40
0.0589855636935754
40
0.0589855636935754
40
0.0670879781864305
40
0.0670879781864305
40
0.0751903926792857
40
0.0751903926792857
40
0.0913952216649967
40
0.0913952216649967
40
0.107600050650708
40
0.107600050650708
40
0.123804879636419
40
0.123804879636419
40
0.131907294129275
40
0.131907294129275
40
0.140009708622131
40
0.140009708622131
40
0.156214537607843
40
0.156214537607843
40
0.172419366593555
40
0.172419366593555
40
0.180521781086411
40
0.180521781086411
40
0.188624195579266
40
0.188624195579266
40
0.204829024564978
40
0.204829024564978
40
0.221033853550689
40
0.221033853550689
40
0.229136268043544
40
0.229136268043544
40
0.237238682536399
40
0.237238682536399
40
0.245341097029254
40
0.245341097029254
40
0.253443511522109
40
0.253443511522109
40
0.269648340507819
40
0.269648340507819
40
0.285853169493529
40
0.285853169493529
40
0.293955583986384
40
0.293955583986384
40
0.30205799847924
40
0.30205799847924
40
0.31826282746495
40
0.31826282746495
40
0.33446765645066
40
0.33446765645066
40
0.35067248543637
40
0.35067248543637
40
0.358774899929225
40
0.358774899929225
40
0.36687731442208
40
0.36687731442208
40
0.383082143407789
40
0.383082143407789
40
0.399286972393498
40
0.399286972393498
40
0.407389386886353
40
0.407389386886353
40
0.415491801379208
40
0.415491801379208
40
0.431696630364919
40
0.431696630364919
40
0.447901459350631
40
0.447901459350631
40
0.464106288336342
40
0.464106288336342
40
0.472208702829197
40
0.472208702829197
40
0.480311117322053
40
0.480311117322053
40
0.496515946307764
40
0.496515946307764
40
0.512720775293475
40
0.512720775293475
40
0.520823189786331
40
0.520823189786331
40
0.528925604279186
40
0.528925604279186
40
0.545130433264896
40
0.545130433264896
40
0.561335262250606
40
0.561335262250606
40
0.577540091236317
40
0.577540091236317
40
0.585642505729171
40
0.585642505729171
40
0.593744920222026
40
0.593744920222026
40
0.609949749207736
40
0.609949749207736
40
0.626154578193446
40
0.626154578193446
40
0.634256992686301
40
0.634256992686301
40
0.642359407179156
40
0.642359407179156
40
0.658564236164867
40
0.658564236164867
40
0.674769065150577
40
0.674769065150577
40
0.690973894136287
40
0.690973894136287
40
0.699076308629142
40
0.699076308629142
40
0.707178723121997
40
0.707178723121997
40
0.723383552107707
40
0.723383552107707
40
0.739588381093417
40
0.739588381093417
40
0.747690795586272
40
0.747690795586272
40
0.755793210079127
40
0.755793210079127
40
0.771998039064835
40
0.771998039064835
40
0.788202868050543
40
0.788202868050543
40
0.804407697036251
40
0.804407697036251
40
0.812510111529105
40
0.812510111529105
40
0.820612526021959
40
0.820612526021959
40
0.836817355007667
40
0.836817355007667
40
0.853022183993375
40
0.853022183993375
40
0.861124598486229
40
0.861124598486229
40
0.869227012979083
40
0.869227012979083
40
0.885431841964791
40
0.885431841964791
40
0.901636670950499
40
0.901636670950499
40
0.917841499936207
40
0.917841499936207
40
0.925943914429062
40
0.925943914429062
40
0.934046328921916
40
0.934046328921916
40
0.950251157907625
40
0.950251157907625
40
0.966455986893334
40
0.966455986893334
40
0.974558401386189
40
0.974558401386189
40
0.982660815879044
40
0.982660815879044
40
0.998865644864753
40
0.998865644864753
40
1
40
1
40
1
40
1
41
1
10
47.5350013894858
20
3.00436362454542
30
0
41
1
10
47.6422756743141
20
3.04722495797915
30
0
41
1
10
47.7496555319826
20
3.08922020489686
30
0
41
1
10
48.0249814673798
20
3.19475838257739
30
0
41
1
10
48.1929703877895
20
3.25719421290583
30
0
41
1
10
48.5292807769381
20
3.37800428611445
30
0
41
1
10
48.6976853497681
20
3.43627074840748
30
0
41
1
10
48.9510874064132
20
3.51995078257633
30
0
41
1
10
49.0356881175959
20
3.54722499903068
30
0
41
1
10
49.2051020828532
20
3.60059561417663
30
0
41
1
10
49.2899694326039
20
3.62671165401827
30
0
41
1
10
49.4596120034559
20
3.67771811780801
30
0
41
1
10
49.5443002768739
20
3.70258236794169
30
0
41
1
10
49.7133988116883
20
3.75104410109927
30
0
41
1
10
49.7978156271902
20
3.77463390400243
30
0
41
1
10
50.0508075986457
20
3.84335148196763
30
0
41
1
10
50.2191477358043
20
3.88640295175915
30
0
41
1
10
50.5556243502056
20
3.96674077247763
30
0
41
1
10
50.7236830508456
20
4.00410531289728
30
0
41
1
10
51.0591326976626
20
4.07348818371617
30
0
41
1
10
51.226483363927
20
4.10551630244132
30
0
41
1
10
51.4774161030182
20
4.14925280503471
30
0
41
1
10
51.5610465289157
20
4.16311489454344
30
0
41
1
10
51.7283428212454
20
4.18938176143013
30
0
41
1
10
51.812016794319
20
4.2017832816332
30
0
41
1
10
52.0630559058569
20
4.23683888046611
30
0
41
1
10
52.230407991286
20
4.25736317833997
30
0
41
1
10
52.5648638133813
20
4.29276475101267
30
0
41
1
10
52.7319759932735
20
4.30762134465928
30
0
41
1
10
52.9829904529159
20
4.32545988069302
30
0
41
1
10
53.0667166851651
20
4.33066793031821
30
0
41
1
10
53.2343347603238
20
4.33960390608718
30
0
41
1
10
53.3182200000141
20
4.34333410439029
30
0
41
1
10
53.5700200413771
20
4.35232553649334
30
0
41
1
10
53.7380540294978
20
4.35539283609634
30
0
41
1
10
54.0743608824502
20
4.35555719941021
30
0
41
1
10
54.2427040140948
20
4.35263941787696
30
0
41
1
10
54.4959731166584
20
4.34375145431198
30
0
41
1
10
54.5805262927325
20
4.34004017033297
30
0
41
1
10
54.7498856489484
20
4.3311210009843
30
0
41
1
10
54.8347311610868
20
4.32590900636802
30
0
41
1
10
55.0044030038654
20
4.3139788883507
30
0
41
1
10
55.0891145203887
20
4.30727002649584
30
0
41
1
10
55.2582684132519
20
4.29236032505946
30
0
41
1
10
55.342703289238
20
4.2841561816652
30
0
41
1
10
55.5957005976231
20
4.2573355580019
30
0
41
1
10
55.7639799588802
20
4.23651461154984
30
0
41
1
10
56.100336328347
20
4.18934258830404
30
0
41
1
10
56.2683991460765
20
4.16300197214994
30
0
41
1
10
56.520032655409
20
4.11924821801205
30
0
41
1
10
56.6038370151909
20
4.10395626760382
30
0
41
1
10
56.7712891825674
20
4.07194533612764
30
0
41
1
10
56.8549441529715
20
4.05523007247331
30
0
41
1
10
57.1058326971946
20
4.00304426800011
30
0
41
1
10
57.2730132627233
20
3.96554793537442
30
0
41
1
10
57.6076360020299
20
3.88553425311267
30
0
41
1
10
57.7750001053714
20
3.84296698558774
30
0
41
1
10
58.1095224274016
20
3.75242680385514
30
0
41
1
10
58.2766399010713
20
3.70440064542191
30
0
41
1
10
58.5275728862134
20
3.62863541790625
30
0
41
1
10
58.611261860253
20
3.60276289846107
30
0
41
1
10
58.7787927480933
20
3.54985361030296
30
0
41
1
10
58.8626428942101
20
3.52282651494761
30
0
41
1
10
59.1143878027365
20
3.43997063020944
30
0
41
1
10
59.2824456919457
20
3.38233713886606
30
0
41
1
10
59.6187912574368
20
3.26192163388492
30
0
41
1
10
59.7870895380874
20
3.1991356855992
30
0
41
1
10
60.0402428855678
20
3.10169314131875
30
0
41
1
10
60.1247422918446
20
3.06866690767222
30
0
41
1
10
60.2940239396129
20
3.00159775074312
30
0
41
1
10
60.3788316394005
20
2.96753249393629
30
0
41
1
10
60.633365168292
20
2.86374538868301
30
0
41
1
10
60.8025742129546
20
2.79264165768097
30
0
41
1
10
61.1399557495617
20
2.64649972414512
30
0
41
1
10
61.3082013846016
20
2.57156577530327
30
0
41
1
10
61.6444304201092
20
2.41896491703403
30
0
41
1
10
61.8124600380668
20
2.34137721942037
30
0
41
1
10
62.0641234268442
20
2.22269335397917
30
0
41
1
10
62.1479468976582
20
2.18274623089232
30
0
41
1
10
62.3154442603044
20
2.10204488019505
30
0
41
1
10
62.3991111214913
20
2.06127888546669
30
0
41
1
10
62.6499873475104
20
1.93792878990107
30
0
41
1
10
62.8170954150509
20
1.85432840706818
30
0
41
1
10
63.1515776829918
20
1.68533697320711
30
0
41
1
10
63.3189370270311
20
1.59992782478486
30
0
41
1
10
63.5698620934894
20
1.46994984244699
30
0
41
1
10
63.6534882826734
20
1.42631829243436
30
0
41
1
10
63.820699421315
20
1.33842116059321
30
0
41
1
10
63.9042914576493
20
1.29416762072344
30
0
41
1
10
64.1551656029227
20
1.160732030688
30
0
41
1
10
64.3225690633444
20
1.07091541969297
30
0
41
1
10
64.6581110339855
20
0.89034561984559
30
0
41
1
10
64.8261708332464
20
0.799454752104225
30
0
41
1
10
65.162561302028
20
0.615868424360713
30
0
41
1
10
65.3308531870792
20
0.523093212072666
30
0
41
1
10
65.583910279005
20
0.383320029795613
30
0
41
1
10
65.6683674110864
20
0.336630980670549
30
0
41
1
10
65.8375542333841
20
0.243178045440146
30
0
41
1
10
65.9223084049623
20
0.196420191135019
30
0
41
1
10
66.1768356377097
20
0.0560143717063113
30
0
41
1
10
66.3461022395626
20
-0.0374130608385599
30
0
41
1
10
66.6835789625399
20
-0.224351752071271
30
0
41
1
10
66.851807914251
20
-0.317820808256442
30
0
41
1
10
67.1039039709414
20
-0.457054545002109
30
0
41
1
10
67.1878929432764
20
-0.50330833892005
30
0
41
1
10
67.3558350052819
20
-0.595413049116985
30
0
41
1
10
67.4397800768233
20
-0.641279228278478
30
0
41
1
10
67.6914541267854
20
-0.778478626114349
30
0
41
1
10
67.8589960679822
20
-0.869460833739311
30
0
41
1
10
68.1935262216784
20
-1.05057642530483
30
0
41
1
10
68.3605887591849
20
-1.14057136237238
30
0
41
1
10
68.694922495807
20
-1.31834965735365
30
0
41
1
10
68.8622390838752
20
-1.40605851773193
30
0
41
1
10
69.113181070426
20
-1.53631263674842
30
0
41
1
10
69.1968220439411
20
-1.57951336356058
30
0
41
1
10
69.3640704459245
20
-1.66551272557629
30
0
41
1
10
69.4476705733671
20
-1.70832357180143
30
0
41
1
10
69.6985196121111
20
-1.83597745092899
30
0
41
1
10
69.8658412850951
20
-1.91999915692682
30
0
41
1
10
70.2012219422594
20
-2.08494750105052
30
0
41
1
10
70.3692677109596
20
-2.16590201473997
30
0
41
1
10
70.621579592959
20
-2.28552166384631
30
0
41
1
10
70.7057277230902
20
-2.32508620693673
30
0
41
1
10
70.8741038240013
20
-2.40360530954081
30
0
41
1
10
70.9583388814383
20
-2.44254818436713
30
0
41
1
10
71.2113238625157
20
-2.55819878683636
30
0
41
1
10
71.3803796238784
20
-2.63368956493949
30
0
41
1
10
71.7196912803987
20
-2.78080232888593
30
0
41
1
10
71.8889879533168
20
-2.85217422990817
30
0
41
1
10
72.2265692373249
20
-2.99103923343648
30
0
41
1
10
72.3948154386134
20
-3.05856979994505
30
0
41
1
10
72.646854147243
20
-3.1563601722238
30
0
41
1
10
72.7308126478655
20
-3.18837361128527
30
0
41
1
10
72.898685789872
20
-3.25116415156387
30
0
41
1
10
72.9826075531366
20
-3.28193319491209
30
0
41
1
10
73.2342594971946
20
-3.37246758199518
30
0
41
1
10
73.4018500164354
20
-3.43049620217175
30
0
41
1
10
73.7364539746758
20
-3.54213921903204
30
0
41
1
10
73.9034887495704
20
-3.59571475261129
30
0
41
1
10
74.154148557039
20
-3.6721714179956
30
0
41
1
10
74.237717670708
20
-3.69700993494377
30
0
41
1
10
74.4049368966617
20
-3.74535465401505
30
0
41
1
10
74.4885791687098
20
-3.76886927172981
30
0
41
1
10
74.7395199126842
20
-3.83752425641555
30
0
41
1
10
74.906806626809
20
-3.88080058615404
30
0
41
1
10
75.2412878720201
20
-3.96235615949954
30
0
41
1
10
75.4085565560201
20
-4.00056332557526
30
0
41
1
10
75.7437736794869
20
-4.07134981925552
30
0
41
1
10
75.9117682310445
20
-4.10391289292443
30
0
41
1
10
76.1640863512481
20
-4.14867669384992
30
0
41
1
10
76.248245719293
20
-4.16291668908872
30
0
41
1
10
76.4166517736284
20
-4.19003024178349
30
0
41
1
10
76.5008913134462
20
-4.2029068446034
30
0
41
1
10
76.7538413811615
20
-4.23940653845466
30
0
41
1
10
76.922807459
20
-4.2608823076649
30
0
41
1
10
77.2619590367779
20
-4.29784470661471
30
0
41
1
10
77.4314406382482
20
-4.31328228165526
30
0
41
1
10
77.6851438066414
20
-4.33200166073905
30
0
41
1
10
77.7696323781107
20
-4.33749926745568
30
0
41
1
10
77.9384459917398
20
-4.34700383131957
30
0
41
1
10
78.0227791661024
20
-4.35100829525507
30
0
41
1
10
78.2757009152026
20
-4.36075444871537
30
0
41
1
10
78.4442384957422
20
-4.36422375024242
30
0
41
1
10
78.6247094674659
20
-4.36473096381508
30
0
41
1
10
78.6365163400645
20
-4.36474954010828
30
0
41
1
10
78.6483233541425
20
-4.36475350301185
30
0
0
SPLINE
5
C6
100
AcDbEntity
8
1
62
256
6
ByLayer
370
18
48
1
60
0
100
AcDbSpline
70
4
71
3
72
162
73
158
40
0
40
0
40
0
40
0
40
0.0312499999999977
40
0.0312499999999977
40
0.0468749999999966
40
0.0468749999999966
40
0.0624999999999955
40
0.0624999999999955
40
0.0937499999999932
40
0.0937499999999932
40
0.124999999999991
40
0.124999999999991
40
0.156249999999989
40
0.156249999999989
40
0.187499999999986
40
0.187499999999986
40
0.218749999999984
40
0.218749999999984
40
0.234374999999983
40
0.234374999999983
40
0.242187499999983
40
0.242187499999983
40
0.249999999999984
40
0.249999999999984
40
0.265624999999984
40
0.265624999999984
40
0.281249999999984
40
0.281249999999984
40
0.289062499999984
40
0.289062499999984
40
0.296874999999984
40
0.296874999999984
40
0.304687499999985
40
0.304687499999985
40
0.312499999999985
40
0.312499999999985
40
0.316406249999986
40
0.316406249999986
40
0.320312499999986
40
0.320312499999986
40
0.324218749999986
40
0.324218749999986
40
0.328124999999986
40
0.328124999999986
40
0.343749999999986
40
0.343749999999986
40
0.359374999999986
40
0.359374999999986
40
0.374999999999987
40
0.374999999999987
40
0.406249999999987
40
0.406249999999987
40
0.421874999999987
40
0.421874999999987
40
0.429687499999987
40
0.429687499999987
40
0.437499999999987
40
0.437499999999987
40
0.468749999999987
40
0.468749999999987
40
0.484374999999987
40
0.484374999999987
40
0.492187499999987
40
0.492187499999987
40
0.499999999999987
40
0.499999999999987
40
0.531249999999988
40
0.531249999999988
40
0.546874999999988
40
0.546874999999988
40
0.562499999999989
40
0.562499999999989
40
0.570312499999989
40
0.570312499999989
40
0.57812499999999
40
0.57812499999999
40
0.585937499999991
40
0.585937499999991
40
0.593749999999991
40
0.593749999999991
40
0.601562499999992
40
0.601562499999992
40
0.605468749999993
40
0.605468749999993
40
0.609374999999993
40
0.609374999999993
40
0.617187499999995
40
0.617187499999995
40
0.624999999999996
40
0.624999999999996
40
0.628906249999997
40
0.628906249999997
40
0.630859374999998
40
0.630859374999998
40
0.632812499999998
40
0.636718749999998
40
0.638671874999998
40
0.638671874999998
40
0.640624999999998
40
0.640624999999998
40
0.644531249999999
40
0.644531249999999
40
0.646484374999999
40
0.646484374999999
40
0.648437499999999
40
0.648437499999999
40
0.65625
40
0.65625
40
0.658203125
40
0.658203125
40
0.660156250000001
40
0.660156250000001
40
0.664062500000001
40
0.664062500000001
40
0.671875000000001
40
0.671875000000001
40
0.679687500000002
40
0.679687500000002
40
0.683593750000002
40
0.683593750000002
40
0.687500000000002
40
0.687500000000002
40
0.695312500000002
40
0.695312500000002
40
0.703125000000002
40
0.703125000000002
40
0.710937500000001
40
0.710937500000001
40
0.718750000000001
40
0.718750000000001
40
0.734375000000001
40
0.734375000000001
40
0.75
40
0.75
40
0.765625
40
0.765625
40
0.781249999999999
40
0.781249999999999
40
0.796874999999999
40
0.796874999999999
40
0.804687499999998
40
0.804687499999998
40
0.812499999999998
40
0.812499999999998
40
0.843749999999999
40
0.843749999999999
40
0.874999999999999
40
0.874999999999999
40
0.906249999999999
40
0.906249999999999
40
0.9375
40
0.9375
40
0.953125
40
0.953125
40
0.96875
40
0.96875
40
1
40
1
40
1
40
1
41
1
10
16.0893767839138
20
0.389125101802051
30
0
41
1
10
15.8727711328407
20
0.516168964620505
30
0
41
1
10
15.656316009767
20
0.642588219322789
30
0
41
1
10
15.3315264365279
20
0.830723025495104
30
0
41
1
10
15.2232393366148
20
0.893175293744889
30
0
41
1
10
15.0064979608497
20
1.0173633113742
30
0
41
1
10
14.8982161375031
20
1.07899706971938
30
0
41
1
10
14.5735165814819
20
1.26219059328329
30
0
41
1
10
14.3572080236687
20
1.38203110571527
30
0
41
1
10
13.9242085075803
20
1.61608752534215
30
0
41
1
10
13.7075654718771
20
1.73038438528439
30
0
41
1
10
13.2729399082565
20
1.95195214460838
30
0
41
1
10
13.0549051294917
20
2.05912917435026
30
0
41
1
10
12.6159585298866
20
2.26432664853934
30
0
41
1
10
12.39507667497
20
2.36240096528152
30
0
41
1
10
11.9494857823296
20
2.54848152578128
30
0
41
1
10
11.7247704506804
20
2.63647326911789
30
0
41
1
10
11.3837614153984
20
2.75984060150032
30
0
41
1
10
11.2694312245547
20
2.79952220182017
30
0
41
1
10
11.0968533068905
20
2.85683155398217
30
0
41
1
10
11.0391228707926
20
2.87557491106915
30
0
41
1
10
10.9235093326027
20
2.91227579689428
30
0
41
1
10
10.8656092664687
20
2.93024019094446
30
0
41
1
10
10.6916291998445
20
2.98301393243187
30
0
41
1
10
10.5752809351265
20
3.01672958441713
30
0
41
1
10
10.3417166906497
20
3.08109916577115
30
0
41
1
10
10.2244601056278
20
3.11166149620925
30
0
41
1
10
10.0477385654812
20
3.1549721965643
30
0
41
1
10
9.98869634832812
20
3.16899772320153
30
0
41
1
10
9.87048614043022
20
3.1965597735643
30
0
41
1
10
9.81132123709435
20
3.21010370576295
30
0
41
1
10
9.69315927221854
20
3.23732776582452
30
0
41
1
10
9.63416660720904
20
3.25101741686248
30
0
41
1
10
9.51666985364258
20
3.2791710692288
30
0
41
1
10
9.45815368343889
20
3.29361063019624
30
0
41
1
10
9.3710097795568
20
3.31633985128562
30
0
41
1
10
9.34206849596958
20
3.32409759382247
30
0
41
1
10
9.28449898558145
20
3.34016205103967
30
0
41
1
10
9.25588308345516
20
3.34849344536735
30
0
41
1
10
9.19901428801188
20
3.36578220001266
30
0
41
1
10
9.17076157007008
20
3.3747380646856
30
0
41
1
10
9.114186928122
20
3.39240313627184
30
0
41
1
10
9.08585495113633
20
3.40109378334216
30
0
41
1
10
8.94370441100475
20
3.44333781050656
30
0
41
1
10
8.82857124803721
20
3.47358635058623
30
0
41
1
10
8.59579088292699
20
3.52826081950144
30
0
41
1
10
8.47813917999665
20
3.55267497115494
30
0
41
1
10
8.24044763122461
20
3.59642790549529
30
0
41
1
10
8.12041263897459
20
3.61577555667847
30
0
41
1
10
7.75706956754519
20
3.66741539147159
30
0
41
1
10
7.51051896500326
20
3.69333692595868
30
0
41
1
10
7.13514156360603
20
3.72257496196443
30
0
41
1
10
7.00909098939567
20
3.73070277584057
30
0
41
1
10
6.81872618831065
20
3.74073833250714
30
0
41
1
10
6.75503965486888
20
3.74372378322246
30
0
41
1
10
6.62731400696535
20
3.74899983715096
30
0
41
1
10
6.56345288956894
20
3.75128315935356
30
0
41
1
10
6.24415554550657
20
3.76101045903846
30
0
41
1
10
5.98874382710497
20
3.76345836482025
30
0
41
1
10
5.6056618506031
20
3.75999766641968
30
0
41
1
10
5.47797385479808
20
3.75763735459569
30
0
41
1
10
5.2864508679265
20
3.75225662481858
30
0
41
1
10
5.22261137624372
20
3.75015548304671
30
0
41
1
10
5.09493547030681
20
3.74531564644022
30
0
41
1
10
5.03106457316676
20
3.74257492042037
30
0
41
1
10
4.7124165116204
20
3.72722447996017
30
0
41
1
10
4.45940972873936
20
3.70970014734451
30
0
41
1
10
4.08308746716898
20
3.6737086394495
30
0
41
1
10
3.95817991737206
20
3.66008318336654
30
0
41
1
10
3.70960705069757
20
3.62880646342671
30
0
41
1
10
3.58594003002076
20
3.61116290937664
30
0
41
1
10
3.401566522764
20
3.58080698120662
30
0
41
1
10
3.34021760561436
20
3.57002020643137
30
0
41
1
10
3.21837071604588
20
3.54697351163315
30
0
41
1
10
3.15792346099511
20
3.53472567930245
30
0
41
1
10
3.0381401392647
20
3.50849269638607
30
0
41
1
10
2.97880327706278
20
3.49450908961453
30
0
41
1
10
2.861461195495
20
3.46440423908464
30
0
41
1
10
2.803454469983
20
3.4482858682189
30
0
41
1
10
2.68908702614652
20
3.41333631143357
30
0
41
1
10
2.63272198160894
20
3.39451281848685
30
0
41
1
10
2.54977587160158
20
3.36357068530685
30
0
41
1
10
2.52234556676174
20
3.35278044533476
30
0
41
1
10
2.46840060601565
20
3.33024764257866
30
0
41
1
10
2.44189481745221
20
3.31851158351441
30
0
41
1
10
2.36397482985626
20
3.2816728547931
30
0
41
1
10
2.31410906428201
20
3.25497832188685
30
0
41
1
10
2.22026263702009
20
3.19548581633467
30
0
41
1
10
2.17721551970115
20
3.16325423388909
30
0
41
1
10
2.12065568063983
20
3.10964123523107
30
0
41
1
10
2.10314382519019
20
3.09088735096941
30
0
41
1
10
2.0792886204961
20
3.06114661102814
30
0
41
1
10
2.07171322528291
20
3.05092141899519
30
0
41
1
10
2.0576195373973
20
3.03011245992639
30
0
41
1
10
2.03806222499648
20
2.99838428038223
30
0
41
1
10
2.01859981325654
20
2.95391445116536
30
0
41
1
10
2.0094148259893
20
2.918759556098
30
0
41
1
10
2.00453972350803
20
2.89490231082962
30
0
41
1
10
2.00274949918236
20
2.8828588820954
30
0
41
1
10
1.99929398301472
20
2.84668973599247
30
0
41
1
10
1.99950919334822
20
2.8223978553159
30
0
41
1
10
2.00333323260043
20
2.7856899123573
30
0
41
1
10
2.00519334227417
20
2.7734089415388
30
0
41
1
10
2.0100537364151
20
2.74875700384541
30
0
41
1
10
2.0130686416525
20
2.73634431976956
30
0
41
1
10
2.03065800519195
20
2.67489930213105
30
0
41
1
10
2.05273697014283
20
2.62725716430523
30
0
41
1
10
2.08712250644092
20
2.56887966544625
30
0
41
1
10
2.09434415811634
20
2.55726391425094
30
0
41
1
10
2.10942217773046
20
2.53413988074121
30
0
41
1
10
2.11728566058284
20
2.52262407193055
30
0
41
1
10
2.14152736232489
20
2.48854654399818
30
0
41
1
10
2.15862503403736
20
2.4663378108238
30
0
41
1
10
2.21229994881693
20
2.40100820429137
30
0
41
1
10
2.25130365981724
20
2.35921986994762
30
0
41
1
10
2.33354992081726
20
2.2778624038589
30
0
41
1
10
2.37683552490759
20
2.23832704572365
30
0
41
1
10
2.44206654278199
20
2.17869394414231
30
0
41
1
10
2.46384186946244
20
2.15874554964736
30
0
41
1
10
2.5071799867865
20
2.11850398513221
30
0
41
1
10
2.52874697953973
20
2.09821361788445
30
0
41
1
10
2.59310223639591
20
2.03679740648829
30
0
41
1
10
2.63555430517093
20
1.99513137966125
30
0
41
1
10
2.72045591126084
20
1.91100659356596
30
0
41
1
10
2.76295969722375
20
1.86852585776702
30
0
41
1
10
2.84795492547332
20
1.78325291781635
30
0
41
1
10
2.89044402977251
20
1.74042737660943
30
0
41
1
10
2.97532970326984
20
1.65433186235458
30
0
41
1
10
3.01771542453537
20
1.61105133657614
30
0
41
1
10
3.14485630008062
20
1.48066519651695
30
0
41
1
10
3.22963370229272
20
1.39304746252199
30
0
41
1
10
3.40144533783629
20
1.21865336280149
30
0
41
1
10
3.48853654610656
20
1.13193753519076
30
0
41
1
10
3.66532972887677
20
0.959824132765732
30
0
41
1
10
3.75495696160223
20
0.87435426264463
30
0
41
1
10
3.93617894978715
20
0.704187047768897
30
0
41
1
10
4.02775993277464
20
0.619474563236906
30
0
41
1
10
4.21288395903667
20
0.450879801739347
30
0
41
1
10
4.30644374905987
20
0.36701371875742
30
0
41
1
10
4.44854853222253
20
0.242184114603788
30
0
41
1
10
4.49621194025039
20
0.20073689839586
30
0
41
1
10
4.59217436306236
20
0.1182230987759
30
0
41
1
10
4.64053056291792
20
0.0771092665468416
30
0
41
1
10
4.88301109518045
20
-0.126564725363977
30
0
41
1
10
5.07961167562229
20
-0.28362822856883
30
0
41
1
10
5.47883220374561
20
-0.585605435377062
30
0
41
1
10
5.68141295583402
20
-0.730579339798851
30
0
41
1
10
6.09227345406498
20
-1.00944720984123
30
0
41
1
10
6.30053879381848
20
-1.14336104844668
30
0
41
1
10
6.72227187636614
20
-1.40125850482349
30
0
41
1
10
6.93573720115037
20
-1.52524442674439
30
0
41
1
10
7.25947956877124
20
-1.70451826705721
30
0
41
1
10
7.36798459691187
20
-1.76315755289147
30
0
41
1
10
7.58611996397346
20
-1.87830863727163
30
0
41
1
10
7.6956320603035
20
-1.93475677385564
30
0
41
1
10
8.02491440286329
20
-2.10065366143664
30
0
41
1
10
8.2456465834878
20
-2.2067733494508
30
0
41
1
10
8.46741972223649
20
-2.30891121215726
30
0
0
SPLINE
5
C7
100
AcDbEntity
8
1
62
256
6
ByLayer
370
18
48
1
60
0
100
AcDbSpline
70
4
71
3
72
61
73
57
40
0
40
0
40
0
40
0
40
0.0022329342724947
40
0.0188968120229973
40
0.0355606897734999
40
0.0522245675240025
40
0.0688884452745051
40
0.10221620077551
40
0.135543956276516
40
0.152207834027018
40
0.168871711777521
40
0.185535589528023
40
0.202199467278526
40
0.218863345029029
40
0.22719528390428
40
0.235527222779531
40
0.243859161654783
40
0.252191100530034
40
0.260523039405285
40
0.268854978280537
40
0.273020947718162
40
0.277186917155788
40
0.285518856031039
40
0.302182733781542
40
0.318846611532044
40
0.335510489282547
40
0.368838244783552
40
0.402166000284558
40
0.435493755785563
40
0.468821511286568
40
0.502149266787573
40
0.535477022288579
40
0.568804777789584
40
0.602132533290589
40
0.635460288791594
40
0.6687880442926
40
0.702115799793605
40
0.718779677544107
40
0.73544355529461
40
0.752107433045113
40
0.768771310795615
40
0.785435188546118
40
0.802099066296621
40
0.818762944047123
40
0.827094882922374
40
0.835426821797626
40
0.843758760672877
40
0.852090699548128
40
0.868754577298631
40
0.885418455049134
40
0.902082332799636
40
0.918746210550139
40
0.935410088300641
40
0.952073966051144
40
0.968737843801647
40
1
40
1
40
1
40
1
41
1
10
16.0894097005317
20
0.389137838866759
30
0
41
1
10
16.0868453176229
20
0.390388633114924
30
0
41
1
10
16.0651247203805
20
0.400963619515466
30
0
41
1
10
16.0240132451555
20
0.420728843341351
30
0
41
1
10
15.9588753561724
20
0.445305672229864
30
0
41
1
10
15.8858531228848
20
0.466280834433718
30
0
41
1
10
15.7797921212358
20
0.489870232323767
30
0
41
1
10
15.6290359196127
20
0.509588402634733
30
0
41
1
10
15.4546108140893
20
0.516180296807818
30
0
41
1
10
15.3004655112651
20
0.513747564472965
30
0
41
1
10
15.1776739614127
20
0.507927984583461
30
0
41
1
10
15.0482951649357
20
0.49819060149801
30
0
41
1
10
14.9133997639003
20
0.484865415853733
30
0
41
1
10
14.7969367479478
20
0.470891991775915
30
0
41
1
10
14.7004345951988
20
0.457475171437522
30
0
41
1
10
14.6271347028873
20
0.446807504856878
30
0
41
1
10
14.5538986915843
20
0.436200985880021
30
0
41
1
10
14.48215786921
20
0.426642665505597
30
0
41
1
10
14.4130989771702
20
0.418967385012991
30
0
41
1
10
14.3597121148737
20
0.415327943973665
30
0
41
1
10
14.3206186961208
20
0.414643579399893
30
0
41
1
10
14.2810158466859
20
0.413661755307317
30
0
41
1
10
14.208238377324
20
0.409882345659639
30
0
41
1
10
14.095890772215
20
0.399133467829671
30
0
41
1
10
13.9523104950534
20
0.37912162808712
30
0
41
1
10
13.7485182659969
20
0.343617330703324
30
0
41
1
10
13.4753626794314
20
0.284738648879255
30
0
41
1
10
13.1361829706424
20
0.198176108244638
30
0
41
1
10
12.785805441828
20
0.0983588635705246
30
0
41
1
10
12.4272370194843
20
-0.0128338354505217
30
0
41
1
10
12.0704427260608
20
-0.131330641430367
30
0
41
1
10
11.7132289099431
20
-0.257437135331259
30
0
41
1
10
11.3566047734557
20
-0.391022965470086
30
0
41
1
10
10.9990488000352
20
-0.532973604900036
30
0
41
1
10
10.6498320984436
20
-0.680497332028409
30
0
41
1
10
10.3113317201354
20
-0.833985706416456
30
0
41
1
10
10.0419251339645
20
-0.96777273081463
30
0
41
1
10
9.84404773398148
20
-1.07498775515091
30
0
41
1
10
9.70383383489141
20
-1.15654718135309
30
0
41
1
10
9.57588633940159
20
-1.23777822460284
30
0
41
1
10
9.46515628397486
20
-1.31632858230441
30
0
41
1
10
9.37107761217348
20
-1.3930985667439
30
0
41
1
10
9.29831697265593
20
-1.46562985259143
30
0
41
1
10
9.25568764473118
20
-1.52164291004786
30
0
41
1
10
9.23372941582832
20
-1.56295627878546
30
0
41
1
10
9.21959190413421
20
-1.59328170349542
30
0
41
1
10
9.20142977381505
20
-1.62472676238201
30
0
41
1
10
9.17153311495451
20
-1.66824425850078
30
0
41
1
10
9.12801737471332
20
-1.72436177724296
30
0
41
1
10
9.06602893579947
20
-1.79417309389473
30
0
41
1
10
8.99446078124646
20
-1.86624656110826
30
0
41
1
10
8.91884034534297
20
-1.93906750632883
30
0
41
1
10
8.83951013388875
20
-2.0124479701264
30
0
41
1
10
8.75339532715515
20
-2.08709164211609
30
0
41
1
10
8.63215927826261
20
-2.18544776599356
30
0
41
1
10
8.53359770536503
20
-2.2599791650712
30
0
41
1
10
8.46742516219118
20
-2.30890946118637
30
0
0
SPLINE
5
C8
100
AcDbEntity
8
1
62
256
6
ByLayer
370
18
48
1
60
0
100
AcDbSpline
70
4
71
3
72
18
73
14
40
0
40
0
40
0
40
0
40
0.0024254781051055
40
0.0152238758325525
40
0.0282954772304812
40
0.0422855254941399
40
0.11371532738153
40
0.258074272270278
40
0.358152402158659
40
0.47837436905034
40
0.626695439626581
40
0.812142303621984
40
1
40
1
40
1
40
1
41
1
10
79.5349212331439
20
-0.396253373743832
30
0
41
1
10
79.5350175381077
20
-0.395996280832804
30
0
41
1
10
79.535137089596
20
-0.394269489825859
30
0
41
1
10
79.5294898559097
20
-0.389658907666728
30
0
41
1
10
79.5084548505772
20
-0.379667298470224
30
0
41
1
10
79.4300523576703
20
-0.347249578554312
30
0
41
1
10
79.1371328629162
20
-0.235636899314045
30
0
41
1
10
78.7569096608524
20
-0.08302954932131
30
0
41
1
10
78.3012563798023
20
0.111162462714191
30
0
41
1
10
77.826496221012
20
0.328131080019318
30
0
41
1
10
77.2331322189654
20
0.611045219208762
30
0
41
1
10
76.5647761289596
20
0.941930223964306
30
0
41
1
10
76.0894526765314
20
1.18886275086598
30
0
41
1
10
75.8516639378427
20
1.31523240422496
30
0
0
SPLINE
5
C9
100
AcDbEntity
8
1
62
256
6
ByLayer
370
18
48
1
60
0
100
AcDbSpline
70
4
71
3
72
14
73
10
40
0
40
0
40
0
40
0
40
0.0351002525906399
40
0.135737221765172
40
0.232674382182719
40
0.338321782228941
40
0.461722719175452
40
0.744252349710741
40
1
40
1
40
1
40
1
41
1
10
28.7322263199999
20
0.0732874019872725
30
0
41
1
10
28.7359053378452
20
0.0807703841683178
30
0
41
1
10
28.7424273610685
20
0.110014713877547
30
0
41
1
10
28.6867495831039
20
0.160624235519833
30
0
41
1
10
28.4983283195009
20
0.25388227142156
30
0
41
1
10
28.2236969785282
20
0.384591523200811
30
0
41
1
10
27.7431880921974
20
0.613462285998509
30
0
41
1
10
27.1326842191312
20
0.915576544711229
30
0
41
1
10
26.6392889679091
20
1.17153954765271
30
0
41
1
10
26.4062682663565
20
1.29517273906143
30
0
0
SPLINE
5
CA
100
AcDbEntity
8
1
62
256
6
ByLayer
370
18
48
1
60
0
100
AcDbSpline
70
4
71
3
72
16
73
12
40
0
40
0
40
0
40
0
40
0.0544853898194897
40
0.116055073153904
40
0.176383966205857
40
0.264035097000202
40
0.365888665944935
40
0.48245614442681
40
0.625189633993715
40
0.815733530706439
40
1
40
1
40
1
40
1
41
1
10
54.4597699563641
20
-0.311881422157654
30
0
41
1
10
54.4625960992664
20
-0.300850006952373
30
0
41
1
10
54.4556855543649
20
-0.27072062984206
30
0
41
1
10
54.3607864753546
20
-0.223072643304221
30
0
41
1
10
54.1673438920655
20
-0.14297783143229
30
0
41
1
10
53.8617026743909
20
-0.0183893101006447
30
0
41
1
10
53.4900012331245
20
0.14313269873341
30
0
41
1
10
53.0447597517147
20
0.346033883644736
30
0
41
1
10
52.4906397975286
20
0.611680021658685
30
0
41
1
10
51.854534350302
20
0.926692831074206
30
0
41
1
10
51.3931977515237
20
1.16569973165724
30
0
41
1
10
51.1663798516407
20
1.28556660284991
30
0
0
LINE
5
7D
100
AcDbEntity
8
80
62
256
6
ByLayer
370
18
48
1
60
0
100
AcDbLine
10
0
20
0
30
0
11
-5
21
0
31
0
39
0
210
0
220
0
230
1
0
LINE
5
7E
100
AcDbEntity
8
4
62
256
6
ByLayer
370
18
48
0.05
60
0
100
AcDbLine
10
-5
20
0
30
0
11
88
21
0
31
0
39
0
210
0
220
0
230
1
0
LINE
5
80
100
AcDbEntity
8
SK4
62
256
6
ByLayer
370
18
48
0.05
60
0
100
AcDbLine
10
-47
20
0
30
0
11
88
21
0
31
0
39
0
210
0
220
0
230
1
0
LINE
5
82
100
AcDbEntity
8
81
62
256
6
ByLayer
370
18
48
1
60
0
100
AcDbLine
10
83
20
0
30
0
11
88
21
0
31
0
39
0
210
0
220
0
230
1
0
LINE
5
83
100
AcDbEntity
8
1
62
256
6
ByLayer
370
18
48
1
60
0
100
AcDbLine
10
0
20
4.3655
30
0
11
0
21
-4.3655
31
0
39
0
210
0
220
0
230
1
0
LINE
5
84
100
AcDbEntity
8
1
62
256
6
ByLayer
370
18
48
1
60
0
100
AcDbLine
10
80.639249
20
-4.3655
30
0
11
80.639249
21
-1.300083
31
0
39
0
210
0
220
0
230
1
0
LINE
5
85
100
AcDbEntity
8
1
62
256
6
ByLayer
370
18
48
1
60
0
100
AcDbLine
10
80.639249
20
4.3655
30
0
11
80.639249
21
4.226806
31
0
39
0
210
0
220
0
230
1
0
LINE
5
86
100
AcDbEntity
8
1
62
256
6
ByLayer
370
18
48
1
60
0
100
AcDbLine
10
0.4
20
-4.33541
30
0
11
0.4
21
4.33541
31
0
39
0
210
0
220
0
230
1
0
LINE
5
87
100
AcDbEntity
8
SK1
62
256
6
ByLayer
370
18
48
1
60
0
100
AcDbLine
10
0
20
4.3655
30
0
11
0
21
-4.3655
31
0
39
0
210
0
220
0
230
1
0
LINE
5
89
100
AcDbEntity
8
SK1
62
256
6
ByLayer
370
18
48
1
60
0
100
AcDbLine
10
-42
20
-3.615
30
0
11
-42
21
3.615
31
0
39
0
210
0
220
0
230
1
0
LINE
5
8A
100
AcDbEntity
8
SK1
62
256
6
ByLayer
370
18
48
1
60
0
100
AcDbLine
10
-41.2495
20
-4.3655
30
0
11
-41.2495
21
4.3655
31
0
39
0
210
0
220
0
230
1
0
LINE
5
8B
100
AcDbEntity
8
1
62
256
6
ByLayer
370
18
48
1
60
0
100
AcDbLine
10
83
20
0
30
0
11
80.639249
21
4.3655
31
0
39
0
210
0
220
0
230
1
0
LINE
5
8C
100
AcDbEntity
8
1
62
256
6
ByLayer
370
18
48
1
60
0
100
AcDbLine
10
80.639249
20
-4.3655
30
0
11
83
21
0
31
0
39
0
210
0
220
0
230
1
0
LINE
5
8D
100
AcDbEntity
8
1
62
256
6
ByLayer
370
18
48
1
60
0
100
AcDbLine
10
0.4
20
4.33541
30
0
11
0
21
4.3655
31
0
39
0
210
0
220
0
230
1
0
LINE
5
8E
100
AcDbEntity
8
1
62
256
6
ByLayer
370
18
48
1
60
0
100
AcDbLine
10
0
20
-4.3655
30
0
11
0.4
21
-4.33541
31
0
39
0
210
0
220
0
230
1
0
LINE
5
8F
100
AcDbEntity
8
1
62
256
6
ByLayer
370
18
48
1
60
0
100
AcDbLine
10
0.4
20
-4.33541
30
0
11
16.417491
21
-4.341417
31
0
39
0
210
0
220
0
230
1
0
LINE
5
90
100
AcDbEntity
8
1
62
256
6
ByLayer
370
18
48
1
60
0
100
AcDbLine
10
29.167035
20
-4.346198
30
0
11
41.154134
21
-4.350693
31
0
39
0
210
0
220
0
230
1
0
LINE
5
91
100
AcDbEntity
8
1
62
256
6
ByLayer
370
18
48
1
60
0
100
AcDbLine
10
53.907131
20
-4.355475
30
0
11
65.889736
21
-4.359969
31
0
39
0
210
0
220
0
230
1
0
LINE
5
92
100
AcDbEntity
8
1
62
256
6
ByLayer
370
18
48
1
60
0
100
AcDbLine
10
78.648765
20
-4.364754
30
0
11
80.639249
21
-4.3655
31
0
39
0
210
0
220
0
230
1
0
LINE
5
93
100
AcDbEntity
8
1
62
256
6
ByLayer
370
18
48
1
60
0
100
AcDbLine
10
80.639249
20
4.3655
30
0
11
78.648765
21
4.364754
31
0
39
0
210
0
220
0
230
1
0
LINE
5
94
100
AcDbEntity
8
1
62
256
6
ByLayer
370
18
48
1
60
0
100
AcDbLine
10
65.889736
20
4.359969
30
0
11
53.907131
21
4.355475
31
0
39
0
210
0
220
0
230
1
0
LINE
5
95
100
AcDbEntity
8
1
62
256
6
ByLayer
370
18
48
1
60
0
100
AcDbLine
10
41.154134
20
4.350693
30
0
11
29.167035
21
4.346198
31
0
39
0
210
0
220
0
230
1
0
LINE
5
96
100
AcDbEntity
8
1
62
256
6
ByLayer
370
18
48
1
60
0
100
AcDbLine
10
16.417491
20
4.341417
30
0
11
0.4
21
4.33541
31
0
39
0
210
0
220
0
230
1
0
LINE
5
97
100
AcDbEntity
8
SK1
62
256
6
ByLayer
370
18
48
1
60
0
100
AcDbLine
10
-41.2495
20
-4.3655
30
0
11
0
21
-4.3655
31
0
39
0
210
0
220
0
230
1
0
LINE
5
98
100
AcDbEntity
8
SK1
62
256
6
ByLayer
370
18
48
1
60
0
100
AcDbLine
10
0
20
4.3655
30
0
11
-41.2495
21
4.3655
31
0
39
0
210
0
220
0
230
1
0
LINE
5
99
100
AcDbEntity
8
SK1
62
256
6
ByLayer
370
18
48
1
60
0
100
AcDbLine
10
-42
20
-3.615
30
0
11
-41.2495
21
-4.3655
31
0
39
0
210
0
220
0
230
1
0
LINE
5
9A
100
AcDbEntity
8
SK1
62
256
6
ByLayer
370
18
48
1
60
0
100
AcDbLine
10
-41.2495
20
4.3655
30
0
11
-42
21
3.615
31
0
39
0
210
0
220
0
230
1
0
LINE
5
9B
100
AcDbEntity
8
SK2
62
256
6
ByLayer
370
13
48
1
60
0
100
AcDbLine
10
-48.5
20
-4.3655
30
0
11
-48.5
21
30.398355
31
0
39
0
210
0
220
0
230
1
0
LINE
5
9D
100
AcDbEntity
8
SK2
62
256
6
ByLayer
370
13
48
1
60
0
100
AcDbLine
10
-43.5875
20
4.3655
30
0
11
-50.5
21
4.3655
31
0
39
0
210
0
220
0
230
1
0
LINE
5
9E
100
AcDbEntity
8
SK2
62
256
6
ByLayer
370
13
48
1
60
0
100
AcDbLine
10
-43.5875
20
-4.3655
30
0
11
-50.5
21
-4.3655
31
0
39
0
210
0
220
0
230
1
0
LINE
5
9F
100
AcDbEntity
8
1
62
256
6
ByLayer
370
18
48
1
60
1
100
AcDbLine
10
-48.5
20
4.3655
30
0
11
-48.039216
21
0.865502
31
0
39
0
210
0
220
0
230
1
0
LINE
5
A0
100
AcDbEntity
8
1
62
256
6
ByLayer
370
18
48
1
60
1
100
AcDbLine
10
-48.039216
20
0.865502
30
0
11
-48.960784
21
0.865498
31
0
39
0
210
0
220
0
230
1
0
LINE
5
A1
100
AcDbEntity
8
1
62
256
6
ByLayer
370
18
48
1
60
1
100
AcDbLine
10
-48.960784
20
0.865498
30
0
11
-48.5
21
4.3655
31
0
39
0
210
0
220
0
230
1
0
LINE
5
A2
100
AcDbEntity
8
1
62
256
6
ByLayer
370
18
48
1
60
1
100
AcDbLine
10
-48.5
20
-4.3655
30
0
11
-48.960784
21
-0.865502
31
0
39
0
210
0
220
0
230
1
0
LINE
5
A3
100
AcDbEntity
8
1
62
256
6
ByLayer
370
18
48
1
60
1
100
AcDbLine
10
-48.960784
20
-0.865502
30
0
11
-48.039216
21
-0.865498
31
0
39
0
210
0
220
0
230
1
0
LINE
5
A4
100
AcDbEntity
8
1
62
256
6
ByLayer
370
18
48
1
60
1
100
AcDbLine
10
-48.039216
20
-0.865498
30
0
11
-48.5
21
-4.3655
31
0
39
0
210
0
220
0
230
1
0
LINE
5
A5
100
AcDbEntity
8
2
62
256
6
ByLayer
370
13
48
1
60
0
100
AcDbLine
10
90.139249
20
-4.3655
30
0
11
90.139249
21
30.398355
31
0
39
0
210
0
220
0
230
1
0
LINE
5
A7
100
AcDbEntity
8
2
62
256
6
ByLayer
370
13
48
1
60
0
100
AcDbLine
10
82.226749
20
4.3655
30
0
11
92.139249
21
4.3655
31
0
39
0
210
0
220
0
230
1
0
LINE
5
A8
100
AcDbEntity
8
2
62
256
6
ByLayer
370
13
48
1
60
0
100
AcDbLine
10
82.226749
20
-4.3655
30
0
11
92.139249
21
-4.3655
31
0
39
0
210
0
220
0
230
1
0
LINE
5
A9
100
AcDbEntity
8
1
62
256
6
ByLayer
370
18
48
1
60
1
100
AcDbLine
10
90.139249
20
4.3655
30
0
11
90.600032
21
0.865502
31
0
39
0
210
0
220
0
230
1
0
LINE
5
AA
100
AcDbEntity
8
1
62
256
6
ByLayer
370
18
48
1
60
1
100
AcDbLine
10
90.600032
20
0.865502
30
0
11
89.678465
21
0.865498
31
0
39
0
210
0
220
0
230
1
0
LINE
5
AB
100
AcDbEntity
8
1
62
256
6
ByLayer
370
18
48
1
60
1
100
AcDbLine
10
89.678465
20
0.865498
30
0
11
90.139249
21
4.3655
31
0
39
0
210
0
220
0
230
1
0
LINE
5
AC
100
AcDbEntity
8
1
62
256
6
ByLayer
370
18
48
1
60
1
100
AcDbLine
10
90.139249
20
-4.3655
30
0
11
89.678465
21
-0.865502
31
0
39
0
210
0
220
0
230
1
0
LINE
5
AD
100
AcDbEntity
8
1
62
256
6
ByLayer
370
18
48
1
60
1
100
AcDbLine
10
89.678465
20
-0.865502
30
0
11
90.600032
21
-0.865498
31
0
39
0
210
0
220
0
230
1
0
LINE
5
AE
100
AcDbEntity
8
1
62
256
6
ByLayer
370
18
48
1
60
1
100
AcDbLine
10
90.600032
20
-0.865498
30
0
11
90.139249
21
-4.3655
31
0
39
0
210
0
220
0
230
1
0
LINE
5
AF
100
AcDbEntity
8
2
62
256
6
ByLayer
370
13
48
1
60
0
100
AcDbLine
10
83.755136
20
-1.396397
30
0
11
94.416232
21
-21.110889
31
0
39
0
210
0
220
0
230
1
0
LINE
5
B0
100
AcDbEntity
8
2
62
256
6
ByLayer
370
13
48
1
60
0
100
AcDbLine
10
83.755136
20
1.396397
30
0
11
94.416232
21
21.110889
31
0
39
0
210
0
220
0
230
1
0
LINE
5
B1
100
AcDbEntity
8
1
62
256
6
ByLayer
370
18
48
1
60
1
100
AcDbLine
10
93.464879
20
-19.351649
30
0
11
96.239971
21
-17.169637
31
0
39
0
210
0
220
0
230
1
0
LINE
5
B2
100
AcDbEntity
8
1
62
256
6
ByLayer
370
18
48
1
60
1
100
AcDbLine
10
96.239971
20
-17.169637
30
0
11
96.710161
21
-17.962233
31
0
39
0
210
0
220
0
230
1
0
LINE
5
B3
100
AcDbEntity
8
1
62
256
6
ByLayer
370
18
48
1
60
1
100
AcDbLine
10
96.710161
20
-17.962233
30
0
11
93.464879
21
-19.351649
31
0
39
0
210
0
220
0
230
1
0
LINE
5
B4
100
AcDbEntity
8
1
62
256
6
ByLayer
370
18
48
1
60
1
100
AcDbLine
10
93.464879
20
19.351649
30
0
11
96.710158
21
17.962234
31
0
39
0
210
0
220
0
230
1
0
LINE
5
B5
100
AcDbEntity
8
1
62
256
6
ByLayer
370
18
48
1
60
1
100
AcDbLine
10
96.710158
20
17.962234
30
0
11
96.239974
21
17.169635
31
0
39
0
210
0
220
0
230
1
0
LINE
5
B6
100
AcDbEntity
8
1
62
256
6
ByLayer
370
18
48
1
60
1
100
AcDbLine
10
96.239974
20
17.169635
30
0
11
93.464879
21
19.351649
31
0
39
0
210
0
220
0
230
1
0
LINE
5
CF
100
AcDbEntity
8
1
62
256
6
ByLayer
370
18
48
1
60
1
100
AcDbLine
10
-48.5
20
4.3655
30
0
11
-48.039216
21
0.865502
31
0
39
0
210
0
220
0
230
1
0
LINE
5
D0
100
AcDbEntity
8
1
62
256
6
ByLayer
370
18
48
1
60
1
100
AcDbLine
10
-48.039216
20
0.865502
30
0
11
-48.960784
21
0.865498
31
0
39
0
210
0
220
0
230
1
0
LINE
5
D1
100
AcDbEntity
8
1
62
256
6
ByLayer
370
18
48
1
60
1
100
AcDbLine
10
-48.960784
20
0.865498
30
0
11
-48.5
21
4.3655
31
0
39
0
210
0
220
0
230
1
0
LINE
5
D3
100
AcDbEntity
8
1
62
256
6
ByLayer
370
18
48
1
60
1
100
AcDbLine
10
-48.5
20
-4.3655
30
0
11
-48.960784
21
-0.865502
31
0
39
0
210
0
220
0
230
1
0
LINE
5
D4
100
AcDbEntity
8
1
62
256
6
ByLayer
370
18
48
1
60
1
100
AcDbLine
10
-48.960784
20
-0.865502
30
0
11
-48.039216
21
-0.865498
31
0
39
0
210
0
220
0
230
1
0
LINE
5
D5
100
AcDbEntity
8
1
62
256
6
ByLayer
370
18
48
1
60
1
100
AcDbLine
10
-48.039216
20
-0.865498
30
0
11
-48.5
21
-4.3655
31
0
39
0
210
0
220
0
230
1
0
LINE
5
D9
100
AcDbEntity
8
1
62
256
6
ByLayer
370
18
48
1
60
1
100
AcDbLine
10
90.139249
20
4.3655
30
0
11
90.600032
21
0.865502
31
0
39
0
210
0
220
0
230
1
0
LINE
5
DA
100
AcDbEntity
8
1
62
256
6
ByLayer
370
18
48
1
60
1
100
AcDbLine
10
90.600032
20
0.865502
30
0
11
89.678465
21
0.865498
31
0
39
0
210
0
220
0
230
1
0
LINE
5
DB
100
AcDbEntity
8
1
62
256
6
ByLayer
370
18
48
1
60
1
100
AcDbLine
10
89.678465
20
0.865498
30
0
11
90.139249
21
4.3655
31
0
39
0
210
0
220
0
230
1
0
LINE
5
DD
100
AcDbEntity
8
1
62
256
6
ByLayer
370
18
48
1
60
1
100
AcDbLine
10
90.139249
20
-4.3655
30
0
11
89.678465
21
-0.865502
31
0
39
0
210
0
220
0
230
1
0
LINE
5
DE
100
AcDbEntity
8
1
62
256
6
ByLayer
370
18
48
1
60
1
100
AcDbLine
10
89.678465
20
-0.865502
30
0
11
90.600032
21
-0.865498
31
0
39
0
210
0
220
0
230
1
0
LINE
5
DF
100
AcDbEntity
8
1
62
256
6
ByLayer
370
18
48
1
60
1
100
AcDbLine
10
90.600032
20
-0.865498
30
0
11
90.139249
21
-4.3655
31
0
39
0
210
0
220
0
230
1
0
LINE
5
E2
100
AcDbEntity
8
1
62
256
6
ByLayer
370
18
48
1
60
1
100
AcDbLine
10
93.464879
20
-19.351649
30
0
11
96.239971
21
-17.169637
31
0
39
0
210
0
220
0
230
1
0
LINE
5
E3
100
AcDbEntity
8
1
62
256
6
ByLayer
370
18
48
1
60
1
100
AcDbLine
10
96.239971
20
-17.169637
30
0
11
96.710161
21
-17.962233
31
0
39
0
210
0
220
0
230
1
0
LINE
5
E4
100
AcDbEntity
8
1
62
256
6
ByLayer
370
18
48
1
60
1
100
AcDbLine
10
96.710161
20
-17.962233
30
0
11
93.464879
21
-19.351649
31
0
39
0
210
0
220
0
230
1
0
LINE
5
E6
100
AcDbEntity
8
1
62
256
6
ByLayer
370
18
48
1
60
1
100
AcDbLine
10
93.464879
20
19.351649
30
0
11
96.710158
21
17.962234
31
0
39
0
210
0
220
0
230
1
0
LINE
5
E7
100
AcDbEntity
8
1
62
256
6
ByLayer
370
18
48
1
60
1
100
AcDbLine
10
96.710158
20
17.962234
30
0
11
96.239974
21
17.169635
31
0
39
0
210
0
220
0
230
1
0
LINE
5
E8
100
AcDbEntity
8
1
62
256
6
ByLayer
370
18
48
1
60
1
100
AcDbLine
10
96.239974
20
17.169635
30
0
11
93.464879
21
19.351649
31
0
39
0
210
0
220
0
230
1
0
MTEXT
5
CB
100
AcDbEntity
8
SK2
62
256
6
ByLayer
370
18
48
1
60
0
100
AcDbMText
10
-49.841114
20
16.023937
30
0
210
0
220
0
230
1
1
%%c
40
3
41
0
44
1.084337
50
90
71
7
72
5
7
iso_b_vert
0
MTEXT
5
CE
100
AcDbEntity
8
SK2
62
256
6
ByLayer
370
18
48
1
60
0
100
AcDbMText
10
-49.841114
20
22.0005
30
0
210
0
220
0
230
1
1
\W0.7373;8.731
40
3
41
0
44
1.084337
50
90
71
7
72
5
7
iso_b_vert
0
MTEXT
5
D7
100
AcDbEntity
8
2
62
256
6
ByLayer
370
18
48
1
60
0
100
AcDbMText
10
88.798134
20
16.023937
30
0
210
0
220
0
230
1
1
%%c
40
3
41
0
44
1.084337
50
90
71
7
72
5
7
iso_b_vert
0
MTEXT
5
D8
100
AcDbEntity
8
2
62
256
6
ByLayer
370
18
48
1
60
0
100
AcDbMText
10
88.798134
20
22.0005
30
0
210
0
220
0
230
1
1
\W0.7373;8.731
40
3
41
0
44
1.084337
50
90
71
7
72
5
7
iso_b_vert
0
MTEXT
5
E1
100
AcDbEntity
8
2
62
256
6
ByLayer
370
18
48
1
60
0
100
AcDbMText
10
102.092229
20
-2.114886
30
0
210
0
220
0
230
1
1
\W0.6008;118%%d
40
3
41
0
44
1.084337
50
0
71
7
72
5
7
iso_b_vert
0
MTEXT
5
EA
100
AcDbEntity
8
SK6
62
256
6
ByLayer
370
18
48
1
60
0
100
AcDbMText
10
11.808905
20
-67.114886
30
0
210
0
220
0
230
1
1
\W0.7292;R00311/32
40
3
41
0
44
1.084337
50
0
71
7
72
5
7
iso_b_vert
0
HATCH
5
D2
100
AcDbEntity
8
SK2
62
256
6
ByLayer
370
13
48
1
60
0
100
AcDbHatch
10
0
20
0
30
0
210
0
220
0
230
1
2
ANSI31
70
0
71
0
91
1
92
5
93
3
72
1
10
-48.5
20
4.3655
11
-48.0392162584472
21
0.865501692553181
72
1
10
-48.0392162584472
20
0.865501692553181
11
-48.9607837415528
21
0.865498307446813
72
1
10
-48.9607837415528
20
0.865498307446813
11
-48.5
21
4.3655
97
0
75
0
76
1
52
0
41
0.0062
77
0
78
1
53
45
43
0
44
0
45
-0.0139193969876572
46
0.0139193969876572
79
0
47
0
98
1
10
0
20
0
0
HATCH
5
D6
100
AcDbEntity
8
SK2
62
256
6
ByLayer
370
13
48
1
60
0
100
AcDbHatch
10
0
20
0
30
0
210
0
220
0
230
1
2
ANSI31
70
0
71
0
91
1
92
5
93
3
72
1
10
-48.5
20
-4.3655
11
-48.9607837415528
21
-0.865501692553181
72
1
10
-48.9607837415528
20
-0.865501692553181
11
-48.0392162584472
21
-0.865498307446813
72
1
10
-48.0392162584472
20
-0.865498307446813
11
-48.5
21
-4.3655
97
0
75
0
76
1
52
0
41
0.0062
77
0
78
1
53
45
43
0
44
0
45
-0.0139193969876572
46
0.0139193969876572
79
0
47
0
98
1
10
0
20
0
0
HATCH
5
DC
100
AcDbEntity
8
2
62
256
6
ByLayer
370
13
48
1
60
0
100
AcDbHatch
10
0
20
0
30
0
210
0
220
0
230
1
2
ANSI31
70
0
71
0
91
1
92
5
93
3
72
1
10
90.1392486708717
20
4.3655
11
90.6000324124245
21
0.865501692553181
72
1
10
90.6000324124245
20
0.865501692553181
11
89.6784649293189
21
0.865498307446813
72
1
10
89.6784649293189
20
0.865498307446813
11
90.1392486708717
21
4.3655
97
0
75
0
76
1
52
0
41
0.0062
77
0
78
1
53
45
43
0
44
0
45
-0.0139193969876572
46
0.0139193969876572
79
0
47
0
98
1
10
0
20
0
0
HATCH
5
E0
100
AcDbEntity
8
2
62
256
6
ByLayer
370
13
48
1
60
0
100
AcDbHatch
10
0
20
0
30
0
210
0
220
0
230
1
2
ANSI31
70
0
71
0
91
1
92
5
93
3
72
1
10
90.1392486708717
20
-4.3655
11
89.6784649293189
21
-0.865501692553181
72
1
10
89.6784649293189
20
-0.865501692553181
11
90.6000324124245
21
-0.865498307446813
72
1
10
90.6000324124245
20
-0.865498307446813
11
90.1392486708717
21
-4.3655
97
0
75
0
76
1
52
0
41
0.0062
77
0
78
1
53
45
43
0
44
0
45
-0.0139193969876572
46
0.0139193969876572
79
0
47
0
98
1
10
0
20
0
0
HATCH
5
E5
100
AcDbEntity
8
2
62
256
6
ByLayer
370
13
48
1
60
0
100
AcDbHatch
10
0
20
0
30
0
210
0
220
0
230
1
2
ANSI31
70
0
71
0
91
1
92
5
93
3
72
1
10
93.464879198752
20
-19.3516485952885
11
96.2399711078382
21
-17.1696369764527
72
1
10
96.2399711078382
20
-17.1696369764527
11
96.710161392925
21
-17.9622325364573
72
1
10
96.710161392925
20
-17.9622325364573
11
93.464879198752
21
-19.3516485952885
97
0
75
0
76
1
52
0
41
0.0062
77
0
78
1
53
45
43
0
44
0
45
-0.0139193969876572
46
0.0139193969876572
79
0
47
0
98
1
10
0
20
0
0
HATCH
5
E9
100
AcDbEntity
8
2
62
256
6
ByLayer
370
13
48
1
60
0
100
AcDbHatch
10
0
20
0
30
0
210
0
220
0
230
1
2
ANSI31
70
0
71
0
91
1
92
5
93
3
72
1
10
93.464879198752
20
19.3516485952885
11
96.7101584815526
21
17.9622342635519
72
1
10
96.7101584815526
20
17.9622342635519
11
96.2399740192106
21
17.1696352493581
72
1
10
96.2399740192106
20
17.1696352493581
11
93.464879198752
21
19.3516485952885
97
0
75
0
76
1
52
0
41
0.0062
77
0
78
1
53
45
43
0
44
0
45
-0.0139193969876572
46
0.0139193969876572
79
0
47
0
98
1
10
0
20
0
0
DIMENSION
5
ED
100
AcDbEntity
8
SK2
62
256
6
ByLayer
370
18
48
1
60
0
100
AcDbDimension
2
_U0
10
83
20
-49.2287
30
0
11
20.5
21
-49.2287
31
0
70
32
71
1
72
1
41
1
210
0
220
0
230
1
3
Standard
100
AcDbAlignedDimension
13
-42
23
-4.3655
33
0
14
83
24
0
34
0
50
0
100
AcDbRotatedDimension
1001
ACAD
1000
DSTYLE
1002
{
1070
   371
1070
    13
1070
   372
1070
    13
1070
     3
1000

1070
   170
1070
     0
1070
   144
1040
1.0
1070
   277
1070
     2
1070
   284
1070
     8
1070
   278
1070
    46
1070
   146
1040
1.166667
1070
   345
1005
16
1070
   347
1005
16
1070
   346
1005
16
1070
   344
1005
0
1070
   343
1005
0
1070
   172
1070
     1
1070
    76
1070
     0
1070
    75
1070
     0
1070
   282
1070
     0
1070
   281
1070
     0
1070
    71
1070
     0
1070
    74
1070
     0
1070
   279
1070
     0
1070
   173
1070
     1
1070
   340
1005
CC
1070
   271
1070
     2
1070
   272
1070
     3
1070
    77
1070
     1
1070
    73
1070
     1
1070
   171
1070
     3
1070
   274
1070
     4
1070
   177
1070
     2
1070
   176
1070
     2
1070
   178
1070
     2
1070
    78
1070
     8
1070
    48
1040
-0.1
1070
    41
1040
3.5
1070
   147
1040
1.5
1070
    42
1040
1.5875
1070
    44
1040
2.0
1070
   140
1040
3.0
1002
}
1001
ACAD_DSTYLE_DIM_LINETYPE
1070
   380
1005
16
1001
ACAD_DSTYLE_DIM_EXT1_LINETYPE
1070
   381
1005
16
1001
ACAD_DSTYLE_DIM_EXT2_LINETYPE
1070
   382
1005
16
0
DIMENSION
5
106
100
AcDbEntity
8
2
62
256
6
ByLayer
370
18
48
1
60
0
100
AcDbDimension
2
_U1
10
2
20
-39.2287
30
0
11
42.5
21
-39.2287
31
0
70
32
71
1
72
1
41
1
210
0
220
0
230
1
3
Standard
100
AcDbAlignedDimension
13
83
23
0
33
0
14
2
24
-4.3655
34
0
50
0
100
AcDbRotatedDimension
1001
ACAD
1000
DSTYLE
1002
{
1070
   371
1070
    13
1070
   372
1070
    13
1070
     3
1000

1070
   170
1070
     0
1070
   144
1040
1.0
1070
   277
1070
     2
1070
   284
1070
     8
1070
   278
1070
    46
1070
   146
1040
1.166667
1070
   345
1005
16
1070
   347
1005
16
1070
   346
1005
16
1070
   344
1005
0
1070
   343
1005
0
1070
   172
1070
     1
1070
    76
1070
     0
1070
    75
1070
     0
1070
   282
1070
     0
1070
   281
1070
     0
1070
    71
1070
     0
1070
    74
1070
     0
1070
   279
1070
     0
1070
   173
1070
     1
1070
   340
1005
CC
1070
   271
1070
     2
1070
   272
1070
     3
1070
    77
1070
     1
1070
    73
1070
     1
1070
   171
1070
     3
1070
   274
1070
     4
1070
   177
1070
     2
1070
   176
1070
     2
1070
   178
1070
     2
1070
    78
1070
     8
1070
    48
1040
-0.1
1070
    41
1040
3.5
1070
   147
1040
1.5
1070
    42
1040
1.5875
1070
    44
1040
2.0
1070
   140
1040
3.0
1002
}
1001
ACAD_DSTYLE_DIM_LINETYPE
1070
   380
1005
16
1001
ACAD_DSTYLE_DIM_EXT1_LINETYPE
1070
   381
1005
16
1001
ACAD_DSTYLE_DIM_EXT2_LINETYPE
1070
   382
1005
16
0
DIMENSION
5
11E
100
AcDbEntity
8
SK2
62
256
6
ByLayer
370
18
48
1
60
0
100
AcDbDimension
2
_U2
10
0
20
-34.2287
30
0
11
-21
21
-34.2287
31
0
70
32
71
1
72
1
41
1
210
0
220
0
230
1
3
Standard
100
AcDbAlignedDimension
13
-42
23
-4.3655
33
0
14
0
24
-4.3655
34
0
50
0
100
AcDbRotatedDimension
1001
ACAD
1000
DSTYLE
1002
{
1070
   371
1070
    13
1070
   372
1070
    13
1070
     3
1000

1070
   170
1070
     0
1070
   144
1040
1.0
1070
   277
1070
     2
1070
   284
1070
     8
1070
   278
1070
    46
1070
   146
1040
1.166667
1070
   345
1005
16
1070
   347
1005
16
1070
   346
1005
16
1070
   344
1005
0
1070
   343
1005
0
1070
   172
1070
     1
1070
    76
1070
     0
1070
    75
1070
     0
1070
   282
1070
     0
1070
   281
1070
     0
1070
    71
1070
     0
1070
    74
1070
     0
1070
   279
1070
     0
1070
   173
1070
     1
1070
   340
1005
CC
1070
   271
1070
     2
1070
   272
1070
     3
1070
    77
1070
     1
1070
    73
1070
     1
1070
   171
1070
     3
1070
   274
1070
     4
1070
   177
1070
     2
1070
   176
1070
     2
1070
   178
1070
     2
1070
    78
1070
     8
1070
    48
1040
-0.1
1070
    41
1040
3.5
1070
   147
1040
1.5
1070
    42
1040
1.5875
1070
    44
1040
2.0
1070
   140
1040
3.0
1002
}
1001
ACAD_DSTYLE_DIM_LINETYPE
1070
   380
1005
16
1001
ACAD_DSTYLE_DIM_EXT1_LINETYPE
1070
   381
1005
16
1001
ACAD_DSTYLE_DIM_EXT2_LINETYPE
1070
   382
1005
16
0
DIMENSION
5
136
100
AcDbEntity
8
2
62
256
6
ByLayer
370
18
48
1
60
0
100
AcDbDimension
2
_U3
10
22.25
20
-32.2287
30
0
11
52.625
21
-32.2287
31
0
70
32
71
1
72
1
41
1
210
0
220
0
230
1
3
Standard
100
AcDbAlignedDimension
13
83
23
0
33
0
14
22.25
24
-4.3655
34
0
50
0
100
AcDbRotatedDimension
1001
ACAD
1000
DSTYLE
1002
{
1070
   371
1070
    13
1070
   372
1070
    13
1070
     3
1000

1070
   170
1070
     0
1070
   144
1040
1.0
1070
   277
1070
     2
1070
   284
1070
     8
1070
   278
1070
    46
1070
   146
1040
1.166667
1070
   345
1005
16
1070
   347
1005
16
1070
   346
1005
16
1070
   344
1005
0
1070
   343
1005
0
1070
   172
1070
     1
1070
    76
1070
     0
1070
    75
1070
     0
1070
   282
1070
     0
1070
   281
1070
     0
1070
    71
1070
     0
1070
    74
1070
     0
1070
   279
1070
     0
1070
   173
1070
     1
1070
   340
1005
CC
1070
   271
1070
     2
1070
   272
1070
     3
1070
    77
1070
     1
1070
    73
1070
     1
1070
   171
1070
     3
1070
   274
1070
     4
1070
   177
1070
     2
1070
   176
1070
     2
1070
   178
1070
     2
1070
    78
1070
     8
1070
    48
1040
-0.1
1070
    41
1040
3.5
1070
   147
1040
1.5
1070
    42
1040
1.5875
1070
    44
1040
2.0
1070
   140
1040
3.0
1002
}
1001
ACAD_DSTYLE_DIM_LINETYPE
1070
   380
1005
16
1001
ACAD_DSTYLE_DIM_EXT1_LINETYPE
1070
   381
1005
16
1001
ACAD_DSTYLE_DIM_EXT2_LINETYPE
1070
   382
1005
16
0
ENDSEC
0
SECTION
2
OBJECTS
0
DICTIONARY
5
1c0
330
0
100
AcDbDictionary
280
0
281
1
3
ACAD_GROUP
350
1c1
3
ACAD_MLINESTYLE
350
1c2
0
DICTIONARY
5
1c1
330
0
100
AcDbDictionary
280
0
281
1
0
DICTIONARY
5
1c2
330
0
100
AcDbDictionary
280
0
281
1
3
Standard
350
18
0
MLINESTYLE
5
18
330
1c2
100
AcDbMlineStyle
2
Standard
70
0
3

62
256
51
90
52
90
71
2
49
-0.5
62
256
6
ByLayer
49
0.5
62
256
6
ByLayer
0
RASTERVARIABLES
5
1ac
330

100
AcDbRasterVariables
90
0
70
1
71
1
72
1
0
ENDSEC
0
EOF
