0
SECTION
2
HEADER
9
$ACADVER
1
AC1015
9
$DWGCODEPAGE
3
ANSI_1252
9
$HANDSEED
5
1cf
9
$ANGBASE
50
0
9
$ANGDIR
70
0
9
$ATTMODE
70
1
9
$AUNITS
70
0
9
$AUPREC
70
0
9
$CECOLOR
62
256
9
$CELTSCALE
40
1
9
$CELTYPE
6
ByLayer
9
$CELWEIGHT
370
18
9
$CLAYER
8
0
9
$CMLJUST
70
0
9
$CMLSCALE
40
1
9
$CMLSTYLE
2
Standard
9
$DIMSTYLE
2
Standard
9
$TEXTSIZE
40
0.2
9
$TEXTSTYLE
7
Standard
9
$LUNITS
70
2
9
$LUPREC
70
4
9
$EXTNAMES
290
1
9
$INSUNITS
70
4
9
$LTSCALE
40
1
9
$LWDISPLAY
290
1
9
$PDMODE
70
0
9
$PDSIZE
40
0
9
$PLINEGEN
70
0
0
ENDSEC
0
SECTION
2
CLASSES
0
CLASS
1
RASTERVARIABLES
2
AcDbRasterVariables
3
ISM
90
0
280
0
281
0
0
ENDSEC
0
SECTION
2
TABLES
0
TABLE
2
VPORT
5
1c5
100
AcDbSymbolTable
0
VPORT
5
1
100
AcDbSymbolTableRecord
100
AcDbViewportTableRecord
2
*Active
70
0
10
0
20
0
11
1
21
1
12
-1
22
1
13
0
23
0
14
0.5
24
0.5
15
10
25
10
16
0
26
0
36
1
17
0
27
0
37
0
0
ENDTAB
0
TABLE
2
LTYPE
5
1c6
100
AcDbSymbolTable
0
LTYPE
5
14
100
AcDbSymbolTableRecord
100
AcDbLinetypeTableRecord
70
0
2
ByBlock
3

72
65
73
0
40
0
0
LTYPE
5
15
100
AcDbSymbolTableRecord
100
AcDbLinetypeTableRecord
70
0
2
ByLayer
3

72
65
73
0
40
0
0
LTYPE
5
16
100
AcDbSymbolTableRecord
100
AcDbLinetypeTableRecord
70
0
2
Continuous
3
Solid line
72
65
73
0
40
0
0
LTYPE
5
6E
100
AcDbSymbolTableRecord
100
AcDbLinetypeTableRecord
70
0
2
CENTER
3
____ _ ____ _ ____ _ ____
72
65
73
4
40
47.5
49
22
74
0
49
-8.5
74
0
49
8.5
74
0
49
-8.5
74
0
0
LTYPE
5
6F
100
AcDbSymbolTableRecord
100
AcDbLinetypeTableRecord
70
0
2
DASHED
3
__ __ __ __ __ __ __ __ __
72
65
73
2
40
25.72
49
12.86
74
0
49
-12.86
74
0
0
ENDTAB
0
TABLE
2
LAYER
5
1c7
100
AcDbSymbolTable
0
LAYER
5
10
100
AcDbSymbolTableRecord
100
AcDbLayerTableRecord
2
0
70
0
62
7
6
Continuous
290
1
370
-3
390
0
0
LAYER
5
71
100
AcDbSymbolTableRecord
100
AcDbLayerTableRecord
2
81
70
0
62
-3
6
Continuous
290
1
370
-3
390
0
0
LAYER
5
73
100
AcDbSymbolTableRecord
100
AcDbLayerTableRecord
2
80
70
0
62
-6
6
Continuous
290
1
370
-3
390
0
0
LAYER
5
75
100
AcDbSymbolTableRecord
100
AcDbLayerTableRecord
2
1
70
0
62
4
6
Continuous
290
1
370
-3
390
0
0
LAYER
5
7F
100
AcDbSymbolTableRecord
100
AcDbLayerTableRecord
2
4
70
0
62
-2
6
CENTER
290
1
370
-3
390
0
0
LAYER
5
A6
100
AcDbSymbolTableRecord
100
AcDbLayerTableRecord
2
2
70
0
62
7
6
Continuous
290
1
370
-3
390
0
0
LAYER
5
F2
100
AcDbSymbolTableRecord
100
AcDbLayerTableRecord
2
Defpoints
70
0
62
7
6
Continuous
290
0
370
-3
390
0
0
LAYER
5
1af
100
AcDbSymbolTableRecord
100
AcDbLayerTableRecord
2
SK4
70
0
62
2
6
CENTER
290
1
370
-3
390
0
0
LAYER
5
1b0
100
AcDbSymbolTableRecord
100
AcDbLayerTableRecord
2
SK1
70
0
62
4
6
Continuous
290
1
370
-3
390
0
0
LAYER
5
1b1
100
AcDbSymbolTableRecord
100
AcDbLayerTableRecord
2
SK2
70
0
62
7
6
Continuous
290
1
370
-3
390
0
0
LAYER
5
1b2
100
AcDbSymbolTableRecord
100
AcDbLayerTableRecord
2
CUT
70
0
62
-1
6
Continuous
290
1
370
-3
390
0
0
LAYER
5
1b3
100
AcDbSymbolTableRecord
100
AcDbLayerTableRecord
2
NOCUT
70
0
62
-7
6
Continuous
290
1
370
-3
390
0
0
LAYER
5
1b4
100
AcDbSymbolTableRecord
100
AcDbLayerTableRecord
2
SK6
70
0
62
5
6
Continuous
290
1
370
-3
390
0
0
ENDTAB
0
TABLE
2
STYLE
5
1c8
100
AcDbSymbolTable
0
STYLE
5
11
100
AcDbSymbolTableRecord
100
AcDbTextStyleTableRecord
2
Standard
3
txt
70
0
71
0
40
0
41
1
42
0
50
0
0
STYLE
5
CE
100
AcDbSymbolTableRecord
100
AcDbTextStyleTableRecord
2
iso_b_vert
3
simplex.shx
70
0
71
0
40
0
41
1
42
0
50
0
0
STYLE
5
CF
100
AcDbSymbolTableRecord
100
AcDbTextStyleTableRecord
2
DWGDirectTextStyle
3
simplex
70
0
71
0
40
0
41
1
42
0
50
0
0
ENDTAB
0
TABLE
2
DIMSTYLE
5
1c9
100
AcDbSymbolTable
100
AcDbDimStyleTable
0
DIMSTYLE
105
27
100
AcDbSymbolTableRecord
100
AcDbDimStyleTableRecord
2
Standard
70
0
3
<>
41
0.18
42
0.0625
44
0.18
140
0.18
147
0.09
73
0
74
0
77
1
271
2
275
0
278
52
280
0
340
11
0
ENDTAB
0
TABLE
2
VIEW
5
1ca
100
AcDbSymbolTable
0
ENDTAB
0
TABLE
2
UCS
5
1cb
100
AcDbSymbolTable
0
ENDTAB
0
TABLE
2
APPID
5
1cc
100
AcDbSymbolTable
0
APPID
5
12
100
AcDbSymbolTableRecord
100
AcDbRegAppTableRecord
2
ACAD
70
0
0
APPID
5
EE
100
AcDbSymbolTableRecord
100
AcDbRegAppTableRecord
2
ACAD_DSTYLE_DIMBREAK
70
0
0
APPID
5
16E
100
AcDbSymbolTableRecord
100
AcDbRegAppTableRecord
2
ACAD_DSTYLE_DIM_LINETYPE
70
0
0
APPID
5
16F
100
AcDbSymbolTableRecord
100
AcDbRegAppTableRecord
2
ACAD_DSTYLE_DIM_EXT1_LINETYPE
70
0
0
APPID
5
170
100
AcDbSymbolTableRecord
100
AcDbRegAppTableRecord
2
ACAD_DSTYLE_DIM_EXT2_LINETYPE
70
0
0
APPID
5
1AB
100
AcDbSymbolTableRecord
100
AcDbRegAppTableRecord
2
ACAD_MLEADERVER
70
0
0
ENDTAB
0
TABLE
2
BLOCK_RECORD
5
1cd
100
AcDbSymbolTable
0
BLOCK_RECORD
5
1F
100
AcDbSymbolTableRecord
100
AcDbBlockTableRecord
2
*Model_Space
340
0
70
0
0
BLOCK_RECORD
5
1B
100
AcDbSymbolTableRecord
100
AcDbBlockTableRecord
2
*Paper_Space
340
0
70
0
0
BLOCK_RECORD
5
23
100
AcDbSymbolTableRecord
100
AcDbBlockTableRecord
2
*Paper_Space0
340
0
70
0
0
BLOCK_RECORD
5
F3
100
AcDbSymbolTableRecord
100
AcDbBlockTableRecord
2
*D1
340
0
70
0
0
BLOCK_RECORD
5
FF
100
AcDbSymbolTableRecord
100
AcDbBlockTableRecord
2
_U0
340
0
70
0
0
BLOCK_RECORD
5
10B
100
AcDbSymbolTableRecord
100
AcDbBlockTableRecord
2
*D3
340
0
70
0
0
BLOCK_RECORD
5
117
100
AcDbSymbolTableRecord
100
AcDbBlockTableRecord
2
_U1
340
0
70
0
0
BLOCK_RECORD
5
123
100
AcDbSymbolTableRecord
100
AcDbBlockTableRecord
2
*D5
340
0
70
0
0
BLOCK_RECORD
5
12F
100
AcDbSymbolTableRecord
100
AcDbBlockTableRecord
2
_U2
340
0
70
0
0
BLOCK_RECORD
5
13B
100
AcDbSymbolTableRecord
100
AcDbBlockTableRecord
2
*D7
340
0
70
0
0
BLOCK_RECORD
5
147
100
AcDbSymbolTableRecord
100
AcDbBlockTableRecord
2
_U3
340
0
70
0
0
ENDTAB
0
ENDSEC
0
SECTION
2
BLOCKS
0
BLOCK
5
20
100
AcDbEntity
8
0
100
AcDbBlockBegin
2
*Model_Space
70
0
10
0
20
0
30
0
3
*Model_Space
0
ENDBLK
5
21
100
AcDbEntity
8
0
100
AcDbBlockEnd
0
BLOCK
5
1C
100
AcDbEntity
8
0
100
AcDbBlockBegin
2
*Paper_Space
70
0
10
0
20
0
30
0
3
*Paper_Space
0
ENDBLK
5
1D
100
AcDbEntity
8
0
100
AcDbBlockEnd
0
BLOCK
5
24
100
AcDbEntity
8
0
100
AcDbBlockBegin
2
*Paper_Space0
70
0
10
0
20
0
30
0
3
*Paper_Space0
0
ENDBLK
5
25
100
AcDbEntity
8
0
100
AcDbBlockEnd
0
BLOCK
5
F4
100
AcDbEntity
8
0
100
AcDbBlockBegin
2
*D1
70
1
10
0
20
0
30
0
3
*D1
0
LINE
5
F6
100
AcDbEntity
8
0
62
256
6
ByLayer
370
-2
48
1
60
0
100
AcDbLine
10
-44
20
-6.6875
30
0
11
-44
21
-52.871848
31
0
39
0
210
0
220
0
230
1
0
LINE
5
F7
100
AcDbEntity
8
0
62
256
6
ByLayer
370
-2
48
1
60
0
100
AcDbLine
10
89
20
-1.5875
30
0
11
89
21
-52.871848
31
0
39
0
210
0
220
0
230
1
0
LINE
5
F8
100
AcDbEntity
8
0
62
256
6
ByLayer
370
-2
48
1
60
0
100
AcDbLine
10
-40.5
20
-50.871848
30
0
11
85.5
21
-50.871848
31
0
39
0
210
0
220
0
230
1
0
SOLID
5
F9
100
AcDbEntity
8
0
62
256
6
ByLayer
370
-1
48
1
60
0
100
AcDbTrace
10
-40.5
20
-50.288515
30
0
11
-40.5
21
-51.455181
31
0
12
-44
22
-50.871848
32
0
13
-44
23
-50.871848
33
0
39
0
210
0
220
0
230
1
0
SOLID
5
FA
100
AcDbEntity
8
0
62
256
6
ByLayer
370
-1
48
1
60
0
100
AcDbTrace
10
85.5
20
-51.455181
30
0
11
85.5
21
-50.288515
31
0
12
89
22
-50.871848
32
0
13
89
23
-50.871848
33
0
39
0
210
0
220
0
230
1
0
MTEXT
5
FB
100
AcDbEntity
8
0
62
256
6
ByLayer
370
18
48
1
60
0
100
AcDbMText
10
22.5
20
-44.871848
30
0
210
0
220
0
230
1
1
\A1;133
40
3
41
0
44
1
50
0
71
5
72
5
7
iso_b_vert
0
POINT
5
FC
100
AcDbEntity
8
Defpoints
62
0
6
ByLayer
370
-1
48
1
60
0
100
AcDbPoint
10
-44
20
-5.1
30
0
39
0
210
0
220
0
230
1
50
360
0
POINT
5
FD
100
AcDbEntity
8
Defpoints
62
0
6
ByLayer
370
-1
48
1
60
0
100
AcDbPoint
10
89
20
0
30
0
39
0
210
0
220
0
230
1
50
360
0
POINT
5
FE
100
AcDbEntity
8
Defpoints
62
0
6
ByLayer
370
-1
48
1
60
0
100
AcDbPoint
10
89
20
-50.871848
30
0
39
0
210
0
220
0
230
1
50
360
0
ENDBLK
5
F5
100
AcDbEntity
8
0
100
AcDbBlockEnd
0
BLOCK
5
106
100
AcDbEntity
8
0
100
AcDbBlockBegin
2
_U0
70
0
10
0
20
0
30
0
3
_U0
0
MTEXT
5
100
100
AcDbEntity
8
SK2
62
256
6
ByLayer
370
18
48
1
60
0
100
AcDbMText
10
17.271658
20
-49.986734
30
0
210
0
220
0
230
1
1
\W0.7022;133.00
40
3
41
0
44
1.084337
50
0
71
7
72
5
7
iso_b_vert
0
LINE
5
101
100
AcDbEntity
8
SK2
62
256
6
ByLayer
370
13
48
1
60
0
100
AcDbLine
10
-44
20
-6.6875
30
0
11
-44
21
-52.871848
31
0
39
0
210
0
220
0
230
1
0
LINE
5
102
100
AcDbEntity
8
SK2
62
256
6
ByLayer
370
13
48
1
60
0
100
AcDbLine
10
89
20
-1.5875
30
0
11
89
21
-52.871848
31
0
39
0
210
0
220
0
230
1
0
LINE
5
103
100
AcDbEntity
8
SK2
62
256
6
ByLayer
370
13
48
1
60
0
100
AcDbLine
10
-44
20
-50.871848
30
0
11
89
21
-50.871848
31
0
39
0
210
0
220
0
230
1
0
SOLID
5
104
100
AcDbEntity
8
SK2
62
256
6
ByLayer
370
18
48
1
60
0
100
AcDbTrace
10
-44
20
-50.871848
30
0
11
-40.500002
21
-50.411064
31
0
12
-40.499998
22
-51.332632
32
0
13
-40.499998
23
-51.332632
33
0
39
0
210
0
220
0
230
1
0
SOLID
5
105
100
AcDbEntity
8
SK2
62
256
6
ByLayer
370
18
48
1
60
0
100
AcDbTrace
10
89
20
-50.871848
30
0
11
85.500002
21
-51.332632
31
0
12
85.499998
22
-50.411064
32
0
13
85.499998
23
-50.411064
33
0
39
0
210
0
220
0
230
1
0
ENDBLK
5
107
100
AcDbEntity
8
0
100
AcDbBlockEnd
0
BLOCK
5
10C
100
AcDbEntity
8
0
100
AcDbBlockBegin
2
*D3
70
1
10
0
20
0
30
0
3
*D3
0
LINE
5
10E
100
AcDbEntity
8
0
62
256
6
ByLayer
370
-2
48
1
60
0
100
AcDbLine
10
89
20
-1.5875
30
0
11
89
21
-42.871848
31
0
39
0
210
0
220
0
230
1
0
LINE
5
10F
100
AcDbEntity
8
0
62
256
6
ByLayer
370
-2
48
1
60
0
100
AcDbLine
10
2
20
-6.6875
30
0
11
2
21
-42.871848
31
0
39
0
210
0
220
0
230
1
0
LINE
5
110
100
AcDbEntity
8
0
62
256
6
ByLayer
370
-2
48
1
60
0
100
AcDbLine
10
85.5
20
-40.871848
30
0
11
5.5
21
-40.871848
31
0
39
0
210
0
220
0
230
1
0
SOLID
5
111
100
AcDbEntity
8
0
62
256
6
ByLayer
370
-1
48
1
60
0
100
AcDbTrace
10
85.5
20
-41.455181
30
0
11
85.5
21
-40.288515
31
0
12
89
22
-40.871848
32
0
13
89
23
-40.871848
33
0
39
0
210
0
220
0
230
1
0
SOLID
5
112
100
AcDbEntity
8
0
62
256
6
ByLayer
370
-1
48
1
60
0
100
AcDbTrace
10
5.5
20
-40.288515
30
0
11
5.5
21
-41.455181
31
0
12
2
22
-40.871848
32
0
13
2
23
-40.871848
33
0
39
0
210
0
220
0
230
1
0
MTEXT
5
113
100
AcDbEntity
8
0
62
256
6
ByLayer
370
18
48
1
60
0
100
AcDbMText
10
45.5
20
-34.871848
30
0
210
0
220
0
230
1
1
\A1;87
40
3
41
0
44
1
50
0
71
5
72
5
7
iso_b_vert
0
POINT
5
114
100
AcDbEntity
8
Defpoints
62
0
6
ByLayer
370
-1
48
1
60
0
100
AcDbPoint
10
89
20
0
30
0
39
0
210
0
220
0
230
1
50
360
0
POINT
5
115
100
AcDbEntity
8
Defpoints
62
0
6
ByLayer
370
-1
48
1
60
0
100
AcDbPoint
10
2
20
-5.1
30
0
39
0
210
0
220
0
230
1
50
360
0
POINT
5
116
100
AcDbEntity
8
Defpoints
62
0
6
ByLayer
370
-1
48
1
60
0
100
AcDbPoint
10
2
20
-40.871848
30
0
39
0
210
0
220
0
230
1
50
360
0
ENDBLK
5
10D
100
AcDbEntity
8
0
100
AcDbBlockEnd
0
BLOCK
5
11E
100
AcDbEntity
8
0
100
AcDbBlockBegin
2
_U1
70
0
10
0
20
0
30
0
3
_U1
0
MTEXT
5
118
100
AcDbEntity
8
2
62
256
6
ByLayer
370
18
48
1
60
0
100
AcDbMText
10
41.01763
20
-39.986734
30
0
210
0
220
0
230
1
1
\W0.7468;87.00
40
3
41
0
44
1.084337
50
0
71
7
72
5
7
iso_b_vert
0
LINE
5
119
100
AcDbEntity
8
2
62
256
6
ByLayer
370
13
48
1
60
0
100
AcDbLine
10
89
20
-1.5875
30
0
11
89
21
-42.871848
31
0
39
0
210
0
220
0
230
1
0
LINE
5
11A
100
AcDbEntity
8
2
62
256
6
ByLayer
370
13
48
1
60
0
100
AcDbLine
10
2
20
-6.6875
30
0
11
2
21
-42.871848
31
0
39
0
210
0
220
0
230
1
0
LINE
5
11B
100
AcDbEntity
8
2
62
256
6
ByLayer
370
13
48
1
60
0
100
AcDbLine
10
89
20
-40.871848
30
0
11
2
21
-40.871848
31
0
39
0
210
0
220
0
230
1
0
SOLID
5
11C
100
AcDbEntity
8
2
62
256
6
ByLayer
370
18
48
1
60
0
100
AcDbTrace
10
89
20
-40.871848
30
0
11
85.500002
21
-41.332632
31
0
12
85.499998
22
-40.411064
32
0
13
85.499998
23
-40.411064
33
0
39
0
210
0
220
0
230
1
0
SOLID
5
11D
100
AcDbEntity
8
2
62
256
6
ByLayer
370
18
48
1
60
0
100
AcDbTrace
10
2
20
-40.871848
30
0
11
5.499998
21
-40.411064
31
0
12
5.500002
22
-41.332632
32
0
13
5.500002
23
-41.332632
33
0
39
0
210
0
220
0
230
1
0
ENDBLK
5
11F
100
AcDbEntity
8
0
100
AcDbBlockEnd
0
BLOCK
5
124
100
AcDbEntity
8
0
100
AcDbBlockBegin
2
*D5
70
1
10
0
20
0
30
0
3
*D5
0
LINE
5
126
100
AcDbEntity
8
0
62
256
6
ByLayer
370
-2
48
1
60
0
100
AcDbLine
10
-44
20
-6.6875
30
0
11
-44
21
-37.871848
31
0
39
0
210
0
220
0
230
1
0
LINE
5
127
100
AcDbEntity
8
0
62
256
6
ByLayer
370
-2
48
1
60
0
100
AcDbLine
10
0
20
-6.6875
30
0
11
0
21
-37.871848
31
0
39
0
210
0
220
0
230
1
0
LINE
5
128
100
AcDbEntity
8
0
62
256
6
ByLayer
370
-2
48
1
60
0
100
AcDbLine
10
-40.5
20
-35.871848
30
0
11
-3.5
21
-35.871848
31
0
39
0
210
0
220
0
230
1
0
SOLID
5
129
100
AcDbEntity
8
0
62
256
6
ByLayer
370
-1
48
1
60
0
100
AcDbTrace
10
-40.5
20
-35.288515
30
0
11
-40.5
21
-36.455181
31
0
12
-44
22
-35.871848
32
0
13
-44
23
-35.871848
33
0
39
0
210
0
220
0
230
1
0
SOLID
5
12A
100
AcDbEntity
8
0
62
256
6
ByLayer
370
-1
48
1
60
0
100
AcDbTrace
10
-3.5
20
-36.455181
30
0
11
-3.5
21
-35.288515
31
0
12
0
22
-35.871848
32
0
13
0
23
-35.871848
33
0
39
0
210
0
220
0
230
1
0
MTEXT
5
12B
100
AcDbEntity
8
0
62
256
6
ByLayer
370
18
48
1
60
0
100
AcDbMText
10
-22
20
-29.871848
30
0
210
0
220
0
230
1
1
\A1;44
40
3
41
0
44
1
50
0
71
5
72
5
7
iso_b_vert
0
POINT
5
12C
100
AcDbEntity
8
Defpoints
62
0
6
ByLayer
370
-1
48
1
60
0
100
AcDbPoint
10
-44
20
-5.1
30
0
39
0
210
0
220
0
230
1
50
360
0
POINT
5
12D
100
AcDbEntity
8
Defpoints
62
0
6
ByLayer
370
-1
48
1
60
0
100
AcDbPoint
10
0
20
-5.1
30
0
39
0
210
0
220
0
230
1
50
360
0
POINT
5
12E
100
AcDbEntity
8
Defpoints
62
0
6
ByLayer
370
-1
48
1
60
0
100
AcDbPoint
10
0
20
-35.871848
30
0
39
0
210
0
220
0
230
1
50
360
0
ENDBLK
5
125
100
AcDbEntity
8
0
100
AcDbBlockEnd
0
BLOCK
5
136
100
AcDbEntity
8
0
100
AcDbBlockBegin
2
_U2
70
0
10
0
20
0
30
0
3
_U2
0
MTEXT
5
130
100
AcDbEntity
8
SK2
62
256
6
ByLayer
370
18
48
1
60
0
100
AcDbMText
10
-26.798256
20
-34.986734
30
0
210
0
220
0
230
1
1
\W0.7958;44.00
40
3
41
0
44
1.084337
50
0
71
7
72
5
7
iso_b_vert
0
LINE
5
131
100
AcDbEntity
8
SK2
62
256
6
ByLayer
370
13
48
1
60
0
100
AcDbLine
10
-44
20
-6.6875
30
0
11
-44
21
-37.871848
31
0
39
0
210
0
220
0
230
1
0
LINE
5
132
100
AcDbEntity
8
SK2
62
256
6
ByLayer
370
13
48
1
60
0
100
AcDbLine
10
0
20
-6.6875
30
0
11
0
21
-37.871848
31
0
39
0
210
0
220
0
230
1
0
LINE
5
133
100
AcDbEntity
8
SK2
62
256
6
ByLayer
370
13
48
1
60
0
100
AcDbLine
10
-44
20
-35.871848
30
0
11
0
21
-35.871848
31
0
39
0
210
0
220
0
230
1
0
SOLID
5
134
100
AcDbEntity
8
SK2
62
256
6
ByLayer
370
18
48
1
60
0
100
AcDbTrace
10
-44
20
-35.871848
30
0
11
-40.500002
21
-35.411064
31
0
12
-40.499998
22
-36.332632
32
0
13
-40.499998
23
-36.332632
33
0
39
0
210
0
220
0
230
1
0
SOLID
5
135
100
AcDbEntity
8
SK2
62
256
6
ByLayer
370
18
48
1
60
0
100
AcDbTrace
10
0
20
-35.871848
30
0
11
-3.499998
21
-36.332632
31
0
12
-3.500002
22
-35.411064
32
0
13
-3.500002
23
-35.411064
33
0
39
0
210
0
220
0
230
1
0
ENDBLK
5
137
100
AcDbEntity
8
0
100
AcDbBlockEnd
0
BLOCK
5
13C
100
AcDbEntity
8
0
100
AcDbBlockBegin
2
*D7
70
1
10
0
20
0
30
0
3
*D7
0
LINE
5
13E
100
AcDbEntity
8
0
62
256
6
ByLayer
370
-2
48
1
60
0
100
AcDbLine
10
89
20
-1.5875
30
0
11
89
21
-35.871848
31
0
39
0
210
0
220
0
230
1
0
LINE
5
13F
100
AcDbEntity
8
0
62
256
6
ByLayer
370
-2
48
1
60
0
100
AcDbLine
10
23.75
20
-6.6875
30
0
11
23.75
21
-35.871848
31
0
39
0
210
0
220
0
230
1
0
LINE
5
140
100
AcDbEntity
8
0
62
256
6
ByLayer
370
-2
48
1
60
0
100
AcDbLine
10
85.5
20
-33.871848
30
0
11
27.25
21
-33.871848
31
0
39
0
210
0
220
0
230
1
0
SOLID
5
141
100
AcDbEntity
8
0
62
256
6
ByLayer
370
-1
48
1
60
0
100
AcDbTrace
10
85.5
20
-34.455181
30
0
11
85.5
21
-33.288515
31
0
12
89
22
-33.871848
32
0
13
89
23
-33.871848
33
0
39
0
210
0
220
0
230
1
0
SOLID
5
142
100
AcDbEntity
8
0
62
256
6
ByLayer
370
-1
48
1
60
0
100
AcDbTrace
10
27.25
20
-33.288515
30
0
11
27.25
21
-34.455181
31
0
12
23.75
22
-33.871848
32
0
13
23.75
23
-33.871848
33
0
39
0
210
0
220
0
230
1
0
MTEXT
5
143
100
AcDbEntity
8
0
62
256
6
ByLayer
370
18
48
1
60
0
100
AcDbMText
10
56.375
20
-27.871848
30
0
210
0
220
0
230
1
1
\A1;65.25
40
3
41
0
44
1
50
0
71
5
72
5
7
iso_b_vert
0
POINT
5
144
100
AcDbEntity
8
Defpoints
62
0
6
ByLayer
370
-1
48
1
60
0
100
AcDbPoint
10
89
20
0
30
0
39
0
210
0
220
0
230
1
50
360
0
POINT
5
145
100
AcDbEntity
8
Defpoints
62
0
6
ByLayer
370
-1
48
1
60
0
100
AcDbPoint
10
23.75
20
-5.1
30
0
39
0
210
0
220
0
230
1
50
360
0
POINT
5
146
100
AcDbEntity
8
Defpoints
62
0
6
ByLayer
370
-1
48
1
60
0
100
AcDbPoint
10
23.75
20
-33.871848
30
0
39
0
210
0
220
0
230
1
50
360
0
ENDBLK
5
13D
100
AcDbEntity
8
0
100
AcDbBlockEnd
0
BLOCK
5
14E
100
AcDbEntity
8
0
100
AcDbBlockBegin
2
_U3
70
0
10
0
20
0
30
0
3
_U3
0
MTEXT
5
148
100
AcDbEntity
8
2
62
256
6
ByLayer
370
18
48
1
60
0
100
AcDbMText
10
51.89263
20
-32.986734
30
0
210
0
220
0
230
1
1
\W0.7468;65.25
40
3
41
0
44
1.084337
50
0
71
7
72
5
7
iso_b_vert
0
LINE
5
149
100
AcDbEntity
8
2
62
256
6
ByLayer
370
13
48
1
60
0
100
AcDbLine
10
89
20
-1.5875
30
0
11
89
21
-35.871848
31
0
39
0
210
0
220
0
230
1
0
LINE
5
14A
100
AcDbEntity
8
2
62
256
6
ByLayer
370
13
48
1
60
0
100
AcDbLine
10
23.75
20
-6.6875
30
0
11
23.75
21
-35.871848
31
0
39
0
210
0
220
0
230
1
0
LINE
5
14B
100
AcDbEntity
8
2
62
256
6
ByLayer
370
13
48
1
60
0
100
AcDbLine
10
89
20
-33.871848
30
0
11
23.75
21
-33.871848
31
0
39
0
210
0
220
0
230
1
0
SOLID
5
14C
100
AcDbEntity
8
2
62
256
6
ByLayer
370
18
48
1
60
0
100
AcDbTrace
10
89
20
-33.871848
30
0
11
85.500002
21
-34.332632
31
0
12
85.499998
22
-33.411064
32
0
13
85.499998
23
-33.411064
33
0
39
0
210
0
220
0
230
1
0
SOLID
5
14D
100
AcDbEntity
8
2
62
256
6
ByLayer
370
18
48
1
60
0
100
AcDbTrace
10
23.75
20
-33.871848
30
0
11
27.249998
21
-33.411064
31
0
12
27.250002
22
-34.332632
32
0
13
27.250002
23
-34.332632
33
0
39
0
210
0
220
0
230
1
0
ENDBLK
5
14F
100
AcDbEntity
8
0
100
AcDbBlockEnd
0
ENDSEC
0
SECTION
2
ENTITIES
0
ARC
5
B7
100
AcDbEntity
8
2
62
256
6
ByLayer
370
13
48
1
60
0
100
AcDbCircle
39
0
10
89
20
0
30
0
40
22.0000000000001
210
0
220
0
230
1
100
AcDbArc
50
7.83748
51
61.596605
0
ARC
5
B8
100
AcDbEntity
8
2
62
256
6
ByLayer
370
13
48
1
60
0
100
AcDbCircle
39
0
10
89
20
0
30
0
40
22.0000000000001
210
0
220
0
230
1
100
AcDbArc
50
298.403395
51
352.16252
0
POINT
5
70
100
AcDbEntity
8
81
62
256
6
ByLayer
370
18
48
1
60
0
100
AcDbPoint
10
89
20
0
30
0
39
0
210
0
220
0
230
1
50
360
0
POINT
5
72
100
AcDbEntity
8
80
62
256
6
ByLayer
370
18
48
1
60
0
100
AcDbPoint
10
0
20
0
30
0
39
0
210
0
220
0
230
1
50
360
0
POINT
5
74
100
AcDbEntity
8
1
62
256
6
ByLayer
370
18
48
1
60
1
100
AcDbPoint
10
-44
20
-5.1
30
0
39
0
210
0
220
0
230
1
50
360
0
POINT
5
76
100
AcDbEntity
8
1
62
256
6
ByLayer
370
18
48
1
60
1
100
AcDbPoint
10
89
20
0
30
0
39
0
210
0
220
0
230
1
50
360
0
POINT
5
77
100
AcDbEntity
8
1
62
256
6
ByLayer
370
18
48
1
60
1
100
AcDbPoint
10
89
20
0
30
0
39
0
210
0
220
0
230
1
50
360
0
POINT
5
78
100
AcDbEntity
8
1
62
256
6
ByLayer
370
18
48
1
60
1
100
AcDbPoint
10
2
20
-5.1
30
0
39
0
210
0
220
0
230
1
50
360
0
POINT
5
79
100
AcDbEntity
8
1
62
256
6
ByLayer
370
18
48
1
60
1
100
AcDbPoint
10
-44
20
-5.1
30
0
39
0
210
0
220
0
230
1
50
360
0
POINT
5
7A
100
AcDbEntity
8
1
62
256
6
ByLayer
370
18
48
1
60
1
100
AcDbPoint
10
0
20
-5.1
30
0
39
0
210
0
220
0
230
1
50
360
0
POINT
5
7B
100
AcDbEntity
8
1
62
256
6
ByLayer
370
18
48
1
60
1
100
AcDbPoint
10
89
20
0
30
0
39
0
210
0
220
0
230
1
50
360
0
POINT
5
7C
100
AcDbEntity
8
1
62
256
6
ByLayer
370
18
48
1
60
1
100
AcDbPoint
10
23.75
20
-5.1
30
0
39
0
210
0
220
0
230
1
50
360
0
SPLINE
5
B9
100
AcDbEntity
8
CUT
62
256
6
ByLayer
370
18
48
1
60
0
100
AcDbSpline
70
2053
71
3
72
17
73
13
40
0
40
0
40
0
40
0
40
0.470722926705506
40
0.470722926705506
40
0.470722926705506
40
0.51255021628321
40
0.51255021628321
40
0.51255021628321
40
0.96337692320353
40
0.96337692320353
40
0.96337692320353
40
1
40
1
40
1
40
1
41
1
10
23.75
20
0
30
0
41
1
10
45.5
20
0
30
0
41
1
10
67.25
20
0
30
0
41
1
10
89
20
0
30
0
41
1
10
88.0806832528806
20
1.70000000001346
30
0
41
1
10
87.1613665057611
20
3.40000000002692
30
0
41
1
10
86.2420497586417
20
5.10000000004038
30
0
41
1
10
65.4113665057609
20
5.09218849382103
30
0
41
1
10
44.5806832528801
20
5.08437698760167
30
0
41
1
10
23.7499999999996
20
5.07656548138232
30
0
41
1
10
23.75
20
3.38437698758821
30
0
41
1
10
23.75
20
1.69218849379411
30
0
41
1
10
23.75
20
0
30
0
0
SPLINE
5
BB
100
AcDbEntity
8
NOCUT
62
256
6
ByLayer
370
18
48
1
60
0
100
AcDbSpline
70
2053
71
3
72
26
73
22
40
0
40
0
40
0
40
0
40
0.466474043950404
40
0.466474043950404
40
0.466474043950404
40
0.501427343277948
40
0.501427343277948
40
0.501427343277948
40
0.662197375632964
40
0.662197375632964
40
0.662197375632964
40
0.664960370014819
40
0.664960370014819
40
0.664960370014819
40
0.962746383310883
40
0.962746383310883
40
0.962746383310883
40
0.970049268027489
40
0.970049268027489
40
0.970049268027489
40
1
40
1
40
1
40
1
41
1
10
-44
20
0
30
0
41
1
10
-21.4166666666666
20
0
30
0
41
1
10
1.16666666666674
20
0
30
0
41
1
10
23.7500000000001
20
0
30
0
41
1
10
23.75
20
1.69218849379411
30
0
41
1
10
23.75
20
3.38437698758821
30
0
41
1
10
23.75
20
5.07656548138232
30
0
41
1
10
15.9666666666661
20
5.0736467313825
30
0
41
1
10
8.18333333333223
20
5.07072798138267
30
0
41
1
10
0.399999999870545
20
5.06780923135412
30
0
41
1
10
0.266666666495126
20
5.07853948755027
30
0
41
1
10
0.133333333247549
20
5.08926974377513
30
0
41
1
10
0
20
5.09999999999999
30
0
41
1
10
-14.4166666666667
20
5.09999999999999
30
0
41
1
10
-28.8333333333333
20
5.09999999999999
30
0
41
1
10
-43.25
20
5.09999999999999
30
0
41
1
10
-43.5
20
4.84999999999999
30
0
41
1
10
-43.75
20
4.59999999999999
30
0
41
1
10
-44
20
4.34999999999999
30
0
41
1
10
-44
20
2.90000000000001
30
0
41
1
10
-44
20
1.44999999999999
30
0
41
1
10
-44
20
0
30
0
0
SPLINE
5
BD
100
AcDbEntity
8
1
62
256
6
ByLayer
370
18
48
1
60
0
100
AcDbSpline
70
4
71
3
72
123
73
119
40
0
40
0
40
0
40
0
40
0.0156250000000096
40
0.0156250000000096
40
0.0312500000000192
40
0.0312500000000192
40
0.0625000000000349
40
0.0625000000000349
40
0.0781250000000426
40
0.0781250000000426
40
0.0937500000000503
40
0.0937500000000503
40
0.125000000000066
40
0.125000000000066
40
0.156250000000081
40
0.156250000000081
40
0.187500000000097
40
0.187500000000097
40
0.218750000000112
40
0.218750000000112
40
0.23437500000012
40
0.23437500000012
40
0.250000000000128
40
0.250000000000128
40
0.265625000000135
40
0.265625000000135
40
0.273437500000138
40
0.273437500000138
40
0.28125000000014
40
0.296875000000141
40
0.296875000000141
40
0.304687500000139
40
0.304687500000139
40
0.312500000000138
40
0.312500000000138
40
0.328125000000135
40
0.328125000000135
40
0.335937500000134
40
0.335937500000134
40
0.343750000000132
40
0.343750000000132
40
0.359375000000133
40
0.359375000000133
40
0.375000000000134
40
0.375000000000134
40
0.406250000000132
40
0.406250000000132
40
0.421875000000129
40
0.421875000000129
40
0.437500000000126
40
0.437500000000126
40
0.453125000000123
40
0.453125000000123
40
0.460937500000121
40
0.460937500000121
40
0.468750000000118
40
0.468750000000118
40
0.484375000000112
40
0.484375000000112
40
0.49218750000011
40
0.49218750000011
40
0.496093750000109
40
0.496093750000109
40
0.500000000000108
40
0.500000000000108
40
0.515625000000104
40
0.515625000000104
40
0.523437500000101
40
0.523437500000101
40
0.527343750000101
40
0.527343750000101
40
0.5312500000001
40
0.5312500000001
40
0.546875000000094
40
0.546875000000094
40
0.562500000000088
40
0.562500000000088
40
0.570312500000085
40
0.570312500000085
40
0.578125000000082
40
0.578125000000082
40
0.59375000000008
40
0.59375000000008
40
0.609375000000077
40
0.609375000000077
40
0.617187500000076
40
0.617187500000076
40
0.625000000000075
40
0.625000000000075
40
0.656250000000066
40
0.656250000000066
40
0.671875000000062
40
0.671875000000062
40
0.687500000000057
40
0.687500000000057
40
0.703125000000053
40
0.703125000000053
40
0.718750000000048
40
0.718750000000048
40
0.734375000000044
40
0.734375000000044
40
0.75000000000004
40
0.75000000000004
40
0.781250000000035
40
0.781250000000035
40
0.81250000000003
40
0.81250000000003
40
0.843750000000025
40
0.843750000000025
40
0.87500000000002
40
0.87500000000002
40
0.906250000000015
40
0.906250000000015
40
0.93750000000001
40
0.93750000000001
40
0.968750000000005
40
0.968750000000005
40
1
40
1
40
1
40
1
41
1
10
86.2420497586417
20
4.93825051323046
30
0
41
1
10
86.2683383283613
20
4.88859979942296
30
0
41
1
10
86.2946267115428
20
4.83895665801856
30
0
41
1
10
86.34718582786
20
4.7396669743971
30
0
41
1
10
86.3734583069715
20
4.69002240422068
30
0
41
1
10
86.452264423254
20
4.54110105734154
30
0
41
1
10
86.504796292155
20
4.44184600243838
30
0
41
1
10
86.5834758979062
20
4.29289260655545
30
0
41
1
10
86.6096831653185
20
4.24323028311397
30
0
41
1
10
86.6620442069313
20
4.14387015590617
30
0
41
1
10
86.6881974573771
20
4.09417187652471
30
0
41
1
10
86.7665854749341
20
3.94503651575982
30
0
41
1
10
86.8187518970861
20
3.84556213270804
30
0
41
1
10
86.9228795668205
20
3.64651109416272
30
0
41
1
10
86.9748370244274
20
3.5469302400729
30
0
41
1
10
87.0784271145309
20
3.34757795197407
30
0
41
1
10
87.1300496615145
20
3.24779747459567
30
0
41
1
10
87.2329130634733
20
3.04803070122006
30
0
41
1
10
87.2841613764335
20
2.94805158802399
30
0
41
1
10
87.3607888315111
20
2.79799205886917
30
0
41
1
10
87.3862945381733
20
2.74796034663834
30
0
41
1
10
87.4371584026839
20
2.64781483985505
30
0
41
1
10
87.4625086638957
20
2.59769437453579
30
0
41
1
10
87.5130008404556
20
2.49732916353835
30
0
41
1
10
87.5381315705702
20
2.44706693923928
30
0
41
1
10
87.5757216053189
20
2.37165698120734
30
0
41
1
10
87.5882335206733
20
2.34652659784507
30
0
41
1
10
87.6132360372657
20
2.29633254056898
30
0
41
1
10
87.6507097724686
20
2.221145197895
30
0
41
1
10
87.6882630570948
20
2.14681988782249
30
0
41
1
10
87.7261596675035
20
2.07379516393388
30
0
41
1
10
87.7388500791026
20
2.04967102094349
30
0
41
1
10
87.7643948642634
20
2.0019576516664
30
0
41
1
10
87.7772541538472
20
1.97838191474176
30
0
41
1
10
87.8160793547876
20
1.90840549160455
30
0
41
1
10
87.8423090368631
20
1.86279276309435
30
0
41
1
10
87.8817687777389
20
1.79471684270078
30
0
41
1
10
87.8949392880331
20
1.772078695186
30
0
41
1
10
87.9212404036109
20
1.72670773237331
30
0
41
1
10
87.9343740301017
20
1.70398333300483
30
0
41
1
10
87.9736757936649
20
1.63557396451353
30
0
41
1
10
87.9997473080327
20
1.58965756402344
30
0
41
1
10
88.0515271263266
20
1.49703954146014
30
0
41
1
10
88.0772455780746
20
1.4502971682019
30
0
41
1
10
88.1536268540682
20
1.30909525872352
30
0
41
1
10
88.2035324001806
20
1.21377078690188
30
0
41
1
10
88.2757647389504
20
1.06843289733831
30
0
41
1
10
88.2994023949358
20
1.01959949182734
30
0
41
1
10
88.3454871237672
20
0.921024770431586
30
0
41
1
10
88.3679344819832
20
0.871280342922347
30
0
41
1
10
88.4110411834692
20
0.770548446023412
30
0
41
1
10
88.4317006095925
20
0.719557011261941
30
0
41
1
10
88.4606029825732
20
0.64173041158341
30
0
41
1
10
88.4698987563092
20
0.615522596230932
30
0
41
1
10
88.4874934302368
20
0.562982725733661
30
0
41
1
10
88.4958098086013
20
0.536614677951519
30
0
41
1
10
88.5190282291861
20
0.457150454884044
30
0
41
1
10
88.5322065599836
20
0.403695995273296
30
0
41
1
10
88.5471198156882
20
0.322478599923045
30
0
41
1
10
88.551278173376
20
0.295232774702413
30
0
41
1
10
88.5560653061556
20
0.254055538000813
30
0
41
1
10
88.5574202338637
20
0.240252732313479
30
0
41
1
10
88.559591412454
20
0.212783450660225
30
0
41
1
10
88.5604112130237
20
0.199093904727505
30
0
41
1
10
88.563147865138
20
0.130881760655598
30
0
41
1
10
88.5608932583696
20
0.0770826083592908
30
0
41
1
10
88.5512034477265
20
-0.0024563623934739
30
0
41
1
10
88.5469376124429
20
-0.0287785571618713
30
0
41
1
10
88.5391157933819
20
-0.0679835366290433
30
0
41
1
10
88.5362684282236
20
-0.0810114461526723
30
0
41
1
10
88.5301815048569
20
-0.106743868770735
30
0
41
1
10
88.5269364257256
20
-0.119478631741657
30
0
41
1
10
88.5097962016033
20
-0.18253538814082
30
0
41
1
10
88.4932070918579
20
-0.231050250173183
30
0
41
1
10
88.4560640414776
20
-0.324829316776316
30
0
41
1
10
88.4354761392968
20
-0.370048061506395
30
0
41
1
10
88.4024195006996
20
-0.435572348227083
30
0
41
1
10
88.3910324315624
20
-0.457032236257703
30
0
41
1
10
88.3679029873487
20
-0.498780822112735
30
0
41
1
10
88.3561290842713
20
-0.519133460558947
30
0
41
1
10
88.3203170614181
20
-0.578765080845756
30
0
41
1
10
88.2957992088975
20
-0.616638403531027
30
0
41
1
10
88.2459075621939
20
-0.688990915499147
30
0
41
1
10
88.2205294275156
20
-0.723464478758928
30
0
41
1
10
88.1819912327384
20
-0.772829468488652
30
0
41
1
10
88.1690651894617
20
-0.788891370310949
30
0
41
1
10
88.1430684329164
20
-0.820240286931408
30
0
41
1
10
88.1299764933144
20
-0.835551160209178
30
0
41
1
10
88.0644304018085
20
-0.909909417312861
30
0
41
1
10
88.0122505204189
20
-0.96185079052708
30
0
41
1
10
87.9343554200884
20
-1.03032947409199
30
0
41
1
10
87.908451771034
20
-1.05149715786797
30
0
41
1
10
87.8567501159453
20
-1.0901197176035
30
0
41
1
10
87.8309468051773
20
-1.10766591996736
30
0
41
1
10
87.7793470097486
20
-1.1408968600966
30
0
41
1
10
87.75354113666
20
-1.15658629078081
30
0
41
1
10
87.701944186217
20
-1.18708821392823
30
0
41
1
10
87.6761559844373
20
-1.2019261103757
30
0
41
1
10
87.6245439844839
20
-1.23143213489175
30
0
41
1
10
87.5987231766386
20
-1.24606855631291
30
0
41
1
10
87.5470287133153
20
-1.27547784014681
30
0
41
1
10
87.5211565150212
20
-1.29023476222963
30
0
41
1
10
87.443458859709
20
-1.3349095565608
30
0
41
1
10
87.3915502380059
20
-1.36528198851423
30
0
41
1
10
87.2875944195699
20
-1.42682017840457
30
0
41
1
10
87.2355496640191
20
-1.45793875690049
30
0
41
1
10
87.1313633862538
20
-1.52078472568633
30
0
41
1
10
87.0792213839654
20
-1.55251352690709
30
0
41
1
10
86.9748476959868
20
-1.61682504561318
30
0
41
1
10
86.9226182035418
20
-1.64944628409634
30
0
41
1
10
86.818109604348
20
-1.71639364650289
30
0
41
1
10
86.7658260639144
20
-1.75072221171919
30
0
41
1
10
86.6612073902686
20
-1.8216952130351
30
0
41
1
10
86.6088719002547
20
-1.8583677654438
30
0
41
1
10
86.5041534074985
20
-1.93449466356537
30
0
41
1
10
86.4517708834501
20
-1.97392153775252
30
0
41
1
10
86.3469543006587
20
-2.05600838889609
30
0
41
1
10
86.2945200082013
20
-2.09869133864689
30
0
41
1
10
86.2420497586417
20
-2.14340911338684
30
0
0
SPLINE
5
BE
100
AcDbEntity
8
1
62
256
6
ByLayer
370
18
48
1
60
0
100
AcDbSpline
70
4
71
3
72
9
73
5
40
0
40
0
40
0
40
0
40
0.350858668274729
40
1
40
1
40
1
40
1
41
1
10
18.3490855498938
20
3.3724152267483
30
0
41
1
10
18.3401018980721
20
3.34725220010884
30
0
41
1
10
18.3139710217774
20
3.27578748002358
30
0
41
1
10
18.286076778311
20
3.20515348952338
30
0
41
1
10
18.2672554662937
20
3.15965694816631
30
0
0
SPLINE
5
BF
100
AcDbEntity
8
1
62
256
6
ByLayer
370
18
48
1
60
0
100
AcDbSpline
70
4
71
3
72
82
73
78
40
0
40
0
40
0
40
0
40
0.0328170131537565
40
0.0328170131537565
40
0.0492255197306348
40
0.0492255197306348
40
0.0656340263075131
40
0.0656340263075131
40
0.0984510394612661
40
0.0984510394612661
40
0.131268052615019
40
0.131268052615019
40
0.164085065768772
40
0.164085065768772
40
0.18049357234565
40
0.18049357234565
40
0.196902078922529
40
0.196902078922529
40
0.229719092076285
40
0.229719092076285
40
0.262536105230042
40
0.262536105230042
40
0.295353118383798
40
0.295353118383798
40
0.328170131537555
40
0.328170131537555
40
0.344578638114434
40
0.344578638114434
40
0.352782891402873
40
0.352782891402873
40
0.360987144691312
40
0.393804157845068
40
0.393804157845068
40
0.426621170998825
40
0.426621170998825
40
0.459438184152581
40
0.459438184152581
40
0.492255197306338
40
0.492255197306338
40
0.525072210460095
40
0.525072210460095
40
0.557889223613851
40
0.557889223613851
40
0.590706236767608
40
0.590706236767608
40
0.607114743344486
40
0.607114743344486
40
0.623523249921364
40
0.623523249921364
40
0.656340263075123
40
0.656340263075123
40
0.689157276228881
40
0.689157276228881
40
0.705565782805759
40
0.705565782805759
40
0.721974289382638
40
0.738382795959516
40
0.738382795959516
40
0.754791302536394
40
0.754791302536394
40
0.787608315690152
40
0.787608315690152
40
0.820425328843911
40
0.820425328843911
40
0.853242341997669
40
0.853242341997669
40
0.869650848574549
40
0.869650848574549
40
0.886059355151429
40
0.886059355151429
40
0.918876368305189
40
0.918876368305189
40
0.951693381458949
40
0.951693381458949
40
0.984510394612709
40
0.984510394612709
40
1
40
1
40
1
40
1
41
1
10
86.2420497586407
20
-2.14340911338636
30
0
41
1
10
86.0384699461761
20
-2.04081784851874
30
0
41
1
10
85.835292962783
20
-1.93717583426903
30
0
41
1
10
85.5311644253333
20
-1.78008932781108
30
0
41
1
10
85.4298993091072
20
-1.72744772785475
30
0
41
1
10
85.2276260321311
20
-1.62154364190201
30
0
41
1
10
85.1266193530911
20
-1.56827840433496
30
0
41
1
10
84.8238900293891
20
-1.40772153230529
30
0
41
1
10
84.6224569365805
20
-1.29967023910729
30
0
41
1
10
84.2197383671124
20
-1.08267868566162
30
0
41
1
10
84.0184928811533
20
-0.973667434133574
30
0
41
1
10
83.6164433118442
20
-0.754229782157609
30
0
41
1
10
83.4156930233697
20
-0.64370418271011
30
0
41
1
10
83.1146034779144
20
-0.47739009367379
30
0
41
1
10
83.0142420784551
20
-0.421872216505591
30
0
41
1
10
82.8134363058015
20
-0.310836141695603
30
0
41
1
10
82.7129956306412
20
-0.255311241388568
30
0
41
1
10
82.4115894316959
20
-0.0886631091320851
30
0
41
1
10
82.2105500586968
20
0.0225521006476583
30
0
41
1
10
81.8084343313899
20
0.245529255907257
30
0
41
1
10
81.6073157327108
20
0.357214339689818
30
0
41
1
10
81.2043238761837
20
0.579805846663902
30
0
41
1
10
81.002405644957
20
0.690627162228424
30
0
41
1
10
80.5978764370719
20
0.911606458847643
30
0
41
1
10
80.3953338282917
20
1.0218931637753
30
0
41
1
10
80.0909108906515
20
1.18666834306165
30
0
41
1
10
79.9893258870043
20
1.24146698984643
30
0
41
1
10
79.83671783386
20
1.32335440943692
30
0
41
1
10
79.7857952574724
20
1.35060553751751
30
0
41
1
10
79.6840365325612
20
1.40489186559677
30
0
41
1
10
79.4297671925464
20
1.54013032425604
30
0
41
1
10
79.1761344587479
20
1.67301878979154
30
0
41
1
10
78.7713649435374
20
1.8831005544516
30
0
41
1
10
78.5695172242616
20
1.9868892454927
30
0
41
1
10
78.1663175747441
20
2.19097504409359
30
0
41
1
10
77.9648890331128
20
2.29114740759241
30
0
41
1
10
77.5623178773799
20
2.48772394378085
30
0
41
1
10
77.3612396633872
20
2.58423468386312
30
0
41
1
10
76.9595321046087
20
2.77374277365089
30
0
41
1
10
76.7588546615472
20
2.86665660135307
30
0
41
1
10
76.357197859917
20
3.04781658980215
30
0
41
1
10
76.1562265247538
20
3.13608462605438
30
0
41
1
10
75.7541925228707
20
3.30829024998653
30
0
41
1
10
75.5531979715985
20
3.39231848626139
30
0
41
1
10
75.2514422408161
20
3.51479315797329
30
0
41
1
10
75.1508067040722
20
3.55501505272397
30
0
41
1
10
74.9493472332542
20
3.63413422567746
30
0
41
1
10
74.8485168745842
20
3.67302358690415
30
0
41
1
10
74.5457415604868
20
3.78770595250248
30
0
41
1
10
74.343514061829
20
3.86151978348045
30
0
41
1
10
73.9385258518601
20
4.0040788710524
30
0
41
1
10
73.7357420791894
20
4.07278571878445
30
0
41
1
10
73.4306741730536
20
4.17139395177867
30
0
41
1
10
73.3287676489947
20
4.20352716188188
30
0
41
1
10
73.1253144157538
20
4.2660562977392
30
0
41
1
10
72.9220765746069
20
4.32690941628707
30
0
41
1
10
72.7193139865057
20
4.38449250838909
30
0
41
1
10
72.5168241617834
20
4.44048044846025
30
0
41
1
10
72.415715302411
20
4.46767545464104
30
0
41
1
10
72.1126973044812
20
4.54677450170587
30
0
41
1
10
71.9110929501098
20
4.59618255920694
30
0
41
1
10
71.5080857644057
20
4.68794633619501
30
0
41
1
10
71.306726087374
20
4.73035187050959
30
0
41
1
10
70.9045114602566
20
4.80841502419088
30
0
41
1
10
70.7037062006454
20
4.84409052939844
30
0
41
1
10
70.4025650798873
20
4.89232288317797
30
0
41
1
10
70.3021915288452
20
4.90751887507813
30
0
41
1
10
70.1013739539146
20
4.93611418024244
30
0
41
1
10
70.0009349744132
20
4.94951690022412
30
0
41
1
10
69.6995568174866
20
4.98706372640285
30
0
41
1
10
69.4985697209962
20
5.00855711442435
30
0
41
1
10
69.0966104547622
20
5.04446012164001
30
0
41
1
10
68.8955942099958
20
5.05884099718909
30
0
41
1
10
68.4928514163718
20
5.08026975197518
30
0
41
1
10
68.2910860082458
20
5.08732656342806
30
0
41
1
10
67.9936270583845
20
5.09233083938139
30
0
41
1
10
67.8981918463413
20
5.09311970490765
30
0
41
1
10
67.8026876854945
20
5.09308499996553
30
0
0
SPLINE
5
C0
100
AcDbEntity
8
1
62
256
6
ByLayer
370
18
48
1
60
0
100
AcDbSpline
70
4
71
3
72
158
73
154
40
0
40
0
40
0
40
0
40
0.0018684900817977
40
0.0018684900817977
40
0.0182587082245676
40
0.0182587082245676
40
0.0346489263673373
40
0.0346489263673373
40
0.0510391445101073
40
0.0510391445101073
40
0.067429362652877
40
0.067429362652877
40
0.0838195807956467
40
0.0838195807956467
40
0.100209798938417
40
0.100209798938417
40
0.116600017081186
40
0.116600017081186
40
0.132990235223956
40
0.132990235223956
40
0.149380453366726
40
0.149380453366726
40
0.157575562438111
40
0.157575562438111
40
0.165770671509496
40
0.165770671509496
40
0.182160889652266
40
0.182160889652266
40
0.198551107795035
40
0.198551107795035
40
0.20674621686642
40
0.20674621686642
40
0.214941325937806
40
0.214941325937806
40
0.231331544080576
40
0.231331544080576
40
0.247721762223347
40
0.247721762223347
40
0.264111980366118
40
0.264111980366118
40
0.272307089437503
40
0.272307089437503
40
0.280502198508888
40
0.280502198508888
40
0.296892416651659
40
0.296892416651659
40
0.31328263479443
40
0.31328263479443
40
0.329672852937201
40
0.329672852937201
40
0.337867962008586
40
0.337867962008586
40
0.346063071079971
40
0.346063071079971
40
0.362453289222741
40
0.362453289222741
40
0.378843507365512
40
0.378843507365512
40
0.395233725508283
40
0.395233725508283
40
0.411623943651054
40
0.411623943651054
40
0.428014161793825
40
0.428014161793825
40
0.444404379936595
40
0.444404379936595
40
0.460794598079366
40
0.460794598079366
40
0.477184816222137
40
0.477184816222137
40
0.493575034364907
40
0.493575034364907
40
0.509965252507678
40
0.509965252507678
40
0.518160361579063
40
0.518160361579063
40
0.526355470650448
40
0.526355470650448
40
0.542745688793217
40
0.542745688793217
40
0.550940797864602
40
0.550940797864602
40
0.559135906935986
40
0.559135906935986
40
0.575526125078756
40
0.575526125078756
40
0.591916343221526
40
0.591916343221526
40
0.608306561364296
40
0.608306561364296
40
0.61650167043568
40
0.61650167043568
40
0.624696779507065
40
0.624696779507065
40
0.641086997649834
40
0.641086997649834
40
0.657477215792604
40
0.657477215792604
40
0.673867433935374
40
0.673867433935374
40
0.682062543006759
40
0.682062543006759
40
0.686160097542451
40
0.686160097542451
40
0.690257652078143
40
0.690257652078143
40
0.70664787022091
40
0.70664787022091
40
0.723038088363677
40
0.723038088363677
40
0.739428306506445
40
0.739428306506445
40
0.755818524649212
40
0.755818524649212
40
0.772208742791979
40
0.772208742791979
40
0.788598960934747
40
0.788598960934747
40
0.804989179077514
40
0.804989179077514
40
0.821379397220282
40
0.821379397220282
40
0.829574506291666
40
0.829574506291666
40
0.83776961536305
40
0.83776961536305
40
0.854159833505817
40
0.854159833505817
40
0.862354942577201
40
0.862354942577201
40
0.866452497112893
40
0.866452497112893
40
0.870550051648585
40
0.870550051648585
40
0.886940269791352
40
0.886940269791352
40
0.895135378862736
40
0.895135378862736
40
0.903330487934119
40
0.903330487934119
40
0.919720706076886
40
0.919720706076886
40
0.936110924219653
40
0.936110924219653
40
0.95250114236242
40
0.95250114236242
40
0.960696251433803
40
0.960696251433803
40
0.968891360505187
40
0.968891360505187
40
0.985281578647953
40
0.985281578647953
40
1
40
1
40
1
40
1
41
1
10
46.9582545727219
20
-3.2576080734791
30
0
41
1
10
46.9351292842497
20
-3.26743461461336
30
0
41
1
10
46.9120107304867
20
-3.27722881154716
30
0
41
1
10
46.6861603434358
20
-3.37261514650171
30
0
41
1
10
46.4838988306564
20
-3.45568617609175
30
0
41
1
10
46.0797462451031
20
-3.61600965868988
30
0
41
1
10
45.8779039925726
20
-3.69334278429193
30
0
41
1
10
45.4749114803197
20
-3.84269776138126
30
0
41
1
10
45.2737985090193
20
-3.9147530172246
30
0
41
1
10
44.8717942740773
20
-4.05296133263602
30
0
41
1
10
44.670827581881
20
-4.11903451931551
30
0
41
1
10
44.2688311163493
20
-4.24504032851522
30
0
41
1
10
44.0678630285942
20
-4.30504181946637
30
0
41
1
10
43.6660943481721
20
-4.41910608461396
30
0
41
1
10
43.4652467872016
20
-4.47311144258327
30
0
41
1
10
43.0629766858402
20
-4.57447442853044
30
0
41
1
10
42.8615340429456
20
-4.62182919109338
30
0
41
1
10
42.4582155381732
20
-4.7100238274252
30
0
41
1
10
42.2564081448952
20
-4.75090609371276
30
0
41
1
10
41.852171342267
20
-4.82590468218169
30
0
41
1
10
41.6496769753574
20
-4.85997695332853
30
0
41
1
10
41.3450310994662
20
-4.90572376290166
30
0
41
1
10
41.2433468661744
20
-4.92008873089407
30
0
41
1
10
41.0397304232372
20
-4.94705275778838
30
0
41
1
10
40.9377317749862
20
-4.95965903308255
30
0
41
1
10
40.6324370564065
20
-4.99470869922564
30
0
41
1
10
40.4295573645026
20
-5.01440876147171
30
0
41
1
10
40.0245010823288
20
-5.04635236133598
30
0
41
1
10
39.8222502643272
20
-5.05858905724173
30
0
41
1
10
39.519301897075
20
-5.07145109568131
30
0
41
1
10
39.4183962469489
20
-5.07482321937189
30
0
41
1
10
39.2167739746064
20
-5.07974342848922
30
0
41
1
10
39.116062049783
20
-5.08129090729048
30
0
41
1
10
38.8141310286564
20
-5.08318630563321
30
0
41
1
10
38.6131191235302
20
-5.08077982881352
30
0
41
1
10
38.2110077458562
20
-5.06871828509276
30
0
41
1
10
38.0099388385636
20
-5.05907717579908
30
0
41
1
10
37.6079825914613
20
-5.0325694594971
30
0
41
1
10
37.4071566359912
20
-5.01567587411614
30
0
41
1
10
37.1057946342537
20
-4.98492753966079
30
0
41
1
10
37.0053154994245
20
-4.97377905833645
30
0
41
1
10
36.8042181598085
20
-4.9497206214358
30
0
41
1
10
36.7035996011074
20
-4.93681189728653
30
0
41
1
10
36.4015631348102
20
-4.89544137440561
30
0
41
1
10
36.1999692235293
20
-4.86433929295825
30
0
41
1
10
35.796501378115
20
-4.79490158073978
30
0
41
1
10
35.5945906911292
20
-4.75657047436533
30
0
41
1
10
35.1897946466747
20
-4.67300303294326
30
0
41
1
10
34.986855092616
20
-4.62782121662727
30
0
41
1
10
34.6817273759551
20
-4.55484244538209
30
0
41
1
10
34.5798678186121
20
-4.52963529934399
30
0
41
1
10
34.3760901075684
20
-4.47746620500104
30
0
41
1
10
34.2743669254325
20
-4.45055994674703
30
0
41
1
10
33.969593332929
20
-4.36747743832959
30
0
41
1
10
33.7669229094674
20
-4.30894885203148
30
0
41
1
10
33.3620456227596
20
-4.18627524204919
30
0
41
1
10
33.1598899004949
20
-4.12208796742539
30
0
41
1
10
32.7563726111805
20
-3.98780960807318
30
0
41
1
10
32.5550387421247
20
-3.91767593265061
30
0
41
1
10
32.1526614099076
20
-3.77208438273402
30
0
41
1
10
31.9515420104087
20
-3.69672541406598
30
0
41
1
10
31.5493462165022
20
-3.5410629482686
30
0
41
1
10
31.348332740927
20
-3.46067995252585
30
0
41
1
10
30.9465496737672
20
-3.29467960107456
30
0
41
1
10
30.7457323387129
20
-3.20911823189476
30
0
41
1
10
30.3435904795853
20
-3.03380611099342
30
0
41
1
10
30.1422598359677
20
-2.94407584908811
30
0
41
1
10
29.7392674687453
20
-2.76018182433856
30
0
41
1
10
29.5376742449257
20
-2.66590478468757
30
0
41
1
10
29.1339351731797
20
-2.47317874143897
30
0
41
1
10
28.9317225163526
20
-2.37483758061165
30
0
41
1
10
28.5261936844679
20
-2.17488145180278
30
0
41
1
10
28.3229345856759
20
-2.07317822911614
30
0
41
1
10
28.0174705953505
20
-1.91767313691713
30
0
41
1
10
27.9155342992048
20
-1.86534840985351
30
0
41
1
10
27.7121165969433
20
-1.76022457101496
30
0
41
1
10
27.6105454464456
20
-1.70737824165829
30
0
41
1
10
27.3061156856528
20
-1.54822350720286
30
0
41
1
10
27.1034793857782
20
-1.4414119596556
30
0
41
1
10
26.800033343652
20
-1.28007521916086
30
0
41
1
10
26.6989744327371
20
-1.22610047455814
30
0
41
1
10
26.4970712977212
20
-1.1176949083025
30
0
41
1
10
26.3962292896271
20
-1.06325998201518
30
0
41
1
10
26.0939347189252
20
-0.899437360914334
30
0
41
1
10
25.8927136758481
20
-0.789531468549541
30
0
41
1
10
25.490265460197
20
-0.5694883174979
30
0
41
1
10
25.2890761561675
20
-0.459281844170874
30
0
41
1
10
24.8869812927364
20
-0.238105170512938
30
0
41
1
10
24.6861317327157
20
-0.127031082259975
30
0
41
1
10
24.3847814427492
20
0.0396208257666899
30
0
41
1
10
24.2843144580626
20
0.0951704005167642
30
0
41
1
10
24.0832590108362
20
0.206104842765313
30
0
41
1
10
23.9826735422982
20
0.261495221269854
30
0
41
1
10
23.680773187207
20
0.427489866360162
30
0
41
1
10
23.4793236416159
20
0.537934681850288
30
0
41
1
10
23.0762304565082
20
0.758708389349437
30
0
41
1
10
22.8745456755109
20
0.868961358686761
30
0
41
1
10
22.4702716455191
20
1.0880329742202
30
0
41
1
10
22.267636717599
20
1.19676597522144
30
0
41
1
10
21.9630479968115
20
1.35886846608574
30
0
41
1
10
21.8614165044335
20
1.41274422853408
30
0
41
1
10
21.7088333781771
20
1.49335258737557
30
0
41
1
10
21.6579480341804
20
1.52018473970659
30
0
41
1
10
21.5561201957287
20
1.57375856294385
30
0
41
1
10
21.5051574756976
20
1.60051078395895
30
0
41
1
10
21.2505843899222
20
1.73379309438633
30
0
41
1
10
21.0474709487045
20
1.83895041987074
30
0
41
1
10
20.6418024292266
20
2.04546376169281
30
0
41
1
10
20.4393001218364
20
2.14692393471248
30
0
41
1
10
20.0351928434502
20
2.34670243035214
30
0
41
1
10
19.8336027664273
20
2.44503531903885
30
0
41
1
10
19.4307790226451
20
2.63765757788806
30
0
41
1
10
19.2294691542203
20
2.73183028477118
30
0
41
1
10
18.8270000593589
20
2.91587692696211
30
0
41
1
10
18.6259052489648
20
3.00585128112729
30
0
41
1
10
18.2240302255904
20
3.18173082747086
30
0
41
1
10
18.0232013578258
20
3.26755590451541
30
0
41
1
10
17.6211032126823
20
3.43404663368122
30
0
41
1
10
17.4198422384951
20
3.51473459975043
30
0
41
1
10
17.0170915762524
20
3.67126044628887
30
0
41
1
10
16.8156693594046
20
3.7471796763767
30
0
41
1
10
16.5131687364443
20
3.85711294879246
30
0
41
1
10
16.4122677298243
20
3.89309225310748
30
0
41
1
10
16.210243429342
20
3.96361225479157
30
0
41
1
10
16.1091140482758
20
3.99814631300487
30
0
41
1
10
15.8053928860504
20
4.09959291633902
30
0
41
1
10
15.6024699975134
20
4.16435689937552
30
0
41
1
10
15.2975836637643
20
4.25732183871466
30
0
41
1
10
15.1958626948206
20
4.28760236593007
30
0
41
1
10
15.0430910801143
20
4.33189641720384
30
0
41
1
10
14.9921292197769
20
4.34647499804055
30
0
41
1
10
14.8903102979059
20
4.37519504738023
30
0
41
1
10
14.8394312826206
20
4.38934294504483
30
0
41
1
10
14.5851602637661
20
4.4590004286384
30
0
41
1
10
14.3820847289044
20
4.51121722671729
30
0
41
1
10
14.0780393862149
20
4.58444556383589
30
0
41
1
10
13.9767898828475
20
4.60800819544096
30
0
41
1
10
13.7745240749429
20
4.65347097125562
30
0
41
1
10
13.6735064177383
20
4.67536901092336
30
0
41
1
10
13.3707005425848
20
4.73848988701701
30
0
41
1
10
13.169154150975
20
4.77712927601189
30
0
41
1
10
12.7661081546798
20
4.84722530442676
30
0
41
1
10
12.5646531172932
20
4.87872467309728
30
0
41
1
10
12.1621016479517
20
4.93477542357138
30
0
41
1
10
11.9610529582419
20
4.95933427154469
30
0
41
1
10
11.6594235897613
20
4.99077985042533
30
0
41
1
10
11.5588665743024
20
5.00036242709527
30
0
41
1
10
11.357641693658
20
5.01770951477044
30
0
41
1
10
11.2569796326898
20
5.02547673550214
30
0
41
1
10
10.9548743708932
20
5.04607469661667
30
0
41
1
10
10.7533276863374
20
5.0562103173005
30
0
41
1
10
10.3706513205584
20
5.06856813036674
30
0
41
1
10
10.1895003431297
20
5.07147541104743
30
0
41
1
10
10.008023998165
20
5.0714120106831
30
0
0
SPLINE
5
C1
100
AcDbEntity
8
1
62
256
6
ByLayer
370
18
48
1
60
0
100
AcDbSpline
70
4
71
3
72
8
73
4
40
0
40
0
40
0
40
0
40
1
40
1
40
1
40
1
41
1
10
18.3491441309369
20
3.37239317433929
30
0
41
1
10
18.2554771840032
20
3.33083496667572
30
0
41
1
10
18.1618976118185
20
3.28874727604048
30
0
41
1
10
18.0683935811449
20
3.24615113817023
30
0
0
SPLINE
5
C2
100
AcDbEntity
8
1
62
256
6
ByLayer
370
18
48
1
60
0
100
AcDbSpline
70
4
71
3
72
154
73
150
40
0
40
0
40
0
40
0
40
0.02892765191704
40
0.02892765191704
40
0.0433914778755604
40
0.0433914778755604
40
0.0578553038340808
40
0.0578553038340808
40
0.0723191297926013
40
0.0723191297926013
40
0.0867829557511217
40
0.0867829557511217
40
0.101246781709642
40
0.101246781709642
40
0.115710607668163
40
0.115710607668163
40
0.130174433626683
40
0.130174433626683
40
0.144638259585203
40
0.144638259585203
40
0.159102085543724
40
0.159102085543724
40
0.173565911502244
40
0.173565911502244
40
0.180797824481504
40
0.180797824481504
40
0.188029737460765
40
0.188029737460765
40
0.202493563419285
40
0.202493563419285
40
0.216957389377806
40
0.216957389377806
40
0.231421215336326
40
0.231421215336326
40
0.245885041294846
40
0.245885041294846
40
0.260348867253367
40
0.260348867253367
40
0.274812693211887
40
0.274812693211887
40
0.289276519170408
40
0.289276519170408
40
0.303740345128928
40
0.303740345128928
40
0.318204171087448
40
0.318204171087448
40
0.332667997045969
40
0.332667997045969
40
0.347131823004489
40
0.347131823004489
40
0.35436373598375
40
0.35436373598375
40
0.361595648963011
40
0.361595648963011
40
0.376059474921532
40
0.376059474921532
40
0.390523300880053
40
0.390523300880053
40
0.404987126838574
40
0.404987126838574
40
0.419450952797096
40
0.419450952797096
40
0.433914778755617
40
0.433914778755617
40
0.448378604714138
40
0.448378604714138
40
0.46284243067266
40
0.46284243067266
40
0.477306256631181
40
0.477306256631181
40
0.491770082589702
40
0.491770082589702
40
0.506233908548224
40
0.506233908548224
40
0.520697734506745
40
0.520697734506745
40
0.527929647486006
40
0.527929647486006
40
0.535161560465267
40
0.535161560465267
40
0.549625386423788
40
0.549625386423788
40
0.56408921238231
40
0.56408921238231
40
0.578553038340831
40
0.578553038340831
40
0.593016864299352
40
0.593016864299352
40
0.607480690257874
40
0.607480690257874
40
0.621944516216395
40
0.621944516216395
40
0.636408342174916
40
0.636408342174916
40
0.650872168133438
40
0.650872168133438
40
0.665335994091959
40
0.665335994091959
40
0.67979982005048
40
0.67979982005048
40
0.694263646009001
40
0.694263646009001
40
0.701495558988263
40
0.701495558988263
40
0.708727471967524
40
0.708727471967524
40
0.723191297926045
40
0.723191297926045
40
0.737655123884566
40
0.737655123884566
40
0.752118949843087
40
0.752118949843087
40
0.766582775801609
40
0.766582775801609
40
0.78104660176013
40
0.78104660176013
40
0.795510427718651
40
0.795510427718651
40
0.809974253677172
40
0.809974253677172
40
0.824438079635693
40
0.824438079635693
40
0.838901905594215
40
0.838901905594215
40
0.853365731552736
40
0.853365731552736
40
0.867829557511257
40
0.867829557511257
40
0.875061470490518
40
0.875061470490518
40
0.882293383469779
40
0.882293383469779
40
0.896757209428302
40
0.896757209428302
40
0.911221035386824
40
0.911221035386824
40
0.925684861345346
40
0.925684861345346
40
0.940148687303868
40
0.940148687303868
40
0.95461251326239
40
0.95461251326239
40
0.969076339220912
40
0.969076339220912
40
0.983540165179434
40
0.983540165179434
40
0.998003991137956
40
0.998003991137956
40
1
40
1
40
1
40
1
41
1
10
18.349083910937
20
3.37241063607038
30
0
41
1
10
18.7056438113515
20
3.520407415947
30
0
41
1
10
19.0615495169956
20
3.65861983270784
30
0
41
1
10
19.5931250279093
20
3.85367456813117
30
0
41
1
10
19.7698752322924
20
3.91669525187038
30
0
41
1
10
20.1230116160838
20
4.03810966211225
30
0
41
1
10
20.2994345270295
20
4.09646452510879
30
0
41
1
10
20.6522749463278
20
4.20823608232416
30
0
41
1
10
20.8286206370177
20
4.26173801492649
30
0
41
1
10
21.1809111335805
20
4.36423080025892
30
0
41
1
10
21.3568171748889
20
4.41324750105036
30
0
41
1
10
21.7086675555771
20
4.50630693857514
30
0
41
1
10
21.8846469919585
20
4.55032208432561
30
0
41
1
10
22.2370135540449
20
4.63312450216131
30
0
41
1
10
22.4133268499182
20
4.67197873100707
30
0
41
1
10
22.7659584431965
20
4.74475023277267
30
0
41
1
10
22.9422391749673
20
4.77868163047125
30
0
41
1
10
23.2952398231799
20
4.84123758593637
30
0
41
1
10
23.4719951331056
20
4.86984419030159
30
0
41
1
10
23.8263097300302
20
4.92157038260197
30
0
41
1
10
24.003795798219
20
4.94473583880401
30
0
41
1
10
24.3591796106608
20
4.98571181915116
30
0
41
1
10
24.5370405462651
20
5.00352404832961
30
0
41
1
10
24.804482348586
20
5.0260079781502
30
0
41
1
10
24.8937125968379
20
5.0327935660458
30
0
41
1
10
25.0719018768798
20
5.04490557992551
30
0
41
1
10
25.1609350360529
20
5.05023678428702
30
0
41
1
10
25.4278434124882
20
5.06408684786626
30
0
41
1
10
25.6054905765215
20
5.07047499542529
30
0
41
1
10
25.9599612395816
20
5.07762922836295
30
0
41
1
10
26.1367487404085
20
5.07838344373715
30
0
41
1
10
26.4899592288585
20
5.07424428163185
30
0
41
1
10
26.6664159177986
20
5.06935730183164
30
0
41
1
10
27.0192988479577
20
5.05407178001593
30
0
41
1
10
27.1956500918997
20
5.04367091664932
30
0
41
1
10
27.5479285211508
20
5.01730159755454
30
0
41
1
10
27.7238194040779
20
5.00131038877683
30
0
41
1
10
28.0756405804042
20
4.96384525984897
30
0
41
1
10
28.2516042525625
20
4.94238786895747
30
0
41
1
10
28.6039094965628
20
4.89419416750056
30
0
41
1
10
28.7801752518234
20
4.8674318596579
30
0
41
1
10
29.1326879985337
20
4.80841290207334
30
0
41
1
10
29.3088992748715
20
4.77612253714145
30
0
41
1
10
29.661761400163
20
4.70623638115271
30
0
41
1
10
29.8384458356918
20
4.668667625094
30
0
41
1
10
30.192589490419
20
4.58849531971725
30
0
41
1
10
30.3699735391956
20
4.54584258894153
30
0
41
1
10
30.7251290479152
20
4.45512585188763
30
0
41
1
10
30.9028657167137
20
4.40701617274047
30
0
41
1
10
31.1701194543571
20
4.33102652841333
30
0
41
1
10
31.2593736150376
20
4.30504434312806
30
0
41
1
10
31.4376546434036
20
4.25201761788622
30
0
41
1
10
31.5267317765551
20
4.22497004247091
30
0
41
1
10
31.7937554285912
20
4.14222447723515
30
0
41
1
10
31.9714599681741
20
4.08488982886152
30
0
41
1
10
32.3260157872284
20
3.96564185597964
30
0
41
1
10
32.5028337778699
20
3.90368063696334
30
0
41
1
10
32.856097556559
20
3.77574696871264
30
0
41
1
10
33.0325760760661
20
3.70981855330211
30
0
41
1
10
33.3854664154162
20
3.57440620526248
30
0
41
1
10
33.5618022149878
20
3.50482849818621
30
0
41
1
10
33.9140206991934
20
3.36161519775152
30
0
41
1
10
34.0898698626781
20
3.28792515381318
30
0
41
1
10
34.4416006095078
20
3.13713407325869
30
0
41
1
10
34.6175144948792
20
3.06008268941835
30
0
41
1
10
34.969684462442
20
2.90306659200655
30
0
41
1
10
35.1458635827763
20
2.82299182635921
30
0
41
1
10
35.4981739822152
20
2.65932328766303
30
0
41
1
10
35.6742719674985
20
2.57566889738129
30
0
41
1
10
36.0268991001887
20
2.40554931641648
30
0
41
1
10
36.2034605980858
20
2.31914012463614
30
0
41
1
10
36.5573229251793
20
2.14404353116907
30
0
41
1
10
36.7345475078538
20
2.05523221432836
30
0
41
1
10
37.0893542524282
20
1.87463583311771
30
0
41
1
10
37.2669039948477
20
1.78278423062486
30
0
41
1
10
37.5338684726982
20
1.64338224401016
30
0
41
1
10
37.6229703952408
20
1.59664370830637
30
0
41
1
10
37.8014196662608
20
1.50274454185788
30
0
41
1
10
37.8905777426078
20
1.45570184158524
30
0
41
1
10
38.1578258678548
20
1.3142436077392
30
0
41
1
10
38.3356580910948
20
1.21943833144959
30
0
41
1
10
38.6904334167333
20
1.02841018187715
30
0
41
1
10
38.8673462301168
20
0.932131377326584
30
0
41
1
10
39.2207825988625
20
0.739088723884095
30
0
41
1
10
39.3973385092163
20
0.642384857669896
30
0
41
1
10
39.7503412749873
20
0.449008483305818
30
0
41
1
10
39.9267117296756
20
0.352193710955078
30
0
41
1
10
40.2789645668072
20
0.157891361905655
30
0
41
1
10
40.4548166568842
20
0.0603482255801566
30
0
41
1
10
40.8065379371715
20
-0.134473666805519
30
0
41
1
10
40.9824389365504
20
-0.23169386354553
30
0
41
1
10
41.3345413897937
20
-0.425349705937549
30
0
41
1
10
41.5106653710669
20
-0.52192858536003
30
0
41
1
10
41.8628307081302
20
-0.715006958481752
30
0
41
1
10
42.0388416614286
20
-0.811561820970866
30
0
41
1
10
42.3912787452779
20
-1.00367360662807
30
0
41
1
10
42.5677365088339
20
-1.0991727064432
30
0
41
1
10
42.9213500066831
20
-1.28865598509265
30
0
41
1
10
43.0984289550304
20
-1.3827811224684
30
0
41
1
10
43.4529089019755
20
-1.57020167492553
30
0
41
1
10
43.630280223853
20
-1.66355067611715
30
0
41
1
10
43.896962836988
20
-1.80224707399933
30
0
41
1
10
43.9859614610728
20
-1.84825782327385
30
0
41
1
10
44.1642225938742
20
-1.93973626117042
30
0
41
1
10
44.2535295309166
20
-1.98520873598457
30
0
41
1
10
44.5210175727056
20
-2.12043009699914
30
0
41
1
10
44.6989878340052
20
-2.20916919494079
30
0
41
1
10
45.0540028669352
20
-2.38423496356913
30
0
41
1
10
45.2310206975469
20
-2.47059750185656
30
0
41
1
10
45.584647522292
20
-2.6400413639895
30
0
41
1
10
45.7612888588485
20
-2.7230747564015
30
0
41
1
10
46.1144192903248
20
-2.88553239510742
30
0
41
1
10
46.2908321127735
20
-2.96508060284646
30
0
41
1
10
46.6431342945974
20
-3.12114704928609
30
0
41
1
10
46.8189970369425
20
-3.19769525000257
30
0
41
1
10
47.1707218834326
20
-3.34697324750908
30
0
41
1
10
47.3466157111994
20
-3.41966277197301
30
0
41
1
10
47.6986612077986
20
-3.56092111743919
30
0
41
1
10
47.8747354338367
20
-3.6295989354941
30
0
41
1
10
48.2267660927723
20
-3.76331414176704
30
0
41
1
10
48.4026954530942
20
-3.82837645686973
30
0
41
1
10
48.7549511483037
20
-3.95416937290486
30
0
41
1
10
48.9313087904523
20
-4.01486690451208
30
0
41
1
10
49.2846798968232
20
-4.131657273977
30
0
41
1
10
49.4616165193904
20
-4.18784180571487
30
0
41
1
10
49.8157759223037
20
-4.29596963046527
30
0
41
1
10
49.99297210269
20
-4.34793069146244
30
0
41
1
10
50.2593762876245
20
-4.42222687005705
30
0
41
1
10
50.3482787836265
20
-4.44638640335694
30
0
41
1
10
50.5263409727208
20
-4.49344054501108
30
0
41
1
10
50.6155414598492
20
-4.51633736193702
30
0
41
1
10
50.8832884073777
20
-4.58309753662778
30
0
41
1
10
51.0614093297927
20
-4.62492614864902
30
0
41
1
10
51.4166885999108
20
-4.70344035173827
30
0
41
1
10
51.5938235807776
20
-4.74012872830545
30
0
41
1
10
51.9476625012893
20
-4.80798397276047
30
0
41
1
10
52.1243990562655
20
-4.83913737899837
30
0
41
1
10
52.4776759690708
20
-4.89590682097997
30
0
41
1
10
52.6541405730928
20
-4.92157076070887
30
0
41
1
10
53.0065103031664
20
-4.96755859399821
30
0
41
1
10
53.1823928253128
20
-4.98787822286974
30
0
41
1
10
53.5341369993843
20
-5.0229323397723
30
0
41
1
10
53.7100306205366
20
-5.03766358623903
30
0
41
1
10
54.0620322881158
20
-5.06155887007239
30
0
41
1
10
54.2380633478561
20
-5.07074699128296
30
0
41
1
10
54.5899719464644
20
-5.08360337468616
30
0
41
1
10
54.7658260922631
20
-5.08726058491473
30
0
41
1
10
54.9661623441038
20
-5.08821798261817
30
0
41
1
10
54.9904603859784
20
-5.08828058109518
30
0
41
1
10
55.0147628374535
20
-5.08828973212385
30
0
0
SPLINE
5
C3
100
AcDbEntity
8
1
62
256
6
ByLayer
370
18
48
1
60
0
100
AcDbSpline
70
4
71
3
72
64
73
60
40
0
40
0
40
0
40
0
40
0.0019449675434906
40
0.0019449675434906
40
0.0275361222218602
40
0.0275361222218602
40
0.0531272769002305
40
0.0531272769002305
40
0.0787184315786008
40
0.0787184315786008
40
0.129900740935342
40
0.129900740935342
40
0.155491895613713
40
0.155491895613713
40
0.181083050292085
40
0.181083050292085
40
0.232265359648829
40
0.232265359648829
40
0.283447669005571
40
0.283447669005571
40
0.309038823683943
40
0.309038823683943
40
0.334629978362315
40
0.334629978362315
40
0.385812287719059
40
0.385812287719059
40
0.436994597075802
40
0.436994597075802
40
0.462585751754174
40
0.462585751754174
40
0.488176906432548
40
0.488176906432548
40
0.539359215789294
40
0.539359215789294
40
0.590541525146041
40
0.590541525146041
40
0.616132679824414
40
0.616132679824414
40
0.641723834502787
40
0.641723834502787
40
0.692906143859534
40
0.692906143859534
40
0.718497298537907
40
0.718497298537907
40
0.74408845321628
40
0.74408845321628
40
0.769679607894653
40
0.769679607894653
40
0.795270762573027
40
0.795270762573027
40
0.846453071929767
40
0.846453071929767
40
0.897635381286507
40
0.897635381286507
40
0.92322653596488
40
0.92322653596488
40
0.948817690643254
40
0.948817690643254
40
1
40
1
40
1
40
1
41
1
10
75.8597416250677
20
3.26337357478312
30
0
41
1
10
75.8664788503154
20
3.26624175998487
30
0
41
1
10
75.8732167243328
20
3.26910723496658
30
0
41
1
10
75.9686183773119
20
3.30963693582214
30
0
41
1
10
76.0574010890284
20
3.34682438734717
30
0
41
1
10
76.2351640856502
20
3.42030097234601
30
0
41
1
10
76.3241422506221
20
3.45659315329345
30
0
41
1
10
76.5022555566586
20
3.52833269813436
30
0
41
1
10
76.5914475577188
20
3.56379841351881
30
0
41
1
10
76.858854062796
20
3.66878732364916
30
0
41
1
10
77.0365612480301
20
3.73679179456406
30
0
41
1
10
77.3027209292927
20
3.83525786764108
30
0
41
1
10
77.3913714253329
20
3.86749474493649
30
0
41
1
10
77.5685890863438
20
3.93074401316994
30
0
41
1
10
77.6571602004436
20
3.9617524002972
30
0
41
1
10
77.9226954439721
20
4.05302733537425
30
0
41
1
10
78.0994631563359
20
4.11156847319691
30
0
41
1
10
78.452296813566
20
4.22424924425752
30
0
41
1
10
78.6283576375878
20
4.2783814711043
30
0
41
1
10
78.8923621367271
20
4.35581404677922
30
0
41
1
10
78.9803464224009
20
4.38100155898087
30
0
41
1
10
79.1563358201018
20
4.43008737800645
30
0
41
1
10
79.2443448821847
20
4.4539828106966
30
0
41
1
10
79.5083481971858
20
4.52380062367965
30
0
41
1
10
79.6842997601401
20
4.56787428497157
30
0
41
1
10
80.0359090054192
20
4.65120846876451
30
0
41
1
10
80.2115599561675
20
4.6904618348627
30
0
41
1
10
80.4752485612798
20
4.74537374467991
30
0
41
1
10
80.5631774263001
20
4.76301975302562
30
0
41
1
10
80.7391544185984
20
4.79696548876518
30
0
41
1
10
80.8272070437012
20
4.81326310871933
30
0
41
1
10
81.0914918095682
20
4.86017755150874
30
0
41
1
10
81.2678312649439
20
4.88883096868392
30
0
41
1
10
81.6206176170258
20
4.94093013381737
30
0
41
1
10
81.7970561207756
20
4.96436703966069
30
0
41
1
10
82.0622312033901
20
4.99535337207206
30
0
41
1
10
82.1507064851197
20
5.00498995990833
30
0
41
1
10
82.3278790671293
20
5.02285985536022
30
0
41
1
10
82.4165808333687
20
5.0310924647961
30
0
41
1
10
82.6829674118355
20
5.0537047304945
30
0
41
1
10
82.860913598834
20
5.06600835826407
30
0
41
1
10
83.1282315509698
20
5.0802578041918
30
0
41
1
10
83.2173793879102
20
5.08430265228259
30
0
41
1
10
83.3954652008463
20
5.09094690552288
30
0
41
1
10
83.4844554257251
20
5.09354907616566
30
0
41
1
10
83.6624015613549
20
5.09731263381181
30
0
41
1
10
83.7513558378384
20
5.09847426223052
30
0
41
1
10
83.929283749797
20
5.09936662667141
30
0
41
1
10
84.0182603553396
20
5.09909823772665
30
0
41
1
10
84.2851563023421
20
5.09616303651407
30
0
41
1
10
84.4630234991909
20
5.09136898864656
30
0
41
1
10
84.8184358667691
20
5.07605069444699
30
0
41
1
10
84.9959847118064
20
5.06551274574505
30
0
41
1
10
85.2625376066459
20
5.04545861692299
30
0
41
1
10
85.3514235855249
20
5.03806699369144
30
0
41
1
10
85.5293228704136
20
5.02189264303684
30
0
41
1
10
85.6183371216314
20
5.01311113791436
30
0
41
1
10
85.8854994204339
20
4.98466596795015
30
0
41
1
10
86.0637494816639
20
4.96289890397861
30
0
41
1
10
86.2420497586407
20
4.9382505132306
30
0
0
SPLINE
5
C4
100
AcDbEntity
8
1
62
256
6
ByLayer
370
18
48
1
60
0
100
AcDbSpline
70
4
71
3
72
160
73
156
40
0
40
0
40
0
40
0
40
0.0137978550836435
40
0.0137978550836435
40
0.0219913526567318
40
0.0219913526567318
40
0.0301848502298202
40
0.0301848502298202
40
0.0465718453759968
40
0.0465718453759968
40
0.0629588405221734
40
0.0629588405221734
40
0.0711523380952617
40
0.0711523380952617
40
0.07934583566835
40
0.0875393332414383
40
0.0875393332414383
40
0.0957328308145267
40
0.0957328308145267
40
0.112119825960702
40
0.112119825960702
40
0.128506821106878
40
0.128506821106878
40
0.144893816253054
40
0.144893816253054
40
0.153087313826142
40
0.153087313826142
40
0.16128081139923
40
0.16128081139923
40
0.177667806545405
40
0.177667806545405
40
0.194054801691579
40
0.194054801691579
40
0.210441796837754
40
0.210441796837754
40
0.226828791983929
40
0.226828791983929
40
0.235022289557016
40
0.235022289557016
40
0.23911903834356
40
0.23911903834356
40
0.243215787130103
40
0.243215787130103
40
0.259602782276278
40
0.259602782276278
40
0.275989777422453
40
0.275989777422453
40
0.292376772568628
40
0.292376772568628
40
0.308763767714803
40
0.308763767714803
40
0.325150762860978
40
0.325150762860978
40
0.341537758007153
40
0.341537758007153
40
0.357924753153327
40
0.357924753153327
40
0.366118250726415
40
0.366118250726415
40
0.374311748299503
40
0.374311748299503
40
0.390698743445679
40
0.390698743445679
40
0.407085738591854
40
0.407085738591854
40
0.415279236164942
40
0.415279236164942
40
0.419375984951486
40
0.419375984951486
40
0.42347273373803
40
0.431666231311117
40
0.431666231311117
40
0.439859728884204
40
0.439859728884204
40
0.456246724030378
40
0.456246724030378
40
0.472633719176552
40
0.472633719176552
40
0.489020714322726
40
0.489020714322726
40
0.497214211895813
40
0.497214211895813
40
0.5054077094689
40
0.5054077094689
40
0.521794704615073
40
0.521794704615073
40
0.538181699761246
40
0.538181699761246
40
0.55456869490742
40
0.55456869490742
40
0.570955690053593
40
0.570955690053593
40
0.587342685199766
40
0.587342685199766
40
0.595536182772853
40
0.595536182772853
40
0.60372968034594
40
0.60372968034594
40
0.620116675492115
40
0.620116675492115
40
0.63650367063829
40
0.63650367063829
40
0.652890665784465
40
0.652890665784465
40
0.669277660930639
40
0.669277660930639
40
0.685664656076814
40
0.685664656076814
40
0.702051651222989
40
0.702051651222989
40
0.710245148796077
40
0.710245148796077
40
0.718438646369165
40
0.718438646369165
40
0.734825641515341
40
0.734825641515341
40
0.751212636661516
40
0.751212636661516
40
0.767599631807692
40
0.767599631807692
40
0.77579312938078
40
0.77579312938078
40
0.783986626953869
40
0.783986626953869
40
0.800373622100044
40
0.800373622100044
40
0.81676061724622
40
0.81676061724622
40
0.833147612392396
40
0.833147612392396
40
0.849534607538571
40
0.849534607538571
40
0.865921602684747
40
0.865921602684747
40
0.882308597830923
40
0.882308597830923
40
0.898695592977099
40
0.898695592977099
40
0.915082588123274
40
0.915082588123274
40
0.93146958326945
40
0.93146958326945
40
0.939663080842538
40
0.939663080842538
40
0.947856578415626
40
0.947856578415626
40
0.964243573561803
40
0.964243573561803
40
0.98063056870798
40
0.98063056870798
40
0.988824066281068
40
0.988824066281068
40
0.997017563854155
40
0.997017563854155
40
1
40
1
40
1
40
1
41
1
10
75.8599285544498
20
-3.26284352229837
30
0
41
1
10
75.6906739794611
20
-3.33478374410595
30
0
41
1
10
75.5214130980979
20
-3.40521912591888
30
0
41
1
10
75.2514422408162
20
-3.51479315797326
30
0
41
1
10
75.1508067040722
20
-3.55501505272394
30
0
41
1
10
74.9493472332543
20
-3.63413422567743
30
0
41
1
10
74.8485168745842
20
-3.67302358690412
30
0
41
1
10
74.5457415604867
20
-3.78770595250245
30
0
41
1
10
74.343514061829
20
-3.86151978348042
30
0
41
1
10
73.9385258518601
20
-4.00407887105237
30
0
41
1
10
73.7357420791895
20
-4.07278571878442
30
0
41
1
10
73.4306741730537
20
-4.17139395177867
30
0
41
1
10
73.3287676489948
20
-4.20352716188185
30
0
41
1
10
73.1253144157538
20
-4.26605629773917
30
0
41
1
10
72.9220765746069
20
-4.32690941628704
30
0
41
1
10
72.7193139865056
20
-4.38449250838906
30
0
41
1
10
72.5168241617834
20
-4.44048044846025
30
0
41
1
10
72.4157153024111
20
-4.46767545464104
30
0
41
1
10
72.1126973044813
20
-4.54677450170587
30
0
41
1
10
71.9110929501098
20
-4.59618255920694
30
0
41
1
10
71.5080857644057
20
-4.68794633619501
30
0
41
1
10
71.306726087374
20
-4.73035187050959
30
0
41
1
10
70.9045114602566
20
-4.80841502419088
30
0
41
1
10
70.7037062006454
20
-4.84409052939844
30
0
41
1
10
70.4025650798873
20
-4.89232288317797
30
0
41
1
10
70.3021915288451
20
-4.90751887507813
30
0
41
1
10
70.1013739539146
20
-4.93611418024244
30
0
41
1
10
70.0009349744132
20
-4.94951690022412
30
0
41
1
10
69.6995568174866
20
-4.98706372640285
30
0
41
1
10
69.4985697209962
20
-5.00855711442432
30
0
41
1
10
69.0966104547622
20
-5.04446012164001
30
0
41
1
10
68.8955942099958
20
-5.05884099718907
30
0
41
1
10
68.4928514163717
20
-5.08026975197518
30
0
41
1
10
68.2910860082458
20
-5.08732656342804
30
0
41
1
10
67.8869296187023
20
-5.09412585490182
30
0
41
1
10
67.6846069847962
20
-5.09386380453532
30
0
41
1
10
67.3805496511
20
-5.08786683654071
30
0
41
1
10
67.2790928882354
20
-5.08493411463746
30
0
41
1
10
67.1266865848066
20
-5.07913290369029
30
0
41
1
10
67.0758471827833
20
-5.07696566923502
30
0
41
1
10
66.9740848502909
20
-5.07216517433989
30
0
41
1
10
66.9231402262301
20
-5.0695304795033
30
0
41
1
10
66.6685471039551
20
-5.05520800848277
30
0
41
1
10
66.4653187977857
20
-5.04009005036039
30
0
41
1
10
66.059984136549
20
-5.00256095629143
30
0
41
1
10
65.8578862052782
20
-4.98013087366255
30
0
41
1
10
65.4542459650373
20
-4.92820781872899
30
0
41
1
10
65.2526272445034
20
-4.89875887817149
30
0
41
1
10
64.8497581368991
20
-4.83301597042612
30
0
41
1
10
64.6485728757909
20
-4.79668676823249
30
0
41
1
10
64.2467111623235
20
-4.71709153610655
30
0
41
1
10
64.0459860572781
20
-4.6738455593885
30
0
41
1
10
63.6442949972835
20
-4.58096053348208
30
0
41
1
10
63.4433443260759
20
-4.5313251382787
30
0
41
1
10
63.041430937361
20
-4.42552218895307
30
0
41
1
10
62.8405351034161
20
-4.36928480237077
30
0
41
1
10
62.5389695779401
20
-4.28015970992669
30
0
41
1
10
62.4384049528927
20
-4.24966267418
30
0
41
1
10
62.2371021321331
20
-4.1871807994618
30
0
41
1
10
62.1363587135342
20
-4.15520236397705
30
0
41
1
10
61.8338750625858
20
-4.05703430308643
30
0
41
1
10
61.6318828573491
20
-3.98861684203101
30
0
41
1
10
61.2274414519873
20
-3.84549450378322
30
0
41
1
10
61.0249649142501
20
-3.77080679455162
30
0
41
1
10
60.7204070792992
20
-3.65459323738116
30
0
41
1
10
60.6187365639851
20
-3.61517482465297
30
0
41
1
10
60.4659945938271
20
-3.5550367804959
30
0
41
1
10
60.4150273108144
20
-3.534814760519
30
0
41
1
10
60.3131922920247
20
-3.49409644984627
30
0
41
1
10
60.1605325216756
20
-3.43258591172804
30
0
41
1
10
60.0081660298225
20
-3.36975916453324
30
0
41
1
10
59.805305551252
20
-3.28477330806391
30
0
41
1
10
59.7040207044112
20
-3.24167445540053
30
0
41
1
10
59.4005023668889
20
-3.11070949885124
30
0
41
1
10
59.1985980896542
20
-3.0211827079942
30
0
41
1
10
58.7950717131387
20
-2.83865355014538
30
0
41
1
10
58.5934956875118
20
-2.74558723210885
30
0
41
1
10
58.190938091956
20
-2.55553033915081
30
0
41
1
10
57.9900009542503
20
-2.45846288848995
30
0
41
1
10
57.6887104371355
20
-2.31044008947131
30
0
41
1
10
57.5882948352832
20
-2.26070359913115
30
0
41
1
10
57.3874123656079
20
-2.16057648554198
30
0
41
1
10
57.2869517289532
20
-2.11017590872785
30
0
41
1
10
56.9855411405044
20
-1.95791841535757
30
0
41
1
10
56.7845794643461
20
-1.85497907938216
30
0
41
1
10
56.3827459277414
20
-1.64598147536367
30
0
41
1
10
56.1818283668825
20
-1.53999619737334
30
0
41
1
10
55.7793495497123
20
-1.3261726663373
30
0
41
1
10
55.5777573755485
20
-1.21839642218538
30
0
41
1
10
55.174040402347
20
-1.00079637958254
30
0
41
1
10
54.9719839923604
20
-0.89084309912306
30
0
41
1
10
54.5671771653826
20
-0.669127181781704
30
0
41
1
10
54.3643633891762
20
-0.5574824344001
30
0
41
1
10
54.0591648630794
20
-0.38951462805619
30
0
41
1
10
53.9571937468311
20
-0.333363332575772
30
0
41
1
10
53.7535451003706
20
-0.221100822106166
30
0
41
1
10
53.6518572906679
20
-0.164982040080588
30
0
41
1
10
53.3472534626741
20
0.0034370686435068
30
0
41
1
10
53.1447929838694
20
0.115789109345627
30
0
41
1
10
52.7405000052693
20
0.33952607756413
30
0
41
1
10
52.5385917728998
20
0.450770699518046
30
0
41
1
10
52.1352412825988
20
0.672030417547035
30
0
41
1
10
51.9338650322367
20
0.782168409958501
30
0
41
1
10
51.5316922370635
20
1.00142421624258
30
0
41
1
10
51.3308462274109
20
1.11044794126903
30
0
41
1
10
50.9289874193656
20
1.32612907234267
30
0
41
1
10
50.7279975087058
20
1.4328324026356
30
0
41
1
10
50.326099406562
20
1.64433167540568
30
0
41
1
10
50.1252560245856
20
1.74923804926331
30
0
41
1
10
49.8238183171974
20
1.90473976026181
30
0
41
1
10
49.7233050532514
20
1.95625511662047
30
0
41
1
10
49.5221221228799
20
2.05849755266905
30
0
41
1
10
49.4214491368516
20
2.1092192673583
30
0
41
1
10
49.1192124763774
20
2.26023314809248
30
0
41
1
10
48.9174332656819
20
2.35937963177363
30
0
41
1
10
48.5135054881928
20
2.55493246078709
30
0
41
1
10
48.3113249085664
20
2.65128086245409
30
0
41
1
10
47.905914397946
20
2.84008502578263
30
0
41
1
10
47.7026244755248
20
2.9324481138006
30
0
41
1
10
47.3968901160866
20
3.06804630499806
30
0
41
1
10
47.2950514215773
20
3.11267036060101
30
0
41
1
10
47.0917586026524
20
3.20073189407586
30
0
41
1
10
46.9902676000281
20
3.24417756878401
30
0
41
1
10
46.6861603434359
20
3.37261514650169
30
0
41
1
10
46.4838988306564
20
3.45568617609169
30
0
41
1
10
46.0797462451032
20
3.61600965868985
30
0
41
1
10
45.8779039925726
20
3.6933427842919
30
0
41
1
10
45.4749114803198
20
3.84269776138123
30
0
41
1
10
45.2737985090194
20
3.91475301722457
30
0
41
1
10
44.8717942740773
20
4.05296133263599
30
0
41
1
10
44.670827581881
20
4.11903451931548
30
0
41
1
10
44.2688311163493
20
4.24504032851522
30
0
41
1
10
44.0678630285942
20
4.30504181946637
30
0
41
1
10
43.666094348172
20
4.41910608461396
30
0
41
1
10
43.4652467872016
20
4.47311144258325
30
0
41
1
10
43.0629766858402
20
4.57447442853044
30
0
41
1
10
42.8615340429457
20
4.62182919109338
30
0
41
1
10
42.4582155381733
20
4.71002382742518
30
0
41
1
10
42.2564081448953
20
4.75090609371273
30
0
41
1
10
41.852171342267
20
4.82590468218166
30
0
41
1
10
41.6496769753574
20
4.8599769533285
30
0
41
1
10
41.3450310994663
20
4.90572376290166
30
0
41
1
10
41.2433468661744
20
4.92008873089407
30
0
41
1
10
41.0397304232372
20
4.94705275778836
30
0
41
1
10
40.9377317749863
20
4.95965903308255
30
0
41
1
10
40.6324370564066
20
4.99470869922561
30
0
41
1
10
40.4295573645027
20
5.01440876147171
30
0
41
1
10
40.0245010823289
20
5.04635236133598
30
0
41
1
10
39.8222502643274
20
5.05858905724173
30
0
41
1
10
39.5193018970751
20
5.07145109568131
30
0
41
1
10
39.418396246949
20
5.07482321937189
30
0
41
1
10
39.2167739746065
20
5.07974342848919
30
0
41
1
10
39.1160620497831
20
5.08129090729048
30
0
41
1
10
38.978784041635
20
5.08215268197054
30
0
41
1
10
38.9421588309647
20
5.08226108936813
30
0
41
1
10
38.9055408195819
20
5.08224820492353
30
0
0
SPLINE
5
C5
100
AcDbEntity
8
1
62
256
6
ByLayer
370
18
48
1
60
0
100
AcDbSpline
70
4
71
3
72
48
73
44
40
0
40
0
40
0
40
0
40
0.0266060578310277
40
0.0266060578310277
40
0.0914989873089585
40
0.0914989873089585
40
0.156391916786888
40
0.156391916786888
40
0.188838381525855
40
0.188838381525855
40
0.22128484626482
40
0.22128484626482
40
0.286177775742755
40
0.286177775742755
40
0.31862424048172
40
0.31862424048172
40
0.334847472851203
40
0.334847472851203
40
0.351070705220686
40
0.351070705220686
40
0.415963634698618
40
0.415963634698618
40
0.448410099437584
40
0.448410099437584
40
0.48085656417655
40
0.48085656417655
40
0.545749493654481
40
0.545749493654481
40
0.610642423132411
40
0.610642423132411
40
0.675535352610341
40
0.675535352610341
40
0.707981817349307
40
0.707981817349307
40
0.740428282088271
40
0.740428282088271
40
0.805321211566204
40
0.805321211566204
40
0.870214141044137
40
0.870214141044137
40
0.935107070522068
40
0.935107070522068
40
1
40
1
40
1
40
1
41
1
10
18.0693538580342
20
-3.24714074159508
30
0
41
1
10
17.9869752404333
20
-3.28210653286126
30
0
41
1
10
17.9045822709976
20
-3.31667072510717
30
0
41
1
10
17.6211032126824
20
-3.43404663368122
30
0
41
1
10
17.4198422384951
20
-3.5147345997504
30
0
41
1
10
17.0170915762525
20
-3.67126044628884
30
0
41
1
10
16.8156693594047
20
-3.7471796763767
30
0
41
1
10
16.5131687364444
20
-3.85711294879243
30
0
41
1
10
16.4122677298244
20
-3.89309225310743
30
0
41
1
10
16.210243429342
20
-3.96361225479154
30
0
41
1
10
16.1091140482758
20
-3.99814631300484
30
0
41
1
10
15.8053928860505
20
-4.09959291633896
30
0
41
1
10
15.6024699975135
20
-4.16435689937549
30
0
41
1
10
15.2975836637644
20
-4.25732183871463
30
0
41
1
10
15.1958626948207
20
-4.28760236593007
30
0
41
1
10
15.0430910801144
20
-4.33189641720381
30
0
41
1
10
14.992129219777
20
-4.34647499804052
30
0
41
1
10
14.890310297906
20
-4.3751950473802
30
0
41
1
10
14.8394312826207
20
-4.3893429450448
30
0
41
1
10
14.5851602637661
20
-4.45900042863838
30
0
41
1
10
14.3820847289045
20
-4.51121722671726
30
0
41
1
10
14.0780393862149
20
-4.58444556383586
30
0
41
1
10
13.9767898828476
20
-4.60800819544096
30
0
41
1
10
13.774524074943
20
-4.65347097125562
30
0
41
1
10
13.6735064177383
20
-4.67536901092336
30
0
41
1
10
13.3707005425849
20
-4.73848988701701
30
0
41
1
10
13.1691541509751
20
-4.77712927601186
30
0
41
1
10
12.7661081546798
20
-4.84722530442673
30
0
41
1
10
12.5646531172933
20
-4.87872467309728
30
0
41
1
10
12.1621016479517
20
-4.93477542357138
30
0
41
1
10
11.961052958242
20
-4.95933427154469
30
0
41
1
10
11.6594235897613
20
-4.99077985042533
30
0
41
1
10
11.5588665743024
20
-5.00036242709527
30
0
41
1
10
11.357641693658
20
-5.01770951477044
30
0
41
1
10
11.2569796326898
20
-5.02547673550214
30
0
41
1
10
10.9548743708932
20
-5.04607469661667
30
0
41
1
10
10.7533276863374
20
-5.0562103173005
30
0
41
1
10
10.3500860650351
20
-5.06923224659167
30
0
41
1
10
10.1483469238324
20
-5.07209793472691
30
0
41
1
10
9.74399690547006
20
-5.07045282761291
30
0
41
1
10
9.5413568842776
20
-5.06595876441554
30
0
41
1
10
9.13530092190575
20
-5.04957513205889
30
0
41
1
10
8.93188217005212
20
-5.03768751958214
30
0
41
1
10
8.72816648838281
20
-5.02197758558591
30
0
0
SPLINE
5
C6
100
AcDbEntity
8
1
62
256
6
ByLayer
370
18
48
1
60
0
100
AcDbSpline
70
4
71
3
72
36
73
32
40
0
40
0
40
0
40
0
40
0.136780197433962
40
0.136780197433962
40
0.205170296150946
40
0.205170296150946
40
0.273560394867929
40
0.273560394867929
40
0.341950493584912
40
0.341950493584912
40
0.410340592301895
40
0.410340592301895
40
0.478730691018879
40
0.478730691018879
40
0.547120789735862
40
0.547120789735862
40
0.615510888452845
40
0.615510888452845
40
0.683900987169828
40
0.683900987169828
40
0.752291085886811
40
0.752291085886811
40
0.820681184603795
40
0.820681184603795
40
0.854876233962286
40
0.854876233962286
40
0.889071283320778
40
0.889071283320778
40
0.957461382037761
40
0.957461382037761
40
1
40
1
40
1
40
1
41
1
10
18.3490839109371
20
-3.37241063607038
30
0
41
1
10
18.7056438113515
20
-3.52040741594703
30
0
41
1
10
19.0615495169956
20
-3.65861983270784
30
0
41
1
10
19.5931250279093
20
-3.85367456813117
30
0
41
1
10
19.7698752322925
20
-3.91669525187041
30
0
41
1
10
20.1230116160838
20
-4.03810966211228
30
0
41
1
10
20.2994345270295
20
-4.09646452510879
30
0
41
1
10
20.6522749463278
20
-4.20823608232416
30
0
41
1
10
20.8286206370177
20
-4.26173801492649
30
0
41
1
10
21.1809111335805
20
-4.36423080025895
30
0
41
1
10
21.3568171748889
20
-4.41324750105039
30
0
41
1
10
21.7086675555771
20
-4.50630693857514
30
0
41
1
10
21.8846469919585
20
-4.55032208432561
30
0
41
1
10
22.2370135540449
20
-4.63312450216131
30
0
41
1
10
22.4133268499183
20
-4.67197873100707
30
0
41
1
10
22.7659584431965
20
-4.74475023277267
30
0
41
1
10
22.9422391749673
20
-4.77868163047125
30
0
41
1
10
23.2952398231799
20
-4.84123758593637
30
0
41
1
10
23.4719951331056
20
-4.86984419030159
30
0
41
1
10
23.8263097300302
20
-4.921570382602
30
0
41
1
10
24.003795798219
20
-4.94473583880401
30
0
41
1
10
24.3591796106608
20
-4.98571181915119
30
0
41
1
10
24.5370405462652
20
-5.00352404832961
30
0
41
1
10
24.804482348586
20
-5.02600797815023
30
0
41
1
10
24.8937125968379
20
-5.0327935660458
30
0
41
1
10
25.0719018768798
20
-5.04490557992551
30
0
41
1
10
25.160935036053
20
-5.05023678428702
30
0
41
1
10
25.4278434124882
20
-5.06408684786626
30
0
41
1
10
25.6054905765215
20
-5.07047499542529
30
0
41
1
10
25.8929662235184
20
-5.07627707711174
30
0
41
1
10
26.0030332806424
20
-5.07740990826579
30
0
41
1
10
26.1129909875605
20
-5.07745038990234
30
0
0
SPLINE
5
C7
100
AcDbEntity
8
1
62
256
6
ByLayer
370
18
48
1
60
0
100
AcDbSpline
70
4
71
3
72
178
73
174
40
0
40
0
40
0
40
0
40
0.0010040711409868
40
0.0010040711409868
40
0.0153479807023408
40
0.0153479807023408
40
0.0296918902636948
40
0.0296918902636948
40
0.0440357998250487
40
0.0440357998250487
40
0.0583797093864027
40
0.0583797093864027
40
0.0727236189477567
40
0.0727236189477567
40
0.0870675285091106
40
0.0870675285091106
40
0.0942394832897876
40
0.0942394832897876
40
0.101411438070465
40
0.101411438070465
40
0.115755347631819
40
0.115755347631819
40
0.130099257193172
40
0.130099257193172
40
0.144443166754526
40
0.144443166754526
40
0.15878707631588
40
0.15878707631588
40
0.173130985877234
40
0.173130985877234
40
0.187474895438588
40
0.187474895438588
40
0.201818804999942
40
0.201818804999942
40
0.216162714561296
40
0.216162714561296
40
0.23050662412265
40
0.23050662412265
40
0.244850533684004
40
0.244850533684004
40
0.259194443245358
40
0.259194443245358
40
0.273538352806712
40
0.273538352806712
40
0.28071030758739
40
0.28071030758739
40
0.287882262368067
40
0.287882262368067
40
0.302226171929422
40
0.302226171929422
40
0.316570081490777
40
0.316570081490777
40
0.330913991052131
40
0.330913991052131
40
0.345257900613486
40
0.345257900613486
40
0.359601810174841
40
0.359601810174841
40
0.373945719736196
40
0.373945719736196
40
0.38828962929755
40
0.38828962929755
40
0.402633538858905
40
0.402633538858905
40
0.41697744842026
40
0.41697744842026
40
0.431321357981615
40
0.431321357981615
40
0.445665267542969
40
0.445665267542969
40
0.452837222323647
40
0.452837222323647
40
0.460009177104324
40
0.460009177104324
40
0.474353086665679
40
0.474353086665679
40
0.488696996227034
40
0.488696996227034
40
0.503040905788389
40
0.503040905788389
40
0.517384815349744
40
0.517384815349744
40
0.531728724911098
40
0.531728724911098
40
0.546072634472453
40
0.546072634472453
40
0.560416544033808
40
0.560416544033808
40
0.574760453595163
40
0.574760453595163
40
0.589104363156517
40
0.589104363156517
40
0.603448272717872
40
0.603448272717872
40
0.610620227498549
40
0.610620227498549
40
0.617792182279226
40
0.617792182279226
40
0.624964137059903
40
0.624964137059903
40
0.63213609184058
40
0.63213609184058
40
0.646480001401934
40
0.646480001401934
40
0.65365195618261
40
0.65365195618261
40
0.660823910963288
40
0.660823910963288
40
0.675167820524641
40
0.675167820524641
40
0.689511730085994
40
0.689511730085994
40
0.69668368486667
40
0.69668368486667
40
0.703855639647346
40
0.703855639647346
40
0.718199549208699
40
0.718199549208699
40
0.732543458770052
40
0.732543458770052
40
0.746887368331405
40
0.746887368331405
40
0.761231277892758
40
0.761231277892758
40
0.775575187454111
40
0.775575187454111
40
0.782747142234788
40
0.782747142234788
40
0.789919097015464
40
0.789919097015464
40
0.797091051796141
40
0.797091051796141
40
0.804263006576817
40
0.804263006576817
40
0.818606916138169
40
0.818606916138169
40
0.825778870918846
40
0.825778870918846
40
0.832950825699522
40
0.832950825699522
40
0.847294735260874
40
0.847294735260874
40
0.861638644822226
40
0.861638644822226
40
0.868810599602902
40
0.868810599602902
40
0.875982554383578
40
0.875982554383578
40
0.89032646394493
40
0.89032646394493
40
0.904670373506282
40
0.904670373506282
40
0.911842328286959
40
0.911842328286959
40
0.919014283067635
40
0.919014283067635
40
0.933358192628986
40
0.933358192628986
40
0.947702102190338
40
0.947702102190338
40
0.954874056971013
40
0.954874056971013
40
0.962046011751689
40
0.962046011751689
40
0.976389921313042
40
0.976389921313042
40
0.983561876093717
40
0.983561876093717
40
0.990733830874393
40
0.990733830874393
40
0.997905785655069
40
0.997905785655069
40
1
40
1
40
1
40
1
41
1
10
46.9579283408164
20
3.25663217885099
30
0
41
1
10
46.9702387813659
20
3.26187546020015
30
0
41
1
10
46.9825491215585
20
3.26710953199924
30
0
41
1
10
47.1707218834326
20
3.34697324750908
30
0
41
1
10
47.3466157111994
20
3.41966277197304
30
0
41
1
10
47.6986612077987
20
3.56092111743922
30
0
41
1
10
47.8747354338369
20
3.62959893549413
30
0
41
1
10
48.2267660927724
20
3.76331414176704
30
0
41
1
10
48.4026954530941
20
3.82837645686976
30
0
41
1
10
48.7549511483037
20
3.95416937290483
30
0
41
1
10
48.9313087904524
20
4.01486690451208
30
0
41
1
10
49.2846798968232
20
4.131657273977
30
0
41
1
10
49.4616165193904
20
4.1878418057149
30
0
41
1
10
49.8157759223038
20
4.29596963046529
30
0
41
1
10
49.9929721026902
20
4.34793069146247
30
0
41
1
10
50.2593762876247
20
4.42222687005705
30
0
41
1
10
50.3482787836265
20
4.44638640335697
30
0
41
1
10
50.5263409727209
20
4.49344054501111
30
0
41
1
10
50.6155414598493
20
4.51633736193705
30
0
41
1
10
50.8832884073778
20
4.5830975366278
30
0
41
1
10
51.0614093297928
20
4.62492614864905
30
0
41
1
10
51.4166885999108
20
4.70344035173827
30
0
41
1
10
51.5938235807777
20
4.74012872830545
30
0
41
1
10
51.9476625012893
20
4.80798397276047
30
0
41
1
10
52.1243990562656
20
4.8391373789984
30
0
41
1
10
52.4776759690709
20
4.89590682098
30
0
41
1
10
52.6541405730928
20
4.92157076070887
30
0
41
1
10
53.0065103031664
20
4.96755859399823
30
0
41
1
10
53.1823928253128
20
4.98787822286974
30
0
41
1
10
53.5341369993843
20
5.0229323397723
30
0
41
1
10
53.7100306205366
20
5.03766358623903
30
0
41
1
10
54.0620322881157
20
5.06155887007239
30
0
41
1
10
54.2380633478561
20
5.07074699128296
30
0
41
1
10
54.5899719464644
20
5.08360337468616
30
0
41
1
10
54.7658260922631
20
5.08726058491473
30
0
41
1
10
55.1179108745704
20
5.08894318184315
30
0
41
1
10
55.2941728195903
20
5.08697515899453
30
0
41
1
10
55.6473096426383
20
5.07746104328399
30
0
41
1
10
55.8241080083599
20
5.06991497839559
30
0
41
1
10
56.1779544799888
20
5.04913491630305
30
0
41
1
10
56.3549793216503
20
5.03588145777141
30
0
41
1
10
56.709819236456
20
5.00370542043643
30
0
41
1
10
56.887666971902
20
4.98480083445503
30
0
41
1
10
57.1552071846379
20
4.95226408538701
30
0
41
1
10
57.2445206317018
20
4.9407117301017
30
0
41
1
10
57.4227795388826
20
4.91625258538676
30
0
41
1
10
57.5117948587832
20
4.90333885127919
30
0
41
1
10
57.7784725842652
20
4.86253337734979
30
0
41
1
10
57.95573795837
20
4.83255353023822
30
0
41
1
10
58.3098131688642
20
4.76741112793837
30
0
41
1
10
58.486656106678
20
4.73227663165443
30
0
41
1
10
58.8401014843592
20
4.65707988591973
30
0
41
1
10
59.0166289717024
20
4.61696836600117
30
0
41
1
10
59.3690880353482
20
4.53155916438928
30
0
41
1
10
59.545001251225
20
4.48623459090308
30
0
41
1
10
59.8967844410616
20
4.39084750140333
30
0
41
1
10
60.0726868914605
20
4.34082100687814
30
0
41
1
10
60.4246624220639
20
4.23630665814883
30
0
41
1
10
60.6006592949044
20
4.18174820291244
30
0
41
1
10
60.9524634540145
20
4.06778185573893
30
0
41
1
10
61.128251293362
20
4.00834129603098
30
0
41
1
10
61.4801810779273
20
3.88516383886409
30
0
41
1
10
61.6563546022362
20
3.82147023957381
30
0
41
1
10
62.0092713558257
20
3.69008941040798
30
0
41
1
10
62.1859386996917
20
3.62231202488243
30
0
41
1
10
62.5394864355049
20
3.48225052577601
30
0
41
1
10
62.7163470993027
20
3.40992744199784
30
0
41
1
10
63.070834064671
20
3.26145096949961
30
0
41
1
10
63.2484931636627
20
3.18535181413145
30
0
41
1
10
63.5157179536026
20
3.06858006492425
30
0
41
1
10
63.6049425277819
20
3.02917632203696
30
0
41
1
10
63.7833773812835
20
2.94946258652476
30
0
41
1
10
63.8724757947762
20
2.90920716222419
30
0
41
1
10
64.1393882787845
20
2.78720472764329
30
0
41
1
10
64.3167950896926
20
2.70417941052122
30
0
41
1
10
64.6711271715966
20
2.53571247728388
30
0
41
1
10
64.848086177871
20
2.45032858843305
30
0
41
1
10
65.2017197842767
20
2.27750759600309
30
0
41
1
10
65.3783204269033
20
2.18994868977009
30
0
41
1
10
65.7308895379619
20
2.01219749885999
30
0
41
1
10
65.9068440264074
20
1.92197753159965
30
0
41
1
10
66.2586860029257
20
1.73986463849252
30
0
41
1
10
66.4346066722713
20
1.64803136274929
30
0
41
1
10
66.786575199219
20
1.46305558237344
30
0
41
1
10
66.9625478659136
20
1.36978252332239
30
0
41
1
10
67.3142678005012
20
1.18129778901326
30
0
41
1
10
67.4899997600293
20
1.08605493713597
30
0
41
1
10
67.8417942456771
20
0.894613619739147
30
0
41
1
10
68.0178888381335
20
0.798475581845281
30
0
41
1
10
68.3706048738644
20
0.605617580526371
30
0
41
1
10
68.5471512848017
20
0.508760855563764
30
0
41
1
10
68.9004208042648
20
0.31379861774073
30
0
41
1
10
69.077127873609
20
0.215658992831777
30
0
41
1
10
69.3427436414711
20
0.0682891889011898
30
0
41
1
10
69.4313727192025
20
0.0191357951859743
30
0
41
1
10
69.6088667320581
20
-0.0791260519709169
30
0
41
1
10
69.6977375113153
20
-0.128223021090236
30
0
41
1
10
69.8756872779647
20
-0.226424930264585
30
0
41
1
10
69.9647639325246
20
-0.275534390886577
30
0
41
1
10
70.1430834766112
20
-0.37384608716846
30
0
41
1
10
70.2323377019904
20
-0.423049312965844
30
0
41
1
10
70.4994951916144
20
-0.570376389407443
30
0
41
1
10
70.6770505881346
20
-0.668405929639249
30
0
41
1
10
70.943002538578
20
-0.814331317371995
30
0
41
1
10
71.0315873496511
20
-0.862791777306938
30
0
41
1
10
71.2086806214395
20
-0.959252626464917
30
0
41
1
10
71.2971938920047
20
-1.00724439717447
30
0
41
1
10
71.5625710024001
20
-1.15062931110737
30
0
41
1
10
71.7392526448511
20
-1.24546960766682
30
0
41
1
10
72.091948302205
20
-1.43400651885551
30
0
41
1
10
72.2679527742195
20
-1.52771442083841
30
0
41
1
10
72.5318909696331
20
-1.66664216054292
30
0
41
1
10
72.6198564297511
20
-1.7126842009703
30
0
41
1
10
72.7958146458905
20
-1.80414196862139
30
0
41
1
10
72.8838123002477
20
-1.84954955573258
30
0
41
1
10
73.1477966493948
20
-1.98492518611462
30
0
41
1
10
73.3237546248332
20
-2.07408204643224
30
0
41
1
10
73.675410248965
20
-2.25052754184705
30
0
41
1
10
73.8510968505433
20
-2.33782890351088
30
0
41
1
10
74.2027766874442
20
-2.50960385530359
30
0
41
1
10
74.3788026448745
20
-2.59402771287387
30
0
41
1
10
74.7313396458954
20
-2.75978446963651
30
0
41
1
10
74.9077766778597
20
-2.84123676082831
30
0
41
1
10
75.2607920732688
20
-3.00156329747986
30
0
41
1
10
75.4373581927719
20
-3.08045036208898
30
0
41
1
10
75.702743424563
20
-3.19616380671133
30
0
41
1
10
75.7912921410111
20
-3.23430302821487
30
0
41
1
10
75.9686183773121
20
-3.30963693582214
30
0
41
1
10
76.0574010890285
20
-3.3468243873472
30
0
41
1
10
76.2351640856502
20
-3.42030097234604
30
0
41
1
10
76.3241422506221
20
-3.45659315329348
30
0
41
1
10
76.5022555566586
20
-3.52833269813439
30
0
41
1
10
76.5914475577188
20
-3.56379841351884
30
0
41
1
10
76.858854062796
20
-3.66878732364918
30
0
41
1
10
77.0365612480301
20
-3.73679179456408
30
0
41
1
10
77.3027209292927
20
-3.8352578676411
30
0
41
1
10
77.391371425333
20
-3.86749474493649
30
0
41
1
10
77.5685890863438
20
-3.93074401316994
30
0
41
1
10
77.6571602004436
20
-3.96175240029723
30
0
41
1
10
77.9226954439722
20
-4.05302733537428
30
0
41
1
10
78.0994631563358
20
-4.11156847319691
30
0
41
1
10
78.4522968135659
20
-4.22424924425752
30
0
41
1
10
78.6283576375878
20
-4.2783814711043
30
0
41
1
10
78.8923621367271
20
-4.35581404677922
30
0
41
1
10
78.9803464224008
20
-4.38100155898087
30
0
41
1
10
79.1563358201017
20
-4.43008737800645
30
0
41
1
10
79.2443448821847
20
-4.4539828106966
30
0
41
1
10
79.5083481971858
20
-4.52380062367965
30
0
41
1
10
79.6842997601399
20
-4.56787428497154
30
0
41
1
10
80.0359090054191
20
-4.65120846876448
30
0
41
1
10
80.2115599561675
20
-4.69046183486273
30
0
41
1
10
80.4752485612798
20
-4.74537374467994
30
0
41
1
10
80.5631774263001
20
-4.76301975302562
30
0
41
1
10
80.7391544185985
20
-4.79696548876518
30
0
41
1
10
80.8272070437012
20
-4.81326310871935
30
0
41
1
10
81.0914918095682
20
-4.86017755150877
30
0
41
1
10
81.2678312649439
20
-4.88883096868392
30
0
41
1
10
81.6206176170258
20
-4.94093013381737
30
0
41
1
10
81.7970561207756
20
-4.96436703966071
30
0
41
1
10
82.0622312033901
20
-4.99535337207206
30
0
41
1
10
82.1507064851198
20
-5.00498995990833
30
0
41
1
10
82.3278790671293
20
-5.0228598553602
30
0
41
1
10
82.4165808333688
20
-5.0310924647961
30
0
41
1
10
82.6829674118355
20
-5.0537047304945
30
0
41
1
10
82.8609135988341
20
-5.06600835826407
30
0
41
1
10
83.1282315509699
20
-5.0802578041918
30
0
41
1
10
83.2173793879102
20
-5.08430265228259
30
0
41
1
10
83.3954652008463
20
-5.09094690552288
30
0
41
1
10
83.4844554257252
20
-5.09354907616566
30
0
41
1
10
83.662401561355
20
-5.09731263381181
30
0
41
1
10
83.7513558378384
20
-5.09847426223052
30
0
41
1
10
83.8662973129867
20
-5.0990507298801
30
0
41
1
10
83.8922759107116
20
-5.09912008790695
30
0
41
1
10
83.9182549909673
20
-5.09912863205543
30
0
0
SPLINE
5
C8
100
AcDbEntity
8
1
62
256
6
ByLayer
370
18
48
1
60
0
100
AcDbSpline
70
4
71
3
72
161
73
157
40
0
40
0
40
0
40
0
40
0.0312500000000025
40
0.0312500000000025
40
0.0625000000000051
40
0.0625000000000051
40
0.0937500000000076
40
0.0937500000000076
40
0.12500000000001
40
0.12500000000001
40
0.156250000000013
40
0.156250000000013
40
0.187500000000015
40
0.187500000000015
40
0.203125000000016
40
0.203125000000016
40
0.210937500000017
40
0.210937500000017
40
0.218750000000017
40
0.218750000000017
40
0.234375000000017
40
0.234375000000017
40
0.250000000000017
40
0.250000000000017
40
0.265625000000018
40
0.265625000000018
40
0.281250000000018
40
0.281250000000018
40
0.289062500000018
40
0.296875000000017
40
0.296875000000017
40
0.304687500000017
40
0.304687500000017
40
0.312500000000017
40
0.312500000000017
40
0.320312500000017
40
0.320312500000017
40
0.328125000000016
40
0.328125000000016
40
0.335937500000016
40
0.335937500000016
40
0.343750000000016
40
0.343750000000016
40
0.359375000000016
40
0.359375000000016
40
0.375000000000015
40
0.375000000000015
40
0.406250000000014
40
0.406250000000014
40
0.421875000000013
40
0.421875000000013
40
0.429687500000013
40
0.429687500000013
40
0.433593750000013
40
0.433593750000013
40
0.437500000000013
40
0.46875000000001
40
0.46875000000001
40
0.484375000000009
40
0.484375000000009
40
0.500000000000008
40
0.515625000000006
40
0.515625000000006
40
0.523437500000006
40
0.523437500000006
40
0.531250000000005
40
0.531250000000005
40
0.546875000000004
40
0.546875000000004
40
0.562500000000003
40
0.562500000000003
40
0.578125000000002
40
0.578125000000002
40
0.585937500000001
40
0.585937500000001
40
0.593750000000001
40
0.593750000000001
40
0.6015625
40
0.6015625
40
0.605468749999999
40
0.605468749999999
40
0.609374999999999
40
0.609374999999999
40
0.617187499999997
40
0.617187499999997
40
0.624999999999995
40
0.624999999999995
40
0.626953124999995
40
0.626953124999995
40
0.628906249999994
40
0.628906249999994
40
0.632812499999994
40
0.632812499999994
40
0.636718749999994
40
0.636718749999994
40
0.638671874999993
40
0.638671874999993
40
0.640624999999993
40
0.640624999999993
40
0.644531249999993
40
0.644531249999993
40
0.646484374999993
40
0.646484374999993
40
0.648437499999993
40
0.648437499999993
40
0.652343749999993
40
0.652343749999993
40
0.656249999999993
40
0.656249999999993
40
0.660156249999993
40
0.660156249999993
40
0.664062499999992
40
0.664062499999992
40
0.671874999999992
40
0.671874999999992
40
0.679687499999992
40
0.679687499999992
40
0.687499999999992
40
0.687499999999992
40
0.691406249999992
40
0.691406249999992
40
0.695312499999991
40
0.695312499999991
40
0.703124999999991
40
0.703124999999991
40
0.718749999999991
40
0.718749999999991
40
0.734374999999991
40
0.734374999999991
40
0.742187499999992
40
0.742187499999992
40
0.749999999999992
40
0.749999999999992
40
0.765624999999992
40
0.765624999999992
40
0.781249999999993
40
0.781249999999993
40
0.812499999999994
40
0.812499999999994
40
0.820312499999995
40
0.820312499999995
40
0.828124999999995
40
0.828124999999995
40
0.843749999999996
40
0.843749999999996
40
0.874999999999997
40
0.874999999999997
40
0.906249999999997
40
0.906249999999997
40
0.937499999999998
40
0.937499999999998
40
0.953124999999999
40
0.953124999999999
40
0.968749999999999
40
0.968749999999999
40
1
40
1
40
1
40
1
41
1
10
18.3491441309369
20
-3.37239317433929
30
0
41
1
10
18.1003603808978
20
-3.26201264966215
30
0
41
1
10
17.8521930231965
20
-3.14789684390541
30
0
41
1
10
17.356647646689
20
-2.9129829759126
30
0
41
1
10
17.1092841986073
20
-2.79216097009737
30
0
41
1
10
16.6147537014668
20
-2.54484917654821
30
0
41
1
10
16.3675948717648
20
-2.41834014329797
30
0
41
1
10
15.8722911250966
20
-2.16169195599645
30
0
41
1
10
15.6241109411042
20
-2.03160727715616
30
0
41
1
10
15.1252510383657
20
-1.77063187162821
30
0
41
1
10
14.8745801226028
20
-1.63973031095401
30
0
41
1
10
14.3697190984974
20
-1.37934143889655
30
0
41
1
10
14.1155667371317
20
-1.24977998315774
30
0
41
1
10
13.7304411430683
20
-1.05919694949691
30
0
41
1
10
13.6014057790244
20
-0.996318046906509
30
0
41
1
10
13.406709026456
20
-0.903331066327297
30
0
41
1
10
13.3416204154736
20
-0.872555799286545
30
0
41
1
10
13.211052574071
20
-0.81148076180699
30
0
41
1
10
13.1455395575044
20
-0.781165328631971
30
0
41
1
10
12.9487442100459
20
-0.691115218527386
30
0
41
1
10
12.8171754766572
20
-0.63225192959132
30
0
41
1
10
12.5532486113942
20
-0.516997153548829
30
0
41
1
10
12.4208962764691
20
-0.46058802475244
30
0
41
1
10
12.1552007562171
20
-0.350848748269925
30
0
41
1
10
12.0218441549135
20
-0.297559591822733
30
0
41
1
10
11.7538543988819
20
-0.194922581532296
30
0
41
1
10
11.619199821776
20
-0.145639889823684
30
0
41
1
10
11.4163961160098
20
-0.0742507702102273
30
0
41
1
10
11.2809324974188
20
-0.027463998330262
30
0
41
1
10
11.1451830353652
20
0.0184332711915545
30
0
41
1
10
11.0094808246991
20
0.0644655216427736
30
0
41
1
10
10.9416529887335
20
0.0875480683949093
30
0
41
1
10
10.8063140756067
20
0.134668506516505
30
0
41
1
10
10.7388050132951
20
0.158712555268096
30
0
41
1
10
10.6044525803422
20
0.208816676154186
30
0
41
1
10
10.5376218710146
20
0.234915266818888
30
0
41
1
10
10.4048269023366
20
0.289736280379714
30
0
41
1
10
10.3388749980591
20
0.318496156932412
30
0
41
1
10
10.2074534366794
20
0.377467531800761
30
0
41
1
10
10.1419607802967
20
0.407608965965892
30
0
41
1
10
10.0106186827414
20
0.466791694668984
30
0
41
1
10
9.94474474941242
20
0.495758645266136
30
0
41
1
10
9.74592119021247
20
0.578987721050908
30
0
41
1
10
9.61182417508786
20
0.629743787871092
30
0
41
1
10
9.34046561665184
20
0.721612514931167
30
0
41
1
10
9.20324888674799
20
0.76286140113848
30
0
41
1
10
8.78771114385421
20
0.874778999924217
30
0
41
1
10
8.5054579531074
20
0.933484729846043
30
0
41
1
10
8.07540263064416
20
1.00129047087336
30
0
41
1
10
7.93094329843933
20
1.02053163267686
30
0
41
1
10
7.71268260405162
20
1.04462893990322
30
0
41
1
10
7.63966606566464
20
1.0518641782524
30
0
41
1
10
7.52975199392043
20
1.06153744618263
30
0
41
1
10
7.4930434908828
20
1.0645653176133
30
0
41
1
10
7.41969032034467
20
1.07021645650138
30
0
41
1
10
7.0896730381983
20
1.0938393353367
30
0
41
1
10
6.76028829286813
20
1.1016161574955
30
0
41
1
10
6.32174186165457
20
1.09616395280733
30
0
41
1
10
6.1756661455955
20
1.09168587299189
30
0
41
1
10
5.8837331992373
20
1.07725898581896
30
0
41
1
10
5.59202002053175
20
1.05732948088854
30
0
41
1
10
5.30077459925781
20
1.02564827122731
30
0
41
1
10
5.08252344343072
20
0.997267455543721
30
0
41
1
10
5.00980351669239
20
0.987037746712303
30
0
41
1
10
4.86442586386377
20
0.965001689515191
30
0
41
1
10
4.79172382175051
20
0.953187185611313
30
0
41
1
10
4.57432545588588
20
0.915416346142933
30
0
41
1
10
4.43017909586348
20
0.887137498609064
30
0
41
1
10
4.1435967475503
20
0.823790279163092
30
0
41
1
10
4.00115612981378
20
0.788740766731735
30
0
41
1
10
3.71837699958167
20
0.71024385642022
30
0
41
1
10
3.57803945829804
20
0.666793915528785
30
0
41
1
10
3.36962858871962
20
0.59319194599982
30
0
41
1
10
3.30060894820124
20
0.567276803144807
30
0
41
1
10
3.16412739293125
20
0.512464287996067
30
0
41
1
10
3.0965930186531
20
0.483545321937242
30
0
41
1
10
2.96318016058407
20
0.42215328148572
30
0
41
1
10
2.89729912896297
20
0.389685710607409
30
0
41
1
10
2.7999907122433
20
0.337729689156987
30
0
41
1
10
2.76780793988985
20
0.319866021524831
30
0
41
1
10
2.70401414089429
20
0.282907625219025
30
0
41
1
10
2.67235530846676
20
0.26378263201164
30
0
41
1
10
2.57874307742461
20
0.204533578830535
30
0
41
1
10
2.51822262203592
20
0.162628378821381
30
0
41
1
10
2.40213045183452
20
0.0725078437288005
30
0
41
1
10
2.34654396116008
20
0.0243114339738781
30
0
41
1
10
2.28141548770432
20
-0.0414891380712845
30
0
41
1
10
2.26859395015947
20
-0.0549497790334215
30
0
41
1
10
2.24361333039732
20
-0.0822842963863479
30
0
41
1
10
2.23143464720269
20
-0.0961766066408245
30
0
41
1
10
2.19588674674182
20
-0.13856688352044
30
0
41
1
10
2.1734998747462
20
-0.167773999700899
30
0
41
1
10
2.1317052750438
20
-0.228337307985299
30
0
41
1
10
2.11228595923797
20
-0.259685097863041
30
0
41
1
10
2.08588592888896
20
-0.308674904826205
30
0
41
1
10
2.07756115678174
20
-0.32531847125469
30
0
41
1
10
2.06216998492681
20
-0.358865497149509
30
0
41
1
10
2.05507477010542
20
-0.375822647231644
30
0
41
1
10
2.03571930127316
20
-0.427284478888623
30
0
41
1
10
2.02542395239033
20
-0.462390584928187
30
0
41
1
10
2.01403567997457
20
-0.516285447919614
30
0
41
1
10
2.01090697238863
20
-0.534453675215644
30
0
41
1
10
2.0058879863405
20
-0.571165023956553
30
0
41
1
10
2.0040221801857
20
-0.589508238150103
30
0
41
1
10
2.00003498285542
20
-0.644405195222021
30
0
41
1
10
1.99949108035784
20
-0.680873931270696
30
0
41
1
10
2.0013496325484
20
-0.753596654724134
30
0
41
1
10
2.00376262009635
20
-0.789850284519275
30
0
41
1
10
2.01079159628392
20
-0.862168092081589
30
0
41
1
10
2.01541312238632
20
-0.898232082259938
30
0
41
1
10
2.02639046502381
20
-0.970186443195132
30
0
41
1
10
2.03270957339467
20
-1.00583194502582
30
0
41
1
10
2.05363432813488
20
-1.11188510967401
30
0
41
1
10
2.0701702096973
20
-1.18144256484175
30
0
41
1
10
2.10719922391294
20
-1.31865991584911
30
0
41
1
10
2.12772261308535
20
-1.38631073663694
30
0
41
1
10
2.17258571225673
20
-1.51979040947992
30
0
41
1
10
2.19694332604806
20
-1.58561411242039
30
0
41
1
10
2.23644922726535
20
-1.68297813516949
30
0
41
1
10
2.25011344209247
20
-1.7152040180047
30
0
41
1
10
2.27844032328295
20
-1.77920007083657
30
0
41
1
10
2.29304362801253
20
-1.81083522918615
30
0
41
1
10
2.33806841322775
20
-1.90456043183104
30
0
41
1
10
2.36973206455917
20
-1.96553069101003
30
0
41
1
10
2.46923659684256
20
-2.14430053940004
30
0
41
1
10
2.54156638419545
20
-2.2579811278691
30
0
41
1
10
2.69603462250996
20
-2.47617685066339
30
0
41
1
10
2.77816566847022
20
-2.58069196600357
30
0
41
1
10
2.9076309800522
20
-2.73150018310639
30
0
41
1
10
2.95192919861293
20
-2.78086458836361
30
0
41
1
10
3.04185756778367
20
-2.87700740542189
30
0
41
1
10
3.08752589050147
20
-2.92383920377873
30
0
41
1
10
3.22649790810124
20
-3.06089210798993
30
0
41
1
10
3.32176206590603
20
-3.14768127419509
30
0
41
1
10
3.51701678045666
20
-3.31318932139141
30
0
41
1
10
3.61701214218192
20
-3.39190224527422
30
0
41
1
10
3.92359922442912
20
-3.61712103449187
30
0
41
1
10
4.13677488529626
20
-3.75275521992461
30
0
41
1
10
4.41306321165138
20
-3.90704234806114
30
0
41
1
10
4.46886755282975
20
-3.93715910184884
30
0
41
1
10
4.58091108127365
20
-3.99564732080754
30
0
41
1
10
4.63720236061539
20
-4.02404986177041
30
0
41
1
10
4.80685679843882
20
-4.10687299646278
30
0
41
1
10
4.92099984016389
20
-4.15891304695509
30
0
41
1
10
5.26635485975584
20
-4.30646487026581
30
0
41
1
10
5.5004874134298
20
-4.39344705444819
30
0
41
1
10
5.97571818714644
20
-4.548491535707
30
0
41
1
10
6.21682029085179
20
-4.61653730273383
30
0
41
1
10
6.70529834584423
20
-4.7364497969258
30
0
41
1
10
6.95267492660162
20
-4.78830883004167
30
0
41
1
10
7.32797151621176
20
-4.85548315661225
30
0
41
1
10
7.45382398830469
20
-4.87610765829257
30
0
41
1
10
7.70665723833918
20
-4.91397893651992
30
0
41
1
10
7.83347633496666
20
-4.9312031556147
30
0
41
1
10
8.21506361458125
20
-4.97806166133915
30
0
41
1
10
8.47096043895729
20
-5.00289694594156
30
0
41
1
10
8.72816928523241
20
-5.02197743650163
30
0
0
SPLINE
5
C9
100
AcDbEntity
8
1
62
256
6
ByLayer
370
18
48
1
60
0
100
AcDbSpline
70
4
71
3
72
26
73
22
40
0
40
0
40
0
40
0
40
0.0137458326429366
40
0.083897850558724
40
0.154049868474512
40
0.224201886390299
40
0.294353904306086
40
0.364505922221874
40
0.399581931179768
40
0.434657940137661
40
0.469733949095555
40
0.504809958053449
40
0.539885967011343
40
0.574961975969236
40
0.645113993885024
40
0.715266011800811
40
0.785418029716599
40
0.855570047632386
40
0.925722065548173
40
0.995874083463961
40
1
40
1
40
1
40
1
41
1
10
13.1651709911159
20
-0.776061139759406
30
0
41
1
10
13.1373157728433
20
-0.782318903907054
30
0
41
1
10
12.9673721679035
20
-0.8217240105879
30
0
41
1
10
12.6563425074793
20
-0.907454390761842
30
0
41
1
10
12.2366409162
20
-1.05525265311536
30
0
41
1
10
11.8263914584152
20
-1.23953926630625
30
0
41
1
10
11.4322867450554
20
-1.46330188126561
30
0
41
1
10
11.1253014655061
20
-1.68734174922901
30
0
41
1
10
10.9013670405679
20
-1.8913785419407
30
0
41
1
10
10.746506276945
20
-2.05663558693988
30
0
41
1
10
10.611655460154
20
-2.23537138056275
30
0
41
1
10
10.4880321304728
20
-2.42036283604872
30
0
41
1
10
10.3679482528654
20
-2.60711033344711
30
0
41
1
10
10.2081864048042
20
-2.85618249970901
30
0
41
1
10
10.0060171966332
20
-3.16606451626564
30
0
41
1
10
9.76289524626517
20
-3.53777803775765
30
0
41
1
10
9.51877861731984
20
-3.90917045881733
30
0
41
1
10
9.26919955219188
20
-4.2777560989247
30
0
41
1
10
9.0116615333377
20
-4.64214912301549
30
0
41
1
10
8.8291974302571
20
-4.88911986248633
30
0
41
1
10
8.73348860569985
20
-5.01498945153568
30
0
41
1
10
8.72816648862104
20
-5.02197758527308
30
0
0
SPLINE
5
CA
100
AcDbEntity
8
1
62
256
6
ByLayer
370
18
48
1
60
0
100
AcDbSpline
70
4
71
3
72
19
73
15
40
0
40
0
40
0
40
0
40
0.0180675495707546
40
0.0421484326255385
40
0.0858071334199867
40
0.137574512716291
40
0.206479811899035
40
0.274955310815738
40
0.343143966193728
40
0.424879184589918
40
0.535401212424564
40
0.67531428468607
40
0.845364667662614
40
1
40
1
40
1
40
1
41
1
10
54.0841561218951
20
-0.00096392737629
30
0
41
1
10
54.0844341779119
20
0.0002095070815358
30
0
41
1
10
54.0761170696113
20
0.0050944800289869
30
0
41
1
10
54.0216653760339
20
0.024404579372316
30
0
41
1
10
53.8958547714486
20
0.065197458181018
30
0
41
1
10
53.6985806186972
20
0.131108209955869
30
0
41
1
10
53.4714409713609
20
0.210901211409777
30
0
41
1
10
53.2159443463005
20
0.30572875818109
30
0
41
1
10
52.9386090165145
20
0.414282271284094
30
0
41
1
10
52.598342778949
20
0.554496770737956
30
0
41
1
10
52.1584836944594
20
0.746036150919025
30
0
41
1
10
51.5969837096435
20
1.00528904821275
30
0
41
1
10
50.9727979386012
20
1.30948854015224
30
0
41
1
10
50.5346096915348
20
1.53562207663504
30
0
41
1
10
50.3254078254166
20
1.64634979206286
30
0
0
SPLINE
5
CB
100
AcDbEntity
8
1
62
256
6
ByLayer
370
18
48
1
60
0
100
AcDbSpline
70
4
71
3
72
19
73
15
40
0
40
0
40
0
40
0
40
0.0157368587199567
40
0.0467197635979064
40
0.083846738441223
40
0.129063638948264
40
0.177749330647272
40
0.296204124005238
40
0.398265318900166
40
0.486946167484716
40
0.576585182082993
40
0.698906211013888
40
0.854615039736719
40
1
40
1
40
1
40
1
41
1
10
82.9189395466952
20
0.01893096425772
30
0
41
1
10
82.9192290414121
20
0.0201095702736325
30
0
41
1
10
82.9124303025932
20
0.0254286949697189
30
0
41
1
10
82.8624108636423
20
0.0441101259425238
30
0
41
1
10
82.7559245281494
20
0.0798477840150156
30
0
41
1
10
82.606123155789
20
0.130399537569957
30
0
41
1
10
82.3523408120097
20
0.219207814902575
30
0
41
1
10
82.0294016024502
20
0.339910676778089
30
0
41
1
10
81.6476511443672
20
0.494171150175134
30
0
41
1
10
81.2883604706058
20
0.647341192936636
30
0
41
1
10
80.8899272079397
20
0.82512006115789
30
0
41
1
10
80.3990789608702
20
1.05473416847408
30
0
41
1
10
79.8302372869252
20
1.33414478700993
30
0
41
1
10
79.4243507924811
20
1.54358669269644
30
0
41
1
10
79.2279356474519
20
1.64728607512129
30
0
0
SPLINE
5
CC
100
AcDbEntity
8
1
62
256
6
ByLayer
370
18
48
1
60
0
100
AcDbSpline
70
4
71
3
72
19
73
15
40
0
40
0
40
0
40
0
40
0.0087936030824333
40
0.0398483865874922
40
0.0759969857904757
40
0.163261273534846
40
0.250867649590063
40
0.337797839387134
40
0.403048194208532
40
0.488798556494157
40
0.595610254560205
40
0.723904609899404
40
0.874193275489219
40
1
40
1
40
1
40
1
41
1
10
25.177475139045
20
-0.0011573918442878
30
0
41
1
10
25.1776972733651
20
-0.0005834049914881
30
0
41
1
10
25.1751401477366
20
0.0028564014199048
30
0
41
1
10
25.1375404654155
20
0.0172245192177058
30
0
41
1
10
24.9880743038656
20
0.0660184848359791
30
0
41
1
10
24.7260510114409
20
0.153455423987282
30
0
41
1
10
24.4091310615613
20
0.268236782582079
30
0
41
1
10
24.1049663939142
20
0.385990122653169
30
0
41
1
10
23.7958613187146
20
0.512347727369615
30
0
41
1
10
23.4553698848426
20
0.657843182427428
30
0
41
1
10
23.0282820029819
20
0.849183868647401
30
0
41
1
10
22.5118162295285
20
1.09200250735091
30
0
41
1
10
21.9675511804279
20
1.36073943812545
30
0
41
1
10
21.5944557395302
20
1.55425565025954
30
0
41
1
10
21.4241317318795
20
1.64447430139111
30
0
0
LINE
5
7D
100
AcDbEntity
8
80
62
256
6
ByLayer
370
18
48
1
60
0
100
AcDbLine
10
0
20
0
30
0
11
-5
21
0
31
0
39
0
210
0
220
0
230
1
0
LINE
5
7E
100
AcDbEntity
8
4
62
256
6
ByLayer
370
18
48
0.05
60
0
100
AcDbLine
10
-5
20
0
30
0
11
94
21
0
31
0
39
0
210
0
220
0
230
1
0
LINE
5
80
100
AcDbEntity
8
SK4
62
256
6
ByLayer
370
18
48
0.05
60
0
100
AcDbLine
10
-49
20
0
30
0
11
94
21
0
31
0
39
0
210
0
220
0
230
1
0
LINE
5
82
100
AcDbEntity
8
81
62
256
6
ByLayer
370
18
48
1
60
0
100
AcDbLine
10
89
20
0
30
0
11
94
21
0
31
0
39
0
210
0
220
0
230
1
0
LINE
5
83
100
AcDbEntity
8
1
62
256
6
ByLayer
370
18
48
1
60
0
100
AcDbLine
10
0
20
5.1
30
0
11
0
21
-5.1
31
0
39
0
210
0
220
0
230
1
0
LINE
5
84
100
AcDbEntity
8
1
62
256
6
ByLayer
370
18
48
1
60
0
100
AcDbLine
10
86.24205
20
-5.1
30
0
11
86.24205
21
-2.143409
31
0
39
0
210
0
220
0
230
1
0
LINE
5
85
100
AcDbEntity
8
1
62
256
6
ByLayer
370
18
48
1
60
0
100
AcDbLine
10
86.24205
20
5.1
30
0
11
86.24205
21
4.938251
31
0
39
0
210
0
220
0
230
1
0
LINE
5
86
100
AcDbEntity
8
1
62
256
6
ByLayer
370
18
48
1
60
0
100
AcDbLine
10
0.4
20
-5.067809
30
0
11
0.4
21
5.067809
31
0
39
0
210
0
220
0
230
1
0
LINE
5
87
100
AcDbEntity
8
SK1
62
256
6
ByLayer
370
18
48
1
60
0
100
AcDbLine
10
0
20
5.1
30
0
11
0
21
-5.1
31
0
39
0
210
0
220
0
230
1
0
LINE
5
89
100
AcDbEntity
8
SK1
62
256
6
ByLayer
370
18
48
1
60
0
100
AcDbLine
10
-44
20
-4.35
30
0
11
-44
21
4.35
31
0
39
0
210
0
220
0
230
1
0
LINE
5
8A
100
AcDbEntity
8
SK1
62
256
6
ByLayer
370
18
48
1
60
0
100
AcDbLine
10
-43.25
20
-5.1
30
0
11
-43.25
21
5.1
31
0
39
0
210
0
220
0
230
1
0
LINE
5
8B
100
AcDbEntity
8
1
62
256
6
ByLayer
370
18
48
1
60
0
100
AcDbLine
10
89
20
0
30
0
11
86.24205
21
5.1
31
0
39
0
210
0
220
0
230
1
0
LINE
5
8C
100
AcDbEntity
8
1
62
256
6
ByLayer
370
18
48
1
60
0
100
AcDbLine
10
86.24205
20
-5.1
30
0
11
89
21
0
31
0
39
0
210
0
220
0
230
1
0
LINE
5
8D
100
AcDbEntity
8
1
62
256
6
ByLayer
370
18
48
1
60
0
100
AcDbLine
10
0.4
20
5.067809
30
0
11
0
21
5.1
31
0
39
0
210
0
220
0
230
1
0
LINE
5
8E
100
AcDbEntity
8
1
62
256
6
ByLayer
370
18
48
1
60
0
100
AcDbLine
10
0
20
-5.1
30
0
11
0.4
21
-5.067809
31
0
39
0
210
0
220
0
230
1
0
LINE
5
8F
100
AcDbEntity
8
1
62
256
6
ByLayer
370
18
48
1
60
0
100
AcDbLine
10
0.4
20
-5.067809
30
0
11
10.007546
21
-5.071412
31
0
39
0
210
0
220
0
230
1
0
LINE
5
90
100
AcDbEntity
8
1
62
256
6
ByLayer
370
18
48
1
60
0
100
AcDbLine
10
26.112449
20
-5.077451
30
0
11
38.905017
21
-5.082249
31
0
39
0
210
0
220
0
230
1
0
LINE
5
91
100
AcDbEntity
8
1
62
256
6
ByLayer
370
18
48
1
60
0
100
AcDbLine
10
55.015354
20
-5.08829
30
0
11
67.803463
21
-5.093086
31
0
39
0
210
0
220
0
230
1
0
LINE
5
92
100
AcDbEntity
8
1
62
256
6
ByLayer
370
18
48
1
60
0
100
AcDbLine
10
83.918775
20
-5.099129
30
0
11
86.24205
21
-5.1
31
0
39
0
210
0
220
0
230
1
0
LINE
5
93
100
AcDbEntity
8
1
62
256
6
ByLayer
370
18
48
1
60
0
100
AcDbLine
10
86.24205
20
5.1
30
0
11
83.918775
21
5.099129
31
0
39
0
210
0
220
0
230
1
0
LINE
5
94
100
AcDbEntity
8
1
62
256
6
ByLayer
370
18
48
1
60
0
100
AcDbLine
10
67.803463
20
5.093086
30
0
11
55.015354
21
5.08829
31
0
39
0
210
0
220
0
230
1
0
LINE
5
95
100
AcDbEntity
8
1
62
256
6
ByLayer
370
18
48
1
60
0
100
AcDbLine
10
38.905017
20
5.082249
30
0
11
26.112449
21
5.077451
31
0
39
0
210
0
220
0
230
1
0
LINE
5
96
100
AcDbEntity
8
1
62
256
6
ByLayer
370
18
48
1
60
0
100
AcDbLine
10
10.007546
20
5.071412
30
0
11
0.4
21
5.067809
31
0
39
0
210
0
220
0
230
1
0
LINE
5
97
100
AcDbEntity
8
SK1
62
256
6
ByLayer
370
18
48
1
60
0
100
AcDbLine
10
-43.25
20
-5.1
30
0
11
0
21
-5.1
31
0
39
0
210
0
220
0
230
1
0
LINE
5
98
100
AcDbEntity
8
SK1
62
256
6
ByLayer
370
18
48
1
60
0
100
AcDbLine
10
0
20
5.1
30
0
11
-43.25
21
5.1
31
0
39
0
210
0
220
0
230
1
0
LINE
5
99
100
AcDbEntity
8
SK1
62
256
6
ByLayer
370
18
48
1
60
0
100
AcDbLine
10
-44
20
-4.35
30
0
11
-43.25
21
-5.1
31
0
39
0
210
0
220
0
230
1
0
LINE
5
9A
100
AcDbEntity
8
SK1
62
256
6
ByLayer
370
18
48
1
60
0
100
AcDbLine
10
-43.25
20
5.1
30
0
11
-44
21
4.35
31
0
39
0
210
0
220
0
230
1
0
LINE
5
9B
100
AcDbEntity
8
SK2
62
256
6
ByLayer
370
13
48
1
60
0
100
AcDbLine
10
-50.5
20
-5.1
30
0
11
-50.5
21
33.374683
31
0
39
0
210
0
220
0
230
1
0
LINE
5
9D
100
AcDbEntity
8
SK2
62
256
6
ByLayer
370
13
48
1
60
0
100
AcDbLine
10
-45.5875
20
5.1
30
0
11
-52.5
21
5.1
31
0
39
0
210
0
220
0
230
1
0
LINE
5
9E
100
AcDbEntity
8
SK2
62
256
6
ByLayer
370
13
48
1
60
0
100
AcDbLine
10
-45.5875
20
-5.1
30
0
11
-52.5
21
-5.1
31
0
39
0
210
0
220
0
230
1
0
LINE
5
9F
100
AcDbEntity
8
1
62
256
6
ByLayer
370
18
48
1
60
1
100
AcDbLine
10
-50.5
20
5.1
30
0
11
-50.039216
21
1.600002
31
0
39
0
210
0
220
0
230
1
0
LINE
5
A0
100
AcDbEntity
8
1
62
256
6
ByLayer
370
18
48
1
60
1
100
AcDbLine
10
-50.039216
20
1.600002
30
0
11
-50.960784
21
1.599998
31
0
39
0
210
0
220
0
230
1
0
LINE
5
A1
100
AcDbEntity
8
1
62
256
6
ByLayer
370
18
48
1
60
1
100
AcDbLine
10
-50.960784
20
1.599998
30
0
11
-50.5
21
5.1
31
0
39
0
210
0
220
0
230
1
0
LINE
5
A2
100
AcDbEntity
8
1
62
256
6
ByLayer
370
18
48
1
60
1
100
AcDbLine
10
-50.5
20
-5.1
30
0
11
-50.960784
21
-1.600002
31
0
39
0
210
0
220
0
230
1
0
LINE
5
A3
100
AcDbEntity
8
1
62
256
6
ByLayer
370
18
48
1
60
1
100
AcDbLine
10
-50.960784
20
-1.600002
30
0
11
-50.039216
21
-1.599998
31
0
39
0
210
0
220
0
230
1
0
LINE
5
A4
100
AcDbEntity
8
1
62
256
6
ByLayer
370
18
48
1
60
1
100
AcDbLine
10
-50.039216
20
-1.599998
30
0
11
-50.5
21
-5.1
31
0
39
0
210
0
220
0
230
1
0
LINE
5
A5
100
AcDbEntity
8
2
62
256
6
ByLayer
370
13
48
1
60
0
100
AcDbLine
10
95.74205
20
-5.1
30
0
11
95.74205
21
33.374683
31
0
39
0
210
0
220
0
230
1
0
LINE
5
A7
100
AcDbEntity
8
2
62
256
6
ByLayer
370
13
48
1
60
0
100
AcDbLine
10
87.82955
20
5.1
30
0
11
97.74205
21
5.1
31
0
39
0
210
0
220
0
230
1
0
LINE
5
A8
100
AcDbEntity
8
2
62
256
6
ByLayer
370
13
48
1
60
0
100
AcDbLine
10
87.82955
20
-5.1
30
0
11
97.74205
21
-5.1
31
0
39
0
210
0
220
0
230
1
0
LINE
5
A9
100
AcDbEntity
8
1
62
256
6
ByLayer
370
18
48
1
60
1
100
AcDbLine
10
95.74205
20
5.1
30
0
11
96.202834
21
1.600002
31
0
39
0
210
0
220
0
230
1
0
LINE
5
AA
100
AcDbEntity
8
1
62
256
6
ByLayer
370
18
48
1
60
1
100
AcDbLine
10
96.202834
20
1.600002
30
0
11
95.281266
21
1.599998
31
0
39
0
210
0
220
0
230
1
0
LINE
5
AB
100
AcDbEntity
8
1
62
256
6
ByLayer
370
18
48
1
60
1
100
AcDbLine
10
95.281266
20
1.599998
30
0
11
95.74205
21
5.1
31
0
39
0
210
0
220
0
230
1
0
LINE
5
AC
100
AcDbEntity
8
1
62
256
6
ByLayer
370
18
48
1
60
1
100
AcDbLine
10
95.74205
20
-5.1
30
0
11
95.281266
21
-1.600002
31
0
39
0
210
0
220
0
230
1
0
LINE
5
AD
100
AcDbEntity
8
1
62
256
6
ByLayer
370
18
48
1
60
1
100
AcDbLine
10
95.281266
20
-1.600002
30
0
11
96.202834
21
-1.599998
31
0
39
0
210
0
220
0
230
1
0
LINE
5
AE
100
AcDbEntity
8
1
62
256
6
ByLayer
370
18
48
1
60
1
100
AcDbLine
10
96.202834
20
-1.599998
30
0
11
95.74205
21
-5.1
31
0
39
0
210
0
220
0
230
1
0
LINE
5
AF
100
AcDbEntity
8
2
62
256
6
ByLayer
370
13
48
1
60
0
100
AcDbLine
10
89.755136
20
-1.396397
30
0
11
100.416232
21
-21.110889
31
0
39
0
210
0
220
0
230
1
0
LINE
5
B0
100
AcDbEntity
8
2
62
256
6
ByLayer
370
13
48
1
60
0
100
AcDbLine
10
89.755136
20
1.396397
30
0
11
100.416232
21
21.110889
31
0
39
0
210
0
220
0
230
1
0
LINE
5
B1
100
AcDbEntity
8
1
62
256
6
ByLayer
370
18
48
1
60
1
100
AcDbLine
10
99.464879
20
-19.351649
30
0
11
102.239971
21
-17.169637
31
0
39
0
210
0
220
0
230
1
0
LINE
5
B2
100
AcDbEntity
8
1
62
256
6
ByLayer
370
18
48
1
60
1
100
AcDbLine
10
102.239971
20
-17.169637
30
0
11
102.710161
21
-17.962233
31
0
39
0
210
0
220
0
230
1
0
LINE
5
B3
100
AcDbEntity
8
1
62
256
6
ByLayer
370
18
48
1
60
1
100
AcDbLine
10
102.710161
20
-17.962233
30
0
11
99.464879
21
-19.351649
31
0
39
0
210
0
220
0
230
1
0
LINE
5
B4
100
AcDbEntity
8
1
62
256
6
ByLayer
370
18
48
1
60
1
100
AcDbLine
10
99.464879
20
19.351649
30
0
11
102.710158
21
17.962234
31
0
39
0
210
0
220
0
230
1
0
LINE
5
B5
100
AcDbEntity
8
1
62
256
6
ByLayer
370
18
48
1
60
1
100
AcDbLine
10
102.710158
20
17.962234
30
0
11
102.239974
21
17.169635
31
0
39
0
210
0
220
0
230
1
0
LINE
5
B6
100
AcDbEntity
8
1
62
256
6
ByLayer
370
18
48
1
60
1
100
AcDbLine
10
102.239974
20
17.169635
30
0
11
99.464879
21
19.351649
31
0
39
0
210
0
220
0
230
1
0
LINE
5
D1
100
AcDbEntity
8
1
62
256
6
ByLayer
370
18
48
1
60
1
100
AcDbLine
10
-50.5
20
5.1
30
0
11
-50.039216
21
1.600002
31
0
39
0
210
0
220
0
230
1
0
LINE
5
D2
100
AcDbEntity
8
1
62
256
6
ByLayer
370
18
48
1
60
1
100
AcDbLine
10
-50.039216
20
1.600002
30
0
11
-50.960784
21
1.599998
31
0
39
0
210
0
220
0
230
1
0
LINE
5
D3
100
AcDbEntity
8
1
62
256
6
ByLayer
370
18
48
1
60
1
100
AcDbLine
10
-50.960784
20
1.599998
30
0
11
-50.5
21
5.1
31
0
39
0
210
0
220
0
230
1
0
LINE
5
D5
100
AcDbEntity
8
1
62
256
6
ByLayer
370
18
48
1
60
1
100
AcDbLine
10
-50.5
20
-5.1
30
0
11
-50.960784
21
-1.600002
31
0
39
0
210
0
220
0
230
1
0
LINE
5
D6
100
AcDbEntity
8
1
62
256
6
ByLayer
370
18
48
1
60
1
100
AcDbLine
10
-50.960784
20
-1.600002
30
0
11
-50.039216
21
-1.599998
31
0
39
0
210
0
220
0
230
1
0
LINE
5
D7
100
AcDbEntity
8
1
62
256
6
ByLayer
370
18
48
1
60
1
100
AcDbLine
10
-50.039216
20
-1.599998
30
0
11
-50.5
21
-5.1
31
0
39
0
210
0
220
0
230
1
0
LINE
5
DB
100
AcDbEntity
8
1
62
256
6
ByLayer
370
18
48
1
60
1
100
AcDbLine
10
95.74205
20
5.1
30
0
11
96.202834
21
1.600002
31
0
39
0
210
0
220
0
230
1
0
LINE
5
DC
100
AcDbEntity
8
1
62
256
6
ByLayer
370
18
48
1
60
1
100
AcDbLine
10
96.202834
20
1.600002
30
0
11
95.281266
21
1.599998
31
0
39
0
210
0
220
0
230
1
0
LINE
5
DD
100
AcDbEntity
8
1
62
256
6
ByLayer
370
18
48
1
60
1
100
AcDbLine
10
95.281266
20
1.599998
30
0
11
95.74205
21
5.1
31
0
39
0
210
0
220
0
230
1
0
LINE
5
DF
100
AcDbEntity
8
1
62
256
6
ByLayer
370
18
48
1
60
1
100
AcDbLine
10
95.74205
20
-5.1
30
0
11
95.281266
21
-1.600002
31
0
39
0
210
0
220
0
230
1
0
LINE
5
E0
100
AcDbEntity
8
1
62
256
6
ByLayer
370
18
48
1
60
1
100
AcDbLine
10
95.281266
20
-1.600002
30
0
11
96.202834
21
-1.599998
31
0
39
0
210
0
220
0
230
1
0
LINE
5
E1
100
AcDbEntity
8
1
62
256
6
ByLayer
370
18
48
1
60
1
100
AcDbLine
10
96.202834
20
-1.599998
30
0
11
95.74205
21
-5.1
31
0
39
0
210
0
220
0
230
1
0
LINE
5
E4
100
AcDbEntity
8
1
62
256
6
ByLayer
370
18
48
1
60
1
100
AcDbLine
10
99.464879
20
-19.351649
30
0
11
102.239971
21
-17.169637
31
0
39
0
210
0
220
0
230
1
0
LINE
5
E5
100
AcDbEntity
8
1
62
256
6
ByLayer
370
18
48
1
60
1
100
AcDbLine
10
102.239971
20
-17.169637
30
0
11
102.710161
21
-17.962233
31
0
39
0
210
0
220
0
230
1
0
LINE
5
E6
100
AcDbEntity
8
1
62
256
6
ByLayer
370
18
48
1
60
1
100
AcDbLine
10
102.710161
20
-17.962233
30
0
11
99.464879
21
-19.351649
31
0
39
0
210
0
220
0
230
1
0
LINE
5
E8
100
AcDbEntity
8
1
62
256
6
ByLayer
370
18
48
1
60
1
100
AcDbLine
10
99.464879
20
19.351649
30
0
11
102.710158
21
17.962234
31
0
39
0
210
0
220
0
230
1
0
LINE
5
E9
100
AcDbEntity
8
1
62
256
6
ByLayer
370
18
48
1
60
1
100
AcDbLine
10
102.710158
20
17.962234
30
0
11
102.239974
21
17.169635
31
0
39
0
210
0
220
0
230
1
0
LINE
5
EA
100
AcDbEntity
8
1
62
256
6
ByLayer
370
18
48
1
60
1
100
AcDbLine
10
102.239974
20
17.169635
30
0
11
99.464879
21
19.351649
31
0
39
0
210
0
220
0
230
1
0
MTEXT
5
CD
100
AcDbEntity
8
SK2
62
256
6
ByLayer
370
18
48
1
60
0
100
AcDbMText
10
-51.841114
20
16.758437
30
0
210
0
220
0
230
1
1
%%c
40
3
41
0
44
1.084337
50
90
71
7
72
5
7
iso_b_vert
0
MTEXT
5
D0
100
AcDbEntity
8
SK2
62
256
6
ByLayer
370
18
48
1
60
0
100
AcDbMText
10
-51.841114
20
22.735
30
0
210
0
220
0
230
1
1
\W0.7022;10.200
40
3
41
0
44
1.084337
50
90
71
7
72
5
7
iso_b_vert
0
MTEXT
5
D9
100
AcDbEntity
8
2
62
256
6
ByLayer
370
18
48
1
60
0
100
AcDbMText
10
94.400935
20
16.758437
30
0
210
0
220
0
230
1
1
%%c
40
3
41
0
44
1.084337
50
90
71
7
72
5
7
iso_b_vert
0
MTEXT
5
DA
100
AcDbEntity
8
2
62
256
6
ByLayer
370
18
48
1
60
0
100
AcDbMText
10
94.400935
20
22.735
30
0
210
0
220
0
230
1
1
\W0.7022;10.200
40
3
41
0
44
1.084337
50
90
71
7
72
5
7
iso_b_vert
0
MTEXT
5
E3
100
AcDbEntity
8
2
62
256
6
ByLayer
370
18
48
1
60
0
100
AcDbMText
10
108.092229
20
-2.114886
30
0
210
0
220
0
230
1
1
\W0.6008;118%%d
40
3
41
0
44
1.084337
50
0
71
7
72
5
7
iso_b_vert
0
MTEXT
5
EC
100
AcDbEntity
8
SK6
62
256
6
ByLayer
370
18
48
1
60
0
100
AcDbMText
10
16.062291
20
-67.114886
30
0
210
0
220
0
230
1
1
\W0.7361;R00310.2
40
3
41
0
44
1.084337
50
0
71
7
72
5
7
iso_b_vert
0
HATCH
5
D4
100
AcDbEntity
8
SK2
62
256
6
ByLayer
370
13
48
1
60
0
100
AcDbHatch
10
0
20
0
30
0
210
0
220
0
230
1
2
ANSI31
70
0
71
0
91
1
92
5
93
3
72
1
10
-50.5
20
5.09999999999999
11
-50.0392162584472
21
1.60000169255318
72
1
10
-50.0392162584472
20
1.60000169255318
11
-50.9607837415528
21
1.59999830744681
72
1
10
-50.9607837415528
20
1.59999830744681
11
-50.5
21
5.09999999999999
97
0
75
0
76
1
52
0
41
0.0062
77
0
78
1
53
45
43
0
44
0
45
-0.0139193969876572
46
0.0139193969876572
79
0
47
0
98
1
10
0
20
0
0
HATCH
5
D8
100
AcDbEntity
8
SK2
62
256
6
ByLayer
370
13
48
1
60
0
100
AcDbHatch
10
0
20
0
30
0
210
0
220
0
230
1
2
ANSI31
70
0
71
0
91
1
92
5
93
3
72
1
10
-50.5
20
-5.09999999999999
11
-50.9607837415528
21
-1.60000169255318
72
1
10
-50.9607837415528
20
-1.60000169255318
11
-50.0392162584472
21
-1.59999830744681
72
1
10
-50.0392162584472
20
-1.59999830744681
11
-50.5
21
-5.09999999999999
97
0
75
0
76
1
52
0
41
0.0062
77
0
78
1
53
45
43
0
44
0
45
-0.0139193969876572
46
0.0139193969876572
79
0
47
0
98
1
10
0
20
0
0
HATCH
5
DE
100
AcDbEntity
8
2
62
256
6
ByLayer
370
13
48
1
60
0
100
AcDbHatch
10
0
20
0
30
0
210
0
220
0
230
1
2
ANSI31
70
0
71
0
91
1
92
5
93
3
72
1
10
95.7420497586635
20
5.09999999999999
11
96.2028335002163
21
1.60000169255318
72
1
10
96.2028335002163
20
1.60000169255318
11
95.2812660171107
21
1.59999830744681
72
1
10
95.2812660171107
20
1.59999830744681
11
95.7420497586635
21
5.09999999999999
97
0
75
0
76
1
52
0
41
0.0062
77
0
78
1
53
45
43
0
44
0
45
-0.0139193969876572
46
0.0139193969876572
79
0
47
0
98
1
10
0
20
0
0
HATCH
5
E2
100
AcDbEntity
8
2
62
256
6
ByLayer
370
13
48
1
60
0
100
AcDbHatch
10
0
20
0
30
0
210
0
220
0
230
1
2
ANSI31
70
0
71
0
91
1
92
5
93
3
72
1
10
95.7420497586635
20
-5.09999999999999
11
95.2812660171107
21
-1.60000169255318
72
1
10
95.2812660171107
20
-1.60000169255318
11
96.2028335002163
21
-1.59999830744681
72
1
10
96.2028335002163
20
-1.59999830744681
11
95.7420497586635
21
-5.09999999999999
97
0
75
0
76
1
52
0
41
0.0062
77
0
78
1
53
45
43
0
44
0
45
-0.0139193969876572
46
0.0139193969876572
79
0
47
0
98
1
10
0
20
0
0
HATCH
5
E7
100
AcDbEntity
8
2
62
256
6
ByLayer
370
13
48
1
60
0
100
AcDbHatch
10
0
20
0
30
0
210
0
220
0
230
1
2
ANSI31
70
0
71
0
91
1
92
5
93
3
72
1
10
99.4648791987519
20
-19.3516485952885
11
102.239971107838
21
-17.1696369764528
72
1
10
102.239971107838
20
-17.1696369764528
11
102.710161392925
21
-17.9622325364573
72
1
10
102.710161392925
20
-17.9622325364573
11
99.4648791987519
21
-19.3516485952885
97
0
75
0
76
1
52
0
41
0.0062
77
0
78
1
53
45
43
0
44
0
45
-0.0139193969876572
46
0.0139193969876572
79
0
47
0
98
1
10
0
20
0
0
HATCH
5
EB
100
AcDbEntity
8
2
62
256
6
ByLayer
370
13
48
1
60
0
100
AcDbHatch
10
0
20
0
30
0
210
0
220
0
230
1
2
ANSI31
70
0
71
0
91
1
92
5
93
3
72
1
10
99.4648791987519
20
19.3516485952885
11
102.710158481552
21
17.9622342635519
72
1
10
102.710158481552
20
17.9622342635519
11
102.239974019211
21
17.1696352493581
72
1
10
102.239974019211
20
17.1696352493581
11
99.4648791987519
21
19.3516485952885
97
0
75
0
76
1
52
0
41
0.0062
77
0
78
1
53
45
43
0
44
0
45
-0.0139193969876572
46
0.0139193969876572
79
0
47
0
98
1
10
0
20
0
0
DIMENSION
5
EF
100
AcDbEntity
8
SK2
62
256
6
ByLayer
370
18
48
1
60
0
100
AcDbDimension
2
_U0
10
89
20
-50.871848
30
0
11
22.5
21
-50.871848
31
0
70
32
71
1
72
1
41
1
210
0
220
0
230
1
3
Standard
100
AcDbAlignedDimension
13
-44
23
-5.1
33
0
14
89
24
0
34
0
50
0
100
AcDbRotatedDimension
1001
ACAD
1000
DSTYLE
1002
{
1070
   371
1070
    13
1070
   372
1070
    13
1070
     3
1000

1070
   170
1070
     0
1070
   144
1040
1.0
1070
   277
1070
     2
1070
   284
1070
     8
1070
   278
1070
    46
1070
   146
1040
1.166667
1070
   345
1005
16
1070
   347
1005
16
1070
   346
1005
16
1070
   344
1005
0
1070
   343
1005
0
1070
   172
1070
     1
1070
    76
1070
     0
1070
    75
1070
     0
1070
   282
1070
     0
1070
   281
1070
     0
1070
    71
1070
     0
1070
    74
1070
     0
1070
   279
1070
     0
1070
   173
1070
     1
1070
   340
1005
CE
1070
   271
1070
     2
1070
   272
1070
     3
1070
    77
1070
     1
1070
    73
1070
     1
1070
   171
1070
     3
1070
   274
1070
     4
1070
   177
1070
     2
1070
   176
1070
     2
1070
   178
1070
     2
1070
    78
1070
     8
1070
    48
1040
-0.1
1070
    41
1040
3.5
1070
   147
1040
1.5
1070
    42
1040
1.5875
1070
    44
1040
2.0
1070
   140
1040
3.0
1002
}
1001
ACAD_DSTYLE_DIM_LINETYPE
1070
   380
1005
16
1001
ACAD_DSTYLE_DIM_EXT1_LINETYPE
1070
   381
1005
16
1001
ACAD_DSTYLE_DIM_EXT2_LINETYPE
1070
   382
1005
16
0
DIMENSION
5
108
100
AcDbEntity
8
2
62
256
6
ByLayer
370
18
48
1
60
0
100
AcDbDimension
2
_U1
10
2
20
-40.871848
30
0
11
45.5
21
-40.871848
31
0
70
32
71
1
72
1
41
1
210
0
220
0
230
1
3
Standard
100
AcDbAlignedDimension
13
89
23
0
33
0
14
2
24
-5.1
34
0
50
0
100
AcDbRotatedDimension
1001
ACAD
1000
DSTYLE
1002
{
1070
   371
1070
    13
1070
   372
1070
    13
1070
     3
1000

1070
   170
1070
     0
1070
   144
1040
1.0
1070
   277
1070
     2
1070
   284
1070
     8
1070
   278
1070
    46
1070
   146
1040
1.166667
1070
   345
1005
16
1070
   347
1005
16
1070
   346
1005
16
1070
   344
1005
0
1070
   343
1005
0
1070
   172
1070
     1
1070
    76
1070
     0
1070
    75
1070
     0
1070
   282
1070
     0
1070
   281
1070
     0
1070
    71
1070
     0
1070
    74
1070
     0
1070
   279
1070
     0
1070
   173
1070
     1
1070
   340
1005
CE
1070
   271
1070
     2
1070
   272
1070
     3
1070
    77
1070
     1
1070
    73
1070
     1
1070
   171
1070
     3
1070
   274
1070
     4
1070
   177
1070
     2
1070
   176
1070
     2
1070
   178
1070
     2
1070
    78
1070
     8
1070
    48
1040
-0.1
1070
    41
1040
3.5
1070
   147
1040
1.5
1070
    42
1040
1.5875
1070
    44
1040
2.0
1070
   140
1040
3.0
1002
}
1001
ACAD_DSTYLE_DIM_LINETYPE
1070
   380
1005
16
1001
ACAD_DSTYLE_DIM_EXT1_LINETYPE
1070
   381
1005
16
1001
ACAD_DSTYLE_DIM_EXT2_LINETYPE
1070
   382
1005
16
0
DIMENSION
5
120
100
AcDbEntity
8
SK2
62
256
6
ByLayer
370
18
48
1
60
0
100
AcDbDimension
2
_U2
10
0
20
-35.871848
30
0
11
-22
21
-35.871848
31
0
70
32
71
1
72
1
41
1
210
0
220
0
230
1
3
Standard
100
AcDbAlignedDimension
13
-44
23
-5.1
33
0
14
0
24
-5.1
34
0
50
0
100
AcDbRotatedDimension
1001
ACAD
1000
DSTYLE
1002
{
1070
   371
1070
    13
1070
   372
1070
    13
1070
     3
1000

1070
   170
1070
     0
1070
   144
1040
1.0
1070
   277
1070
     2
1070
   284
1070
     8
1070
   278
1070
    46
1070
   146
1040
1.166667
1070
   345
1005
16
1070
   347
1005
16
1070
   346
1005
16
1070
   344
1005
0
1070
   343
1005
0
1070
   172
1070
     1
1070
    76
1070
     0
1070
    75
1070
     0
1070
   282
1070
     0
1070
   281
1070
     0
1070
    71
1070
     0
1070
    74
1070
     0
1070
   279
1070
     0
1070
   173
1070
     1
1070
   340
1005
CE
1070
   271
1070
     2
1070
   272
1070
     3
1070
    77
1070
     1
1070
    73
1070
     1
1070
   171
1070
     3
1070
   274
1070
     4
1070
   177
1070
     2
1070
   176
1070
     2
1070
   178
1070
     2
1070
    78
1070
     8
1070
    48
1040
-0.1
1070
    41
1040
3.5
1070
   147
1040
1.5
1070
    42
1040
1.5875
1070
    44
1040
2.0
1070
   140
1040
3.0
1002
}
1001
ACAD_DSTYLE_DIM_LINETYPE
1070
   380
1005
16
1001
ACAD_DSTYLE_DIM_EXT1_LINETYPE
1070
   381
1005
16
1001
ACAD_DSTYLE_DIM_EXT2_LINETYPE
1070
   382
1005
16
0
DIMENSION
5
138
100
AcDbEntity
8
2
62
256
6
ByLayer
370
18
48
1
60
0
100
AcDbDimension
2
_U3
10
23.75
20
-33.871848
30
0
11
56.375
21
-33.871848
31
0
70
32
71
1
72
1
41
1
210
0
220
0
230
1
3
Standard
100
AcDbAlignedDimension
13
89
23
0
33
0
14
23.75
24
-5.1
34
0
50
0
100
AcDbRotatedDimension
1001
ACAD
1000
DSTYLE
1002
{
1070
   371
1070
    13
1070
   372
1070
    13
1070
     3
1000

1070
   170
1070
     0
1070
   144
1040
1.0
1070
   277
1070
     2
1070
   284
1070
     8
1070
   278
1070
    46
1070
   146
1040
1.166667
1070
   345
1005
16
1070
   347
1005
16
1070
   346
1005
16
1070
   344
1005
0
1070
   343
1005
0
1070
   172
1070
     1
1070
    76
1070
     0
1070
    75
1070
     0
1070
   282
1070
     0
1070
   281
1070
     0
1070
    71
1070
     0
1070
    74
1070
     0
1070
   279
1070
     0
1070
   173
1070
     1
1070
   340
1005
CE
1070
   271
1070
     2
1070
   272
1070
     3
1070
    77
1070
     1
1070
    73
1070
     1
1070
   171
1070
     3
1070
   274
1070
     4
1070
   177
1070
     2
1070
   176
1070
     2
1070
   178
1070
     2
1070
    78
1070
     8
1070
    48
1040
-0.1
1070
    41
1040
3.5
1070
   147
1040
1.5
1070
    42
1040
1.5875
1070
    44
1040
2.0
1070
   140
1040
3.0
1002
}
1001
ACAD_DSTYLE_DIM_LINETYPE
1070
   380
1005
16
1001
ACAD_DSTYLE_DIM_EXT1_LINETYPE
1070
   381
1005
16
1001
ACAD_DSTYLE_DIM_EXT2_LINETYPE
1070
   382
1005
16
0
ENDSEC
0
SECTION
2
OBJECTS
0
DICTIONARY
5
1c2
330
0
100
AcDbDictionary
280
0
281
1
3
ACAD_GROUP
350
1c3
3
ACAD_MLINESTYLE
350
1c4
0
DICTIONARY
5
1c3
330
0
100
AcDbDictionary
280
0
281
1
0
DICTIONARY
5
1c4
330
0
100
AcDbDictionary
280
0
281
1
3
Standard
350
18
0
MLINESTYLE
5
18
330
1c4
100
AcDbMlineStyle
2
Standard
70
0
3

62
256
51
90
52
90
71
2
49
-0.5
62
256
6
ByLayer
49
0.5
62
256
6
ByLayer
0
RASTERVARIABLES
5
1ae
330

100
AcDbRasterVariables
90
0
70
1
71
1
72
1
0
ENDSEC
0
EOF
