0
SECTION
2
HEADER
9
$ACADVER
1
AC1015
9
$DWGCODEPAGE
3
ANSI_1252
9
$HANDSEED
5
1cf
9
$ANGBASE
50
0
9
$ANGDIR
70
0
9
$ATTMODE
70
1
9
$AUNITS
70
0
9
$AUPREC
70
0
9
$CECOLOR
62
256
9
$CELTSCALE
40
1
9
$CELTYPE
6
ByLayer
9
$CELWEIGHT
370
18
9
$CLAYER
8
0
9
$CMLJUST
70
0
9
$CMLSCALE
40
1
9
$CMLSTYLE
2
Standard
9
$DIMSTYLE
2
Standard
9
$TEXTSIZE
40
0.2
9
$TEXTSTYLE
7
Standard
9
$LUNITS
70
2
9
$LUPREC
70
4
9
$EXTNAMES
290
1
9
$INSUNITS
70
4
9
$LTSCALE
40
1
9
$LWDISPLAY
290
1
9
$PDMODE
70
0
9
$PDSIZE
40
0
9
$PLINEGEN
70
0
0
ENDSEC
0
SECTION
2
CLASSES
0
CLASS
1
RASTERVARIABLES
2
AcDbRasterVariables
3
ISM
90
0
280
0
281
0
0
ENDSEC
0
SECTION
2
TABLES
0
TABLE
2
VPORT
5
1c5
100
AcDbSymbolTable
0
VPORT
5
1
100
AcDbSymbolTableRecord
100
AcDbViewportTableRecord
2
*Active
70
0
10
0
20
0
11
1
21
1
12
-1
22
1
13
0
23
0
14
0.5
24
0.5
15
10
25
10
16
0
26
0
36
1
17
0
27
0
37
0
0
ENDTAB
0
TABLE
2
LTYPE
5
1c6
100
AcDbSymbolTable
0
LTYPE
5
14
100
AcDbSymbolTableRecord
100
AcDbLinetypeTableRecord
70
0
2
ByBlock
3

72
65
73
0
40
0
0
LTYPE
5
15
100
AcDbSymbolTableRecord
100
AcDbLinetypeTableRecord
70
0
2
ByLayer
3

72
65
73
0
40
0
0
LTYPE
5
16
100
AcDbSymbolTableRecord
100
AcDbLinetypeTableRecord
70
0
2
Continuous
3
Solid line
72
65
73
0
40
0
0
LTYPE
5
6E
100
AcDbSymbolTableRecord
100
AcDbLinetypeTableRecord
70
0
2
CENTER
3
____ _ ____ _ ____ _ ____
72
65
73
4
40
47.5
49
22
74
0
49
-8.5
74
0
49
8.5
74
0
49
-8.5
74
0
0
LTYPE
5
6F
100
AcDbSymbolTableRecord
100
AcDbLinetypeTableRecord
70
0
2
DASHED
3
__ __ __ __ __ __ __ __ __
72
65
73
2
40
25.72
49
12.86
74
0
49
-12.86
74
0
0
ENDTAB
0
TABLE
2
LAYER
5
1c7
100
AcDbSymbolTable
0
LAYER
5
10
100
AcDbSymbolTableRecord
100
AcDbLayerTableRecord
2
0
70
0
62
7
6
Continuous
290
1
370
-3
390
0
0
LAYER
5
71
100
AcDbSymbolTableRecord
100
AcDbLayerTableRecord
2
81
70
0
62
-3
6
Continuous
290
1
370
-3
390
0
0
LAYER
5
73
100
AcDbSymbolTableRecord
100
AcDbLayerTableRecord
2
80
70
0
62
-6
6
Continuous
290
1
370
-3
390
0
0
LAYER
5
75
100
AcDbSymbolTableRecord
100
AcDbLayerTableRecord
2
1
70
0
62
4
6
Continuous
290
1
370
-3
390
0
0
LAYER
5
82
100
AcDbSymbolTableRecord
100
AcDbLayerTableRecord
2
4
70
0
62
-2
6
CENTER
290
1
370
-3
390
0
0
LAYER
5
A8
100
AcDbSymbolTableRecord
100
AcDbLayerTableRecord
2
2
70
0
62
7
6
Continuous
290
1
370
-3
390
0
0
LAYER
5
F2
100
AcDbSymbolTableRecord
100
AcDbLayerTableRecord
2
Defpoints
70
0
62
7
6
Continuous
290
0
370
-3
390
0
0
LAYER
5
1af
100
AcDbSymbolTableRecord
100
AcDbLayerTableRecord
2
SK4
70
0
62
2
6
CENTER
290
1
370
-3
390
0
0
LAYER
5
1b0
100
AcDbSymbolTableRecord
100
AcDbLayerTableRecord
2
SK1
70
0
62
4
6
Continuous
290
1
370
-3
390
0
0
LAYER
5
1b1
100
AcDbSymbolTableRecord
100
AcDbLayerTableRecord
2
SK2
70
0
62
7
6
Continuous
290
1
370
-3
390
0
0
LAYER
5
1b2
100
AcDbSymbolTableRecord
100
AcDbLayerTableRecord
2
CUT
70
0
62
-1
6
Continuous
290
1
370
-3
390
0
0
LAYER
5
1b3
100
AcDbSymbolTableRecord
100
AcDbLayerTableRecord
2
NOCUT
70
0
62
-7
6
Continuous
290
1
370
-3
390
0
0
LAYER
5
1b4
100
AcDbSymbolTableRecord
100
AcDbLayerTableRecord
2
SK6
70
0
62
5
6
Continuous
290
1
370
-3
390
0
0
ENDTAB
0
TABLE
2
STYLE
5
1c8
100
AcDbSymbolTable
0
STYLE
5
11
100
AcDbSymbolTableRecord
100
AcDbTextStyleTableRecord
2
Standard
3
txt
70
0
71
0
40
0
41
1
42
0
50
0
0
STYLE
5
CE
100
AcDbSymbolTableRecord
100
AcDbTextStyleTableRecord
2
iso_b_vert
3
simplex.shx
70
0
71
0
40
0
41
1
42
0
50
0
0
STYLE
5
CF
100
AcDbSymbolTableRecord
100
AcDbTextStyleTableRecord
2
DWGDirectTextStyle
3
simplex
70
0
71
0
40
0
41
1
42
0
50
0
0
ENDTAB
0
TABLE
2
DIMSTYLE
5
1c9
100
AcDbSymbolTable
100
AcDbDimStyleTable
0
DIMSTYLE
105
27
100
AcDbSymbolTableRecord
100
AcDbDimStyleTableRecord
2
Standard
70
0
3
<>
41
0.18
42
0.0625
44
0.18
140
0.18
147
0.09
73
0
74
0
77
1
271
2
275
0
278
52
280
0
340
11
0
ENDTAB
0
TABLE
2
VIEW
5
1ca
100
AcDbSymbolTable
0
ENDTAB
0
TABLE
2
UCS
5
1cb
100
AcDbSymbolTable
0
ENDTAB
0
TABLE
2
APPID
5
1cc
100
AcDbSymbolTable
0
APPID
5
12
100
AcDbSymbolTableRecord
100
AcDbRegAppTableRecord
2
ACAD
70
0
0
APPID
5
EE
100
AcDbSymbolTableRecord
100
AcDbRegAppTableRecord
2
ACAD_DSTYLE_DIMBREAK
70
0
0
APPID
5
16E
100
AcDbSymbolTableRecord
100
AcDbRegAppTableRecord
2
ACAD_DSTYLE_DIM_LINETYPE
70
0
0
APPID
5
16F
100
AcDbSymbolTableRecord
100
AcDbRegAppTableRecord
2
ACAD_DSTYLE_DIM_EXT1_LINETYPE
70
0
0
APPID
5
170
100
AcDbSymbolTableRecord
100
AcDbRegAppTableRecord
2
ACAD_DSTYLE_DIM_EXT2_LINETYPE
70
0
0
APPID
5
1AB
100
AcDbSymbolTableRecord
100
AcDbRegAppTableRecord
2
ACAD_MLEADERVER
70
0
0
ENDTAB
0
TABLE
2
BLOCK_RECORD
5
1cd
100
AcDbSymbolTable
0
BLOCK_RECORD
5
1F
100
AcDbSymbolTableRecord
100
AcDbBlockTableRecord
2
*Model_Space
340
0
70
0
0
BLOCK_RECORD
5
1B
100
AcDbSymbolTableRecord
100
AcDbBlockTableRecord
2
*Paper_Space
340
0
70
0
0
BLOCK_RECORD
5
23
100
AcDbSymbolTableRecord
100
AcDbBlockTableRecord
2
*Paper_Space0
340
0
70
0
0
BLOCK_RECORD
5
F3
100
AcDbSymbolTableRecord
100
AcDbBlockTableRecord
2
*D1
340
0
70
0
0
BLOCK_RECORD
5
FF
100
AcDbSymbolTableRecord
100
AcDbBlockTableRecord
2
_U0
340
0
70
0
0
BLOCK_RECORD
5
10B
100
AcDbSymbolTableRecord
100
AcDbBlockTableRecord
2
*D3
340
0
70
0
0
BLOCK_RECORD
5
117
100
AcDbSymbolTableRecord
100
AcDbBlockTableRecord
2
_U1
340
0
70
0
0
BLOCK_RECORD
5
123
100
AcDbSymbolTableRecord
100
AcDbBlockTableRecord
2
*D5
340
0
70
0
0
BLOCK_RECORD
5
12F
100
AcDbSymbolTableRecord
100
AcDbBlockTableRecord
2
_U2
340
0
70
0
0
BLOCK_RECORD
5
13B
100
AcDbSymbolTableRecord
100
AcDbBlockTableRecord
2
*D7
340
0
70
0
0
BLOCK_RECORD
5
147
100
AcDbSymbolTableRecord
100
AcDbBlockTableRecord
2
_U3
340
0
70
0
0
ENDTAB
0
ENDSEC
0
SECTION
2
BLOCKS
0
BLOCK
5
20
100
AcDbEntity
8
0
100
AcDbBlockBegin
2
*Model_Space
70
0
10
0
20
0
30
0
3
*Model_Space
0
ENDBLK
5
21
100
AcDbEntity
8
0
100
AcDbBlockEnd
0
BLOCK
5
1C
100
AcDbEntity
8
0
100
AcDbBlockBegin
2
*Paper_Space
70
0
10
0
20
0
30
0
3
*Paper_Space
0
ENDBLK
5
1D
100
AcDbEntity
8
0
100
AcDbBlockEnd
0
BLOCK
5
24
100
AcDbEntity
8
0
100
AcDbBlockBegin
2
*Paper_Space0
70
0
10
0
20
0
30
0
3
*Paper_Space0
0
ENDBLK
5
25
100
AcDbEntity
8
0
100
AcDbBlockEnd
0
BLOCK
5
F4
100
AcDbEntity
8
0
100
AcDbBlockBegin
2
*D1
70
1
10
0
20
0
30
0
3
*D1
0
LINE
5
F6
100
AcDbEntity
8
0
62
256
6
ByLayer
370
-2
48
1
60
0
100
AcDbLine
10
-27
20
-3.175
30
0
11
-27
21
-53.325937
31
0
39
0
210
0
220
0
230
1
0
LINE
5
F7
100
AcDbEntity
8
0
62
256
6
ByLayer
370
-2
48
1
60
0
100
AcDbLine
10
38
20
-1.5875
30
0
11
38
21
-53.325937
31
0
39
0
210
0
220
0
230
1
0
LINE
5
F8
100
AcDbEntity
8
0
62
256
6
ByLayer
370
-2
48
1
60
0
100
AcDbLine
10
-23.5
20
-51.325937
30
0
11
34.5
21
-51.325937
31
0
39
0
210
0
220
0
230
1
0
SOLID
5
F9
100
AcDbEntity
8
0
62
256
6
ByLayer
370
-1
48
1
60
0
100
AcDbTrace
10
-23.5
20
-50.742604
30
0
11
-23.5
21
-51.909271
31
0
12
-27
22
-51.325937
32
0
13
-27
23
-51.325937
33
0
39
0
210
0
220
0
230
1
0
SOLID
5
FA
100
AcDbEntity
8
0
62
256
6
ByLayer
370
-1
48
1
60
0
100
AcDbTrace
10
34.5
20
-51.909271
30
0
11
34.5
21
-50.742604
31
0
12
38
22
-51.325937
32
0
13
38
23
-51.325937
33
0
39
0
210
0
220
0
230
1
0
MTEXT
5
FB
100
AcDbEntity
8
0
62
256
6
ByLayer
370
18
48
1
60
0
100
AcDbMText
10
5.5
20
-45.325937
30
0
210
0
220
0
230
1
1
\A1;65
40
3
41
0
44
1
50
0
71
5
72
5
7
iso_b_vert
0
POINT
5
FC
100
AcDbEntity
8
Defpoints
62
0
6
ByLayer
370
-1
48
1
60
0
100
AcDbPoint
10
-27
20
-1.5875
30
0
39
0
210
0
220
0
230
1
50
360
0
POINT
5
FD
100
AcDbEntity
8
Defpoints
62
0
6
ByLayer
370
-1
48
1
60
0
100
AcDbPoint
10
38
20
0
30
0
39
0
210
0
220
0
230
1
50
360
0
POINT
5
FE
100
AcDbEntity
8
Defpoints
62
0
6
ByLayer
370
-1
48
1
60
0
100
AcDbPoint
10
38
20
-51.325937
30
0
39
0
210
0
220
0
230
1
50
360
0
ENDBLK
5
F5
100
AcDbEntity
8
0
100
AcDbBlockEnd
0
BLOCK
5
106
100
AcDbEntity
8
0
100
AcDbBlockBegin
2
_U0
70
0
10
0
20
0
30
0
3
_U0
0
MTEXT
5
100
100
AcDbEntity
8
SK2
62
256
6
ByLayer
370
18
48
1
60
0
100
AcDbMText
10
1.01763
20
-50.440823
30
0
210
0
220
0
230
1
1
\W0.7468;65.00
40
3
41
0
44
1.084337
50
0
71
7
72
5
7
iso_b_vert
0
LINE
5
101
100
AcDbEntity
8
SK2
62
256
6
ByLayer
370
13
48
1
60
0
100
AcDbLine
10
-27
20
-3.175
30
0
11
-27
21
-53.325937
31
0
39
0
210
0
220
0
230
1
0
LINE
5
102
100
AcDbEntity
8
SK2
62
256
6
ByLayer
370
13
48
1
60
0
100
AcDbLine
10
38
20
-1.5875
30
0
11
38
21
-53.325937
31
0
39
0
210
0
220
0
230
1
0
LINE
5
103
100
AcDbEntity
8
SK2
62
256
6
ByLayer
370
13
48
1
60
0
100
AcDbLine
10
-27
20
-51.325937
30
0
11
38
21
-51.325937
31
0
39
0
210
0
220
0
230
1
0
SOLID
5
104
100
AcDbEntity
8
SK2
62
256
6
ByLayer
370
18
48
1
60
0
100
AcDbTrace
10
-27
20
-51.325937
30
0
11
-23.500002
21
-50.865153
31
0
12
-23.499998
22
-51.786721
32
0
13
-23.499998
23
-51.786721
33
0
39
0
210
0
220
0
230
1
0
SOLID
5
105
100
AcDbEntity
8
SK2
62
256
6
ByLayer
370
18
48
1
60
0
100
AcDbTrace
10
38
20
-51.325937
30
0
11
34.500002
21
-51.786721
31
0
12
34.499998
22
-50.865153
32
0
13
34.499998
23
-50.865153
33
0
39
0
210
0
220
0
230
1
0
ENDBLK
5
107
100
AcDbEntity
8
0
100
AcDbBlockEnd
0
BLOCK
5
10C
100
AcDbEntity
8
0
100
AcDbBlockBegin
2
*D3
70
1
10
0
20
0
30
0
3
*D3
0
LINE
5
10E
100
AcDbEntity
8
0
62
256
6
ByLayer
370
-2
48
1
60
0
100
AcDbLine
10
38
20
-1.5875
30
0
11
38
21
-43.325937
31
0
39
0
210
0
220
0
230
1
0
LINE
5
10F
100
AcDbEntity
8
0
62
256
6
ByLayer
370
-2
48
1
60
0
100
AcDbLine
10
2
20
-3.175
30
0
11
2
21
-43.325937
31
0
39
0
210
0
220
0
230
1
0
LINE
5
110
100
AcDbEntity
8
0
62
256
6
ByLayer
370
-2
48
1
60
0
100
AcDbLine
10
34.5
20
-41.325937
30
0
11
5.5
21
-41.325937
31
0
39
0
210
0
220
0
230
1
0
SOLID
5
111
100
AcDbEntity
8
0
62
256
6
ByLayer
370
-1
48
1
60
0
100
AcDbTrace
10
34.5
20
-41.909271
30
0
11
34.5
21
-40.742604
31
0
12
38
22
-41.325937
32
0
13
38
23
-41.325937
33
0
39
0
210
0
220
0
230
1
0
SOLID
5
112
100
AcDbEntity
8
0
62
256
6
ByLayer
370
-1
48
1
60
0
100
AcDbTrace
10
5.5
20
-40.742604
30
0
11
5.5
21
-41.909271
31
0
12
2
22
-41.325937
32
0
13
2
23
-41.325937
33
0
39
0
210
0
220
0
230
1
0
MTEXT
5
113
100
AcDbEntity
8
0
62
256
6
ByLayer
370
18
48
1
60
0
100
AcDbMText
10
20
20
-35.325937
30
0
210
0
220
0
230
1
1
\A1;36
40
3
41
0
44
1
50
0
71
5
72
5
7
iso_b_vert
0
POINT
5
114
100
AcDbEntity
8
Defpoints
62
0
6
ByLayer
370
-1
48
1
60
0
100
AcDbPoint
10
38
20
0
30
0
39
0
210
0
220
0
230
1
50
360
0
POINT
5
115
100
AcDbEntity
8
Defpoints
62
0
6
ByLayer
370
-1
48
1
60
0
100
AcDbPoint
10
2
20
-1.5875
30
0
39
0
210
0
220
0
230
1
50
360
0
POINT
5
116
100
AcDbEntity
8
Defpoints
62
0
6
ByLayer
370
-1
48
1
60
0
100
AcDbPoint
10
2
20
-41.325937
30
0
39
0
210
0
220
0
230
1
50
360
0
ENDBLK
5
10D
100
AcDbEntity
8
0
100
AcDbBlockEnd
0
BLOCK
5
11E
100
AcDbEntity
8
0
100
AcDbBlockBegin
2
_U1
70
0
10
0
20
0
30
0
3
_U1
0
MTEXT
5
118
100
AcDbEntity
8
2
62
256
6
ByLayer
370
18
48
1
60
0
100
AcDbMText
10
15.51763
20
-40.440823
30
0
210
0
220
0
230
1
1
\W0.7468;36.00
40
3
41
0
44
1.084337
50
0
71
7
72
5
7
iso_b_vert
0
LINE
5
119
100
AcDbEntity
8
2
62
256
6
ByLayer
370
13
48
1
60
0
100
AcDbLine
10
38
20
-1.5875
30
0
11
38
21
-43.325937
31
0
39
0
210
0
220
0
230
1
0
LINE
5
11A
100
AcDbEntity
8
2
62
256
6
ByLayer
370
13
48
1
60
0
100
AcDbLine
10
2
20
-3.175
30
0
11
2
21
-43.325937
31
0
39
0
210
0
220
0
230
1
0
LINE
5
11B
100
AcDbEntity
8
2
62
256
6
ByLayer
370
13
48
1
60
0
100
AcDbLine
10
38
20
-41.325937
30
0
11
2
21
-41.325937
31
0
39
0
210
0
220
0
230
1
0
SOLID
5
11C
100
AcDbEntity
8
2
62
256
6
ByLayer
370
18
48
1
60
0
100
AcDbTrace
10
38
20
-41.325937
30
0
11
34.500002
21
-41.786721
31
0
12
34.499998
22
-40.865153
32
0
13
34.499998
23
-40.865153
33
0
39
0
210
0
220
0
230
1
0
SOLID
5
11D
100
AcDbEntity
8
2
62
256
6
ByLayer
370
18
48
1
60
0
100
AcDbTrace
10
2
20
-41.325937
30
0
11
5.499998
21
-40.865153
31
0
12
5.500002
22
-41.786721
32
0
13
5.500002
23
-41.786721
33
0
39
0
210
0
220
0
230
1
0
ENDBLK
5
11F
100
AcDbEntity
8
0
100
AcDbBlockEnd
0
BLOCK
5
124
100
AcDbEntity
8
0
100
AcDbBlockBegin
2
*D5
70
1
10
0
20
0
30
0
3
*D5
0
LINE
5
126
100
AcDbEntity
8
0
62
256
6
ByLayer
370
-2
48
1
60
0
100
AcDbLine
10
-27
20
-3.175
30
0
11
-27
21
-38.325937
31
0
39
0
210
0
220
0
230
1
0
LINE
5
127
100
AcDbEntity
8
0
62
256
6
ByLayer
370
-2
48
1
60
0
100
AcDbLine
10
0
20
-3.175
30
0
11
0
21
-38.325937
31
0
39
0
210
0
220
0
230
1
0
LINE
5
128
100
AcDbEntity
8
0
62
256
6
ByLayer
370
-2
48
1
60
0
100
AcDbLine
10
-23.5
20
-36.325937
30
0
11
-3.5
21
-36.325937
31
0
39
0
210
0
220
0
230
1
0
SOLID
5
129
100
AcDbEntity
8
0
62
256
6
ByLayer
370
-1
48
1
60
0
100
AcDbTrace
10
-23.5
20
-35.742604
30
0
11
-23.5
21
-36.909271
31
0
12
-27
22
-36.325937
32
0
13
-27
23
-36.325937
33
0
39
0
210
0
220
0
230
1
0
SOLID
5
12A
100
AcDbEntity
8
0
62
256
6
ByLayer
370
-1
48
1
60
0
100
AcDbTrace
10
-3.5
20
-36.909271
30
0
11
-3.5
21
-35.742604
31
0
12
0
22
-36.325937
32
0
13
0
23
-36.325937
33
0
39
0
210
0
220
0
230
1
0
MTEXT
5
12B
100
AcDbEntity
8
0
62
256
6
ByLayer
370
18
48
1
60
0
100
AcDbMText
10
-13.5
20
-30.325937
30
0
210
0
220
0
230
1
1
\A1;27
40
3
41
0
44
1
50
0
71
5
72
5
7
iso_b_vert
0
POINT
5
12C
100
AcDbEntity
8
Defpoints
62
0
6
ByLayer
370
-1
48
1
60
0
100
AcDbPoint
10
-27
20
-1.5875
30
0
39
0
210
0
220
0
230
1
50
360
0
POINT
5
12D
100
AcDbEntity
8
Defpoints
62
0
6
ByLayer
370
-1
48
1
60
0
100
AcDbPoint
10
0
20
-1.5875
30
0
39
0
210
0
220
0
230
1
50
360
0
POINT
5
12E
100
AcDbEntity
8
Defpoints
62
0
6
ByLayer
370
-1
48
1
60
0
100
AcDbPoint
10
0
20
-36.325937
30
0
39
0
210
0
220
0
230
1
50
360
0
ENDBLK
5
125
100
AcDbEntity
8
0
100
AcDbBlockEnd
0
BLOCK
5
136
100
AcDbEntity
8
0
100
AcDbBlockBegin
2
_U2
70
0
10
0
20
0
30
0
3
_U2
0
MTEXT
5
130
100
AcDbEntity
8
SK2
62
256
6
ByLayer
370
18
48
1
60
0
100
AcDbMText
10
-17.98237
20
-35.440823
30
0
210
0
220
0
230
1
1
\W0.7468;27.00
40
3
41
0
44
1.084337
50
0
71
7
72
5
7
iso_b_vert
0
LINE
5
131
100
AcDbEntity
8
SK2
62
256
6
ByLayer
370
13
48
1
60
0
100
AcDbLine
10
-27
20
-3.175
30
0
11
-27
21
-38.325937
31
0
39
0
210
0
220
0
230
1
0
LINE
5
132
100
AcDbEntity
8
SK2
62
256
6
ByLayer
370
13
48
1
60
0
100
AcDbLine
10
0
20
-3.175
30
0
11
0
21
-38.325937
31
0
39
0
210
0
220
0
230
1
0
LINE
5
133
100
AcDbEntity
8
SK2
62
256
6
ByLayer
370
13
48
1
60
0
100
AcDbLine
10
-27
20
-36.325937
30
0
11
0
21
-36.325937
31
0
39
0
210
0
220
0
230
1
0
SOLID
5
134
100
AcDbEntity
8
SK2
62
256
6
ByLayer
370
18
48
1
60
0
100
AcDbTrace
10
-27
20
-36.325937
30
0
11
-23.500002
21
-35.865153
31
0
12
-23.499998
22
-36.786721
32
0
13
-23.499998
23
-36.786721
33
0
39
0
210
0
220
0
230
1
0
SOLID
5
135
100
AcDbEntity
8
SK2
62
256
6
ByLayer
370
18
48
1
60
0
100
AcDbTrace
10
0
20
-36.325937
30
0
11
-3.499998
21
-36.786721
31
0
12
-3.500002
22
-35.865153
32
0
13
-3.500002
23
-35.865153
33
0
39
0
210
0
220
0
230
1
0
ENDBLK
5
137
100
AcDbEntity
8
0
100
AcDbBlockEnd
0
BLOCK
5
13C
100
AcDbEntity
8
0
100
AcDbBlockBegin
2
*D7
70
1
10
0
20
0
30
0
3
*D7
0
LINE
5
13E
100
AcDbEntity
8
0
62
256
6
ByLayer
370
-2
48
1
60
0
100
AcDbLine
10
38
20
-1.5875
30
0
11
38
21
-36.325937
31
0
39
0
210
0
220
0
230
1
0
LINE
5
13F
100
AcDbEntity
8
0
62
256
6
ByLayer
370
-2
48
1
60
0
100
AcDbLine
10
11
20
-3.175
30
0
11
11
21
-36.325937
31
0
39
0
210
0
220
0
230
1
0
LINE
5
140
100
AcDbEntity
8
0
62
256
6
ByLayer
370
-2
48
1
60
0
100
AcDbLine
10
34.5
20
-34.325937
30
0
11
14.5
21
-34.325937
31
0
39
0
210
0
220
0
230
1
0
SOLID
5
141
100
AcDbEntity
8
0
62
256
6
ByLayer
370
-1
48
1
60
0
100
AcDbTrace
10
34.5
20
-34.909271
30
0
11
34.5
21
-33.742604
31
0
12
38
22
-34.325937
32
0
13
38
23
-34.325937
33
0
39
0
210
0
220
0
230
1
0
SOLID
5
142
100
AcDbEntity
8
0
62
256
6
ByLayer
370
-1
48
1
60
0
100
AcDbTrace
10
14.5
20
-33.742604
30
0
11
14.5
21
-34.909271
31
0
12
11
22
-34.325937
32
0
13
11
23
-34.325937
33
0
39
0
210
0
220
0
230
1
0
MTEXT
5
143
100
AcDbEntity
8
0
62
256
6
ByLayer
370
18
48
1
60
0
100
AcDbMText
10
24.5
20
-28.325937
30
0
210
0
220
0
230
1
1
\A1;27
40
3
41
0
44
1
50
0
71
5
72
5
7
iso_b_vert
0
POINT
5
144
100
AcDbEntity
8
Defpoints
62
0
6
ByLayer
370
-1
48
1
60
0
100
AcDbPoint
10
38
20
0
30
0
39
0
210
0
220
0
230
1
50
360
0
POINT
5
145
100
AcDbEntity
8
Defpoints
62
0
6
ByLayer
370
-1
48
1
60
0
100
AcDbPoint
10
11
20
-1.5875
30
0
39
0
210
0
220
0
230
1
50
360
0
POINT
5
146
100
AcDbEntity
8
Defpoints
62
0
6
ByLayer
370
-1
48
1
60
0
100
AcDbPoint
10
11
20
-34.325937
30
0
39
0
210
0
220
0
230
1
50
360
0
ENDBLK
5
13D
100
AcDbEntity
8
0
100
AcDbBlockEnd
0
BLOCK
5
14E
100
AcDbEntity
8
0
100
AcDbBlockBegin
2
_U3
70
0
10
0
20
0
30
0
3
_U3
0
MTEXT
5
148
100
AcDbEntity
8
2
62
256
6
ByLayer
370
18
48
1
60
0
100
AcDbMText
10
20.01763
20
-33.440823
30
0
210
0
220
0
230
1
1
\W0.7468;27.00
40
3
41
0
44
1.084337
50
0
71
7
72
5
7
iso_b_vert
0
LINE
5
149
100
AcDbEntity
8
2
62
256
6
ByLayer
370
13
48
1
60
0
100
AcDbLine
10
38
20
-1.5875
30
0
11
38
21
-36.325937
31
0
39
0
210
0
220
0
230
1
0
LINE
5
14A
100
AcDbEntity
8
2
62
256
6
ByLayer
370
13
48
1
60
0
100
AcDbLine
10
11
20
-3.175
30
0
11
11
21
-36.325937
31
0
39
0
210
0
220
0
230
1
0
LINE
5
14B
100
AcDbEntity
8
2
62
256
6
ByLayer
370
13
48
1
60
0
100
AcDbLine
10
38
20
-34.325937
30
0
11
11
21
-34.325937
31
0
39
0
210
0
220
0
230
1
0
SOLID
5
14C
100
AcDbEntity
8
2
62
256
6
ByLayer
370
18
48
1
60
0
100
AcDbTrace
10
38
20
-34.325937
30
0
11
34.500002
21
-34.786721
31
0
12
34.499998
22
-33.865153
32
0
13
34.499998
23
-33.865153
33
0
39
0
210
0
220
0
230
1
0
SOLID
5
14D
100
AcDbEntity
8
2
62
256
6
ByLayer
370
18
48
1
60
0
100
AcDbTrace
10
11
20
-34.325937
30
0
11
14.499998
21
-33.865153
31
0
12
14.500002
22
-34.786721
32
0
13
14.500002
23
-34.786721
33
0
39
0
210
0
220
0
230
1
0
ENDBLK
5
14F
100
AcDbEntity
8
0
100
AcDbBlockEnd
0
ENDSEC
0
SECTION
2
ENTITIES
0
ARC
5
B9
100
AcDbEntity
8
2
62
256
6
ByLayer
370
13
48
1
60
0
100
AcDbCircle
39
0
10
38
20
0
30
0
40
22
210
0
220
0
230
1
100
AcDbArc
50
7.83748
51
61.596605
0
ARC
5
BA
100
AcDbEntity
8
2
62
256
6
ByLayer
370
13
48
1
60
0
100
AcDbCircle
39
0
10
38
20
0
30
0
40
22
210
0
220
0
230
1
100
AcDbArc
50
298.403395
51
352.16252
0
POINT
5
70
100
AcDbEntity
8
81
62
256
6
ByLayer
370
18
48
1
60
0
100
AcDbPoint
10
38
20
0
30
0
39
0
210
0
220
0
230
1
50
360
0
POINT
5
72
100
AcDbEntity
8
80
62
256
6
ByLayer
370
18
48
1
60
0
100
AcDbPoint
10
0
20
0
30
0
39
0
210
0
220
0
230
1
50
360
0
POINT
5
74
100
AcDbEntity
8
1
62
256
6
ByLayer
370
18
48
1
60
1
100
AcDbPoint
10
-27
20
-1.5875
30
0
39
0
210
0
220
0
230
1
50
360
0
POINT
5
76
100
AcDbEntity
8
1
62
256
6
ByLayer
370
18
48
1
60
1
100
AcDbPoint
10
38
20
0
30
0
39
0
210
0
220
0
230
1
50
360
0
POINT
5
77
100
AcDbEntity
8
1
62
256
6
ByLayer
370
18
48
1
60
1
100
AcDbPoint
10
38
20
0
30
0
39
0
210
0
220
0
230
1
50
360
0
POINT
5
78
100
AcDbEntity
8
1
62
256
6
ByLayer
370
18
48
1
60
1
100
AcDbPoint
10
2
20
-1.5875
30
0
39
0
210
0
220
0
230
1
50
360
0
POINT
5
79
100
AcDbEntity
8
1
62
256
6
ByLayer
370
18
48
1
60
1
100
AcDbPoint
10
-27
20
-1.5875
30
0
39
0
210
0
220
0
230
1
50
360
0
POINT
5
7A
100
AcDbEntity
8
1
62
256
6
ByLayer
370
18
48
1
60
1
100
AcDbPoint
10
0
20
-1.5875
30
0
39
0
210
0
220
0
230
1
50
360
0
POINT
5
7B
100
AcDbEntity
8
1
62
256
6
ByLayer
370
18
48
1
60
1
100
AcDbPoint
10
38
20
0
30
0
39
0
210
0
220
0
230
1
50
360
0
POINT
5
7C
100
AcDbEntity
8
1
62
256
6
ByLayer
370
18
48
1
60
1
100
AcDbPoint
10
11
20
-1.5875
30
0
39
0
210
0
220
0
230
1
50
360
0
SPLINE
5
BB
100
AcDbEntity
8
CUT
62
256
6
ByLayer
370
18
48
1
60
0
100
AcDbSpline
70
2053
71
3
72
17
73
13
40
0
40
0
40
0
40
0
40
0.477673412403672
40
0.477673412403672
40
0.477673412403672
40
0.505585407818456
40
0.505585407818456
40
0.505585407818456
40
0.968070968129865
40
0.968070968129865
40
0.968070968129865
40
1
40
1
40
1
40
1
41
1
10
38
20
0
30
0
41
1
10
29
20
0
30
0
41
1
10
20
20
0
30
0
41
1
10
11
20
0
30
0
41
1
10
11
20
0.525898976613036
30
0
41
1
10
11
20
1.0517979532261
30
0
41
1
10
11.0000000000002
20
1.57769692983914
30
0
41
1
10
19.7138401301911
20
1.58096461988777
30
0
41
1
10
28.4276802603818
20
1.58423230993637
30
0
41
1
10
37.1415203905725
20
1.587499999985
30
0
41
1
10
37.4276802603816
20
1.05833333332333
30
0
41
1
10
37.7138401301908
20
0.529166666661666
30
0
41
1
10
38
20
0
30
0
0
SPLINE
5
BD
100
AcDbEntity
8
NOCUT
62
256
6
ByLayer
370
18
48
1
60
0
100
AcDbSpline
70
2053
71
3
72
26
73
22
40
0
40
0
40
0
40
0
40
0.481797444066011
40
0.481797444066011
40
0.481797444066011
40
0.501800874284128
40
0.501800874284128
40
0.501800874284128
40
0.638732789066805
40
0.638732789066805
40
0.638732789066805
40
0.641274640739086
40
0.641274640739086
40
0.641274640739086
40
0.977233266374326
40
0.977233266374326
40
0.977233266374326
40
0.986243415085173
40
0.986243415085173
40
0.986243415085173
40
1
40
1
40
1
40
1
41
1
10
-27
20
0
30
0
41
1
10
-14.3333333333333
20
0
30
0
41
1
10
-1.66666666666657
20
0
30
0
41
1
10
11.0000000000001
20
0
30
0
41
1
10
11
20
0.525898976613036
30
0
41
1
10
11
20
1.0517979532261
30
0
41
1
10
11
20
1.57769692983914
30
0
41
1
10
7.39999999999986
20
1.57634692983922
30
0
41
1
10
3.79999999999973
20
1.5749969298393
30
0
41
1
10
0.199999999905515
20
1.57364692984592
30
0
41
1
10
0.133333333207588
20
1.57826461990163
30
0
41
1
10
0.0666666666037941
20
1.5828823099508
30
0
41
1
10
0
20
1.58750000000001
30
0
41
1
10
-8.83249999999998
20
1.58750000000001
30
0
41
1
10
-17.665
20
1.58750000000001
30
0
41
1
10
-26.4975
20
1.58750000000001
30
0
41
1
10
-26.665
20
1.41999999999999
30
0
41
1
10
-26.8325
20
1.2525
30
0
41
1
10
-27
20
1.08500000000001
30
0
41
1
10
-27
20
0.723333333333329
30
0
41
1
10
-27
20
0.361666666666679
30
0
41
1
10
-27
20
0
30
0
0
SPLINE
5
BF
100
AcDbEntity
8
1
62
256
6
ByLayer
370
18
48
1
60
0
100
AcDbSpline
70
4
71
3
72
66
73
62
40
0
40
0
40
0
40
0
40
0.124999999999999
40
0.124999999999999
40
0.187499999999995
40
0.187499999999995
40
0.249999999999992
40
0.249999999999992
40
0.28124999999999
40
0.28124999999999
40
0.312499999999988
40
0.312499999999988
40
0.37499999999999
40
0.37499999999999
40
0.406249999999991
40
0.406249999999991
40
0.437499999999992
40
0.437499999999992
40
0.468749999999993
40
0.468749999999993
40
0.476562499999993
40
0.476562499999993
40
0.484374999999994
40
0.484374999999994
40
0.492187499999994
40
0.492187499999994
40
0.499999999999994
40
0.499999999999994
40
0.507812499999994
40
0.507812499999994
40
0.515624999999995
40
0.515624999999995
40
0.519531249999996
40
0.519531249999996
40
0.523437499999997
40
0.523437499999997
40
0.531249999999999
40
0.531249999999999
40
0.539062500000001
40
0.539062500000001
40
0.546875000000003
40
0.546875000000003
40
0.562500000000007
40
0.562500000000007
40
0.59375000000001
40
0.59375000000001
40
0.625000000000012
40
0.625000000000012
40
0.656250000000015
40
0.656250000000015
40
0.687500000000017
40
0.687500000000017
40
0.750000000000016
40
0.750000000000016
40
0.875000000000014
40
0.875000000000014
40
0.906250000000012
40
0.906250000000012
40
0.93750000000001
40
0.93750000000001
40
1
40
1
40
1
40
1
41
1
10
37.1415203905725
20
1.53723925386146
30
0
41
1
10
37.2061304101717
20
1.41748524595465
30
0
41
1
10
37.2704176098669
20
1.29724147711829
30
0
41
1
10
37.3659899751842
20
1.11610538934639
30
0
41
1
10
37.3976917430297
20
1.05561022287571
30
0
41
1
10
37.4606204178213
20
0.934333508136405
30
0
41
1
10
37.4918576670217
20
0.873556280299255
30
0
41
1
10
37.5381132623641
20
0.782050058827849
30
0
41
1
10
37.5534202823944
20
0.751482902784176
30
0
41
1
10
37.5839015206982
20
0.690314327046536
30
0
41
1
10
37.5990933532354
20
0.659727042619465
30
0
41
1
10
37.6445466702351
20
0.567990473891939
30
0
41
1
10
37.6746685186543
20
0.506827562523569
30
0
41
1
10
37.7189726301437
20
0.415210503696414
30
0
41
1
10
37.7335972797881
20
0.384678417001652
30
0
41
1
10
37.7623685510151
20
0.323541371111446
30
0
41
1
10
37.7765190465245
20
0.2929368909831
30
0
41
1
10
37.8039473298629
20
0.23147224710317
30
0
41
1
10
37.8172130115623
20
0.200652777369612
30
0
41
1
10
37.8327284946549
20
0.161922716301831
30
0
41
1
10
37.8357780877022
20
0.154166428335628
30
0
41
1
10
37.8417384136171
20
0.138615701211364
30
0
41
1
10
37.8446563746227
20
0.130827761480049
30
0
41
1
10
37.8502108562705
20
0.115095638435434
30
0
41
1
10
37.8528446273937
20
0.10714723815434
30
0
41
1
10
37.8573997985168
20
0.0907370781151542
30
0
41
1
10
37.8592514002152
20
0.0824237300044786
30
0
41
1
10
37.8618007595505
20
0.0655778218258263
30
0
41
1
10
37.8625047561816
20
0.0569262553775616
30
0
41
1
10
37.8625721469583
20
0.0401747664331253
30
0
41
1
10
37.8619615922208
20
0.0320201888161478
30
0
41
1
10
37.8600795731899
20
0.0201392114366001
30
0
41
1
10
37.8592892023818
20
0.0162477987790908
30
0
41
1
10
37.8574434172159
20
0.0088032440844472
30
0
41
1
10
37.8563839635662
20
0.0052215059684215
30
0
41
1
10
37.8528306110782
20
-0.0051124183291051
30
0
41
1
10
37.8499171914314
20
-0.0115069738852753
30
0
41
1
10
37.8435663398479
20
-0.0227333479084848
30
0
41
1
10
37.8401182351303
20
-0.0276353504972917
30
0
41
1
10
37.833016049533
20
-0.0369131067184298
30
0
41
1
10
37.8293698027733
20
-0.0413254343773986
30
0
41
1
10
37.8183518038309
20
-0.0545106069888277
30
0
41
1
10
37.8108695233302
20
-0.0631412350531946
30
0
41
1
10
37.7882000998476
20
-0.0885297053065983
30
0
41
1
10
37.7727629397919
20
-0.104694989861656
30
0
41
1
10
37.7415694705078
20
-0.135514050893789
30
0
41
1
10
37.7258097822606
20
-0.150188242267205
30
0
41
1
10
37.6941073491668
20
-0.178130411139932
30
0
41
1
10
37.6781622262384
20
-0.191396406791142
30
0
41
1
10
37.6461441039875
20
-0.216539812156412
30
0
41
1
10
37.6300385896649
20
-0.228438041250513
30
0
41
1
10
37.5818627591129
20
-0.261853279520921
30
0
41
1
10
37.5499156676558
20
-0.281126825688034
30
0
41
1
10
37.4545402459959
20
-0.33037245512395
30
0
41
1
10
37.3915779384814
20
-0.351830822151499
30
0
41
1
10
37.313011932441
20
-0.364773243337822
30
0
41
1
10
37.2973047186918
20
-0.366661510911797
30
0
41
1
10
37.2658834645483
20
-0.369021954528137
30
0
41
1
10
37.250184837617
20
-0.369490529998956
30
0
41
1
10
37.2033386212921
20
-0.368763303263449
30
0
41
1
10
37.1723488561354
20
-0.365446541870909
30
0
41
1
10
37.1415203905725
20
-0.359312277359067
30
0
0
SPLINE
5
C0
100
AcDbEntity
8
1
62
256
6
ByLayer
370
18
48
1
60
0
100
AcDbSpline
70
4
71
3
72
60
73
56
40
0
40
0
40
0
40
0
40
0.0483418696219495
40
0.0483418696219495
40
0.0725128044329243
40
0.0725128044329243
40
0.096683739243899
40
0.096683739243899
40
0.145025608865849
40
0.145025608865849
40
0.193367478487798
40
0.193367478487798
40
0.241709348109748
40
0.241709348109748
40
0.265880282920722
40
0.265880282920722
40
0.290051217731697
40
0.290051217731697
40
0.33839308735364
40
0.33839308735364
40
0.386734956975584
40
0.386734956975584
40
0.435076826597527
40
0.435076826597527
40
0.483418696219471
40
0.483418696219471
40
0.507589631030442
40
0.507589631030442
40
0.531760565841414
40
0.531760565841414
40
0.580102435463354
40
0.580102435463354
40
0.628444305085294
40
0.628444305085294
40
0.676786174707234
40
0.676786174707234
40
0.700957109518204
40
0.700957109518204
40
0.725128044329174
40
0.725128044329174
40
0.749298979140145
40
0.749298979140145
40
0.773469913951115
40
0.773469913951115
40
0.797640848762085
40
0.797640848762085
40
0.821811783573055
40
0.821811783573055
40
0.870153653194995
40
0.870153653194995
40
0.918495522816935
40
0.918495522816935
40
0.966837392438875
40
0.966837392438875
40
1
40
1
40
1
40
1
41
1
10
37.1415203905735
20
-0.359312277359635
30
0
41
1
10
37.0575937359917
20
-0.31438896064742
30
0
41
1
10
36.9740652948784
20
-0.26896508902658
30
0
41
1
10
36.8494692458439
20
-0.199899822488476
30
0
41
1
10
36.8080559239247
20
-0.176718769119731
30
0
41
1
10
36.7252921352592
20
-0.13036689647916
30
0
41
1
10
36.6839107244832
20
-0.107253825440296
30
0
41
1
10
36.5597535582043
20
-0.0381250093469419
30
0
41
1
10
36.4770160546408
20
0.0077761528255849
30
0
41
1
10
36.3115812698749
20
0.0991712750836484
30
0
41
1
10
36.2288396476757
20
0.144583253146351
30
0
41
1
10
36.0632452260564
20
0.234730994881971
30
0
41
1
10
35.9804239702242
20
0.279525458797451
30
0
41
1
10
35.8563641033826
20
0.346668320681289
30
0
41
1
10
35.8150370886284
20
0.369036520430455
30
0
41
1
10
35.7324469649199
20
0.41376447044496
30
0
41
1
10
35.6911882116281
20
0.436131779199087
30
0
41
1
10
35.5672940501006
20
0.50283357735708
30
0
41
1
10
35.4843613196675
20
0.546448872140104
30
0
41
1
10
35.317905437141
20
0.632131417968054
30
0
41
1
10
35.2344014891131
20
0.674231626057122
30
0
41
1
10
35.0666387356916
20
0.756593701555204
30
0
41
1
10
34.9828630382452
20
0.796566901316453
30
0
41
1
10
34.8159664676057
20
0.874410319851478
30
0
41
1
10
34.7328329974604
20
0.912339599848622
30
0
41
1
10
34.6087262030346
20
0.967871443163943
30
0
41
1
10
34.5674594672126
20
0.98615724479734
30
0
41
1
10
34.4849886176019
20
1.02206231018297
30
0
41
1
10
34.4437496266487
20
1.03963225378632
30
0
41
1
10
34.319942741363
20
1.0911087611087
30
0
41
1
10
34.2373565890787
20
1.12388541970768
30
0
41
1
10
34.0721036146154
20
1.18644765816677
30
0
41
1
10
33.9893945065849
20
1.21617742656363
30
0
41
1
10
33.8237101737442
20
1.27246190984982
30
0
41
1
10
33.7407641082114
20
1.29905769712502
30
0
41
1
10
33.6164009316396
20
1.3368112052498
30
0
41
1
10
33.5749532420036
20
1.34903456261591
30
0
41
1
10
33.4920859201834
20
1.37275147474821
30
0
41
1
10
33.4506718715816
20
1.38424902470425
30
0
41
1
10
33.3677612524094
20
1.406388686296
30
0
41
1
10
33.3262313636261
20
1.41700096150726
30
0
41
1
10
33.2429367176552
20
1.43724360370294
30
0
41
1
10
33.2011870152715
20
1.4468878850995
30
0
41
1
10
33.117513149811
20
1.46525016873224
30
0
41
1
10
33.0756008830188
20
1.4739634501822
30
0
41
1
10
32.9919754510348
20
1.4903745222424
30
0
41
1
10
32.9502132962165
20
1.49808324455734
30
0
41
1
10
32.8250332191751
20
1.51971908807931
30
0
41
1
10
32.7416933327265
20
1.5321489388034
30
0
41
1
10
32.5754305847366
20
1.55320819442582
30
0
41
1
10
32.4925352549156
20
1.56184868619118
30
0
41
1
10
32.3273956886449
20
1.57529485847061
30
0
41
1
10
32.2451999885138
20
1.58007525096403
30
0
41
1
10
32.1061894447681
20
1.58466221055025
30
0
41
1
10
32.0495683499932
20
1.58558236698826
30
0
41
1
10
31.9928962472287
20
1.58556992782158
30
0
0
SPLINE
5
C1
100
AcDbEntity
8
1
62
256
6
ByLayer
370
18
48
1
60
0
100
AcDbSpline
70
4
71
3
72
126
73
122
40
0
40
0
40
0
40
0
40
0.0019106041971225
40
0.0019106041971225
40
0.0241269027723958
40
0.0241269027723958
40
0.0463432013476691
40
0.0463432013476691
40
0.0685594999229424
40
0.0685594999229424
40
0.0796676492105791
40
0.0796676492105791
40
0.0907757984982156
40
0.0907757984982156
40
0.11299209707349
40
0.11299209707349
40
0.135208395648765
40
0.135208395648765
40
0.15742469422404
40
0.15742469422404
40
0.168532843511676
40
0.168532843511676
40
0.179640992799313
40
0.179640992799313
40
0.19074914208695
40
0.19074914208695
40
0.201857291374586
40
0.201857291374586
40
0.224073589949858
40
0.224073589949858
40
0.24628988852513
40
0.24628988852513
40
0.268506187100402
40
0.268506187100402
40
0.279614336388038
40
0.279614336388038
40
0.290722485675674
40
0.290722485675674
40
0.312938784250946
40
0.312938784250946
40
0.335155082826218
40
0.335155082826218
40
0.357371381401489
40
0.357371381401489
40
0.368479530689125
40
0.368479530689125
40
0.37958767997676
40
0.37958767997676
40
0.401803978552032
40
0.401803978552032
40
0.424020277127304
40
0.424020277127304
40
0.446236575702576
40
0.446236575702576
40
0.468452874277848
40
0.468452874277848
40
0.479561023565484
40
0.479561023565484
40
0.49066917285312
40
0.49066917285312
40
0.512885471428392
40
0.512885471428392
40
0.535101770003664
40
0.535101770003664
40
0.5462099192913
40
0.5462099192913
40
0.557318068578936
40
0.557318068578936
40
0.568426217866572
40
0.568426217866572
40
0.579534367154208
40
0.579534367154208
40
0.601750665729478
40
0.601750665729478
40
0.623966964304749
40
0.623966964304749
40
0.646183262880019
40
0.646183262880019
40
0.66839956145529
40
0.66839956145529
40
0.679507710742925
40
0.679507710742925
40
0.690615860030561
40
0.690615860030561
40
0.712832158605831
40
0.712832158605831
40
0.723940307893466
40
0.723940307893466
40
0.735048457181102
40
0.735048457181102
40
0.757264755756371
40
0.757264755756371
40
0.768372905044005
40
0.768372905044005
40
0.779481054331639
40
0.779481054331639
40
0.801697352906905
40
0.801697352906905
40
0.823913651482171
40
0.823913651482171
40
0.846129950057438
40
0.846129950057438
40
0.868346248632704
40
0.868346248632704
40
0.879454397920338
40
0.879454397920338
40
0.890562547207972
40
0.890562547207972
40
0.912778845783239
40
0.912778845783239
40
0.923886995070873
40
0.923886995070873
40
0.934995144358508
40
0.934995144358508
40
0.957211442933777
40
0.957211442933777
40
0.968319592221412
40
0.968319592221412
40
0.979427741509046
40
0.979427741509046
40
1
40
1
40
1
40
1
41
1
10
25.2125992381969
20
-1.13145621121382
30
0
41
1
10
25.2054193331345
20
-1.13422998299228
30
0
41
1
10
25.1982372019368
20
-1.13699331860943
30
0
41
1
10
25.1075145428315
20
-1.1717575969497
30
0
41
1
10
25.02349579368
20
-1.20237260529623
30
0
41
1
10
24.8560591947641
20
-1.25997136385294
30
0
41
1
10
24.7725139539462
20
-1.28703919555622
30
0
41
1
10
24.6060428489758
20
-1.33806427581769
30
0
41
1
10
24.5231447467892
20
-1.36204306857047
30
0
41
1
10
24.3992971664697
20
-1.39560617029633
30
0
41
1
10
24.3580909992737
20
-1.40638318814072
30
0
41
1
10
24.2755930631657
20
-1.42691625054769
30
0
41
1
10
24.2343133712493
20
-1.43668568376447
30
0
41
1
10
24.1104238064356
20
-1.4645650199756
30
0
41
1
10
24.0277936488567
20
-1.48126692358633
30
0
41
1
10
23.8623418170533
20
-1.51088885327931
30
0
41
1
10
23.7794758505711
20
-1.52378631940729
30
0
41
1
10
23.6135177759972
20
-1.54582116017977
30
0
41
1
10
23.5304590485358
20
-1.55497870572543
30
0
41
1
10
23.4059263038542
20
-1.56588480719699
30
0
41
1
10
23.3644271780908
20
-1.56904662617447
30
0
41
1
10
23.2814211037582
20
-1.57438320567513
30
0
41
1
10
23.2399192209133
20
-1.57655622772947
30
0
41
1
10
23.1566801074958
20
-1.5798605364721
30
0
41
1
10
23.1149460696015
20
-1.58099589422429
30
0
41
1
10
23.0312774121748
20
-1.58224615229821
30
0
41
1
10
22.989360182405
20
-1.58235925116566
30
0
41
1
10
22.8639176236954
20
-1.58118217796212
30
0
41
1
10
22.7804960122633
20
-1.57837691747662
30
0
41
1
10
22.6138424091847
20
-1.56889436088272
30
0
41
1
10
22.5306148674253
20
-1.56222859114192
30
0
41
1
10
22.3646234131671
20
-1.54500899758082
30
0
41
1
10
22.2818860106843
20
-1.53443987378714
30
0
41
1
10
22.1581994552299
20
-1.51552503442591
30
0
41
1
10
22.1170399077075
20
-1.50870636791265
30
0
41
1
10
22.0346293268673
20
-1.49416626688216
30
0
41
1
10
21.9933746728942
20
-1.48645022602614
30
0
41
1
10
21.8695040644963
20
-1.46196664854855
30
0
41
1
10
21.7868131418473
20
-1.44384183764726
30
0
41
1
10
21.621125937274
20
-1.40410150466837
30
0
41
1
10
21.5380847688777
20
-1.38252482728811
30
0
41
1
10
21.3716217727403
20
-1.33597249994068
30
0
41
1
10
21.2882335321101
20
-1.31097115567252
30
0
41
1
10
21.1630967265354
20
-1.2705762958787
30
0
41
1
10
21.1213762146029
20
-1.25662563218234
30
0
41
1
10
21.0379010602424
20
-1.2277375931636
30
0
41
1
10
20.9961132218461
20
-1.21277554856002
30
0
41
1
10
20.8709487764282
20
-1.16697594116769
30
0
41
1
10
20.7875780142561
20
-1.13525172142124
30
0
41
1
10
20.6211530111857
20
-1.06929715868083
30
0
41
1
10
20.5380809523778
20
-1.03508512907612
30
0
41
1
10
20.3719938465217
20
-0.964571070477433
30
0
41
1
10
20.2889758976061
20
-0.928279614135334
30
0
41
1
10
20.1232450672155
20
-0.853263111616371
30
0
41
1
10
20.040558210937
20
-0.814495926829238
30
0
41
1
10
19.9168601886654
20
-0.754292370657907
30
0
41
1
10
19.8756843050145
20
-0.733878080451291
30
0
41
1
10
19.7932435220203
20
-0.692683499373402
30
0
41
1
10
19.751957777191
20
-0.671939203353531
30
0
41
1
10
19.627932274354
20
-0.609232825138662
30
0
41
1
10
19.5450615322311
20
-0.56673422112533
30
0
41
1
10
19.378894611032
20
-0.48045767648847
30
0
41
1
10
19.2955535382924
20
-0.436759985704981
30
0
41
1
10
19.1701386580398
20
-0.370410324113749
30
0
41
1
10
19.1282730105417
20
-0.348147762974889
30
0
41
1
10
19.044456979553
20
-0.303254079157057
30
0
41
1
10
19.002459718287
20
-0.28059148303285
30
0
41
1
10
18.9186992767086
20
-0.235001437102909
30
0
41
1
10
18.8769378351685
20
-0.212069773547682
30
0
41
1
10
18.7936516103852
20
-0.165937997156448
30
0
41
1
10
18.7521323931219
20
-0.142727697987908
30
0
41
1
10
18.627655599369
20
-0.0732191345373678
30
0
41
1
10
18.5446705262148
20
-0.0272459023645411
30
0
41
1
10
18.3788648207527
20
0.0643132429654827
30
0
41
1
10
18.2960363048888
20
0.109882470130799
30
0
41
1
10
18.1303092998012
20
0.200211759112193
30
0
41
1
10
18.0473985889854
20
0.244951360014767
30
0
41
1
10
17.8817243091246
20
0.334026207200196
30
0
41
1
10
17.7989861026934
20
0.378407041116788
30
0
41
1
10
17.6751174282596
20
0.444882749840474
30
0
41
1
10
17.6338699331637
20
0.467028815175809
30
0
41
1
10
17.5512859251569
20
0.510984662936409
30
0
41
1
10
17.5099186688714
20
0.532740256863548
30
0
41
1
10
17.3855791288957
20
0.59732307440899
30
0
41
1
10
17.3024208752726
20
0.639558025864176
30
0
41
1
10
17.1772707875455
20
0.701657386017501
30
0
41
1
10
17.1354801430407
20
0.722139211222981
30
0
41
1
10
17.0517209586558
20
0.762615513713342
30
0
41
1
10
17.00971448015
20
0.782624400578328
30
0
41
1
10
16.8837084728999
20
0.841845839095754
30
0
41
1
10
16.7999718616005
20
0.880153377281289
30
0
41
1
10
16.6749714304147
20
0.936177130221523
30
0
41
1
10
16.6334038021756
20
0.954607688673292
30
0
41
1
10
16.5504760855902
20
0.990979933550449
30
0
41
1
10
16.5091207937331
20
1.00892688887214
30
0
41
1
10
16.3851315272459
20
1.06167823574168
30
0
41
1
10
16.30241505088
20
1.09517821088667
30
0
41
1
10
16.1369862662669
20
1.15913035717082
30
0
41
1
10
16.0542823223753
20
1.18958633216971
30
0
41
1
10
15.8886867812778
20
1.24726329783709
30
0
41
1
10
15.8057727222356
20
1.27446664781775
30
0
41
1
10
15.6399381962241
20
1.32586500701657
30
0
41
1
10
15.5570429797476
20
1.35008542706822
30
0
41
1
10
15.4328411821041
20
1.38419318633189
30
0
41
1
10
15.3914670553375
20
1.39519177742576
30
0
41
1
10
15.3086267867315
20
1.41630059466357
30
0
41
1
10
15.2671262157013
20
1.42638212086317
30
0
41
1
10
15.1423163133235
20
1.45516815650828
30
0
41
1
10
15.0587681623836
20
1.47247397418002
30
0
41
1
10
14.9329401907386
20
1.49561655339764
30
0
41
1
10
14.8910030029798
20
1.50283838344686
30
0
41
1
10
14.8072618589356
20
1.51627094725018
30
0
41
1
10
14.7654304419077
20
1.52248503288376
30
0
41
1
10
14.6400782165411
20
1.53966057903509
30
0
41
1
10
14.5567018531504
20
1.54916616159002
30
0
41
1
10
14.4321353591595
20
1.56057512627953
30
0
41
1
10
14.3906938082748
20
1.56390001179412
30
0
41
1
10
14.3079877231937
20
1.56957754253057
30
0
41
1
10
14.2667278962283
20
1.57192918721162
30
0
41
1
10
14.1491246230085
20
1.57719059719065
30
0
41
1
10
14.0726731323484
20
1.57885348042487
30
0
41
1
10
13.9961497671211
20
1.57882054666041
30
0
0
SPLINE
5
C2
100
AcDbEntity
8
1
62
256
6
ByLayer
370
18
48
1
60
0
100
AcDbSpline
70
4
71
3
72
24
73
20
40
0
40
0
40
0
40
0
40
0.102794066361685
40
0.102794066361685
40
0.230966342595736
40
0.230966342595736
40
0.359138618829788
40
0.359138618829788
40
0.423224756946808
40
0.423224756946808
40
0.487310895063831
40
0.487310895063831
40
0.615483171297874
40
0.615483171297874
40
0.743655447531915
40
0.743655447531915
40
0.871827723765959
40
0.871827723765959
40
1
40
1
40
1
40
1
41
1
10
7.199607327222
20
-1.13330306203309
30
0
41
1
10
7.13284875250594
20
-1.15885119112585
30
0
41
1
10
7.06591810542744
20
-1.18346354390414
30
0
41
1
10
6.91504924938178
20
-1.2365392255841
30
0
41
1
10
6.83082013046501
20
-1.26444256335134
30
0
41
1
10
6.66305514753566
20
-1.31681148001908
30
0
41
1
10
6.57941751444233
20
-1.3413667383816
30
0
41
1
10
6.45448943024002
20
-1.37585772299406
30
0
41
1
10
6.41293951069261
20
-1.38696597511097
30
0
41
1
10
6.3299619351973
20
-1.40832946890507
30
0
41
1
10
6.28851926876882
20
-1.41857018098872
30
0
41
1
10
6.1640347938482
20
-1.4477464123654
30
0
41
1
10
6.08094244355669
20
-1.46523423310953
30
0
41
1
10
5.91466673145578
20
-1.49645235206799
30
0
41
1
10
5.83144300520172
20
-1.51014968187207
30
0
41
1
10
5.66464197673585
20
-1.53367453707978
30
0
41
1
10
5.58108811029766
20
-1.54352443177481
30
0
41
1
10
5.41392578425322
20
-1.55943444981298
30
0
41
1
10
5.33031984075672
20
-1.56549917821414
30
0
41
1
10
5.24685751783682
20
-1.56955985178897
30
0
0
SPLINE
5
C3
100
AcDbEntity
8
1
62
256
6
ByLayer
370
18
48
1
60
0
100
AcDbSpline
70
4
71
3
72
44
73
40
40
0
40
0
40
0
40
0
40
0.0596018616026151
40
0.0596018616026151
40
0.11920372320523
40
0.11920372320523
40
0.238407446410464
40
0.238407446410464
40
0.298009308013081
40
0.298009308013081
40
0.357611169615698
40
0.357611169615698
40
0.417213031218315
40
0.417213031218315
40
0.476814892820932
40
0.476814892820932
40
0.506615823622241
40
0.506615823622241
40
0.536416754423549
40
0.536416754423549
40
0.566217685224858
40
0.566217685224858
40
0.596018616026166
40
0.596018616026166
40
0.655620477628783
40
0.655620477628783
40
0.7152223392314
40
0.7152223392314
40
0.774824200834017
40
0.774824200834017
40
0.804625131635326
40
0.804625131635326
40
0.834426062436634
40
0.834426062436634
40
0.894027924039255
40
0.894027924039255
40
0.953629785641876
40
0.953629785641876
40
1
40
1
40
1
40
1
41
1
10
5.24685751783682
20
-0.171483617386031
30
0
41
1
10
5.33018810711329
20
-0.218515281461407
30
0
41
1
10
5.41365546146497
20
-0.264288398109642
30
0
41
1
10
5.58059765696575
20
-0.354019470939107
30
0
41
1
10
5.66406966392614
20
-0.397983008980447
30
0
41
1
10
5.91392749051161
20
-0.528291696403272
30
0
41
1
10
6.07959183198153
20
-0.613339520317624
30
0
41
1
10
6.32705719910723
20
-0.737322398230276
30
0
41
1
10
6.40925839346957
20
-0.77822346653366
30
0
41
1
10
6.57462168507197
20
-0.856691711659437
30
0
41
1
10
6.65772241487446
20
-0.894378850007826
30
0
41
1
10
6.82443313344524
20
-0.967256463083459
30
0
41
1
10
6.90801427635444
20
-1.00249221157674
30
0
41
1
10
7.0752101008477
20
-1.07113093062202
30
0
41
1
10
7.15889303852995
20
-1.10446944887477
30
0
41
1
10
7.28458711042316
20
-1.15268554165468
30
0
41
1
10
7.32637551439996
20
-1.1684106308401
30
0
41
1
10
7.40972021730073
20
-1.19917187974971
30
0
41
1
10
7.45125855177682
20
-1.21422880581912
30
0
41
1
10
7.5342208628683
20
-1.24349576889836
30
0
41
1
10
7.57566062688286
20
-1.25768639870074
30
0
41
1
10
7.65865446848463
20
-1.2849879007567
30
0
41
1
10
7.70019217327624
20
-1.29812008942616
30
0
41
1
10
7.82488292796324
20
-1.33606808440575
30
0
41
1
10
7.9081272477371
20
-1.35943379075064
30
0
41
1
10
8.07437768708192
20
-1.40287641267821
30
0
41
1
10
8.1573290417555
20
-1.42299008189056
30
0
41
1
10
8.32290472887109
20
-1.45987672200127
30
0
41
1
10
8.40556992583291
20
-1.47661941283576
30
0
41
1
10
8.52939552627731
20
-1.49906448646291
30
0
41
1
10
8.57062173576389
20
-1.50611138029564
30
0
41
1
10
8.653106207017
20
-1.51924107693779
30
0
41
1
10
8.69438041949118
20
-1.52531442138024
30
0
41
1
10
8.81861156235715
20
-1.54193599036188
30
0
41
1
10
8.90193263954626
20
-1.55092677533926
30
0
41
1
10
9.06925747435969
20
-1.56502166436729
30
0
41
1
10
9.15323650406449
20
-1.57013737608199
30
0
41
1
10
9.3027258775453
20
-1.5757859586324
30
0
41
1
10
9.36789019641407
20
-1.57705719165085
30
0
41
1
10
9.43282270822576
20
-1.57710860797982
30
0
0
SPLINE
5
C4
100
AcDbEntity
8
1
62
256
6
ByLayer
370
18
48
1
60
0
100
AcDbSpline
70
4
71
3
72
128
73
124
40
0
40
0
40
0
40
0
40
0.0007993661858551
40
0.0007993661858551
40
0.0230028384944296
40
0.0230028384944296
40
0.0341045746487168
40
0.0341045746487168
40
0.0452063108030041
40
0.0452063108030041
40
0.067409783111577
40
0.067409783111577
40
0.08961325542015
40
0.08961325542015
40
0.111816727728723
40
0.111816727728723
40
0.12291846388301
40
0.12291846388301
40
0.134020200037297
40
0.134020200037297
40
0.15622367234587
40
0.15622367234587
40
0.178427144654443
40
0.178427144654443
40
0.200630616963016
40
0.200630616963016
40
0.22283408927159
40
0.22283408927159
40
0.233935825425876
40
0.233935825425876
40
0.245037561580162
40
0.245037561580162
40
0.267241033888735
40
0.267241033888735
40
0.278342770043023
40
0.278342770043023
40
0.28944450619731
40
0.28944450619731
40
0.311647978505884
40
0.311647978505884
40
0.322749714660172
40
0.322749714660172
40
0.33385145081446
40
0.33385145081446
40
0.356054923123037
40
0.356054923123037
40
0.378258395431615
40
0.378258395431615
40
0.400461867740192
40
0.400461867740192
40
0.422665340048769
40
0.422665340048769
40
0.433767076203059
40
0.433767076203059
40
0.444868812357348
40
0.444868812357348
40
0.455970548511637
40
0.455970548511637
40
0.467072284665926
40
0.467072284665926
40
0.489275756974507
40
0.489275756974507
40
0.511479229283087
40
0.511479229283087
40
0.522580965437376
40
0.522580965437376
40
0.533682701591665
40
0.533682701591665
40
0.544784437745954
40
0.544784437745954
40
0.555886173900244
40
0.555886173900244
40
0.578089646208822
40
0.578089646208822
40
0.600293118517401
40
0.600293118517401
40
0.622496590825979
40
0.622496590825979
40
0.633598326980268
40
0.633598326980268
40
0.644700063134558
40
0.644700063134558
40
0.666903535443136
40
0.666903535443136
40
0.689107007751715
40
0.689107007751715
40
0.711310480060293
40
0.711310480060293
40
0.722412216214582
40
0.722412216214582
40
0.733513952368871
40
0.733513952368871
40
0.744615688523159
40
0.744615688523159
40
0.755717424677448
40
0.755717424677448
40
0.777920896986023
40
0.777920896986023
40
0.800124369294599
40
0.800124369294599
40
0.822327841603175
40
0.822327841603175
40
0.844531313911751
40
0.844531313911751
40
0.866734786220326
40
0.866734786220326
40
0.888938258528902
40
0.888938258528902
40
0.911141730837477
40
0.911141730837477
40
0.922243466991766
40
0.922243466991766
40
0.933345203146055
40
0.933345203146055
40
0.944446939300344
40
0.944446939300344
40
0.955548675454632
40
0.955548675454632
40
0.977752147763209
40
0.977752147763209
40
0.999955620071786
40
0.999955620071786
40
1
40
1
40
1
40
1
41
1
10
16.2078657458698
20
1.12688716321338
30
0
41
1
10
16.2108420051496
20
1.12804065010792
30
0
41
1
10
16.2138180377338
20
1.12919251963891
30
0
41
1
10
16.2994509754873
20
1.16229235714829
30
0
41
1
10
16.3819390649329
20
1.1929888789777
30
0
41
1
10
16.5053983701605
20
1.23708125420674
30
0
41
1
10
16.546526642752
20
1.25142605742636
30
0
41
1
10
16.628961663548
20
1.27915421464158
30
0
41
1
10
16.6702845051534
20
1.29252197714234
30
0
41
1
10
16.794565527439
20
1.33118089319817
30
0
41
1
10
16.8778332395582
20
1.3550411751562
30
0
41
1
10
17.0447742246575
20
1.39944522483583
30
0
41
1
10
17.1283951985251
20
1.42003323104322
30
0
41
1
10
17.2957723443017
20
1.45799642210241
30
0
41
1
10
17.3797381606684
20
1.47534453069127
30
0
41
1
10
17.5048494911019
20
1.49849005364152
30
0
41
1
10
17.5464408595247
20
1.50574041360184
30
0
41
1
10
17.6294049805486
20
1.51929060637698
30
0
41
1
10
17.6707922615231
20
1.52557923138448
30
0
41
1
10
17.7950117500831
20
1.54283390283536
30
0
41
1
10
17.8779968349643
20
1.55216604261582
30
0
41
1
10
18.0441448174668
20
1.56687019254721
30
0
41
1
10
18.1272859123327
20
1.57225635296427
30
0
41
1
10
18.293203292843
20
1.57924175591299
30
0
41
1
10
18.3759683963492
20
1.58082484717306
30
0
41
1
10
18.5412842886349
20
1.5800211524045
30
0
41
1
10
18.6238493341533
20
1.57764113372457
30
0
41
1
10
18.7475153473632
20
1.57095538112364
30
0
41
1
10
18.7887176151334
20
1.56820502016274
30
0
41
1
10
18.8713126356212
20
1.5617101548886
30
0
41
1
10
18.9127234162407
20
1.55797316357749
30
0
41
1
10
19.037339800829
20
1.54535866404365
30
0
41
1
10
19.1209080493499
20
1.53508591621267
30
0
41
1
10
19.2466918021068
20
1.51683986173421
30
0
41
1
10
19.2886886265795
20
1.51028086540964
30
0
41
1
10
19.3727589127929
20
1.49615788564924
30
0
41
1
10
19.4147634452551
20
1.48860041167001
30
0
41
1
10
19.5403655899741
20
1.46450334009992
30
0
41
1
10
19.6237023529151
20
1.44652426676061
30
0
41
1
10
19.7481904157791
20
1.41669703525929
30
0
41
1
10
19.7895946141488
20
1.40627374283289
30
0
41
1
10
19.8722096669219
20
1.38444233703197
30
0
41
1
10
19.9134281116363
20
1.37303835059106
30
0
41
1
10
20.0371590834878
20
1.33768350368979
30
0
41
1
10
20.1198673047155
20
1.31271818184388
30
0
41
1
10
20.2856401333612
20
1.2601419986018
30
0
41
1
10
20.3686745627717
20
1.23250653438578
30
0
41
1
10
20.5345409529986
20
1.17400085286201
30
0
41
1
10
20.617346699915
20
1.14308583816279
30
0
41
1
10
20.7828659911755
20
1.07801297395292
30
0
41
1
10
20.8656007245205
20
1.04388802889824
30
0
41
1
10
20.9896281144732
20
0.990142551796822
30
0
41
1
10
21.0309557046952
20
0.971793988746526
30
0
41
1
10
21.1138124311614
20
0.934565907241648
30
0
41
1
10
21.1553586229562
20
0.915714105405925
30
0
41
1
10
21.2387537073019
20
0.877664042875239
30
0
41
1
10
21.28058928178
20
0.858445798725853
30
0
41
1
10
21.3645010003158
20
0.819584068545169
30
0
41
1
10
21.4065959627474
20
0.799930911820042
30
0
41
1
10
21.5325733666028
20
0.740459851453267
30
0
41
1
10
21.6163035546957
20
0.699993333187649
30
0
41
1
10
21.7829782902387
20
0.616944025904985
30
0
41
1
10
21.8659776118983
20
0.574453882374087
30
0
41
1
10
21.9900627748266
20
0.509420079174703
30
0
41
1
10
22.0313507135826
20
0.487517304590313
30
0
41
1
10
22.1137658586638
20
0.44323502185523
30
0
41
1
10
22.1548884448614
20
0.420846690516896
30
0
41
1
10
22.2371913812119
20
0.37598180335479
30
0
41
1
10
22.27838818798
20
0.35353511879444
30
0
41
1
10
22.3609561835251
20
0.308771071397331
30
0
41
1
10
22.4023127981862
20
0.286427653378098
30
0
41
1
10
22.5265504776243
20
0.219431134161311
30
0
41
1
10
22.6096019404738
20
0.17481903721378
30
0
41
1
10
22.7756613022982
20
0.0847942401527746
30
0
41
1
10
22.85863168909
20
0.0393090005561021
30
0
41
1
10
23.0245953647108
20
-0.0523759538835691
30
0
41
1
10
23.107614932267
20
-0.0985252272886612
30
0
41
1
10
23.2321818671737
20
-0.168277693718636
30
0
41
1
10
23.2736975237831
20
-0.191642177641881
30
0
41
1
10
23.3569384523677
20
-0.238173278863343
30
0
41
1
10
23.3987290672616
20
-0.261335831949396
30
0
41
1
10
23.524199597604
20
-0.329892988859058
30
0
41
1
10
23.6078886663977
20
-0.374449385434673
30
0
41
1
10
23.7750133053865
20
-0.462044092640042
30
0
41
1
10
23.8584081453368
20
-0.505156383213972
30
0
41
1
10
24.0245350243906
20
-0.590586377589176
30
0
41
1
10
24.1073204958171
20
-0.632803615487035
30
0
41
1
10
24.2311879722116
20
-0.695159490629976
30
0
41
1
10
24.272421029971
20
-0.715790593358889
30
0
41
1
10
24.3547622000767
20
-0.756755023004786
30
0
41
1
10
24.395856544485
20
-0.777109413357152
30
0
41
1
10
24.4781052662741
20
-0.817213692102143
30
0
41
1
10
24.5192746534827
20
-0.836940148443432
30
0
41
1
10
24.6018315230551
20
-0.875556084512169
30
0
41
1
10
24.6432011878462
20
-0.894474414599642
30
0
41
1
10
24.7675334558048
20
-0.950160781147758
30
0
41
1
10
24.8507265018609
20
-0.985856248350814
30
0
41
1
10
25.0172319575306
20
-1.05513302974939
30
0
41
1
10
25.1004989806265
20
-1.08877194282979
30
0
41
1
10
25.2671745245423
20
-1.15379530062734
30
0
41
1
10
25.3506616940423
20
-1.18515602234473
30
0
41
1
10
25.5176468059622
20
-1.24534305254599
30
0
41
1
10
25.600573657795
20
-1.27402484160865
30
0
41
1
10
25.7668799022812
20
-1.32687342016297
30
0
41
1
10
25.8501555360693
20
-1.35120583455853
30
0
41
1
10
26.0166223226923
20
-1.39627348878722
30
0
41
1
10
26.0997784362181
20
-1.41704130516885
30
0
41
1
10
26.2655577097577
20
-1.45533510143068
30
0
41
1
10
26.3482313263384
20
-1.47280835619492
30
0
41
1
10
26.4720357582149
20
-1.49633566173287
30
0
41
1
10
26.5132660923191
20
-1.5037336951165
30
0
41
1
10
26.5956389303005
20
-1.51762681981643
30
0
41
1
10
26.6367638136875
20
-1.52412919270981
30
0
41
1
10
26.719073592016
20
-1.53613545097815
30
0
41
1
10
26.7602733342467
20
-1.54163240105376
30
0
41
1
10
26.8429312832208
20
-1.55156614585511
30
0
41
1
10
26.8843711453247
20
-1.55601287541046
30
0
41
1
10
27.0089725477023
20
-1.56785350706266
30
0
41
1
10
27.0924262842541
20
-1.57375782060259
30
0
41
1
10
27.2596243044759
20
-1.58173935552804
30
0
41
1
10
27.3433180012239
20
-1.58381130932472
30
0
41
1
10
27.4273146241286
20
-1.58385712591243
30
0
41
1
10
27.427482178792
20
-1.58385720921086
30
0
41
1
10
27.4276497319848
20
-1.5838572844126
30
0
0
SPLINE
5
C5
100
AcDbEntity
8
1
62
256
6
ByLayer
370
18
48
1
60
0
100
AcDbSpline
70
4
71
3
72
38
73
34
40
0
40
0
40
0
40
0
40
0.0622335303035418
40
0.0622335303035418
40
0.104859278926107
40
0.104859278926107
40
0.147485027548673
40
0.147485027548673
40
0.232736524793805
40
0.232736524793805
40
0.317988022038937
40
0.317988022038937
40
0.403239519284069
40
0.403239519284069
40
0.445865267906638
40
0.445865267906638
40
0.488491016529208
40
0.488491016529208
40
0.531116765151777
40
0.531116765151777
40
0.573742513774346
40
0.573742513774346
40
0.658994011019473
40
0.658994011019473
40
0.744245508264599
40
0.744245508264599
40
0.829497005509724
40
0.829497005509724
40
0.872122754132293
40
0.872122754132293
40
0.914748502754863
40
0.914748502754863
40
1
40
1
40
1
40
1
41
1
10
34.2186463375808
20
1.13854643026147
30
0
41
1
10
34.2790194846726
20
1.16184268286355
30
0
41
1
10
34.3392744100287
20
1.18446157879856
30
0
41
1
10
34.4406216326378
20
1.22137265576896
30
0
41
1
10
34.4817573510828
20
1.23605761634042
30
0
41
1
10
34.5639473737766
20
1.26471955176774
30
0
41
1
10
34.6050203128304
20
1.27867340146983
30
0
41
1
10
34.728513707184
20
1.31904202388574
30
0
41
1
10
34.8112637088781
20
1.3439221964112
30
0
41
1
10
34.9773412430693
20
1.39007525641046
30
0
41
1
10
35.0606526907033
20
1.41136845259709
30
0
41
1
10
35.2273252061207
20
1.45079220118566
30
0
41
1
10
35.3106954461885
20
1.46890112887775
30
0
41
1
10
35.4359435107971
20
1.49342789520625
30
0
41
1
10
35.4777588629713
20
1.50116837736658
30
0
41
1
10
35.5613087038151
20
1.51572185846979
30
0
41
1
10
35.6029706181161
20
1.52252742405153
30
0
41
1
10
35.6860948853367
20
1.53516439754216
30
0
41
1
10
35.7275751180114
20
1.54098396335692
30
0
41
1
10
35.8106043220134
20
1.55153704176848
30
0
41
1
10
35.8521673413079
20
1.55626816134134
30
0
41
1
10
35.976983236604
20
1.56890075005552
30
0
41
1
10
36.0603685689915
20
1.57525318037034
30
0
41
1
10
36.2270600032772
20
1.58410176984009
30
0
41
1
10
36.3103110091802
20
1.58660000856395
30
0
41
1
10
36.4764706300412
20
1.58765322894061
30
0
41
1
10
36.5594333227833
20
1.58620101683326
30
0
41
1
10
36.6837714849505
20
1.5809377071993
30
0
41
1
10
36.7251905466536
20
1.57866743805613
30
0
41
1
10
36.8079919512702
20
1.57306884117784
30
0
41
1
10
36.8493911635258
20
1.56974121805092
30
0
41
1
10
36.9739349338908
20
1.55827084482848
30
0
41
1
10
37.0575114910603
20
1.54868871792777
30
0
41
1
10
37.1415203905735
20
1.53723925386132
30
0
0
SPLINE
5
C6
100
AcDbEntity
8
1
62
256
6
ByLayer
370
18
48
1
60
0
100
AcDbSpline
70
4
71
3
72
126
73
122
40
0
40
0
40
0
40
0
40
0.0055917812099603
40
0.0055917812099603
40
0.0277814585867589
40
0.0277814585867589
40
0.0499711359635575
40
0.0499711359635575
40
0.0610659746519568
40
0.0610659746519568
40
0.0721608133403561
40
0.0721608133403561
40
0.0832556520287553
40
0.0832556520287553
40
0.0943504907171546
40
0.0943504907171546
40
0.105445329405554
40
0.105445329405554
40
0.116540168093953
40
0.116540168093953
40
0.138729845470752
40
0.138729845470752
40
0.16091952284755
40
0.16091952284755
40
0.183109200224349
40
0.183109200224349
40
0.205298877601148
40
0.205298877601148
40
0.227488554977946
40
0.227488554977946
40
0.249678232354745
40
0.249678232354745
40
0.260773071043143
40
0.260773071043143
40
0.271867909731542
40
0.271867909731542
40
0.28296274841994
40
0.28296274841994
40
0.294057587108339
40
0.294057587108339
40
0.316247264485135
40
0.316247264485135
40
0.33843694186193
40
0.33843694186193
40
0.360626619238726
40
0.360626619238726
40
0.382816296615522
40
0.382816296615522
40
0.405005973992318
40
0.405005973992318
40
0.427195651369113
40
0.427195651369113
40
0.449385328745909
40
0.449385328745909
40
0.460480167434307
40
0.460480167434307
40
0.471575006122705
40
0.471575006122705
40
0.482669844811103
40
0.482669844811103
40
0.493764683499501
40
0.493764683499501
40
0.515954360876296
40
0.515954360876296
40
0.538144038253092
40
0.538144038253092
40
0.560333715629888
40
0.560333715629888
40
0.571428554318286
40
0.571428554318286
40
0.582523393006684
40
0.582523393006684
40
0.604713070383479
40
0.604713070383479
40
0.626902747760275
40
0.626902747760275
40
0.637997586448674
40
0.637997586448674
40
0.649092425137072
40
0.649092425137072
40
0.671282102513868
40
0.671282102513868
40
0.682376941202266
40
0.682376941202266
40
0.693471779890664
40
0.693471779890664
40
0.715661457267459
40
0.715661457267459
40
0.737851134644255
40
0.737851134644255
40
0.760040812021051
40
0.760040812021051
40
0.771135650709449
40
0.771135650709449
40
0.782230489397847
40
0.782230489397847
40
0.804420166774642
40
0.804420166774642
40
0.826609844151438
40
0.826609844151438
40
0.848799521528234
40
0.848799521528234
40
0.87098919890503
40
0.87098919890503
40
0.882084037593427
40
0.882084037593427
40
0.893178876281825
40
0.893178876281825
40
0.915368553658621
40
0.915368553658621
40
0.937558231035417
40
0.937558231035417
40
0.959747908412213
40
0.959747908412213
40
0.97084274710061
40
0.97084274710061
40
0.981937585789008
40
0.981937585789008
40
0.993032424477406
40
0.993032424477406
40
1
40
1
40
1
40
1
41
1
10
34.2171877202588
20
-1.13123244264182
30
0
41
1
10
34.1963711597517
20
-1.1393059320165
30
0
41
1
10
34.1755519115066
20
-1.14728372154588
30
0
41
1
10
34.0721036146154
20
-1.18644765816677
30
0
41
1
10
33.9893945065849
20
-1.21617742656363
30
0
41
1
10
33.8237101737442
20
-1.27246190984982
30
0
41
1
10
33.7407641082114
20
-1.29905769712502
30
0
41
1
10
33.6164009316396
20
-1.3368112052498
30
0
41
1
10
33.5749532420036
20
-1.34903456261591
30
0
41
1
10
33.4920859201834
20
-1.37275147474821
30
0
41
1
10
33.4506718715816
20
-1.38424902470425
30
0
41
1
10
33.3677612524094
20
-1.40638868629597
30
0
41
1
10
33.3262313636261
20
-1.41700096150726
30
0
41
1
10
33.2429367176552
20
-1.43724360370294
30
0
41
1
10
33.2011870152715
20
-1.4468878850995
30
0
41
1
10
33.117513149811
20
-1.46525016873224
30
0
41
1
10
33.0756008830188
20
-1.4739634501822
30
0
41
1
10
32.9919754510348
20
-1.4903745222424
30
0
41
1
10
32.9502132962164
20
-1.49808324455734
30
0
41
1
10
32.825033219175
20
-1.51971908807931
30
0
41
1
10
32.7416933327266
20
-1.5321489388034
30
0
41
1
10
32.5754305847366
20
-1.55320819442582
30
0
41
1
10
32.4925352549156
20
-1.56184868619118
30
0
41
1
10
32.327395688645
20
-1.57529485847061
30
0
41
1
10
32.2451999885138
20
-1.58007525096403
30
0
41
1
10
32.0803003458417
20
-1.58551647848776
30
0
41
1
10
31.9977222360041
20
-1.58622648328591
30
0
41
1
10
31.8323674533685
20
-1.58370949095254
30
0
41
1
10
31.749551158485
20
-1.58047918430211
30
0
41
1
10
31.5835057004231
20
-1.57014379078393
30
0
41
1
10
31.5003024538893
20
-1.56304500914697
30
0
41
1
10
31.3754386791207
20
-1.5493628995371
30
0
41
1
10
31.3338055819259
20
-1.54429481389846
30
0
41
1
10
31.2505297517111
20
-1.53310552328344
30
0
41
1
10
31.2088938546076
20
-1.52697953545689
30
0
41
1
10
31.125528862388
20
-1.51368084421162
30
0
41
1
10
31.0837328911248
20
-1.5065150770987
30
0
41
1
10
31.0002311958599
20
-1.49132237048551
30
0
41
1
10
30.9585081099112
20
-1.48328056660165
30
0
41
1
10
30.8334629986369
20
-1.45782232124378
30
0
41
1
10
30.7502784971169
20
-1.43906047582735
30
0
41
1
10
30.5840732553841
20
-1.39821140440924
30
0
41
1
10
30.5010155062578
20
-1.37616279592493
30
0
41
1
10
30.335153428366
20
-1.32872981199455
30
0
41
1
10
30.2523787344516
20
-1.30331712935398
30
0
41
1
10
30.0873356635705
20
-1.24879967903411
30
0
41
1
10
30.0051499517115
20
-1.21957355598659
30
0
41
1
10
29.84018345314
20
-1.15862525001313
30
0
41
1
10
29.7574902952377
20
-1.12682475766303
30
0
41
1
10
29.5917804980948
20
-1.06050282102987
30
0
41
1
10
29.5087273760923
20
-1.02602504645972
30
0
41
1
10
29.3420613591501
20
-0.95469445468143
30
0
41
1
10
29.2584704384269
20
-0.917819372022109
30
0
41
1
10
29.1329053407893
20
-0.860303399277171
30
0
41
1
10
29.0909697014352
20
-0.840740318533761
30
0
41
1
10
29.007351616568
20
-0.800974809846679
30
0
41
1
10
28.9656742117129
20
-0.780760230228765
30
0
41
1
10
28.8825102112647
20
-0.739786165768663
30
0
41
1
10
28.8410041604008
20
-0.719059257984867
30
0
41
1
10
28.7579650500036
20
-0.677434323211799
30
0
41
1
10
28.7164529748801
20
-0.65650106739028
30
0
41
1
10
28.5919807118834
20
-0.593275045312538
30
0
41
1
10
28.5091055567861
20
-0.550518968981152
30
0
41
1
10
28.343394185935
20
-0.464121114684019
30
0
41
1
10
28.2605174714122
20
-0.420552230574685
30
0
41
1
10
28.0948533339231
20
-0.332454562996304
30
0
41
1
10
28.0120972943093
20
-0.287869954188238
30
0
41
1
10
27.8882336099849
20
-0.219885905962826
30
0
41
1
10
27.8469956317011
20
-0.19703057046928
30
0
41
1
10
27.7645555326616
20
-0.15104374774387
30
0
41
1
10
27.7233424046734
20
-0.127932117344585
30
0
41
1
10
27.5994092136552
20
-0.0588265178772929
30
0
41
1
10
27.5164946856096
20
-0.012880864563698
30
0
41
1
10
27.3502102442553
20
0.0789914836675223
30
0
41
1
10
27.2668073542377
20
0.124857575281908
30
0
41
1
10
27.1411726258894
20
0.19328275495613
30
0
41
1
10
27.0991720340073
20
0.216060887753599
30
0
41
1
10
27.0152231115053
20
0.261467411738806
30
0
41
1
10
26.9733267920978
20
0.284069504237181
30
0
41
1
10
26.8479321665985
20
0.351686298022571
30
0
41
1
10
26.7647530884412
20
0.39655790007393
30
0
41
1
10
26.6405600550537
20
0.463417249040504
30
0
41
1
10
26.5992398197879
20
0.4855939554229
30
0
41
1
10
26.516535760043
20
0.52934313676468
30
0
41
1
10
26.47517174972
20
0.550952394101643
30
0
41
1
10
26.3510855270016
20
0.615073317243827
30
0
41
1
10
26.2683958454163
20
0.656923206591955
30
0
41
1
10
26.1029376334772
20
0.738619556821646
30
0
41
1
10
26.020126220909
20
0.778397903443221
30
0
41
1
10
25.8544326550142
20
0.855992164781611
30
0
41
1
10
25.7715831450603
20
0.89386148697281
30
0
41
1
10
25.6474712574403
20
0.949479905579551
30
0
41
1
10
25.6061318189067
20
0.967826637139638
30
0
41
1
10
25.5234676638207
20
1.00404934359651
30
0
41
1
10
25.4821429474521
20
1.02192403212697
30
0
41
1
10
25.3578353174098
20
1.07432294136572
30
0
41
1
10
25.2745912456509
20
1.10773499159106
30
0
41
1
10
25.1075145428315
20
1.1717575969497
30
0
41
1
10
25.02349579368
20
1.2023726052962
30
0
41
1
10
24.8560591947641
20
1.25997136385294
30
0
41
1
10
24.7725139539462
20
1.28703919555622
30
0
41
1
10
24.6060428489758
20
1.33806427581769
30
0
41
1
10
24.5231447467892
20
1.36204306857047
30
0
41
1
10
24.3992971664697
20
1.3956061702963
30
0
41
1
10
24.3580909992737
20
1.40638318814072
30
0
41
1
10
24.2755930631657
20
1.42691625054769
30
0
41
1
10
24.2343133712493
20
1.4366856837645
30
0
41
1
10
24.1104238064355
20
1.4645650199756
30
0
41
1
10
24.0277936488567
20
1.48126692358633
30
0
41
1
10
23.8623418170533
20
1.51088885327931
30
0
41
1
10
23.7794758505711
20
1.52378631940729
30
0
41
1
10
23.6135177759972
20
1.54582116017977
30
0
41
1
10
23.5304590485358
20
1.55497870572543
30
0
41
1
10
23.4059263038542
20
1.56588480719699
30
0
41
1
10
23.3644271780908
20
1.56904662617447
30
0
41
1
10
23.2814211037583
20
1.57438320567513
30
0
41
1
10
23.2399192209133
20
1.57655622772947
30
0
41
1
10
23.1566801074958
20
1.5798605364721
30
0
41
1
10
23.1149460696016
20
1.58099589422429
30
0
41
1
10
23.0468397190109
20
1.58201360524456
30
0
41
1
10
23.0205350021253
20
1.58220424974607
30
0
41
1
10
22.9942436440479
20
1.58219458487392
30
0
0
SPLINE
5
C7
100
AcDbEntity
8
1
62
256
6
ByLayer
370
18
48
1
60
0
100
AcDbSpline
70
4
71
3
72
118
73
114
40
0
40
0
40
0
40
0
40
0.0215709144783679
40
0.0215709144783679
40
0.0443250792579427
40
0.0443250792579427
40
0.0670792440375172
40
0.0670792440375172
40
0.0784563264273036
40
0.0784563264273036
40
0.08983340881709
40
0.08983340881709
40
0.112587573596665
40
0.112587573596665
40
0.123964655986452
40
0.123964655986452
40
0.13534173837624
40
0.13534173837624
40
0.158095903155814
40
0.158095903155814
40
0.169472985545601
40
0.169472985545601
40
0.180850067935387
40
0.180850067935387
40
0.203604232714959
40
0.203604232714959
40
0.226358397494531
40
0.226358397494531
40
0.249112562274102
40
0.249112562274102
40
0.271866727053674
40
0.271866727053674
40
0.294620891833246
40
0.294620891833246
40
0.305997974223031
40
0.305997974223031
40
0.317375056612817
40
0.317375056612817
40
0.340129221392388
40
0.340129221392388
40
0.362883386171958
40
0.362883386171958
40
0.374260468561743
40
0.374260468561743
40
0.385637550951528
40
0.385637550951528
40
0.397014633341314
40
0.397014633341314
40
0.408391715731099
40
0.408391715731099
40
0.431145880510669
40
0.431145880510669
40
0.45390004529024
40
0.45390004529024
40
0.47665421006981
40
0.47665421006981
40
0.488031292459596
40
0.488031292459596
40
0.499408374849382
40
0.499408374849382
40
0.522162539628955
40
0.522162539628955
40
0.544916704408528
40
0.544916704408528
40
0.567670869188102
40
0.567670869188102
40
0.579047951577888
40
0.579047951577888
40
0.590425033967675
40
0.590425033967675
40
0.601802116357461
40
0.601802116357461
40
0.613179198747247
40
0.613179198747247
40
0.635933363526821
40
0.635933363526821
40
0.658687528306394
40
0.658687528306394
40
0.670064610696181
40
0.670064610696181
40
0.681441693085969
40
0.681441693085969
40
0.704195857865542
40
0.704195857865542
40
0.726950022645116
40
0.726950022645116
40
0.749704187424689
40
0.749704187424689
40
0.772458352204262
40
0.772458352204262
40
0.795212516983835
40
0.795212516983835
40
0.806589599373623
40
0.806589599373623
40
0.81796668176341
40
0.81796668176341
40
0.840720846542985
40
0.840720846542985
40
0.86347501132256
40
0.86347501132256
40
0.886229176102134
40
0.886229176102134
40
0.897606258491921
40
0.897606258491921
40
0.908983340881707
40
0.908983340881707
40
0.93173750566128
40
0.93173750566128
40
0.954491670440854
40
0.954491670440854
40
0.977245835220427
40
0.977245835220427
40
1
40
1
40
1
40
1
41
1
10
16.2067969156047
20
-1.13213034821607
30
0
41
1
10
16.128384557166
20
-1.16229349492346
30
0
41
1
10
16.0499767155605
20
-1.19108597602963
30
0
41
1
10
15.8886867812778
20
-1.24726329783709
30
0
41
1
10
15.8057727222356
20
-1.27446664781775
30
0
41
1
10
15.6399381962241
20
-1.32586500701655
30
0
41
1
10
15.5570429797476
20
-1.35008542706822
30
0
41
1
10
15.4328411821041
20
-1.38419318633189
30
0
41
1
10
15.3914670553375
20
-1.39519177742576
30
0
41
1
10
15.3086267867316
20
-1.41630059466357
30
0
41
1
10
15.2671262157013
20
-1.4263821208632
30
0
41
1
10
15.1423163133235
20
-1.45516815650825
30
0
41
1
10
15.0587681623836
20
-1.47247397418002
30
0
41
1
10
14.9329401907386
20
-1.49561655339764
30
0
41
1
10
14.8910030029798
20
-1.50283838344686
30
0
41
1
10
14.8072618589356
20
-1.51627094725018
30
0
41
1
10
14.7654304419077
20
-1.52248503288376
30
0
41
1
10
14.6400782165411
20
-1.53966057903509
30
0
41
1
10
14.5567018531504
20
-1.54916616159002
30
0
41
1
10
14.4321353591595
20
-1.56057512627953
30
0
41
1
10
14.3906938082748
20
-1.56390001179412
30
0
41
1
10
14.3079877231937
20
-1.56957754253057
30
0
41
1
10
14.2667278962283
20
-1.57192918721162
30
0
41
1
10
14.1430216556298
20
-1.57746363562393
30
0
41
1
10
14.0604532966802
20
-1.57910806033337
30
0
41
1
10
13.8951511274245
20
-1.57845231889081
30
0
41
1
10
13.8124486312936
20
-1.57614540665063
30
0
41
1
10
13.6467415709263
20
-1.56765521694163
30
0
41
1
10
13.563707033728
20
-1.56148788759319
30
0
41
1
10
13.3974801092652
20
-1.54526122086793
30
0
41
1
10
13.3143145479937
20
-1.53519252209554
30
0
41
1
10
13.1480348826739
20
-1.51087157128569
30
0
41
1
10
13.0649516929201
20
-1.49656329244019
30
0
41
1
10
12.9394955634265
20
-1.47236337530433
30
0
41
1
10
12.8975567127848
20
-1.46382692492011
30
0
41
1
10
12.8138829575093
20
-1.4458924147616
30
0
41
1
10
12.772098516551
20
-1.4364848390037
30
0
41
1
10
12.6468699291518
20
-1.40698740543664
30
0
41
1
10
12.5635337384628
20
-1.38563752675537
30
0
41
1
10
12.3970401996737
20
-1.33977612193112
30
0
41
1
10
12.313910091574
20
-1.31524657716795
30
0
41
1
10
12.1896051446729
20
-1.275819254461
30
0
41
1
10
12.1482329292107
20
-1.26223862687638
30
0
41
1
10
12.0656311809734
20
-1.23416596048588
30
0
41
1
10
12.0244077754963
20
-1.21966564750389
30
0
41
1
10
11.9420037907262
20
-1.1898541867902
30
0
41
1
10
11.9007910244275
20
-1.17458170375735
30
0
41
1
10
11.8182401547187
20
-1.14344409314339
30
0
41
1
10
11.7769187727102
20
-1.12755925857314
30
0
41
1
10
11.6528623101755
20
-1.07891238300698
30
0
41
1
10
11.5700436885181
20
-1.04514333893002
30
0
41
1
10
11.4039867461961
20
-0.975227015578412
30
0
41
1
10
11.3207136407456
20
-0.939137497194196
30
0
41
1
10
11.1538557688654
20
-0.864424215371514
30
0
41
1
10
11.0702999385039
20
-0.825755725696723
30
0
41
1
10
10.944896627284
20
-0.765461337640176
30
0
41
1
10
10.9030406450129
20
-0.744946107205209
30
0
41
1
10
10.8195511083522
20
-0.703451387732088
30
0
41
1
10
10.7778697160823
20
-0.682515617087546
30
0
41
1
10
10.6528300124437
20
-0.619474207636415
30
0
41
1
10
10.5695704102699
20
-0.576970620966733
30
0
41
1
10
10.4033048676627
20
-0.490939291791875
30
0
41
1
10
10.3202602620033
20
-0.447479608784391
30
0
41
1
10
10.1542054334928
20
-0.359942937242152
30
0
41
1
10
10.0712196297532
20
-0.315823469380035
30
0
41
1
10
9.94702109913496
20
-0.248718221570016
30
0
41
1
10
9.9056665469052
20
-0.226198304799425
30
0
41
1
10
9.82306439394378
20
-0.180821030679397
30
0
41
1
10
9.78182368889304
20
-0.157950791543612
30
0
41
1
10
9.69937417741795
20
-0.112007723749429
30
0
41
1
10
9.65813957814956
20
-0.0889825048104171
30
0
41
1
10
9.57550072868537
20
-0.0431048750681953
30
0
41
1
10
9.53411674358355
20
-0.0202150750955354
30
0
41
1
10
9.40981623115837
20
0.0483890454634093
30
0
41
1
10
9.3267683060152
20
0.0940707796818003
30
0
41
1
10
9.16013019215848
20
0.184981650899658
30
0
41
1
10
9.07650181947093
20
0.230137001185653
30
0
41
1
10
8.9507070752914
20
0.297635315502873
30
0
41
1
10
8.90867841223599
20
0.320127554535929
30
0
41
1
10
8.82475983538544
20
0.365006419569539
30
0
41
1
10
8.7829084880556
20
0.387368325523766
30
0
41
1
10
8.65770496421331
20
0.454260725987382
30
0
41
1
10
8.57479557179542
20
0.498752421867494
30
0
41
1
10
8.40885080568611
20
0.585271278648378
30
0
41
1
10
8.3258990718044
20
0.627467839595653
30
0
41
1
10
8.1601236917777
20
0.709959199088246
30
0
41
1
10
8.07726415662211
20
0.750189507623247
30
0
41
1
10
7.91143913200875
20
0.828402677029771
30
0
41
1
10
7.82849456654563
20
0.866425470336395
30
0
41
1
10
7.66283116909011
20
0.940733253559984
30
0
41
1
10
7.58014475108041
20
0.97706180867857
30
0
41
1
10
7.45623593133107
20
1.0300907286431
30
0
41
1
10
7.41492403150667
20
1.04747995183109
30
0
41
1
10
7.33209038637455
20
1.08141719618459
30
0
41
1
10
7.29059014928689
20
1.0979967360993
30
0
41
1
10
7.16588384889923
20
1.14663802966842
30
0
41
1
10
7.08249533243338
20
1.17763167345211
30
0
41
1
10
6.91504924938181
20
1.2365392255841
30
0
41
1
10
6.83082013046504
20
1.26444256335131
30
0
41
1
10
6.66305514753572
20
1.31681148001908
30
0
41
1
10
6.57941751444233
20
1.3413667383816
30
0
41
1
10
6.45448943024002
20
1.37585772299406
30
0
41
1
10
6.41293951069261
20
1.38696597511097
30
0
41
1
10
6.32996193519733
20
1.40832946890507
30
0
41
1
10
6.28851926876879
20
1.41857018098872
30
0
41
1
10
6.1640347938482
20
1.4477464123654
30
0
41
1
10
6.08094244355669
20
1.46523423310953
30
0
41
1
10
5.91466673145578
20
1.49645235206799
30
0
41
1
10
5.83144300520172
20
1.51014968187207
30
0
41
1
10
5.66464197673588
20
1.53367453707978
30
0
41
1
10
5.58108811029769
20
1.54352443177481
30
0
41
1
10
5.41392578425322
20
1.55943444981298
30
0
41
1
10
5.33031984075672
20
1.56549917821414
30
0
41
1
10
5.24685751783687
20
1.56955985178897
30
0
0
SPLINE
5
C8
100
AcDbEntity
8
1
62
256
6
ByLayer
370
18
48
1
60
0
100
AcDbSpline
70
4
71
3
72
8
73
4
40
0
40
0
40
0
40
0
40
1
40
1
40
1
40
1
41
1
10
5.24685751783684
20
1.56955985178897
30
0
41
1
10
5.15501091157839
20
1.57338147436212
30
0
41
1
10
5.06359164775526
20
1.57535986723442
30
0
41
1
10
4.97255840354387
20
1.57543288617194
30
0
0
SPLINE
5
C9
100
AcDbEntity
8
1
62
256
6
ByLayer
370
18
48
1
60
0
100
AcDbSpline
70
4
71
3
72
128
73
124
40
0
40
0
40
0
40
0
40
0.0037730774623465
40
0.0037730774623465
40
0.0148703789706267
40
0.0148703789706267
40
0.025967680478907
40
0.025967680478907
40
0.0370649819871872
40
0.0370649819871872
40
0.0481622834954674
40
0.0481622834954674
40
0.0703568865120279
40
0.0703568865120279
40
0.0925514895285884
40
0.0925514895285884
40
0.114746092545149
40
0.114746092545149
40
0.125843394053428
40
0.125843394053428
40
0.136940695561708
40
0.136940695561708
40
0.159135298578268
40
0.159135298578268
40
0.181329901594829
40
0.181329901594829
40
0.203524504611389
40
0.203524504611389
40
0.214621806119669
40
0.214621806119669
40
0.225719107627949
40
0.225719107627949
40
0.236816409136228
40
0.236816409136228
40
0.247913710644508
40
0.247913710644508
40
0.270108313661067
40
0.270108313661067
40
0.292302916677626
40
0.292302916677626
40
0.314497519694185
40
0.314497519694185
40
0.325594821202464
40
0.325594821202464
40
0.336692122710744
40
0.336692122710744
40
0.358886725727303
40
0.358886725727303
40
0.369984027235582
40
0.369984027235582
40
0.381081328743862
40
0.381081328743862
40
0.403275931760421
40
0.403275931760421
40
0.414373233268701
40
0.414373233268701
40
0.42547053477698
40
0.42547053477698
40
0.43656783628526
40
0.43656783628526
40
0.447665137793539
40
0.447665137793539
40
0.469859740810098
40
0.469859740810098
40
0.492054343826657
40
0.492054343826657
40
0.514248946843216
40
0.514248946843216
40
0.525346248351497
40
0.525346248351497
40
0.536443549859777
40
0.536443549859777
40
0.547540851368057
40
0.547540851368057
40
0.558638152876337
40
0.558638152876337
40
0.580832755892898
40
0.580832755892898
40
0.603027358909458
40
0.603027358909458
40
0.625221961926019
40
0.625221961926019
40
0.636319263434298
40
0.636319263434298
40
0.647416564942578
40
0.647416564942578
40
0.669611167959135
40
0.669611167959135
40
0.691805770975693
40
0.691805770975693
40
0.714000373992251
40
0.714000373992251
40
0.72509767550053
40
0.72509767550053
40
0.736194977008808
40
0.736194977008808
40
0.758389580025366
40
0.758389580025366
40
0.780584183041924
40
0.780584183041924
40
0.802778786058481
40
0.802778786058481
40
0.824973389075039
40
0.824973389075039
40
0.836070690583319
40
0.836070690583319
40
0.847167992091598
40
0.847167992091598
40
0.869362595108156
40
0.869362595108156
40
0.891557198124713
40
0.891557198124713
40
0.913751801141271
40
0.913751801141271
40
0.92484910264955
40
0.92484910264955
40
0.93594640415783
40
0.93594640415783
40
0.958141007174387
40
0.958141007174387
40
0.980335610190945
40
0.980335610190945
40
1
40
1
40
1
40
1
41
1
10
7.19996282787139
20
1.12011755152074
30
0
41
1
10
7.21420173717655
20
1.12565002462941
30
0
41
1
10
7.22844377737897
20
1.1311490275275
30
0
41
1
10
7.28458711042316
20
1.15268554165471
30
0
41
1
10
7.32637551439996
20
1.1684106308401
30
0
41
1
10
7.40972021730073
20
1.19917187974971
30
0
41
1
10
7.45125855177685
20
1.21422880581912
30
0
41
1
10
7.5342208628683
20
1.24349576889836
30
0
41
1
10
7.57566062688289
20
1.25768639870074
30
0
41
1
10
7.65865446848466
20
1.2849879007567
30
0
41
1
10
7.70019217327624
20
1.29812008942616
30
0
41
1
10
7.82488292796324
20
1.33606808440575
30
0
41
1
10
7.9081272477371
20
1.35943379075064
30
0
41
1
10
8.07437768708195
20
1.40287641267821
30
0
41
1
10
8.1573290417555
20
1.42299008189056
30
0
41
1
10
8.32290472887107
20
1.45987672200127
30
0
41
1
10
8.40556992583294
20
1.47661941283576
30
0
41
1
10
8.52939552627731
20
1.49906448646291
30
0
41
1
10
8.57062173576387
20
1.50611138029564
30
0
41
1
10
8.65310620701698
20
1.51924107693779
30
0
41
1
10
8.69438041949121
20
1.52531442138024
30
0
41
1
10
8.81861156235715
20
1.54193599036188
30
0
41
1
10
8.90193263954626
20
1.55092677533926
30
0
41
1
10
9.06925747435966
20
1.56502166436729
30
0
41
1
10
9.15323650406447
20
1.57013737608199
30
0
41
1
10
9.32139108381557
20
1.57649123925523
30
0
41
1
10
9.40505903675265
20
1.57768493701437
30
0
41
1
10
9.52999779110709
20
1.57643884165356
30
0
41
1
10
9.57155313573105
20
1.57551820564603
30
0
41
1
10
9.65446924155657
20
1.5726518054515
30
0
41
1
10
9.69581374063995
20
1.57070227520524
30
0
41
1
10
9.77839716898069
20
1.56577648441305
30
0
41
1
10
9.81965240152221
20
1.56280230618285
30
0
41
1
10
9.90230587434624
20
1.55591273320309
30
0
41
1
10
9.94369283255398
20
1.55199744043278
30
0
41
1
10
10.0679884904393
20
1.53888390363568
30
0
41
1
10
10.1510469211743
20
1.52833616116013
30
0
41
1
10
10.3170889838172
20
1.50354722449032
30
0
41
1
10
10.4000164177148
20
1.48926609811011
30
0
41
1
10
10.5656604232407
20
1.45679052201987
30
0
41
1
10
10.6484221199505
20
1.43862475680572
30
0
41
1
10
10.7725055904805
20
1.40837912909023
30
0
41
1
10
10.8138391228542
20
1.39778141126183
30
0
41
1
10
10.8965449022645
20
1.37560814798519
30
0
41
1
10
10.9379344222992
20
1.364046368668
30
0
41
1
10
11.0625442495911
20
1.32826934994412
30
0
41
1
10
11.1461920661907
20
1.30297200587654
30
0
41
1
10
11.2722951404309
20
1.26274727723336
30
0
41
1
10
11.314415172876
20
1.24895699669912
30
0
41
1
10
11.3984114328948
20
1.22066220464541
30
0
41
1
10
11.4403330601215
20
1.20614001962855
30
0
41
1
10
11.5657941564656
20
1.16135283297964
30
0
41
1
10
11.6490528498855
20
1.12989348674762
30
0
41
1
10
11.7734966883094
20
1.08043532672855
30
0
41
1
10
11.8149041319281
20
1.06357174291509
30
0
41
1
10
11.8975587765426
20
1.02906387388487
30
0
41
1
10
11.9387930368309
20
1.01140072262501
30
0
41
1
10
12.0211596207295
20
0.975365934144008
30
0
41
1
10
12.0623096453321
20
0.957018875073089
30
0
41
1
10
12.1447687293371
20
0.920009243755061
30
0
41
1
10
12.1860766437791
20
0.901346867467595
30
0
41
1
10
12.310188859264
20
0.844848623322491
30
0
41
1
10
12.3931972758166
20
0.806532675148304
30
0
41
1
10
12.5592962547844
20
0.727953522415049
30
0
41
1
10
12.6423307301167
20
0.687594051547165
30
0
41
1
10
12.8082972448846
20
0.604536595753359
30
0
41
1
10
12.8912783510663
20
0.561920676852196
30
0
41
1
10
13.0157982728157
20
0.496375699073923
30
0
41
1
10
13.0572985938166
20
0.474230651485641
30
0
41
1
10
13.140346875204
20
0.429438982396419
30
0
41
1
10
13.1819133671173
20
0.406825236929734
30
0
41
1
10
13.2653541967517
20
0.361583983999481
30
0
41
1
10
13.3072810229472
20
0.338943779893185
30
0
41
1
10
13.3910860470238
20
0.293811808982724
30
0
41
1
10
13.4329852904254
20
0.271310292921385
30
0
41
1
10
13.5586143396803
20
0.203878752062508
30
0
41
1
10
13.6422679247272
20
0.159005431899203
30
0
41
1
10
13.8088931594193
20
0.0684957293530033
30
0
41
1
10
13.8918850911834
20
0.0229001586548634
30
0
41
1
10
14.0573990175933
20
-0.0686363772948368
30
0
41
1
10
14.1399071657159
20
-0.114603722003977
30
0
41
1
10
14.263325035152
20
-0.183784391776328
30
0
41
1
10
14.3044350053062
20
-0.206830583647161
30
0
41
1
10
14.3868227292532
20
-0.252479968768881
30
0
41
1
10
14.428110547434
20
-0.275065137876908
30
0
41
1
10
14.5522197998131
20
-0.342175717486555
30
0
41
1
10
14.6352979075957
20
-0.386038072244958
30
0
41
1
10
14.8016945299606
20
-0.472815435616752
30
0
41
1
10
14.8849584529615
20
-0.515827870584388
30
0
41
1
10
15.0514965582831
20
-0.601296291840384
30
0
41
1
10
15.1348230181858
20
-0.643658413693515
30
0
41
1
10
15.2599700118043
20
-0.706495459210402
30
0
41
1
10
15.3017341726143
20
-0.727359135168172
30
0
41
1
10
15.3851759628466
20
-0.768751445584599
30
0
41
1
10
15.4267940911213
20
-0.789209578000794
30
0
41
1
10
15.5516809786785
20
-0.84931741970027
30
0
41
1
10
15.6350476590565
20
-0.887609929550848
30
0
41
1
10
15.8017825289315
20
-0.961236164924657
30
0
41
1
10
15.8851338375014
20
-0.996600187717661
30
0
41
1
10
16.0513077960356
20
-1.06518990619278
30
0
41
1
10
16.1341367198077
20
-1.09839317133822
30
0
41
1
10
16.2994509754873
20
-1.16229235714832
30
0
41
1
10
16.3819390649329
20
-1.19298887897767
30
0
41
1
10
16.5053983701605
20
-1.23708125420674
30
0
41
1
10
16.546526642752
20
-1.25142605742633
30
0
41
1
10
16.6289616635479
20
-1.27915421464161
30
0
41
1
10
16.6702845051534
20
-1.29252197714234
30
0
41
1
10
16.7945655274389
20
-1.33118089319817
30
0
41
1
10
16.8778332395582
20
-1.3550411751562
30
0
41
1
10
17.0447742246575
20
-1.39944522483583
30
0
41
1
10
17.1283951985251
20
-1.42003323104322
30
0
41
1
10
17.2957723443017
20
-1.45799642210241
30
0
41
1
10
17.3797381606684
20
-1.4753445306913
30
0
41
1
10
17.5048494911018
20
-1.49849005364149
30
0
41
1
10
17.5464408595247
20
-1.50574041360184
30
0
41
1
10
17.6294049805486
20
-1.51929060637698
30
0
41
1
10
17.6707922615231
20
-1.52557923138448
30
0
41
1
10
17.7950117500831
20
-1.54283390283536
30
0
41
1
10
17.8779968349643
20
-1.55216604261582
30
0
41
1
10
18.0441448174668
20
-1.56687019254721
30
0
41
1
10
18.1272859123327
20
-1.57225635296427
30
0
41
1
10
18.283745895763
20
-1.57884358346567
30
0
41
1
10
18.3570952245545
20
-1.58043908045255
30
0
41
1
10
18.430352700897
20
-1.58048315421735
30
0
0
SPLINE
5
CA
100
AcDbEntity
8
1
62
256
6
ByLayer
370
18
48
1
60
0
100
AcDbSpline
70
4
71
3
72
124
73
120
40
0
40
0
40
0
40
0
40
0.0195572946830365
40
0.0195572946830365
40
0.0417814923654909
40
0.0417814923654909
40
0.0640056900479454
40
0.0640056900479454
40
0.0862298877303999
40
0.0862298877303999
40
0.108454085412854
40
0.108454085412854
40
0.119566184254082
40
0.119566184254082
40
0.13067828309531
40
0.13067828309531
40
0.141790381936538
40
0.141790381936538
40
0.152902480777766
40
0.152902480777766
40
0.175126678460224
40
0.175126678460224
40
0.197350876142682
40
0.197350876142682
40
0.219575073825139
40
0.219575073825139
40
0.241799271507597
40
0.241799271507597
40
0.264023469190055
40
0.264023469190055
40
0.286247666872512
40
0.286247666872512
40
0.30847186455497
40
0.30847186455497
40
0.319583963396198
40
0.319583963396198
40
0.330696062237427
40
0.330696062237427
40
0.341808161078656
40
0.341808161078656
40
0.352920259919885
40
0.352920259919885
40
0.375144457602342
40
0.375144457602342
40
0.38625655644357
40
0.38625655644357
40
0.397368655284798
40
0.397368655284798
40
0.419592852967256
40
0.419592852967256
40
0.441817050649713
40
0.441817050649713
40
0.464041248332171
40
0.464041248332171
40
0.486265446014628
40
0.486265446014628
40
0.508489643697086
40
0.508489643697086
40
0.519601742538315
40
0.519601742538315
40
0.530713841379543
40
0.530713841379543
40
0.541825940220772
40
0.541825940220772
40
0.552938039062001
40
0.552938039062001
40
0.564050137903229
40
0.564050137903229
40
0.575162236744458
40
0.575162236744458
40
0.597386434426916
40
0.597386434426916
40
0.619610632109373
40
0.619610632109373
40
0.630722730950602
40
0.630722730950602
40
0.64183482979183
40
0.64183482979183
40
0.664059027474289
40
0.664059027474289
40
0.686283225156748
40
0.686283225156748
40
0.708507422839207
40
0.708507422839207
40
0.730731620521666
40
0.730731620521666
40
0.741843719362896
40
0.741843719362896
40
0.752955818204126
40
0.752955818204126
40
0.775180015886587
40
0.775180015886587
40
0.797404213569047
40
0.797404213569047
40
0.819628411251508
40
0.819628411251508
40
0.830740510092738
40
0.830740510092738
40
0.841852608933968
40
0.841852608933968
40
0.86407680661643
40
0.86407680661643
40
0.886301004298891
40
0.886301004298891
40
0.908525201981353
40
0.908525201981353
40
0.919637300822585
40
0.919637300822585
40
0.930749399663816
40
0.930749399663816
40
0.941861498505048
40
0.941861498505048
40
0.952973597346279
40
0.952973597346279
40
0.975197795028743
40
0.975197795028743
40
0.997421992711206
40
0.997421992711206
40
1
40
1
40
1
40
1
41
1
10
25.213844547481
20
1.13293790075926
30
0
41
1
10
25.2872115173592
20
1.16130362403513
30
0
41
1
10
25.3606807980432
20
1.18876724317852
30
0
41
1
10
25.5176468059622
20
1.24534305254599
30
0
41
1
10
25.600573657795
20
1.27402484160865
30
0
41
1
10
25.7668799022812
20
1.32687342016297
30
0
41
1
10
25.8501555360693
20
1.35120583455853
30
0
41
1
10
26.0166223226923
20
1.39627348878722
30
0
41
1
10
26.0997784362181
20
1.41704130516885
30
0
41
1
10
26.2655577097577
20
1.45533510143068
30
0
41
1
10
26.3482313263383
20
1.47280835619492
30
0
41
1
10
26.4720357582149
20
1.49633566173287
30
0
41
1
10
26.5132660923191
20
1.5037336951165
30
0
41
1
10
26.5956389303004
20
1.51762681981643
30
0
41
1
10
26.6367638136875
20
1.52412919270981
30
0
41
1
10
26.719073592016
20
1.53613545097815
30
0
41
1
10
26.7602733342467
20
1.54163240105376
30
0
41
1
10
26.8429312832208
20
1.55156614585511
30
0
41
1
10
26.8843711453247
20
1.55601287541046
30
0
41
1
10
27.0089725477023
20
1.56785350706264
30
0
41
1
10
27.0924262842541
20
1.57375782060259
30
0
41
1
10
27.2596243044759
20
1.58173935552804
30
0
41
1
10
27.3433180012239
20
1.58381130932472
30
0
41
1
10
27.5109761347668
20
1.58390275971067
30
0
41
1
10
27.5944372753674
20
1.58192193506193
30
0
41
1
10
27.7604658049726
20
1.57382291108775
30
0
41
1
10
27.8429516137597
20
1.56764411128148
30
0
41
1
10
28.0084710583252
20
1.55153901588807
30
0
41
1
10
28.0914330510411
20
1.54163988529672
30
0
41
1
10
28.2574424831361
20
1.51826159802681
30
0
41
1
10
28.3404609545178
20
1.50477026198246
30
0
41
1
10
28.5061014647849
20
1.4739106709074
30
0
41
1
10
28.5887686048666
20
1.45655629678569
30
0
41
1
10
28.7126672110635
20
1.42762560004084
30
0
41
1
10
28.753947500458
20
1.4174976586942
30
0
41
1
10
28.8364580594931
20
1.3962406205772
30
0
41
1
10
28.877670989187
20
1.38509470240621
30
0
41
1
10
28.9601563115919
20
1.36187498393266
30
0
41
1
10
29.0014443912198
20
1.34981500257081
30
0
41
1
10
29.0843121240944
20
1.32501029113612
30
0
41
1
10
29.1258767755819
20
1.31225346717449
30
0
41
1
10
29.2509119666318
20
1.27290811621074
30
0
41
1
10
29.3347361412812
20
1.24527182173279
30
0
41
1
10
29.4608214031578
20
1.2013195859104
30
0
41
1
10
29.502852497303
20
1.18626014773176
30
0
41
1
10
29.5866168280999
20
1.15536778488229
30
0
41
1
10
29.6283954865724
20
1.13952870392018
30
0
41
1
10
29.7534526227071
20
1.09086752302062
30
0
41
1
10
29.8364712929444
20
1.05692897224537
30
0
41
1
10
30.0018144673362
20
0.986022704385732
30
0
41
1
10
30.0840006375899
20
0.948835726032598
30
0
41
1
10
30.2489714281947
20
0.873339128439227
30
0
41
1
10
30.331735118551
20
0.835022992990559
30
0
41
1
10
30.4975122821547
20
0.756901468161743
30
0
41
1
10
30.5805028971308
20
0.717061402333144
30
0
41
1
10
30.7462272605727
20
0.635050040407975
30
0
41
1
10
30.8289977330891
20
0.592931990895806
30
0
41
1
10
30.9531496820048
20
0.528254275649147
30
0
41
1
10
30.9945325267704
20
0.506444332361639
30
0
41
1
10
31.0772852289992
20
0.462291081418584
30
0
41
1
10
31.118640786878
20
0.439921398845826
30
0
41
1
10
31.2014119881179
20
0.394765606903434
30
0
41
1
10
31.2428447510273
20
0.372009977106671
30
0
41
1
10
31.3260241353631
20
0.326557406761879
30
0
41
1
10
31.3677638691452
20
0.30384936150125
30
0
41
1
10
31.4515092938519
20
0.258419880008432
30
0
41
1
10
31.4935412169672
20
0.235688015683479
30
0
41
1
10
31.5774437703944
20
0.190336379739847
30
0
41
1
10
31.6193578817389
20
0.167689159237682
30
0
41
1
10
31.7448981881897
20
0.0996549125173942
30
0
41
1
10
31.8282726340919
20
0.0540801213811335
30
0
41
1
10
31.9943467422827
20
-0.0375622264585047
30
0
41
1
10
32.0770920334779
20
-0.0835435497099297
30
0
41
1
10
32.2007997261505
20
-0.152688376883873
30
0
41
1
10
32.2419498168497
20
-0.175797402466088
30
0
41
1
10
32.3241653172111
20
-0.221973115517017
30
0
41
1
10
32.3652484183156
20
-0.245006993681557
30
0
41
1
10
32.4887621539771
20
-0.313334880497905
30
0
41
1
10
32.5714563890536
20
-0.35786105980597
30
0
41
1
10
32.7372538325457
20
-0.445440514329505
30
0
41
1
10
32.8203397718859
20
-0.488525613153257
30
0
41
1
10
32.9864006858363
20
-0.574138959182534
30
0
41
1
10
33.0694004894103
20
-0.616620239743469
30
0
41
1
10
33.2355217562872
20
-0.700577286440307
30
0
41
1
10
33.3186227890284
20
-0.742088924984756
30
0
41
1
10
33.4434038318575
20
-0.803501486346477
30
0
41
1
10
33.4850992057283
20
-0.82380173190171
30
0
41
1
10
33.5685332954348
20
-0.863505723667345
30
0
41
1
10
33.6102677716226
20
-0.882899440779369
30
0
41
1
10
33.735486445141
20
-0.939827053187514
30
0
41
1
10
33.8190011772754
20
-0.976094011089828
30
0
41
1
10
33.9856771734971
20
-1.04605795272096
30
0
41
1
10
34.068782405473
20
-1.079828312871
30
0
41
1
10
34.2344327104267
20
-1.14501338779621
30
0
41
1
10
34.317027384839
20
-1.17635912035917
30
0
41
1
10
34.4406216326377
20
-1.22137265576896
30
0
41
1
10
34.4817573510828
20
-1.23605761634039
30
0
41
1
10
34.5639473737767
20
-1.26471955176774
30
0
41
1
10
34.6050203128304
20
-1.27867340146983
30
0
41
1
10
34.728513707184
20
-1.31904202388574
30
0
41
1
10
34.8112637088781
20
-1.3439221964112
30
0
41
1
10
34.9773412430693
20
-1.39007525641046
30
0
41
1
10
35.0606526907032
20
-1.41136845259709
30
0
41
1
10
35.2273252061207
20
-1.45079220118566
30
0
41
1
10
35.3106954461885
20
-1.46890112887775
30
0
41
1
10
35.435943510797
20
-1.49342789520625
30
0
41
1
10
35.4777588629713
20
-1.50116837736658
30
0
41
1
10
35.5613087038151
20
-1.51572185846979
30
0
41
1
10
35.6029706181162
20
-1.52252742405153
30
0
41
1
10
35.6860948853367
20
-1.53516439754216
30
0
41
1
10
35.7275751180115
20
-1.54098396335692
30
0
41
1
10
35.8106043220134
20
-1.55153704176848
30
0
41
1
10
35.8521673413079
20
-1.55626816134134
30
0
41
1
10
35.9769832366041
20
-1.56890075005552
30
0
41
1
10
36.0603685689915
20
-1.57525318037034
30
0
41
1
10
36.2270600032772
20
-1.58410176984009
30
0
41
1
10
36.3103110091802
20
-1.58660000856395
30
0
41
1
10
36.4030280789575
20
-1.58718770554259
30
0
41
1
10
36.4126637623683
20
-1.58722216529273
30
0
41
1
10
36.4222979424764
20
-1.58722987650449
30
0
0
SPLINE
5
CB
100
AcDbEntity
8
1
62
256
6
ByLayer
370
18
48
1
60
0
100
AcDbSpline
70
4
71
5
72
87
73
81
40
0
40
0
40
0
40
0
40
0
40
0
40
0.024286200223322
40
0.0589319931702902
40
0.0936524260778858
40
0.128442469738554
40
0.163299393185443
40
0.19822042077054
40
0.233205474242135
40
0.26824868890131
40
0.303347137578007
40
0.338497453942522
40
0.373564668212465
40
0.405308533709446
40
0.424595825390612
40
0.434843987183887
40
0.443215876510555
40
0.450694364891969
40
0.452862432184141
40
0.455823609439483
40
0.457222117912149
40
0.457329695486969
40
0.458620626384815
40
0.459943795472045
40
0.461266964559274
40
0.463202482585441
40
0.466179805712717
40
0.467305518371292
40
0.468431231029867
40
0.469474164787186
40
0.470517098544506
40
0.471527585981947
40
0.472538073419388
40
0.47303209997992
40
0.474678855181696
40
0.477009397723262
40
0.478138733597762
40
0.483563938977343
40
0.488533574516533
40
0.493770479128346
40
0.499306886491742
40
0.5041981624145
40
0.509140536192085
40
0.509502955128889
40
0.510758933506684
40
0.51201491188448
40
0.513441536905586
40
0.514868161926693
40
0.515214384762942
40
0.519369058797933
40
0.521776551335695
40
0.524184043873456
40
0.526591536411218
40
0.52899902894898
40
0.533557868629638
40
0.534609908555944
40
0.538116708310297
40
0.547234387671615
40
0.58383495315003
40
0.620964431516824
40
0.645868834992627
40
0.669311408520742
40
0.692089623612268
40
0.714301316092133
40
0.73610922889032
40
0.757716957728783
40
0.779241819180595
40
0.800698569608582
40
0.822081674107758
40
0.843283284450868
40
0.863469349780107
40
0.883076854741667
40
0.903293076141824
40
0.923611225871599
40
0.943873738920824
40
0.964075136806219
40
0.984210970155376
40
1
40
1
40
1
40
1
40
1
40
1
41
1
10
5.24685751783684
20
-1.5695598518023
30
0
41
1
10
5.24685751783684
20
-1.55590171303714
30
0
41
1
10
5.24685751783682
20
-1.52277320817558
30
0
41
1
10
5.24685751783682
20
-1.47018018396878
30
0
41
1
10
5.24685751783687
20
-1.39817087415722
30
0
41
1
10
5.24685751783682
20
-1.30681685745353
30
0
41
1
10
5.24685751783687
20
-1.20974814134578
30
0
41
1
10
5.24685751783682
20
-1.11271729187871
30
0
41
1
10
5.24685751783684
20
-1.01573771603836
30
0
41
1
10
5.24685751783682
20
-0.91881313923426
30
0
41
1
10
5.24685751783684
20
-0.821955998302172
30
0
41
1
10
5.24685751783682
20
-0.725242249637347
30
0
41
1
10
5.24685751783684
20
-0.630543411072608
30
0
41
1
10
5.24685751783687
20
-0.544703791238419
30
0
41
1
10
5.24685751783682
20
-0.472666172898585
30
0
41
1
10
5.24685751783687
20
-0.415365159815252
30
0
41
1
10
5.24685751783682
20
-0.373257152523848
30
0
41
1
10
5.24685751783682
20
-0.347345318751422
30
0
41
1
10
5.24685751783682
20
-0.330332589538557
30
0
41
1
10
5.24685751783682
20
-0.318135199409909
30
0
41
1
10
5.24685751783687
20
-0.310439862976665
30
0
41
1
10
5.24685751783693
20
-0.306118170746004
30
0
41
1
10
5.24685751783696
20
-0.302258240241741
30
0
41
1
10
5.24685751783699
20
-0.299292388537623
30
0
41
1
10
5.24685751783704
20
-0.296036151687105
30
0
41
1
10
5.2468575178371
20
-0.291225791417645
30
0
41
1
10
5.24685751783716
20
-0.286524270526883
30
0
41
1
10
5.24685751783721
20
-0.281960156648069
30
0
41
1
10
5.24685751783719
20
-0.277587601674725
30
0
41
1
10
5.24685751783716
20
-0.273730972659394
30
0
41
1
10
5.2468575178371
20
-0.270934497541589
30
0
41
1
10
5.2468575178371
20
-0.268222823965772
30
0
41
1
10
5.24685751783704
20
-0.265861483956911
30
0
41
1
10
5.24685751783701
20
-0.263214521947418
30
0
41
1
10
5.24685751783699
20
-0.259949999477214
30
0
41
1
10
5.24685751783693
20
-0.256678761927049
30
0
41
1
10
5.2468575178369
20
-0.251319360975657
30
0
41
1
10
5.24685751783687
20
-0.244053163415629
30
0
41
1
10
5.24685751783684
20
-0.235575402550381
30
0
41
1
10
5.24685751783687
20
-0.226387638953867
30
0
41
1
10
5.24685751783687
20
-0.216813116280349
30
0
41
1
10
5.24685751783682
20
-0.208630825206228
30
0
41
1
10
5.24685751783665
20
-0.202995004392761
30
0
41
1
10
5.24685751783636
20
-0.199148193726359
30
0
41
1
10
5.24685751783611
20
-0.196678466833703
30
0
41
1
10
5.24685751783591
20
-0.195084154659526
30
0
41
1
10
5.24685751783582
20
-0.194164766069918
30
0
41
1
10
5.24685751783574
20
-0.193331478621531
30
0
41
1
10
5.24685751783571
20
-0.192174475343904
30
0
41
1
10
5.24685751783576
20
-0.191037653768575
30
0
41
1
10
5.24685751783596
20
-0.189970575074938
30
0
41
1
10
5.24685751783622
20
-0.188984704710322
30
0
41
1
10
5.24685751783647
20
-0.187985877468606
30
0
41
1
10
5.2468575178367
20
-0.187038864185439
30
0
41
1
10
5.24685751783682
20
-0.186224672026953
30
0
41
1
10
5.2468575178369
20
-0.185349100971138
30
0
41
1
10
5.24685751783696
20
-0.18404996861139
30
0
41
1
10
5.24685751783696
20
-0.18055782973056
30
0
41
1
10
5.24685751783679
20
-0.174766348095545
30
0
41
1
10
5.24685751783684
20
-0.167358401118065
30
0
41
1
10
5.24685751783682
20
-0.158768974921202
30
0
41
1
10
5.24685751783684
20
-0.149200454083911
30
0
41
1
10
5.24685751783682
20
-0.140675874440262
30
0
41
1
10
5.24685751783684
20
-0.13307254801046
30
0
41
1
10
5.24685751783682
20
-0.125854567759347
30
0
41
1
10
5.24685751783682
20
-0.118350491820195
30
0
41
1
10
5.24685751783684
20
-0.112026444844474
30
0
41
1
10
5.24685751783684
20
-0.10784463678084
30
0
41
1
10
5.24685751783684
20
-0.105319525649719
30
0
41
1
10
5.24685751783684
20
-0.104652755167791
30
0
41
1
10
5.24685751783687
20
-0.105684737602417
30
0
41
1
10
5.24685751783682
20
-0.108434274972552
30
0
41
1
10
5.24685751783684
20
-0.112842387901935
30
0
41
1
10
5.24685751783684
20
-0.118856805359513
30
0
41
1
10
5.24685751783684
20
-0.126515557921749
30
0
41
1
10
5.24685751783682
20
-0.135891747351451
30
0
41
1
10
5.24685751783687
20
-0.146469646023661
30
0
41
1
10
5.24685751783682
20
-0.156038969984536
30
0
41
1
10
5.24685751783682
20
-0.163734276252541
30
0
41
1
10
5.24685751783682
20
-0.168933945609382
30
0
41
1
10
5.24685751783679
20
-0.171272380843362
30
0
0
SPLINE
5
CC
100
AcDbEntity
8
1
62
256
6
ByLayer
370
18
48
1
60
0
100
AcDbSpline
70
4
71
3
72
110
73
106
40
0
40
0
40
0
40
0
40
0.062500000000006
40
0.062500000000006
40
0.125000000000012
40
0.125000000000012
40
0.18750000000002
40
0.18750000000002
40
0.250000000000029
40
0.250000000000029
40
0.281250000000033
40
0.281250000000033
40
0.312500000000038
40
0.312500000000038
40
0.343750000000043
40
0.343750000000043
40
0.375000000000048
40
0.375000000000048
40
0.406250000000053
40
0.406250000000053
40
0.414062500000053
40
0.414062500000053
40
0.421875000000054
40
0.421875000000054
40
0.437500000000055
40
0.437500000000055
40
0.453125000000055
40
0.453125000000055
40
0.468750000000055
40
0.468750000000055
40
0.476562500000056
40
0.476562500000056
40
0.484375000000056
40
0.484375000000056
40
0.500000000000056
40
0.500000000000056
40
0.507812500000056
40
0.507812500000056
40
0.515625000000056
40
0.515625000000056
40
0.531250000000056
40
0.531250000000056
40
0.535156250000056
40
0.535156250000056
40
0.539062500000056
40
0.546875000000056
40
0.554687500000056
40
0.554687500000056
40
0.558593750000056
40
0.558593750000056
40
0.562500000000056
40
0.562500000000056
40
0.578125000000057
40
0.578125000000057
40
0.585937500000057
40
0.585937500000057
40
0.593750000000058
40
0.593750000000058
40
0.609375000000058
40
0.609375000000058
40
0.625000000000058
40
0.625000000000058
40
0.640625000000058
40
0.640625000000058
40
0.644531250000057
40
0.644531250000057
40
0.648437500000057
40
0.648437500000057
40
0.652343750000056
40
0.652343750000056
40
0.656250000000056
40
0.656250000000056
40
0.660156250000055
40
0.660156250000055
40
0.664062500000055
40
0.664062500000055
40
0.667968750000054
40
0.667968750000054
40
0.671875000000054
40
0.671875000000054
40
0.679687500000053
40
0.679687500000053
40
0.687500000000052
40
0.687500000000052
40
0.718750000000046
40
0.718750000000046
40
0.75000000000004
40
0.75000000000004
40
0.781250000000035
40
0.781250000000035
40
0.796875000000033
40
0.796875000000033
40
0.812500000000031
40
0.812500000000031
40
0.828125000000028
40
0.828125000000028
40
0.843750000000026
40
0.843750000000026
40
0.875000000000022
40
0.875000000000022
40
0.937500000000011
40
0.937500000000011
40
0.968750000000006
40
0.968750000000006
40
1
40
1
40
1
40
1
41
1
10
5.24685751783684
20
-1.56955985178897
30
0
41
1
10
5.0976346888738
20
-1.57576882732789
30
0
41
1
10
4.94953988908327
20
-1.57711234439
30
0
41
1
10
4.65525191297084
20
-1.56953543690176
30
0
41
1
10
4.50905753836045
20
-1.56062200821251
30
0
41
1
10
4.21830985215098
20
-1.53180573810016
30
0
41
1
10
4.07375489154964
20
-1.51191506669443
30
0
41
1
10
3.7861569913
20
-1.45994520089687
30
0
41
1
10
3.64311024529616
20
-1.42789296026751
30
0
41
1
10
3.42973276203065
20
-1.36901484099286
30
0
41
1
10
3.35880758023384
20
-1.34757903009958
30
0
41
1
10
3.21740339905492
20
-1.30060918410271
30
0
41
1
10
3.14678462486262
20
-1.27501216150006
30
0
41
1
10
3.00763514894467
20
-1.21967542234452
30
0
41
1
10
2.93894551382448
20
-1.1898958100405
30
0
41
1
10
2.80365209346118
20
-1.12542185893417
30
0
41
1
10
2.73704389911603
20
-1.09073653211473
30
0
41
1
10
2.60643647738169
20
-1.01533912329987
30
0
41
1
10
2.54242637196617
20
-0.974649213521587
30
0
41
1
10
2.46463332855223
20
-0.918792656127977
30
0
41
1
10
2.4491872959342
20
-0.907368388615282
30
0
41
1
10
2.41854328906823
20
-0.883966622056278
30
0
41
1
10
2.4033342481892
20
-0.87197884400382
30
0
41
1
10
2.35841043299928
20
-0.835344570030202
30
0
41
1
10
2.32930473204993
20
-0.809964152744357
30
0
41
1
10
2.27309472438805
20
-0.756956276720359
30
0
41
1
10
2.24598801277787
20
-0.729331340479604
30
0
41
1
10
2.19422962232002
20
-0.671356546949539
30
0
41
1
10
2.16957297095607
20
-0.64101187949737
30
0
41
1
10
2.13495335544317
20
-0.592900187324886
30
0
41
1
10
2.12381002608893
20
-0.576428084426198
30
0
41
1
10
2.10244532083652
20
-0.542478909155363
30
0
41
1
10
2.09227010078018
20
-0.525065338537843
30
0
41
1
10
2.06376397083798
20
-0.471904130654565
30
0
41
1
10
2.04730775003486
20
-0.435052291839099
30
0
41
1
10
2.02746624492923
20
-0.377123456922447
30
0
41
1
10
2.02164160088901
20
-0.357256028058941
30
0
41
1
10
2.01201927917651
20
-0.317248579782103
30
0
41
1
10
2.00820254539809
20
-0.297089478428802
30
0
41
1
10
1.99988206638838
20
-0.23612796756322
30
0
41
1
10
1.99849669912541
20
-0.194842912804376
30
0
41
1
10
2.00260205797324
20
-0.142350842519448
30
0
41
1
10
2.00371589467676
20
-0.131836149933008
30
0
41
1
10
2.00649410381303
20
-0.111011375163287
30
0
41
1
10
2.01149461096591
20
-0.0799782372110087
30
0
41
1
10
2.02386729956763
20
-0.0292458998519862
30
0
41
1
10
2.0378406364058
20
0.0103401580031743
30
0
41
1
10
2.04977536828855
20
0.0396723511764776
30
0
41
1
10
2.05400170447834
20
0.0493988049535403
30
0
41
1
10
2.06282839866154
20
0.0685312163143124
30
0
41
1
10
2.06743888037818
20
0.0779637618738604
30
0
41
1
10
2.09141251427548
20
0.124502357246058
30
0
41
1
10
2.11351676343403
20
0.159751493982441
30
0
41
1
10
2.15013680276445
20
0.210285845640613
30
0
41
1
10
2.1629252724394
20
0.226737643856836
30
0
41
1
10
2.18955394460969
20
0.258931864195546
30
0
41
1
10
2.20338477492476
20
0.274656259925138
30
0
41
1
10
2.24578343860711
20
0.320332445084802
30
0
41
1
10
2.27541827257124
20
0.349007661912879
30
0
41
1
10
2.33682000288971
20
0.403608752611433
30
0
41
1
10
2.36858828991805
20
0.429532161013157
30
0
41
1
10
2.43387611380916
20
0.479135117642471
30
0
41
1
10
2.46746525829411
20
0.502739160881589
30
0
41
1
10
2.51010433971541
20
0.531360802791966
30
0
41
1
10
2.51865986134229
20
0.537057235796482
30
0
41
1
10
2.53588752955173
20
0.548256934625215
30
0
41
1
10
2.54454620628897
20
0.55375290959492
30
0
41
1
10
2.56246299615813
20
0.563511808594086
30
0
41
1
10
2.57174687251947
20
0.567723356044439
30
0
41
1
10
2.59099961923192
20
0.574755106968581
30
0
41
1
10
2.60094533668857
20
0.577622114488975
30
0
41
1
10
2.62135317963441
20
0.58231275780696
30
0
41
1
10
2.63178749036194
20
0.584122581930444
30
0
41
1
10
2.65256625371427
20
0.586795539762932
30
0
41
1
10
2.66298297541499
20
0.587674006422134
30
0
41
1
10
2.68386483176258
20
0.588621591199171
30
0
41
1
10
2.69433005555084
20
0.588689200062277
30
0
41
1
10
2.71530765450268
20
0.58803625679036
30
0
41
1
10
2.72586089008263
20
0.58730830073128
30
0
41
1
10
2.75720412087745
20
0.583956113274354
30
0
41
1
10
2.77766925932676
20
0.580033214598956
30
0
41
1
10
2.818311101219
20
0.57103789206019
30
0
41
1
10
2.8385383306902
20
0.566164050436043
30
0
41
1
10
2.93981893953952
20
0.542318982278744
30
0
41
1
10
3.02093878324715
20
0.523485293382237
30
0
41
1
10
3.18311820643618
20
0.485317166788917
30
0
41
1
10
3.26420595744455
20
0.466087525673885
30
0
41
1
10
3.42632668144788
20
0.427402011533502
30
0
41
1
10
3.50736518133832
20
0.407936329305557
30
0
41
1
10
3.62888543810831
20
0.378537856236619
30
0
41
1
10
3.66938410187694
20
0.368699127182623
30
0
41
1
10
3.75038899650079
20
0.349019115267453
30
0
41
1
10
3.79089866384447
20
0.339189066244416
30
0
41
1
10
3.87179228844434
20
0.319098498939724
30
0
41
1
10
3.91216688031565
20
0.308807882056755
30
0
41
1
10
3.99267489525985
20
0.287420088061282
30
0
41
1
10
4.03281413923318
20
0.276341451526747
30
0
41
1
10
4.15292992118177
20
0.2420786006995
30
0
41
1
10
4.23259299528925
20
0.217830466458594
30
0
41
1
10
4.47042565343668
20
0.141070371969164
30
0
41
1
10
4.62742985386831
20
0.0845130050767295
30
0
41
1
10
4.86112031873091
20
-0.0070420762652077
30
0
41
1
10
4.93873860253419
20
-0.0386840836082456
30
0
41
1
10
5.09338760237131
20
-0.103846376866756
30
0
41
1
10
5.17029410759062
20
-0.137313945048305
30
0
41
1
10
5.24685751783682
20
-0.171483617386031
30
0
0
LINE
5
7D
100
AcDbEntity
8
80
62
256
6
ByLayer
370
18
48
1
60
0
100
AcDbLine
10
0
20
0
30
0
11
-5
21
0
31
0
39
0
210
0
220
0
230
1
0
LINE
5
7E
100
AcDbEntity
8
SK4
62
256
6
ByLayer
370
18
48
0.05
60
0
100
AcDbLine
10
-32
20
0
30
0
11
43
21
0
31
0
39
0
210
0
220
0
230
1
0
LINE
5
80
100
AcDbEntity
8
81
62
256
6
ByLayer
370
18
48
1
60
0
100
AcDbLine
10
38
20
0
30
0
11
43
21
0
31
0
39
0
210
0
220
0
230
1
0
LINE
5
81
100
AcDbEntity
8
4
62
256
6
ByLayer
370
18
48
0.05
60
0
100
AcDbLine
10
-5
20
0
30
0
11
43
21
0
31
0
39
0
210
0
220
0
230
1
0
LINE
5
83
100
AcDbEntity
8
1
62
256
6
ByLayer
370
18
48
1
60
0
100
AcDbLine
10
0
20
1.5875
30
0
11
0
21
-1.5875
31
0
39
0
210
0
220
0
230
1
0
LINE
5
84
100
AcDbEntity
8
1
62
256
6
ByLayer
370
18
48
1
60
0
100
AcDbLine
10
37.14152
20
-1.5875
30
0
11
37.14152
21
-0.359312
31
0
39
0
210
0
220
0
230
1
0
LINE
5
85
100
AcDbEntity
8
1
62
256
6
ByLayer
370
18
48
1
60
0
100
AcDbLine
10
37.14152
20
1.5875
30
0
11
37.14152
21
1.537239
31
0
39
0
210
0
220
0
230
1
0
LINE
5
86
100
AcDbEntity
8
1
62
256
6
ByLayer
370
18
48
1
60
0
100
AcDbLine
10
0.2
20
-1.573647
30
0
11
0.2
21
1.573647
31
0
39
0
210
0
220
0
230
1
0
LINE
5
87
100
AcDbEntity
8
SK1
62
256
6
ByLayer
370
18
48
1
60
0
100
AcDbLine
10
-27
20
-1.085
30
0
11
-27
21
1.085
31
0
39
0
210
0
220
0
230
1
0
LINE
5
89
100
AcDbEntity
8
SK1
62
256
6
ByLayer
370
18
48
1
60
0
100
AcDbLine
10
-26.4975
20
-1.5875
30
0
11
-26.4975
21
1.5875
31
0
39
0
210
0
220
0
230
1
0
LINE
5
8A
100
AcDbEntity
8
SK1
62
256
6
ByLayer
370
18
48
1
60
0
100
AcDbLine
10
0
20
1.5875
30
0
11
0
21
-1.5875
31
0
39
0
210
0
220
0
230
1
0
LINE
5
8B
100
AcDbEntity
8
1
62
256
6
ByLayer
370
18
48
1
60
0
100
AcDbLine
10
38
20
0
30
0
11
37.14152
21
1.5875
31
0
39
0
210
0
220
0
230
1
0
LINE
5
8C
100
AcDbEntity
8
1
62
256
6
ByLayer
370
18
48
1
60
0
100
AcDbLine
10
37.14152
20
-1.5875
30
0
11
38
21
0
31
0
39
0
210
0
220
0
230
1
0
LINE
5
8D
100
AcDbEntity
8
1
62
256
6
ByLayer
370
18
48
1
60
0
100
AcDbLine
10
0.2
20
1.573647
30
0
11
0
21
1.5875
31
0
39
0
210
0
220
0
230
1
0
LINE
5
8E
100
AcDbEntity
8
1
62
256
6
ByLayer
370
18
48
1
60
0
100
AcDbLine
10
0
20
-1.5875
30
0
11
0.2
21
-1.573647
31
0
39
0
210
0
220
0
230
1
0
LINE
5
8F
100
AcDbEntity
8
1
62
256
6
ByLayer
370
18
48
1
60
0
100
AcDbLine
10
0.2
20
-1.573647
30
0
11
4.973855
21
-1.575437
31
0
39
0
210
0
220
0
230
1
0
LINE
5
90
100
AcDbEntity
8
1
62
256
6
ByLayer
370
18
48
1
60
0
100
AcDbLine
10
9.432718
20
-1.577109
30
0
11
13.996139
21
-1.57882
31
0
39
0
210
0
220
0
230
1
0
LINE
5
91
100
AcDbEntity
8
1
62
256
6
ByLayer
370
18
48
1
60
0
100
AcDbLine
10
18.4303
20
-1.580483
30
0
11
22.99447
21
-1.582195
31
0
39
0
210
0
220
0
230
1
0
LINE
5
92
100
AcDbEntity
8
1
62
256
6
ByLayer
370
18
48
1
60
0
100
AcDbLine
10
27.428084
20
-1.583857
30
0
11
31.992405
21
-1.585569
31
0
39
0
210
0
220
0
230
1
0
LINE
5
93
100
AcDbEntity
8
1
62
256
6
ByLayer
370
18
48
1
60
0
100
AcDbLine
10
36.422616
20
-1.58723
30
0
11
37.14152
21
-1.5875
31
0
39
0
210
0
220
0
230
1
0
LINE
5
94
100
AcDbEntity
8
1
62
256
6
ByLayer
370
18
48
1
60
0
100
AcDbLine
10
37.14152
20
1.5875
30
0
11
36.422616
21
1.58723
31
0
39
0
210
0
220
0
230
1
0
LINE
5
95
100
AcDbEntity
8
1
62
256
6
ByLayer
370
18
48
1
60
0
100
AcDbLine
10
31.992405
20
1.585569
30
0
11
27.428084
21
1.583857
31
0
39
0
210
0
220
0
230
1
0
LINE
5
96
100
AcDbEntity
8
1
62
256
6
ByLayer
370
18
48
1
60
0
100
AcDbLine
10
22.99447
20
1.582195
30
0
11
18.4303
21
1.580483
31
0
39
0
210
0
220
0
230
1
0
LINE
5
97
100
AcDbEntity
8
1
62
256
6
ByLayer
370
18
48
1
60
0
100
AcDbLine
10
13.996139
20
1.57882
30
0
11
9.432718
21
1.577109
31
0
39
0
210
0
220
0
230
1
0
LINE
5
98
100
AcDbEntity
8
1
62
256
6
ByLayer
370
18
48
1
60
0
100
AcDbLine
10
4.973855
20
1.575437
30
0
11
0.2
21
1.573647
31
0
39
0
210
0
220
0
230
1
0
LINE
5
99
100
AcDbEntity
8
SK1
62
256
6
ByLayer
370
18
48
1
60
0
100
AcDbLine
10
-27
20
-1.085
30
0
11
-26.4975
21
-1.5875
31
0
39
0
210
0
220
0
230
1
0
LINE
5
9A
100
AcDbEntity
8
SK1
62
256
6
ByLayer
370
18
48
1
60
0
100
AcDbLine
10
-26.4975
20
1.5875
30
0
11
-27
21
1.085
31
0
39
0
210
0
220
0
230
1
0
LINE
5
9B
100
AcDbEntity
8
SK1
62
256
6
ByLayer
370
18
48
1
60
0
100
AcDbLine
10
-26.4975
20
-1.5875
30
0
11
0
21
-1.5875
31
0
39
0
210
0
220
0
230
1
0
LINE
5
9C
100
AcDbEntity
8
SK1
62
256
6
ByLayer
370
18
48
1
60
0
100
AcDbLine
10
0
20
1.5875
30
0
11
-26.4975
21
1.5875
31
0
39
0
210
0
220
0
230
1
0
LINE
5
9D
100
AcDbEntity
8
SK2
62
256
6
ByLayer
370
13
48
1
60
0
100
AcDbLine
10
-33.5
20
27.620355
30
0
11
-33.5
21
-9.0875
31
0
39
0
210
0
220
0
230
1
0
LINE
5
9F
100
AcDbEntity
8
SK2
62
256
6
ByLayer
370
13
48
1
60
0
100
AcDbLine
10
-28.5875
20
1.5875
30
0
11
-35.5
21
1.5875
31
0
39
0
210
0
220
0
230
1
0
LINE
5
A0
100
AcDbEntity
8
SK2
62
256
6
ByLayer
370
13
48
1
60
0
100
AcDbLine
10
-28.5875
20
-1.5875
30
0
11
-35.5
21
-1.5875
31
0
39
0
210
0
220
0
230
1
0
LINE
5
A1
100
AcDbEntity
8
1
62
256
6
ByLayer
370
18
48
1
60
1
100
AcDbLine
10
-33.5
20
1.5875
30
0
11
-33.960784
21
5.087498
31
0
39
0
210
0
220
0
230
1
0
LINE
5
A2
100
AcDbEntity
8
1
62
256
6
ByLayer
370
18
48
1
60
1
100
AcDbLine
10
-33.960784
20
5.087498
30
0
11
-33.039216
21
5.087502
31
0
39
0
210
0
220
0
230
1
0
LINE
5
A3
100
AcDbEntity
8
1
62
256
6
ByLayer
370
18
48
1
60
1
100
AcDbLine
10
-33.039216
20
5.087502
30
0
11
-33.5
21
1.5875
31
0
39
0
210
0
220
0
230
1
0
LINE
5
A4
100
AcDbEntity
8
1
62
256
6
ByLayer
370
18
48
1
60
1
100
AcDbLine
10
-33.5
20
-1.5875
30
0
11
-33.039216
21
-5.087498
31
0
39
0
210
0
220
0
230
1
0
LINE
5
A5
100
AcDbEntity
8
1
62
256
6
ByLayer
370
18
48
1
60
1
100
AcDbLine
10
-33.039216
20
-5.087498
30
0
11
-33.960784
21
-5.087502
31
0
39
0
210
0
220
0
230
1
0
LINE
5
A6
100
AcDbEntity
8
1
62
256
6
ByLayer
370
18
48
1
60
1
100
AcDbLine
10
-33.960784
20
-5.087502
30
0
11
-33.5
21
-1.5875
31
0
39
0
210
0
220
0
230
1
0
LINE
5
A7
100
AcDbEntity
8
2
62
256
6
ByLayer
370
13
48
1
60
0
100
AcDbLine
10
46.64152
20
27.620355
30
0
11
46.64152
21
-9.0875
31
0
39
0
210
0
220
0
230
1
0
LINE
5
A9
100
AcDbEntity
8
2
62
256
6
ByLayer
370
13
48
1
60
0
100
AcDbLine
10
38.72902
20
1.5875
30
0
11
48.64152
21
1.5875
31
0
39
0
210
0
220
0
230
1
0
LINE
5
AA
100
AcDbEntity
8
2
62
256
6
ByLayer
370
13
48
1
60
0
100
AcDbLine
10
38.72902
20
-1.5875
30
0
11
48.64152
21
-1.5875
31
0
39
0
210
0
220
0
230
1
0
LINE
5
AB
100
AcDbEntity
8
1
62
256
6
ByLayer
370
18
48
1
60
1
100
AcDbLine
10
46.64152
20
1.5875
30
0
11
46.180737
21
5.087498
31
0
39
0
210
0
220
0
230
1
0
LINE
5
AC
100
AcDbEntity
8
1
62
256
6
ByLayer
370
18
48
1
60
1
100
AcDbLine
10
46.180737
20
5.087498
30
0
11
47.102304
21
5.087502
31
0
39
0
210
0
220
0
230
1
0
LINE
5
AD
100
AcDbEntity
8
1
62
256
6
ByLayer
370
18
48
1
60
1
100
AcDbLine
10
47.102304
20
5.087502
30
0
11
46.64152
21
1.5875
31
0
39
0
210
0
220
0
230
1
0
LINE
5
AE
100
AcDbEntity
8
1
62
256
6
ByLayer
370
18
48
1
60
1
100
AcDbLine
10
46.64152
20
-1.5875
30
0
11
47.102304
21
-5.087498
31
0
39
0
210
0
220
0
230
1
0
LINE
5
AF
100
AcDbEntity
8
1
62
256
6
ByLayer
370
18
48
1
60
1
100
AcDbLine
10
47.102304
20
-5.087498
30
0
11
46.180737
21
-5.087502
31
0
39
0
210
0
220
0
230
1
0
LINE
5
B0
100
AcDbEntity
8
1
62
256
6
ByLayer
370
18
48
1
60
1
100
AcDbLine
10
46.180737
20
-5.087502
30
0
11
46.64152
21
-1.5875
31
0
39
0
210
0
220
0
230
1
0
LINE
5
B1
100
AcDbEntity
8
2
62
256
6
ByLayer
370
13
48
1
60
0
100
AcDbLine
10
38.755136
20
-1.396397
30
0
11
49.416232
21
-21.110889
31
0
39
0
210
0
220
0
230
1
0
LINE
5
B2
100
AcDbEntity
8
2
62
256
6
ByLayer
370
13
48
1
60
0
100
AcDbLine
10
38.755136
20
1.396397
30
0
11
49.416232
21
21.110889
31
0
39
0
210
0
220
0
230
1
0
LINE
5
B3
100
AcDbEntity
8
1
62
256
6
ByLayer
370
18
48
1
60
1
100
AcDbLine
10
48.464879
20
-19.351649
30
0
11
51.239971
21
-17.169637
31
0
39
0
210
0
220
0
230
1
0
LINE
5
B4
100
AcDbEntity
8
1
62
256
6
ByLayer
370
18
48
1
60
1
100
AcDbLine
10
51.239971
20
-17.169637
30
0
11
51.710161
21
-17.962233
31
0
39
0
210
0
220
0
230
1
0
LINE
5
B5
100
AcDbEntity
8
1
62
256
6
ByLayer
370
18
48
1
60
1
100
AcDbLine
10
51.710161
20
-17.962233
30
0
11
48.464879
21
-19.351649
31
0
39
0
210
0
220
0
230
1
0
LINE
5
B6
100
AcDbEntity
8
1
62
256
6
ByLayer
370
18
48
1
60
1
100
AcDbLine
10
48.464879
20
19.351649
30
0
11
51.710158
21
17.962234
31
0
39
0
210
0
220
0
230
1
0
LINE
5
B7
100
AcDbEntity
8
1
62
256
6
ByLayer
370
18
48
1
60
1
100
AcDbLine
10
51.710158
20
17.962234
30
0
11
51.239974
21
17.169635
31
0
39
0
210
0
220
0
230
1
0
LINE
5
B8
100
AcDbEntity
8
1
62
256
6
ByLayer
370
18
48
1
60
1
100
AcDbLine
10
51.239974
20
17.169635
30
0
11
48.464879
21
19.351649
31
0
39
0
210
0
220
0
230
1
0
LINE
5
D1
100
AcDbEntity
8
1
62
256
6
ByLayer
370
18
48
1
60
1
100
AcDbLine
10
-33.5
20
1.5875
30
0
11
-33.960784
21
5.087498
31
0
39
0
210
0
220
0
230
1
0
LINE
5
D2
100
AcDbEntity
8
1
62
256
6
ByLayer
370
18
48
1
60
1
100
AcDbLine
10
-33.960784
20
5.087498
30
0
11
-33.039216
21
5.087502
31
0
39
0
210
0
220
0
230
1
0
LINE
5
D3
100
AcDbEntity
8
1
62
256
6
ByLayer
370
18
48
1
60
1
100
AcDbLine
10
-33.039216
20
5.087502
30
0
11
-33.5
21
1.5875
31
0
39
0
210
0
220
0
230
1
0
LINE
5
D5
100
AcDbEntity
8
1
62
256
6
ByLayer
370
18
48
1
60
1
100
AcDbLine
10
-33.5
20
-1.5875
30
0
11
-33.039216
21
-5.087498
31
0
39
0
210
0
220
0
230
1
0
LINE
5
D6
100
AcDbEntity
8
1
62
256
6
ByLayer
370
18
48
1
60
1
100
AcDbLine
10
-33.039216
20
-5.087498
30
0
11
-33.960784
21
-5.087502
31
0
39
0
210
0
220
0
230
1
0
LINE
5
D7
100
AcDbEntity
8
1
62
256
6
ByLayer
370
18
48
1
60
1
100
AcDbLine
10
-33.960784
20
-5.087502
30
0
11
-33.5
21
-1.5875
31
0
39
0
210
0
220
0
230
1
0
LINE
5
DB
100
AcDbEntity
8
1
62
256
6
ByLayer
370
18
48
1
60
1
100
AcDbLine
10
46.64152
20
1.5875
30
0
11
46.180737
21
5.087498
31
0
39
0
210
0
220
0
230
1
0
LINE
5
DC
100
AcDbEntity
8
1
62
256
6
ByLayer
370
18
48
1
60
1
100
AcDbLine
10
46.180737
20
5.087498
30
0
11
47.102304
21
5.087502
31
0
39
0
210
0
220
0
230
1
0
LINE
5
DD
100
AcDbEntity
8
1
62
256
6
ByLayer
370
18
48
1
60
1
100
AcDbLine
10
47.102304
20
5.087502
30
0
11
46.64152
21
1.5875
31
0
39
0
210
0
220
0
230
1
0
LINE
5
DF
100
AcDbEntity
8
1
62
256
6
ByLayer
370
18
48
1
60
1
100
AcDbLine
10
46.64152
20
-1.5875
30
0
11
47.102304
21
-5.087498
31
0
39
0
210
0
220
0
230
1
0
LINE
5
E0
100
AcDbEntity
8
1
62
256
6
ByLayer
370
18
48
1
60
1
100
AcDbLine
10
47.102304
20
-5.087498
30
0
11
46.180737
21
-5.087502
31
0
39
0
210
0
220
0
230
1
0
LINE
5
E1
100
AcDbEntity
8
1
62
256
6
ByLayer
370
18
48
1
60
1
100
AcDbLine
10
46.180737
20
-5.087502
30
0
11
46.64152
21
-1.5875
31
0
39
0
210
0
220
0
230
1
0
LINE
5
E4
100
AcDbEntity
8
1
62
256
6
ByLayer
370
18
48
1
60
1
100
AcDbLine
10
48.464879
20
-19.351649
30
0
11
51.239971
21
-17.169637
31
0
39
0
210
0
220
0
230
1
0
LINE
5
E5
100
AcDbEntity
8
1
62
256
6
ByLayer
370
18
48
1
60
1
100
AcDbLine
10
51.239971
20
-17.169637
30
0
11
51.710161
21
-17.962233
31
0
39
0
210
0
220
0
230
1
0
LINE
5
E6
100
AcDbEntity
8
1
62
256
6
ByLayer
370
18
48
1
60
1
100
AcDbLine
10
51.710161
20
-17.962233
30
0
11
48.464879
21
-19.351649
31
0
39
0
210
0
220
0
230
1
0
LINE
5
E8
100
AcDbEntity
8
1
62
256
6
ByLayer
370
18
48
1
60
1
100
AcDbLine
10
48.464879
20
19.351649
30
0
11
51.710158
21
17.962234
31
0
39
0
210
0
220
0
230
1
0
LINE
5
E9
100
AcDbEntity
8
1
62
256
6
ByLayer
370
18
48
1
60
1
100
AcDbLine
10
51.710158
20
17.962234
30
0
11
51.239974
21
17.169635
31
0
39
0
210
0
220
0
230
1
0
LINE
5
EA
100
AcDbEntity
8
1
62
256
6
ByLayer
370
18
48
1
60
1
100
AcDbLine
10
51.239974
20
17.169635
30
0
11
48.464879
21
19.351649
31
0
39
0
210
0
220
0
230
1
0
MTEXT
5
CD
100
AcDbEntity
8
SK2
62
256
6
ByLayer
370
18
48
1
60
0
100
AcDbMText
10
-34.841114
20
13.245938
30
0
210
0
220
0
230
1
1
%%c
40
3
41
0
44
1.084337
50
90
71
7
72
5
7
iso_b_vert
0
MTEXT
5
D0
100
AcDbEntity
8
SK2
62
256
6
ByLayer
370
18
48
1
60
0
100
AcDbMText
10
-34.841114
20
19.2225
30
0
210
0
220
0
230
1
1
\W0.6864;3.175
40
3
41
0
44
1.084337
50
90
71
7
72
5
7
iso_b_vert
0
MTEXT
5
D9
100
AcDbEntity
8
2
62
256
6
ByLayer
370
18
48
1
60
0
100
AcDbMText
10
45.300406
20
13.245938
30
0
210
0
220
0
230
1
1
%%c
40
3
41
0
44
1.084337
50
90
71
7
72
5
7
iso_b_vert
0
MTEXT
5
DA
100
AcDbEntity
8
2
62
256
6
ByLayer
370
18
48
1
60
0
100
AcDbMText
10
45.300406
20
19.2225
30
0
210
0
220
0
230
1
1
\W0.6864;3.175
40
3
41
0
44
1.084337
50
90
71
7
72
5
7
iso_b_vert
0
MTEXT
5
E3
100
AcDbEntity
8
2
62
256
6
ByLayer
370
18
48
1
60
0
100
AcDbMText
10
57.092229
20
-2.114886
30
0
210
0
220
0
230
1
1
\W0.6008;118%%d
40
3
41
0
44
1.084337
50
0
71
7
72
5
7
iso_b_vert
0
MTEXT
5
EC
100
AcDbEntity
8
SK6
62
256
6
ByLayer
370
18
48
1
60
0
100
AcDbMText
10
-1.85597
20
-67.114886
30
0
210
0
220
0
230
1
1
\W0.7500;R0031/8
40
3
41
0
44
1.084337
50
0
71
7
72
5
7
iso_b_vert
0
HATCH
5
D4
100
AcDbEntity
8
SK2
62
256
6
ByLayer
370
13
48
1
60
0
100
AcDbHatch
10
0
20
0
30
0
210
0
220
0
230
1
2
ANSI31
70
0
71
0
91
1
92
5
93
3
72
1
10
-33.5
20
1.58750000000001
11
-33.9607837415528
21
5.08749830744682
72
1
10
-33.9607837415528
20
5.08749830744682
11
-33.0392162584472
21
5.08750169255319
72
1
10
-33.0392162584472
20
5.08750169255319
11
-33.5
21
1.58750000000001
97
0
75
0
76
1
52
0
41
0.0062
77
0
78
1
53
45
43
0
44
0
45
-0.0139193969876572
46
0.0139193969876572
79
0
47
0
98
1
10
0
20
0
0
HATCH
5
D8
100
AcDbEntity
8
SK2
62
256
6
ByLayer
370
13
48
1
60
0
100
AcDbHatch
10
0
20
0
30
0
210
0
220
0
230
1
2
ANSI31
70
0
71
0
91
1
92
5
93
3
72
1
10
-33.5
20
-1.58750000000001
11
-33.0392162584472
21
-5.08749830744682
72
1
10
-33.0392162584472
20
-5.08749830744682
11
-33.9607837415528
21
-5.08750169255319
72
1
10
-33.9607837415528
20
-5.08750169255319
11
-33.5
21
-1.58750000000001
97
0
75
0
76
1
52
0
41
0.0062
77
0
78
1
53
45
43
0
44
0
45
-0.0139193969876572
46
0.0139193969876572
79
0
47
0
98
1
10
0
20
0
0
HATCH
5
DE
100
AcDbEntity
8
2
62
256
6
ByLayer
370
13
48
1
60
0
100
AcDbHatch
10
0
20
0
30
0
210
0
220
0
230
1
2
ANSI31
70
0
71
0
91
1
92
5
93
3
72
1
10
46.6415203905644
20
1.58750000000001
11
46.1807366490116
21
5.08749830744682
72
1
10
46.1807366490116
20
5.08749830744682
11
47.1023041321171
21
5.08750169255319
72
1
10
47.1023041321171
20
5.08750169255319
11
46.6415203905644
21
1.58750000000001
97
0
75
0
76
1
52
0
41
0.0062
77
0
78
1
53
45
43
0
44
0
45
-0.0139193969876572
46
0.0139193969876572
79
0
47
0
98
1
10
0
20
0
0
HATCH
5
E2
100
AcDbEntity
8
2
62
256
6
ByLayer
370
13
48
1
60
0
100
AcDbHatch
10
0
20
0
30
0
210
0
220
0
230
1
2
ANSI31
70
0
71
0
91
1
92
5
93
3
72
1
10
46.6415203905644
20
-1.58750000000001
11
47.1023041321171
21
-5.08749830744682
72
1
10
47.1023041321171
20
-5.08749830744682
11
46.1807366490116
21
-5.08750169255319
72
1
10
46.1807366490116
20
-5.08750169255319
11
46.6415203905644
21
-1.58750000000001
97
0
75
0
76
1
52
0
41
0.0062
77
0
78
1
53
45
43
0
44
0
45
-0.0139193969876572
46
0.0139193969876572
79
0
47
0
98
1
10
0
20
0
0
HATCH
5
E7
100
AcDbEntity
8
2
62
256
6
ByLayer
370
13
48
1
60
0
100
AcDbHatch
10
0
20
0
30
0
210
0
220
0
230
1
2
ANSI31
70
0
71
0
91
1
92
5
93
3
72
1
10
48.4648791987518
20
-19.3516485952885
11
51.239971107838
21
-17.1696369764528
72
1
10
51.239971107838
20
-17.1696369764528
11
51.7101613929249
21
-17.9622325364573
72
1
10
51.7101613929249
20
-17.9622325364573
11
48.4648791987518
21
-19.3516485952885
97
0
75
0
76
1
52
0
41
0.0062
77
0
78
1
53
45
43
0
44
0
45
-0.0139193969876572
46
0.0139193969876572
79
0
47
0
98
1
10
0
20
0
0
HATCH
5
EB
100
AcDbEntity
8
2
62
256
6
ByLayer
370
13
48
1
60
0
100
AcDbHatch
10
0
20
0
30
0
210
0
220
0
230
1
2
ANSI31
70
0
71
0
91
1
92
5
93
3
72
1
10
48.4648791987518
20
19.3516485952885
11
51.7101584815525
21
17.962234263552
72
1
10
51.7101584815525
20
17.962234263552
11
51.2399740192104
21
17.1696352493581
72
1
10
51.2399740192104
20
17.1696352493581
11
48.4648791987518
21
19.3516485952885
97
0
75
0
76
1
52
0
41
0.0062
77
0
78
1
53
45
43
0
44
0
45
-0.0139193969876572
46
0.0139193969876572
79
0
47
0
98
1
10
0
20
0
0
DIMENSION
5
EF
100
AcDbEntity
8
SK2
62
256
6
ByLayer
370
18
48
1
60
0
100
AcDbDimension
2
_U0
10
38
20
-51.325937
30
0
11
5.5
21
-51.325937
31
0
70
32
71
1
72
1
41
1
210
0
220
0
230
1
3
Standard
100
AcDbAlignedDimension
13
-27
23
-1.5875
33
0
14
38
24
0
34
0
50
0
100
AcDbRotatedDimension
1001
ACAD
1000
DSTYLE
1002
{
1070
   371
1070
    13
1070
   372
1070
    13
1070
     3
1000

1070
   170
1070
     0
1070
   144
1040
1.0
1070
   277
1070
     2
1070
   284
1070
     8
1070
   278
1070
    46
1070
   146
1040
1.166667
1070
   345
1005
16
1070
   347
1005
16
1070
   346
1005
16
1070
   344
1005
0
1070
   343
1005
0
1070
   172
1070
     1
1070
    76
1070
     0
1070
    75
1070
     0
1070
   282
1070
     0
1070
   281
1070
     0
1070
    71
1070
     0
1070
    74
1070
     0
1070
   279
1070
     0
1070
   173
1070
     1
1070
   340
1005
CE
1070
   271
1070
     2
1070
   272
1070
     3
1070
    77
1070
     1
1070
    73
1070
     1
1070
   171
1070
     3
1070
   274
1070
     4
1070
   177
1070
     2
1070
   176
1070
     2
1070
   178
1070
     2
1070
    78
1070
     8
1070
    48
1040
-0.1
1070
    41
1040
3.5
1070
   147
1040
1.5
1070
    42
1040
1.5875
1070
    44
1040
2.0
1070
   140
1040
3.0
1002
}
1001
ACAD_DSTYLE_DIM_LINETYPE
1070
   380
1005
16
1001
ACAD_DSTYLE_DIM_EXT1_LINETYPE
1070
   381
1005
16
1001
ACAD_DSTYLE_DIM_EXT2_LINETYPE
1070
   382
1005
16
0
DIMENSION
5
108
100
AcDbEntity
8
2
62
256
6
ByLayer
370
18
48
1
60
0
100
AcDbDimension
2
_U1
10
2
20
-41.325937
30
0
11
20
21
-41.325937
31
0
70
32
71
1
72
1
41
1
210
0
220
0
230
1
3
Standard
100
AcDbAlignedDimension
13
38
23
0
33
0
14
2
24
-1.5875
34
0
50
0
100
AcDbRotatedDimension
1001
ACAD
1000
DSTYLE
1002
{
1070
   371
1070
    13
1070
   372
1070
    13
1070
     3
1000

1070
   170
1070
     0
1070
   144
1040
1.0
1070
   277
1070
     2
1070
   284
1070
     8
1070
   278
1070
    46
1070
   146
1040
1.166667
1070
   345
1005
16
1070
   347
1005
16
1070
   346
1005
16
1070
   344
1005
0
1070
   343
1005
0
1070
   172
1070
     1
1070
    76
1070
     0
1070
    75
1070
     0
1070
   282
1070
     0
1070
   281
1070
     0
1070
    71
1070
     0
1070
    74
1070
     0
1070
   279
1070
     0
1070
   173
1070
     1
1070
   340
1005
CE
1070
   271
1070
     2
1070
   272
1070
     3
1070
    77
1070
     1
1070
    73
1070
     1
1070
   171
1070
     3
1070
   274
1070
     4
1070
   177
1070
     2
1070
   176
1070
     2
1070
   178
1070
     2
1070
    78
1070
     8
1070
    48
1040
-0.1
1070
    41
1040
3.5
1070
   147
1040
1.5
1070
    42
1040
1.5875
1070
    44
1040
2.0
1070
   140
1040
3.0
1002
}
1001
ACAD_DSTYLE_DIM_LINETYPE
1070
   380
1005
16
1001
ACAD_DSTYLE_DIM_EXT1_LINETYPE
1070
   381
1005
16
1001
ACAD_DSTYLE_DIM_EXT2_LINETYPE
1070
   382
1005
16
0
DIMENSION
5
120
100
AcDbEntity
8
SK2
62
256
6
ByLayer
370
18
48
1
60
0
100
AcDbDimension
2
_U2
10
0
20
-36.325937
30
0
11
-13.5
21
-36.325937
31
0
70
32
71
1
72
1
41
1
210
0
220
0
230
1
3
Standard
100
AcDbAlignedDimension
13
-27
23
-1.5875
33
0
14
0
24
-1.5875
34
0
50
0
100
AcDbRotatedDimension
1001
ACAD
1000
DSTYLE
1002
{
1070
   371
1070
    13
1070
   372
1070
    13
1070
     3
1000

1070
   170
1070
     0
1070
   144
1040
1.0
1070
   277
1070
     2
1070
   284
1070
     8
1070
   278
1070
    46
1070
   146
1040
1.166667
1070
   345
1005
16
1070
   347
1005
16
1070
   346
1005
16
1070
   344
1005
0
1070
   343
1005
0
1070
   172
1070
     1
1070
    76
1070
     0
1070
    75
1070
     0
1070
   282
1070
     0
1070
   281
1070
     0
1070
    71
1070
     0
1070
    74
1070
     0
1070
   279
1070
     0
1070
   173
1070
     1
1070
   340
1005
CE
1070
   271
1070
     2
1070
   272
1070
     3
1070
    77
1070
     1
1070
    73
1070
     1
1070
   171
1070
     3
1070
   274
1070
     4
1070
   177
1070
     2
1070
   176
1070
     2
1070
   178
1070
     2
1070
    78
1070
     8
1070
    48
1040
-0.1
1070
    41
1040
3.5
1070
   147
1040
1.5
1070
    42
1040
1.5875
1070
    44
1040
2.0
1070
   140
1040
3.0
1002
}
1001
ACAD_DSTYLE_DIM_LINETYPE
1070
   380
1005
16
1001
ACAD_DSTYLE_DIM_EXT1_LINETYPE
1070
   381
1005
16
1001
ACAD_DSTYLE_DIM_EXT2_LINETYPE
1070
   382
1005
16
0
DIMENSION
5
138
100
AcDbEntity
8
2
62
256
6
ByLayer
370
18
48
1
60
0
100
AcDbDimension
2
_U3
10
11
20
-34.325937
30
0
11
24.5
21
-34.325937
31
0
70
32
71
1
72
1
41
1
210
0
220
0
230
1
3
Standard
100
AcDbAlignedDimension
13
38
23
0
33
0
14
11
24
-1.5875
34
0
50
0
100
AcDbRotatedDimension
1001
ACAD
1000
DSTYLE
1002
{
1070
   371
1070
    13
1070
   372
1070
    13
1070
     3
1000

1070
   170
1070
     0
1070
   144
1040
1.0
1070
   277
1070
     2
1070
   284
1070
     8
1070
   278
1070
    46
1070
   146
1040
1.166667
1070
   345
1005
16
1070
   347
1005
16
1070
   346
1005
16
1070
   344
1005
0
1070
   343
1005
0
1070
   172
1070
     1
1070
    76
1070
     0
1070
    75
1070
     0
1070
   282
1070
     0
1070
   281
1070
     0
1070
    71
1070
     0
1070
    74
1070
     0
1070
   279
1070
     0
1070
   173
1070
     1
1070
   340
1005
CE
1070
   271
1070
     2
1070
   272
1070
     3
1070
    77
1070
     1
1070
    73
1070
     1
1070
   171
1070
     3
1070
   274
1070
     4
1070
   177
1070
     2
1070
   176
1070
     2
1070
   178
1070
     2
1070
    78
1070
     8
1070
    48
1040
-0.1
1070
    41
1040
3.5
1070
   147
1040
1.5
1070
    42
1040
1.5875
1070
    44
1040
2.0
1070
   140
1040
3.0
1002
}
1001
ACAD_DSTYLE_DIM_LINETYPE
1070
   380
1005
16
1001
ACAD_DSTYLE_DIM_EXT1_LINETYPE
1070
   381
1005
16
1001
ACAD_DSTYLE_DIM_EXT2_LINETYPE
1070
   382
1005
16
0
ENDSEC
0
SECTION
2
OBJECTS
0
DICTIONARY
5
1c2
330
0
100
AcDbDictionary
280
0
281
1
3
ACAD_GROUP
350
1c3
3
ACAD_MLINESTYLE
350
1c4
0
DICTIONARY
5
1c3
330
0
100
AcDbDictionary
280
0
281
1
0
DICTIONARY
5
1c4
330
0
100
AcDbDictionary
280
0
281
1
3
Standard
350
18
0
MLINESTYLE
5
18
330
1c4
100
AcDbMlineStyle
2
Standard
70
0
3

62
256
51
90
52
90
71
2
49
-0.5
62
256
6
ByLayer
49
0.5
62
256
6
ByLayer
0
RASTERVARIABLES
5
1ae
330

100
AcDbRasterVariables
90
0
70
1
71
1
72
1
0
ENDSEC
0
EOF
