0
SECTION
2
HEADER
9
$ACADVER
1
AC1015
9
$DWGCODEPAGE
3
ANSI_1252
9
$HANDSEED
5
1d2
9
$ANGBASE
50
0
9
$ANGDIR
70
0
9
$ATTMODE
70
1
9
$AUNITS
70
0
9
$AUPREC
70
0
9
$CECOLOR
62
256
9
$CELTSCALE
40
1
9
$CELTYPE
6
ByLayer
9
$CELWEIGHT
370
18
9
$CLAYER
8
0
9
$CMLJUST
70
0
9
$CMLSCALE
40
1
9
$CMLSTYLE
2
Standard
9
$DIMSTYLE
2
Standard
9
$TEXTSIZE
40
0.2
9
$TEXTSTYLE
7
Standard
9
$LUNITS
70
2
9
$LUPREC
70
4
9
$EXTNAMES
290
1
9
$INSUNITS
70
4
9
$LTSCALE
40
1
9
$LWDISPLAY
290
1
9
$PDMODE
70
0
9
$PDSIZE
40
0
9
$PLINEGEN
70
0
0
ENDSEC
0
SECTION
2
CLASSES
0
CLASS
1
RASTERVARIABLES
2
AcDbRasterVariables
3
ISM
90
0
280
0
281
0
0
ENDSEC
0
SECTION
2
TABLES
0
TABLE
2
VPORT
5
1c8
100
AcDbSymbolTable
0
VPORT
5
1
100
AcDbSymbolTableRecord
100
AcDbViewportTableRecord
2
*Active
70
0
10
0
20
0
11
1
21
1
12
-1
22
1
13
0
23
0
14
0.5
24
0.5
15
10
25
10
16
0
26
0
36
1
17
0
27
0
37
0
0
ENDTAB
0
TABLE
2
LTYPE
5
1c9
100
AcDbSymbolTable
0
LTYPE
5
14
100
AcDbSymbolTableRecord
100
AcDbLinetypeTableRecord
70
0
2
ByBlock
3

72
65
73
0
40
0
0
LTYPE
5
15
100
AcDbSymbolTableRecord
100
AcDbLinetypeTableRecord
70
0
2
ByLayer
3

72
65
73
0
40
0
0
LTYPE
5
16
100
AcDbSymbolTableRecord
100
AcDbLinetypeTableRecord
70
0
2
Continuous
3
Solid line
72
65
73
0
40
0
0
LTYPE
5
6E
100
AcDbSymbolTableRecord
100
AcDbLinetypeTableRecord
70
0
2
CENTER
3
____ _ ____ _ ____ _ ____
72
65
73
4
40
47.5
49
22
74
0
49
-8.5
74
0
49
8.5
74
0
49
-8.5
74
0
0
LTYPE
5
6F
100
AcDbSymbolTableRecord
100
AcDbLinetypeTableRecord
70
0
2
DASHED
3
__ __ __ __ __ __ __ __ __
72
65
73
2
40
25.72
49
12.86
74
0
49
-12.86
74
0
0
ENDTAB
0
TABLE
2
LAYER
5
1ca
100
AcDbSymbolTable
0
LAYER
5
10
100
AcDbSymbolTableRecord
100
AcDbLayerTableRecord
2
0
70
0
62
7
6
Continuous
290
1
370
-3
390
0
0
LAYER
5
71
100
AcDbSymbolTableRecord
100
AcDbLayerTableRecord
2
81
70
0
62
-3
6
Continuous
290
1
370
-3
390
0
0
LAYER
5
73
100
AcDbSymbolTableRecord
100
AcDbLayerTableRecord
2
80
70
0
62
-6
6
Continuous
290
1
370
-3
390
0
0
LAYER
5
75
100
AcDbSymbolTableRecord
100
AcDbLayerTableRecord
2
1
70
0
62
4
6
Continuous
290
1
370
-3
390
0
0
LAYER
5
7E
100
AcDbSymbolTableRecord
100
AcDbLayerTableRecord
2
4
70
0
62
-2
6
CENTER
290
1
370
-3
390
0
0
LAYER
5
A6
100
AcDbSymbolTableRecord
100
AcDbLayerTableRecord
2
2
70
0
62
7
6
Continuous
290
1
370
-3
390
0
0
LAYER
5
F5
100
AcDbSymbolTableRecord
100
AcDbLayerTableRecord
2
Defpoints
70
0
62
7
6
Continuous
290
0
370
-3
390
0
0
LAYER
5
1b2
100
AcDbSymbolTableRecord
100
AcDbLayerTableRecord
2
SK4
70
0
62
2
6
CENTER
290
1
370
-3
390
0
0
LAYER
5
1b3
100
AcDbSymbolTableRecord
100
AcDbLayerTableRecord
2
SK1
70
0
62
4
6
Continuous
290
1
370
-3
390
0
0
LAYER
5
1b4
100
AcDbSymbolTableRecord
100
AcDbLayerTableRecord
2
SK2
70
0
62
7
6
Continuous
290
1
370
-3
390
0
0
LAYER
5
1b5
100
AcDbSymbolTableRecord
100
AcDbLayerTableRecord
2
NOCUT
70
0
62
-7
6
Continuous
290
1
370
-3
390
0
0
LAYER
5
1b6
100
AcDbSymbolTableRecord
100
AcDbLayerTableRecord
2
CUT
70
0
62
-1
6
Continuous
290
1
370
-3
390
0
0
LAYER
5
1b7
100
AcDbSymbolTableRecord
100
AcDbLayerTableRecord
2
SK6
70
0
62
5
6
Continuous
290
1
370
-3
390
0
0
ENDTAB
0
TABLE
2
STYLE
5
1cb
100
AcDbSymbolTable
0
STYLE
5
11
100
AcDbSymbolTableRecord
100
AcDbTextStyleTableRecord
2
Standard
3
txt
70
0
71
0
40
0
41
1
42
0
50
0
0
STYLE
5
D1
100
AcDbSymbolTableRecord
100
AcDbTextStyleTableRecord
2
iso_b_vert
3
simplex.shx
70
0
71
0
40
0
41
1
42
0
50
0
0
STYLE
5
D2
100
AcDbSymbolTableRecord
100
AcDbTextStyleTableRecord
2
DWGDirectTextStyle
3
simplex
70
0
71
0
40
0
41
1
42
0
50
0
0
ENDTAB
0
TABLE
2
DIMSTYLE
5
1cc
100
AcDbSymbolTable
100
AcDbDimStyleTable
0
DIMSTYLE
105
27
100
AcDbSymbolTableRecord
100
AcDbDimStyleTableRecord
2
Standard
70
0
3
<>
41
0.18
42
0.0625
44
0.18
140
0.18
147
0.09
73
0
74
0
77
1
271
2
275
0
278
52
280
0
340
11
0
ENDTAB
0
TABLE
2
VIEW
5
1cd
100
AcDbSymbolTable
0
ENDTAB
0
TABLE
2
UCS
5
1ce
100
AcDbSymbolTable
0
ENDTAB
0
TABLE
2
APPID
5
1cf
100
AcDbSymbolTable
0
APPID
5
12
100
AcDbSymbolTableRecord
100
AcDbRegAppTableRecord
2
ACAD
70
0
0
APPID
5
F1
100
AcDbSymbolTableRecord
100
AcDbRegAppTableRecord
2
ACAD_DSTYLE_DIMBREAK
70
0
0
APPID
5
171
100
AcDbSymbolTableRecord
100
AcDbRegAppTableRecord
2
ACAD_DSTYLE_DIM_LINETYPE
70
0
0
APPID
5
172
100
AcDbSymbolTableRecord
100
AcDbRegAppTableRecord
2
ACAD_DSTYLE_DIM_EXT1_LINETYPE
70
0
0
APPID
5
173
100
AcDbSymbolTableRecord
100
AcDbRegAppTableRecord
2
ACAD_DSTYLE_DIM_EXT2_LINETYPE
70
0
0
APPID
5
1AE
100
AcDbSymbolTableRecord
100
AcDbRegAppTableRecord
2
ACAD_MLEADERVER
70
0
0
ENDTAB
0
TABLE
2
BLOCK_RECORD
5
1d0
100
AcDbSymbolTable
0
BLOCK_RECORD
5
1F
100
AcDbSymbolTableRecord
100
AcDbBlockTableRecord
2
*Model_Space
340
0
70
0
0
BLOCK_RECORD
5
1B
100
AcDbSymbolTableRecord
100
AcDbBlockTableRecord
2
*Paper_Space
340
0
70
0
0
BLOCK_RECORD
5
23
100
AcDbSymbolTableRecord
100
AcDbBlockTableRecord
2
*Paper_Space0
340
0
70
0
0
BLOCK_RECORD
5
F6
100
AcDbSymbolTableRecord
100
AcDbBlockTableRecord
2
*D1
340
0
70
0
0
BLOCK_RECORD
5
102
100
AcDbSymbolTableRecord
100
AcDbBlockTableRecord
2
_U0
340
0
70
0
0
BLOCK_RECORD
5
10E
100
AcDbSymbolTableRecord
100
AcDbBlockTableRecord
2
*D3
340
0
70
0
0
BLOCK_RECORD
5
11A
100
AcDbSymbolTableRecord
100
AcDbBlockTableRecord
2
_U1
340
0
70
0
0
BLOCK_RECORD
5
126
100
AcDbSymbolTableRecord
100
AcDbBlockTableRecord
2
*D5
340
0
70
0
0
BLOCK_RECORD
5
132
100
AcDbSymbolTableRecord
100
AcDbBlockTableRecord
2
_U2
340
0
70
0
0
BLOCK_RECORD
5
13E
100
AcDbSymbolTableRecord
100
AcDbBlockTableRecord
2
*D7
340
0
70
0
0
BLOCK_RECORD
5
14A
100
AcDbSymbolTableRecord
100
AcDbBlockTableRecord
2
_U3
340
0
70
0
0
ENDTAB
0
ENDSEC
0
SECTION
2
BLOCKS
0
BLOCK
5
20
100
AcDbEntity
8
0
100
AcDbBlockBegin
2
*Model_Space
70
0
10
0
20
0
30
0
3
*Model_Space
0
ENDBLK
5
21
100
AcDbEntity
8
0
100
AcDbBlockEnd
0
BLOCK
5
1C
100
AcDbEntity
8
0
100
AcDbBlockBegin
2
*Paper_Space
70
0
10
0
20
0
30
0
3
*Paper_Space
0
ENDBLK
5
1D
100
AcDbEntity
8
0
100
AcDbBlockEnd
0
BLOCK
5
24
100
AcDbEntity
8
0
100
AcDbBlockBegin
2
*Paper_Space0
70
0
10
0
20
0
30
0
3
*Paper_Space0
0
ENDBLK
5
25
100
AcDbEntity
8
0
100
AcDbBlockEnd
0
BLOCK
5
F7
100
AcDbEntity
8
0
100
AcDbBlockBegin
2
*D1
70
1
10
0
20
0
30
0
3
*D1
0
LINE
5
F9
100
AcDbEntity
8
0
62
256
6
ByLayer
370
-2
48
1
60
0
100
AcDbLine
10
-48
20
-7.9375
30
0
11
-48
21
-49.931466
31
0
39
0
210
0
220
0
230
1
0
LINE
5
FA
100
AcDbEntity
8
0
62
256
6
ByLayer
370
-2
48
1
60
0
100
AcDbLine
10
103
20
-1.5875
30
0
11
103
21
-49.931466
31
0
39
0
210
0
220
0
230
1
0
LINE
5
FB
100
AcDbEntity
8
0
62
256
6
ByLayer
370
-2
48
1
60
0
100
AcDbLine
10
-44.5
20
-47.931466
30
0
11
99.5
21
-47.931466
31
0
39
0
210
0
220
0
230
1
0
SOLID
5
FC
100
AcDbEntity
8
0
62
256
6
ByLayer
370
-1
48
1
60
0
100
AcDbTrace
10
-44.5
20
-47.348132
30
0
11
-44.5
21
-48.514799
31
0
12
-48
22
-47.931466
32
0
13
-48
23
-47.931466
33
0
39
0
210
0
220
0
230
1
0
SOLID
5
FD
100
AcDbEntity
8
0
62
256
6
ByLayer
370
-1
48
1
60
0
100
AcDbTrace
10
99.5
20
-48.514799
30
0
11
99.5
21
-47.348132
31
0
12
103
22
-47.931466
32
0
13
103
23
-47.931466
33
0
39
0
210
0
220
0
230
1
0
MTEXT
5
FE
100
AcDbEntity
8
0
62
256
6
ByLayer
370
18
48
1
60
0
100
AcDbMText
10
27.5
20
-41.931466
30
0
210
0
220
0
230
1
1
\A1;151
40
3
41
0
44
1
50
0
71
5
72
5
7
iso_b_vert
0
POINT
5
FF
100
AcDbEntity
8
Defpoints
62
0
6
ByLayer
370
-1
48
1
60
0
100
AcDbPoint
10
-48
20
-6.35
30
0
39
0
210
0
220
0
230
1
50
360
0
POINT
5
100
100
AcDbEntity
8
Defpoints
62
0
6
ByLayer
370
-1
48
1
60
0
100
AcDbPoint
10
103
20
0
30
0
39
0
210
0
220
0
230
1
50
360
0
POINT
5
101
100
AcDbEntity
8
Defpoints
62
0
6
ByLayer
370
-1
48
1
60
0
100
AcDbPoint
10
103
20
-47.931466
30
0
39
0
210
0
220
0
230
1
50
360
0
ENDBLK
5
F8
100
AcDbEntity
8
0
100
AcDbBlockEnd
0
BLOCK
5
109
100
AcDbEntity
8
0
100
AcDbBlockBegin
2
_U0
70
0
10
0
20
0
30
0
3
_U0
0
MTEXT
5
103
100
AcDbEntity
8
SK2
62
256
6
ByLayer
370
18
48
1
60
0
100
AcDbMText
10
22.646601
20
-47.046351
30
0
210
0
220
0
230
1
1
\W0.6532;151.00
40
3
41
0
44
1.084337
50
0
71
7
72
5
7
iso_b_vert
0
LINE
5
104
100
AcDbEntity
8
SK2
62
256
6
ByLayer
370
13
48
1
60
0
100
AcDbLine
10
-48
20
-7.9375
30
0
11
-48
21
-49.931466
31
0
39
0
210
0
220
0
230
1
0
LINE
5
105
100
AcDbEntity
8
SK2
62
256
6
ByLayer
370
13
48
1
60
0
100
AcDbLine
10
103
20
-1.5875
30
0
11
103
21
-49.931466
31
0
39
0
210
0
220
0
230
1
0
LINE
5
106
100
AcDbEntity
8
SK2
62
256
6
ByLayer
370
13
48
1
60
0
100
AcDbLine
10
-48
20
-47.931466
30
0
11
103
21
-47.931466
31
0
39
0
210
0
220
0
230
1
0
SOLID
5
107
100
AcDbEntity
8
SK2
62
256
6
ByLayer
370
18
48
1
60
0
100
AcDbTrace
10
-48
20
-47.931466
30
0
11
-44.500002
21
-47.470682
31
0
12
-44.499998
22
-48.39225
32
0
13
-44.499998
23
-48.39225
33
0
39
0
210
0
220
0
230
1
0
SOLID
5
108
100
AcDbEntity
8
SK2
62
256
6
ByLayer
370
18
48
1
60
0
100
AcDbTrace
10
103
20
-47.931466
30
0
11
99.500002
21
-48.39225
31
0
12
99.499998
22
-47.470682
32
0
13
99.499998
23
-47.470682
33
0
39
0
210
0
220
0
230
1
0
ENDBLK
5
10A
100
AcDbEntity
8
0
100
AcDbBlockEnd
0
BLOCK
5
10F
100
AcDbEntity
8
0
100
AcDbBlockBegin
2
*D3
70
1
10
0
20
0
30
0
3
*D3
0
LINE
5
111
100
AcDbEntity
8
0
62
256
6
ByLayer
370
-2
48
1
60
0
100
AcDbLine
10
103
20
-1.5875
30
0
11
103
21
-39.931466
31
0
39
0
210
0
220
0
230
1
0
LINE
5
112
100
AcDbEntity
8
0
62
256
6
ByLayer
370
-2
48
1
60
0
100
AcDbLine
10
2
20
-7.9375
30
0
11
2
21
-39.931466
31
0
39
0
210
0
220
0
230
1
0
LINE
5
113
100
AcDbEntity
8
0
62
256
6
ByLayer
370
-2
48
1
60
0
100
AcDbLine
10
99.5
20
-37.931466
30
0
11
5.5
21
-37.931466
31
0
39
0
210
0
220
0
230
1
0
SOLID
5
114
100
AcDbEntity
8
0
62
256
6
ByLayer
370
-1
48
1
60
0
100
AcDbTrace
10
99.5
20
-38.514799
30
0
11
99.5
21
-37.348132
31
0
12
103
22
-37.931466
32
0
13
103
23
-37.931466
33
0
39
0
210
0
220
0
230
1
0
SOLID
5
115
100
AcDbEntity
8
0
62
256
6
ByLayer
370
-1
48
1
60
0
100
AcDbTrace
10
5.5
20
-37.348132
30
0
11
5.5
21
-38.514799
31
0
12
2
22
-37.931466
32
0
13
2
23
-37.931466
33
0
39
0
210
0
220
0
230
1
0
MTEXT
5
116
100
AcDbEntity
8
0
62
256
6
ByLayer
370
18
48
1
60
0
100
AcDbMText
10
52.5
20
-31.931466
30
0
210
0
220
0
230
1
1
\A1;101
40
3
41
0
44
1
50
0
71
5
72
5
7
iso_b_vert
0
POINT
5
117
100
AcDbEntity
8
Defpoints
62
0
6
ByLayer
370
-1
48
1
60
0
100
AcDbPoint
10
103
20
0
30
0
39
0
210
0
220
0
230
1
50
360
0
POINT
5
118
100
AcDbEntity
8
Defpoints
62
0
6
ByLayer
370
-1
48
1
60
0
100
AcDbPoint
10
2
20
-6.35
30
0
39
0
210
0
220
0
230
1
50
360
0
POINT
5
119
100
AcDbEntity
8
Defpoints
62
0
6
ByLayer
370
-1
48
1
60
0
100
AcDbPoint
10
2
20
-37.931466
30
0
39
0
210
0
220
0
230
1
50
360
0
ENDBLK
5
110
100
AcDbEntity
8
0
100
AcDbBlockEnd
0
BLOCK
5
121
100
AcDbEntity
8
0
100
AcDbBlockBegin
2
_U1
70
0
10
0
20
0
30
0
3
_U1
0
MTEXT
5
11B
100
AcDbEntity
8
2
62
256
6
ByLayer
370
18
48
1
60
0
100
AcDbMText
10
47.646601
20
-37.046351
30
0
210
0
220
0
230
1
1
\W0.6532;101.00
40
3
41
0
44
1.084337
50
0
71
7
72
5
7
iso_b_vert
0
LINE
5
11C
100
AcDbEntity
8
2
62
256
6
ByLayer
370
13
48
1
60
0
100
AcDbLine
10
103
20
-1.5875
30
0
11
103
21
-39.931466
31
0
39
0
210
0
220
0
230
1
0
LINE
5
11D
100
AcDbEntity
8
2
62
256
6
ByLayer
370
13
48
1
60
0
100
AcDbLine
10
2
20
-7.9375
30
0
11
2
21
-39.931466
31
0
39
0
210
0
220
0
230
1
0
LINE
5
11E
100
AcDbEntity
8
2
62
256
6
ByLayer
370
13
48
1
60
0
100
AcDbLine
10
103
20
-37.931466
30
0
11
2
21
-37.931466
31
0
39
0
210
0
220
0
230
1
0
SOLID
5
11F
100
AcDbEntity
8
2
62
256
6
ByLayer
370
18
48
1
60
0
100
AcDbTrace
10
103
20
-37.931466
30
0
11
99.500002
21
-38.39225
31
0
12
99.499998
22
-37.470682
32
0
13
99.499998
23
-37.470682
33
0
39
0
210
0
220
0
230
1
0
SOLID
5
120
100
AcDbEntity
8
2
62
256
6
ByLayer
370
18
48
1
60
0
100
AcDbTrace
10
2
20
-37.931466
30
0
11
5.499998
21
-37.470682
31
0
12
5.500002
22
-38.39225
32
0
13
5.500002
23
-38.39225
33
0
39
0
210
0
220
0
230
1
0
ENDBLK
5
122
100
AcDbEntity
8
0
100
AcDbBlockEnd
0
BLOCK
5
127
100
AcDbEntity
8
0
100
AcDbBlockBegin
2
*D5
70
1
10
0
20
0
30
0
3
*D5
0
LINE
5
129
100
AcDbEntity
8
0
62
256
6
ByLayer
370
-2
48
1
60
0
100
AcDbLine
10
-48
20
-7.9375
30
0
11
-48
21
-34.931466
31
0
39
0
210
0
220
0
230
1
0
LINE
5
12A
100
AcDbEntity
8
0
62
256
6
ByLayer
370
-2
48
1
60
0
100
AcDbLine
10
0
20
-7.9375
30
0
11
0
21
-34.931466
31
0
39
0
210
0
220
0
230
1
0
LINE
5
12B
100
AcDbEntity
8
0
62
256
6
ByLayer
370
-2
48
1
60
0
100
AcDbLine
10
-44.5
20
-32.931466
30
0
11
-3.5
21
-32.931466
31
0
39
0
210
0
220
0
230
1
0
SOLID
5
12C
100
AcDbEntity
8
0
62
256
6
ByLayer
370
-1
48
1
60
0
100
AcDbTrace
10
-44.5
20
-32.348132
30
0
11
-44.5
21
-33.514799
31
0
12
-48
22
-32.931466
32
0
13
-48
23
-32.931466
33
0
39
0
210
0
220
0
230
1
0
SOLID
5
12D
100
AcDbEntity
8
0
62
256
6
ByLayer
370
-1
48
1
60
0
100
AcDbTrace
10
-3.5
20
-33.514799
30
0
11
-3.5
21
-32.348132
31
0
12
0
22
-32.931466
32
0
13
0
23
-32.931466
33
0
39
0
210
0
220
0
230
1
0
MTEXT
5
12E
100
AcDbEntity
8
0
62
256
6
ByLayer
370
18
48
1
60
0
100
AcDbMText
10
-24
20
-26.931466
30
0
210
0
220
0
230
1
1
\A1;48
40
3
41
0
44
1
50
0
71
5
72
5
7
iso_b_vert
0
POINT
5
12F
100
AcDbEntity
8
Defpoints
62
0
6
ByLayer
370
-1
48
1
60
0
100
AcDbPoint
10
-48
20
-6.35
30
0
39
0
210
0
220
0
230
1
50
360
0
POINT
5
130
100
AcDbEntity
8
Defpoints
62
0
6
ByLayer
370
-1
48
1
60
0
100
AcDbPoint
10
0
20
-6.35
30
0
39
0
210
0
220
0
230
1
50
360
0
POINT
5
131
100
AcDbEntity
8
Defpoints
62
0
6
ByLayer
370
-1
48
1
60
0
100
AcDbPoint
10
0
20
-32.931466
30
0
39
0
210
0
220
0
230
1
50
360
0
ENDBLK
5
128
100
AcDbEntity
8
0
100
AcDbBlockEnd
0
BLOCK
5
139
100
AcDbEntity
8
0
100
AcDbBlockBegin
2
_U2
70
0
10
0
20
0
30
0
3
_U2
0
MTEXT
5
133
100
AcDbEntity
8
SK2
62
256
6
ByLayer
370
18
48
1
60
0
100
AcDbMText
10
-28.640313
20
-32.046351
30
0
210
0
220
0
230
1
1
\W0.7694;48.00
40
3
41
0
44
1.084337
50
0
71
7
72
5
7
iso_b_vert
0
LINE
5
134
100
AcDbEntity
8
SK2
62
256
6
ByLayer
370
13
48
1
60
0
100
AcDbLine
10
-48
20
-7.9375
30
0
11
-48
21
-34.931466
31
0
39
0
210
0
220
0
230
1
0
LINE
5
135
100
AcDbEntity
8
SK2
62
256
6
ByLayer
370
13
48
1
60
0
100
AcDbLine
10
0
20
-7.9375
30
0
11
0
21
-34.931466
31
0
39
0
210
0
220
0
230
1
0
LINE
5
136
100
AcDbEntity
8
SK2
62
256
6
ByLayer
370
13
48
1
60
0
100
AcDbLine
10
-48
20
-32.931466
30
0
11
0
21
-32.931466
31
0
39
0
210
0
220
0
230
1
0
SOLID
5
137
100
AcDbEntity
8
SK2
62
256
6
ByLayer
370
18
48
1
60
0
100
AcDbTrace
10
-48
20
-32.931466
30
0
11
-44.500002
21
-32.470682
31
0
12
-44.499998
22
-33.39225
32
0
13
-44.499998
23
-33.39225
33
0
39
0
210
0
220
0
230
1
0
SOLID
5
138
100
AcDbEntity
8
SK2
62
256
6
ByLayer
370
18
48
1
60
0
100
AcDbTrace
10
0
20
-32.931466
30
0
11
-3.499998
21
-33.39225
31
0
12
-3.500002
22
-32.470682
32
0
13
-3.500002
23
-32.470682
33
0
39
0
210
0
220
0
230
1
0
ENDBLK
5
13A
100
AcDbEntity
8
0
100
AcDbBlockEnd
0
BLOCK
5
13F
100
AcDbEntity
8
0
100
AcDbBlockBegin
2
*D7
70
1
10
0
20
0
30
0
3
*D7
0
LINE
5
141
100
AcDbEntity
8
0
62
256
6
ByLayer
370
-2
48
1
60
0
100
AcDbLine
10
103
20
-1.5875
30
0
11
103
21
-32.931466
31
0
39
0
210
0
220
0
230
1
0
LINE
5
142
100
AcDbEntity
8
0
62
256
6
ByLayer
370
-2
48
1
60
0
100
AcDbLine
10
27.25
20
-7.9375
30
0
11
27.25
21
-32.931466
31
0
39
0
210
0
220
0
230
1
0
LINE
5
143
100
AcDbEntity
8
0
62
256
6
ByLayer
370
-2
48
1
60
0
100
AcDbLine
10
99.5
20
-30.931466
30
0
11
30.75
21
-30.931466
31
0
39
0
210
0
220
0
230
1
0
SOLID
5
144
100
AcDbEntity
8
0
62
256
6
ByLayer
370
-1
48
1
60
0
100
AcDbTrace
10
99.5
20
-31.514799
30
0
11
99.5
21
-30.348132
31
0
12
103
22
-30.931466
32
0
13
103
23
-30.931466
33
0
39
0
210
0
220
0
230
1
0
SOLID
5
145
100
AcDbEntity
8
0
62
256
6
ByLayer
370
-1
48
1
60
0
100
AcDbTrace
10
30.75
20
-30.348132
30
0
11
30.75
21
-31.514799
31
0
12
27.25
22
-30.931466
32
0
13
27.25
23
-30.931466
33
0
39
0
210
0
220
0
230
1
0
MTEXT
5
146
100
AcDbEntity
8
0
62
256
6
ByLayer
370
18
48
1
60
0
100
AcDbMText
10
65.125
20
-24.931466
30
0
210
0
220
0
230
1
1
\A1;75.75
40
3
41
0
44
1
50
0
71
5
72
5
7
iso_b_vert
0
POINT
5
147
100
AcDbEntity
8
Defpoints
62
0
6
ByLayer
370
-1
48
1
60
0
100
AcDbPoint
10
103
20
0
30
0
39
0
210
0
220
0
230
1
50
360
0
POINT
5
148
100
AcDbEntity
8
Defpoints
62
0
6
ByLayer
370
-1
48
1
60
0
100
AcDbPoint
10
27.25
20
-6.35
30
0
39
0
210
0
220
0
230
1
50
360
0
POINT
5
149
100
AcDbEntity
8
Defpoints
62
0
6
ByLayer
370
-1
48
1
60
0
100
AcDbPoint
10
27.25
20
-30.931466
30
0
39
0
210
0
220
0
230
1
50
360
0
ENDBLK
5
140
100
AcDbEntity
8
0
100
AcDbBlockEnd
0
BLOCK
5
151
100
AcDbEntity
8
0
100
AcDbBlockBegin
2
_U3
70
0
10
0
20
0
30
0
3
_U3
0
MTEXT
5
14B
100
AcDbEntity
8
2
62
256
6
ByLayer
370
18
48
1
60
0
100
AcDbMText
10
60.64263
20
-30.046351
30
0
210
0
220
0
230
1
1
\W0.7468;75.75
40
3
41
0
44
1.084337
50
0
71
7
72
5
7
iso_b_vert
0
LINE
5
14C
100
AcDbEntity
8
2
62
256
6
ByLayer
370
13
48
1
60
0
100
AcDbLine
10
103
20
-1.5875
30
0
11
103
21
-32.931466
31
0
39
0
210
0
220
0
230
1
0
LINE
5
14D
100
AcDbEntity
8
2
62
256
6
ByLayer
370
13
48
1
60
0
100
AcDbLine
10
27.25
20
-7.9375
30
0
11
27.25
21
-32.931466
31
0
39
0
210
0
220
0
230
1
0
LINE
5
14E
100
AcDbEntity
8
2
62
256
6
ByLayer
370
13
48
1
60
0
100
AcDbLine
10
103
20
-30.931466
30
0
11
27.25
21
-30.931466
31
0
39
0
210
0
220
0
230
1
0
SOLID
5
14F
100
AcDbEntity
8
2
62
256
6
ByLayer
370
18
48
1
60
0
100
AcDbTrace
10
103
20
-30.931466
30
0
11
99.500002
21
-31.39225
31
0
12
99.499998
22
-30.470682
32
0
13
99.499998
23
-30.470682
33
0
39
0
210
0
220
0
230
1
0
SOLID
5
150
100
AcDbEntity
8
2
62
256
6
ByLayer
370
18
48
1
60
0
100
AcDbTrace
10
27.25
20
-30.931466
30
0
11
30.749998
21
-30.470682
31
0
12
30.750002
22
-31.39225
32
0
13
30.750002
23
-31.39225
33
0
39
0
210
0
220
0
230
1
0
ENDBLK
5
152
100
AcDbEntity
8
0
100
AcDbBlockEnd
0
ENDSEC
0
SECTION
2
ENTITIES
0
ARC
5
B7
100
AcDbEntity
8
2
62
256
6
ByLayer
370
13
48
1
60
0
100
AcDbCircle
39
0
10
103
20
0
30
0
40
22.0000000000001
210
0
220
0
230
1
100
AcDbArc
50
7.83748
51
61.596605
0
ARC
5
B8
100
AcDbEntity
8
2
62
256
6
ByLayer
370
13
48
1
60
0
100
AcDbCircle
39
0
10
103
20
0
30
0
40
22.0000000000001
210
0
220
0
230
1
100
AcDbArc
50
298.403395
51
352.16252
0
POINT
5
70
100
AcDbEntity
8
81
62
256
6
ByLayer
370
18
48
1
60
0
100
AcDbPoint
10
103
20
0
30
0
39
0
210
0
220
0
230
1
50
360
0
POINT
5
72
100
AcDbEntity
8
80
62
256
6
ByLayer
370
18
48
1
60
0
100
AcDbPoint
10
0
20
0
30
0
39
0
210
0
220
0
230
1
50
360
0
POINT
5
74
100
AcDbEntity
8
1
62
256
6
ByLayer
370
18
48
1
60
1
100
AcDbPoint
10
-48
20
-6.35
30
0
39
0
210
0
220
0
230
1
50
360
0
POINT
5
76
100
AcDbEntity
8
1
62
256
6
ByLayer
370
18
48
1
60
1
100
AcDbPoint
10
103
20
0
30
0
39
0
210
0
220
0
230
1
50
360
0
POINT
5
77
100
AcDbEntity
8
1
62
256
6
ByLayer
370
18
48
1
60
1
100
AcDbPoint
10
103
20
0
30
0
39
0
210
0
220
0
230
1
50
360
0
POINT
5
78
100
AcDbEntity
8
1
62
256
6
ByLayer
370
18
48
1
60
1
100
AcDbPoint
10
2
20
-6.35
30
0
39
0
210
0
220
0
230
1
50
360
0
POINT
5
79
100
AcDbEntity
8
1
62
256
6
ByLayer
370
18
48
1
60
1
100
AcDbPoint
10
-48
20
-6.35
30
0
39
0
210
0
220
0
230
1
50
360
0
POINT
5
7A
100
AcDbEntity
8
1
62
256
6
ByLayer
370
18
48
1
60
1
100
AcDbPoint
10
0
20
-6.35
30
0
39
0
210
0
220
0
230
1
50
360
0
POINT
5
7B
100
AcDbEntity
8
1
62
256
6
ByLayer
370
18
48
1
60
1
100
AcDbPoint
10
103
20
0
30
0
39
0
210
0
220
0
230
1
50
360
0
POINT
5
7C
100
AcDbEntity
8
1
62
256
6
ByLayer
370
18
48
1
60
1
100
AcDbPoint
10
27.25
20
-6.35
30
0
39
0
210
0
220
0
230
1
50
360
0
SPLINE
5
B9
100
AcDbEntity
8
NOCUT
62
256
6
ByLayer
370
18
48
1
60
0
100
AcDbSpline
70
2053
71
3
72
26
73
22
40
0
40
0
40
0
40
0
40
0.289072763272648
40
0.289072763272648
40
0.289072763272648
40
0.297770861619706
40
0.297770861619706
40
0.297770861619706
40
0.330675952758188
40
0.330675952758188
40
0.330675952758188
40
0.793499898210672
40
0.793499898210672
40
0.793499898210672
40
0.832388681576733
40
0.832388681576733
40
0.832388681576733
40
0.997529197312524
40
0.997529197312524
40
0.997529197312524
40
1
40
1
40
1
40
1
41
1
10
0
20
6.34999999999999
30
0
41
1
10
-15.6666666666667
20
6.34999999999999
30
0
41
1
10
-31.3333333333333
20
6.34999999999999
30
0
41
1
10
-47
20
6.34999999999999
30
0
41
1
10
-47.3333333333333
20
6.01666666666668
30
0
41
1
10
-47.6666666666667
20
5.68333333333334
30
0
41
1
10
-48
20
5.34999999999999
30
0
41
1
10
-48
20
3.56666666666666
30
0
41
1
10
-48
20
1.78333333333333
30
0
41
1
10
-48
20
0
30
0
41
1
10
-22.9166666666666
20
0
30
0
41
1
10
2.16666666666683
20
0
30
0
41
1
10
27.2500000000001
20
0
30
0
41
1
10
27.25
20
2.10762715647138
30
0
41
1
10
27.25
20
4.21525431294276
30
0
41
1
10
27.25
20
6.32288146941414
30
0
41
1
10
18.3000000000013
20
6.31952521941415
30
0
41
1
10
9.35000000000258
20
6.31616896941415
30
0
41
1
10
0.399999999856192
20
6.31281271942768
30
0
41
1
10
0.266666666472361
20
6.32520847962749
30
0
41
1
10
0.13333333323618
20
6.33760423981374
30
0
41
1
10
0
20
6.34999999999999
30
0
0
SPLINE
5
BB
100
AcDbEntity
8
CUT
62
256
6
ByLayer
370
18
48
1
60
0
100
AcDbSpline
70
2053
71
3
72
17
73
13
40
0
40
0
40
0
40
0
40
0.468726820914236
40
0.468726820914236
40
0.468726820914236
40
0.513396785146166
40
0.513396785146166
40
0.513396785146166
40
0.960875193001012
40
0.960875193001012
40
0.960875193001012
40
1
40
1
40
1
40
1
41
1
10
27.25
20
0
30
0
41
1
10
52.5
20
0
30
0
41
1
10
77.75
20
0
30
0
41
1
10
103
20
0
30
0
41
1
10
101.855360520752
20
2.11666666666667
30
0
41
1
10
100.710721041505
20
4.23333333333335
30
0
41
1
10
99.5660815622576
20
6.34999999999999
30
0
41
1
10
75.4607210415062
20
6.34096048980473
30
0
41
1
10
51.355360520755
20
6.33192097960944
30
0
41
1
10
27.2500000000019
20
6.32288146941414
30
0
41
1
10
27.25
20
4.21525431294276
30
0
41
1
10
27.25
20
2.10762715647138
30
0
41
1
10
27.25
20
0
30
0
0
SPLINE
5
BD
100
AcDbEntity
8
1
62
256
6
ByLayer
370
18
48
1
60
0
100
AcDbSpline
70
4
71
3
72
130
73
126
40
0
40
0
40
0
40
0
40
0.0156250000000008
40
0.0156250000000008
40
0.0312500000000017
40
0.0312500000000017
40
0.0625000000000031
40
0.0625000000000031
40
0.0937500000000046
40
0.0937500000000046
40
0.125000000000006
40
0.125000000000006
40
0.156250000000008
40
0.156250000000008
40
0.187500000000009
40
0.187500000000009
40
0.218750000000011
40
0.218750000000011
40
0.250000000000012
40
0.250000000000012
40
0.265625000000013
40
0.265625000000013
40
0.281250000000013
40
0.281250000000013
40
0.296875000000014
40
0.296875000000014
40
0.304687500000015
40
0.304687500000015
40
0.312500000000015
40
0.312500000000015
40
0.320312500000015
40
0.320312500000015
40
0.328125000000016
40
0.328125000000016
40
0.335937500000016
40
0.343750000000017
40
0.343750000000017
40
0.351562500000017
40
0.351562500000017
40
0.359375000000018
40
0.359375000000018
40
0.375000000000018
40
0.375000000000018
40
0.390625000000019
40
0.390625000000019
40
0.40625000000002
40
0.40625000000002
40
0.421875000000021
40
0.421875000000021
40
0.437500000000022
40
0.437500000000022
40
0.453125000000022
40
0.453125000000022
40
0.468750000000023
40
0.468750000000023
40
0.476562500000024
40
0.476562500000024
40
0.484375000000024
40
0.484375000000024
40
0.488281250000024
40
0.488281250000024
40
0.492187500000025
40
0.492187500000025
40
0.500000000000026
40
0.500000000000026
40
0.515625000000028
40
0.515625000000028
40
0.523437500000029
40
0.523437500000029
40
0.531250000000029
40
0.531250000000029
40
0.546875000000031
40
0.546875000000031
40
0.55078125000003
40
0.55078125000003
40
0.554687500000029
40
0.562500000000028
40
0.562500000000028
40
0.578125000000025
40
0.578125000000025
40
0.593750000000022
40
0.593750000000022
40
0.60156250000002
40
0.60156250000002
40
0.609375000000019
40
0.609375000000019
40
0.625000000000019
40
0.625000000000019
40
0.656250000000019
40
0.656250000000019
40
0.664062500000018
40
0.664062500000018
40
0.671875000000017
40
0.671875000000017
40
0.687500000000016
40
0.687500000000016
40
0.703125000000014
40
0.703125000000014
40
0.718750000000013
40
0.718750000000013
40
0.734375000000011
40
0.734375000000011
40
0.75000000000001
40
0.75000000000001
40
0.765625000000008
40
0.765625000000008
40
0.781250000000007
40
0.781250000000007
40
0.796875000000005
40
0.796875000000005
40
0.812500000000004
40
0.812500000000004
40
0.843750000000001
40
0.843750000000001
40
0.859375000000001
40
0.859375000000001
40
0.875000000000001
40
0.875000000000001
40
0.906250000000001
40
0.906250000000001
40
0.937500000000001
40
0.937500000000001
40
0.96875
40
0.96875
40
1
40
1
40
1
40
1
41
1
10
99.5660815622576
20
6.14841335096554
30
0
41
1
10
99.5987542732374
20
6.08608740458342
30
0
41
1
10
99.6314389146476
20
6.02378029872301
30
0
41
1
10
99.6967990008692
20
5.89917460754927
30
0
41
1
10
99.7294732284719
20
5.8368750214666
30
0
41
1
10
99.8274669374991
20
5.64997675404419
30
0
41
1
10
99.8927587980275
20
5.52537952933693
30
0
41
1
10
100.023200920546
20
5.27613830360031
30
0
41
1
10
100.088347569753
20
5.15149116225876
30
0
41
1
10
100.218382194933
20
4.90206618838428
30
0
41
1
10
100.283260708803
20
4.77728104815952
30
0
41
1
10
100.412733541014
20
4.527577444759
30
0
41
1
10
100.477333369651
20
4.40266328268032
30
0
41
1
10
100.606239830746
20
4.15271200755552
30
0
41
1
10
100.670542170078
20
4.02767118749321
30
0
41
1
10
100.798704118
20
3.77737500683452
30
0
41
1
10
100.862563736989
20
3.65211950092734
30
0
41
1
10
100.989651804221
20
3.40128708076512
30
0
41
1
10
101.0528905469
20
3.2757178165258
30
0
41
1
10
101.147181001367
20
3.08708659744315
30
0
41
1
10
101.178516388222
20
3.02414659987016
30
0
41
1
10
101.240991493206
20
2.89826736420082
30
0
41
1
10
101.272111004932
20
2.83528968836546
30
0
41
1
10
101.334350354276
20
2.70999201129285
30
0
41
1
10
101.365457692431
20
2.64764293616483
30
0
41
1
10
101.412530913725
20
2.55562807893952
30
0
41
1
10
101.428294795457
20
2.52521563272981
30
0
41
1
10
101.4600269563
20
2.46502099149683
30
0
41
1
10
101.475994551139
20
2.43523636421634
30
0
41
1
10
101.508151143732
20
2.37629734013333
30
0
41
1
10
101.524338537379
20
2.34713846740067
30
0
41
1
10
101.5569083105
20
2.28935044643117
30
0
41
1
10
101.573286008889
20
2.2607092329888
30
0
41
1
10
101.606154719325
20
2.20373222724757
30
0
41
1
10
101.639137306152
20
2.14706236612346
30
0
41
1
10
101.672199621047
20
2.09062409862835
30
0
41
1
10
101.705189010861
20
2.03402687389124
30
0
41
1
10
101.721643825522
20
2.0056408414417
30
0
41
1
10
101.754433277161
20
1.94860885043829
30
0
41
1
10
101.770765030639
20
1.91995618202594
30
0
41
1
10
101.819568967426
20
1.83361076547513
30
0
41
1
10
101.851869537812
20
1.77553479851721
30
0
41
1
10
101.915864131324
20
1.65863176043558
30
0
41
1
10
101.947549786183
20
1.59976179081994
30
0
41
1
10
102.010071220177
20
1.48101323124212
30
0
41
1
10
102.040909494965
20
1.42113788920477
30
0
41
1
10
102.101481807306
20
1.30027694652219
30
0
41
1
10
102.131228314193
20
1.23930666617153
30
0
41
1
10
102.189174208528
20
1.11602381988621
30
0
41
1
10
102.217378539756
20
1.05371380989405
30
0
41
1
10
102.271493970171
20
0.92734484598887
30
0
41
1
10
102.297413353719
20
0.863288227356776
30
0
41
1
10
102.345622190473
20
0.73264755495731
30
0
41
1
10
102.367614760216
20
0.666758620751381
30
0
41
1
10
102.396028322192
20
0.566833092250533
30
0
41
1
10
102.404737355344
20
0.533335822564652
30
0
41
1
10
102.420384425786
20
0.465899509958291
30
0
41
1
10
102.427322319288
20
0.43196044319248
30
0
41
1
10
102.436121931477
20
0.380650756481771
30
0
41
1
10
102.438787201027
20
0.363480659367752
30
0
41
1
10
102.443533992472
20
0.328994758741061
30
0
41
1
10
102.445614740912
20
0.311669877376318
30
0
41
1
10
102.450871736701
20
0.259914984280584
30
0
41
1
10
102.453081880568
20
0.225560731268274
30
0
41
1
10
102.455609198006
20
0.122985649365035
30
0
41
1
10
102.451751059159
20
0.0552591098557684
30
0
41
1
10
102.437781941827
20
-0.0452125649166533
30
0
41
1
10
102.431751186187
20
-0.0786320191388086
30
0
41
1
10
102.417499997565
20
-0.144002852491042
30
0
41
1
10
102.409275091702
20
-0.17607812895011
30
0
41
1
10
102.381876965775
20
-0.270699265641383
30
0
41
1
10
102.359959975644
20
-0.3316040609661
30
0
41
1
10
102.329188537094
20
-0.405174921293309
30
0
41
1
10
102.322853930568
20
-0.419783251238186
30
0
41
1
10
102.309943387829
20
-0.448597640812523
30
0
41
1
10
102.290207284484
20
-0.491244434358293
30
0
41
1
10
102.269512022203
20
-0.532307787280303
30
0
41
1
10
102.227143641177
20
-0.612612904903131
30
0
41
1
10
102.197609589632
20
-0.663727558314321
30
0
41
1
10
102.136976827928
20
-0.762227228257245
30
0
41
1
10
102.105884083851
20
-0.809671781267326
30
0
41
1
10
102.0583208787
20
-0.878005208649711
30
0
41
1
10
102.042310162988
20
-0.900307507038661
30
0
41
1
10
102.010001996844
20
-0.943942674544616
30
0
41
1
10
101.993737382176
20
-0.965228712886301
30
0
41
1
10
101.944937014104
20
-1.02715009322836
30
0
41
1
10
101.912286063779
20
-1.0660031006006
30
0
41
1
10
101.814146547656
20
-1.17573015878614
30
0
41
1
10
101.74848880911
20
-1.23975923400948
30
0
41
1
10
101.666142380874
20
-1.30929148421549
30
0
41
1
10
101.649641721838
20
-1.32269411268459
30
0
41
1
10
101.61684062529
20
-1.34834494565919
30
0
41
1
10
101.600511258206
20
-1.36062222993908
30
0
41
1
10
101.551718836446
20
-1.39587423959304
30
0
41
1
10
101.519453574224
20
-1.41725896858418
30
0
41
1
10
101.455432350793
20
-1.45546213411433
30
0
41
1
10
101.423677099129
20
-1.47226394171017
30
0
41
1
10
101.360504026218
20
-1.50211580466026
30
0
41
1
10
101.32909393614
20
-1.51509357702878
30
0
41
1
10
101.266404077199
20
-1.53861941464734
30
0
41
1
10
101.235118931727
20
-1.54921375685333
30
0
41
1
10
101.172492356322
20
-1.56953915893897
30
0
41
1
10
101.141155460205
20
-1.57923328436891
30
0
41
1
10
101.078332203719
20
-1.59881123401294
30
0
41
1
10
101.046839815589
20
-1.60876897147477
30
0
41
1
10
100.98370420742
20
-1.6291809840009
30
0
41
1
10
100.952060911937
20
-1.63963819961575
30
0
41
1
10
100.888649633532
20
-1.6609841461557
30
0
41
1
10
100.856884364447
20
-1.67184771327439
30
0
41
1
10
100.793279263443
20
-1.69360761231599
30
0
41
1
10
100.761439236733
20
-1.70450169411527
30
0
41
1
10
100.665812226751
20
-1.73733846077832
30
0
41
1
10
100.60192368945
20
-1.75935230248396
30
0
41
1
10
100.505845732338
20
-1.79386594038337
30
0
41
1
10
100.473778565505
20
-1.80562668660826
30
0
41
1
10
100.409553682323
20
-1.82993813857075
30
0
41
1
10
100.377394740237
20
-1.84250879966106
30
0
41
1
10
100.280793085705
20
-1.88149314441253
30
0
41
1
10
100.216227189662
20
-1.90916915578188
30
0
41
1
10
100.086841664438
20
-1.96770479347197
30
0
41
1
10
100.022021153965
20
-1.99857060317376
30
0
41
1
10
99.8921549355083
20
-2.0636840456593
30
0
41
1
10
99.8271126571032
20
-2.09786720571034
30
0
41
1
10
99.6967899034875
20
-2.1703103965441
30
0
41
1
10
99.6315084686441
20
-2.20858978794837
30
0
41
1
10
99.5660815622576
20
-2.24952086498433
30
0
0
SPLINE
5
BE
100
AcDbEntity
8
1
62
256
6
ByLayer
370
18
48
1
60
0
100
AcDbSpline
70
4
71
3
72
20
73
16
40
0
40
0
40
0
40
0
40
0.0370301178828717
40
0.148042600065207
40
0.259055082247542
40
0.370067564429878
40
0.592092528794548
40
0.703105010976884
40
0.758611252068052
40
0.814117493159219
40
0.869623734250387
40
0.897376854795971
40
0.925129975341555
40
0.980636216432722
40
1
40
1
40
1
40
1
41
1
10
22.1362175982837
20
6.16367890679953
30
0
41
1
10
22.1160317209785
20
6.10565954020413
30
0
41
1
10
22.0335276779225
20
5.87429815239338
30
0
41
1
10
21.8723339789704
20
5.47550490154327
30
0
41
1
10
21.628910412447
20
4.97961065944591
30
0
41
1
10
21.2480321329583
20
4.34961481010407
30
0
41
1
10
20.7912887157653
20
3.77469370427926
30
0
41
1
10
20.3357570720754
20
3.32949155175126
30
0
41
1
10
20.0616965573384
20
3.09306712954853
30
0
41
1
10
19.8502482971939
20
2.9231811701423
30
0
41
1
10
19.674684582677
20
2.78069489613128
30
0
41
1
10
19.5410191351361
20
2.65838852310009
30
0
41
1
10
19.4128848693797
20
2.52944297463833
30
0
41
1
10
19.3015534910201
20
2.40223339831928
30
0
41
1
10
19.2192989803547
20
2.31086505352107
30
0
41
1
10
19.1977628500384
20
2.2875172401051
30
0
0
SPLINE
5
BF
100
AcDbEntity
8
1
62
256
6
ByLayer
370
18
48
1
60
0
100
AcDbSpline
70
4
71
3
72
13
73
9
40
0
40
0
40
0
40
0
40
0.0452300264227877
40
0.14565059403778
40
0.346491729267766
40
0.547332864497751
40
0.748173999727736
40
1
40
1
40
1
40
1
41
1
10
11.9089916793741
20
-3.3814753542157
30
0
41
1
10
11.8926622566289
20
-3.41791977734644
30
0
41
1
10
11.8396860385172
20
-3.53508276554001
30
0
41
1
10
11.7122109063722
20
-3.81306122034363
30
0
41
1
10
11.5218787103783
20
-4.21262128299765
30
0
41
1
10
11.2695895117515
20
-4.67789557535644
30
0
41
1
10
10.9771924525277
20
-5.16998551254801
30
0
41
1
10
10.7621319107015
20
-5.50195064784913
30
0
41
1
10
10.6378839512436
20
-5.68297553917071
30
0
0
SPLINE
5
C0
100
AcDbEntity
8
1
62
256
6
ByLayer
370
18
48
1
60
0
100
AcDbSpline
70
4
71
3
72
82
73
78
40
0
40
0
40
0
40
0
40
0.0313617262450194
40
0.0313617262450194
40
0.0470425893675291
40
0.0470425893675291
40
0.0627234524900388
40
0.0627234524900388
40
0.094085178735061
40
0.094085178735061
40
0.125446904980083
40
0.125446904980083
40
0.156808631225106
40
0.156808631225106
40
0.188170357470128
40
0.188170357470128
40
0.21953208371515
40
0.21953208371515
40
0.250893809960172
40
0.250893809960172
40
0.266574673082685
40
0.266574673082685
40
0.282255536205198
40
0.282255536205198
40
0.313617262450226
40
0.313617262450226
40
0.344978988695254
40
0.344978988695254
40
0.360659851817769
40
0.360659851817769
40
0.376340714940284
40
0.376340714940284
40
0.407702441185313
40
0.407702441185313
40
0.43906416743034
40
0.43906416743034
40
0.470425893675369
40
0.470425893675369
40
0.486106756797883
40
0.486106756797883
40
0.501787619920397
40
0.501787619920397
40
0.533149346165422
40
0.533149346165422
40
0.564511072410447
40
0.564511072410447
40
0.595872798655472
40
0.595872798655472
40
0.627234524900497
40
0.627234524900497
40
0.658596251145522
40
0.658596251145522
40
0.689957977390548
40
0.689957977390548
40
0.721319703635573
40
0.721319703635573
40
0.737000566758087
40
0.737000566758087
40
0.752681429880601
40
0.752681429880601
40
0.784043156125632
40
0.784043156125632
40
0.815404882370663
40
0.815404882370663
40
0.831085745493179
40
0.831085745493179
40
0.846766608615696
40
0.846766608615696
40
0.87812833486073
40
0.87812833486073
40
0.909490061105764
40
0.909490061105764
40
0.940851787350798
40
0.940851787350798
40
0.972213513595831
40
0.972213513595831
40
1
40
1
40
1
40
1
41
1
10
99.5660815622604
20
-2.24952086498578
30
0
41
1
10
99.3323482144837
20
-2.12847088790568
30
0
41
1
10
99.0993308716744
20
-2.00605620723357
30
0
41
1
10
98.7505533354326
20
-1.82098446629075
30
0
41
1
10
98.6344135140627
20
-1.75906215860834
30
0
41
1
10
98.4022829232646
20
-1.63491880761813
30
0
41
1
10
98.2862847824157
20
-1.57271130375153
30
0
41
1
10
97.9385019232822
20
-1.3856631566469
30
0
41
1
10
97.7069263554125
20
-1.26040140148552
30
0
41
1
10
97.244595501011
20
-1.00827325899459
30
0
41
1
10
97.0138447316077
20
-0.881398374453369
30
0
41
1
10
96.5526032589794
20
-0.627073376671149
30
0
41
1
10
96.3220362834411
20
-0.499763614478127
30
0
41
1
10
95.8609004926481
20
-0.245051826198363
30
0
41
1
10
95.6303838180999
20
-0.117553919708655
30
0
41
1
10
95.1696244919988
20
0.138042275329354
30
0
41
1
10
94.9393361338906
20
0.266056580610041
30
0
41
1
10
94.4783124386309
20
0.521358030727157
30
0
41
1
10
94.2475185326903
20
0.648537067286327
30
0
41
1
10
93.9009971737966
20
0.838768586743385
30
0
41
1
10
93.7854382804788
20
0.902095702096602
30
0
41
1
10
93.5542541061535
20
1.02865185001119
30
0
41
1
10
93.4386315012407
20
1.09188583197695
30
0
41
1
10
93.0915739344028
20
1.28127460287917
30
0
41
1
10
92.8599563412872
20
1.4071294542876
30
0
41
1
10
92.3955663773186
20
1.65680686894089
30
0
41
1
10
92.1628162865301
20
1.78067037303882
30
0
41
1
10
91.8130063019422
20
1.96527663659199
30
0
41
1
10
91.6962964955304
20
2.02662808135381
30
0
41
1
10
91.4626579538243
20
2.14895229104616
30
0
41
1
10
91.3459806558541
20
2.20977626716419
30
0
41
1
10
90.9963997623338
20
2.39098650038568
30
0
41
1
10
90.7638577730288
20
2.51007779120187
30
0
41
1
10
90.2993081642054
20
2.74406271624093
30
0
41
1
10
90.067354692428
20
2.85905941717726
30
0
41
1
10
89.6043397833443
20
3.08552655419948
30
0
41
1
10
89.3733040165673
20
3.19702967029335
30
0
41
1
10
89.0270411490799
20
3.36101797088253
30
0
41
1
10
88.9116646387053
20
3.41513072056242
30
0
41
1
10
88.6809181625456
20
3.52213554059478
30
0
41
1
10
88.5655542301724
20
3.57503757896765
30
0
41
1
10
88.2195202477679
20
3.73199917858798
30
0
41
1
10
87.9889140653331
20
3.83432706465888
30
0
41
1
10
87.5280795924959
20
4.03465330805787
30
0
41
1
10
87.2978113791084
20
4.13258424871995
30
0
41
1
10
86.8369571834075
20
4.32310290516386
30
0
41
1
10
86.6063029751137
20
4.41560496388803
30
0
41
1
10
86.1446204133763
20
4.59522375420732
30
0
41
1
10
85.9136515020517
20
4.6824170193818
30
0
41
1
10
85.4514438603783
20
4.85148783419339
30
0
41
1
10
85.2201578783608
20
4.93329915910823
30
0
41
1
10
84.7565537602373
20
5.09064793929321
30
0
41
1
10
84.524239340996
20
5.16620035688049
30
0
41
1
10
84.0587757122663
20
5.3112414535689
30
0
41
1
10
83.8256971819265
20
5.38080040810701
30
0
41
1
10
83.4753164016517
20
5.48035766296525
30
0
41
1
10
83.3586194616445
20
5.51267241538261
30
0
41
1
10
83.1254992937906
20
5.57544311849074
30
0
41
1
10
83.0090406407958
20
5.60589988935635
30
0
41
1
10
82.6599307225371
20
5.69448585135839
30
0
41
1
10
82.4275587810137
20
5.74985099860967
30
0
41
1
10
81.9637863847053
20
5.85347682524843
30
0
41
1
10
81.7324285548145
20
5.90175516137614
30
0
41
1
10
81.3857863087177
20
5.96860183345078
30
0
41
1
10
81.2703013178441
20
5.98995443487226
30
0
41
1
10
81.0393674412439
20
6.03075895023008
30
0
41
1
10
80.9239211477609
20
6.05021341381442
30
0
41
1
10
80.5776732930286
20
6.10576987243013
30
0
41
1
10
80.3469621398386
20
6.13907086506782
30
0
41
1
10
79.8860221804941
20
6.19830677591199
30
0
41
1
10
79.6557623340283
20
6.22421296196276
30
0
41
1
10
79.1950608758152
20
6.26836362530392
30
0
41
1
10
78.9645450907719
20
6.28659585947628
30
0
41
1
10
78.5032129368336
20
6.31542942248007
30
0
41
1
10
78.2724535893508
20
6.32604322923368
30
0
41
1
10
77.8371110716847
20
6.33881395290351
30
0
41
1
10
77.6325047323959
20
6.34178286007466
30
0
41
1
10
77.4275774796876
20
6.34169777062604
30
0
0
SPLINE
5
C1
100
AcDbEntity
8
1
62
256
6
ByLayer
370
18
48
1
60
0
100
AcDbSpline
70
4
71
3
72
154
73
150
40
0
40
0
40
0
40
0
40
0.0033679207896579
40
0.0033679207896579
40
0.0205512325001805
40
0.0205512325001805
40
0.0377345442107029
40
0.0377345442107029
40
0.0549178559212255
40
0.0549178559212255
40
0.0635095117764872
40
0.0635095117764872
40
0.0721011676317488
40
0.0721011676317488
40
0.0892844793422722
40
0.0892844793422722
40
0.106467791052796
40
0.106467791052796
40
0.123651102763319
40
0.123651102763319
40
0.140834414473843
40
0.140834414473843
40
0.158017726184366
40
0.158017726184366
40
0.175201037894889
40
0.175201037894889
40
0.192384349605413
40
0.192384349605413
40
0.196680177533044
40
0.196680177533044
40
0.200976005460674
40
0.200976005460674
40
0.209567661315935
40
0.209567661315935
40
0.226750973026457
40
0.226750973026457
40
0.243934284736979
40
0.243934284736979
40
0.25252594059224
40
0.25252594059224
40
0.261117596447501
40
0.261117596447501
40
0.278300908158024
40
0.278300908158024
40
0.295484219868547
40
0.295484219868547
40
0.31266753157907
40
0.31266753157907
40
0.329850843289592
40
0.329850843289592
40
0.347034155000115
40
0.347034155000115
40
0.364217466710637
40
0.364217466710637
40
0.372809122565898
40
0.372809122565898
40
0.381400778421159
40
0.381400778421159
40
0.389992434276421
40
0.389992434276421
40
0.394288262204051
40
0.394288262204051
40
0.398584090131682
40
0.415767401842203
40
0.415767401842203
40
0.432950713552725
40
0.432950713552725
40
0.441542369407986
40
0.441542369407986
40
0.450134025263247
40
0.450134025263247
40
0.467317336973769
40
0.467317336973769
40
0.484500648684291
40
0.484500648684291
40
0.501683960394813
40
0.501683960394813
40
0.518867272105335
40
0.518867272105335
40
0.536050583815857
40
0.536050583815857
40
0.553233895526379
40
0.553233895526379
40
0.56182555138164
40
0.56182555138164
40
0.570417207236902
40
0.570417207236902
40
0.587600518947424
40
0.587600518947424
40
0.596192174802685
40
0.596192174802685
40
0.604783830657946
40
0.604783830657946
40
0.621967142368468
40
0.621967142368468
40
0.630558798223729
40
0.630558798223729
40
0.639150454078991
40
0.639150454078991
40
0.656333765789514
40
0.656333765789514
40
0.673517077500036
40
0.673517077500036
40
0.690700389210559
40
0.690700389210559
40
0.707883700921082
40
0.707883700921082
40
0.725067012631604
40
0.725067012631604
40
0.742250324342127
40
0.742250324342127
40
0.750841980197388
40
0.750841980197388
40
0.759433636052649
40
0.759433636052649
40
0.776616947763171
40
0.776616947763171
40
0.785208603618432
40
0.789504431546063
40
0.789504431546063
40
0.793800259473694
40
0.793800259473694
40
0.81098357118422
40
0.81098357118422
40
0.828166882894746
40
0.828166882894746
40
0.845350194605272
40
0.845350194605272
40
0.862533506315798
40
0.862533506315798
40
0.871125162171061
40
0.871125162171061
40
0.879716818026324
40
0.879716818026324
40
0.896900129736849
40
0.896900129736849
40
0.914083441447374
40
0.914083441447374
40
0.931266753157898
40
0.931266753157898
40
0.939858409013161
40
0.939858409013161
40
0.948450064868424
40
0.948450064868424
40
0.965633376578949
40
0.965633376578949
40
0.982816688289475
40
0.982816688289475
40
1
40
1
40
1
40
1
41
1
10
51.0764442593182
20
-4.22211984998455
30
0
41
1
10
51.0307102207436
20
-4.24097925886323
30
0
41
1
10
50.9849992268171
20
-4.25973202325918
30
0
41
1
10
50.70619653356
20
-4.37349486095729
30
0
41
1
10
50.4736029065745
20
-4.46572274810572
30
0
41
1
10
50.0089411883548
20
-4.64382432633809
30
0
41
1
10
49.7769264636412
20
-4.72978182073931
30
0
41
1
10
49.3137742313934
20
-4.89588236214311
30
0
41
1
10
49.0826709174071
20
-4.97605369793544
30
0
41
1
10
48.7363129246187
20
-5.09151416781538
30
0
41
1
10
48.6209062219053
20
-5.12919858846575
30
0
41
1
10
48.3900982639985
20
-5.20287915877384
30
0
41
1
10
48.2747017121011
20
-5.23888123241008
30
0
41
1
10
47.9285641488355
20
-5.34441953389086
30
0
41
1
10
47.6978779938321
20
-5.41149598264386
30
0
41
1
10
47.2368771087702
20
-5.53928573570431
30
0
41
1
10
47.0065265185201
20
-5.59995231073373
30
0
41
1
10
46.5455213306481
20
-5.71428096240609
30
0
41
1
10
46.3147958084108
20
-5.76789490419725
30
0
41
1
10
45.8529570277931
20
-5.86809797085576
30
0
41
1
10
45.6219024587625
20
-5.91472947173116
30
0
41
1
10
45.1595346530225
20
-6.00097086403724
30
0
41
1
10
44.9281732097707
20
-6.04053874159584
30
0
41
1
10
44.4644254898229
20
-6.11213910673521
30
0
41
1
10
44.2320340156969
20
-6.1441835396441
30
0
41
1
10
43.7664027814964
20
-6.20080927920145
30
0
41
1
10
43.5332326100347
20
-6.22541214320947
30
0
41
1
10
43.2411428352753
20
-6.25136233814249
30
0
41
1
10
43.1827014515414
20
-6.25631046307271
30
0
41
1
10
43.0659323765508
20
-6.265706045136
30
0
41
1
10
43.0075814189865
20
-6.27015560148027
30
0
41
1
10
42.832612536397
20
-6.2827586613671
30
0
41
1
10
42.7160712889018
20
-6.29016480110457
30
0
41
1
10
42.3667134109936
20
-6.30942093551445
30
0
41
1
10
42.1341784815434
20
-6.31832050258919
30
0
41
1
10
41.6700808879288
20
-6.32836344492483
30
0
41
1
10
41.4385664294537
20
-6.32949565439628
30
0
41
1
10
41.0917039864542
20
-6.32536462042461
30
0
41
1
10
40.9761479858491
20
-6.32301715499608
30
0
41
1
10
40.7450754807871
20
-6.31640105088624
30
0
41
1
10
40.6295597699258
20
-6.31213335810097
30
0
41
1
10
40.2831032882766
20
-6.29646852944458
30
0
41
1
10
40.0522505720161
20
-6.28221645570034
30
0
41
1
10
39.5910309153967
20
-6.24603785652488
30
0
41
1
10
39.3606372295106
20
-6.22410293120495
30
0
41
1
10
38.8996902570105
20
-6.17271493074202
30
0
41
1
10
38.669061845132
20
-6.14330070968185
30
0
41
1
10
38.2075063773407
20
-6.07707531884552
30
0
41
1
10
37.9766358117149
20
-6.04023815176447
30
0
41
1
10
37.514776042171
20
-5.95899379203362
30
0
41
1
10
37.2837376313166
20
-5.91460214187859
30
0
41
1
10
36.8207859714447
20
-5.81866592707456
30
0
41
1
10
36.5888469209681
20
-5.7671553626019
30
0
41
1
10
36.2403776532269
20
-5.68445353189827
30
0
41
1
10
36.1241311073469
20
-5.65597628127122
30
0
41
1
10
35.8914861545137
20
-5.59715813083571
30
0
41
1
10
35.7750816956638
20
-5.56682159342222
30
0
41
1
10
35.5420410912239
20
-5.5043348641552
30
0
41
1
10
35.4254060128354
20
-5.47218347670963
30
0
41
1
10
35.2502175254503
20
-5.42264634800594
30
0
41
1
10
35.1917584409454
20
-5.40590899384714
30
0
41
1
10
35.0748788435276
20
-5.37204632865243
30
0
41
1
10
34.7828134917148
20
-5.28643273997588
30
0
41
1
10
34.4914127871362
20
-5.19607925854658
30
0
41
1
10
34.0262394679256
20
-5.04528049388477
30
0
41
1
10
33.7942452971078
20
-4.96668944397751
30
0
41
1
10
33.4467764608581
20
-4.84445309459349
30
0
41
1
10
33.331036466146
20
-4.80298815374809
30
0
41
1
10
33.0996325136165
20
-4.71873794212036
30
0
41
1
10
32.9839647542389
20
-4.6759580188947
30
0
41
1
10
32.6370899199609
20
-4.5456367232558
30
0
41
1
10
32.4060058500444
20
-4.45612505721667
30
0
41
1
10
31.9444311656888
20
-4.27150514036239
30
0
41
1
10
31.7139254826801
20
-4.17640729504598
30
0
41
1
10
31.2528966470089
20
-3.98143134081187
30
0
41
1
10
31.0222965627774
20
-3.88166827394303
30
0
41
1
10
30.5608864851542
20
-3.6776867589532
30
0
41
1
10
30.3301308708355
20
-3.57338949316218
30
0
41
1
10
29.8686349443903
20
-3.35996093959881
30
0
41
1
10
29.6378457872051
20
-3.25089657362491
30
0
41
1
10
29.1755398023703
20
-3.02907049236632
30
0
41
1
10
28.9439808205181
20
-2.91638674476002
30
0
41
1
10
28.5961541130844
20
-2.74450028849125
30
0
41
1
10
28.4801331738295
20
-2.68672278954094
30
0
41
1
10
28.2479691424259
20
-2.57013261131652
30
0
41
1
10
28.1318227343238
20
-2.5113250469322
30
0
41
1
10
27.7830897049295
20
-2.33352298555428
30
0
41
1
10
27.5502087942206
20
-2.21314540565015
30
0
41
1
10
27.199822449548
20
-2.03064671377678
30
0
41
1
10
27.0827713176107
20
-1.96942472426383
30
0
41
1
10
26.8490166453776
20
-1.84660410084805
30
0
41
1
10
26.7322702101866
20
-1.78498437046511
30
0
41
1
10
26.3824746454821
20
-1.59940088491706
30
0
41
1
10
26.1499265374248
20
-1.47460602211831
30
0
41
1
10
25.8017423493762
20
-1.28643038572252
30
0
41
1
10
25.6857822501914
20
-1.22355064668361
30
0
41
1
10
25.4539752160516
20
-1.09764830257856
30
0
41
1
10
25.338121556399
20
-1.03463819301126
30
0
41
1
10
24.9907255637578
20
-0.845401394455024
30
0
41
1
10
24.7593443857439
20
-0.71897511577501
30
0
41
1
10
24.2972788779804
20
-0.465092841643212
30
0
41
1
10
24.0665938234188
20
-0.337638733286639
30
0
41
1
10
23.6053486167618
20
-0.0827630892358684
30
0
41
1
10
23.3747117782815
20
0.0445166263536123
30
0
41
1
10
22.9133189776225
20
0.298594581881758
30
0
41
1
10
22.6826156592151
20
0.425490347324825
30
0
41
1
10
22.2213544861257
20
0.679287898836293
30
0
41
1
10
21.9907498031142
20
0.806102746710195
30
0
41
1
10
21.5289591793019
20
1.05839632250647
30
0
41
1
10
21.2977186150755
20
1.18377493203414
30
0
41
1
10
20.9504411571766
20
1.3708770904237
30
0
41
1
10
20.8346155847618
20
1.4330890276465
30
0
41
1
10
20.6028687678476
20
1.55726978593114
30
0
41
1
10
20.4869484025423
20
1.61924018701015
30
0
41
1
10
20.1389467844126
20
1.80460766096698
30
0
41
1
10
19.9066304393794
20
1.92747070282081
30
0
41
1
10
19.5571908134399
20
2.10978921079027
30
0
41
1
10
19.3822426334305
20
2.20047821808646
30
0
41
1
10
19.2069736735882
20
2.29050144769968
30
0
41
1
10
19.0900598395538
20
2.35037517348602
30
0
41
1
10
19.0315446725062
20
2.38025374611627
30
0
41
1
10
18.7391744227777
20
2.52912714100327
30
0
41
1
10
18.5060030149631
20
2.64666807488877
30
0
41
1
10
18.0407103756213
20
2.87795326523565
30
0
41
1
10
17.8085292759447
20
2.99159250286033
30
0
41
1
10
17.3446419470735
20
3.21419250657453
30
0
41
1
10
17.1129892194586
20
3.3232516752881
30
0
41
1
10
16.6505208777436
20
3.53734004411916
30
0
41
1
10
16.4197219265556
20
3.64238480128719
30
0
41
1
10
16.0737574362546
20
3.79631075248767
30
0
41
1
10
15.9584702931841
20
3.84700643055058
30
0
41
1
10
15.7278872490408
20
3.94706576705599
30
0
41
1
10
15.6125982468079
20
3.99644015970583
30
0
41
1
10
15.2667689690151
20
4.14265155341914
30
0
41
1
10
15.0362756538004
20
4.23759370768988
30
0
41
1
10
14.5756049053794
20
4.42266337950821
30
0
41
1
10
14.3453849464446
20
4.51272308073211
30
0
41
1
10
13.8845568997502
20
4.68706706576523
30
0
41
1
10
13.6538842673463
20
4.77127830237657
30
0
41
1
10
13.3075609117776
20
4.89325928674609
30
0
41
1
10
13.1920713305103
20
4.93320116232064
30
0
41
1
10
12.9610319310401
20
5.01168364951576
30
0
41
1
10
12.8454870174713
20
5.05022930405468
30
0
41
1
10
12.4986852864434
20
5.16365889250767
30
0
41
1
10
12.2672695874647
20
5.2363391905877
30
0
41
1
10
11.8033476574904
20
5.37507666525897
30
0
41
1
10
11.5708579416441
20
5.44116232159544
30
0
41
1
10
11.1049913364127
20
5.56689514745111
30
0
41
1
10
10.8716119122164
20
5.62654082869344
30
0
41
1
10
10.6378839510512
20
5.68297553945135
30
0
0
SPLINE
5
C2
100
AcDbEntity
8
1
62
256
6
ByLayer
370
18
48
1
60
0
100
AcDbSpline
70
4
71
3
72
26
73
22
40
0
40
0
40
0
40
0
40
0.132082941415691
40
0.132082941415691
40
0.264165882831381
40
0.264165882831381
40
0.396248824247072
40
0.396248824247072
40
0.528331765662763
40
0.528331765662763
40
0.561352501016685
40
0.561352501016685
40
0.594373236370608
40
0.594373236370608
40
0.660414707078454
40
0.660414707078454
40
0.792497648494144
40
0.792497648494144
40
0.924580589909835
40
0.924580589909835
40
1
40
1
40
1
40
1
41
1
10
22.1362429644296
20
6.16367672262777
30
0
41
1
10
21.8266329385609
20
6.12302103498391
30
0
41
1
10
21.5172732176831
20
6.07486228712636
30
0
41
1
10
20.8984398322318
20
5.96429057058873
30
0
41
1
10
20.588962189508
20
5.90187478053247
30
0
41
1
10
19.9690861896861
20
5.76369552334299
30
0
41
1
10
19.6587008984386
20
5.68791421787438
30
0
41
1
10
19.0358677483542
20
5.52434775901233
30
0
41
1
10
18.7234179038389
20
5.43655075565525
30
0
41
1
10
18.3304885018585
20
5.32074463240613
30
0
41
1
10
18.251783196373
20
5.29728304949271
30
0
41
1
10
18.0941042144082
20
5.24980512460854
30
0
41
1
10
18.0151001571348
20
5.22577945077836
30
0
41
1
10
17.777891211389
20
5.15301957114875
30
0
41
1
10
17.6195307498385
20
5.10361589707259
30
0
41
1
10
17.1435031813134
20
4.95336520808919
30
0
41
1
10
16.824887110788
20
4.85047107023735
30
0
41
1
10
16.1837508917541
20
4.64283445548367
30
0
41
1
10
15.8612335448654
20
4.53808798485574
30
0
41
1
10
15.3503929816506
20
4.3752450864327
30
0
41
1
10
15.163855576775
20
4.31641649647486
30
0
41
1
10
14.9763269043702
20
4.25834548476166
30
0
0
SPLINE
5
C3
100
AcDbEntity
8
1
62
256
6
ByLayer
370
18
48
1
60
0
100
AcDbSpline
70
4
71
3
72
19
73
15
40
0
40
0
40
0
40
0
40
0.196141457103458
40
0.196141457103458
40
0.24638261603449
40
0.24638261603449
40
0.296623774965522
40
0.397106092827588
40
0.397106092827588
40
0.598070728551726
40
0.598070728551726
40
0.799035364275863
40
0.799035364275863
40
1
40
1
40
1
40
1
41
1
10
6.19093246063539
20
6.31498356023829
30
0
41
1
10
6.46325488549547
20
6.31498013543799
30
0
41
1
10
6.74090114575361
20
6.30449083665692
30
0
41
1
10
7.09610898394149
20
6.2800000237749
30
0
41
1
10
7.16892413364425
20
6.27440895257337
30
0
41
1
10
7.31498790002959
20
6.26210293482399
30
0
41
1
10
7.53461202192673
20
6.24196999793594
30
0
41
1
10
7.75580300681418
20
6.21705610860803
30
0
41
1
10
8.20021446793581
20
6.16140538007721
30
0
41
1
10
8.49919759685687
20
6.11656565047596
30
0
41
1
10
9.10218537374604
20
6.01367717187813
30
0
41
1
10
9.40618868427529
20
5.95562318139395
30
0
41
1
10
10.018744506745
20
5.82783209861771
30
0
41
1
10
10.3272956549797
20
5.75809135023817
30
0
41
1
10
10.6378692100959
20
5.68297307401636
30
0
0
SPLINE
5
C4
100
AcDbEntity
8
1
62
256
6
ByLayer
370
18
48
1
60
0
100
AcDbSpline
70
4
71
3
72
136
73
132
40
0
40
0
40
0
40
0
40
0.0313764860536617
40
0.0313764860536617
40
0.0470647290804922
40
0.0470647290804922
40
0.0627529721073226
40
0.0627529721073226
40
0.078441215134153
40
0.078441215134153
40
0.0941294581609835
40
0.0941294581609835
40
0.109817701187814
40
0.109817701187814
40
0.125505944214644
40
0.125505944214644
40
0.141194187241475
40
0.141194187241475
40
0.156882430268305
40
0.156882430268305
40
0.188258916321966
40
0.188258916321966
40
0.203947159348796
40
0.203947159348796
40
0.211791280862211
40
0.211791280862211
40
0.219635402375626
40
0.219635402375626
40
0.235323645402456
40
0.235323645402456
40
0.251011888429285
40
0.251011888429285
40
0.266700131456114
40
0.266700131456114
40
0.282388374482943
40
0.282388374482943
40
0.298076617509772
40
0.298076617509772
40
0.313764860536602
40
0.313764860536602
40
0.329453103563431
40
0.329453103563431
40
0.34514134659026
40
0.34514134659026
40
0.360829589617089
40
0.360829589617089
40
0.376517832643919
40
0.376517832643919
40
0.392206075670748
40
0.392206075670748
40
0.407894318697577
40
0.407894318697577
40
0.415738440210992
40
0.415738440210992
40
0.423582561724406
40
0.423582561724406
40
0.439270804751235
40
0.439270804751235
40
0.454959047778063
40
0.454959047778063
40
0.470647290804891
40
0.470647290804891
40
0.48633553383172
40
0.48633553383172
40
0.502023776858548
40
0.502023776858548
40
0.517712019885377
40
0.517712019885377
40
0.533400262912205
40
0.533400262912205
40
0.549088505939034
40
0.549088505939034
40
0.564776748965862
40
0.564776748965862
40
0.58046499199269
40
0.58046499199269
40
0.596153235019519
40
0.596153235019519
40
0.611841478046347
40
0.611841478046347
40
0.619685599559762
40
0.619685599559762
40
0.627529721073176
40
0.627529721073176
40
0.643217964100006
40
0.643217964100006
40
0.658906207126835
40
0.658906207126835
40
0.674594450153664
40
0.674594450153664
40
0.690282693180493
40
0.690282693180493
40
0.705970936207322
40
0.705970936207322
40
0.721659179234151
40
0.721659179234151
40
0.737347422260981
40
0.737347422260981
40
0.75303566528781
40
0.75303566528781
40
0.768723908314639
40
0.768723908314639
40
0.784412151341468
40
0.784412151341468
40
0.800100394368298
40
0.800100394368298
40
0.815788637395127
40
0.815788637395127
40
0.831476880421956
40
0.831476880421956
40
0.839321001935371
40
0.839321001935371
40
0.847165123448785
40
0.847165123448785
40
0.862853366475614
40
0.862853366475614
40
0.878541609502442
40
0.878541609502442
40
0.909918095556098
40
0.909918095556098
40
0.925606338582926
40
0.925606338582926
40
0.941294581609754
40
0.941294581609754
40
0.956982824636582
40
0.956982824636582
40
0.97267106766341
40
0.97267106766341
40
0.988359310690238
40
0.988359310690238
40
1
40
1
40
1
40
1
41
1
10
22.1362175972167
20
6.16367890373257
30
0
41
1
10
22.5428706343548
20
6.21386953198896
30
0
41
1
10
22.9487921467303
20
6.25171226434324
30
0
41
1
10
23.555362299732
20
6.29106955969004
30
0
41
1
10
23.7571062746531
20
6.30127311295593
30
0
41
1
10
24.1600552953481
20
6.31578005381877
30
0
41
1
10
24.3613063261024
20
6.32007701194109
30
0
41
1
10
24.763779700534
20
6.32281250706328
30
0
41
1
10
24.9649802937664
20
6.32126347554583
30
0
41
1
10
25.3669916206888
20
6.31235843790412
30
0
41
1
10
25.5677765428469
20
6.30499244949519
30
0
41
1
10
25.969078725791
20
6.28440651652122
30
0
41
1
10
26.1696575224516
20
6.27119253392522
30
0
41
1
10
26.571137468919
20
6.23905782230088
30
0
41
1
10
26.7720728130144
20
6.22015883362067
30
0
41
1
10
27.174021670481
20
6.1766243208063
30
0
41
1
10
27.3750157562736
20
6.15197688339916
30
0
41
1
10
27.7770347901019
20
6.09683768333272
30
0
41
1
10
27.9781212124958
20
6.06636593844331
30
0
41
1
10
28.5823693790781
20
5.96660136839549
30
0
41
1
10
28.9867211048212
20
5.88918651303135
30
0
41
1
10
29.5943240537763
20
5.75559526219848
30
0
41
1
10
29.7970881651426
20
5.70816176643541
30
0
41
1
10
30.101996359776
20
5.63293970535989
30
0
41
1
10
30.2038118926849
20
5.60717087681491
30
0
41
1
10
30.4072041992778
20
5.55446283454725
30
0
41
1
10
30.5088326857138
20
5.5275107325127
30
0
41
1
10
30.8134510888768
20
5.4448164987368
30
0
41
1
10
31.016158327404
20
5.38722357471164
30
0
41
1
10
31.4206577311142
20
5.26695469351884
30
0
41
1
10
31.6224371036987
20
5.20425686757798
30
0
41
1
10
32.0256201728655
20
5.07435190726872
30
0
41
1
10
32.2270471255739
20
5.00717466242995
30
0
41
1
10
32.6297757548838
20
4.86867051050072
30
0
41
1
10
32.8310055201428
20
4.79726428393366
30
0
41
1
10
33.2329686336649
20
4.64987250106589
30
0
41
1
10
33.4336636199814
20
4.57383167473762
30
0
41
1
10
33.8349620791566
20
4.41765076301476
30
0
41
1
10
34.0355928179293
20
4.33754748718383
30
0
41
1
10
34.4371832559582
20
4.17384517713822
30
0
41
1
10
34.6380884290013
20
4.09017872390416
30
0
41
1
10
35.0398297579543
20
3.9188051782599
30
0
41
1
10
35.240631973296
20
3.83104296021458
30
0
41
1
10
35.6424021529956
20
3.65176087917959
30
0
41
1
10
35.8434187034995
20
3.56031234714183
30
0
41
1
10
36.2461499616168
20
3.37447692363296
30
0
41
1
10
36.4478654902081
20
3.28010003077478
30
0
41
1
10
36.8516642139795
20
3.08788220396008
30
0
41
1
10
37.0537268404044
20
2.99000256131086
30
0
41
1
10
37.4583010420705
20
2.79082557840124
30
0
41
1
10
37.6608771089812
20
2.68963384437478
30
0
41
1
10
37.9655355346264
20
2.53605005397483
30
0
41
1
10
38.0672258309898
20
2.48456642726771
30
0
41
1
10
38.2708674864936
20
2.38099626609218
30
0
41
1
10
38.372606909225
20
2.32900762380319
30
0
41
1
10
38.6774746409838
20
2.17233671732842
30
0
41
1
10
38.8802583926686
20
2.0669168519251
30
0
41
1
10
39.2848741053844
20
1.85407927164076
30
0
41
1
10
39.4867644578806
20
1.74676771927562
30
0
41
1
10
39.8902243087993
20
1.53130123091293
30
0
41
1
10
40.0918400000707
20
1.423231270164
30
0
41
1
10
40.4947063142693
20
1.20617178536835
30
0
41
1
10
40.6959140459035
20
1.09710360737938
30
0
41
1
10
41.0977392324024
20
0.877633485001439
30
0
41
1
10
41.2983836375984
20
0.767280588185542
30
0
41
1
10
41.6996924688358
20
0.546363107315557
30
0
41
1
10
41.9003907472375
20
0.435861216866954
30
0
41
1
10
42.3019419869257
20
0.214897505673065
30
0
41
1
10
42.5027271044045
20
0.104310614942364
30
0
41
1
10
42.9041260046252
20
-0.117426566841516
30
0
41
1
10
43.1047146280943
20
-0.228623913574381
30
0
41
1
10
43.5062190771097
20
-0.450661555278799
30
0
41
1
10
43.7071558098604
20
-0.561462888123287
30
0
41
1
10
44.1096619084599
20
-0.782139731534841
30
0
41
1
10
44.3111615671812
20
-0.892144430644549
30
0
41
1
10
44.7144083692848
20
-1.11194587559123
30
0
41
1
10
44.9161166791679
20
-1.22181543932416
30
0
41
1
10
45.3201363838599
20
-1.4406885969521
30
0
41
1
10
45.5224815672659
20
-1.54962909231205
30
0
41
1
10
45.8268020782748
20
-1.71173557399214
30
0
41
1
10
45.9283672824276
20
-1.76557000301582
30
0
41
1
10
46.1317040038959
20
-1.87291884341113
30
0
41
1
10
46.2335433393648
20
-1.92647356290357
30
0
41
1
10
46.5387721966878
20
-2.08644216020104
30
0
41
1
10
46.7417002301409
20
-2.19217259701989
30
0
41
1
10
47.1467054338181
20
-2.40132420453543
30
0
41
1
10
47.3488351400436
20
-2.50464913434212
30
0
41
1
10
47.7527975174398
20
-2.70806820389347
30
0
41
1
10
47.9546403234515
20
-2.80815296972565
30
0
41
1
10
48.3577198817302
20
-3.00567668692898
30
0
41
1
10
48.5589370012968
20
-3.10314400703609
30
0
41
1
10
48.9608109962768
20
-3.29533251794459
30
0
41
1
10
49.1615325250276
20
-3.38994571484889
30
0
41
1
10
49.5630311466732
20
-3.57547033744694
30
0
41
1
10
49.7638526128056
20
-3.6663205251684
30
0
41
1
10
50.1653847404976
20
-3.84461811863301
30
0
41
1
10
50.3660680345381
20
-3.93210441640124
30
0
41
1
10
50.7671952245401
20
-4.10382497557623
30
0
41
1
10
50.967690528824
20
-4.18797984727462
30
0
41
1
10
51.3690698035249
20
-4.35213881561745
30
0
41
1
10
51.5699963474824
20
-4.43209060553525
30
0
41
1
10
51.9722545741848
20
-4.58785183977824
30
0
41
1
10
52.1735330662033
20
-4.66373182994258
30
0
41
1
10
52.5762318239616
20
-4.81164162931154
30
0
41
1
10
52.7776574591638
20
-4.8836571927543
30
0
41
1
10
53.1812337584094
20
-5.02307261201429
30
0
41
1
10
53.3834117229958
20
-5.09044462478218
30
0
41
1
10
53.7886863205477
20
-5.22036178900294
30
0
41
1
10
53.99171094865
20
-5.28299135103481
30
0
41
1
10
54.2966829193845
20
-5.37355326126681
30
0
41
1
10
54.3984586230327
20
-5.40319337282804
30
0
41
1
10
54.6016403449686
20
-5.46113102352717
30
0
41
1
10
54.7031089696797
20
-5.48944302750428
30
0
41
1
10
55.0072572655598
20
-5.57231416423309
30
0
41
1
10
55.2096945669282
20
-5.62479313798724
30
0
41
1
10
55.6142166018478
20
-5.7240664738591
30
0
41
1
10
55.8162349651054
20
-5.77092632777936
30
0
41
1
10
56.421180998874
20
-5.90353463157285
30
0
41
1
10
56.8227967717494
20
-5.98134920842804
30
0
41
1
10
57.4254848307391
20
-6.0805692300913
30
0
41
1
10
57.6263855569868
20
-6.11077611542771
30
0
41
1
10
58.0278825847127
20
-6.16563996767226
30
0
41
1
10
58.2284515227813
20
-6.19030116850772
30
0
41
1
10
58.6294351128177
20
-6.23394498795244
30
0
41
1
10
58.8299082474335
20
-6.25290256516752
30
0
41
1
10
59.2312699812816
20
-6.2849735540037
30
0
41
1
10
59.4321863971842
20
-6.29809189753837
30
0
41
1
10
59.834167248561
20
-6.31857831261144
30
0
41
1
10
60.0352133125309
20
-6.32594417757454
30
0
41
1
10
60.3855496430917
20
-6.33368307819362
30
0
41
1
10
60.5348456326125
20
-6.33536297509119
30
0
41
1
10
60.68431577223
20
-6.3354186501715
30
0
0
SPLINE
5
C5
100
AcDbEntity
8
1
62
256
6
ByLayer
370
18
48
1
60
0
100
AcDbSpline
70
4
71
3
72
48
73
44
40
0
40
0
40
0
40
0
40
0.0325077484456412
40
0.0325077484456412
40
0.0808823610233567
40
0.0808823610233567
40
0.129256973601072
40
0.129256973601072
40
0.226006198756508
40
0.226006198756508
40
0.274380811334227
40
0.274380811334227
40
0.322755423911945
40
0.322755423911945
40
0.371130036489663
40
0.371130036489663
40
0.419504649067381
40
0.419504649067381
40
0.467879261645099
40
0.467879261645099
40
0.516253874222818
40
0.516253874222818
40
0.564628486800536
40
0.564628486800536
40
0.613003099378255
40
0.613003099378255
40
0.661377711955973
40
0.661377711955973
40
0.685565018244832
40
0.685565018244832
40
0.70975232453369
40
0.70975232453369
40
0.758126937111408
40
0.758126937111408
40
0.806501549689127
40
0.806501549689127
40
0.854876162266845
40
0.854876162266845
40
0.903250774844564
40
0.903250774844564
40
0.951625387422282
40
0.951625387422282
40
1
40
1
40
1
40
1
41
1
10
87.0465466269912
20
4.23348568920301
30
0
41
1
10
87.1827899710699
20
4.28982898158094
30
0
41
1
10
87.3188131755103
20
4.34526337595625
30
0
41
1
10
87.6569087667802
20
4.48064562047185
30
0
41
1
10
87.8588367098571
20
4.55932413512144
30
0
41
1
10
88.2624255431166
20
4.71180427064513
30
0
41
1
10
88.4640181447782
20
4.78570191258274
30
0
41
1
10
89.0678116958067
20
5.00087921084918
30
0
41
1
10
89.4688355540808
20
5.13577719007387
30
0
41
1
10
90.0708716396745
20
5.32234584018542
30
0
41
1
10
90.2715916110326
20
5.3819740679061
30
0
41
1
10
90.6728022177035
20
5.49643128620858
30
0
41
1
10
90.873264541917
20
5.55127986391915
30
0
41
1
10
91.2741156832497
20
5.65597009624437
30
0
41
1
10
91.4745629863496
20
5.7057576507934
30
0
41
1
10
91.8759595595135
20
5.79985774279018
30
0
41
1
10
92.0769360513542
20
5.84416002976599
30
0
41
1
10
92.4791201844476
20
5.92751612966981
30
0
41
1
10
92.6803097929987
20
5.96657769548804
30
0
41
1
10
93.0829092292883
20
6.03936644158537
30
0
41
1
10
93.2843826385971
20
6.07304780828318
30
0
41
1
10
93.6881748535389
20
6.13467338252323
30
0
41
1
10
93.8905391531947
20
6.16260418527511
30
0
41
1
10
94.2960073388726
20
6.21278629764905
30
0
41
1
10
94.4991246574264
20
6.2350562743438
30
0
41
1
10
94.9057378644752
20
6.27384112309224
30
0
41
1
10
95.1086641042222
20
6.29027328999726
30
0
41
1
10
95.4129054040319
20
6.31039699587373
30
0
41
1
10
95.5142919428711
20
6.31635286256136
30
0
41
1
10
95.7170624002747
20
6.32676383150991
30
0
41
1
10
95.8184418473466
20
6.33122048073298
30
0
41
1
10
96.1224938207764
20
6.34236744767802
30
0
41
1
10
96.3250643389111
20
6.34683947357939
30
0
41
1
10
96.729771435963
20
6.3498506739497
30
0
41
1
10
96.9319073372406
20
6.34837768829618
30
0
41
1
10
97.3363297824153
20
6.33947250098998
30
0
41
1
10
97.538643509832
20
6.33204921326598
30
0
41
1
10
97.9436312387221
20
6.31133588062693
30
0
41
1
10
98.1462307532263
20
6.29803922586652
30
0
41
1
10
98.5514224711359
20
6.26547164996401
30
0
41
1
10
98.753979696719
20
6.24617905215388
30
0
41
1
10
99.1595615061831
20
6.20167657573316
30
0
41
1
10
99.3626113732076
20
6.17647940727053
30
0
41
1
10
99.5660815622604
20
6.14841335096514
30
0
0
SPLINE
5
C6
100
AcDbEntity
8
1
62
256
6
ByLayer
370
18
48
1
60
0
100
AcDbSpline
70
4
71
3
72
172
73
168
40
0
40
0
40
0
40
0
40
0.0147807324321166
40
0.0147807324321166
40
0.0300185953643237
40
0.0300185953643237
40
0.0452564582965309
40
0.0452564582965309
40
0.060494321228738
40
0.060494321228738
40
0.0757321841609452
40
0.0757321841609452
40
0.0833511156270487
40
0.0833511156270487
40
0.0909700470931523
40
0.0909700470931523
40
0.106207910025359
40
0.106207910025359
40
0.121445772957567
40
0.121445772957567
40
0.129064704423669
40
0.129064704423669
40
0.136683635889772
40
0.136683635889772
40
0.151921498821978
40
0.151921498821978
40
0.167159361754184
40
0.167159361754184
40
0.18239722468639
40
0.18239722468639
40
0.197635087618595
40
0.197635087618595
40
0.212872950550801
40
0.212872950550801
40
0.228110813483007
40
0.228110813483007
40
0.235729744949109
40
0.235729744949109
40
0.243348676415212
40
0.243348676415212
40
0.250967607881315
40
0.250967607881315
40
0.254777073614366
40
0.254777073614366
40
0.258586539347416
40
0.273824402279621
40
0.273824402279621
40
0.289062265211825
40
0.289062265211825
40
0.296681196677927
40
0.296681196677927
40
0.30430012814403
40
0.30430012814403
40
0.319537991076234
40
0.319537991076234
40
0.334775854008438
40
0.334775854008438
40
0.350013716940643
40
0.350013716940643
40
0.365251579872847
40
0.365251579872847
40
0.380489442805051
40
0.380489442805051
40
0.395727305737256
40
0.395727305737256
40
0.403346237203358
40
0.403346237203358
40
0.410965168669461
40
0.410965168669461
40
0.426203031601666
40
0.426203031601666
40
0.433821963067768
40
0.433821963067768
40
0.44144089453387
40
0.44144089453387
40
0.456678757466074
40
0.456678757466074
40
0.464297688932175
40
0.464297688932175
40
0.471916620398277
40
0.471916620398277
40
0.48715448333048
40
0.48715448333048
40
0.502392346262684
40
0.502392346262684
40
0.517630209194888
40
0.517630209194888
40
0.532868072127091
40
0.532868072127091
40
0.548105935059295
40
0.548105935059295
40
0.563343797991498
40
0.563343797991498
40
0.5709627294576
40
0.5709627294576
40
0.578581660923702
40
0.578581660923702
40
0.593819523855906
40
0.593819523855906
40
0.601438455322007
40
0.605247921055058
40
0.605247921055058
40
0.609057386788109
40
0.609057386788109
40
0.624295249720312
40
0.624295249720312
40
0.639533112652515
40
0.639533112652515
40
0.654770975584718
40
0.654770975584718
40
0.670008838516921
40
0.670008838516921
40
0.677627769983022
40
0.677627769983022
40
0.685246701449123
40
0.685246701449123
40
0.700484564381325
40
0.700484564381325
40
0.715722427313528
40
0.715722427313528
40
0.73096029024573
40
0.73096029024573
40
0.738579221711831
40
0.738579221711831
40
0.746198153177932
40
0.746198153177932
40
0.761436016110135
40
0.761436016110135
40
0.776673879042338
40
0.776673879042338
40
0.784292810508439
40
0.784292810508439
40
0.79191174197454
40
0.79191174197454
40
0.807149604906742
40
0.807149604906742
40
0.822387467838945
40
0.822387467838945
40
0.837625330771147
40
0.837625330771147
40
0.845244262237248
40
0.845244262237248
40
0.852863193703349
40
0.852863193703349
40
0.868101056635552
40
0.868101056635552
40
0.883338919567755
40
0.883338919567755
40
0.898576782499958
40
0.898576782499958
40
0.913814645432161
40
0.913814645432161
40
0.929052508364364
40
0.929052508364364
40
0.944290371296567
40
0.944290371296567
40
0.95952823422877
40
0.95952823422877
40
0.96333769996182
40
0.96333769996182
40
0.967147165694871
40
0.967147165694871
40
0.974766097160972
40
0.974766097160972
40
0.990003960093174
40
0.990003960093174
40
1
40
1
40
1
40
1
41
1
10
87.0466454747751
20
-4.23640937272731
30
0
41
1
10
86.8231179256601
20
-4.32865053993254
30
0
41
1
10
86.5993778183096
20
-4.41829921398758
30
0
41
1
10
86.1446204133764
20
-4.59522375420735
30
0
41
1
10
85.9136515020517
20
-4.68241701938177
30
0
41
1
10
85.4514438603783
20
-4.85148783419339
30
0
41
1
10
85.2201578783609
20
-4.93329915910826
30
0
41
1
10
84.7565537602372
20
-5.09064793929318
30
0
41
1
10
84.524239340996
20
-5.16620035688049
30
0
41
1
10
84.0587757122664
20
-5.3112414535689
30
0
41
1
10
83.8256971819266
20
-5.38080040810701
30
0
41
1
10
83.4753164016517
20
-5.48035766296525
30
0
41
1
10
83.3586194616443
20
-5.51267241538261
30
0
41
1
10
83.1254992937905
20
-5.57544311849077
30
0
41
1
10
83.0090406407958
20
-5.60589988935635
30
0
41
1
10
82.6599307225372
20
-5.69448585135839
30
0
41
1
10
82.4275587810137
20
-5.74985099860967
30
0
41
1
10
81.9637863847052
20
-5.85347682524843
30
0
41
1
10
81.7324285548145
20
-5.90175516137614
30
0
41
1
10
81.3857863087178
20
-5.96860183345078
30
0
41
1
10
81.2703013178441
20
-5.98995443487226
30
0
41
1
10
81.0393674412438
20
-6.03075895023008
30
0
41
1
10
80.9239211477609
20
-6.05021341381439
30
0
41
1
10
80.5776732930287
20
-6.10576987243013
30
0
41
1
10
80.3469621398385
20
-6.13907086506782
30
0
41
1
10
79.8860221804941
20
-6.19830677591199
30
0
41
1
10
79.6557623340283
20
-6.22421296196276
30
0
41
1
10
79.1950608758151
20
-6.26836362530392
30
0
41
1
10
78.9645450907718
20
-6.28659585947628
30
0
41
1
10
78.5032129368335
20
-6.31542942248007
30
0
41
1
10
78.2724535893508
20
-6.32604322923368
30
0
41
1
10
77.8107966009024
20
-6.33958588493687
30
0
41
1
10
77.5798505062483
20
-6.34249669717806
30
0
41
1
10
77.117065760146
20
-6.3405296908357
30
0
41
1
10
76.8852080526627
20
-6.33566803168503
30
0
41
1
10
76.5368602693275
20
-6.32252497284267
30
0
41
1
10
76.4206545643552
20
-6.31716707133396
30
0
41
1
10
76.1880888395654
20
-6.30447329317815
30
0
41
1
10
76.0717221525966
20
-6.29713773333052
30
0
41
1
10
75.8387525334458
20
-6.28048386527334
30
0
41
1
10
75.7221505706332
20
-6.27116511835914
30
0
41
1
10
75.5470072616201
20
-6.25570761908352
30
0
41
1
10
75.4885700275381
20
-6.25030698903421
30
0
41
1
10
75.3717878797378
20
-6.23903439613431
30
0
41
1
10
75.0799640054489
20
-6.20966498082845
30
0
41
1
10
74.7887968186974
20
-6.17441312852125
30
0
41
1
10
74.3239897828791
20
-6.11048392434969
30
0
41
1
10
74.092171948504
20
-6.07471717854136
30
0
41
1
10
73.7449523780888
20
-6.01557541486
30
0
41
1
10
73.6292931796202
20
-5.99494921169969
30
0
41
1
10
73.3980466562722
20
-5.95193885017133
30
0
41
1
10
73.2824567129465
20
-5.92955723412265
30
0
41
1
10
72.9358141102018
20
-5.85978599333473
30
0
41
1
10
72.7048835002252
20
-5.80977940045017
30
0
41
1
10
72.2436100621036
20
-5.70260043488034
30
0
41
1
10
72.0132484272105
20
-5.64542886679195
30
0
41
1
10
71.5524859796937
20
-5.52440032135809
30
0
41
1
10
71.3220081378215
20
-5.46061967699069
30
0
41
1
10
70.8608332203752
20
-5.32660328781355
30
0
41
1
10
70.6301909183744
20
-5.25631660394484
30
0
41
1
10
70.1689017133746
20
-5.10901645184279
30
0
41
1
10
69.9382062295668
20
-5.03204258163115
30
0
41
1
10
69.4760700907389
20
-4.87213449526851
30
0
41
1
10
69.2445908127117
20
-4.7892586228345
30
0
41
1
10
68.8968789966077
20
-4.66040269088691
30
0
41
1
10
68.7808956335445
20
-4.6166892621554
30
0
41
1
10
68.5488042881025
20
-4.52767981725904
30
0
41
1
10
68.4326922775155
20
-4.48238822923349
30
0
41
1
10
68.0840553433568
20
-4.34426415180965
30
0
41
1
10
67.8512275668603
20
-4.24917868058915
30
0
41
1
10
67.5009048713637
20
-4.10268229932834
30
0
41
1
10
67.3839159291341
20
-4.05316899929207
30
0
41
1
10
67.1503736799541
20
-3.95311172811555
30
0
41
1
10
67.0337316877446
20
-3.90253174488925
30
0
41
1
10
66.6842441934544
20
-3.74906545992027
30
0
41
1
10
66.4518930563519
20
-3.64436432624035
30
0
41
1
10
66.1039890316681
20
-3.48426228895417
30
0
41
1
10
65.9881199608591
20
-3.43039442436256
30
0
41
1
10
65.7564907662693
20
-3.32180405428585
30
0
41
1
10
65.6407243296261
20
-3.26709197363124
30
0
41
1
10
65.2935869434203
20
-3.10168632011619
30
0
41
1
10
65.0623734539212
20
-2.98973303860771
30
0
41
1
10
64.6006339166124
20
-2.76203683590279
30
0
41
1
10
64.3701047466122
20
-2.64629365006772
30
0
41
1
10
63.9091500575394
20
-2.41198413619375
30
0
41
1
10
63.6786473615646
20
-2.29355180983964
30
0
41
1
10
63.2175063774857
20
-2.05430309983382
30
0
41
1
10
62.986920926246
20
-1.93339663701712
30
0
41
1
10
62.5258746421378
20
-1.68872944497772
30
0
41
1
10
62.2953671247018
20
-1.56504642520696
30
0
41
1
10
61.8337537142004
20
-1.3160985539833
30
0
41
1
10
61.6025945335261
20
-1.19093506936107
30
0
41
1
10
61.255429914587
20
-1.00196828585985
30
0
41
1
10
61.1396403384026
20
-0.938770007819528
30
0
41
1
10
60.9079622549976
20
-0.811880579422336
30
0
41
1
10
60.7920742460285
20
-0.748188152788799
30
0
41
1
10
60.4441624103726
20
-0.556547822958265
30
0
41
1
10
60.2118957511135
20
-0.428024848542094
30
0
41
1
10
59.8625123294336
20
-0.235027267975909
30
0
41
1
10
59.6875881158683
20
-0.138450861271849
30
0
41
1
10
59.5123369735574
20
-0.0417133564024539
30
0
41
1
10
59.3954336632293
20
0.0228215055919634
30
0
41
1
10
59.3369537771116
20
0.0551072318749277
30
0
41
1
10
59.0448708214959
20
0.216403258045318
30
0
41
1
10
58.8118986593456
20
0.345339780401701
30
0
41
1
10
58.3469432164296
20
0.602253023706368
30
0
41
1
10
58.1149000791172
20
0.730114792584914
30
0
41
1
10
57.6512322308612
20
0.98384470411645
30
0
41
1
10
57.4196608501157
20
1.10981757571767
30
0
41
1
10
56.957300689726
20
1.360473269777
30
0
41
1
10
56.7265280742543
20
1.48518023002254
30
0
41
1
10
56.3805553140783
20
1.67053867050077
30
0
41
1
10
56.2652573984732
20
1.73203317959184
30
0
41
1
10
56.0346361879425
20
1.85430391025929
30
0
41
1
10
55.9193199159733
20
1.91509291914642
30
0
41
1
10
55.5733845977023
20
2.09647968881805
30
0
41
1
10
55.3427885646958
20
2.21611580968377
30
0
41
1
10
54.8818468297694
20
2.45313652743337
30
0
41
1
10
54.6514586477884
20
2.570442930175
30
0
41
1
10
54.1902313503634
20
2.80159278288213
30
0
41
1
10
53.9593283994128
20
2.91533378181885
30
0
41
1
10
53.6126155575805
20
3.08332483947467
30
0
41
1
10
53.4969887654364
20
3.13889122444999
30
0
41
1
10
53.2656604257467
20
3.24921860334908
30
0
41
1
10
53.1499636190158
20
3.30398693756601
30
0
41
1
10
52.8026801268721
20
3.46694372081376
30
0
41
1
10
52.5709077945597
20
3.57379306123346
30
0
41
1
10
52.1061913382523
20
3.78283687866613
30
0
41
1
10
51.8732613096004
20
3.88505936654721
30
0
41
1
10
51.5231530718773
20
4.03514799098869
30
0
41
1
10
51.4062858662892
20
4.0846682122322
30
0
41
1
10
51.172558719427
20
4.18254401339203
30
0
41
1
10
51.055865604546
20
4.2308156590245
30
0
41
1
10
50.70619653356
20
4.37349486095726
30
0
41
1
10
50.4736029065745
20
4.46572274810575
30
0
41
1
10
50.0089411883548
20
4.64382432633806
30
0
41
1
10
49.7769264636412
20
4.72978182073928
30
0
41
1
10
49.3137742313935
20
4.89588236214311
30
0
41
1
10
49.0826709174072
20
4.97605369793544
30
0
41
1
10
48.7363129246187
20
5.09151416781538
30
0
41
1
10
48.6209062219052
20
5.12919858846575
30
0
41
1
10
48.3900982639985
20
5.20287915877384
30
0
41
1
10
48.2747017121011
20
5.23888123241008
30
0
41
1
10
47.9285641488356
20
5.34441953389086
30
0
41
1
10
47.6978779938321
20
5.41149598264386
30
0
41
1
10
47.2368771087701
20
5.53928573570431
30
0
41
1
10
47.0065265185201
20
5.59995231073373
30
0
41
1
10
46.545521330648
20
5.71428096240606
30
0
41
1
10
46.3147958084108
20
5.76789490419725
30
0
41
1
10
45.852957027793
20
5.86809797085576
30
0
41
1
10
45.6219024587625
20
5.91472947173116
30
0
41
1
10
45.1595346530225
20
6.00097086403721
30
0
41
1
10
44.9281732097706
20
6.04053874159584
30
0
41
1
10
44.4644254898228
20
6.11213910673521
30
0
41
1
10
44.2320340156969
20
6.1441835396441
30
0
41
1
10
43.7664027814963
20
6.20080927920142
30
0
41
1
10
43.5332326100347
20
6.22541214320947
30
0
41
1
10
43.2411428352752
20
6.25136233814249
30
0
41
1
10
43.1827014515414
20
6.25631046307271
30
0
41
1
10
43.0659323765508
20
6.265706045136
30
0
41
1
10
43.0075814189865
20
6.27015560148027
30
0
41
1
10
42.832612536397
20
6.2827586613671
30
0
41
1
10
42.7160712889019
20
6.29016480110457
30
0
41
1
10
42.3667134109936
20
6.30942093551445
30
0
41
1
10
42.1341784815433
20
6.31832050258919
30
0
41
1
10
41.7499056462645
20
6.32663605944393
30
0
41
1
10
41.5979115528973
20
6.32825645519895
30
0
41
1
10
41.4460735806291
20
6.32820401627336
30
0
0
SPLINE
5
C7
100
AcDbEntity
8
1
62
256
6
ByLayer
370
18
48
1
60
0
100
AcDbSpline
70
4
71
3
72
22
73
18
40
0
40
0
40
0
40
0
40
0.0390774660575592
40
0.0390774660575592
40
0.199231221714632
40
0.199231221714632
40
0.359384977371707
40
0.359384977371707
40
0.439461855200244
40
0.439461855200244
40
0.51953873302878
40
0.51953873302878
40
0.679692488685855
40
0.679692488685855
40
0.839846244342927
40
0.839846244342927
40
1
40
1
40
1
40
1
41
1
10
14.9745723363482
20
-4.26196135294248
30
0
41
1
10
14.9183532006062
20
-4.28482828009024
30
0
41
1
10
14.8621420385223
20
-4.30755007271307
30
0
41
1
10
14.5756049053794
20
-4.42266337950821
30
0
41
1
10
14.3453849464446
20
-4.51272308073211
30
0
41
1
10
13.8845568997502
20
-4.68706706576523
30
0
41
1
10
13.6538842673463
20
-4.77127830237657
30
0
41
1
10
13.3075609117776
20
-4.89325928674606
30
0
41
1
10
13.1920713305103
20
-4.93320116232064
30
0
41
1
10
12.9610319310401
20
-5.01168364951576
30
0
41
1
10
12.8454870174713
20
-5.05022930405468
30
0
41
1
10
12.4986852864434
20
-5.16365889250767
30
0
41
1
10
12.2672695874646
20
-5.2363391905877
30
0
41
1
10
11.8033476574904
20
-5.37507666525897
30
0
41
1
10
11.5708579416441
20
-5.44116232159541
30
0
41
1
10
11.1049913364127
20
-5.56689514745111
30
0
41
1
10
10.8716119122164
20
-5.62654082869341
30
0
41
1
10
10.6378839510509
20
-5.68297553945141
30
0
0
SPLINE
5
C8
100
AcDbEntity
8
1
62
256
6
ByLayer
370
18
48
1
60
0
100
AcDbSpline
70
4
71
3
72
171
73
167
40
0
40
0
40
0
40
0
40
0.031249999999999
40
0.031249999999999
40
0.0624999999999979
40
0.0624999999999979
40
0.0937499999999969
40
0.0937499999999969
40
0.124999999999996
40
0.124999999999996
40
0.132812499999995
40
0.132812499999995
40
0.140624999999994
40
0.140624999999994
40
0.156249999999994
40
0.156249999999994
40
0.187499999999993
40
0.187499999999993
40
0.218749999999992
40
0.218749999999992
40
0.249999999999991
40
0.249999999999991
40
0.26562499999999
40
0.26562499999999
40
0.28124999999999
40
0.28124999999999
40
0.28906249999999
40
0.28906249999999
40
0.296874999999989
40
0.296874999999989
40
0.304687499999989
40
0.304687499999989
40
0.312499999999989
40
0.312499999999989
40
0.320312499999989
40
0.320312499999989
40
0.328124999999988
40
0.328124999999988
40
0.335937499999988
40
0.335937499999988
40
0.343749999999988
40
0.343749999999988
40
0.351562499999987
40
0.351562499999987
40
0.359374999999987
40
0.359374999999987
40
0.367187499999987
40
0.367187499999987
40
0.374999999999987
40
0.374999999999987
40
0.390624999999987
40
0.390624999999987
40
0.406249999999987
40
0.406249999999987
40
0.421874999999987
40
0.421874999999987
40
0.437499999999987
40
0.437499999999987
40
0.453124999999987
40
0.453124999999987
40
0.457031249999987
40
0.457031249999987
40
0.460937499999987
40
0.468749999999988
40
0.468749999999988
40
0.484374999999988
40
0.484374999999988
40
0.499999999999989
40
0.499999999999989
40
0.51562499999999
40
0.51562499999999
40
0.53124999999999
40
0.53124999999999
40
0.546874999999991
40
0.546874999999991
40
0.554687499999992
40
0.554687499999992
40
0.558593749999992
40
0.558593749999992
40
0.562499999999992
40
0.562499999999992
40
0.578124999999992
40
0.578124999999992
40
0.593749999999992
40
0.593749999999992
40
0.601562499999992
40
0.601562499999992
40
0.609374999999992
40
0.609374999999992
40
0.617187499999991
40
0.617187499999991
40
0.619140624999992
40
0.619140624999992
40
0.621093749999992
40
0.624999999999993
40
0.624999999999993
40
0.628906249999993
40
0.628906249999993
40
0.630859374999994
40
0.630859374999994
40
0.632812499999994
40
0.632812499999994
40
0.640624999999995
40
0.640624999999995
40
0.642578124999996
40
0.642578124999996
40
0.644531249999996
40
0.644531249999996
40
0.648437499999996
40
0.648437499999996
40
0.652343749999996
40
0.652343749999996
40
0.654296874999996
40
0.654296874999996
40
0.656249999999996
40
0.656249999999996
40
0.660156249999997
40
0.660156249999997
40
0.662109374999997
40
0.662109374999997
40
0.664062499999997
40
0.664062499999997
40
0.667968749999997
40
0.667968749999997
40
0.671874999999998
40
0.671874999999998
40
0.675781249999998
40
0.675781249999998
40
0.679687499999998
40
0.679687499999998
40
0.687499999999999
40
0.687499999999999
40
0.695312499999999
40
0.695312499999999
40
0.699218749999999
40
0.699218749999999
40
0.703124999999999
40
0.703124999999999
40
0.7109375
40
0.7109375
40
0.71875
40
0.71875
40
0.734375
40
0.734375
40
0.750000000000001
40
0.750000000000001
40
0.765625000000001
40
0.765625000000001
40
0.781250000000002
40
0.781250000000002
40
0.812500000000002
40
0.812500000000002
40
0.843750000000002
40
0.843750000000002
40
0.875000000000003
40
0.875000000000003
40
0.882812500000002
40
0.882812500000002
40
0.890625000000002
40
0.906250000000002
40
0.906250000000002
40
0.937500000000001
40
0.937500000000001
40
0.96875
40
0.96875
40
1
40
1
40
1
40
1
41
1
10
22.1362429644296
20
-6.16367672262777
30
0
41
1
10
21.8266329385608
20
-6.12302103498391
30
0
41
1
10
21.5172732176829
20
-6.07486228712636
30
0
41
1
10
20.8984398322317
20
-5.9642905705887
30
0
41
1
10
20.5889621895079
20
-5.90187478053247
30
0
41
1
10
19.969086189686
20
-5.76369552334296
30
0
41
1
10
19.6587008984384
20
-5.68791421787432
30
0
41
1
10
19.0358677483539
20
-5.52434775901227
30
0
41
1
10
18.7234179038387
20
-5.43655075565519
30
0
41
1
10
18.3304885018582
20
-5.32074463240605
30
0
41
1
10
18.2517831963727
20
-5.29728304949262
30
0
41
1
10
18.0941042144078
20
-5.24980512460846
30
0
41
1
10
18.0151001571344
20
-5.22577945077828
30
0
41
1
10
17.7778912113886
20
-5.15301957114863
30
0
41
1
10
17.6195307498381
20
-5.10361589707247
30
0
41
1
10
17.1435031813131
20
-4.95336520808905
30
0
41
1
10
16.8248871107877
20
-4.85047107023723
30
0
41
1
10
16.1837508917537
20
-4.64283445548352
30
0
41
1
10
15.8612335448649
20
-4.53808798485559
30
0
41
1
10
15.2108956215189
20
-4.33077689795672
30
0
41
1
10
14.8830711589325
20
-4.22822172082613
30
0
41
1
10
14.386340328415
20
-4.07925280714485
30
0
41
1
10
14.2199311039253
20
-4.03040963874184
30
0
41
1
10
13.8853064641049
20
-3.93485947482321
30
0
41
1
10
13.7170829630296
20
-3.88816842871947
30
0
41
1
10
13.4633560787258
20
-3.81998965815455
30
0
41
1
10
13.3785496184877
20
-3.79757111937403
30
0
41
1
10
13.2085516673599
20
-3.75322933588356
30
0
41
1
10
13.123358169806
20
-3.73131038517224
30
0
41
1
10
12.9527844594287
20
-3.6876014124706
30
0
41
1
10
12.8674023715755
20
-3.66581568494021
30
0
41
1
10
12.6968364057559
20
-3.6216185228387
30
0
41
1
10
12.6116601828426
20
-3.59919248992958
30
0
41
1
10
12.442023219914
20
-3.55265938125072
30
0
41
1
10
12.3575719919752
20
-3.52853300907324
30
0
41
1
10
12.1897539536411
20
-3.47779459494617
30
0
41
1
10
12.1063965165804
20
-3.45116197435422
30
0
41
1
10
11.940687935745
20
-3.39548394196208
30
0
41
1
10
11.85833345575
20
-3.36644284381464
30
0
41
1
10
11.6940084790253
20
-3.30716117885058
30
0
41
1
10
11.6120323025629
20
-3.27693031648943
30
0
41
1
10
11.4474454200825
20
-3.21739229893018
30
0
41
1
10
11.3647888037705
20
-3.18818294231173
30
0
41
1
10
11.1980182782981
20
-3.13251047565038
30
0
41
1
10
11.1142956216972
20
-3.10612209097312
30
0
41
1
10
10.946320498629
20
-3.05602521108338
30
0
41
1
10
10.8620621457169
20
-3.03227152936245
30
0
41
1
10
10.6930631909655
20
-2.98710269568906
30
0
41
1
10
10.6083209888047
20
-2.96569550829562
30
0
41
1
10
10.3533949416207
20
-2.90492355224674
30
0
41
1
10
10.1825021844617
20
-2.86906109599235
30
0
41
1
10
9.83905005595651
20
-2.80578336964234
30
0
41
1
10
9.66650066197306
20
-2.7783148314812
30
0
41
1
10
9.31994487820324
20
-2.73090536703765
30
0
41
1
10
9.14593638842294
20
-2.71097442267145
30
0
41
1
10
8.79654384103623
20
-2.67832771001863
30
0
41
1
10
8.62115822701256
20
-2.66561978834034
30
0
41
1
10
8.26904196980675
20
-2.6473292524976
30
0
41
1
10
8.09230900743955
20
-2.64175886126245
30
0
41
1
10
7.87057372295897
20
-2.63915394878228
30
0
41
1
10
7.8261747743376
20
-2.63885033090861
30
0
41
1
10
7.73747906329262
20
-2.6386710522969
30
0
41
1
10
7.60452352851118
20
-2.63904302300503
30
0
41
1
10
7.47182545582527
20
-2.64128938432151
30
0
41
1
10
7.20675594845707
20
-2.64815731622292
30
0
41
1
10
7.03047570562094
20
-2.65588363483784
30
0
41
1
10
6.67873128014477
20
-2.67723536744299
30
0
41
1
10
6.50326727708355
20
-2.69086239965793
30
0
41
1
10
6.15320147726433
20
-2.72428533251085
30
0
41
1
10
5.97860256982167
20
-2.74410260157373
30
0
41
1
10
5.63035408905617
20
-2.79043252793468
30
0
41
1
10
5.456704906211
20
-2.81694801864265
30
0
41
1
10
5.11040298169362
20
-2.87686380594238
30
0
41
1
10
4.93774524370792
20
-2.91022919217747
30
0
41
1
10
4.6795715771004
20
-2.965758004919
30
0
41
1
10
4.5936501360739
20
-2.98518744220718
30
0
41
1
10
4.46499585187479
20
-3.01585062689338
30
0
41
1
10
4.4221349240172
20
-3.02632965101949
30
0
41
1
10
4.33674354077056
20
-3.04776324239799
30
0
41
1
10
4.29418443636067
20
-3.05872448021626
30
0
41
1
10
4.08211246255573
20
-3.11481632522663
30
0
41
1
10
3.91476822552181
20
-3.16380952436242
30
0
41
1
10
3.58586880345052
20
-3.2717553341036
30
0
41
1
10
3.42429028131991
20
-3.33066681022032
30
0
41
1
10
3.18712421381761
20
-3.42756194216889
30
0
41
1
10
3.10893698975511
20
-3.46128201490941
30
0
41
1
10
2.95463082190881
20
-3.53204715440006
30
0
41
1
10
2.87850373570785
20
-3.56907924284698
30
0
41
1
10
2.72899625849095
20
-3.64752131250859
30
0
41
1
10
2.6556136821234
20
-3.68893080296937
30
0
41
1
10
2.56634859722269
20
-3.74458634309079
30
0
41
1
10
2.54863420363742
20
-3.7559062840117
30
0
41
1
10
2.51370282549792
20
-3.77882288259363
30
0
41
1
10
2.46197378983513
20
-3.81366281466796
30
0
41
1
10
2.41237512502693
20
-3.84997708422461
30
0
41
1
10
2.34843354071023
20
-3.89989373238416
30
0
41
1
10
2.31755456472601
20
-3.92559858593248
30
0
41
1
10
2.27319889330673
20
-3.96548592722286
30
0
41
1
10
2.25871656510017
20
-3.97902973959637
30
0
41
1
10
2.23060399002804
20
-4.00649278742699
30
0
41
1
10
2.21701407538933
20
-4.02037080826233
30
0
41
1
10
2.15156429671399
20
-4.09054172279124
30
0
41
1
10
2.10719860221036
20
-4.14918834217457
30
0
41
1
10
2.06471780925261
20
-4.22640526985796
30
0
41
1
10
2.05686964239561
20
-4.2420428910512
30
0
41
1
10
2.0425472655387
20
-4.27372357794476
30
0
41
1
10
2.03605489639017
20
-4.28982970908947
30
0
41
1
10
2.01903073179614
20
-4.33799231021746
30
0
41
1
10
2.01083643485083
20
-4.37006238769942
30
0
41
1
10
2.00080560040584
20
-4.43409668622965
30
0
41
1
10
1.99897866541099
20
-4.4660618590755
30
0
41
1
10
2.00132511938401
20
-4.51393073257293
30
0
41
1
10
2.00295901878909
20
-4.52979783509511
30
0
41
1
10
2.00783573090536
20
-4.56101480011236
30
0
41
1
10
2.01108066135873
20
-4.5764178663477
30
0
41
1
10
2.02308944668152
20
-4.6220435261813
30
0
41
1
10
2.03413815542885
20
-4.6516815235131
30
0
41
1
10
2.05450784834349
20
-4.69511925404501
30
0
41
1
10
2.06194646395534
20
-4.70946195907496
30
0
41
1
10
2.07784340708437
20
-4.73767645050836
30
0
41
1
10
2.08627399378116
20
-4.75150772480086
30
0
41
1
10
2.11276062094683
20
-4.79229158406906
30
0
41
1
10
2.13200089375744
20
-4.81853954955901
30
0
41
1
10
2.17259153820086
20
-4.86963383351798
30
0
41
1
10
2.19394466646358
20
-4.89447854326241
30
0
41
1
10
2.23801625322474
20
-4.94309279310485
30
0
41
1
10
2.2607370212244
20
-4.9668610886493
30
0
41
1
10
2.30703081340968
20
-5.01353968454393
30
0
41
1
10
2.33060496118153
20
-5.03644930118224
30
0
41
1
10
2.40210077580224
20
-5.10409793911154
30
0
41
1
10
2.45072462336114
20
-5.14778268997253
30
0
41
1
10
2.54904840955953
20
-5.23268610900152
30
0
41
1
10
2.59880480589524
20
-5.27388181488058
30
0
41
1
10
2.67473531592284
20
-5.33370352532506
30
0
41
1
10
2.70026001089681
20
-5.3533076413006
30
0
41
1
10
2.75166781840935
20
-5.39172678925689
30
0
41
1
10
2.77756945473644
20
-5.41055618048347
30
0
41
1
10
2.85591323546416
20
-5.46591408692572
30
0
41
1
10
2.90900177775214
20
-5.5013100192314
30
0
41
1
10
3.01683889434793
20
-5.56926297658677
30
0
41
1
10
3.0715799609695
20
-5.60182364352457
30
0
41
1
10
3.23794455901751
20
-5.6955834236966
30
0
41
1
10
3.3516531828362
20
-5.75289314999307
30
0
41
1
10
3.58330081240931
20
-5.85835956372733
30
0
41
1
10
3.7012578319914
20
-5.90649730535128
30
0
41
1
10
3.9415246565448
20
-5.99410998683067
30
0
41
1
10
4.06388860232963
20
-6.0335783709794
30
0
41
1
10
4.31340770464811
20
-6.10419822845429
30
0
41
1
10
4.43961066590794
20
-6.13508225755049
30
0
41
1
10
4.82276407418405
20
-6.2157154991969
30
0
41
1
10
5.08425723685488
20
-6.2535097772037
30
0
41
1
10
5.61893856970542
20
-6.30288022266939
30
0
41
1
10
5.89210211687023
20
-6.31443897909452
30
0
41
1
10
6.44960317361543
20
-6.31549055892697
30
0
41
1
10
6.73394760788443
20
-6.30497026806725
30
0
41
1
10
7.09610898394212
20
-6.28000002377485
30
0
41
1
10
7.16892413364494
20
-6.27440895257331
30
0
41
1
10
7.31498790003022
20
-6.2621029348239
30
0
41
1
10
7.53461202192727
20
-6.24196999793588
30
0
41
1
10
7.75580300681472
20
-6.21705610860798
30
0
41
1
10
8.20021446793623
20
-6.16140538007718
30
0
41
1
10
8.49919759685727
20
-6.11656565047591
30
0
41
1
10
9.10218537374632
20
-6.01367717187807
30
0
41
1
10
9.40618868427555
20
-5.95562318139389
30
0
41
1
10
10.0187445067452
20
-5.82783209861765
30
0
41
1
10
10.3272956549798
20
-5.75809135023817
30
0
41
1
10
10.6378692100959
20
-5.68297307401636
30
0
0
SPLINE
5
C9
100
AcDbEntity
8
1
62
256
6
ByLayer
370
18
48
1
60
0
100
AcDbSpline
70
4
71
3
72
14
73
10
40
0
40
0
40
0
40
0
40
0.473709123592781
40
0.473709123592781
40
0.710563685389172
40
0.710563685389172
40
0.947418247185563
40
0.947418247185563
40
1
40
1
40
1
40
1
41
1
10
22.1362175972167
20
-6.16367890373257
30
0
41
1
10
22.5428706343548
20
-6.21386953198896
30
0
41
1
10
22.9487921467302
20
-6.25171226434327
30
0
41
1
10
23.555362299732
20
-6.29106955969004
30
0
41
1
10
23.7571062746531
20
-6.30127311295593
30
0
41
1
10
24.160055295348
20
-6.31578005381877
30
0
41
1
10
24.3613063261024
20
-6.32007701194109
30
0
41
1
10
24.6072175919462
20
-6.3217483996923
30
0
41
1
10
24.6518903917156
20
-6.32190828912306
30
0
41
1
10
24.6965596747925
20
-6.32192457322077
30
0
0
SPLINE
5
CA
100
AcDbEntity
8
1
62
256
6
ByLayer
370
18
48
1
60
0
100
AcDbSpline
70
4
71
3
72
170
73
166
40
0
40
0
40
0
40
0
40
0.0020426509387375
40
0.0020426509387375
40
0.0153066576112622
40
0.0153066576112622
40
0.0285706642837869
40
0.0285706642837869
40
0.0418346709563117
40
0.0418346709563117
40
0.0550986776288363
40
0.0550986776288363
40
0.068362684301361
40
0.068362684301361
40
0.0749946876376233
40
0.0749946876376233
40
0.0816266909738856
40
0.0816266909738856
40
0.0948906976464095
40
0.0948906976464095
40
0.108154704318933
40
0.108154704318933
40
0.134682717663981
40
0.134682717663981
40
0.147946724336505
40
0.147946724336505
40
0.161210731009029
40
0.161210731009029
40
0.174474737681553
40
0.174474737681553
40
0.187738744354077
40
0.187738744354077
40
0.201002751026601
40
0.201002751026601
40
0.214266757699125
40
0.214266757699125
40
0.227530764371649
40
0.227530764371649
40
0.240794771044173
40
0.240794771044173
40
0.247426774380435
40
0.247426774380435
40
0.254058777716697
40
0.254058777716697
40
0.260690781052959
40
0.260690781052959
40
0.267322784389221
40
0.267322784389221
40
0.280586791061745
40
0.280586791061745
40
0.293850797734269
40
0.293850797734269
40
0.307114804406793
40
0.307114804406793
40
0.320378811079317
40
0.320378811079317
40
0.333642817751841
40
0.333642817751841
40
0.346906824424365
40
0.346906824424365
40
0.360170831096889
40
0.360170831096889
40
0.373434837769414
40
0.373434837769414
40
0.386698844441937
40
0.386698844441937
40
0.399962851114462
40
0.399962851114462
40
0.413226857786985
40
0.413226857786985
40
0.419858861123248
40
0.419858861123248
40
0.42649086445951
40
0.42649086445951
40
0.439754871132036
40
0.439754871132036
40
0.453018877804561
40
0.453018877804561
40
0.466282884477086
40
0.466282884477086
40
0.479546891149612
40
0.479546891149612
40
0.492810897822137
40
0.492810897822137
40
0.506074904494663
40
0.506074904494663
40
0.519338911167188
40
0.519338911167188
40
0.532602917839713
40
0.532602917839713
40
0.545866924512238
40
0.545866924512238
40
0.559130931184764
40
0.559130931184764
40
0.572394937857289
40
0.572394937857289
40
0.585658944529815
40
0.585658944529815
40
0.59892295120234
40
0.59892295120234
40
0.605554954538603
40
0.605554954538603
40
0.612186957874865
40
0.612186957874865
40
0.625450964547392
40
0.625450964547392
40
0.638714971219918
40
0.638714971219918
40
0.651978977892445
40
0.651978977892445
40
0.665242984564972
40
0.665242984564972
40
0.678506991237498
40
0.678506991237498
40
0.691770997910025
40
0.691770997910025
40
0.705035004582552
40
0.705035004582552
40
0.718299011255079
40
0.718299011255079
40
0.731563017927605
40
0.731563017927605
40
0.744827024600132
40
0.744827024600132
40
0.758091031272659
40
0.758091031272659
40
0.771355037945185
40
0.771355037945185
40
0.777987041281448
40
0.777987041281448
40
0.784619044617712
40
0.784619044617712
40
0.797883051290239
40
0.797883051290239
40
0.811147057962765
40
0.811147057962765
40
0.824411064635292
40
0.824411064635292
40
0.850939077980344
40
0.850939077980344
40
0.86420308465287
40
0.86420308465287
40
0.877467091325396
40
0.877467091325396
40
0.890731097997922
40
0.890731097997922
40
0.903995104670448
40
0.903995104670448
40
0.917259111342975
40
0.917259111342975
40
0.930523118015501
40
0.930523118015501
40
0.943787124688027
40
0.943787124688027
40
0.957051131360553
40
0.957051131360553
40
0.970315138033079
40
0.970315138033079
40
0.976947141369342
40
0.976947141369342
40
0.983579144705605
40
0.983579144705605
40
0.996843151378132
40
0.996843151378132
40
1
40
1
40
1
40
1
41
1
10
51.0756746972615
20
4.23199241525415
30
0
41
1
10
51.1065725508989
20
4.2447297060811
30
0
41
1
10
51.1374740541489
20
4.25741912856213
30
0
41
1
10
51.3690698035248
20
4.35213881561745
30
0
41
1
10
51.5699963474824
20
4.43209060553528
30
0
41
1
10
51.9722545741848
20
4.58785183977824
30
0
41
1
10
52.1735330662034
20
4.66373182994258
30
0
41
1
10
52.5762318239616
20
4.81164162931154
30
0
41
1
10
52.7776574591638
20
4.8836571927543
30
0
41
1
10
53.1812337584094
20
5.02307261201432
30
0
41
1
10
53.3834117229958
20
5.09044462478218
30
0
41
1
10
53.7886863205476
20
5.22036178900294
30
0
41
1
10
53.99171094865
20
5.28299135103484
30
0
41
1
10
54.2966829193846
20
5.37355326126681
30
0
41
1
10
54.3984586230327
20
5.40319337282804
30
0
41
1
10
54.6016403449686
20
5.4611310235272
30
0
41
1
10
54.7031089696798
20
5.48944302750431
30
0
41
1
10
55.0072572655598
20
5.57231416423309
30
0
41
1
10
55.2096945669282
20
5.62479313798724
30
0
41
1
10
55.6142166018478
20
5.7240664738591
30
0
41
1
10
55.8162349651054
20
5.77092632777936
30
0
41
1
10
56.4211809988739
20
5.90353463157285
30
0
41
1
10
56.8227967717494
20
5.98134920842804
30
0
41
1
10
57.4254848307391
20
6.0805692300913
30
0
41
1
10
57.6263855569868
20
6.11077611542771
30
0
41
1
10
58.0278825847127
20
6.16563996767226
30
0
41
1
10
58.2284515227812
20
6.19030116850769
30
0
41
1
10
58.6294351128177
20
6.23394498795244
30
0
41
1
10
58.8299082474333
20
6.25290256516752
30
0
41
1
10
59.2312699812816
20
6.2849735540037
30
0
41
1
10
59.4321863971842
20
6.29809189753837
30
0
41
1
10
59.834167248561
20
6.31857831261144
30
0
41
1
10
60.0352133125309
20
6.32594417757454
30
0
41
1
10
60.4374362334465
20
6.33482924869091
30
0
41
1
10
60.638676869185
20
6.33633576853194
30
0
41
1
10
61.0419209008743
20
6.33343881703831
30
0
41
1
10
61.2439706345958
20
6.32904811256483
30
0
41
1
10
61.648733665386
20
6.31436639879394
30
0
41
1
10
61.8514104233734
20
6.30406949995972
30
0
41
1
10
62.155796219483
20
6.28408511193356
30
0
41
1
10
62.2573287848623
20
6.27666764053154
30
0
41
1
10
62.4606091418781
20
6.26032556650875
30
0
41
1
10
62.5622833878672
20
6.25140658104019
30
0
41
1
10
62.7653490709676
20
6.23213513078335
30
0
41
1
10
62.8668002658221
20
6.22177791092645
30
0
41
1
10
63.0695905851438
20
6.19965525668405
30
0
41
1
10
63.1709260065878
20
6.18788913291127
30
0
41
1
10
63.4746887008974
20
6.15046889842117
30
0
41
1
10
63.6768575215556
20
6.12268909007375
30
0
41
1
10
64.0803499279942
20
6.06139328606949
30
0
41
1
10
64.2816687085109
20
6.02786376894514
30
0
41
1
10
64.6840236935302
20
5.95538135788468
30
0
41
1
10
64.8850849638121
20
5.91644966424607
30
0
41
1
10
65.287153691347
20
5.83340467330294
30
0
41
1
10
65.488088488657
20
5.78924631488178
30
0
41
1
10
65.8895394960117
20
5.69549126137773
30
0
41
1
10
66.0900193226925
20
5.6458559358091
30
0
41
1
10
66.4909827166658
20
5.54144844317375
30
0
41
1
10
66.6914912720567
20
5.48670011878951
30
0
41
1
10
67.0929059642319
20
5.37247488904339
30
0
41
1
10
67.2937540028905
20
5.31295147765849
30
0
41
1
10
67.6954508189847
20
5.18878747304657
30
0
41
1
10
67.8962636651308
20
5.12410094545294
30
0
41
1
10
68.2981483909861
20
4.9898037270452
30
0
41
1
10
68.499266049041
20
4.92024279816232
30
0
41
1
10
68.9022902996797
20
4.77681625462597
30
0
41
1
10
69.104188955335
20
4.702952402374
30
0
41
1
10
69.5084314531851
20
4.55048567558924
30
0
41
1
10
69.710753541543
20
4.47184754170084
30
0
41
1
10
70.0146492717276
20
4.3503498885006
30
0
41
1
10
70.1160298029393
20
4.30927858941771
30
0
41
1
10
70.3190245033212
20
4.22608314592213
30
0
41
1
10
70.4206852827078
20
4.18393682635207
30
0
41
1
10
70.7257654857252
20
4.05616085244739
30
0
41
1
10
70.9288870000087
20
3.96944856157484
30
0
41
1
10
71.3343126272365
20
3.79257604166213
30
0
41
1
10
71.5365949355984
20
3.70238068096921
30
0
41
1
10
71.9402870808806
20
3.51845246282872
30
0
41
1
10
72.1417579405288
20
3.42481172832621
30
0
41
1
10
72.5444638133648
20
3.2350110843108
30
0
41
1
10
72.7457461107784
20
3.13893078707974
30
0
41
1
10
73.1480113246626
20
2.94418617235095
30
0
41
1
10
73.3489536999205
20
2.84545539526135
30
0
41
1
10
73.7503272830351
20
2.64505085202418
30
0
41
1
10
73.9507899601813
20
2.5434256741361
30
0
41
1
10
74.3518145173248
20
2.33825334168984
30
0
41
1
10
74.5524112659981
20
2.23476848556231
30
0
41
1
10
74.9538185111229
20
2.02609997878577
30
0
41
1
10
75.1545633434486
20
1.92080354241523
30
0
41
1
10
75.5559496783772
20
1.70794368805846
30
0
41
1
10
75.7565686421923
20
1.60033600384736
30
0
41
1
10
76.158219197153
20
1.38374990776001
30
0
41
1
10
76.3592721116315
20
1.27481179505858
30
0
41
1
10
76.762086469935
20
1.05611813594979
30
0
41
1
10
76.9637763310525
20
0.946233658648055
30
0
41
1
10
77.3674824533552
20
0.724922670894358
30
0
41
1
10
77.5694606910901
20
0.613420570928696
30
0
41
1
10
77.9741143037267
20
0.389532122584711
30
0
41
1
10
78.1768215914594
20
0.277207205167429
30
0
41
1
10
78.481740715421
20
0.10870184140623
30
0
41
1
10
78.5835730808735
20
0.0524792747329741
30
0
41
1
10
78.7869274196874
20
-0.0598008056277592
30
0
41
1
10
78.8884964081639
20
-0.115889314552987
30
0
41
1
10
79.1928451774286
20
-0.284068280906581
30
0
41
1
10
79.395220721674
20
-0.396159909285643
30
0
41
1
10
79.7992119998995
20
-0.619737055972365
30
0
41
1
10
80.0008783855774
20
-0.731125416950505
30
0
41
1
10
80.4040038425128
20
-0.952283511575303
30
0
41
1
10
80.6054680345771
20
-1.06204806048802
30
0
41
1
10
81.0078671473727
20
-1.28058365175707
30
0
41
1
10
81.2087824554201
20
-1.38938823825041
30
0
41
1
10
81.6101415335099
20
-1.60588351603633
30
0
41
1
10
81.8106493697836
20
-1.71345679516136
30
0
41
1
10
82.2117989494341
20
-1.92641596988852
30
0
41
1
10
82.4124836117458
20
-2.03172995948728
30
0
41
1
10
82.8138087635831
20
-2.24050464334331
30
0
41
1
10
83.0144233126148
20
-2.34400932094013
30
0
41
1
10
83.4154895143716
20
-2.54934672662304
30
0
41
1
10
83.6159945925062
20
-2.65108520045331
30
0
41
1
10
84.0174781709705
20
-2.85180307136156
30
0
41
1
10
84.218500494184
20
-2.95071252087789
30
0
41
1
10
84.6210276581205
20
-3.14577185238738
30
0
41
1
10
84.8224803355749
20
-3.24200767745563
30
0
41
1
10
85.2256117036788
20
-3.4321091786415
30
0
41
1
10
85.4272999338121
20
-3.52595547025894
30
0
41
1
10
85.831487626634
20
-3.71031577206455
30
0
41
1
10
86.0340152402933
20
-3.80078808388223
30
0
41
1
10
86.3385483977034
20
-3.93379303454623
30
0
41
1
10
86.4401688211762
20
-3.97769947029275
30
0
41
1
10
86.6435904467637
20
-4.0647096400082
30
0
41
1
10
86.7453347218515
20
-4.10778455106495
30
0
41
1
10
87.0499726774603
20
-4.23547092935107
30
0
41
1
10
87.2524882470283
20
-4.31870515420749
30
0
41
1
10
87.6569087667802
20
-4.48064562047188
30
0
41
1
10
87.8588367098571
20
-4.55932413512144
30
0
41
1
10
88.2624255431164
20
-4.71180427064513
30
0
41
1
10
88.4640181447782
20
-4.78570191258274
30
0
41
1
10
89.0678116958068
20
-5.00087921084921
30
0
41
1
10
89.4688355540808
20
-5.1357771900739
30
0
41
1
10
90.0708716396744
20
-5.32234584018545
30
0
41
1
10
90.2715916110326
20
-5.3819740679061
30
0
41
1
10
90.6728022177034
20
-5.49643128620855
30
0
41
1
10
90.8732645419169
20
-5.55127986391915
30
0
41
1
10
91.2741156832497
20
-5.6559700962444
30
0
41
1
10
91.4745629863495
20
-5.7057576507934
30
0
41
1
10
91.8759595595135
20
-5.79985774279015
30
0
41
1
10
92.0769360513542
20
-5.84416002976599
30
0
41
1
10
92.4791201844476
20
-5.92751612966981
30
0
41
1
10
92.6803097929987
20
-5.96657769548807
30
0
41
1
10
93.0829092292882
20
-6.03936644158537
30
0
41
1
10
93.284382638597
20
-6.07304780828318
30
0
41
1
10
93.6881748535388
20
-6.13467338252323
30
0
41
1
10
93.8905391531946
20
-6.16260418527511
30
0
41
1
10
94.2960073388726
20
-6.21278629764905
30
0
41
1
10
94.4991246574264
20
-6.2350562743438
30
0
41
1
10
94.9057378644753
20
-6.27384112309224
30
0
41
1
10
95.1086641042222
20
-6.29027328999726
30
0
41
1
10
95.4129054040319
20
-6.31039699587373
30
0
41
1
10
95.5142919428711
20
-6.31635286256136
30
0
41
1
10
95.7170624002747
20
-6.32676383150991
30
0
41
1
10
95.8184418473466
20
-6.33122048073298
30
0
41
1
10
96.1224938207763
20
-6.34236744767802
30
0
41
1
10
96.325064338911
20
-6.34683947357942
30
0
41
1
10
96.5755782613396
20
-6.34870340831512
30
0
41
1
10
96.623726306714
20
-6.34889302224244
30
0
41
1
10
96.6718659732054
20
-6.34891390176628
30
0
0
SPLINE
5
CB
100
AcDbEntity
8
1
62
256
6
ByLayer
370
18
48
1
60
0
100
AcDbSpline
70
4
71
3
72
20
73
16
40
0
40
0
40
0
40
0
40
0.010194087997358
40
0.042968877789459
40
0.0779965631485084
40
0.157778123687296
40
0.258495506399925
40
0.361238969968396
40
0.444719569261463
40
0.518290244381094
40
0.584028093844969
40
0.65702830754879
40
0.754513436700697
40
0.885372092450377
40
1
40
1
40
1
40
1
41
1
10
60.6018719088409
20
-0.268718421003172
30
0
41
1
10
60.6022428614462
20
-0.267404011397531
30
0
41
1
10
60.6011328531323
20
-0.261341200782084
30
0
41
1
10
60.5802896879194
20
-0.247151773795394
30
0
41
1
10
60.4828916937919
20
-0.207400645299316
30
0
41
1
10
60.2296795745004
20
-0.114150745395421
30
0
41
1
10
59.811145722489
20
0.0502781363966847
30
0
41
1
10
59.3707581031988
20
0.23307721892138
30
0
41
1
10
58.9707396462109
20
0.405723006919089
30
0
41
1
10
58.6197499722039
20
0.56235971029858
30
0
41
1
10
58.2774566586062
20
0.719720852667336
30
0
41
1
10
57.89025059311
20
0.902402526194635
30
0
41
1
10
57.4083028743118
20
1.13752176273269
30
0
41
1
10
56.8692364011017
20
1.41186289597297
30
0
41
1
10
56.4850039272234
20
1.61518584384484
30
0
41
1
10
56.3063707006209
20
1.7115089550293
30
0
0
SPLINE
5
CC
100
AcDbEntity
8
1
62
256
6
ByLayer
370
18
48
1
60
0
100
AcDbSpline
70
4
71
3
72
14
73
10
40
0
40
0
40
0
40
0
40
0.005856544218348
40
0.0260210165963545
40
0.0784206722311706
40
0.236885802055486
40
0.403903187282337
40
0.742063539223694
40
1
40
1
40
1
40
1
41
1
10
78.4389506033565
20
-0.226450298246675
30
0
41
1
10
78.438916959282
20
-0.226553734764281
30
0
41
1
10
78.4394638441336
20
-0.227175696716273
30
0
41
1
10
78.4503619466708
20
-0.231182905704458
30
0
41
1
10
78.5227581145153
20
-0.252255897921231
30
0
41
1
10
78.6735125032412
20
-0.294115254261214
30
0
41
1
10
78.9416591543665
20
-0.368040616944711
30
0
41
1
10
79.2816834418976
20
-0.451692137243072
30
0
41
1
10
79.5542874301136
20
-0.518799335466895
30
0
41
1
10
79.6724896338301
20
-0.547987811719537
30
0
0
SPLINE
5
CD
100
AcDbEntity
8
1
62
256
6
ByLayer
370
18
48
1
60
0
100
AcDbSpline
70
4
71
3
72
21
73
17
40
0
40
0
40
0
40
0
40
0.0282436146394412
40
0.0795985942622457
40
0.131742870017481
40
0.182955073563485
40
0.254144758799775
40
0.3274039939725
40
0.392451989224051
40
0.473899556397847
40
0.546387933813661
40
0.609653853506424
40
0.678396512758005
40
0.768497358957141
40
0.889366512541037
40
1
40
1
40
1
40
1
41
1
10
96.5489157601812
20
-0.267975597755111
30
0
41
1
10
96.549945340865
20
-0.263373516616696
30
0
41
1
10
96.5398776426892
20
-0.24717309443804
30
0
41
1
10
96.4832981180917
20
-0.215704213620967
30
0
41
1
10
96.3625043088427
20
-0.16790466556202
30
0
41
1
10
96.1646228626877
20
-0.0921325198686418
30
0
41
1
10
95.8735873740983
20
0.0218756906107558
30
0
41
1
10
95.5330734733878
20
0.161189434914064
30
0
41
1
10
95.1841034678768
20
0.308601586249836
30
0
41
1
10
94.839273808503
20
0.458824011201273
30
0
41
1
10
94.4950453183117
20
0.61368095295424
30
0
41
1
10
94.1576184863316
20
0.770280310554796
30
0
41
1
10
93.7833669544015
20
0.948677601905359
30
0
41
1
10
93.3241348134699
20
1.17462897009938
30
0
41
1
10
92.8084878266941
20
1.43814497384878
30
0
41
1
10
92.4395053109889
20
1.63328856124497
30
0
41
1
10
92.2642661957113
20
1.7275952517285
30
0
0
SPLINE
5
CE
100
AcDbEntity
8
1
62
256
6
ByLayer
370
18
48
1
60
0
100
AcDbSpline
70
4
71
3
72
19
73
15
40
0
40
0
40
0
40
0
40
0.0323048090705636
40
0.0655597521546331
40
0.101846417665678
40
0.142892845174726
40
0.189469735262214
40
0.318509567044038
40
0.426445179658374
40
0.540007048331165
40
0.618863642549994
40
0.730641233416563
40
0.878004901016297
40
1
40
1
40
1
40
1
41
1
10
24.5986950604628
20
-0.252326211353591
30
0
41
1
10
24.5992909429171
20
-0.249674636000776
30
0
41
1
10
24.585523555231
20
-0.241135310935732
30
0
41
1
10
24.5153055148884
20
-0.214457802342224
30
0
41
1
10
24.3998264270677
20
-0.171910168532861
30
0
41
1
10
24.2413577502172
20
-0.112563596498205
30
0
41
1
10
23.9299822101013
20
0.0075281946334371
30
0
41
1
10
23.5196293999769
20
0.174274100442517
30
0
41
1
10
23.0046823451836
20
0.393589714561102
30
0
41
1
10
22.5372558451585
20
0.603965345116109
30
0
41
1
10
22.0581481598304
20
0.82796115843604
30
0
41
1
10
21.5375103145586
20
1.07940331698197
30
0
41
1
10
20.9535004332294
20
1.37342059522234
30
0
41
1
10
20.5419013940243
20
1.59090766967722
30
0
41
1
10
20.355798863183
20
1.6912540163473
30
0
0
SPLINE
5
CF
100
AcDbEntity
8
1
62
256
6
ByLayer
370
18
48
1
60
0
100
AcDbSpline
70
4
71
3
72
14
73
10
40
0
40
0
40
0
40
0
40
0.0240142762419992
40
0.0885225934651346
40
0.278662947674447
40
0.462507015540826
40
0.711957720055635
40
0.964197875382244
40
1
40
1
40
1
40
1
41
1
10
42.6016150468756
20
-0.255335025858301
30
0
41
1
10
42.6015423897491
20
-0.255651009115042
30
0
41
1
10
42.6076242234582
20
-0.258344737242766
30
0
41
1
10
42.6682673753634
20
-0.277823336852265
30
0
41
1
10
42.8030030494424
20
-0.323296672417058
30
0
41
1
10
43.0196869130811
20
-0.386097071074346
30
0
41
1
10
43.3145624186256
20
-0.456451586471644
30
0
41
1
10
43.5478153776868
20
-0.51436165923451
30
0
41
1
10
43.66948829037
20
-0.543660399583956
30
0
41
1
10
43.6845604476436
20
-0.547276207690373
30
0
0
LINE
5
7D
100
AcDbEntity
8
4
62
256
6
ByLayer
370
18
48
0.05
60
0
100
AcDbLine
10
-5
20
0
30
0
11
108
21
0
31
0
39
0
210
0
220
0
230
1
0
LINE
5
7F
100
AcDbEntity
8
81
62
256
6
ByLayer
370
18
48
1
60
0
100
AcDbLine
10
103
20
0
30
0
11
108
21
0
31
0
39
0
210
0
220
0
230
1
0
LINE
5
80
100
AcDbEntity
8
SK4
62
256
6
ByLayer
370
18
48
0.05
60
0
100
AcDbLine
10
-53
20
0
30
0
11
108
21
0
31
0
39
0
210
0
220
0
230
1
0
LINE
5
82
100
AcDbEntity
8
80
62
256
6
ByLayer
370
18
48
1
60
0
100
AcDbLine
10
0
20
0
30
0
11
-5
21
0
31
0
39
0
210
0
220
0
230
1
0
LINE
5
83
100
AcDbEntity
8
1
62
256
6
ByLayer
370
18
48
1
60
0
100
AcDbLine
10
0
20
6.35
30
0
11
0
21
-6.35
31
0
39
0
210
0
220
0
230
1
0
LINE
5
84
100
AcDbEntity
8
1
62
256
6
ByLayer
370
18
48
1
60
0
100
AcDbLine
10
99.566082
20
-6.35
30
0
11
99.566082
21
-2.249521
31
0
39
0
210
0
220
0
230
1
0
LINE
5
85
100
AcDbEntity
8
1
62
256
6
ByLayer
370
18
48
1
60
0
100
AcDbLine
10
99.566082
20
6.35
30
0
11
99.566082
21
6.148413
31
0
39
0
210
0
220
0
230
1
0
LINE
5
86
100
AcDbEntity
8
1
62
256
6
ByLayer
370
18
48
1
60
0
100
AcDbLine
10
0.4
20
-6.312813
30
0
11
0.4
21
6.312813
31
0
39
0
210
0
220
0
230
1
0
LINE
5
87
100
AcDbEntity
8
SK1
62
256
6
ByLayer
370
18
48
1
60
0
100
AcDbLine
10
0
20
6.35
30
0
11
0
21
-6.35
31
0
39
0
210
0
220
0
230
1
0
LINE
5
89
100
AcDbEntity
8
SK1
62
256
6
ByLayer
370
18
48
1
60
0
100
AcDbLine
10
-48
20
-5.35
30
0
11
-48
21
5.35
31
0
39
0
210
0
220
0
230
1
0
LINE
5
8A
100
AcDbEntity
8
SK1
62
256
6
ByLayer
370
18
48
1
60
0
100
AcDbLine
10
-47
20
-6.35
30
0
11
-47
21
6.35
31
0
39
0
210
0
220
0
230
1
0
LINE
5
8B
100
AcDbEntity
8
1
62
256
6
ByLayer
370
18
48
1
60
0
100
AcDbLine
10
103
20
0
30
0
11
99.566082
21
6.35
31
0
39
0
210
0
220
0
230
1
0
LINE
5
8C
100
AcDbEntity
8
1
62
256
6
ByLayer
370
18
48
1
60
0
100
AcDbLine
10
99.566082
20
-6.35
30
0
11
103
21
0
31
0
39
0
210
0
220
0
230
1
0
LINE
5
8D
100
AcDbEntity
8
1
62
256
6
ByLayer
370
18
48
1
60
0
100
AcDbLine
10
0.4
20
6.312813
30
0
11
0
21
6.35
31
0
39
0
210
0
220
0
230
1
0
LINE
5
8E
100
AcDbEntity
8
1
62
256
6
ByLayer
370
18
48
1
60
0
100
AcDbLine
10
0
20
-6.35
30
0
11
0.4
21
-6.312813
31
0
39
0
210
0
220
0
230
1
0
LINE
5
8F
100
AcDbEntity
8
1
62
256
6
ByLayer
370
18
48
1
60
0
100
AcDbLine
10
0.4
20
-6.312813
30
0
11
6.193469
21
-6.314985
31
0
39
0
210
0
220
0
230
1
0
LINE
5
90
100
AcDbEntity
8
1
62
256
6
ByLayer
370
18
48
1
60
0
100
AcDbLine
10
24.695892
20
-6.321924
30
0
11
41.445504
21
-6.328205
31
0
39
0
210
0
220
0
230
1
0
LINE
5
91
100
AcDbEntity
8
1
62
256
6
ByLayer
370
18
48
1
60
0
100
AcDbLine
10
60.684365
20
-6.335419
30
0
11
77.428634
21
-6.341698
31
0
39
0
210
0
220
0
230
1
0
LINE
5
92
100
AcDbEntity
8
1
62
256
6
ByLayer
370
18
48
1
60
0
100
AcDbLine
10
96.672271
20
-6.348915
30
0
11
99.566082
21
-6.35
31
0
39
0
210
0
220
0
230
1
0
LINE
5
93
100
AcDbEntity
8
1
62
256
6
ByLayer
370
18
48
1
60
0
100
AcDbLine
10
99.566082
20
6.35
30
0
11
96.672271
21
6.348915
31
0
39
0
210
0
220
0
230
1
0
LINE
5
94
100
AcDbEntity
8
1
62
256
6
ByLayer
370
18
48
1
60
0
100
AcDbLine
10
77.428634
20
6.341698
30
0
11
60.684365
21
6.335419
31
0
39
0
210
0
220
0
230
1
0
LINE
5
95
100
AcDbEntity
8
1
62
256
6
ByLayer
370
18
48
1
60
0
100
AcDbLine
10
41.445504
20
6.328205
30
0
11
24.695892
21
6.321924
31
0
39
0
210
0
220
0
230
1
0
LINE
5
96
100
AcDbEntity
8
1
62
256
6
ByLayer
370
18
48
1
60
0
100
AcDbLine
10
6.193469
20
6.314985
30
0
11
0.4
21
6.312813
31
0
39
0
210
0
220
0
230
1
0
LINE
5
97
100
AcDbEntity
8
SK1
62
256
6
ByLayer
370
18
48
1
60
0
100
AcDbLine
10
-47
20
-6.35
30
0
11
0
21
-6.35
31
0
39
0
210
0
220
0
230
1
0
LINE
5
98
100
AcDbEntity
8
SK1
62
256
6
ByLayer
370
18
48
1
60
0
100
AcDbLine
10
0
20
6.35
30
0
11
-47
21
6.35
31
0
39
0
210
0
220
0
230
1
0
LINE
5
99
100
AcDbEntity
8
SK1
62
256
6
ByLayer
370
18
48
1
60
0
100
AcDbLine
10
-48
20
-5.35
30
0
11
-47
21
-6.35
31
0
39
0
210
0
220
0
230
1
0
LINE
5
9A
100
AcDbEntity
8
SK1
62
256
6
ByLayer
370
18
48
1
60
0
100
AcDbLine
10
-47
20
6.35
30
0
11
-48
21
5.35
31
0
39
0
210
0
220
0
230
1
0
LINE
5
9B
100
AcDbEntity
8
SK2
62
256
6
ByLayer
370
13
48
1
60
0
100
AcDbLine
10
-54.5
20
-6.35
30
0
11
-54.5
21
34.624683
31
0
39
0
210
0
220
0
230
1
0
LINE
5
9D
100
AcDbEntity
8
SK2
62
256
6
ByLayer
370
13
48
1
60
0
100
AcDbLine
10
-49.5875
20
6.35
30
0
11
-56.5
21
6.35
31
0
39
0
210
0
220
0
230
1
0
LINE
5
9E
100
AcDbEntity
8
SK2
62
256
6
ByLayer
370
13
48
1
60
0
100
AcDbLine
10
-49.5875
20
-6.35
30
0
11
-56.5
21
-6.35
31
0
39
0
210
0
220
0
230
1
0
LINE
5
9F
100
AcDbEntity
8
1
62
256
6
ByLayer
370
18
48
1
60
1
100
AcDbLine
10
-54.5
20
6.35
30
0
11
-54.039216
21
2.850002
31
0
39
0
210
0
220
0
230
1
0
LINE
5
A0
100
AcDbEntity
8
1
62
256
6
ByLayer
370
18
48
1
60
1
100
AcDbLine
10
-54.039216
20
2.850002
30
0
11
-54.960784
21
2.849998
31
0
39
0
210
0
220
0
230
1
0
LINE
5
A1
100
AcDbEntity
8
1
62
256
6
ByLayer
370
18
48
1
60
1
100
AcDbLine
10
-54.960784
20
2.849998
30
0
11
-54.5
21
6.35
31
0
39
0
210
0
220
0
230
1
0
LINE
5
A2
100
AcDbEntity
8
1
62
256
6
ByLayer
370
18
48
1
60
1
100
AcDbLine
10
-54.5
20
-6.35
30
0
11
-54.960784
21
-2.850002
31
0
39
0
210
0
220
0
230
1
0
LINE
5
A3
100
AcDbEntity
8
1
62
256
6
ByLayer
370
18
48
1
60
1
100
AcDbLine
10
-54.960784
20
-2.850002
30
0
11
-54.039216
21
-2.849998
31
0
39
0
210
0
220
0
230
1
0
LINE
5
A4
100
AcDbEntity
8
1
62
256
6
ByLayer
370
18
48
1
60
1
100
AcDbLine
10
-54.039216
20
-2.849998
30
0
11
-54.5
21
-6.35
31
0
39
0
210
0
220
0
230
1
0
LINE
5
A5
100
AcDbEntity
8
2
62
256
6
ByLayer
370
13
48
1
60
0
100
AcDbLine
10
109.066082
20
-6.35
30
0
11
109.066082
21
34.624683
31
0
39
0
210
0
220
0
230
1
0
LINE
5
A7
100
AcDbEntity
8
2
62
256
6
ByLayer
370
13
48
1
60
0
100
AcDbLine
10
101.153582
20
6.35
30
0
11
111.066082
21
6.35
31
0
39
0
210
0
220
0
230
1
0
LINE
5
A8
100
AcDbEntity
8
2
62
256
6
ByLayer
370
13
48
1
60
0
100
AcDbLine
10
101.153582
20
-6.35
30
0
11
111.066082
21
-6.35
31
0
39
0
210
0
220
0
230
1
0
LINE
5
A9
100
AcDbEntity
8
1
62
256
6
ByLayer
370
18
48
1
60
1
100
AcDbLine
10
109.066082
20
6.35
30
0
11
109.526865
21
2.850002
31
0
39
0
210
0
220
0
230
1
0
LINE
5
AA
100
AcDbEntity
8
1
62
256
6
ByLayer
370
18
48
1
60
1
100
AcDbLine
10
109.526865
20
2.850002
30
0
11
108.605298
21
2.849998
31
0
39
0
210
0
220
0
230
1
0
LINE
5
AB
100
AcDbEntity
8
1
62
256
6
ByLayer
370
18
48
1
60
1
100
AcDbLine
10
108.605298
20
2.849998
30
0
11
109.066082
21
6.35
31
0
39
0
210
0
220
0
230
1
0
LINE
5
AC
100
AcDbEntity
8
1
62
256
6
ByLayer
370
18
48
1
60
1
100
AcDbLine
10
109.066082
20
-6.35
30
0
11
108.605298
21
-2.850002
31
0
39
0
210
0
220
0
230
1
0
LINE
5
AD
100
AcDbEntity
8
1
62
256
6
ByLayer
370
18
48
1
60
1
100
AcDbLine
10
108.605298
20
-2.850002
30
0
11
109.526865
21
-2.849998
31
0
39
0
210
0
220
0
230
1
0
LINE
5
AE
100
AcDbEntity
8
1
62
256
6
ByLayer
370
18
48
1
60
1
100
AcDbLine
10
109.526865
20
-2.849998
30
0
11
109.066082
21
-6.35
31
0
39
0
210
0
220
0
230
1
0
LINE
5
AF
100
AcDbEntity
8
2
62
256
6
ByLayer
370
13
48
1
60
0
100
AcDbLine
10
103.755136
20
-1.396397
30
0
11
114.416232
21
-21.110889
31
0
39
0
210
0
220
0
230
1
0
LINE
5
B0
100
AcDbEntity
8
2
62
256
6
ByLayer
370
13
48
1
60
0
100
AcDbLine
10
103.755136
20
1.396397
30
0
11
114.416232
21
21.110889
31
0
39
0
210
0
220
0
230
1
0
LINE
5
B1
100
AcDbEntity
8
1
62
256
6
ByLayer
370
18
48
1
60
1
100
AcDbLine
10
113.464879
20
-19.351649
30
0
11
116.239971
21
-17.169637
31
0
39
0
210
0
220
0
230
1
0
LINE
5
B2
100
AcDbEntity
8
1
62
256
6
ByLayer
370
18
48
1
60
1
100
AcDbLine
10
116.239971
20
-17.169637
30
0
11
116.710161
21
-17.962233
31
0
39
0
210
0
220
0
230
1
0
LINE
5
B3
100
AcDbEntity
8
1
62
256
6
ByLayer
370
18
48
1
60
1
100
AcDbLine
10
116.710161
20
-17.962233
30
0
11
113.464879
21
-19.351649
31
0
39
0
210
0
220
0
230
1
0
LINE
5
B4
100
AcDbEntity
8
1
62
256
6
ByLayer
370
18
48
1
60
1
100
AcDbLine
10
113.464879
20
19.351649
30
0
11
116.710158
21
17.962234
31
0
39
0
210
0
220
0
230
1
0
LINE
5
B5
100
AcDbEntity
8
1
62
256
6
ByLayer
370
18
48
1
60
1
100
AcDbLine
10
116.710158
20
17.962234
30
0
11
116.239974
21
17.169635
31
0
39
0
210
0
220
0
230
1
0
LINE
5
B6
100
AcDbEntity
8
1
62
256
6
ByLayer
370
18
48
1
60
1
100
AcDbLine
10
116.239974
20
17.169635
30
0
11
113.464879
21
19.351649
31
0
39
0
210
0
220
0
230
1
0
LINE
5
D4
100
AcDbEntity
8
1
62
256
6
ByLayer
370
18
48
1
60
1
100
AcDbLine
10
-54.5
20
6.35
30
0
11
-54.039216
21
2.850002
31
0
39
0
210
0
220
0
230
1
0
LINE
5
D5
100
AcDbEntity
8
1
62
256
6
ByLayer
370
18
48
1
60
1
100
AcDbLine
10
-54.039216
20
2.850002
30
0
11
-54.960784
21
2.849998
31
0
39
0
210
0
220
0
230
1
0
LINE
5
D6
100
AcDbEntity
8
1
62
256
6
ByLayer
370
18
48
1
60
1
100
AcDbLine
10
-54.960784
20
2.849998
30
0
11
-54.5
21
6.35
31
0
39
0
210
0
220
0
230
1
0
LINE
5
D8
100
AcDbEntity
8
1
62
256
6
ByLayer
370
18
48
1
60
1
100
AcDbLine
10
-54.5
20
-6.35
30
0
11
-54.960784
21
-2.850002
31
0
39
0
210
0
220
0
230
1
0
LINE
5
D9
100
AcDbEntity
8
1
62
256
6
ByLayer
370
18
48
1
60
1
100
AcDbLine
10
-54.960784
20
-2.850002
30
0
11
-54.039216
21
-2.849998
31
0
39
0
210
0
220
0
230
1
0
LINE
5
DA
100
AcDbEntity
8
1
62
256
6
ByLayer
370
18
48
1
60
1
100
AcDbLine
10
-54.039216
20
-2.849998
30
0
11
-54.5
21
-6.35
31
0
39
0
210
0
220
0
230
1
0
LINE
5
DE
100
AcDbEntity
8
1
62
256
6
ByLayer
370
18
48
1
60
1
100
AcDbLine
10
109.066082
20
6.35
30
0
11
109.526865
21
2.850002
31
0
39
0
210
0
220
0
230
1
0
LINE
5
DF
100
AcDbEntity
8
1
62
256
6
ByLayer
370
18
48
1
60
1
100
AcDbLine
10
109.526865
20
2.850002
30
0
11
108.605298
21
2.849998
31
0
39
0
210
0
220
0
230
1
0
LINE
5
E0
100
AcDbEntity
8
1
62
256
6
ByLayer
370
18
48
1
60
1
100
AcDbLine
10
108.605298
20
2.849998
30
0
11
109.066082
21
6.35
31
0
39
0
210
0
220
0
230
1
0
LINE
5
E2
100
AcDbEntity
8
1
62
256
6
ByLayer
370
18
48
1
60
1
100
AcDbLine
10
109.066082
20
-6.35
30
0
11
108.605298
21
-2.850002
31
0
39
0
210
0
220
0
230
1
0
LINE
5
E3
100
AcDbEntity
8
1
62
256
6
ByLayer
370
18
48
1
60
1
100
AcDbLine
10
108.605298
20
-2.850002
30
0
11
109.526865
21
-2.849998
31
0
39
0
210
0
220
0
230
1
0
LINE
5
E4
100
AcDbEntity
8
1
62
256
6
ByLayer
370
18
48
1
60
1
100
AcDbLine
10
109.526865
20
-2.849998
30
0
11
109.066082
21
-6.35
31
0
39
0
210
0
220
0
230
1
0
LINE
5
E7
100
AcDbEntity
8
1
62
256
6
ByLayer
370
18
48
1
60
1
100
AcDbLine
10
113.464879
20
-19.351649
30
0
11
116.239971
21
-17.169637
31
0
39
0
210
0
220
0
230
1
0
LINE
5
E8
100
AcDbEntity
8
1
62
256
6
ByLayer
370
18
48
1
60
1
100
AcDbLine
10
116.239971
20
-17.169637
30
0
11
116.710161
21
-17.962233
31
0
39
0
210
0
220
0
230
1
0
LINE
5
E9
100
AcDbEntity
8
1
62
256
6
ByLayer
370
18
48
1
60
1
100
AcDbLine
10
116.710161
20
-17.962233
30
0
11
113.464879
21
-19.351649
31
0
39
0
210
0
220
0
230
1
0
LINE
5
EB
100
AcDbEntity
8
1
62
256
6
ByLayer
370
18
48
1
60
1
100
AcDbLine
10
113.464879
20
19.351649
30
0
11
116.710158
21
17.962234
31
0
39
0
210
0
220
0
230
1
0
LINE
5
EC
100
AcDbEntity
8
1
62
256
6
ByLayer
370
18
48
1
60
1
100
AcDbLine
10
116.710158
20
17.962234
30
0
11
116.239974
21
17.169635
31
0
39
0
210
0
220
0
230
1
0
LINE
5
ED
100
AcDbEntity
8
1
62
256
6
ByLayer
370
18
48
1
60
1
100
AcDbLine
10
116.239974
20
17.169635
30
0
11
113.464879
21
19.351649
31
0
39
0
210
0
220
0
230
1
0
MTEXT
5
D0
100
AcDbEntity
8
SK2
62
256
6
ByLayer
370
18
48
1
60
0
100
AcDbMText
10
-55.841114
20
18.008437
30
0
210
0
220
0
230
1
1
%%c
40
3
41
0
44
1.084337
50
90
71
7
72
5
7
iso_b_vert
0
MTEXT
5
D3
100
AcDbEntity
8
SK2
62
256
6
ByLayer
370
18
48
1
60
0
100
AcDbMText
10
-55.841114
20
23.985
30
0
210
0
220
0
230
1
1
\W0.7022;12.700
40
3
41
0
44
1.084337
50
90
71
7
72
5
7
iso_b_vert
0
MTEXT
5
DC
100
AcDbEntity
8
2
62
256
6
ByLayer
370
18
48
1
60
0
100
AcDbMText
10
107.724967
20
18.008437
30
0
210
0
220
0
230
1
1
%%c
40
3
41
0
44
1.084337
50
90
71
7
72
5
7
iso_b_vert
0
MTEXT
5
DD
100
AcDbEntity
8
2
62
256
6
ByLayer
370
18
48
1
60
0
100
AcDbMText
10
107.724967
20
23.985
30
0
210
0
220
0
230
1
1
\W0.7022;12.700
40
3
41
0
44
1.084337
50
90
71
7
72
5
7
iso_b_vert
0
MTEXT
5
E6
100
AcDbEntity
8
2
62
256
6
ByLayer
370
18
48
1
60
0
100
AcDbMText
10
122.092229
20
-2.114886
30
0
210
0
220
0
230
1
1
\W0.6008;118%%d
40
3
41
0
44
1.084337
50
0
71
7
72
5
7
iso_b_vert
0
MTEXT
5
EF
100
AcDbEntity
8
SK6
62
256
6
ByLayer
370
18
48
1
60
0
100
AcDbMText
10
22.075411
20
-67.114886
30
0
210
0
220
0
230
1
1
\W0.7500;R0031/2
40
3
41
0
44
1.084337
50
0
71
7
72
5
7
iso_b_vert
0
HATCH
5
D7
100
AcDbEntity
8
SK2
62
256
6
ByLayer
370
13
48
1
60
0
100
AcDbHatch
10
0
20
0
30
0
210
0
220
0
230
1
2
ANSI31
70
0
71
0
91
1
92
5
93
3
72
1
10
-54.5
20
6.34999999999999
11
-54.0392162584472
21
2.85000169255318
72
1
10
-54.0392162584472
20
2.85000169255318
11
-54.9607837415528
21
2.84999830744681
72
1
10
-54.9607837415528
20
2.84999830744681
11
-54.5
21
6.34999999999999
97
0
75
0
76
1
52
0
41
0.0062
77
0
78
1
53
45
43
0
44
0
45
-0.0139193969876572
46
0.0139193969876572
79
0
47
0
98
1
10
0
20
0
0
HATCH
5
DB
100
AcDbEntity
8
SK2
62
256
6
ByLayer
370
13
48
1
60
0
100
AcDbHatch
10
0
20
0
30
0
210
0
220
0
230
1
2
ANSI31
70
0
71
0
91
1
92
5
93
3
72
1
10
-54.5
20
-6.35000000000002
11
-54.9607837415528
21
-2.85000169255321
72
1
10
-54.9607837415528
20
-2.85000169255321
11
-54.0392162584472
21
-2.84999830744684
72
1
10
-54.0392162584472
20
-2.84999830744684
11
-54.5
21
-6.35000000000002
97
0
75
0
76
1
52
0
41
0.0062
77
0
78
1
53
45
43
0
44
0
45
-0.0139193969876572
46
0.0139193969876572
79
0
47
0
98
1
10
0
20
0
0
HATCH
5
E1
100
AcDbEntity
8
2
62
256
6
ByLayer
370
13
48
1
60
0
100
AcDbHatch
10
0
20
0
30
0
210
0
220
0
230
1
2
ANSI31
70
0
71
0
91
1
92
5
93
3
72
1
10
109.066081562257
20
6.34999999999999
11
109.52686530381
21
2.85000169255318
72
1
10
109.52686530381
20
2.85000169255318
11
108.605297820705
21
2.84999830744681
72
1
10
108.605297820705
20
2.84999830744681
11
109.066081562257
21
6.34999999999999
97
0
75
0
76
1
52
0
41
0.0062
77
0
78
1
53
45
43
0
44
0
45
-0.0139193969876572
46
0.0139193969876572
79
0
47
0
98
1
10
0
20
0
0
HATCH
5
E5
100
AcDbEntity
8
2
62
256
6
ByLayer
370
13
48
1
60
0
100
AcDbHatch
10
0
20
0
30
0
210
0
220
0
230
1
2
ANSI31
70
0
71
0
91
1
92
5
93
3
72
1
10
109.066081562257
20
-6.35000000000002
11
108.605297820705
21
-2.85000169255321
72
1
10
108.605297820705
20
-2.85000169255321
11
109.52686530381
21
-2.84999830744684
72
1
10
109.52686530381
20
-2.84999830744684
11
109.066081562257
21
-6.35000000000002
97
0
75
0
76
1
52
0
41
0.0062
77
0
78
1
53
45
43
0
44
0
45
-0.0139193969876572
46
0.0139193969876572
79
0
47
0
98
1
10
0
20
0
0
HATCH
5
EA
100
AcDbEntity
8
2
62
256
6
ByLayer
370
13
48
1
60
0
100
AcDbHatch
10
0
20
0
30
0
210
0
220
0
230
1
2
ANSI31
70
0
71
0
91
1
92
5
93
3
72
1
10
113.464879198752
20
-19.3516485952885
11
116.239971107838
21
-17.1696369764528
72
1
10
116.239971107838
20
-17.1696369764528
11
116.710161392925
21
-17.9622325364573
72
1
10
116.710161392925
20
-17.9622325364573
11
113.464879198752
21
-19.3516485952885
97
0
75
0
76
1
52
0
41
0.0062
77
0
78
1
53
45
43
0
44
0
45
-0.0139193969876572
46
0.0139193969876572
79
0
47
0
98
1
10
0
20
0
0
HATCH
5
EE
100
AcDbEntity
8
2
62
256
6
ByLayer
370
13
48
1
60
0
100
AcDbHatch
10
0
20
0
30
0
210
0
220
0
230
1
2
ANSI31
70
0
71
0
91
1
92
5
93
3
72
1
10
113.464879198752
20
19.3516485952885
11
116.710158481553
21
17.9622342635519
72
1
10
116.710158481553
20
17.9622342635519
11
116.239974019211
21
17.1696352493581
72
1
10
116.239974019211
20
17.1696352493581
11
113.464879198752
21
19.3516485952885
97
0
75
0
76
1
52
0
41
0.0062
77
0
78
1
53
45
43
0
44
0
45
-0.0139193969876572
46
0.0139193969876572
79
0
47
0
98
1
10
0
20
0
0
DIMENSION
5
F2
100
AcDbEntity
8
SK2
62
256
6
ByLayer
370
18
48
1
60
0
100
AcDbDimension
2
_U0
10
103
20
-47.931466
30
0
11
27.5
21
-47.931466
31
0
70
32
71
1
72
1
41
1
210
0
220
0
230
1
3
Standard
100
AcDbAlignedDimension
13
-48
23
-6.35
33
0
14
103
24
0
34
0
50
0
100
AcDbRotatedDimension
1001
ACAD
1000
DSTYLE
1002
{
1070
   371
1070
    13
1070
   372
1070
    13
1070
     3
1000

1070
   170
1070
     0
1070
   144
1040
1.0
1070
   277
1070
     2
1070
   284
1070
     8
1070
   278
1070
    46
1070
   146
1040
1.166667
1070
   345
1005
16
1070
   347
1005
16
1070
   346
1005
16
1070
   344
1005
0
1070
   343
1005
0
1070
   172
1070
     1
1070
    76
1070
     0
1070
    75
1070
     0
1070
   282
1070
     0
1070
   281
1070
     0
1070
    71
1070
     0
1070
    74
1070
     0
1070
   279
1070
     0
1070
   173
1070
     1
1070
   340
1005
D1
1070
   271
1070
     2
1070
   272
1070
     3
1070
    77
1070
     1
1070
    73
1070
     1
1070
   171
1070
     3
1070
   274
1070
     4
1070
   177
1070
     2
1070
   176
1070
     2
1070
   178
1070
     2
1070
    78
1070
     8
1070
    48
1040
-0.1
1070
    41
1040
3.5
1070
   147
1040
1.5
1070
    42
1040
1.5875
1070
    44
1040
2.0
1070
   140
1040
3.0
1002
}
1001
ACAD_DSTYLE_DIM_LINETYPE
1070
   380
1005
16
1001
ACAD_DSTYLE_DIM_EXT1_LINETYPE
1070
   381
1005
16
1001
ACAD_DSTYLE_DIM_EXT2_LINETYPE
1070
   382
1005
16
0
DIMENSION
5
10B
100
AcDbEntity
8
2
62
256
6
ByLayer
370
18
48
1
60
0
100
AcDbDimension
2
_U1
10
2
20
-37.931466
30
0
11
52.5
21
-37.931466
31
0
70
32
71
1
72
1
41
1
210
0
220
0
230
1
3
Standard
100
AcDbAlignedDimension
13
103
23
0
33
0
14
2
24
-6.35
34
0
50
0
100
AcDbRotatedDimension
1001
ACAD
1000
DSTYLE
1002
{
1070
   371
1070
    13
1070
   372
1070
    13
1070
     3
1000

1070
   170
1070
     0
1070
   144
1040
1.0
1070
   277
1070
     2
1070
   284
1070
     8
1070
   278
1070
    46
1070
   146
1040
1.166667
1070
   345
1005
16
1070
   347
1005
16
1070
   346
1005
16
1070
   344
1005
0
1070
   343
1005
0
1070
   172
1070
     1
1070
    76
1070
     0
1070
    75
1070
     0
1070
   282
1070
     0
1070
   281
1070
     0
1070
    71
1070
     0
1070
    74
1070
     0
1070
   279
1070
     0
1070
   173
1070
     1
1070
   340
1005
D1
1070
   271
1070
     2
1070
   272
1070
     3
1070
    77
1070
     1
1070
    73
1070
     1
1070
   171
1070
     3
1070
   274
1070
     4
1070
   177
1070
     2
1070
   176
1070
     2
1070
   178
1070
     2
1070
    78
1070
     8
1070
    48
1040
-0.1
1070
    41
1040
3.5
1070
   147
1040
1.5
1070
    42
1040
1.5875
1070
    44
1040
2.0
1070
   140
1040
3.0
1002
}
1001
ACAD_DSTYLE_DIM_LINETYPE
1070
   380
1005
16
1001
ACAD_DSTYLE_DIM_EXT1_LINETYPE
1070
   381
1005
16
1001
ACAD_DSTYLE_DIM_EXT2_LINETYPE
1070
   382
1005
16
0
DIMENSION
5
123
100
AcDbEntity
8
SK2
62
256
6
ByLayer
370
18
48
1
60
0
100
AcDbDimension
2
_U2
10
0
20
-32.931466
30
0
11
-24
21
-32.931466
31
0
70
32
71
1
72
1
41
1
210
0
220
0
230
1
3
Standard
100
AcDbAlignedDimension
13
-48
23
-6.35
33
0
14
0
24
-6.35
34
0
50
0
100
AcDbRotatedDimension
1001
ACAD
1000
DSTYLE
1002
{
1070
   371
1070
    13
1070
   372
1070
    13
1070
     3
1000

1070
   170
1070
     0
1070
   144
1040
1.0
1070
   277
1070
     2
1070
   284
1070
     8
1070
   278
1070
    46
1070
   146
1040
1.166667
1070
   345
1005
16
1070
   347
1005
16
1070
   346
1005
16
1070
   344
1005
0
1070
   343
1005
0
1070
   172
1070
     1
1070
    76
1070
     0
1070
    75
1070
     0
1070
   282
1070
     0
1070
   281
1070
     0
1070
    71
1070
     0
1070
    74
1070
     0
1070
   279
1070
     0
1070
   173
1070
     1
1070
   340
1005
D1
1070
   271
1070
     2
1070
   272
1070
     3
1070
    77
1070
     1
1070
    73
1070
     1
1070
   171
1070
     3
1070
   274
1070
     4
1070
   177
1070
     2
1070
   176
1070
     2
1070
   178
1070
     2
1070
    78
1070
     8
1070
    48
1040
-0.1
1070
    41
1040
3.5
1070
   147
1040
1.5
1070
    42
1040
1.5875
1070
    44
1040
2.0
1070
   140
1040
3.0
1002
}
1001
ACAD_DSTYLE_DIM_LINETYPE
1070
   380
1005
16
1001
ACAD_DSTYLE_DIM_EXT1_LINETYPE
1070
   381
1005
16
1001
ACAD_DSTYLE_DIM_EXT2_LINETYPE
1070
   382
1005
16
0
DIMENSION
5
13B
100
AcDbEntity
8
2
62
256
6
ByLayer
370
18
48
1
60
0
100
AcDbDimension
2
_U3
10
27.25
20
-30.931466
30
0
11
65.125
21
-30.931466
31
0
70
32
71
1
72
1
41
1
210
0
220
0
230
1
3
Standard
100
AcDbAlignedDimension
13
103
23
0
33
0
14
27.25
24
-6.35
34
0
50
0
100
AcDbRotatedDimension
1001
ACAD
1000
DSTYLE
1002
{
1070
   371
1070
    13
1070
   372
1070
    13
1070
     3
1000

1070
   170
1070
     0
1070
   144
1040
1.0
1070
   277
1070
     2
1070
   284
1070
     8
1070
   278
1070
    46
1070
   146
1040
1.166667
1070
   345
1005
16
1070
   347
1005
16
1070
   346
1005
16
1070
   344
1005
0
1070
   343
1005
0
1070
   172
1070
     1
1070
    76
1070
     0
1070
    75
1070
     0
1070
   282
1070
     0
1070
   281
1070
     0
1070
    71
1070
     0
1070
    74
1070
     0
1070
   279
1070
     0
1070
   173
1070
     1
1070
   340
1005
D1
1070
   271
1070
     2
1070
   272
1070
     3
1070
    77
1070
     1
1070
    73
1070
     1
1070
   171
1070
     3
1070
   274
1070
     4
1070
   177
1070
     2
1070
   176
1070
     2
1070
   178
1070
     2
1070
    78
1070
     8
1070
    48
1040
-0.1
1070
    41
1040
3.5
1070
   147
1040
1.5
1070
    42
1040
1.5875
1070
    44
1040
2.0
1070
   140
1040
3.0
1002
}
1001
ACAD_DSTYLE_DIM_LINETYPE
1070
   380
1005
16
1001
ACAD_DSTYLE_DIM_EXT1_LINETYPE
1070
   381
1005
16
1001
ACAD_DSTYLE_DIM_EXT2_LINETYPE
1070
   382
1005
16
0
ENDSEC
0
SECTION
2
OBJECTS
0
DICTIONARY
5
1c5
330
0
100
AcDbDictionary
280
0
281
1
3
ACAD_GROUP
350
1c6
3
ACAD_MLINESTYLE
350
1c7
0
DICTIONARY
5
1c6
330
0
100
AcDbDictionary
280
0
281
1
0
DICTIONARY
5
1c7
330
0
100
AcDbDictionary
280
0
281
1
3
Standard
350
18
0
MLINESTYLE
5
18
330
1c7
100
AcDbMlineStyle
2
Standard
70
0
3

62
256
51
90
52
90
71
2
49
-0.5
62
256
6
ByLayer
49
0.5
62
256
6
ByLayer
0
RASTERVARIABLES
5
1b1
330

100
AcDbRasterVariables
90
0
70
1
71
1
72
1
0
ENDSEC
0
EOF
