0
SECTION
2
HEADER
9
$ACADVER
1
AC1015
9
$DWGCODEPAGE
3
ANSI_1252
9
$HANDSEED
5
1cf
9
$ANGBASE
50
0
9
$ANGDIR
70
0
9
$ATTMODE
70
1
9
$AUNITS
70
0
9
$AUPREC
70
0
9
$CECOLOR
62
256
9
$CELTSCALE
40
1
9
$CELTYPE
6
ByLayer
9
$CELWEIGHT
370
18
9
$CLAYER
8
0
9
$CMLJUST
70
0
9
$CMLSCALE
40
1
9
$CMLSTYLE
2
Standard
9
$DIMSTYLE
2
Standard
9
$TEXTSIZE
40
0.2
9
$TEXTSTYLE
7
Standard
9
$LUNITS
70
2
9
$LUPREC
70
4
9
$EXTNAMES
290
1
9
$INSUNITS
70
4
9
$LTSCALE
40
1
9
$LWDISPLAY
290
1
9
$PDMODE
70
0
9
$PDSIZE
40
0
9
$PLINEGEN
70
0
0
ENDSEC
0
SECTION
2
CLASSES
0
CLASS
1
RASTERVARIABLES
2
AcDbRasterVariables
3
ISM
90
0
280
0
281
0
0
ENDSEC
0
SECTION
2
TABLES
0
TABLE
2
VPORT
5
1c5
100
AcDbSymbolTable
0
VPORT
5
1
100
AcDbSymbolTableRecord
100
AcDbViewportTableRecord
2
*Active
70
0
10
0
20
0
11
1
21
1
12
-1
22
1
13
0
23
0
14
0.5
24
0.5
15
10
25
10
16
0
26
0
36
1
17
0
27
0
37
0
0
ENDTAB
0
TABLE
2
LTYPE
5
1c6
100
AcDbSymbolTable
0
LTYPE
5
14
100
AcDbSymbolTableRecord
100
AcDbLinetypeTableRecord
70
0
2
ByBlock
3

72
65
73
0
40
0
0
LTYPE
5
15
100
AcDbSymbolTableRecord
100
AcDbLinetypeTableRecord
70
0
2
ByLayer
3

72
65
73
0
40
0
0
LTYPE
5
16
100
AcDbSymbolTableRecord
100
AcDbLinetypeTableRecord
70
0
2
Continuous
3
Solid line
72
65
73
0
40
0
0
LTYPE
5
6E
100
AcDbSymbolTableRecord
100
AcDbLinetypeTableRecord
70
0
2
CENTER
3
____ _ ____ _ ____ _ ____
72
65
73
4
40
47.5
49
22
74
0
49
-8.5
74
0
49
8.5
74
0
49
-8.5
74
0
0
LTYPE
5
6F
100
AcDbSymbolTableRecord
100
AcDbLinetypeTableRecord
70
0
2
DASHED
3
__ __ __ __ __ __ __ __ __
72
65
73
2
40
25.72
49
12.86
74
0
49
-12.86
74
0
0
ENDTAB
0
TABLE
2
LAYER
5
1c7
100
AcDbSymbolTable
0
LAYER
5
10
100
AcDbSymbolTableRecord
100
AcDbLayerTableRecord
2
0
70
0
62
7
6
Continuous
290
1
370
-3
390
0
0
LAYER
5
71
100
AcDbSymbolTableRecord
100
AcDbLayerTableRecord
2
81
70
0
62
-3
6
Continuous
290
1
370
-3
390
0
0
LAYER
5
73
100
AcDbSymbolTableRecord
100
AcDbLayerTableRecord
2
80
70
0
62
-6
6
Continuous
290
1
370
-3
390
0
0
LAYER
5
75
100
AcDbSymbolTableRecord
100
AcDbLayerTableRecord
2
1
70
0
62
4
6
Continuous
290
1
370
-3
390
0
0
LAYER
5
7F
100
AcDbSymbolTableRecord
100
AcDbLayerTableRecord
2
4
70
0
62
-2
6
CENTER
290
1
370
-3
390
0
0
LAYER
5
A8
100
AcDbSymbolTableRecord
100
AcDbLayerTableRecord
2
2
70
0
62
7
6
Continuous
290
1
370
-3
390
0
0
LAYER
5
F1
100
AcDbSymbolTableRecord
100
AcDbLayerTableRecord
2
Defpoints
70
0
62
7
6
Continuous
290
0
370
-3
390
0
0
LAYER
5
1af
100
AcDbSymbolTableRecord
100
AcDbLayerTableRecord
2
SK4
70
0
62
2
6
CENTER
290
1
370
-3
390
0
0
LAYER
5
1b0
100
AcDbSymbolTableRecord
100
AcDbLayerTableRecord
2
SK1
70
0
62
4
6
Continuous
290
1
370
-3
390
0
0
LAYER
5
1b1
100
AcDbSymbolTableRecord
100
AcDbLayerTableRecord
2
SK2
70
0
62
7
6
Continuous
290
1
370
-3
390
0
0
LAYER
5
1b2
100
AcDbSymbolTableRecord
100
AcDbLayerTableRecord
2
CUT
70
0
62
-1
6
Continuous
290
1
370
-3
390
0
0
LAYER
5
1b3
100
AcDbSymbolTableRecord
100
AcDbLayerTableRecord
2
NOCUT
70
0
62
-7
6
Continuous
290
1
370
-3
390
0
0
LAYER
5
1b4
100
AcDbSymbolTableRecord
100
AcDbLayerTableRecord
2
SK6
70
0
62
5
6
Continuous
290
1
370
-3
390
0
0
ENDTAB
0
TABLE
2
STYLE
5
1c8
100
AcDbSymbolTable
0
STYLE
5
11
100
AcDbSymbolTableRecord
100
AcDbTextStyleTableRecord
2
Standard
3
txt
70
0
71
0
40
0
41
1
42
0
50
0
0
STYLE
5
CD
100
AcDbSymbolTableRecord
100
AcDbTextStyleTableRecord
2
iso_b_vert
3
simplex.shx
70
0
71
0
40
0
41
1
42
0
50
0
0
STYLE
5
CE
100
AcDbSymbolTableRecord
100
AcDbTextStyleTableRecord
2
DWGDirectTextStyle
3
simplex
70
0
71
0
40
0
41
1
42
0
50
0
0
ENDTAB
0
TABLE
2
DIMSTYLE
5
1c9
100
AcDbSymbolTable
100
AcDbDimStyleTable
0
DIMSTYLE
105
27
100
AcDbSymbolTableRecord
100
AcDbDimStyleTableRecord
2
Standard
70
0
3
<>
41
0.18
42
0.0625
44
0.18
140
0.18
147
0.09
73
0
74
0
77
1
271
2
275
0
278
52
280
0
340
11
0
ENDTAB
0
TABLE
2
VIEW
5
1ca
100
AcDbSymbolTable
0
ENDTAB
0
TABLE
2
UCS
5
1cb
100
AcDbSymbolTable
0
ENDTAB
0
TABLE
2
APPID
5
1cc
100
AcDbSymbolTable
0
APPID
5
12
100
AcDbSymbolTableRecord
100
AcDbRegAppTableRecord
2
ACAD
70
0
0
APPID
5
ED
100
AcDbSymbolTableRecord
100
AcDbRegAppTableRecord
2
ACAD_DSTYLE_DIMBREAK
70
0
0
APPID
5
16E
100
AcDbSymbolTableRecord
100
AcDbRegAppTableRecord
2
ACAD_DSTYLE_DIM_LINETYPE
70
0
0
APPID
5
16F
100
AcDbSymbolTableRecord
100
AcDbRegAppTableRecord
2
ACAD_DSTYLE_DIM_EXT1_LINETYPE
70
0
0
APPID
5
170
100
AcDbSymbolTableRecord
100
AcDbRegAppTableRecord
2
ACAD_DSTYLE_DIM_EXT2_LINETYPE
70
0
0
APPID
5
1AB
100
AcDbSymbolTableRecord
100
AcDbRegAppTableRecord
2
ACAD_MLEADERVER
70
0
0
ENDTAB
0
TABLE
2
BLOCK_RECORD
5
1cd
100
AcDbSymbolTable
0
BLOCK_RECORD
5
1F
100
AcDbSymbolTableRecord
100
AcDbBlockTableRecord
2
*Model_Space
340
0
70
0
0
BLOCK_RECORD
5
1B
100
AcDbSymbolTableRecord
100
AcDbBlockTableRecord
2
*Paper_Space
340
0
70
0
0
BLOCK_RECORD
5
23
100
AcDbSymbolTableRecord
100
AcDbBlockTableRecord
2
*Paper_Space0
340
0
70
0
0
BLOCK_RECORD
5
F2
100
AcDbSymbolTableRecord
100
AcDbBlockTableRecord
2
*D1
340
0
70
0
0
BLOCK_RECORD
5
FE
100
AcDbSymbolTableRecord
100
AcDbBlockTableRecord
2
_U0
340
0
70
0
0
BLOCK_RECORD
5
10A
100
AcDbSymbolTableRecord
100
AcDbBlockTableRecord
2
*D3
340
0
70
0
0
BLOCK_RECORD
5
116
100
AcDbSymbolTableRecord
100
AcDbBlockTableRecord
2
_U1
340
0
70
0
0
BLOCK_RECORD
5
122
100
AcDbSymbolTableRecord
100
AcDbBlockTableRecord
2
*D5
340
0
70
0
0
BLOCK_RECORD
5
12E
100
AcDbSymbolTableRecord
100
AcDbBlockTableRecord
2
_U2
340
0
70
0
0
BLOCK_RECORD
5
13A
100
AcDbSymbolTableRecord
100
AcDbBlockTableRecord
2
*D7
340
0
70
0
0
BLOCK_RECORD
5
147
100
AcDbSymbolTableRecord
100
AcDbBlockTableRecord
2
_U3
340
0
70
0
0
ENDTAB
0
ENDSEC
0
SECTION
2
BLOCKS
0
BLOCK
5
20
100
AcDbEntity
8
0
100
AcDbBlockBegin
2
*Model_Space
70
0
10
0
20
0
30
0
3
*Model_Space
0
ENDBLK
5
21
100
AcDbEntity
8
0
100
AcDbBlockEnd
0
BLOCK
5
1C
100
AcDbEntity
8
0
100
AcDbBlockBegin
2
*Paper_Space
70
0
10
0
20
0
30
0
3
*Paper_Space
0
ENDBLK
5
1D
100
AcDbEntity
8
0
100
AcDbBlockEnd
0
BLOCK
5
24
100
AcDbEntity
8
0
100
AcDbBlockBegin
2
*Paper_Space0
70
0
10
0
20
0
30
0
3
*Paper_Space0
0
ENDBLK
5
25
100
AcDbEntity
8
0
100
AcDbBlockEnd
0
BLOCK
5
F3
100
AcDbEntity
8
0
100
AcDbBlockBegin
2
*D1
70
1
10
0
20
0
30
0
3
*D1
0
LINE
5
F5
100
AcDbEntity
8
0
62
256
6
ByLayer
370
-2
48
1
60
0
100
AcDbLine
10
-21
20
-2.3815
30
0
11
-21
21
-48.375056
31
0
39
0
210
0
220
0
230
1
0
LINE
5
F6
100
AcDbEntity
8
0
62
256
6
ByLayer
370
-2
48
1
60
0
100
AcDbLine
10
22
20
-1.5875
30
0
11
22
21
-48.375056
31
0
39
0
210
0
220
0
230
1
0
LINE
5
F7
100
AcDbEntity
8
0
62
256
6
ByLayer
370
-2
48
1
60
0
100
AcDbLine
10
-17.5
20
-46.375056
30
0
11
18.5
21
-46.375056
31
0
39
0
210
0
220
0
230
1
0
SOLID
5
F8
100
AcDbEntity
8
0
62
256
6
ByLayer
370
-1
48
1
60
0
100
AcDbTrace
10
-17.5
20
-45.791723
30
0
11
-17.5
21
-46.95839
31
0
12
-21
22
-46.375056
32
0
13
-21
23
-46.375056
33
0
39
0
210
0
220
0
230
1
0
SOLID
5
F9
100
AcDbEntity
8
0
62
256
6
ByLayer
370
-1
48
1
60
0
100
AcDbTrace
10
18.5
20
-46.95839
30
0
11
18.5
21
-45.791723
31
0
12
22
22
-46.375056
32
0
13
22
23
-46.375056
33
0
39
0
210
0
220
0
230
1
0
MTEXT
5
FA
100
AcDbEntity
8
0
62
256
6
ByLayer
370
18
48
1
60
0
100
AcDbMText
10
0.5
20
-40.375056
30
0
210
0
220
0
230
1
1
\A1;43
40
3
41
0
44
1
50
0
71
5
72
5
7
iso_b_vert
0
POINT
5
FB
100
AcDbEntity
8
Defpoints
62
0
6
ByLayer
370
-1
48
1
60
0
100
AcDbPoint
10
-21
20
-0.794
30
0
39
0
210
0
220
0
230
1
50
360
0
POINT
5
FC
100
AcDbEntity
8
Defpoints
62
0
6
ByLayer
370
-1
48
1
60
0
100
AcDbPoint
10
22
20
0
30
0
39
0
210
0
220
0
230
1
50
360
0
POINT
5
FD
100
AcDbEntity
8
Defpoints
62
0
6
ByLayer
370
-1
48
1
60
0
100
AcDbPoint
10
22
20
-46.375056
30
0
39
0
210
0
220
0
230
1
50
360
0
ENDBLK
5
F4
100
AcDbEntity
8
0
100
AcDbBlockEnd
0
BLOCK
5
105
100
AcDbEntity
8
0
100
AcDbBlockBegin
2
_U0
70
0
10
0
20
0
30
0
3
_U0
0
MTEXT
5
FF
100
AcDbEntity
8
SK2
62
256
6
ByLayer
370
18
48
1
60
0
100
AcDbMText
10
-4.140313
20
-45.489942
30
0
210
0
220
0
230
1
1
\W0.7694;43.00
40
3
41
0
44
1.084337
50
0
71
7
72
5
7
iso_b_vert
0
LINE
5
100
100
AcDbEntity
8
SK2
62
256
6
ByLayer
370
13
48
1
60
0
100
AcDbLine
10
-21
20
-2.3815
30
0
11
-21
21
-48.375056
31
0
39
0
210
0
220
0
230
1
0
LINE
5
101
100
AcDbEntity
8
SK2
62
256
6
ByLayer
370
13
48
1
60
0
100
AcDbLine
10
22
20
-1.5875
30
0
11
22
21
-48.375056
31
0
39
0
210
0
220
0
230
1
0
LINE
5
102
100
AcDbEntity
8
SK2
62
256
6
ByLayer
370
13
48
1
60
0
100
AcDbLine
10
-21
20
-46.375056
30
0
11
22
21
-46.375056
31
0
39
0
210
0
220
0
230
1
0
SOLID
5
103
100
AcDbEntity
8
SK2
62
256
6
ByLayer
370
18
48
1
60
0
100
AcDbTrace
10
-21
20
-46.375056
30
0
11
-17.500002
21
-45.914272
31
0
12
-17.499998
22
-46.83584
32
0
13
-17.499998
23
-46.83584
33
0
39
0
210
0
220
0
230
1
0
SOLID
5
104
100
AcDbEntity
8
SK2
62
256
6
ByLayer
370
18
48
1
60
0
100
AcDbTrace
10
22
20
-46.375056
30
0
11
18.500002
21
-46.83584
31
0
12
18.499998
22
-45.914272
32
0
13
18.499998
23
-45.914272
33
0
39
0
210
0
220
0
230
1
0
ENDBLK
5
106
100
AcDbEntity
8
0
100
AcDbBlockEnd
0
BLOCK
5
10B
100
AcDbEntity
8
0
100
AcDbBlockBegin
2
*D3
70
1
10
0
20
0
30
0
3
*D3
0
LINE
5
10D
100
AcDbEntity
8
0
62
256
6
ByLayer
370
-2
48
1
60
0
100
AcDbLine
10
22
20
-1.5875
30
0
11
22
21
-38.375056
31
0
39
0
210
0
220
0
230
1
0
LINE
5
10E
100
AcDbEntity
8
0
62
256
6
ByLayer
370
-2
48
1
60
0
100
AcDbLine
10
2
20
-2.3815
30
0
11
2
21
-38.375056
31
0
39
0
210
0
220
0
230
1
0
LINE
5
10F
100
AcDbEntity
8
0
62
256
6
ByLayer
370
-2
48
1
60
0
100
AcDbLine
10
18.5
20
-36.375056
30
0
11
5.5
21
-36.375056
31
0
39
0
210
0
220
0
230
1
0
SOLID
5
110
100
AcDbEntity
8
0
62
256
6
ByLayer
370
-1
48
1
60
0
100
AcDbTrace
10
18.5
20
-36.95839
30
0
11
18.5
21
-35.791723
31
0
12
22
22
-36.375056
32
0
13
22
23
-36.375056
33
0
39
0
210
0
220
0
230
1
0
SOLID
5
111
100
AcDbEntity
8
0
62
256
6
ByLayer
370
-1
48
1
60
0
100
AcDbTrace
10
5.5
20
-35.791723
30
0
11
5.5
21
-36.95839
31
0
12
2
22
-36.375056
32
0
13
2
23
-36.375056
33
0
39
0
210
0
220
0
230
1
0
MTEXT
5
112
100
AcDbEntity
8
0
62
256
6
ByLayer
370
18
48
1
60
0
100
AcDbMText
10
12
20
-30.375056
30
0
210
0
220
0
230
1
1
\A1;20
40
3
41
0
44
1
50
0
71
5
72
5
7
iso_b_vert
0
POINT
5
113
100
AcDbEntity
8
Defpoints
62
0
6
ByLayer
370
-1
48
1
60
0
100
AcDbPoint
10
22
20
0
30
0
39
0
210
0
220
0
230
1
50
360
0
POINT
5
114
100
AcDbEntity
8
Defpoints
62
0
6
ByLayer
370
-1
48
1
60
0
100
AcDbPoint
10
2
20
-0.794
30
0
39
0
210
0
220
0
230
1
50
360
0
POINT
5
115
100
AcDbEntity
8
Defpoints
62
0
6
ByLayer
370
-1
48
1
60
0
100
AcDbPoint
10
2
20
-36.375056
30
0
39
0
210
0
220
0
230
1
50
360
0
ENDBLK
5
10C
100
AcDbEntity
8
0
100
AcDbBlockEnd
0
BLOCK
5
11D
100
AcDbEntity
8
0
100
AcDbBlockBegin
2
_U1
70
0
10
0
20
0
30
0
3
_U1
0
MTEXT
5
117
100
AcDbEntity
8
2
62
256
6
ByLayer
370
18
48
1
60
0
100
AcDbMText
10
7.51763
20
-35.489942
30
0
210
0
220
0
230
1
1
\W0.7468;20.00
40
3
41
0
44
1.084337
50
0
71
7
72
5
7
iso_b_vert
0
LINE
5
118
100
AcDbEntity
8
2
62
256
6
ByLayer
370
13
48
1
60
0
100
AcDbLine
10
22
20
-1.5875
30
0
11
22
21
-38.375056
31
0
39
0
210
0
220
0
230
1
0
LINE
5
119
100
AcDbEntity
8
2
62
256
6
ByLayer
370
13
48
1
60
0
100
AcDbLine
10
2
20
-2.3815
30
0
11
2
21
-38.375056
31
0
39
0
210
0
220
0
230
1
0
LINE
5
11A
100
AcDbEntity
8
2
62
256
6
ByLayer
370
13
48
1
60
0
100
AcDbLine
10
22
20
-36.375056
30
0
11
2
21
-36.375056
31
0
39
0
210
0
220
0
230
1
0
SOLID
5
11B
100
AcDbEntity
8
2
62
256
6
ByLayer
370
18
48
1
60
0
100
AcDbTrace
10
22
20
-36.375056
30
0
11
18.500002
21
-36.83584
31
0
12
18.499998
22
-35.914272
32
0
13
18.499998
23
-35.914272
33
0
39
0
210
0
220
0
230
1
0
SOLID
5
11C
100
AcDbEntity
8
2
62
256
6
ByLayer
370
18
48
1
60
0
100
AcDbTrace
10
2
20
-36.375056
30
0
11
5.499998
21
-35.914272
31
0
12
5.500002
22
-36.83584
32
0
13
5.500002
23
-36.83584
33
0
39
0
210
0
220
0
230
1
0
ENDBLK
5
11E
100
AcDbEntity
8
0
100
AcDbBlockEnd
0
BLOCK
5
123
100
AcDbEntity
8
0
100
AcDbBlockBegin
2
*D5
70
1
10
0
20
0
30
0
3
*D5
0
LINE
5
125
100
AcDbEntity
8
0
62
256
6
ByLayer
370
-2
48
1
60
0
100
AcDbLine
10
-21
20
-2.3815
30
0
11
-21
21
-33.375056
31
0
39
0
210
0
220
0
230
1
0
LINE
5
126
100
AcDbEntity
8
0
62
256
6
ByLayer
370
-2
48
1
60
0
100
AcDbLine
10
0
20
-2.3815
30
0
11
0
21
-33.375056
31
0
39
0
210
0
220
0
230
1
0
LINE
5
127
100
AcDbEntity
8
0
62
256
6
ByLayer
370
-2
48
1
60
0
100
AcDbLine
10
-17.5
20
-31.375056
30
0
11
-3.5
21
-31.375056
31
0
39
0
210
0
220
0
230
1
0
SOLID
5
128
100
AcDbEntity
8
0
62
256
6
ByLayer
370
-1
48
1
60
0
100
AcDbTrace
10
-17.5
20
-30.791723
30
0
11
-17.5
21
-31.95839
31
0
12
-21
22
-31.375056
32
0
13
-21
23
-31.375056
33
0
39
0
210
0
220
0
230
1
0
SOLID
5
129
100
AcDbEntity
8
0
62
256
6
ByLayer
370
-1
48
1
60
0
100
AcDbTrace
10
-3.5
20
-31.95839
30
0
11
-3.5
21
-30.791723
31
0
12
0
22
-31.375056
32
0
13
0
23
-31.375056
33
0
39
0
210
0
220
0
230
1
0
MTEXT
5
12A
100
AcDbEntity
8
0
62
256
6
ByLayer
370
18
48
1
60
0
100
AcDbMText
10
-10.5
20
-25.375056
30
0
210
0
220
0
230
1
1
\A1;21
40
3
41
0
44
1
50
0
71
5
72
5
7
iso_b_vert
0
POINT
5
12B
100
AcDbEntity
8
Defpoints
62
0
6
ByLayer
370
-1
48
1
60
0
100
AcDbPoint
10
-21
20
-0.794
30
0
39
0
210
0
220
0
230
1
50
360
0
POINT
5
12C
100
AcDbEntity
8
Defpoints
62
0
6
ByLayer
370
-1
48
1
60
0
100
AcDbPoint
10
0
20
-0.794
30
0
39
0
210
0
220
0
230
1
50
360
0
POINT
5
12D
100
AcDbEntity
8
Defpoints
62
0
6
ByLayer
370
-1
48
1
60
0
100
AcDbPoint
10
0
20
-31.375056
30
0
39
0
210
0
220
0
230
1
50
360
0
ENDBLK
5
124
100
AcDbEntity
8
0
100
AcDbBlockEnd
0
BLOCK
5
135
100
AcDbEntity
8
0
100
AcDbBlockBegin
2
_U2
70
0
10
0
20
0
30
0
3
_U2
0
MTEXT
5
12F
100
AcDbEntity
8
SK2
62
256
6
ByLayer
370
18
48
1
60
0
100
AcDbMText
10
-14.607428
20
-30.489942
30
0
210
0
220
0
230
1
1
\W0.6864;21.00
40
3
41
0
44
1.084337
50
0
71
7
72
5
7
iso_b_vert
0
LINE
5
130
100
AcDbEntity
8
SK2
62
256
6
ByLayer
370
13
48
1
60
0
100
AcDbLine
10
-21
20
-2.3815
30
0
11
-21
21
-33.375056
31
0
39
0
210
0
220
0
230
1
0
LINE
5
131
100
AcDbEntity
8
SK2
62
256
6
ByLayer
370
13
48
1
60
0
100
AcDbLine
10
0
20
-2.3815
30
0
11
0
21
-33.375056
31
0
39
0
210
0
220
0
230
1
0
LINE
5
132
100
AcDbEntity
8
SK2
62
256
6
ByLayer
370
13
48
1
60
0
100
AcDbLine
10
-21
20
-31.375056
30
0
11
0
21
-31.375056
31
0
39
0
210
0
220
0
230
1
0
SOLID
5
133
100
AcDbEntity
8
SK2
62
256
6
ByLayer
370
18
48
1
60
0
100
AcDbTrace
10
-21
20
-31.375056
30
0
11
-17.500002
21
-30.914272
31
0
12
-17.499998
22
-31.83584
32
0
13
-17.499998
23
-31.83584
33
0
39
0
210
0
220
0
230
1
0
SOLID
5
134
100
AcDbEntity
8
SK2
62
256
6
ByLayer
370
18
48
1
60
0
100
AcDbTrace
10
0
20
-31.375056
30
0
11
-3.499998
21
-31.83584
31
0
12
-3.500002
22
-30.914272
32
0
13
-3.500002
23
-30.914272
33
0
39
0
210
0
220
0
230
1
0
ENDBLK
5
136
100
AcDbEntity
8
0
100
AcDbBlockEnd
0
BLOCK
5
13B
100
AcDbEntity
8
0
100
AcDbBlockBegin
2
*D7
70
1
10
0
20
0
30
0
3
*D7
0
LINE
5
13D
100
AcDbEntity
8
0
62
256
6
ByLayer
370
-2
48
1
60
0
100
AcDbLine
10
22
20
-1.5875
30
0
11
22
21
-31.375056
31
0
39
0
210
0
220
0
230
1
0
LINE
5
13E
100
AcDbEntity
8
0
62
256
6
ByLayer
370
-2
48
1
60
0
100
AcDbLine
10
7
20
-2.3815
30
0
11
7
21
-31.375056
31
0
39
0
210
0
220
0
230
1
0
LINE
5
13F
100
AcDbEntity
8
0
62
256
6
ByLayer
370
-2
48
1
60
0
100
AcDbLine
10
25.5
20
-29.375056
30
0
11
29
21
-29.375056
31
0
39
0
210
0
220
0
230
1
0
LINE
5
140
100
AcDbEntity
8
0
62
256
6
ByLayer
370
-2
48
1
60
0
100
AcDbLine
10
3.5
20
-29.375056
30
0
11
0
21
-29.375056
31
0
39
0
210
0
220
0
230
1
0
SOLID
5
141
100
AcDbEntity
8
0
62
256
6
ByLayer
370
-1
48
1
60
0
100
AcDbTrace
10
25.5
20
-28.791723
30
0
11
25.5
21
-29.95839
31
0
12
22
22
-29.375056
32
0
13
22
23
-29.375056
33
0
39
0
210
0
220
0
230
1
0
SOLID
5
142
100
AcDbEntity
8
0
62
256
6
ByLayer
370
-1
48
1
60
0
100
AcDbTrace
10
3.5
20
-29.95839
30
0
11
3.5
21
-28.791723
31
0
12
7
22
-29.375056
32
0
13
7
23
-29.375056
33
0
39
0
210
0
220
0
230
1
0
MTEXT
5
143
100
AcDbEntity
8
0
62
256
6
ByLayer
370
18
48
1
60
0
100
AcDbMText
10
14.5
20
-23.375056
30
0
210
0
220
0
230
1
1
\A1;15
40
3
41
0
44
1
50
0
71
5
72
5
7
iso_b_vert
0
POINT
5
144
100
AcDbEntity
8
Defpoints
62
0
6
ByLayer
370
-1
48
1
60
0
100
AcDbPoint
10
22
20
0
30
0
39
0
210
0
220
0
230
1
50
360
0
POINT
5
145
100
AcDbEntity
8
Defpoints
62
0
6
ByLayer
370
-1
48
1
60
0
100
AcDbPoint
10
7
20
-0.794
30
0
39
0
210
0
220
0
230
1
50
360
0
POINT
5
146
100
AcDbEntity
8
Defpoints
62
0
6
ByLayer
370
-1
48
1
60
0
100
AcDbPoint
10
7
20
-29.375056
30
0
39
0
210
0
220
0
230
1
50
360
0
ENDBLK
5
13C
100
AcDbEntity
8
0
100
AcDbBlockEnd
0
BLOCK
5
14E
100
AcDbEntity
8
0
100
AcDbBlockBegin
2
_U3
70
0
10
0
20
0
30
0
3
_U3
0
MTEXT
5
148
100
AcDbEntity
8
2
62
256
6
ByLayer
370
18
48
1
60
0
100
AcDbMText
10
10.392572
20
-28.489942
30
0
210
0
220
0
230
1
1
\W0.6864;15.00
40
3
41
0
44
1.084337
50
0
71
7
72
5
7
iso_b_vert
0
LINE
5
149
100
AcDbEntity
8
2
62
256
6
ByLayer
370
13
48
1
60
0
100
AcDbLine
10
22
20
-1.5875
30
0
11
22
21
-31.375056
31
0
39
0
210
0
220
0
230
1
0
LINE
5
14A
100
AcDbEntity
8
2
62
256
6
ByLayer
370
13
48
1
60
0
100
AcDbLine
10
7
20
-2.3815
30
0
11
7
21
-31.375056
31
0
39
0
210
0
220
0
230
1
0
LINE
5
14B
100
AcDbEntity
8
2
62
256
6
ByLayer
370
13
48
1
60
0
100
AcDbLine
10
22
20
-29.375056
30
0
11
7
21
-29.375056
31
0
39
0
210
0
220
0
230
1
0
SOLID
5
14C
100
AcDbEntity
8
2
62
256
6
ByLayer
370
18
48
1
60
0
100
AcDbTrace
10
22
20
-29.375056
30
0
11
18.500002
21
-29.83584
31
0
12
18.499998
22
-28.914272
32
0
13
18.499998
23
-28.914272
33
0
39
0
210
0
220
0
230
1
0
SOLID
5
14D
100
AcDbEntity
8
2
62
256
6
ByLayer
370
18
48
1
60
0
100
AcDbTrace
10
7
20
-29.375056
30
0
11
10.499998
21
-28.914272
31
0
12
10.500002
22
-29.83584
32
0
13
10.500002
23
-29.83584
33
0
39
0
210
0
220
0
230
1
0
ENDBLK
5
14F
100
AcDbEntity
8
0
100
AcDbBlockEnd
0
ENDSEC
0
SECTION
2
ENTITIES
0
ARC
5
B9
100
AcDbEntity
8
2
62
256
6
ByLayer
370
13
48
1
60
0
100
AcDbCircle
39
0
10
22
20
0
30
0
40
22
210
0
220
0
230
1
100
AcDbArc
50
7.83748
51
61.596605
0
ARC
5
BA
100
AcDbEntity
8
2
62
256
6
ByLayer
370
13
48
1
60
0
100
AcDbCircle
39
0
10
22
20
0
30
0
40
22
210
0
220
0
230
1
100
AcDbArc
50
298.403395
51
352.16252
0
POINT
5
70
100
AcDbEntity
8
81
62
256
6
ByLayer
370
18
48
1
60
0
100
AcDbPoint
10
22
20
0
30
0
39
0
210
0
220
0
230
1
50
360
0
POINT
5
72
100
AcDbEntity
8
80
62
256
6
ByLayer
370
18
48
1
60
0
100
AcDbPoint
10
0
20
0
30
0
39
0
210
0
220
0
230
1
50
360
0
POINT
5
74
100
AcDbEntity
8
1
62
256
6
ByLayer
370
18
48
1
60
1
100
AcDbPoint
10
-21
20
-0.794
30
0
39
0
210
0
220
0
230
1
50
360
0
POINT
5
76
100
AcDbEntity
8
1
62
256
6
ByLayer
370
18
48
1
60
1
100
AcDbPoint
10
22
20
0
30
0
39
0
210
0
220
0
230
1
50
360
0
POINT
5
77
100
AcDbEntity
8
1
62
256
6
ByLayer
370
18
48
1
60
1
100
AcDbPoint
10
22
20
0
30
0
39
0
210
0
220
0
230
1
50
360
0
POINT
5
78
100
AcDbEntity
8
1
62
256
6
ByLayer
370
18
48
1
60
1
100
AcDbPoint
10
2
20
-0.794
30
0
39
0
210
0
220
0
230
1
50
360
0
POINT
5
79
100
AcDbEntity
8
1
62
256
6
ByLayer
370
18
48
1
60
1
100
AcDbPoint
10
-21
20
-0.794
30
0
39
0
210
0
220
0
230
1
50
360
0
POINT
5
7A
100
AcDbEntity
8
1
62
256
6
ByLayer
370
18
48
1
60
1
100
AcDbPoint
10
0
20
-0.794
30
0
39
0
210
0
220
0
230
1
50
360
0
POINT
5
7B
100
AcDbEntity
8
1
62
256
6
ByLayer
370
18
48
1
60
1
100
AcDbPoint
10
22
20
0
30
0
39
0
210
0
220
0
230
1
50
360
0
POINT
5
7C
100
AcDbEntity
8
1
62
256
6
ByLayer
370
18
48
1
60
1
100
AcDbPoint
10
7
20
-0.794
30
0
39
0
210
0
220
0
230
1
50
360
0
SPLINE
5
BB
100
AcDbEntity
8
CUT
62
256
6
ByLayer
370
18
48
1
60
0
100
AcDbSpline
70
2053
71
3
72
17
73
13
40
0
40
0
40
0
40
0
40
0.479818449685213
40
0.479818449685213
40
0.479818449685213
40
0.505042058253623
40
0.505042058253623
40
0.505042058253623
40
0.971125737639378
40
0.971125737639378
40
0.971125737639378
40
1
40
1
40
1
40
1
41
1
10
22
20
0
30
0
41
1
10
17
20
0
30
0
41
1
10
12
20
0
30
0
41
1
10
7
20
0
30
0
41
1
10
7
20
0.262845338562613
30
0
41
1
10
7
20
0.525690677125198
30
0
41
1
10
6.99999999999986
20
0.788536015687811
30
0
41
1
10
11.8568750005359
20
0.79035734381327
30
0
41
1
10
16.713750001072
20
0.792178671938757
30
0
41
1
10
21.5706250016082
20
0.794000000064216
30
0
41
1
10
21.7137500010721
20
0.529333333376144
30
0
41
1
10
21.8568750005361
20
0.264666666688072
30
0
41
1
10
22
20
0
30
0
0
SPLINE
5
BD
100
AcDbEntity
8
NOCUT
62
256
6
ByLayer
370
18
48
1
60
0
100
AcDbSpline
70
2053
71
3
72
26
73
22
40
0
40
0
40
0
40
0
40
0.487739364931272
40
0.487739364931272
40
0.487739364931272
40
0.501475081198207
40
0.501475081198207
40
0.501475081198207
40
0.621668004577783
40
0.621668004577783
40
0.621668004577783
40
0.623415567899207
40
0.623415567899207
40
0.623415567899207
40
0.984011731948974
40
0.984011731948974
40
0.984011731948974
40
0.991377464798536
40
0.991377464798536
40
0.991377464798536
40
1
40
1
40
1
40
1
41
1
10
-21
20
0
30
0
41
1
10
-11.6666666666667
20
0
30
0
41
1
10
-2.33333333333331
20
0
30
0
41
1
10
7
20
0
30
0
41
1
10
7
20
0.262845338562613
30
0
41
1
10
7
20
0.525690677125198
30
0
41
1
10
7
20
0.788536015687811
30
0
41
1
10
4.69999999999999
20
0.787673515687686
30
0
41
1
10
2.39999999999998
20
0.786811015687562
30
0
41
1
10
0.0999999999812928
20
0.785948515688943
30
0
41
1
10
0.066666666641737
20
0.788632343793637
30
0
41
1
10
0.0333333333208827
20
0.791316171896824
30
0
41
1
10
0
20
0.794000000000011
30
0
41
1
10
-6.90033333333332
20
0.794000000000011
30
0
41
1
10
-13.8006666666667
20
0.794000000000011
30
0
41
1
10
-20.701
20
0.794000000000011
30
0
41
1
10
-20.8006666666667
20
0.694333333333333
30
0
41
1
10
-20.9003333333333
20
0.594666666666654
30
0
41
1
10
-21
20
0.495000000000004
30
0
41
1
10
-21
20
0.330000000000013
30
0
41
1
10
-21
20
0.164999999999992
30
0
41
1
10
-21
20
0
30
0
0
SPLINE
5
BF
100
AcDbEntity
8
1
62
256
6
ByLayer
370
18
48
1
60
0
100
AcDbSpline
70
4
71
3
72
50
73
46
40
0
40
0
40
0
40
0
40
0.125
40
0.125
40
0.25
40
0.25
40
0.3125
40
0.3125
40
0.375
40
0.375
40
0.4375
40
0.4375
40
0.468750000000002
40
0.468750000000002
40
0.476562500000004
40
0.476562500000004
40
0.484375000000005
40
0.484375000000005
40
0.492187500000007
40
0.492187500000007
40
0.500000000000009
40
0.500000000000009
40
0.507812500000011
40
0.507812500000011
40
0.515625000000012
40
0.515625000000012
40
0.523437500000014
40
0.523437500000014
40
0.531250000000016
40
0.531250000000016
40
0.562500000000015
40
0.562500000000015
40
0.593750000000014
40
0.593750000000014
40
0.625000000000013
40
0.625000000000013
40
0.687500000000011
40
0.687500000000011
40
0.750000000000009
40
0.750000000000009
40
0.812500000000006
40
0.812500000000006
40
0.875000000000004
40
0.875000000000004
40
1
40
1
40
1
40
1
41
1
10
21.5706250016079
20
0.768609619765783
30
0
41
1
10
21.6033273863745
20
0.708311253072168
30
0
41
1
10
21.6358591536376
20
0.647723183535959
30
0
41
1
10
21.7003598772863
20
0.525991329361148
30
0
41
1
10
21.732375158776
20
0.464856375553637
30
0
41
1
10
21.7792396586159
20
0.372510699374999
30
0
41
1
10
21.79464282368
20
0.341604629434727
30
0
41
1
10
21.8252399377305
20
0.279793570831657
30
0
41
1
10
21.8404293415222
20
0.248924127848568
30
0
41
1
10
21.8702116833919
20
0.187155167581892
30
0
41
1
10
21.8848516040641
20
0.156240468570445
30
0
41
1
10
21.9054067270526
20
0.109602210923413
30
0
41
1
10
21.9120399355984
20
0.094008508645544
30
0
41
1
10
21.9197009617516
20
0.0743661034750005
30
0
41
1
10
21.9211998480629
20
0.0704286201459468
30
0
41
1
10
21.9240653109103
20
0.0624814224564432
30
0
41
1
10
21.9254330610509
20
0.0584667399430145
30
0
41
1
10
21.9278597222382
20
0.0503207151240588
30
0
41
1
10
21.928917596768
20
0.0461828801469437
30
0
41
1
10
21.9305166309595
20
0.0376873526820418
30
0
41
1
10
21.9310415948085
20
0.0333643408347939
30
0
41
1
10
21.9314004252377
20
0.0248899703394727
30
0
41
1
10
21.9312323075161
20
0.0206392793543273
30
0
41
1
10
21.9302703876577
20
0.0125656611574527
30
0
41
1
10
21.9294904986415
20
0.0087287629361583
30
0
41
1
10
21.9275612982471
20
0.0012796854577459
30
0
41
1
10
21.9264152399132
20
-0.002339266533312
30
0
41
1
10
21.9239715935086
20
-0.0094389255816623
30
0
41
1
10
21.9226672386544
20
-0.0129335009868043
30
0
41
1
10
21.9158644029408
20
-0.0302696087083518
30
0
41
1
10
21.9095369970206
20
-0.043692416309085
30
0
41
1
10
21.8959792964837
20
-0.0697851326910381
30
0
41
1
10
21.8887203723803
20
-0.0824751969547322
30
0
41
1
10
21.8738394372248
20
-0.106999110173092
30
0
41
1
10
21.866201617986
20
-0.118856951439
30
0
41
1
10
21.8429878252068
20
-0.15338856552259
30
0
41
1
10
21.82712465186
20
-0.175030250188797
30
0
41
1
10
21.7951400090847
20
-0.215873274402156
30
0
41
1
10
21.7790007162556
20
-0.235064970274607
30
0
41
1
10
21.7465327283378
20
-0.271055600215732
30
0
41
1
10
21.7301377268194
20
-0.287902437090821
30
0
41
1
10
21.6977272681262
20
-0.318610802612426
30
0
41
1
10
21.6816508818189
20
-0.332547235933845
30
0
41
1
10
21.6337089923144
20
-0.370217183169672
30
0
41
1
10
21.6021327106105
20
-0.389838008763519
30
0
41
1
10
21.5706250016082
20
-0.403839595198207
30
0
0
SPLINE
5
C0
100
AcDbEntity
8
1
62
256
6
ByLayer
370
18
48
1
60
0
100
AcDbSpline
70
4
71
5
72
132
73
126
40
0
40
0
40
0
40
0
40
0
40
0
40
0.0293323495551875
40
0.0690587593148462
40
0.108880416321074
40
0.148789354240111
40
0.188777497491135
40
0.228833755904887
40
0.268788618928586
40
0.306941623184126
40
0.341129037151744
40
0.377586876836395
40
0.415943438963719
40
0.445701592538098
40
0.461944355797998
40
0.469325851984382
40
0.471827158137191
40
0.473991750000199
40
0.476204412394803
40
0.478417074789408
40
0.480246314642978
40
0.480529411286983
40
0.48158557953577
40
0.482641747784558
40
0.48365094568871
40
0.484660143592862
40
0.485669341497014
40
0.486678539401167
40
0.487645202637509
40
0.487954136249123
40
0.488611865873851
40
0.489578529110194
40
0.490545192346536
40
0.491476468358654
40
0.492407744370773
40
0.49427029639501
40
0.495089987007645
40
0.496077341609228
40
0.497884386823447
40
0.499633037005693
40
0.500507362096816
40
0.501381687187939
40
0.501789288656453
40
0.502205381822226
40
0.503029076456513
40
0.5038527710908
40
0.504676465725087
40
0.505428686719694
40
0.506180907714302
40
0.506933128708909
40
0.507685349703517
40
0.507744089649675
40
0.508397571550678
40
0.50910979339784
40
0.509822015245001
40
0.510534237092163
40
0.511277233148201
40
0.512020229204238
40
0.512763225260275
40
0.513261109215353
40
0.513506221316313
40
0.514305093484292
40
0.515103965652271
40
0.515902837820251
40
0.51670170998823
40
0.517523787743212
40
0.518345865498195
40
0.519167943253177
40
0.519379818963223
40
0.519990021008159
40
0.52085127513878
40
0.521712529269401
40
0.522573783400022
40
0.523435037530643
40
0.524622450822704
40
0.525216157468735
40
0.525809864114766
40
0.526403570760796
40
0.526813656794652
40
0.526997277406827
40
0.528184690698888
40
0.530470801447988
40
0.532756912197088
40
0.533899967571638
40
0.535043022946188
40
0.536186078320738
40
0.536757606008013
40
0.537329133695288
40
0.53837502524429
40
0.539420916793292
40
0.540466808342293
40
0.541512699891295
40
0.542558591440297
40
0.543604482989298
40
0.5446503745383
40
0.545696266087302
40
0.546742157636304
40
0.547507707120625
40
0.547788049185306
40
0.549879832283309
40
0.551971615381313
40
0.554063398479316
40
0.559768184605054
40
0.565472970730793
40
0.57688254298227
40
0.588446849169574
40
0.625548716915947
40
0.654618160534946
40
0.681637481414591
40
0.707592319105912
40
0.732762544399572
40
0.757523968072347
40
0.782128663012507
40
0.806434114640291
40
0.828928580681097
40
0.849211401427577
40
0.870960292196112
40
0.894085121798918
40
0.917297858257479
40
0.940424377113501
40
0.96345243515072
40
0.986371167110156
40
1
40
1
40
1
40
1
40
1
40
1
41
1
10
4.24091264711183
20
-0.663122131386984
30
0
41
1
10
4.24091264711183
20
-0.656136175626017
30
0
41
1
10
4.24091264711183
20
-0.639644293965205
30
0
41
1
10
4.24091264711183
20
-0.613478261807444
30
0
41
1
10
4.24091264711183
20
-0.577371535088929
30
0
41
1
10
4.2409126471118
20
-0.530957382865438
30
0
41
1
10
4.24091264711185
20
-0.481233070990243
30
0
41
1
10
4.24091264711185
20
-0.430777766596094
30
0
41
1
10
4.24091264711183
20
-0.380083841278093
30
0
41
1
10
4.2409126471118
20
-0.330215945884902
30
0
41
1
10
4.24091264711185
20
-0.280669063473653
30
0
41
1
10
4.24091264711183
20
-0.230960088972751
30
0
41
1
10
4.24091264711183
20
-0.183542602770956
30
0
41
1
10
4.2409126471118
20
-0.141721304733778
30
0
41
1
10
4.24091264711183
20
-0.106904658456898
30
0
41
1
10
4.24091264711183
20
-0.0812035130416575
30
0
41
1
10
4.24091264711183
20
-0.065347673165661
30
0
41
1
10
4.24091264711183
20
-0.0570105365122231
30
0
41
1
10
4.24091264711183
20
-0.0525061425996398
30
0
41
1
10
4.24091264711183
20
-0.0495189586179947
30
0
41
1
10
4.24091264711183
20
-0.0471375405285244
30
0
41
1
10
4.24091264711183
20
-0.0450585001018453
30
0
41
1
10
4.24091264711185
20
-0.0432952431460194
30
0
41
1
10
4.24091264711185
20
-0.0418609919736639
30
0
41
1
10
4.24091264711185
20
-0.0406509702393123
30
0
41
1
10
4.24091264711185
20
-0.0392410883421235
30
0
41
1
10
4.24091264711185
20
-0.0378431724151937
30
0
41
1
10
4.24091264711188
20
-0.0364687789505638
30
0
41
1
10
4.24091264711188
20
-0.0352857005653675
30
0
41
1
10
4.24091264711188
20
-0.0341983357523077
30
0
41
1
10
4.24091264711188
20
-0.033121769436292
30
0
41
1
10
4.24091264711188
20
-0.0320559499308786
30
0
41
1
10
4.24091264711188
20
-0.0309988397470704
30
0
41
1
10
4.24091264711191
20
-0.0297683655726928
30
0
41
1
10
4.24091264711191
20
-0.0282024797018892
30
0
41
1
10
4.24091264711191
20
-0.0266738766056278
30
0
41
1
10
4.24091264711194
20
-0.0251358094123475
30
0
41
1
10
4.24091264711194
20
-0.0233494004613704
30
0
41
1
10
4.24091264711194
20
-0.0213279603130161
30
0
41
1
10
4.24091264711194
20
-0.0195764293094669
30
0
41
1
10
4.24091264711194
20
-0.0178022355167684
30
0
41
1
10
4.24091264711194
20
-0.0161845741060063
30
0
41
1
10
4.24091264711194
20
-0.0149568524648487
30
0
41
1
10
4.24091264711194
20
-0.0139898660177096
30
0
41
1
10
4.24091264711194
20
-0.0130353026426064
30
0
41
1
10
4.24091264711194
20
-0.0120932796916406
30
0
41
1
10
4.24091264711194
20
-0.0110503157550852
30
0
41
1
10
4.24091264711191
20
-0.0099082074597447
30
0
41
1
10
4.24091264711191
20
-0.0087840790117184
30
0
41
1
10
4.24091264711191
20
-0.0076782605528649
30
0
41
1
10
4.24091264711188
20
-0.0067915446335576
30
0
41
1
10
4.24091264711188
20
-0.0059323113001994
30
0
41
1
10
4.24091264711188
20
-0.005083758248503
30
0
41
1
10
4.24091264711188
20
-0.0042460249358385
30
0
41
1
10
4.24091264711188
20
-0.0034192441554239
30
0
41
1
10
4.24091264711188
20
-0.0023930839977311
30
0
41
1
10
4.24091264711185
20
-0.0013403623049157
30
0
41
1
10
4.24091264711185
20
-0.0002784272881797
30
0
41
1
10
4.24091264711185
20
0.0007211658730455
30
0
41
1
10
4.24091264711183
20
0.0015847151019557
30
0
41
1
10
4.24091264711183
20
0.002464091530328
30
0
41
1
10
4.24091264711183
20
0.0033591319717061
30
0
41
1
10
4.24091264711183
20
0.0042696547627941
30
0
41
1
10
4.24091264711183
20
0.0052663442264702
30
0
41
1
10
4.2409126471118
20
0.0064282066273336
30
0
41
1
10
4.2409126471118
20
0.0075944222302553
30
0
41
1
10
4.2409126471118
20
0.0087645911794141
30
0
41
1
10
4.2409126471118
20
0.0097630869190368
30
0
41
1
10
4.24091264711177
20
0.0107051299645775
30
0
41
1
10
4.24091264711177
20
0.0116561428696116
30
0
41
1
10
4.24091264711177
20
0.0126159192321609
30
0
41
1
10
4.24091264711177
20
0.0135842472401748
30
0
41
1
10
4.24091264711177
20
0.0147330732486068
30
0
41
1
10
4.24091264711177
20
0.0160400752477017
30
0
41
1
10
4.24091264711174
20
0.0172658551200584
30
0
41
1
10
4.24091264711174
20
0.0184113295316592
30
0
41
1
10
4.24091264711174
20
0.019477453462116
30
0
41
1
10
4.24091264711174
20
0.0204142523475923
30
0
41
1
10
4.24091264711174
20
0.0210707847005267
30
0
41
1
10
4.24091264711174
20
0.0218894839242978
30
0
41
1
10
4.24091264711174
20
0.0231708539977546
30
0
41
1
10
4.24091264711174
20
0.0249080958062962
30
0
41
1
10
4.24091264711174
20
0.0268312171290574
30
0
41
1
10
4.24091264711177
20
0.0289973577912974
30
0
41
1
10
4.24091264711177
20
0.031136440588682
30
0
41
1
10
4.24091264711177
20
0.0328083613718206
30
0
41
1
10
4.24091264711177
20
0.0340202865235426
30
0
41
1
10
4.2409126471118
20
0.0352034120569158
30
0
41
1
10
4.2409126471118
20
0.03635820244196
30
0
41
1
10
4.2409126471118
20
0.037485070836567
30
0
41
1
10
4.2409126471118
20
0.038734222734746
30
0
41
1
10
4.2409126471118
20
0.040105235982395
30
0
41
1
10
4.24091264711183
20
0.0414739217515887
30
0
41
1
10
4.24091264711183
20
0.0428406672123458
30
0
41
1
10
4.24091264711183
20
0.0442058185602718
30
0
41
1
10
4.24091264711183
20
0.0455696764579159
30
0
41
1
10
4.24091264711183
20
0.0468594408091292
30
0
41
1
10
4.24091264711183
20
0.0479490811539449
30
0
41
1
10
4.24091264711183
20
0.0493106297342081
30
0
41
1
10
4.24091264711183
20
0.0509438104688513
30
0
41
1
10
4.24091264711183
20
0.0528484647620928
30
0
41
1
10
4.24091264711183
20
0.0560371739991297
30
0
41
1
10
4.24091264711183
20
0.0606360360462475
30
0
41
1
10
4.24091264711185
20
0.0676590770771099
30
0
41
1
10
4.24091264711183
20
0.0771519375873595
30
0
41
1
10
4.24091264711183
20
0.0957721249301073
30
0
41
1
10
4.24091264711183
20
0.120503971916236
30
0
41
1
10
4.24091264711183
20
0.150796383032059
30
0
41
1
10
4.24091264711183
20
0.184863465408256
30
0
41
1
10
4.24091264711185
20
0.22248499533859
30
0
41
1
10
4.24091264711183
20
0.256907388349902
30
0
41
1
10
4.24091264711183
20
0.290197997766228
30
0
41
1
10
4.24091264711183
20
0.322436375250646
30
0
41
1
10
4.24091264711183
20
0.353122316049678
30
0
41
1
10
4.2409126471118
20
0.381970903496978
30
0
41
1
10
4.24091264711183
20
0.409512400345022
30
0
41
1
10
4.24091264711183
20
0.436115650999767
30
0
41
1
10
4.24091264711183
20
0.46171806105562
30
0
41
1
10
4.24091264711183
20
0.486639487184988
30
0
41
1
10
4.24091264711183
20
0.511298027772568
30
0
41
1
10
4.24091264711183
20
0.535309731537183
30
0
41
1
10
4.24091264711183
20
0.556512928600768
30
0
41
1
10
4.24091264711183
20
0.572475796577805
30
0
41
1
10
4.24091264711183
20
0.583662819548636
30
0
41
1
10
4.24091264711183
20
0.590406822889463
30
0
41
1
10
4.24091264711183
20
0.592905069369237
30
0
0
SPLINE
5
C1
100
AcDbEntity
8
1
62
256
6
ByLayer
370
18
48
1
60
0
100
AcDbSpline
70
4
71
3
72
58
73
54
40
0
40
0
40
0
40
0
40
0.0448792748472861
40
0.0448792748472861
40
0.0897585496945722
40
0.0897585496945722
40
0.134637824541858
40
0.134637824541858
40
0.179517099389144
40
0.179517099389144
40
0.22439637423643
40
0.22439637423643
40
0.246836011660076
40
0.246836011660076
40
0.269275649083722
40
0.269275649083722
40
0.314154923931013
40
0.314154923931013
40
0.336594561354656
40
0.336594561354656
40
0.359034198778299
40
0.359034198778299
40
0.403913473625585
40
0.403913473625585
40
0.448792748472871
40
0.448792748472871
40
0.493672023320158
40
0.493672023320158
40
0.538551298167444
40
0.538551298167444
40
0.58343057301473
40
0.58343057301473
40
0.628309847862016
40
0.628309847862016
40
0.650749485285659
40
0.650749485285659
40
0.673189122709302
40
0.673189122709302
40
0.718068397556583
40
0.718068397556583
40
0.762947672403863
40
0.762947672403863
40
0.807826947251144
40
0.807826947251144
40
0.852706222098425
40
0.852706222098425
40
0.897585496945706
40
0.897585496945706
40
0.942464771792987
40
0.942464771792987
40
0.987344046640268
40
0.987344046640268
40
1
40
1
40
1
40
1
41
1
10
21.5706250016078
20
-0.403839595198036
30
0
41
1
10
21.5251418793265
20
-0.382058625240518
30
0
41
1
10
21.479950977145
20
-0.359546649579755
30
0
41
1
10
21.3896949433027
20
-0.313845545043478
30
0
41
1
10
21.344585733703
20
-0.290735557391685
30
0
41
1
10
21.2545068736337
20
-0.243836944477124
30
0
41
1
10
21.2095222966826
20
-0.220073419236172
30
0
41
1
10
21.1195761664993
20
-0.172078518540218
30
0
41
1
10
21.0746137674949
20
-0.147849490683882
30
0
41
1
10
20.9847845033838
20
-0.0987910496631059
30
0
41
1
10
20.9399341153688
20
-0.0739306809310278
30
0
41
1
10
20.8726645672543
20
-0.0362970544855727
30
0
41
1
10
20.8502340480717
20
-0.0237105853429682
30
0
41
1
10
20.805267776971
20
0.001377293168872
30
0
41
1
10
20.7827364312564
20
0.0138866127894914
30
0
41
1
10
20.7150346157273
20
0.0513781906001896
30
0
41
1
10
20.6697614980424
20
0.0763340048411862
30
0
41
1
10
20.6015919884882
20
0.113613156314557
30
0
41
1
10
20.5787958181599
20
0.126024969738751
30
0
41
1
10
20.533255417005
20
0.150699510750741
30
0
41
1
10
20.5105237041527
20
0.162955956573256
30
0
41
1
10
20.442454225241
20
0.199506304446771
30
0
41
1
10
20.3972535565024
20
0.223603631683915
30
0
41
1
10
20.3072255668039
20
0.271272342716515
30
0
41
1
10
20.2624170979744
20
0.294868936136794
30
0
41
1
10
20.172649019535
20
0.340624461555706
30
0
41
1
10
20.1277401131419
20
0.362878194252062
30
0
41
1
10
20.0379154287026
20
0.406233770699572
30
0
41
1
10
19.992982767479
20
0.427306804297331
30
0
41
1
10
19.9030094973222
20
0.46814435191618
30
0
41
1
10
19.8579758741621
20
0.487921611418784
30
0
41
1
10
19.7678879173191
20
0.526273286816263
30
0
41
1
10
19.7228587393259
20
0.54487889865959
30
0
41
1
10
19.65512996963
20
0.57160560985028
30
0
41
1
10
19.632504479387
20
0.58029320637749
30
0
41
1
10
19.587119352706
20
0.597181365123561
30
0
41
1
10
19.5643397602035
20
0.605403481097426
30
0
41
1
10
19.4961315275934
20
0.629304786206092
30
0
41
1
10
19.4508004995328
20
0.644225662573604
30
0
41
1
10
19.3603279951576
20
0.672001975095867
30
0
41
1
10
19.3151779946158
20
0.684852168465397
30
0
41
1
10
19.2250994452758
20
0.708547095605923
30
0
41
1
10
19.1801883776071
20
0.719404786952708
30
0
41
1
10
19.0905809355142
20
0.739051975876777
30
0
41
1
10
19.0458562185406
20
0.747809465605428
30
0
41
1
10
18.956103029172
20
0.762932597053435
30
0
41
1
10
18.9111580298751
20
0.769357184301754
30
0
41
1
10
18.8211094869946
20
0.779938430350285
30
0
41
1
10
18.775990275299
20
0.784088527565331
30
0
41
1
10
18.6855272306277
20
0.790084341387455
30
0
41
1
10
18.6401962907653
20
0.791935986033792
30
0
41
1
10
18.5819875385403
20
0.792783619113493
30
0
41
1
10
18.5691689512687
20
0.792874704903909
30
0
41
1
10
18.5563576418548
20
0.792869411802002
30
0
0
SPLINE
5
C2
100
AcDbEntity
8
1
62
256
6
ByLayer
370
18
48
1
60
0
100
AcDbSpline
70
4
71
3
72
94
73
90
40
0
40
0
40
0
40
0
40
0.005810658848448
40
0.005810658848448
40
0.0290534996466112
40
0.0290534996466112
40
0.0522963404447744
40
0.0522963404447744
40
0.0755391812429377
40
0.0755391812429377
40
0.0871606016420207
40
0.0871606016420207
40
0.0987820220411037
40
0.0987820220411037
40
0.145267703637427
40
0.145267703637427
40
0.168510544435589
40
0.168510544435589
40
0.191753385233751
40
0.191753385233751
40
0.214996226031913
40
0.214996226031913
40
0.238239066830075
40
0.238239066830075
40
0.261481907628237
40
0.261481907628237
40
0.284724748426398
40
0.284724748426398
40
0.30796758922456
40
0.30796758922456
40
0.331210430022722
40
0.331210430022722
40
0.354453270820884
40
0.354453270820884
40
0.377696111619046
40
0.377696111619046
40
0.400938952417208
40
0.400938952417208
40
0.42418179321537
40
0.42418179321537
40
0.447424634013532
40
0.447424634013532
40
0.470667474811693
40
0.470667474811693
40
0.493910315609855
40
0.493910315609855
40
0.517153156408017
40
0.517153156408017
40
0.540395997206178
40
0.540395997206178
40
0.56363883800434
40
0.56363883800434
40
0.586881678802502
40
0.586881678802502
40
0.598503099201584
40
0.598503099201584
40
0.610124519600667
40
0.610124519600667
40
0.656610201196999
40
0.656610201196999
40
0.679853041995163
40
0.679853041995163
40
0.703095882793328
40
0.703095882793328
40
0.726338723591492
40
0.726338723591492
40
0.749581564389657
40
0.749581564389657
40
0.772824405187822
40
0.772824405187822
40
0.796067245985986
40
0.796067245985986
40
0.819310086784151
40
0.819310086784151
40
0.842552927582316
40
0.842552927582316
40
0.86579576838048
40
0.86579576838048
40
0.889038609178645
40
0.889038609178645
40
0.900660029577727
40
0.900660029577727
40
0.912281449976809
40
0.912281449976809
40
0.935524290774973
40
0.935524290774973
40
0.982009972371304
40
0.982009972371304
40
1
40
1
40
1
40
1
41
1
10
15.3802120419613
20
-0.477549441182361
30
0
41
1
10
15.3689042176451
20
-0.482522833238193
30
0
41
1
10
15.357601949596
20
-0.487445363096185
30
0
41
1
10
15.3011218085377
20
-0.51181308859239
30
0
41
1
10
15.2560239801985
20
-0.530496327172131
30
0
41
1
10
15.1659134095879
20
-0.566155021076668
30
0
41
1
10
15.1208998895374
20
-0.583132993164071
30
0
41
1
10
15.0310302233043
20
-0.615472717545401
30
0
41
1
10
14.9861906480425
20
-0.630850172927524
30
0
41
1
10
14.9189834901805
20
-0.652579424680113
30
0
41
1
10
14.8965811911581
20
-0.65958971244396
30
0
41
1
10
14.8516871242761
20
-0.673055305294497
30
0
41
1
10
14.8292001142019
20
-0.679516693172644
30
0
41
1
10
14.716626501241
20
-0.710539520476061
30
0
41
1
10
14.6261195066538
20
-0.731252244602246
30
0
41
1
10
14.4893777413011
20
-0.755817417177468
30
0
41
1
10
14.4438998142235
20
-0.76289515252833
30
0
41
1
10
14.3534865194192
20
-0.774757315036112
30
0
41
1
10
14.3085178838825
20
-0.779541732666786
30
0
41
1
10
14.2184958339669
20
-0.786661402591108
30
0
41
1
10
14.1734949857407
20
-0.789028853356996
30
0
41
1
10
14.0835516814269
20
-0.791447352686617
30
0
41
1
10
14.0385924419207
20
-0.791493671836207
30
0
41
1
10
13.9486324687315
20
-0.789283326858623
30
0
41
1
10
13.9036389800029
20
-0.787030176197277
30
0
41
1
10
13.8136991345949
20
-0.780167850189343
30
0
41
1
10
13.7687783494038
20
-0.775541967402802
30
0
41
1
10
13.6787552534587
20
-0.763909948648433
30
0
41
1
10
13.6335459400747
20
-0.756959285121155
30
0
41
1
10
13.5427599685302
20
-0.740805846943061
30
0
41
1
10
13.4970964771405
20
-0.731567106411632
30
0
41
1
10
13.4061770579811
20
-0.711055626979345
30
0
41
1
10
13.3608385457759
20
-0.699784430992679
30
0
41
1
10
13.2704520940389
20
-0.675195235092019
30
0
41
1
10
13.2254214010902
20
-0.661858801384994
30
0
41
1
10
13.1356405600482
20
-0.633110465793038
30
0
41
1
10
13.0908574830071
20
-0.61772511505464
30
0
41
1
10
13.001059020506
20
-0.585479432669246
30
0
41
1
10
12.9561268067187
20
-0.568528287802451
30
0
41
1
10
12.8661701995078
20
-0.533022698588411
30
0
41
1
10
12.8211303604876
20
-0.514488685713729
30
0
41
1
10
12.7308963612594
20
-0.47589958356636
30
0
41
1
10
12.6857153188157
20
-0.455827469377539
30
0
41
1
10
12.5952781238381
20
-0.413981119925694
30
0
41
1
10
12.5500516245783
20
-0.392147329132968
30
0
41
1
10
12.4591128358843
20
-0.34738159080257
30
0
41
1
10
12.4137053623992
20
-0.324697205572164
30
0
41
1
10
12.3231374677518
20
-0.278590510670256
30
0
41
1
10
12.2779567263601
20
-0.255192257350416
30
0
41
1
10
12.1877118192047
20
-0.207873593748786
30
0
41
1
10
12.1426476118623
20
-0.183953877817515
30
0
41
1
10
12.0527099895461
20
-0.135458831917731
30
0
41
1
10
12.0078533700634
20
-0.110852180853897
30
0
41
1
10
11.940641600171
20
-0.073570683854058
30
0
41
1
10
11.9182405374856
20
-0.0610986770077773
30
0
41
1
10
11.8733571965442
20
-0.0362264109623993
30
0
41
1
10
11.8508805500622
20
-0.023815928382902
30
0
41
1
10
11.7383833753857
20
0.038219140386019
30
0
41
1
10
11.6480097690975
20
0.0877692450740426
30
0
41
1
10
11.5115922107149
20
0.161436992256597
30
0
41
1
10
11.4659332314318
20
0.185981866010451
30
0
41
1
10
11.3752887452514
20
0.234497129790867
30
0
41
1
10
11.3302214967465
20
0.258541424321578
30
0
41
1
10
11.2400341080046
20
0.305210714841593
30
0
41
1
10
11.1949708217548
20
0.327945964143993
30
0
41
1
10
11.1049354495608
20
0.372306124019815
30
0
41
1
10
11.0599462745044
20
0.393900899277867
30
0
41
1
10
10.9699596449753
20
0.435830071568745
30
0
41
1
10
10.9249701862726
20
0.456179231270795
30
0
41
1
10
10.8350729782555
20
0.495736982914963
30
0
41
1
10
10.7901912831846
20
0.514978491106234
30
0
41
1
10
10.7002721357689
20
0.551929837261014
30
0
41
1
10
10.655130348315
20
0.569500466239788
30
0
41
1
10
10.5645235044884
20
0.602906542945334
30
0
41
1
10
10.5190204174988
20
0.618765688091713
30
0
41
1
10
10.4278172800294
20
0.648580307255173
30
0
41
1
10
10.3823575699094
20
0.662450763257908
30
0
41
1
10
10.2917705250245
20
0.688207547231741
30
0
41
1
10
10.2466602791586
20
0.700107585296365
30
0
41
1
10
10.1792326828277
20
0.716423833762292
30
0
41
1
10
10.1567964825745
20
0.721605613963106
30
0
41
1
10
10.1119145771928
20
0.731388523012157
30
0
41
1
10
10.089460084986
20
0.735984611700587
30
0
41
1
10
10.0220671007697
20
0.748913662097863
30
0
41
1
10
9.97712533284044
20
0.756404812410949
30
0
41
1
10
9.84221012013674
20
0.775511735866957
30
0
41
1
10
9.75203143092239
20
0.7837545398435
30
0
41
1
10
9.62680859080692
20
0.78880287784699
30
0
41
1
10
9.59187490405236
20
0.789509730437004
30
0
41
1
10
9.55683624817203
20
0.789493744956161
30
0
0
SPLINE
5
C3
100
AcDbEntity
8
1
62
256
6
ByLayer
370
18
48
1
60
0
100
AcDbSpline
70
4
71
3
72
38
73
34
40
0
40
0
40
0
40
0
40
0.0531498480073184
40
0.0531498480073184
40
0.1162731914735
40
0.1162731914735
40
0.179396534939681
40
0.179396534939681
40
0.210958206672772
40
0.210958206672772
40
0.242519878405862
40
0.242519878405862
40
0.368766565338221
40
0.368766565338221
40
0.4318899088044
40
0.4318899088044
40
0.46345158053749
40
0.46345158053749
40
0.495013252270579
40
0.495013252270579
40
0.621259939202935
40
0.621259939202935
40
0.684383282669113
40
0.684383282669113
40
0.747506626135291
40
0.747506626135291
40
0.810629969601468
40
0.810629969601468
40
0.873753313067646
40
0.873753313067646
40
0.936876656533823
40
0.936876656533823
40
1
40
1
40
1
40
1
41
1
10
6.38860985383124
20
-0.471744807283955
30
0
41
1
10
6.35029163525638
20
-0.488576717431641
30
0
41
1
10
6.31206956701297
20
-0.504831467282912
30
0
41
1
10
6.22860487508609
20
-0.539077187282999
30
0
41
1
10
6.18339238602147
20
-0.556827860384175
30
0
41
1
10
6.09324090767976
20
-0.590751833519278
30
0
41
1
10
6.04832072451589
20
-0.606943628984709
30
0
41
1
10
5.98105555686297
20
-0.629897855602081
30
0
41
1
10
5.95864087520044
20
-0.637312786456675
30
0
41
1
10
5.91374866837893
20
-0.651591959700795
30
0
41
1
10
5.89127907272015
20
-0.658465886306743
30
0
41
1
10
5.77887205332456
20
-0.691583649636215
30
0
41
1
10
5.68872226255394
20
-0.714046900311502
30
0
41
1
10
5.55289528742978
20
-0.741436098233976
30
0
41
1
10
5.50755215440921
20
-0.749536122718609
30
0
41
1
10
5.4394267008399
20
-0.760062507516892
30
0
41
1
10
5.41667199389229
20
-0.763303385003411
30
0
41
1
10
5.37125980207244
20
-0.769175823465844
30
0
41
1
10
5.34858360937994
20
-0.771805020830811
30
0
41
1
10
5.23523789801982
20
-0.783414625704353
30
0
41
1
10
5.14492326594819
20
-0.78790669083665
30
0
41
1
10
5.00969762497343
20
-0.787755391333462
30
0
41
1
10
4.96466866179287
20
-0.786556134757177
30
0
41
1
10
4.87477494688059
20
-0.781819740400948
30
0
41
1
10
4.82993868022174
20
-0.77826604342323
30
0
41
1
10
4.74015797430704
20
-0.768815971878183
30
0
41
1
10
4.69511988600246
20
-0.762964648958615
30
0
41
1
10
4.60483592261326
20
-0.749012337600817
30
0
41
1
10
4.55958196397887
20
-0.740909806093129
30
0
41
1
10
4.46874125122068
20
-0.722512864059439
30
0
41
1
10
4.42309501972778
20
-0.712206958887037
30
0
41
1
10
4.33184524424263
20
-0.689374083839994
30
0
41
1
10
4.28629508483738
20
-0.676865424531456
30
0
41
1
10
4.24091264711185
20
-0.663122131388349
30
0
0
SPLINE
5
C4
100
AcDbEntity
8
1
62
256
6
ByLayer
370
18
48
1
60
0
100
AcDbSpline
70
4
71
3
72
103
73
99
40
0
40
0
40
0
40
0
40
0.124999999999982
40
0.124999999999982
40
0.187499999999973
40
0.187499999999973
40
0.249999999999964
40
0.249999999999964
40
0.312499999999955
40
0.312499999999955
40
0.343749999999951
40
0.343749999999951
40
0.374999999999948
40
0.374999999999948
40
0.390624999999946
40
0.390624999999946
40
0.406249999999944
40
0.406249999999944
40
0.437499999999942
40
0.437499999999942
40
0.453124999999941
40
0.453124999999941
40
0.46874999999994
40
0.46874999999994
40
0.476562499999939
40
0.476562499999939
40
0.484374999999938
40
0.484374999999938
40
0.492187499999937
40
0.492187499999937
40
0.499999999999936
40
0.499999999999936
40
0.507812499999935
40
0.507812499999935
40
0.511718749999935
40
0.511718749999935
40
0.515624999999934
40
0.515624999999934
40
0.523437499999933
40
0.527343749999933
40
0.527343749999933
40
0.531249999999933
40
0.531249999999933
40
0.539062499999932
40
0.539062499999932
40
0.546874999999932
40
0.546874999999932
40
0.562499999999933
40
0.562499999999933
40
0.570312499999934
40
0.570312499999934
40
0.578124999999935
40
0.578124999999935
40
0.593749999999938
40
0.593749999999938
40
0.609374999999942
40
0.609374999999942
40
0.624999999999945
40
0.624999999999945
40
0.656249999999953
40
0.656249999999953
40
0.68749999999996
40
0.68749999999996
40
0.703124999999963
40
0.703124999999963
40
0.718749999999965
40
0.718749999999965
40
0.726562499999967
40
0.726562499999967
40
0.730468749999967
40
0.730468749999967
40
0.734374999999968
40
0.734374999999968
40
0.742187499999969
40
0.742187499999969
40
0.74609374999997
40
0.74609374999997
40
0.74999999999997
40
0.74999999999997
40
0.757812499999972
40
0.757812499999972
40
0.765624999999973
40
0.765624999999973
40
0.781249999999976
40
0.781249999999976
40
0.812499999999979
40
0.812499999999979
40
0.828124999999981
40
0.828124999999981
40
0.843749999999983
40
0.843749999999983
40
0.859374999999984
40
0.859374999999984
40
0.874999999999986
40
0.874999999999986
40
0.937499999999993
40
0.937499999999993
40
1
40
1
40
1
40
1
41
1
10
4.24091264711183
20
-0.663122131386928
30
0
41
1
10
4.03549147905971
20
-0.626350016967706
30
0
41
1
10
3.83322427378272
20
-0.578587590351901
30
0
41
1
10
3.53284606957331
20
-0.487989261950645
30
0
41
1
10
3.43321753896737
20
-0.454652006292236
30
0
41
1
10
3.23463231251753
20
-0.381323603998851
30
0
41
1
10
3.13648862327003
20
-0.341642340586134
30
0
41
1
10
2.94239886716986
20
-0.256006443702404
30
0
41
1
10
2.84644338687892
20
-0.210076551372282
30
0
41
1
10
2.70426998295673
20
-0.135790308699484
30
0
41
1
10
2.65717467920365
20
-0.110122852016929
30
0
41
1
10
2.56365666640451
20
-0.0566891060747139
30
0
41
1
10
2.51723184029461
20
-0.0289289064003242
30
0
41
1
10
2.4482232116531
20
0.0146819250125247
30
0
41
1
10
2.42539530708936
20
0.0295072419713449
30
0
41
1
10
2.38030147540769
20
0.0597067618631115
30
0
41
1
10
2.35801146341106
20
0.0750954234737264
30
0
41
1
10
2.29204110126008
20
0.12227654053973
30
0
41
1
10
2.24922168436248
20
0.155038508454993
30
0
41
1
10
2.1877151133005
20
0.207285035080048
30
0
41
1
10
2.16769039886898
20
0.225221428079948
30
0
41
1
10
2.12941719535257
20
0.262012987137524
30
0
41
1
10
2.11110173861451
20
0.280912199057326
30
0
41
1
10
2.08535976798001
20
0.31034933786816
30
0
41
1
10
2.07706623430497
20
0.320355487587733
30
0
41
1
10
2.06139733725203
20
0.340553069476925
30
0
41
1
10
2.0539953651633
20
0.350772604344172
30
0
41
1
10
2.04022780944231
20
0.371510404145141
30
0
41
1
10
2.03386095644987
20
0.382028230627441
30
0
41
1
10
2.02240826723721
20
0.403444863956082
30
0
41
1
10
2.01729722447439
20
0.414421738330844
30
0
41
1
10
2.00892492048166
20
0.436292770154949
30
0
41
1
10
2.00563510377978
20
0.447219159344286
30
0
41
1
10
2.00226536354847
20
0.463608573340594
30
0
41
1
10
2.00140361400884
20
0.469071722549785
30
0
41
1
10
2.0002497783496
20
0.480000905435702
30
0
41
1
10
1.99996376414896
20
0.48543991172383
30
0
41
1
10
2.0000049141251
20
0.501432214493065
30
0
41
1
10
2.0018255337024
20
0.516923093912652
30
0
41
1
10
2.00631295503067
20
0.531692617479195
30
0
41
1
10
2.0098996497365
20
0.541381393495584
30
0
41
1
10
2.01199235749274
20
0.54614156873626
30
0
41
1
10
2.0190046535038
20
0.559925651547076
30
0
41
1
10
2.02468884295655
20
0.568553960877978
30
0
41
1
10
2.03779506797005
20
0.584868887085634
30
0
41
1
10
2.04526300481828
20
0.592584134982502
30
0
41
1
10
2.0693225559275
20
0.614016123306783
30
0
41
1
10
2.08766216106938
20
0.626258638102911
30
0
41
1
10
2.11749578320158
20
0.642647571776678
30
0
41
1
10
2.1278730083842
20
0.64778817963014
30
0
41
1
10
2.14905459932106
20
0.657397246847779
30
0
41
1
10
2.15987128463073
20
0.661875996833885
30
0
41
1
10
2.19288194787322
20
0.674521863056242
30
0
41
1
10
2.21563066281075
20
0.681908002860951
30
0
41
1
10
2.26221491112977
20
0.695221175754881
30
0
41
1
10
2.28605419506474
20
0.701142138834484
30
0
41
1
10
2.33458818086049
20
0.711890085525312
30
0
41
1
10
2.35929879272271
20
0.716714804302484
30
0
41
1
10
2.4338920676206
20
0.729820692084218
30
0
41
1
10
2.48444110010976
20
0.73680869652938
30
0
41
1
10
2.58668824581062
20
0.748627093498982
30
0
41
1
10
2.6383914597277
20
0.75344064412991
30
0
41
1
10
2.71662189664181
20
0.759557080723255
30
0
41
1
10
2.74282290706768
20
0.761408432477538
30
0
41
1
10
2.79535448252543
20
0.764792171885489
30
0
41
1
10
2.82169618438579
20
0.766322278285315
30
0
41
1
10
2.86127188271382
20
0.768448872886836
30
0
41
1
10
2.87446943409569
20
0.769133578503869
30
0
41
1
10
2.89428316670356
20
0.770118508671231
30
0
41
1
10
2.90088964073888
20
0.770440478102671
30
0
41
1
10
2.91415620931906
20
0.77103234826123
30
0
41
1
10
2.92084198595686
20
0.771299584580106
30
0
41
1
10
2.94089945504067
20
0.771906941019125
30
0
41
1
10
2.95427765601005
20
0.772039156055939
30
0
41
1
10
2.97435572761003
20
0.771804888391529
30
0
41
1
10
2.98105015662785
20
0.771656229668054
30
0
41
1
10
2.99444204362865
20
0.771230410816884
30
0
41
1
10
3.0011087145748
20
0.770953546778628
30
0
41
1
10
3.02091951446127
20
0.770012086460355
30
0
41
1
10
3.03398723316678
20
0.769255212055356
30
0
41
1
10
3.06017812684115
20
0.76773560284866
30
0
41
1
10
3.07327872581843
20
0.766956832433522
30
0
41
1
10
3.11260159843064
20
0.76457121511379
30
0
41
1
10
3.13883599152854
20
0.762907890289654
30
0
41
1
10
3.21754547492821
20
0.757661190447777
30
0
41
1
10
3.27003429014053
20
0.753816991414595
30
0
41
1
10
3.34874887488587
20
0.747551526958688
30
0
41
1
10
3.37498535399655
20
0.74538102463174
30
0
41
1
10
3.42745845811808
20
0.740881335063023
30
0
41
1
10
3.45370037387141
20
0.738558200309484
30
0
41
1
10
3.50612082476246
20
0.733686970004129
30
0
41
1
10
3.53229217837529
20
0.731131950162052
30
0
41
1
10
3.58443734051329
20
0.725626567715011
30
0
41
1
10
3.61041019277866
20
0.722673913876434
30
0
41
1
10
3.73975266034145
20
0.706774438327244
30
0
41
1
10
3.84159991234085
20
0.690457787869775
30
0
41
1
10
4.04283217735227
20
0.648755769177939
30
0
41
1
10
4.14220887781286
20
0.623335550552468
30
0
41
1
10
4.24091264711183
20
0.592905069369237
30
0
0
SPLINE
5
C5
100
AcDbEntity
8
1
62
256
6
ByLayer
370
18
48
1
60
0
100
AcDbSpline
70
4
71
3
72
66
73
62
40
0
40
0
40
0
40
0
40
0.0390350485013227
40
0.0390350485013227
40
0.0780700970026455
40
0.0780700970026455
40
0.156140194005289
40
0.156140194005289
40
0.195175242506609
40
0.195175242506609
40
0.23421029100793
40
0.23421029100793
40
0.27324533950925
40
0.27324533950925
40
0.29276286375991
40
0.29276286375991
40
0.312280388010571
40
0.312280388010571
40
0.351315436511891
40
0.351315436511891
40
0.370832960762551
40
0.370832960762551
40
0.390350485013211
40
0.390350485013211
40
0.429385533514532
40
0.429385533514532
40
0.468420582015852
40
0.468420582015852
40
0.487938106266513
40
0.487938106266513
40
0.507455630517173
40
0.507455630517173
40
0.546490679018496
40
0.546490679018496
40
0.566008203269157
40
0.566008203269157
40
0.585525727519818
40
0.585525727519818
40
0.624560776021143
40
0.624560776021143
40
0.663595824522468
40
0.663595824522468
40
0.702630873023793
40
0.702630873023793
40
0.741665921525118
40
0.741665921525118
40
0.780700970026443
40
0.780700970026443
40
0.819736018527768
40
0.819736018527768
40
0.839253542778431
40
0.839253542778431
40
0.858771067029093
40
0.858771067029093
40
0.878288591279756
40
0.878288591279756
40
0.897806115530418
40
0.897806115530418
40
0.936841164031741
40
0.936841164031741
40
1
40
1
40
1
40
1
41
1
10
4.24091264711183
20
0.592905069369237
30
0
41
1
10
4.28614247997953
20
0.575939116419505
30
0
41
1
10
4.33148192441524
20
0.558466490742831
30
0
41
1
10
4.42219460191038
20
0.522403526863911
30
0
41
1
10
4.46756551307061
20
0.503810120079578
30
0
41
1
10
4.60333031467019
20
0.445839794666512
30
0
41
1
10
4.69329612147359
20
0.404146301037201
30
0
41
1
10
4.82760397450329
20
0.337055651857611
30
0
41
1
10
4.87231215177496
20
0.313996201248017
30
0
41
1
10
4.96236317051597
20
0.267809832047647
30
0
41
1
10
5.007676375242
20
0.244646820877961
30
0
41
1
10
5.0985561696412
20
0.197658354474157
30
0
41
1
10
5.14410239678651
20
0.173793741159074
30
0
41
1
10
5.21246098326495
20
0.137175264965691
30
0
41
1
10
5.23528963211874
20
0.12483016906242
30
0
41
1
10
5.28080370175732
20
0.10001322842254
30
0
41
1
10
5.30349772958462
20
0.0875420883189122
30
0
41
1
10
5.37138048270862
20
0.049923309793428
30
0
41
1
10
5.41629944762417
20
0.0244390765376181
30
0
41
1
10
5.48370994647331
20
-0.0133745553315805
30
0
41
1
10
5.50619432993801
20
-0.0258943743683631
30
0
41
1
10
5.55125257161936
20
-0.0506558030859594
30
0
41
1
10
5.57381633689391
20
-0.0629165299738759
30
0
41
1
10
5.64155100481946
20
-0.0994576589204144
30
0
41
1
10
5.68676728661626
20
-0.123494916749593
30
0
41
1
10
5.77699769792736
20
-0.171514327269818
30
0
41
1
10
5.82201485066756
20
-0.195488761402458
30
0
41
1
10
5.88946633584379
20
-0.231251273492518
30
0
41
1
10
5.91193944929262
20
-0.243136033277551
30
0
41
1
10
5.9568520969911
20
-0.266851746692566
30
0
41
1
10
5.97928274412715
20
-0.278698144496587
30
0
41
1
10
6.04662436536404
20
-0.313975164981713
30
0
41
1
10
6.09163252751065
20
-0.337058359938681
30
0
41
1
10
6.15974448201288
20
-0.370303632773073
30
0
41
1
10
6.18252835693815
20
-0.381190777170332
30
0
41
1
10
6.22821513183246
20
-0.402647784248075
30
0
41
1
10
6.25113134303251
20
-0.413222761263086
30
0
41
1
10
6.31966684445865
20
-0.444418591592864
30
0
41
1
10
6.36514800560971
20
-0.464612120740156
30
0
41
1
10
6.45565560012219
20
-0.503809612602851
30
0
41
1
10
6.5007144107596
20
-0.522764604844156
30
0
41
1
10
6.59041911053524
20
-0.559349489002784
30
0
41
1
10
6.63504822873759
20
-0.576982776311695
30
0
41
1
10
6.72467920440488
20
-0.609907107274864
30
0
41
1
10
6.76972638117829
20
-0.62516803101488
30
0
41
1
10
6.86000591856535
20
-0.653737971931037
30
0
41
1
10
6.90522410170391
20
-0.667062072084207
30
0
41
1
10
6.9955494862009
20
-0.692021862508426
30
0
41
1
10
7.0406861090724
20
-0.703621666372356
30
0
41
1
10
7.10842333549761
20
-0.71956052225849
30
0
41
1
10
7.13100406238183
20
-0.724633200547657
30
0
41
1
10
7.17616377894649
20
-0.734283249139935
30
0
41
1
10
7.19874933343286
20
-0.738854356404488
30
0
41
1
10
7.24403826403579
20
-0.747406138295389
30
0
41
1
10
7.26675260169168
20
-0.751387852382294
30
0
41
1
10
7.3121577605603
20
-0.758681514968345
30
0
41
1
10
7.33487956993557
20
-0.762000157571407
30
0
41
1
10
7.40304701853037
20
-0.771049916945117
30
0
41
1
10
7.44849513628282
20
-0.775883682333756
30
0
41
1
10
7.56708274674969
20
-0.785646495282805
30
0
41
1
10
7.63992694068904
20
-0.78878284722785
30
0
41
1
10
7.71242270199562
20
-0.788804555219627
30
0
0
SPLINE
5
C6
100
AcDbEntity
8
1
62
256
6
ByLayer
370
18
48
1
60
0
100
AcDbSpline
70
4
71
3
72
104
73
100
40
0
40
0
40
0
40
0
40
0.022355428832413
40
0.022355428832413
40
0.0455939477815537
40
0.0455939477815537
40
0.0688324667306944
40
0.0688324667306944
40
0.0920709856798351
40
0.0920709856798351
40
0.115309504628976
40
0.115309504628976
40
0.138548023578116
40
0.138548023578116
40
0.161786542527257
40
0.161786542527257
40
0.173405802001827
40
0.173405802001827
40
0.185025061476398
40
0.185025061476398
40
0.208263580425541
40
0.208263580425541
40
0.231502099374685
40
0.231502099374685
40
0.254740618323828
40
0.254740618323828
40
0.277979137272972
40
0.277979137272972
40
0.301217656222115
40
0.301217656222115
40
0.324456175171258
40
0.324456175171258
40
0.347694694120402
40
0.347694694120402
40
0.370933213069545
40
0.370933213069545
40
0.382552472544116
40
0.382552472544116
40
0.394171732018686
40
0.405790991493256
40
0.405790991493256
40
0.417410250967826
40
0.417410250967826
40
0.44064876991697
40
0.44064876991697
40
0.487125807815259
40
0.487125807815259
40
0.510364326764406
40
0.510364326764406
40
0.533602845713552
40
0.533602845713552
40
0.556841364662698
40
0.556841364662698
40
0.580079883611844
40
0.580079883611844
40
0.603318402560991
40
0.603318402560991
40
0.626556921510137
40
0.626556921510137
40
0.649795440459283
40
0.649795440459283
40
0.673033959408429
40
0.673033959408429
40
0.684653218883004
40
0.684653218883004
40
0.696272478357579
40
0.696272478357579
40
0.707891737832153
40
0.707891737832153
40
0.719510997306728
40
0.719510997306728
40
0.742749516255877
40
0.742749516255877
40
0.765988035205026
40
0.765988035205026
40
0.789226554154175
40
0.789226554154175
40
0.812465073103323
40
0.812465073103323
40
0.835703592052473
40
0.835703592052473
40
0.858942111001621
40
0.858942111001621
40
0.88218062995077
40
0.88218062995077
40
0.893799889425345
40
0.893799889425345
40
0.905419148899919
40
0.917038408374494
40
0.917038408374494
40
0.928657667849069
40
0.928657667849069
40
0.940276927323643
40
0.940276927323643
40
0.951896186798218
40
0.951896186798218
40
0.998373224696512
40
0.998373224696512
40
1
40
1
40
1
40
1
41
1
10
10.8827098653754
20
0.475034097818394
30
0
41
1
10
10.925940294639
20
0.494111503232801
30
0
41
1
10
10.9693930152079
20
0.512271079017637
30
0
41
1
10
11.0581781713082
20
0.547905818615192
30
0
41
1
10
11.1034937648408
20
0.565355425359371
30
0
41
1
10
11.1941179033056
20
0.598952010661577
30
0
41
1
10
11.2394633508885
20
0.615048408554344
30
0
41
1
10
11.3302719620535
20
0.645683500992675
30
0
41
1
10
11.3754089491015
20
0.660201410823845
30
0
41
1
10
11.4655958904444
20
0.686734068797989
30
0
41
1
10
11.5107825689501
20
0.698704122882191
30
0
41
1
10
11.6012430510671
20
0.720358561008851
30
0
41
1
10
11.6464863693586
20
0.730073043508952
30
0
41
1
10
11.7366838897362
20
0.747519738236463
30
0
41
1
10
11.7816496254402
20
0.755233020823511
30
0
41
1
10
11.8489696449759
20
0.765178560043125
30
0
41
1
10
11.8713890987753
20
0.768222981747527
30
0
41
1
10
11.9161727495764
20
0.77376112831962
30
0
41
1
10
11.9385297980558
20
0.776256211913449
30
0
41
1
10
12.0056404971344
20
0.782847454088369
30
0
41
1
10
12.0504812463848
20
0.7860267182526
30
0
41
1
10
12.140874981347
20
0.789964894802154
30
0
41
1
10
12.1863451822439
20
0.790760190553755
30
0
41
1
10
12.2775168461034
20
0.790061226539223
30
0
41
1
10
12.3232851832117
20
0.788547726662131
30
0
41
1
10
12.414150407526
20
0.783129038269664
30
0
41
1
10
12.4593501573719
20
0.779235226172318
30
0
41
1
10
12.54924896523
20
0.768992086374425
30
0
41
1
10
12.593952812018
20
0.762621204254827
30
0
41
1
10
12.6836890367607
20
0.747830945348937
30
0
41
1
10
12.7287518840198
20
0.7394588224698
30
0
41
1
10
12.8189657892026
20
0.720726993156092
30
0
41
1
10
12.8641038872955
20
0.71035636071295
30
0
41
1
10
12.9541930236537
20
0.68736726408622
30
0
41
1
10
12.9991761771665
20
0.674768107879231
30
0
41
1
10
13.0666225638943
20
0.654190751233472
30
0
41
1
10
13.0890944600739
20
0.647046265402651
30
0
41
1
10
13.1340205405477
20
0.632169606126297
30
0
41
1
10
13.1789452579262
20
0.616720401897794
30
0
41
1
10
13.2240796360737
20
0.600357927688691
30
0
41
1
10
13.2694107183121
20
0.583668497219264
30
0
41
1
10
13.2921767953368
20
0.575158395093496
30
0
41
1
10
13.3606766390073
20
0.549088062145216
30
0
41
1
10
13.4063008411889
20
0.531112609312487
30
0
41
1
10
13.5425879348006
20
0.474801978161878
30
0
41
1
10
13.6326026926048
20
0.433975400042385
30
0
41
1
10
13.7666757892743
20
0.368065009704395
30
0
41
1
10
13.8112796722629
20
0.345421245665392
30
0
41
1
10
13.9010571411898
20
0.300068235494138
30
0
41
1
10
13.9461750903861
20
0.277278194747964
30
0
41
1
10
14.0365484970498
20
0.230962943550594
30
0
41
1
10
14.0817798257157
20
0.20739287306111
30
0
41
1
10
14.1722028280753
20
0.159153632743568
30
0
41
1
10
14.2174311634601
20
0.134550056952065
30
0
41
1
10
14.3079642271771
20
0.0843880510665826
30
0
41
1
10
14.3532760546098
20
0.0586447505610863
30
0
41
1
10
14.4436756270547
20
0.0078791025649423
30
0
41
1
10
14.4889486638503
20
-0.0170382105947056
30
0
41
1
10
14.579530404544
20
-0.0662121714881891
30
0
41
1
10
14.6248105416774
20
-0.0905238800248753
30
0
41
1
10
14.7150391436785
20
-0.139177647848953
30
0
41
1
10
14.7600010929653
20
-0.163491846572725
30
0
41
1
10
14.8272873679789
20
-0.199795853198964
30
0
41
1
10
14.8496905998124
20
-0.211868373575129
30
0
41
1
10
14.8944316804882
20
-0.235977375388444
30
0
41
1
10
14.9167630575555
20
-0.248024921189767
30
0
41
1
10
14.9614470377319
20
-0.271927377883941
30
0
41
1
10
14.9838018099809
20
-0.283778490608824
30
0
41
1
10
15.0286340623871
20
-0.307114136398553
30
0
41
1
10
15.0511211876106
20
-0.318582353686963
30
0
41
1
10
15.1187934893021
20
-0.352401398643821
30
0
41
1
10
15.1641650628394
20
-0.374211365077457
30
0
41
1
10
15.2551042356616
20
-0.4169054562729
30
0
41
1
10
15.3006917553006
20
-0.43786217058161
30
0
41
1
10
15.3917860545774
20
-0.478805094803079
30
0
41
1
10
15.4370837141064
20
-0.498638975248042
30
0
41
1
10
15.5271420459117
20
-0.537024616042231
30
0
41
1
10
15.5719117671419
20
-0.555542285787595
30
0
41
1
10
15.6617450690313
20
-0.590189173249428
30
0
41
1
10
15.7068347858647
20
-0.606312258400465
30
0
41
1
10
15.7970578473132
20
-0.636665256769959
30
0
41
1
10
15.842178183081
20
-0.650908147801772
30
0
41
1
10
15.9321945451999
20
-0.677749084649633
30
0
41
1
10
15.9771232459684
20
-0.690306971171907
30
0
41
1
10
16.0444599658555
20
-0.707720616603154
30
0
41
1
10
16.0668901248558
20
-0.713293162677161
30
0
41
1
10
16.111725064284
20
-0.723952631254377
30
0
41
1
10
16.1565516608762
20
-0.734110496517417
30
0
41
1
10
16.2015760937496
20
-0.74309553251635
30
0
41
1
10
16.2467916944123
20
-0.751447383009832
30
0
41
1
10
16.2694924698658
20
-0.755310029482388
30
0
41
1
10
16.315037069838
20
-0.76245084560037
30
0
41
1
10
16.3379092058986
20
-0.765732526205881
30
0
41
1
10
16.3835940222602
20
-0.771714910564384
30
0
41
1
10
16.4064031309588
20
-0.774416182112617
30
0
41
1
10
16.5201827188487
20
-0.786522668433975
30
0
41
1
10
16.6103018385713
20
-0.791749561775958
30
0
41
1
10
16.7028539213003
20
-0.792166406145924
30
0
41
1
10
16.7059833566045
20
-0.792174478323119
30
0
41
1
10
16.7091124254501
20
-0.792176556608638
30
0
0
SPLINE
5
C7
100
AcDbEntity
8
1
62
256
6
ByLayer
370
18
48
1
60
0
100
AcDbSpline
70
4
71
3
72
38
73
34
40
0
40
0
40
0
40
0
40
0.0416866549802188
40
0.0416866549802188
40
0.121546100398542
40
0.121546100398542
40
0.201405545816865
40
0.201405545816865
40
0.281264991235189
40
0.281264991235189
40
0.32119471394435
40
0.32119471394435
40
0.361124436653511
40
0.361124436653511
40
0.440983882071833
40
0.440983882071833
40
0.520843327490157
40
0.520843327490157
40
0.560773050199314
40
0.560773050199314
40
0.60070277290847
40
0.60070277290847
40
0.640632495617627
40
0.640632495617627
40
0.680562218326784
40
0.680562218326784
40
0.760421663745088
40
0.760421663745088
40
0.840281109163391
40
0.840281109163391
40
0.920140554581696
40
0.920140554581696
40
1
40
1
40
1
40
1
41
1
10
19.8751181698507
20
0.474062588247818
30
0
41
1
10
19.8986164353402
20
0.484361889784765
30
0
41
1
10
19.922147358975
20
0.494427688132532
30
0
41
1
10
19.9907855522155
20
0.523207523525542
30
0
41
1
10
20.0358945654515
20
0.541432415696733
30
0
41
1
10
20.1260098664034
20
0.576635506967762
30
0
41
1
10
20.1710525855111
20
0.593563060898759
30
0
41
1
10
20.2611450932992
20
0.625939529124821
30
0
41
1
10
20.306125576779
20
0.641458862883411
30
0
41
1
10
20.3740690383468
20
0.66303960620607
30
0
41
1
10
20.3967954897322
20
0.669939574953048
30
0
41
1
10
20.4422236262077
20
0.683075898242663
30
0
41
1
10
20.464945528648
20
0.68933219219403
30
0
41
1
10
20.5330778454123
20
0.707257415917866
30
0
41
1
10
20.5784556553069
20
0.718090442817868
30
0
41
1
10
20.6688170373777
20
0.7377968130086
30
0
41
1
10
20.7138146741427
20
0.746647869174211
30
0
41
1
10
20.7811071483475
20
0.758314283224053
30
0
41
1
10
20.8035043967073
20
0.761934920970788
30
0
41
1
10
20.848217107342
20
0.768633415005411
30
0
41
1
10
20.8705264775077
20
0.771712615250266
30
0
41
1
10
20.9151519030861
20
0.777275609667527
30
0
41
1
10
20.9374699556258
20
0.779758644447554
30
0
41
1
10
20.9822138916899
20
0.784104910696669
30
0
41
1
10
21.004649496128
20
0.785966475396634
30
0
41
1
10
21.0721429102089
20
0.790655765435162
30
0
41
1
10
21.1173637558365
20
0.792604157919897
30
0
41
1
10
21.2079387681526
20
0.79424414438455
30
0
41
1
10
21.2532616621115
20
0.793929261910449
30
0
41
1
10
21.3439784833282
20
0.790901775759238
30
0
41
1
10
21.3894731358777
20
0.788185333140007
30
0
41
1
10
21.48006946027
20
0.780229218986506
30
0
41
1
10
21.5252097486817
20
0.774970228416834
30
0
41
1
10
21.5706250016078
20
0.768609619765698
30
0
0
SPLINE
5
C8
100
AcDbEntity
8
1
62
256
6
ByLayer
370
18
48
1
60
0
100
AcDbSpline
70
4
71
3
72
106
73
102
40
0
40
0
40
0
40
0
40
0.0106991537263472
40
0.0106991537263472
40
0.0339582118920935
40
0.0339582118920935
40
0.0455877409749667
40
0.0455877409749667
40
0.0572172700578399
40
0.0572172700578399
40
0.0804763282235862
40
0.0804763282235862
40
0.103735386389332
40
0.103735386389332
40
0.126994444555079
40
0.126994444555079
40
0.150253502720825
40
0.150253502720825
40
0.173512560886571
40
0.173512560886571
40
0.196771619052318
40
0.196771619052318
40
0.220030677218064
40
0.220030677218064
40
0.231660206300937
40
0.231660206300937
40
0.243289735383811
40
0.243289735383811
40
0.266548793549557
40
0.266548793549557
40
0.289807851715303
40
0.289807851715303
40
0.31306690988105
40
0.31306690988105
40
0.336325968046796
40
0.336325968046796
40
0.347955497129669
40
0.347955497129669
40
0.359585026212542
40
0.359585026212542
40
0.382844084378286
40
0.382844084378286
40
0.394473613461159
40
0.394473613461159
40
0.406103142544032
40
0.406103142544032
40
0.429362200709778
40
0.429362200709778
40
0.452621258875525
40
0.452621258875525
40
0.475880317041271
40
0.475880317041271
40
0.499139375207018
40
0.499139375207018
40
0.522398433372764
40
0.522398433372764
40
0.54565749153851
40
0.54565749153851
40
0.568916549704256
40
0.568916549704256
40
0.58054607878713
40
0.58054607878713
40
0.592175607870003
40
0.592175607870003
40
0.615434666035749
40
0.615434666035749
40
0.638693724201495
40
0.638693724201495
40
0.661952782367242
40
0.661952782367242
40
0.685211840532988
40
0.685211840532988
40
0.708470898698735
40
0.708470898698735
40
0.731729956864481
40
0.731729956864481
40
0.743359485947355
40
0.743359485947355
40
0.75498901503023
40
0.75498901503023
40
0.778248073195979
40
0.778248073195979
40
0.801507131361728
40
0.801507131361728
40
0.824766189527477
40
0.824766189527477
40
0.848025247693226
40
0.848025247693226
40
0.8596547767761
40
0.8596547767761
40
0.871284305858975
40
0.871284305858975
40
0.917802422190473
40
0.917802422190473
40
0.941061480356221
40
0.941061480356221
40
0.964320538521968
40
0.964320538521968
40
0.987579596687716
40
0.987579596687716
40
1
40
1
40
1
40
1
41
1
10
19.8750823710773
20
-0.480249141259804
30
0
41
1
10
19.8543701142525
20
-0.489328439375868
30
0
41
1
10
19.8336521005806
20
-0.49827657451857
30
0
41
1
10
19.7678879173191
20
-0.526273286816263
30
0
41
1
10
19.7228587393258
20
-0.54487889865959
30
0
41
1
10
19.65512996963
20
-0.57160560985028
30
0
41
1
10
19.632504479387
20
-0.58029320637749
30
0
41
1
10
19.5871193527061
20
-0.597181365123561
30
0
41
1
10
19.5643397602035
20
-0.605403481097426
30
0
41
1
10
19.4961315275935
20
-0.629304786206092
30
0
41
1
10
19.4508004995328
20
-0.644225662573604
30
0
41
1
10
19.3603279951576
20
-0.672001975095867
30
0
41
1
10
19.3151779946158
20
-0.684852168465426
30
0
41
1
10
19.2250994452758
20
-0.708547095605894
30
0
41
1
10
19.1801883776071
20
-0.719404786952708
30
0
41
1
10
19.0905809355142
20
-0.739051975876777
30
0
41
1
10
19.0458562185406
20
-0.747809465605428
30
0
41
1
10
18.9561030291721
20
-0.762932597053435
30
0
41
1
10
18.9111580298751
20
-0.769357184301754
30
0
41
1
10
18.8211094869946
20
-0.779938430350285
30
0
41
1
10
18.775990275299
20
-0.784088527565331
30
0
41
1
10
18.6855272306277
20
-0.790084341387455
30
0
41
1
10
18.6401962907653
20
-0.791935986033792
30
0
41
1
10
18.5720893238417
20
-0.792927756444868
30
0
41
1
10
18.5493414817308
20
-0.792958540713215
30
0
41
1
10
18.5039973084726
20
-0.792409217212366
30
0
41
1
10
18.481382591867
20
-0.791828982729214
30
0
41
1
10
18.4135708768104
20
-0.789196309981577
30
0
41
1
10
18.3683965765168
20
-0.786264038282582
30
0
41
1
10
18.2782150848019
20
-0.778118055767067
30
0
41
1
10
18.2331928694269
20
-0.772903249859297
30
0
41
1
10
18.143196432668
20
-0.760266535148617
30
0
41
1
10
18.098221559394
20
-0.752849265308214
30
0
41
1
10
18.0083926922736
20
-0.735763500896041
30
0
41
1
10
17.963554891935
20
-0.726079684238954
30
0
41
1
10
17.896325185482
20
-0.709848319031096
30
0
41
1
10
17.8739115584156
20
-0.704159220718111
30
0
41
1
10
17.8289870180608
20
-0.69230273408445
30
0
41
1
10
17.8064803804505
20
-0.686133163371011
30
0
41
1
10
17.7388639516696
20
-0.666875686349272
30
0
41
1
10
17.6936629195245
20
-0.653032621541797
30
0
41
1
10
17.6256269605098
20
-0.630805080218522
30
0
41
1
10
17.6029073005298
20
-0.623154195756143
30
0
41
1
10
17.5573803486514
20
-0.607372377711926
30
0
41
1
10
17.5345574991166
20
-0.599235186462209
30
0
41
1
10
17.4663057031679
20
-0.574207558043156
30
0
41
1
10
17.4210011232308
20
-0.556652681755281
30
0
41
1
10
17.330800712688
20
-0.519769262575693
30
0
41
1
10
17.2859239885491
20
-0.500405529826509
30
0
41
1
10
17.1960518407151
20
-0.460665093036909
30
0
41
1
10
17.1511074253772
20
-0.440221796159932
30
0
41
1
10
17.0612425849569
20
-0.39815521239521
30
0
41
1
10
17.0163049408266
20
-0.37655728241549
30
0
41
1
10
16.9263509908213
20
-0.332351583429585
30
0
41
1
10
16.8813419159006
20
-0.309733947992214
30
0
41
1
10
16.7913336712957
20
-0.263318411506077
30
0
41
1
10
16.7463594236428
20
-0.239472278121639
30
0
41
1
10
16.6561984543559
20
-0.190942273842921
30
0
41
1
10
16.6109046392014
20
-0.166458289521955
30
0
41
1
10
16.5426601525929
20
-0.129383271377691
30
0
41
1
10
16.5198626934803
20
-0.116961184963373
30
0
41
1
10
16.4743957042806
20
-0.0921319480705449
30
0
41
1
10
16.451696873106
20
-0.0797093481917841
30
0
41
1
10
16.3836838431182
20
-0.0424545223297628
30
0
41
1
10
16.338446702142
20
-0.0176467007912322
30
0
41
1
10
16.2482298268046
20
0.0320071084312303
30
0
41
1
10
16.203267657572
20
0.0568855476568899
30
0
41
1
10
16.1135932704042
20
0.106655860462126
30
0
41
1
10
16.0688514174848
20
0.131490773977561
30
0
41
1
10
15.9790969460362
20
0.180225110582342
30
0
41
1
10
15.9341683446892
20
0.204279154088056
30
0
41
1
10
15.8441836501833
20
0.251720874384517
30
0
41
1
10
15.7991116346861
20
0.27508017600212
30
0
41
1
10
15.708774591135
20
0.321015084587202
30
0
41
1
10
15.6635225955887
20
0.343614017197183
30
0
41
1
10
15.5955590965486
20
0.37701505936684
30
0
41
1
10
15.5728886578123
20
0.388062708529844
30
0
41
1
10
15.5274946002794
20
0.409946450572534
30
0
41
1
10
15.5047818522079
20
0.420774905473223
30
0
41
1
10
15.4367755036305
20
0.452546122747861
30
0
41
1
10
15.3914901939538
20
0.472824658887788
30
0
41
1
10
15.3011218085377
20
0.51181308859239
30
0
41
1
10
15.2560239801985
20
0.530496327172131
30
0
41
1
10
15.1659134095879
20
0.566155021076668
30
0
41
1
10
15.1208998895373
20
0.583132993164071
30
0
41
1
10
15.0310302233043
20
0.61547271754543
30
0
41
1
10
14.9861906480425
20
0.630850172927524
30
0
41
1
10
14.9189834901805
20
0.652579424680113
30
0
41
1
10
14.8965811911581
20
0.65958971244396
30
0
41
1
10
14.8516871242761
20
0.673055305294497
30
0
41
1
10
14.8292001142018
20
0.679516693172644
30
0
41
1
10
14.716626501241
20
0.710539520476061
30
0
41
1
10
14.6261195066538
20
0.731252244602217
30
0
41
1
10
14.4893777413011
20
0.755817417177468
30
0
41
1
10
14.4438998142234
20
0.76289515252833
30
0
41
1
10
14.3534865194192
20
0.774757315036112
30
0
41
1
10
14.3085178838825
20
0.779541732666786
30
0
41
1
10
14.2184958339669
20
0.786661402591108
30
0
41
1
10
14.1734949857407
20
0.789028853356996
30
0
41
1
10
14.1045083432334
20
0.790883845787278
30
0
41
1
10
14.0804968924627
20
0.791197968400951
30
0
41
1
10
14.0564839318477
20
0.791182212726312
30
0
0
SPLINE
5
C9
100
AcDbEntity
8
1
62
256
6
ByLayer
370
18
48
1
60
0
100
AcDbSpline
70
4
71
3
72
100
73
96
40
0
40
0
40
0
40
0
40
0.000557908570498
40
0.000557908570498
40
0.0238050731516673
40
0.0238050731516673
40
0.0470522377328369
40
0.0470522377328369
40
0.0702994023140062
40
0.0702994023140062
40
0.0935465668951754
40
0.0935465668951754
40
0.116793731476345
40
0.116793731476345
40
0.12841731376693
40
0.12841731376693
40
0.140040896057515
40
0.140040896057515
40
0.163288060638686
40
0.163288060638686
40
0.209782389801027
40
0.209782389801027
40
0.233029554382198
40
0.233029554382198
40
0.25627671896337
40
0.25627671896337
40
0.279523883544541
40
0.279523883544541
40
0.302771048125712
40
0.302771048125712
40
0.326018212706883
40
0.326018212706883
40
0.337641794997469
40
0.337641794997469
40
0.349265377288055
40
0.349265377288055
40
0.395759706450396
40
0.395759706450396
40
0.407383288740982
40
0.407383288740982
40
0.419006871031567
40
0.419006871031567
40
0.442254035612738
40
0.442254035612738
40
0.46550120019391
40
0.46550120019391
40
0.488748364775081
40
0.488748364775081
40
0.511995529356252
40
0.511995529356252
40
0.535242693937423
40
0.535242693937423
40
0.558489858518595
40
0.558489858518595
40
0.581737023099766
40
0.581737023099766
40
0.593360605390352
40
0.593360605390352
40
0.604984187680937
40
0.604984187680937
40
0.628231352262108
40
0.628231352262108
40
0.639854934552693
40
0.639854934552693
40
0.651478516843278
40
0.651478516843278
40
0.674725681424447
40
0.674725681424447
40
0.721220010586785
40
0.721220010586785
40
0.744467175167955
40
0.744467175167955
40
0.756090757458539
40
0.756090757458539
40
0.767714339749124
40
0.767714339749124
40
0.790961504330293
40
0.790961504330293
40
0.814208668911463
40
0.814208668911463
40
0.837455833492632
40
0.837455833492632
40
0.849079415783217
40
0.849079415783217
40
0.860702998073803
40
0.860702998073803
40
0.907197327236147
40
0.907197327236147
40
0.930444491817318
40
0.930444491817318
40
0.942068074107904
40
0.942068074107904
40
0.953691656398489
40
0.953691656398489
40
1
40
1
40
1
40
1
41
1
10
10.8832578162191
20
-0.474533101716048
30
0
41
1
10
10.882179048378
20
-0.475008432380292
30
0
41
1
10
10.8811003035559
20
-0.47548343396457
30
0
41
1
10
10.8350729782555
20
-0.495736982914963
30
0
41
1
10
10.7901912831846
20
-0.514978491106234
30
0
41
1
10
10.700272135769
20
-0.551929837261014
30
0
41
1
10
10.655130348315
20
-0.569500466239788
30
0
41
1
10
10.5645235044884
20
-0.602906542945306
30
0
41
1
10
10.5190204174988
20
-0.618765688091713
30
0
41
1
10
10.4278172800294
20
-0.648580307255173
30
0
41
1
10
10.3823575699094
20
-0.662450763257908
30
0
41
1
10
10.2917705250245
20
-0.688207547231741
30
0
41
1
10
10.2466602791586
20
-0.700107585296365
30
0
41
1
10
10.1792326828277
20
-0.716423833762292
30
0
41
1
10
10.1567964825745
20
-0.721605613963106
30
0
41
1
10
10.1119145771928
20
-0.731388523012157
30
0
41
1
10
10.089460084986
20
-0.735984611700587
30
0
41
1
10
10.0220671007697
20
-0.748913662097863
30
0
41
1
10
9.97712533284044
20
-0.756404812410949
30
0
41
1
10
9.84221012013671
20
-0.775511735866957
30
0
41
1
10
9.75203143092236
20
-0.7837545398435
30
0
41
1
10
9.61660673042286
20
-0.789214164154146
30
0
41
1
10
9.57147521181142
20
-0.789862684201921
30
0
41
1
10
9.48075355126247
20
-0.78872599632237
30
0
41
1
10
9.43509265512446
20
-0.786950422580389
30
0
41
1
10
9.34427461609926
20
-0.781079085067688
30
0
41
1
10
9.29898857383589
20
-0.776982710160553
30
0
41
1
10
9.20857434809398
20
-0.766552104411602
30
0
41
1
10
9.16344655733278
20
-0.760221964054153
30
0
41
1
10
9.07342385440336
20
-0.745294857568126
30
0
41
1
10
9.02854673674068
20
-0.736682112279226
30
0
41
1
10
8.96132698805792
20
-0.72206260742783
30
0
41
1
10
8.93892580859057
20
-0.716913063071985
30
0
41
1
10
8.89405047815541
20
-0.706131815193316
30
0
41
1
10
8.87158315878756
20
-0.700496069460257
30
0
41
1
10
8.75915885683807
20
-0.671058076451175
30
0
41
1
10
8.66891503366278
20
-0.64350898296189
30
0
41
1
10
8.55549016701801
20
-0.604276080642592
30
0
41
1
10
8.53278038389962
20
-0.596181276836575
30
0
41
1
10
8.48731703261396
20
-0.579475911571507
30
0
41
1
10
8.46453696848189
20
-0.57085285734297
30
0
41
1
10
8.39633312996079
20
-0.544286665277809
30
0
41
1
10
8.35113353950626
20
-0.525638506714841
30
0
41
1
10
8.2607188414687
20
-0.487285807798656
30
0
41
1
10
8.21556505237805
20
-0.467499344787257
30
0
41
1
10
8.12538738949448
20
-0.426703181545804
30
0
41
1
10
8.08034691440386
20
-0.405717931653953
30
0
41
1
10
7.99030103834158
20
-0.362685428555011
30
0
41
1
10
7.94530412079286
20
-0.340626099854745
30
0
41
1
10
7.8554353332915
20
-0.295283039203497
30
0
41
1
10
7.81059078155346
20
-0.271948139443651
30
0
41
1
10
7.72077042742916
20
-0.224460927686181
30
0
41
1
10
7.6756935059384
20
-0.200492656875866
30
0
41
1
10
7.58526405035022
20
-0.152020406224693
30
0
41
1
10
7.53991576530296
20
-0.127506655257179
30
0
41
1
10
7.47162587832682
20
-0.0904409256125405
30
0
41
1
10
7.44878893768811
20
-0.0780216686609094
30
0
41
1
10
7.40318885381305
20
-0.0531717418272137
30
0
41
1
10
7.38043092792066
20
-0.0407437143813922
30
0
41
1
10
7.31230159919073
20
-0.0034142582648258
30
0
41
1
10
7.26708537350063
20
0.0215531435079868
30
0
41
1
10
7.19952455710003
20
0.0590392061450871
30
0
41
1
10
7.17704733605368
20
0.0715383869975312
30
0
41
1
10
7.13208878538444
20
0.0963762039313565
30
0
41
1
10
7.10959988453686
20
0.108701124543046
30
0
41
1
10
7.04212369189875
20
0.145435184588422
30
0
41
1
10
6.99714855513821
20
0.16964347926546
30
0
41
1
10
6.86219195645225
20
0.241333316702196
30
0
41
1
10
6.77206990658667
20
0.287696339828216
30
0
41
1
10
6.63686733497914
20
0.35540469710466
30
0
41
1
10
6.5918320187622
20
0.377721755995594
30
0
41
1
10
6.52395140189543
20
0.410174441110797
30
0
41
1
10
6.50126243424569
20
0.420810029376696
30
0
41
1
10
6.45578427172504
20
0.441758022174781
30
0
41
1
10
6.4329675475195
20
0.452085206441325
30
0
41
1
10
6.36463871447356
20
0.482455205498155
30
0
41
1
10
6.31922886758224
20
0.501893992800831
30
0
41
1
10
6.22860487508609
20
0.539077187282999
30
0
41
1
10
6.18339238602147
20
0.556827860384175
30
0
41
1
10
6.09324090767973
20
0.590751833519278
30
0
41
1
10
6.04832072451589
20
0.606943628984709
30
0
41
1
10
5.98105555686297
20
0.629897855602081
30
0
41
1
10
5.95864087520044
20
0.637312786456675
30
0
41
1
10
5.9137486683789
20
0.651591959700795
30
0
41
1
10
5.89127907272018
20
0.658465886306743
30
0
41
1
10
5.77887205332456
20
0.691583649636215
30
0
41
1
10
5.68872226255394
20
0.714046900311502
30
0
41
1
10
5.55289528742978
20
0.741436098233976
30
0
41
1
10
5.50755215440921
20
0.749536122718609
30
0
41
1
10
5.4394267008399
20
0.760062507516864
30
0
41
1
10
5.41667199389229
20
0.763303385003411
30
0
41
1
10
5.37125980207244
20
0.769175823465844
30
0
41
1
10
5.34858360937994
20
0.771805020830811
30
0
41
1
10
5.23560062037458
20
0.783377473321906
30
0
41
1
10
5.14564582082468
20
0.787870675985857
30
0
41
1
10
5.05585469960997
20
0.787806814457667
30
0
0
SPLINE
5
CA
100
AcDbEntity
8
1
62
256
6
ByLayer
370
18
48
1
60
0
100
AcDbSpline
70
4
71
3
72
105
73
101
40
0
40
0
40
0
40
0
40
0.003719382421549
40
0.003719382421549
40
0.0269654650872012
40
0.0269654650872012
40
0.0502115477528534
40
0.0502115477528534
40
0.0734576304185055
40
0.0734576304185055
40
0.0967037130841577
40
0.0967037130841577
40
0.11994979574981
40
0.11994979574981
40
0.131572837082637
40
0.131572837082637
40
0.143195878415463
40
0.143195878415463
40
0.15481891974829
40
0.15481891974829
40
0.166441961081117
40
0.166441961081117
40
0.189688043746771
40
0.189688043746771
40
0.236180209078079
40
0.236180209078079
40
0.259426291743733
40
0.259426291743733
40
0.282672374409387
40
0.282672374409387
40
0.305918457075042
40
0.305918457075042
40
0.317541498407868
40
0.317541498407868
40
0.329164539740694
40
0.329164539740694
40
0.352410622406346
40
0.352410622406346
40
0.375656705071998
40
0.375656705071998
40
0.398902787737649
40
0.398902787737649
40
0.422148870403301
40
0.422148870403301
40
0.433771911736127
40
0.433771911736127
40
0.445394953068952
40
0.445394953068952
40
0.468641035734604
40
0.468641035734604
40
0.491887118400256
40
0.491887118400256
40
0.503510159733082
40
0.503510159733082
40
0.515133201065908
40
0.515133201065908
40
0.538379283731562
40
0.538379283731562
40
0.561625366397214
40
0.561625366397214
40
0.584871449062867
40
0.584871449062867
40
0.60811753172852
40
0.60811753172852
40
0.631363614394173
40
0.631363614394173
40
0.642986655727
40
0.642986655727
40
0.654609697059827
40
0.666232738392654
40
0.666232738392654
40
0.677855779725483
40
0.677855779725483
40
0.70110186239114
40
0.70110186239114
40
0.747594027722454
40
0.747594027722454
40
0.770840110388111
40
0.770840110388111
40
0.794086193053768
40
0.794086193053768
40
0.817332275719425
40
0.817332275719425
40
0.840578358385082
40
0.840578358385082
40
0.863824441050739
40
0.863824441050739
40
0.887070523716396
40
0.887070523716396
40
0.910316606382053
40
0.910316606382053
40
0.93356268904771
40
0.93356268904771
40
0.945185730380538
40
0.945185730380538
40
0.956808771713367
40
0.956808771713367
40
0.980054854379024
40
0.980054854379024
40
1
40
1
40
1
40
1
41
1
10
6.38866253935868
20
0.474757729303775
30
0
41
1
10
6.39591473139899
20
0.477924025943196
30
0
41
1
10
6.40316117740471
20
0.481075059570145
30
0
41
1
10
6.45565560012219
20
0.503809612602851
30
0
41
1
10
6.50071441075957
20
0.522764604844156
30
0
41
1
10
6.59041911053524
20
0.559349489002784
30
0
41
1
10
6.63504822873759
20
0.576982776311695
30
0
41
1
10
6.72467920440488
20
0.609907107274864
30
0
41
1
10
6.76972638117829
20
0.62516803101488
30
0
41
1
10
6.86000591856535
20
0.653737971931037
30
0
41
1
10
6.90522410170391
20
0.667062072084235
30
0
41
1
10
6.9955494862009
20
0.692021862508426
30
0
41
1
10
7.0406861090724
20
0.703621666372356
30
0
41
1
10
7.10842333549763
20
0.71956052225849
30
0
41
1
10
7.13100406238183
20
0.724633200547657
30
0
41
1
10
7.17616377894652
20
0.734283249139935
30
0
41
1
10
7.19874933343289
20
0.738854356404488
30
0
41
1
10
7.24403826403579
20
0.747406138295389
30
0
41
1
10
7.26675260169171
20
0.751387852382294
30
0
41
1
10
7.31215776056033
20
0.758681514968345
30
0
41
1
10
7.33487956993559
20
0.762000157571407
30
0
41
1
10
7.40304701853037
20
0.771049916945117
30
0
41
1
10
7.44849513628282
20
0.775883682333756
30
0
41
1
10
7.58438604062383
20
0.787071001779111
30
0
41
1
10
7.67429783846748
20
0.790102282830361
30
0
41
1
10
7.80842000412119
20
0.787393230555864
30
0
41
1
10
7.85305911450146
20
0.785259689361169
30
0
41
1
10
7.94296925755069
20
0.778747911527518
30
0
41
1
10
7.98819722035731
20
0.77439112731156
30
0
41
1
10
8.07887595398543
20
0.763474999792294
30
0
41
1
10
8.12430483014532
20
0.756901843593624
30
0
41
1
10
8.19247269557926
20
0.745233443105775
30
0
41
1
10
8.21520671248703
20
0.741045054403571
30
0
41
1
10
8.26071150133785
20
0.732059673663343
30
0
41
1
10
8.28348559293124
20
0.727263065964934
30
0
41
1
10
8.35150600426471
20
0.712009538737306
30
0
41
1
10
8.39650208349366
20
0.700599561710447
30
0
41
1
10
8.48652218148396
20
0.675931161248229
30
0
41
1
10
8.53163712284609
20
0.662776516566566
30
0
41
1
10
8.62200061290812
20
0.634909302924342
30
0
41
1
10
8.66721581342205
20
0.620165762693262
30
0
41
1
10
8.75739603649851
20
0.588705718321933
30
0
41
1
10
8.80236933078035
20
0.571990287895147
30
0
41
1
10
8.86972767213655
20
0.545474380878375
30
0
41
1
10
8.89216478765286
20
0.536397273461262
30
0
41
1
10
8.9369944824048
20
0.517735735404216
30
0
41
1
10
8.95937895808135
20
0.508138913835097
30
0
41
1
10
9.0265800683022
20
0.478730269939604
30
0
41
1
10
9.07149225566758
20
0.458362911118257
30
0
41
1
10
9.16208126573957
20
0.417025464435938
30
0
41
1
10
9.20767493754011
20
0.395943069441756
30
0
41
1
10
9.27627597358992
20
0.363327596812496
30
0
41
1
10
9.29915665310497
20
0.352294588139557
30
0
41
1
10
9.34473400748033
20
0.329941732353603
30
0
41
1
10
9.36746025536101
20
0.318616164704082
30
0
41
1
10
9.43546862921443
20
0.284220332787896
30
0
41
1
10
9.48059535065462
20
0.260757843076647
30
0
41
1
10
9.57039126006001
20
0.21269893837146
30
0
41
1
10
9.61505658644037
20
0.188092376249699
30
0
41
1
10
9.70473370369439
20
0.139195223476065
30
0
41
1
10
9.7497823273419
20
0.114975633781597
30
0
41
1
10
9.84000819616762
20
0.0664836772024557
30
0
41
1
10
9.88517217724265
20
0.0421867935575904
30
0
41
1
10
9.97534692857906
20
-0.0069869373259905
30
0
41
1
10
10.0203888201233
20
-0.031807202897852
30
0
41
1
10
10.0879525099223
20
-0.0692708875760388
30
0
41
1
10
10.1104691173839
20
-0.0818066069061274
30
0
41
1
10
10.1554925959479
20
-0.106977575260856
30
0
41
1
10
10.2005220039174
20
-0.132218881513552
30
0
41
1
10
10.2457767414295
20
-0.157197570180386
30
0
41
1
10
10.2912375454389
20
-0.181864262222433
30
0
41
1
10
10.3140415982817
20
-0.194025948253625
30
0
41
1
10
10.382366003347
20
-0.229994040621904
30
0
41
1
10
10.4278981383581
20
-0.253340103896335
30
0
41
1
10
10.5639791641154
20
-0.322393220738036
30
0
41
1
10
10.6539444187957
20
-0.3672189246779
30
0
41
1
10
10.7880451552074
20
-0.431861810402126
30
0
41
1
10
10.8326681721759
20
-0.452862227479216
30
0
41
1
10
10.9225074575977
20
-0.492675741925524
30
0
41
1
10
10.9676733726307
20
-0.511580884641376
30
0
41
1
10
11.0581781713081
20
-0.54790581861522
30
0
41
1
10
11.1034937648408
20
-0.565355425359371
30
0
41
1
10
11.1941179033056
20
-0.598952010661577
30
0
41
1
10
11.2394633508885
20
-0.615048408554344
30
0
41
1
10
11.3302719620535
20
-0.645683500992675
30
0
41
1
10
11.3754089491015
20
-0.660201410823845
30
0
41
1
10
11.4655958904444
20
-0.686734068797989
30
0
41
1
10
11.5107825689501
20
-0.698704122882191
30
0
41
1
10
11.6012430510671
20
-0.720358561008851
30
0
41
1
10
11.6464863693587
20
-0.730073043508952
30
0
41
1
10
11.7366838897362
20
-0.747519738236463
30
0
41
1
10
11.7816496254403
20
-0.755233020823511
30
0
41
1
10
11.8489696449759
20
-0.765178560043125
30
0
41
1
10
11.8713890987754
20
-0.768222981747527
30
0
41
1
10
11.9161727495764
20
-0.77376112831962
30
0
41
1
10
11.9385297980558
20
-0.776256211913449
30
0
41
1
10
12.0056404971343
20
-0.782847454088369
30
0
41
1
10
12.0504812463848
20
-0.7860267182526
30
0
41
1
10
12.1344570391793
20
-0.78968528483415
30
0
41
1
10
12.1734371828487
20
-0.790510658761889
30
0
41
1
10
12.2125189354204
20
-0.790490254887231
30
0
0
SPLINE
5
CB
100
AcDbEntity
8
1
62
256
6
ByLayer
370
18
48
1
60
0
100
AcDbSpline
70
4
71
3
72
113
73
109
40
0
40
0
40
0
40
0
40
0.0175364730259634
40
0.0175364730259634
40
0.0407329456312882
40
0.0407329456312882
40
0.0639294182366133
40
0.0639294182366133
40
0.0871258908419381
40
0.0871258908419381
40
0.110322363447263
40
0.110322363447263
40
0.121920599749925
40
0.121920599749925
40
0.133518836052588
40
0.14511707235525
40
0.14511707235525
40
0.156715308657912
40
0.156715308657912
40
0.168313544960575
40
0.168313544960575
40
0.179911781263237
40
0.179911781263237
40
0.226304726473884
40
0.226304726473884
40
0.249501199079209
40
0.249501199079209
40
0.272697671684534
40
0.272697671684534
40
0.295894144289859
40
0.295894144289859
40
0.319090616895184
40
0.319090616895184
40
0.330688853197847
40
0.330688853197847
40
0.342287089500509
40
0.342287089500509
40
0.365483562105834
40
0.365483562105834
40
0.388680034711159
40
0.388680034711159
40
0.411876507316484
40
0.411876507316484
40
0.423474743619146
40
0.423474743619146
40
0.435072979921808
40
0.435072979921808
40
0.446671216224471
40
0.446671216224471
40
0.458269452527133
40
0.458269452527133
40
0.481465925132458
40
0.481465925132458
40
0.504662397737783
40
0.504662397737783
40
0.516260634040445
40
0.516260634040445
40
0.527858870343108
40
0.527858870343108
40
0.551055342948436
40
0.551055342948436
40
0.574251815553763
40
0.574251815553763
40
0.597448288159091
40
0.597448288159091
40
0.620644760764418
40
0.620644760764418
40
0.632242997067081
40
0.632242997067081
40
0.643841233369743
40
0.655439469672405
40
0.655439469672405
40
0.667037705975068
40
0.67863594227773
40
0.67863594227773
40
0.690234178580392
40
0.690234178580392
40
0.736627123791036
40
0.736627123791036
40
0.759823596396357
40
0.759823596396357
40
0.783020069001678
40
0.783020069001678
40
0.806216541606999
40
0.806216541606999
40
0.82941301421232
40
0.82941301421232
40
0.85260948681764
40
0.85260948681764
40
0.8642077231203
40
0.8642077231203
40
0.875805959422961
40
0.875805959422961
40
0.899002432028279
40
0.899002432028279
40
0.922198904633597
40
0.922198904633597
40
0.933797140936255
40
0.933797140936255
40
0.945395377238912
40
0.945395377238912
40
0.95699361354157
40
0.95699361354157
40
0.968591849844228
40
0.968591849844228
40
0.991788322449543
40
0.991788322449543
40
1
40
1
40
1
40
1
41
1
10
15.3795349355171
20
0.473204972367426
30
0
41
1
10
15.4138755624143
20
0.488445964552
30
0
41
1
10
15.4480709475709
20
0.503322073287251
30
0
41
1
10
15.5271420459118
20
0.537024616042231
30
0
41
1
10
15.571911767142
20
0.555542285787595
30
0
41
1
10
15.6617450690313
20
0.590189173249428
30
0
41
1
10
15.7068347858647
20
0.606312258400465
30
0
41
1
10
15.7970578473132
20
0.636665256769959
30
0
41
1
10
15.842178183081
20
0.650908147801772
30
0
41
1
10
15.9321945451999
20
0.677749084649633
30
0
41
1
10
15.9771232459685
20
0.690306971171935
30
0
41
1
10
16.0444599658556
20
0.707720616603154
30
0
41
1
10
16.0668901248558
20
0.713293162677161
30
0
41
1
10
16.111725064284
20
0.723952631254377
30
0
41
1
10
16.1565516608762
20
0.734110496517417
30
0
41
1
10
16.2015760937495
20
0.74309553251635
30
0
41
1
10
16.2467916944122
20
0.751447383009832
30
0
41
1
10
16.2694924698658
20
0.755310029482388
30
0
41
1
10
16.315037069838
20
0.76245084560037
30
0
41
1
10
16.3379092058986
20
0.765732526205909
30
0
41
1
10
16.3835940222603
20
0.771714910564384
30
0
41
1
10
16.4064031309588
20
0.774416182112617
30
0
41
1
10
16.5201827188487
20
0.786522668433975
30
0
41
1
10
16.6103018385714
20
0.791749561775958
30
0
41
1
10
16.7444350715808
20
0.792353683059446
30
0
41
1
10
16.7890457334773
20
0.791325651611373
30
0
41
1
10
16.8787986347465
20
0.786990220592202
30
0
41
1
10
16.9238830650175
20
0.783703518025305
30
0
41
1
10
17.0141495887447
20
0.774920042699677
30
0
41
1
10
17.0593069836526
20
0.769409717557124
30
0
41
1
10
17.1495467693557
20
0.756007084027345
30
0
41
1
10
17.194665709755
20
0.748129017131902
30
0
41
1
10
17.262373441036
20
0.734453433088248
30
0
41
1
10
17.2849348613013
20
0.729574844645384
30
0
41
1
10
17.33011729475
20
0.719211211621712
30
0
41
1
10
17.3527735021682
20
0.713722345262141
30
0
41
1
10
17.4207127237011
20
0.696560984892159
30
0
41
1
10
17.4660650116724
20
0.684268694200114
30
0
41
1
10
17.556774933245
20
0.658043320589769
30
0
41
1
10
17.602104420116
20
0.644084751530158
30
0
41
1
10
17.6924028434801
20
0.614154379707628
30
0
41
1
10
17.7373860415013
20
0.59819045236938
30
0
41
1
10
17.8046812992534
20
0.572785006477574
30
0
41
1
10
17.8270835391231
20
0.564074084409867
30
0
41
1
10
17.8718142563897
20
0.546137783492071
30
0
41
1
10
17.8941367258709
20
0.536903300354709
30
0
41
1
10
17.9387955049671
20
0.518028452663543
30
0
41
1
10
17.9611337511462
20
0.50839079227373
30
0
41
1
10
18.0059242281181
20
0.488859223307855
30
0
41
1
10
18.0283861118618
20
0.478980282439636
30
0
41
1
10
18.0959664503556
20
0.449022656908568
30
0
41
1
10
18.1412564577065
20
0.428595949451051
30
0
41
1
10
18.2319941412981
20
0.386370438433033
30
0
41
1
10
18.2774105470156
20
0.364514508829785
30
0
41
1
10
18.3456115585753
20
0.33055065058079
30
0
41
1
10
18.3683857698796
20
0.319026808494954
30
0
41
1
10
18.4137637904703
20
0.295719092477157
30
0
41
1
10
18.4363856089684
20
0.283922301964367
30
0
41
1
10
18.5040297181473
20
0.24806635238474
30
0
41
1
10
18.5488507184558
20
0.223575983215312
30
0
41
1
10
18.6387638474544
20
0.174911361445794
30
0
41
1
10
18.6838806692599
20
0.150784263178565
30
0
41
1
10
18.7741307429708
20
0.102400441030795
30
0
41
1
10
18.8192510119401
20
0.0781198575664632
30
0
41
1
10
18.9092403568914
20
0.0289363468726549
30
0
41
1
10
18.9541422012218
20
0.0040929528840081
30
0
41
1
10
19.0214152216659
20
-0.0334457498857432
30
0
41
1
10
19.0438201026466
20
-0.0460156540960099
30
0
41
1
10
19.0885967792675
20
-0.0712600848141847
30
0
41
1
10
19.1333574338452
20
-0.0965777088464392
30
0
41
1
10
19.1782982697613
20
-0.121648133756764
30
0
41
1
10
19.2234208710305
20
-0.14642273745514
30
0
41
1
10
19.2687196840621
20
-0.170911612531597
30
0
41
1
10
19.314285814972
20
-0.194985426578256
30
0
41
1
10
19.3599467721321
20
-0.218924270012337
30
0
41
1
10
19.3828292426666
20
-0.230828585290936
30
0
41
1
10
19.4968114509824
20
-0.289903022947698
30
0
41
1
10
19.5870194571277
20
-0.336070211898061
30
0
41
1
10
19.7211910128677
20
-0.402836293232497
30
0
41
1
10
19.7658004738877
20
-0.424541075906603
30
0
41
1
10
19.8555298507851
20
-0.465763568789413
30
0
41
1
10
19.9005908354993
20
-0.485389087785052
30
0
41
1
10
19.9907855522154
20
-0.523207523525571
30
0
41
1
10
20.0358945654515
20
-0.541432415696733
30
0
41
1
10
20.1260098664034
20
-0.57663550696779
30
0
41
1
10
20.1710525855111
20
-0.593563060898759
30
0
41
1
10
20.2611450932993
20
-0.625939529124821
30
0
41
1
10
20.306125576779
20
-0.641458862883411
30
0
41
1
10
20.3740690383468
20
-0.66303960620607
30
0
41
1
10
20.3967954897322
20
-0.669939574953048
30
0
41
1
10
20.4422236262077
20
-0.683075898242691
30
0
41
1
10
20.464945528648
20
-0.68933219219403
30
0
41
1
10
20.5330778454123
20
-0.707257415917866
30
0
41
1
10
20.5784556553069
20
-0.718090442817868
30
0
41
1
10
20.6688170373778
20
-0.7377968130086
30
0
41
1
10
20.7138146741426
20
-0.746647869174211
30
0
41
1
10
20.7811071483475
20
-0.758314283224053
30
0
41
1
10
20.8035043967073
20
-0.761934920970788
30
0
41
1
10
20.848217107342
20
-0.768633415005411
30
0
41
1
10
20.8705264775077
20
-0.771712615250266
30
0
41
1
10
20.9151519030861
20
-0.777275609667527
30
0
41
1
10
20.9374699556258
20
-0.779758644447554
30
0
41
1
10
20.9822138916899
20
-0.784104910696669
30
0
41
1
10
21.004649496128
20
-0.785966475396634
30
0
41
1
10
21.0721429102089
20
-0.790655765435162
30
0
41
1
10
21.1173637558365
20
-0.792604157919897
30
0
41
1
10
21.1786832856544
20
-0.793714433219321
30
0
41
1
10
21.1947197441083
20
-0.793862492829334
30
0
41
1
10
21.2107606430725
20
-0.793865491362084
30
0
0
LINE
5
7D
100
AcDbEntity
8
80
62
256
6
ByLayer
370
18
48
1
60
0
100
AcDbLine
10
0
20
0
30
0
11
-5
21
0
31
0
39
0
210
0
220
0
230
1
0
LINE
5
7E
100
AcDbEntity
8
4
62
256
6
ByLayer
370
18
48
0.05
60
0
100
AcDbLine
10
-5
20
0
30
0
11
27
21
0
31
0
39
0
210
0
220
0
230
1
0
LINE
5
80
100
AcDbEntity
8
81
62
256
6
ByLayer
370
18
48
1
60
0
100
AcDbLine
10
22
20
0
30
0
11
27
21
0
31
0
39
0
210
0
220
0
230
1
0
LINE
5
81
100
AcDbEntity
8
SK4
62
256
6
ByLayer
370
18
48
0.05
60
0
100
AcDbLine
10
-26
20
0
30
0
11
27
21
0
31
0
39
0
210
0
220
0
230
1
0
LINE
5
83
100
AcDbEntity
8
1
62
256
6
ByLayer
370
18
48
1
60
0
100
AcDbLine
10
0
20
0.794
30
0
11
0
21
-0.794
31
0
39
0
210
0
220
0
230
1
0
LINE
5
84
100
AcDbEntity
8
1
62
256
6
ByLayer
370
18
48
1
60
0
100
AcDbLine
10
21.570625
20
-0.794
30
0
11
21.570625
21
-0.40384
31
0
39
0
210
0
220
0
230
1
0
LINE
5
85
100
AcDbEntity
8
1
62
256
6
ByLayer
370
18
48
1
60
0
100
AcDbLine
10
21.570625
20
0.794
30
0
11
21.570625
21
0.76861
31
0
39
0
210
0
220
0
230
1
0
LINE
5
86
100
AcDbEntity
8
1
62
256
6
ByLayer
370
18
48
1
60
0
100
AcDbLine
10
0.1
20
-0.785949
30
0
11
0.1
21
0.785949
31
0
39
0
210
0
220
0
230
1
0
LINE
5
87
100
AcDbEntity
8
SK1
62
256
6
ByLayer
370
18
48
1
60
0
100
AcDbLine
10
-21
20
-0.495
30
0
11
-21
21
0.495
31
0
39
0
210
0
220
0
230
1
0
LINE
5
89
100
AcDbEntity
8
SK1
62
256
6
ByLayer
370
18
48
1
60
0
100
AcDbLine
10
0
20
0.794
30
0
11
0
21
-0.794
31
0
39
0
210
0
220
0
230
1
0
LINE
5
8A
100
AcDbEntity
8
SK1
62
256
6
ByLayer
370
18
48
1
60
0
100
AcDbLine
10
-20.701
20
-0.794
30
0
11
-20.701
21
0.794
31
0
39
0
210
0
220
0
230
1
0
LINE
5
8B
100
AcDbEntity
8
1
62
256
6
ByLayer
370
18
48
1
60
0
100
AcDbLine
10
22
20
0
30
0
11
21.570625
21
0.794
31
0
39
0
210
0
220
0
230
1
0
LINE
5
8C
100
AcDbEntity
8
1
62
256
6
ByLayer
370
18
48
1
60
0
100
AcDbLine
10
21.570625
20
-0.794
30
0
11
22
21
0
31
0
39
0
210
0
220
0
230
1
0
LINE
5
8D
100
AcDbEntity
8
1
62
256
6
ByLayer
370
18
48
1
60
0
100
AcDbLine
10
0.1
20
0.785949
30
0
11
0
21
0.794
31
0
39
0
210
0
220
0
230
1
0
LINE
5
8E
100
AcDbEntity
8
1
62
256
6
ByLayer
370
18
48
1
60
0
100
AcDbLine
10
0
20
-0.794
30
0
11
0.1
21
-0.785949
31
0
39
0
210
0
220
0
230
1
0
LINE
5
8F
100
AcDbEntity
8
1
62
256
6
ByLayer
370
18
48
1
60
0
100
AcDbLine
10
0.1
20
-0.785949
30
0
11
5.055796
21
-0.787807
31
0
39
0
210
0
220
0
230
1
0
LINE
5
90
100
AcDbEntity
8
1
62
256
6
ByLayer
370
18
48
1
60
0
100
AcDbLine
10
7.71187
20
-0.788803
30
0
11
9.557144
21
-0.789495
31
0
39
0
210
0
220
0
230
1
0
LINE
5
91
100
AcDbEntity
8
1
62
256
6
ByLayer
370
18
48
1
60
0
100
AcDbLine
10
12.212405
20
-0.790491
30
0
11
14.056743
21
-0.791182
31
0
39
0
210
0
220
0
230
1
0
LINE
5
92
100
AcDbEntity
8
1
62
256
6
ByLayer
370
18
48
1
60
0
100
AcDbLine
10
16.708551
20
-0.792177
30
0
11
18.556467
21
-0.79287
31
0
39
0
210
0
220
0
230
1
0
LINE
5
93
100
AcDbEntity
8
1
62
256
6
ByLayer
370
18
48
1
60
0
100
AcDbLine
10
21.210825
20
-0.793865
30
0
11
21.570625
21
-0.794
31
0
39
0
210
0
220
0
230
1
0
LINE
5
94
100
AcDbEntity
8
1
62
256
6
ByLayer
370
18
48
1
60
0
100
AcDbLine
10
21.570625
20
0.794
30
0
11
21.210825
21
0.793865
31
0
39
0
210
0
220
0
230
1
0
LINE
5
95
100
AcDbEntity
8
1
62
256
6
ByLayer
370
18
48
1
60
0
100
AcDbLine
10
18.556467
20
0.79287
30
0
11
16.708551
21
0.792177
31
0
39
0
210
0
220
0
230
1
0
LINE
5
96
100
AcDbEntity
8
1
62
256
6
ByLayer
370
18
48
1
60
0
100
AcDbLine
10
14.056743
20
0.791182
30
0
11
12.212405
21
0.790491
31
0
39
0
210
0
220
0
230
1
0
LINE
5
97
100
AcDbEntity
8
1
62
256
6
ByLayer
370
18
48
1
60
0
100
AcDbLine
10
9.557144
20
0.789495
30
0
11
7.71187
21
0.788803
31
0
39
0
210
0
220
0
230
1
0
LINE
5
98
100
AcDbEntity
8
1
62
256
6
ByLayer
370
18
48
1
60
0
100
AcDbLine
10
5.055796
20
0.787807
30
0
11
0.1
21
0.785949
31
0
39
0
210
0
220
0
230
1
0
LINE
5
99
100
AcDbEntity
8
SK1
62
256
6
ByLayer
370
18
48
1
60
0
100
AcDbLine
10
-21
20
-0.495
30
0
11
-20.701
21
-0.794
31
0
39
0
210
0
220
0
230
1
0
LINE
5
9A
100
AcDbEntity
8
SK1
62
256
6
ByLayer
370
18
48
1
60
0
100
AcDbLine
10
-20.701
20
0.794
30
0
11
-21
21
0.495
31
0
39
0
210
0
220
0
230
1
0
LINE
5
9B
100
AcDbEntity
8
SK1
62
256
6
ByLayer
370
18
48
1
60
0
100
AcDbLine
10
-20.701
20
-0.794
30
0
11
0
21
-0.794
31
0
39
0
210
0
220
0
230
1
0
LINE
5
9C
100
AcDbEntity
8
SK1
62
256
6
ByLayer
370
18
48
1
60
0
100
AcDbLine
10
0
20
0.794
30
0
11
-20.701
21
0.794
31
0
39
0
210
0
220
0
230
1
0
LINE
5
9D
100
AcDbEntity
8
SK2
62
256
6
ByLayer
370
13
48
1
60
0
100
AcDbLine
10
-27.5
20
26.826855
30
0
11
-27.5
21
-8.294
31
0
39
0
210
0
220
0
230
1
0
LINE
5
9F
100
AcDbEntity
8
SK2
62
256
6
ByLayer
370
13
48
1
60
0
100
AcDbLine
10
-22.5875
20
0.794
30
0
11
-29.5
21
0.794
31
0
39
0
210
0
220
0
230
1
0
LINE
5
A0
100
AcDbEntity
8
SK2
62
256
6
ByLayer
370
13
48
1
60
0
100
AcDbLine
10
-22.5875
20
-0.794
30
0
11
-29.5
21
-0.794
31
0
39
0
210
0
220
0
230
1
0
LINE
5
A1
100
AcDbEntity
8
1
62
256
6
ByLayer
370
18
48
1
60
1
100
AcDbLine
10
-27.5
20
0.794
30
0
11
-27.960784
21
4.293998
31
0
39
0
210
0
220
0
230
1
0
LINE
5
A2
100
AcDbEntity
8
1
62
256
6
ByLayer
370
18
48
1
60
1
100
AcDbLine
10
-27.960784
20
4.293998
30
0
11
-27.039216
21
4.294002
31
0
39
0
210
0
220
0
230
1
0
LINE
5
A3
100
AcDbEntity
8
1
62
256
6
ByLayer
370
18
48
1
60
1
100
AcDbLine
10
-27.039216
20
4.294002
30
0
11
-27.5
21
0.794
31
0
39
0
210
0
220
0
230
1
0
LINE
5
A4
100
AcDbEntity
8
1
62
256
6
ByLayer
370
18
48
1
60
1
100
AcDbLine
10
-27.5
20
-0.794
30
0
11
-27.039216
21
-4.293998
31
0
39
0
210
0
220
0
230
1
0
LINE
5
A5
100
AcDbEntity
8
1
62
256
6
ByLayer
370
18
48
1
60
1
100
AcDbLine
10
-27.039216
20
-4.293998
30
0
11
-27.960784
21
-4.294002
31
0
39
0
210
0
220
0
230
1
0
LINE
5
A6
100
AcDbEntity
8
1
62
256
6
ByLayer
370
18
48
1
60
1
100
AcDbLine
10
-27.960784
20
-4.294002
30
0
11
-27.5
21
-0.794
31
0
39
0
210
0
220
0
230
1
0
LINE
5
A7
100
AcDbEntity
8
2
62
256
6
ByLayer
370
13
48
1
60
0
100
AcDbLine
10
31.070625
20
26.826855
30
0
11
31.070625
21
-8.294
31
0
39
0
210
0
220
0
230
1
0
LINE
5
A9
100
AcDbEntity
8
2
62
256
6
ByLayer
370
13
48
1
60
0
100
AcDbLine
10
23.158125
20
0.794
30
0
11
33.070625
21
0.794
31
0
39
0
210
0
220
0
230
1
0
LINE
5
AA
100
AcDbEntity
8
2
62
256
6
ByLayer
370
13
48
1
60
0
100
AcDbLine
10
23.158125
20
-0.794
30
0
11
33.070625
21
-0.794
31
0
39
0
210
0
220
0
230
1
0
LINE
5
AB
100
AcDbEntity
8
1
62
256
6
ByLayer
370
18
48
1
60
1
100
AcDbLine
10
31.070625
20
0.794
30
0
11
30.609841
21
4.293998
31
0
39
0
210
0
220
0
230
1
0
LINE
5
AC
100
AcDbEntity
8
1
62
256
6
ByLayer
370
18
48
1
60
1
100
AcDbLine
10
30.609841
20
4.293998
30
0
11
31.531409
21
4.294002
31
0
39
0
210
0
220
0
230
1
0
LINE
5
AD
100
AcDbEntity
8
1
62
256
6
ByLayer
370
18
48
1
60
1
100
AcDbLine
10
31.531409
20
4.294002
30
0
11
31.070625
21
0.794
31
0
39
0
210
0
220
0
230
1
0
LINE
5
AE
100
AcDbEntity
8
1
62
256
6
ByLayer
370
18
48
1
60
1
100
AcDbLine
10
31.070625
20
-0.794
30
0
11
31.531409
21
-4.293998
31
0
39
0
210
0
220
0
230
1
0
LINE
5
AF
100
AcDbEntity
8
1
62
256
6
ByLayer
370
18
48
1
60
1
100
AcDbLine
10
31.531409
20
-4.293998
30
0
11
30.609841
21
-4.294002
31
0
39
0
210
0
220
0
230
1
0
LINE
5
B0
100
AcDbEntity
8
1
62
256
6
ByLayer
370
18
48
1
60
1
100
AcDbLine
10
30.609841
20
-4.294002
30
0
11
31.070625
21
-0.794
31
0
39
0
210
0
220
0
230
1
0
LINE
5
B1
100
AcDbEntity
8
2
62
256
6
ByLayer
370
13
48
1
60
0
100
AcDbLine
10
22.755136
20
-1.396397
30
0
11
33.416232
21
-21.110889
31
0
39
0
210
0
220
0
230
1
0
LINE
5
B2
100
AcDbEntity
8
2
62
256
6
ByLayer
370
13
48
1
60
0
100
AcDbLine
10
22.755136
20
1.396397
30
0
11
33.416232
21
21.110889
31
0
39
0
210
0
220
0
230
1
0
LINE
5
B3
100
AcDbEntity
8
1
62
256
6
ByLayer
370
18
48
1
60
1
100
AcDbLine
10
32.464879
20
-19.351649
30
0
11
35.239971
21
-17.169637
31
0
39
0
210
0
220
0
230
1
0
LINE
5
B4
100
AcDbEntity
8
1
62
256
6
ByLayer
370
18
48
1
60
1
100
AcDbLine
10
35.239971
20
-17.169637
30
0
11
35.710161
21
-17.962233
31
0
39
0
210
0
220
0
230
1
0
LINE
5
B5
100
AcDbEntity
8
1
62
256
6
ByLayer
370
18
48
1
60
1
100
AcDbLine
10
35.710161
20
-17.962233
30
0
11
32.464879
21
-19.351649
31
0
39
0
210
0
220
0
230
1
0
LINE
5
B6
100
AcDbEntity
8
1
62
256
6
ByLayer
370
18
48
1
60
1
100
AcDbLine
10
32.464879
20
19.351649
30
0
11
35.710158
21
17.962234
31
0
39
0
210
0
220
0
230
1
0
LINE
5
B7
100
AcDbEntity
8
1
62
256
6
ByLayer
370
18
48
1
60
1
100
AcDbLine
10
35.710158
20
17.962234
30
0
11
35.239974
21
17.169635
31
0
39
0
210
0
220
0
230
1
0
LINE
5
B8
100
AcDbEntity
8
1
62
256
6
ByLayer
370
18
48
1
60
1
100
AcDbLine
10
35.239974
20
17.169635
30
0
11
32.464879
21
19.351649
31
0
39
0
210
0
220
0
230
1
0
LINE
5
D0
100
AcDbEntity
8
1
62
256
6
ByLayer
370
18
48
1
60
1
100
AcDbLine
10
-27.5
20
0.794
30
0
11
-27.960784
21
4.293998
31
0
39
0
210
0
220
0
230
1
0
LINE
5
D1
100
AcDbEntity
8
1
62
256
6
ByLayer
370
18
48
1
60
1
100
AcDbLine
10
-27.960784
20
4.293998
30
0
11
-27.039216
21
4.294002
31
0
39
0
210
0
220
0
230
1
0
LINE
5
D2
100
AcDbEntity
8
1
62
256
6
ByLayer
370
18
48
1
60
1
100
AcDbLine
10
-27.039216
20
4.294002
30
0
11
-27.5
21
0.794
31
0
39
0
210
0
220
0
230
1
0
LINE
5
D4
100
AcDbEntity
8
1
62
256
6
ByLayer
370
18
48
1
60
1
100
AcDbLine
10
-27.5
20
-0.794
30
0
11
-27.039216
21
-4.293998
31
0
39
0
210
0
220
0
230
1
0
LINE
5
D5
100
AcDbEntity
8
1
62
256
6
ByLayer
370
18
48
1
60
1
100
AcDbLine
10
-27.039216
20
-4.293998
30
0
11
-27.960784
21
-4.294002
31
0
39
0
210
0
220
0
230
1
0
LINE
5
D6
100
AcDbEntity
8
1
62
256
6
ByLayer
370
18
48
1
60
1
100
AcDbLine
10
-27.960784
20
-4.294002
30
0
11
-27.5
21
-0.794
31
0
39
0
210
0
220
0
230
1
0
LINE
5
DA
100
AcDbEntity
8
1
62
256
6
ByLayer
370
18
48
1
60
1
100
AcDbLine
10
31.070625
20
0.794
30
0
11
30.609841
21
4.293998
31
0
39
0
210
0
220
0
230
1
0
LINE
5
DB
100
AcDbEntity
8
1
62
256
6
ByLayer
370
18
48
1
60
1
100
AcDbLine
10
30.609841
20
4.293998
30
0
11
31.531409
21
4.294002
31
0
39
0
210
0
220
0
230
1
0
LINE
5
DC
100
AcDbEntity
8
1
62
256
6
ByLayer
370
18
48
1
60
1
100
AcDbLine
10
31.531409
20
4.294002
30
0
11
31.070625
21
0.794
31
0
39
0
210
0
220
0
230
1
0
LINE
5
DE
100
AcDbEntity
8
1
62
256
6
ByLayer
370
18
48
1
60
1
100
AcDbLine
10
31.070625
20
-0.794
30
0
11
31.531409
21
-4.293998
31
0
39
0
210
0
220
0
230
1
0
LINE
5
DF
100
AcDbEntity
8
1
62
256
6
ByLayer
370
18
48
1
60
1
100
AcDbLine
10
31.531409
20
-4.293998
30
0
11
30.609841
21
-4.294002
31
0
39
0
210
0
220
0
230
1
0
LINE
5
E0
100
AcDbEntity
8
1
62
256
6
ByLayer
370
18
48
1
60
1
100
AcDbLine
10
30.609841
20
-4.294002
30
0
11
31.070625
21
-0.794
31
0
39
0
210
0
220
0
230
1
0
LINE
5
E3
100
AcDbEntity
8
1
62
256
6
ByLayer
370
18
48
1
60
1
100
AcDbLine
10
32.464879
20
-19.351649
30
0
11
35.239971
21
-17.169637
31
0
39
0
210
0
220
0
230
1
0
LINE
5
E4
100
AcDbEntity
8
1
62
256
6
ByLayer
370
18
48
1
60
1
100
AcDbLine
10
35.239971
20
-17.169637
30
0
11
35.710161
21
-17.962233
31
0
39
0
210
0
220
0
230
1
0
LINE
5
E5
100
AcDbEntity
8
1
62
256
6
ByLayer
370
18
48
1
60
1
100
AcDbLine
10
35.710161
20
-17.962233
30
0
11
32.464879
21
-19.351649
31
0
39
0
210
0
220
0
230
1
0
LINE
5
E7
100
AcDbEntity
8
1
62
256
6
ByLayer
370
18
48
1
60
1
100
AcDbLine
10
32.464879
20
19.351649
30
0
11
35.710158
21
17.962234
31
0
39
0
210
0
220
0
230
1
0
LINE
5
E8
100
AcDbEntity
8
1
62
256
6
ByLayer
370
18
48
1
60
1
100
AcDbLine
10
35.710158
20
17.962234
30
0
11
35.239974
21
17.169635
31
0
39
0
210
0
220
0
230
1
0
LINE
5
E9
100
AcDbEntity
8
1
62
256
6
ByLayer
370
18
48
1
60
1
100
AcDbLine
10
35.239974
20
17.169635
30
0
11
32.464879
21
19.351649
31
0
39
0
210
0
220
0
230
1
0
MTEXT
5
CC
100
AcDbEntity
8
SK2
62
256
6
ByLayer
370
18
48
1
60
0
100
AcDbMText
10
-28.841114
20
12.452437
30
0
210
0
220
0
230
1
1
%%c
40
3
41
0
44
1.084337
50
90
71
7
72
5
7
iso_b_vert
0
MTEXT
5
CF
100
AcDbEntity
8
SK2
62
256
6
ByLayer
370
18
48
1
60
0
100
AcDbMText
10
-28.841114
20
18.429
30
0
210
0
220
0
230
1
1
\W0.6864;1.588
40
3
41
0
44
1.084337
50
90
71
7
72
5
7
iso_b_vert
0
MTEXT
5
D8
100
AcDbEntity
8
2
62
256
6
ByLayer
370
18
48
1
60
0
100
AcDbMText
10
29.729511
20
12.452437
30
0
210
0
220
0
230
1
1
%%c
40
3
41
0
44
1.084337
50
90
71
7
72
5
7
iso_b_vert
0
MTEXT
5
D9
100
AcDbEntity
8
2
62
256
6
ByLayer
370
18
48
1
60
0
100
AcDbMText
10
29.729511
20
18.429
30
0
210
0
220
0
230
1
1
\W0.6864;1.588
40
3
41
0
44
1.084337
50
90
71
7
72
5
7
iso_b_vert
0
MTEXT
5
E2
100
AcDbEntity
8
2
62
256
6
ByLayer
370
18
48
1
60
0
100
AcDbMText
10
41.092229
20
-2.114886
30
0
210
0
220
0
230
1
1
\W0.6008;118%%d
40
3
41
0
44
1.084337
50
0
71
7
72
5
7
iso_b_vert
0
MTEXT
5
EB
100
AcDbEntity
8
SK6
62
256
6
ByLayer
370
18
48
1
60
0
100
AcDbMText
10
-7.601942
20
-67.114886
30
0
210
0
220
0
230
1
1
\W0.7219;R0031/16
40
3
41
0
44
1.084337
50
0
71
7
72
5
7
iso_b_vert
0
HATCH
5
D3
100
AcDbEntity
8
SK2
62
256
6
ByLayer
370
13
48
1
60
0
100
AcDbHatch
10
0
20
0
30
0
210
0
220
0
230
1
2
ANSI31
70
0
71
0
91
1
92
5
93
3
72
1
10
-27.5
20
0.793999999999983
11
-27.9607837415528
21
4.2939983074468
72
1
10
-27.9607837415528
20
4.2939983074468
11
-27.0392162584472
21
4.29400169255317
72
1
10
-27.0392162584472
20
4.29400169255317
11
-27.5
21
0.793999999999983
97
0
75
0
76
1
52
0
41
0.0062
77
0
78
1
53
45
43
0
44
0
45
-0.0139193969876572
46
0.0139193969876572
79
0
47
0
98
1
10
0
20
0
0
HATCH
5
D7
100
AcDbEntity
8
SK2
62
256
6
ByLayer
370
13
48
1
60
0
100
AcDbHatch
10
0
20
0
30
0
210
0
220
0
230
1
2
ANSI31
70
0
71
0
91
1
92
5
93
3
72
1
10
-27.5
20
-0.794000000000011
11
-27.0392162584472
21
-4.29399830744683
72
1
10
-27.0392162584472
20
-4.29399830744683
11
-27.9607837415528
21
-4.2940016925532
72
1
10
-27.9607837415528
20
-4.2940016925532
11
-27.5
21
-0.794000000000011
97
0
75
0
76
1
52
0
41
0.0062
77
0
78
1
53
45
43
0
44
0
45
-0.0139193969876572
46
0.0139193969876572
79
0
47
0
98
1
10
0
20
0
0
HATCH
5
DD
100
AcDbEntity
8
2
62
256
6
ByLayer
370
13
48
1
60
0
100
AcDbHatch
10
0
20
0
30
0
210
0
220
0
230
1
2
ANSI31
70
0
71
0
91
1
92
5
93
3
72
1
10
31.0706250016429
20
0.793999999999983
11
30.6098412600901
21
4.2939983074468
72
1
10
30.6098412600901
20
4.2939983074468
11
31.5314087431957
21
4.29400169255317
72
1
10
31.5314087431957
20
4.29400169255317
11
31.0706250016429
21
0.793999999999983
97
0
75
0
76
1
52
0
41
0.0062
77
0
78
1
53
45
43
0
44
0
45
-0.0139193969876572
46
0.0139193969876572
79
0
47
0
98
1
10
0
20
0
0
HATCH
5
E1
100
AcDbEntity
8
2
62
256
6
ByLayer
370
13
48
1
60
0
100
AcDbHatch
10
0
20
0
30
0
210
0
220
0
230
1
2
ANSI31
70
0
71
0
91
1
92
5
93
3
72
1
10
31.0706250016429
20
-0.794000000000011
11
31.5314087431957
21
-4.29399830744683
72
1
10
31.5314087431957
20
-4.29399830744683
11
30.6098412600901
21
-4.2940016925532
72
1
10
30.6098412600901
20
-4.2940016925532
11
31.0706250016429
21
-0.794000000000011
97
0
75
0
76
1
52
0
41
0.0062
77
0
78
1
53
45
43
0
44
0
45
-0.0139193969876572
46
0.0139193969876572
79
0
47
0
98
1
10
0
20
0
0
HATCH
5
E6
100
AcDbEntity
8
2
62
256
6
ByLayer
370
13
48
1
60
0
100
AcDbHatch
10
0
20
0
30
0
210
0
220
0
230
1
2
ANSI31
70
0
71
0
91
1
92
5
93
3
72
1
10
32.4648791987523
20
-19.3516485952883
11
35.2399711078384
21
-17.1696369764524
72
1
10
35.2399711078384
20
-17.1696369764524
11
35.7101613929253
21
-17.962232536457
72
1
10
35.7101613929253
20
-17.962232536457
11
32.4648791987523
21
-19.3516485952883
97
0
75
0
76
1
52
0
41
0.0062
77
0
78
1
53
45
43
0
44
0
45
-0.0139193969876572
46
0.0139193969876572
79
0
47
0
98
1
10
0
20
0
0
HATCH
5
EA
100
AcDbEntity
8
2
62
256
6
ByLayer
370
13
48
1
60
0
100
AcDbHatch
10
0
20
0
30
0
210
0
220
0
230
1
2
ANSI31
70
0
71
0
91
1
92
5
93
3
72
1
10
32.464879198752
20
19.3516485952884
11
35.7101584815527
21
17.9622342635518
72
1
10
35.7101584815527
20
17.9622342635518
11
35.2399740192106
21
17.1696352493579
72
1
10
35.2399740192106
20
17.1696352493579
11
32.464879198752
21
19.3516485952884
97
0
75
0
76
1
52
0
41
0.0062
77
0
78
1
53
45
43
0
44
0
45
-0.0139193969876572
46
0.0139193969876572
79
0
47
0
98
1
10
0
20
0
0
DIMENSION
5
EE
100
AcDbEntity
8
SK2
62
256
6
ByLayer
370
18
48
1
60
0
100
AcDbDimension
2
_U0
10
22
20
-46.375056
30
0
11
0.5
21
-46.375056
31
0
70
32
71
1
72
1
41
1
210
0
220
0
230
1
3
Standard
100
AcDbAlignedDimension
13
-21
23
-0.794
33
0
14
22
24
0
34
0
50
0
100
AcDbRotatedDimension
1001
ACAD
1000
DSTYLE
1002
{
1070
   371
1070
    13
1070
   372
1070
    13
1070
     3
1000

1070
   170
1070
     0
1070
   144
1040
1.0
1070
   277
1070
     2
1070
   284
1070
     8
1070
   278
1070
    46
1070
   146
1040
1.166667
1070
   345
1005
16
1070
   347
1005
16
1070
   346
1005
16
1070
   344
1005
0
1070
   343
1005
0
1070
   172
1070
     1
1070
    76
1070
     0
1070
    75
1070
     0
1070
   282
1070
     0
1070
   281
1070
     0
1070
    71
1070
     0
1070
    74
1070
     0
1070
   279
1070
     0
1070
   173
1070
     1
1070
   340
1005
CD
1070
   271
1070
     2
1070
   272
1070
     3
1070
    77
1070
     1
1070
    73
1070
     1
1070
   171
1070
     3
1070
   274
1070
     4
1070
   177
1070
     2
1070
   176
1070
     2
1070
   178
1070
     2
1070
    78
1070
     8
1070
    48
1040
-0.1
1070
    41
1040
3.5
1070
   147
1040
1.5
1070
    42
1040
1.5875
1070
    44
1040
2.0
1070
   140
1040
3.0
1002
}
1001
ACAD_DSTYLE_DIM_LINETYPE
1070
   380
1005
16
1001
ACAD_DSTYLE_DIM_EXT1_LINETYPE
1070
   381
1005
16
1001
ACAD_DSTYLE_DIM_EXT2_LINETYPE
1070
   382
1005
16
0
DIMENSION
5
107
100
AcDbEntity
8
2
62
256
6
ByLayer
370
18
48
1
60
0
100
AcDbDimension
2
_U1
10
2
20
-36.375056
30
0
11
12
21
-36.375056
31
0
70
32
71
1
72
1
41
1
210
0
220
0
230
1
3
Standard
100
AcDbAlignedDimension
13
22
23
0
33
0
14
2
24
-0.794
34
0
50
0
100
AcDbRotatedDimension
1001
ACAD
1000
DSTYLE
1002
{
1070
   371
1070
    13
1070
   372
1070
    13
1070
     3
1000

1070
   170
1070
     0
1070
   144
1040
1.0
1070
   277
1070
     2
1070
   284
1070
     8
1070
   278
1070
    46
1070
   146
1040
1.166667
1070
   345
1005
16
1070
   347
1005
16
1070
   346
1005
16
1070
   344
1005
0
1070
   343
1005
0
1070
   172
1070
     1
1070
    76
1070
     0
1070
    75
1070
     0
1070
   282
1070
     0
1070
   281
1070
     0
1070
    71
1070
     0
1070
    74
1070
     0
1070
   279
1070
     0
1070
   173
1070
     1
1070
   340
1005
CD
1070
   271
1070
     2
1070
   272
1070
     3
1070
    77
1070
     1
1070
    73
1070
     1
1070
   171
1070
     3
1070
   274
1070
     4
1070
   177
1070
     2
1070
   176
1070
     2
1070
   178
1070
     2
1070
    78
1070
     8
1070
    48
1040
-0.1
1070
    41
1040
3.5
1070
   147
1040
1.5
1070
    42
1040
1.5875
1070
    44
1040
2.0
1070
   140
1040
3.0
1002
}
1001
ACAD_DSTYLE_DIM_LINETYPE
1070
   380
1005
16
1001
ACAD_DSTYLE_DIM_EXT1_LINETYPE
1070
   381
1005
16
1001
ACAD_DSTYLE_DIM_EXT2_LINETYPE
1070
   382
1005
16
0
DIMENSION
5
11F
100
AcDbEntity
8
SK2
62
256
6
ByLayer
370
18
48
1
60
0
100
AcDbDimension
2
_U2
10
0
20
-31.375056
30
0
11
-10.5
21
-31.375056
31
0
70
32
71
1
72
1
41
1
210
0
220
0
230
1
3
Standard
100
AcDbAlignedDimension
13
-21
23
-0.794
33
0
14
0
24
-0.794
34
0
50
0
100
AcDbRotatedDimension
1001
ACAD
1000
DSTYLE
1002
{
1070
   371
1070
    13
1070
   372
1070
    13
1070
     3
1000

1070
   170
1070
     0
1070
   144
1040
1.0
1070
   277
1070
     2
1070
   284
1070
     8
1070
   278
1070
    46
1070
   146
1040
1.166667
1070
   345
1005
16
1070
   347
1005
16
1070
   346
1005
16
1070
   344
1005
0
1070
   343
1005
0
1070
   172
1070
     1
1070
    76
1070
     0
1070
    75
1070
     0
1070
   282
1070
     0
1070
   281
1070
     0
1070
    71
1070
     0
1070
    74
1070
     0
1070
   279
1070
     0
1070
   173
1070
     1
1070
   340
1005
CD
1070
   271
1070
     2
1070
   272
1070
     3
1070
    77
1070
     1
1070
    73
1070
     1
1070
   171
1070
     3
1070
   274
1070
     4
1070
   177
1070
     2
1070
   176
1070
     2
1070
   178
1070
     2
1070
    78
1070
     8
1070
    48
1040
-0.1
1070
    41
1040
3.5
1070
   147
1040
1.5
1070
    42
1040
1.5875
1070
    44
1040
2.0
1070
   140
1040
3.0
1002
}
1001
ACAD_DSTYLE_DIM_LINETYPE
1070
   380
1005
16
1001
ACAD_DSTYLE_DIM_EXT1_LINETYPE
1070
   381
1005
16
1001
ACAD_DSTYLE_DIM_EXT2_LINETYPE
1070
   382
1005
16
0
DIMENSION
5
137
100
AcDbEntity
8
2
62
256
6
ByLayer
370
18
48
1
60
0
100
AcDbDimension
2
_U3
10
7
20
-29.375056
30
0
11
14.5
21
-29.375056
31
0
70
32
71
1
72
1
41
1
210
0
220
0
230
1
3
Standard
100
AcDbAlignedDimension
13
22
23
0
33
0
14
7
24
-0.794
34
0
50
0
100
AcDbRotatedDimension
1001
ACAD
1000
DSTYLE
1002
{
1070
   371
1070
    13
1070
   372
1070
    13
1070
     3
1000

1070
   170
1070
     0
1070
   144
1040
1.0
1070
   277
1070
     2
1070
   284
1070
     8
1070
   278
1070
    46
1070
   146
1040
1.166667
1070
   345
1005
16
1070
   347
1005
16
1070
   346
1005
16
1070
   344
1005
0
1070
   343
1005
0
1070
   172
1070
     1
1070
    76
1070
     0
1070
    75
1070
     0
1070
   282
1070
     0
1070
   281
1070
     0
1070
    71
1070
     0
1070
    74
1070
     0
1070
   279
1070
     0
1070
   173
1070
     1
1070
   340
1005
CD
1070
   271
1070
     2
1070
   272
1070
     3
1070
    77
1070
     1
1070
    73
1070
     1
1070
   171
1070
     3
1070
   274
1070
     4
1070
   177
1070
     2
1070
   176
1070
     2
1070
   178
1070
     2
1070
    78
1070
     8
1070
    48
1040
-0.1
1070
    41
1040
3.5
1070
   147
1040
1.5
1070
    42
1040
1.5875
1070
    44
1040
2.0
1070
   140
1040
3.0
1002
}
1001
ACAD_DSTYLE_DIM_LINETYPE
1070
   380
1005
16
1001
ACAD_DSTYLE_DIM_EXT1_LINETYPE
1070
   381
1005
16
1001
ACAD_DSTYLE_DIM_EXT2_LINETYPE
1070
   382
1005
16
0
ENDSEC
0
SECTION
2
OBJECTS
0
DICTIONARY
5
1c2
330
0
100
AcDbDictionary
280
0
281
1
3
ACAD_GROUP
350
1c3
3
ACAD_MLINESTYLE
350
1c4
0
DICTIONARY
5
1c3
330
0
100
AcDbDictionary
280
0
281
1
0
DICTIONARY
5
1c4
330
0
100
AcDbDictionary
280
0
281
1
3
Standard
350
18
0
MLINESTYLE
5
18
330
1c4
100
AcDbMlineStyle
2
Standard
70
0
3

62
256
51
90
52
90
71
2
49
-0.5
62
256
6
ByLayer
49
0.5
62
256
6
ByLayer
0
RASTERVARIABLES
5
1ae
330

100
AcDbRasterVariables
90
0
70
1
71
1
72
1
0
ENDSEC
0
EOF
