0
SECTION
2
HEADER
9
$ACADVER
1
AC1015
9
$DWGCODEPAGE
3
ANSI_1252
9
$HANDSEED
5
1be
9
$ANGBASE
50
0
9
$ANGDIR
70
0
9
$ATTMODE
70
1
9
$AUNITS
70
0
9
$AUPREC
70
0
9
$CECOLOR
62
256
9
$CELTSCALE
40
1
9
$CELTYPE
6
ByLayer
9
$CELWEIGHT
370
18
9
$CLAYER
8
0
9
$CMLJUST
70
0
9
$CMLSCALE
40
1
9
$CMLSTYLE
2
Standard
9
$DIMSTYLE
2
Standard
9
$TEXTSIZE
40
0.2
9
$TEXTSTYLE
7
Standard
9
$LUNITS
70
2
9
$LUPREC
70
4
9
$EXTNAMES
290
1
9
$INSUNITS
70
4
9
$LTSCALE
40
1
9
$LWDISPLAY
290
1
9
$PDMODE
70
0
9
$PDSIZE
40
0
9
$PLINEGEN
70
0
0
ENDSEC
0
SECTION
2
CLASSES
0
CLASS
1
RASTERVARIABLES
2
AcDbRasterVariables
3
ISM
90
0
280
0
281
0
0
ENDSEC
0
SECTION
2
TABLES
0
TABLE
2
VPORT
5
1b4
100
AcDbSymbolTable
0
VPORT
5
1
100
AcDbSymbolTableRecord
100
AcDbViewportTableRecord
2
*Active
70
0
10
0
20
0
11
1
21
1
12
-1
22
1
13
0
23
0
14
0.5
24
0.5
15
10
25
10
16
0
26
0
36
1
17
0
27
0
37
0
0
ENDTAB
0
TABLE
2
LTYPE
5
1b5
100
AcDbSymbolTable
0
LTYPE
5
14
100
AcDbSymbolTableRecord
100
AcDbLinetypeTableRecord
70
0
2
ByBlock
3

72
65
73
0
40
0
0
LTYPE
5
15
100
AcDbSymbolTableRecord
100
AcDbLinetypeTableRecord
70
0
2
ByLayer
3

72
65
73
0
40
0
0
LTYPE
5
16
100
AcDbSymbolTableRecord
100
AcDbLinetypeTableRecord
70
0
2
Continuous
3
Solid line
72
65
73
0
40
0
0
LTYPE
5
6E
100
AcDbSymbolTableRecord
100
AcDbLinetypeTableRecord
70
0
2
CENTER
3
____ _ ____ _ ____ _ ____
72
65
73
4
40
47.5
49
22
74
0
49
-8.5
74
0
49
8.5
74
0
49
-8.5
74
0
0
LTYPE
5
6F
100
AcDbSymbolTableRecord
100
AcDbLinetypeTableRecord
70
0
2
DASHED
3
__ __ __ __ __ __ __ __ __
72
65
73
2
40
25.72
49
12.86
74
0
49
-12.86
74
0
0
ENDTAB
0
TABLE
2
LAYER
5
1b6
100
AcDbSymbolTable
0
LAYER
5
10
100
AcDbSymbolTableRecord
100
AcDbLayerTableRecord
2
0
70
0
62
7
6
Continuous
290
1
370
-3
390
0
0
LAYER
5
71
100
AcDbSymbolTableRecord
100
AcDbLayerTableRecord
2
80
70
0
62
-6
6
Continuous
290
1
370
-3
390
0
0
LAYER
5
73
100
AcDbSymbolTableRecord
100
AcDbLayerTableRecord
2
1
70
0
62
4
6
Continuous
290
1
370
-3
390
0
0
LAYER
5
7C
100
AcDbSymbolTableRecord
100
AcDbLayerTableRecord
2
4
70
0
62
-2
6
CENTER
290
1
370
-3
390
0
0
LAYER
5
9F
100
AcDbSymbolTableRecord
100
AcDbLayerTableRecord
2
2
70
0
62
7
6
Continuous
290
1
370
-3
390
0
0
LAYER
5
E3
100
AcDbSymbolTableRecord
100
AcDbLayerTableRecord
2
Defpoints
70
0
62
7
6
Continuous
290
0
370
-3
390
0
0
LAYER
5
1a0
100
AcDbSymbolTableRecord
100
AcDbLayerTableRecord
2
SK4
70
0
62
2
6
CENTER
290
1
370
-3
390
0
0
LAYER
5
1a1
100
AcDbSymbolTableRecord
100
AcDbLayerTableRecord
2
SK1
70
0
62
4
6
Continuous
290
1
370
-3
390
0
0
LAYER
5
1a2
100
AcDbSymbolTableRecord
100
AcDbLayerTableRecord
2
SK2
70
0
62
7
6
Continuous
290
1
370
-3
390
0
0
LAYER
5
1a3
100
AcDbSymbolTableRecord
100
AcDbLayerTableRecord
2
SK6
70
0
62
5
6
Continuous
290
1
370
-3
390
0
0
ENDTAB
0
TABLE
2
STYLE
5
1b7
100
AcDbSymbolTable
0
STYLE
5
11
100
AcDbSymbolTableRecord
100
AcDbTextStyleTableRecord
2
Standard
3
txt
70
0
71
0
40
0
41
1
42
0
50
0
0
STYLE
5
BF
100
AcDbSymbolTableRecord
100
AcDbTextStyleTableRecord
2
iso_b_vert
3
simplex.shx
70
0
71
0
40
0
41
1
42
0
50
0
0
STYLE
5
C0
100
AcDbSymbolTableRecord
100
AcDbTextStyleTableRecord
2
DWGDirectTextStyle
3
simplex
70
0
71
0
40
0
41
1
42
0
50
0
0
ENDTAB
0
TABLE
2
DIMSTYLE
5
1b8
100
AcDbSymbolTable
100
AcDbDimStyleTable
0
DIMSTYLE
105
27
100
AcDbSymbolTableRecord
100
AcDbDimStyleTableRecord
2
Standard
70
0
3
<>
41
0.18
42
0.0625
44
0.18
140
0.18
147
0.09
73
0
74
0
77
1
271
2
275
0
278
52
280
0
340
11
0
ENDTAB
0
TABLE
2
VIEW
5
1b9
100
AcDbSymbolTable
0
ENDTAB
0
TABLE
2
UCS
5
1ba
100
AcDbSymbolTable
0
ENDTAB
0
TABLE
2
APPID
5
1bb
100
AcDbSymbolTable
0
APPID
5
12
100
AcDbSymbolTableRecord
100
AcDbRegAppTableRecord
2
ACAD
70
0
0
APPID
5
DF
100
AcDbSymbolTableRecord
100
AcDbRegAppTableRecord
2
ACAD_DSTYLE_DIMBREAK
70
0
0
APPID
5
15F
100
AcDbSymbolTableRecord
100
AcDbRegAppTableRecord
2
ACAD_DSTYLE_DIM_LINETYPE
70
0
0
APPID
5
160
100
AcDbSymbolTableRecord
100
AcDbRegAppTableRecord
2
ACAD_DSTYLE_DIM_EXT1_LINETYPE
70
0
0
APPID
5
161
100
AcDbSymbolTableRecord
100
AcDbRegAppTableRecord
2
ACAD_DSTYLE_DIM_EXT2_LINETYPE
70
0
0
APPID
5
19C
100
AcDbSymbolTableRecord
100
AcDbRegAppTableRecord
2
ACAD_MLEADERVER
70
0
0
ENDTAB
0
TABLE
2
BLOCK_RECORD
5
1bc
100
AcDbSymbolTable
0
BLOCK_RECORD
5
1F
100
AcDbSymbolTableRecord
100
AcDbBlockTableRecord
2
*Model_Space
340
0
70
0
0
BLOCK_RECORD
5
1B
100
AcDbSymbolTableRecord
100
AcDbBlockTableRecord
2
*Paper_Space
340
0
70
0
0
BLOCK_RECORD
5
23
100
AcDbSymbolTableRecord
100
AcDbBlockTableRecord
2
*Paper_Space0
340
0
70
0
0
BLOCK_RECORD
5
E4
100
AcDbSymbolTableRecord
100
AcDbBlockTableRecord
2
*D1
340
0
70
0
0
BLOCK_RECORD
5
F0
100
AcDbSymbolTableRecord
100
AcDbBlockTableRecord
2
_U0
340
0
70
0
0
BLOCK_RECORD
5
FC
100
AcDbSymbolTableRecord
100
AcDbBlockTableRecord
2
*D3
340
0
70
0
0
BLOCK_RECORD
5
108
100
AcDbSymbolTableRecord
100
AcDbBlockTableRecord
2
_U1
340
0
70
0
0
BLOCK_RECORD
5
114
100
AcDbSymbolTableRecord
100
AcDbBlockTableRecord
2
*D5
340
0
70
0
0
BLOCK_RECORD
5
120
100
AcDbSymbolTableRecord
100
AcDbBlockTableRecord
2
_U2
340
0
70
0
0
BLOCK_RECORD
5
12C
100
AcDbSymbolTableRecord
100
AcDbBlockTableRecord
2
*D7
340
0
70
0
0
BLOCK_RECORD
5
138
100
AcDbSymbolTableRecord
100
AcDbBlockTableRecord
2
_U3
340
0
70
0
0
ENDTAB
0
ENDSEC
0
SECTION
2
BLOCKS
0
BLOCK
5
20
100
AcDbEntity
8
0
100
AcDbBlockBegin
2
*Model_Space
70
0
10
0
20
0
30
0
3
*Model_Space
0
ENDBLK
5
21
100
AcDbEntity
8
0
100
AcDbBlockEnd
0
BLOCK
5
1C
100
AcDbEntity
8
0
100
AcDbBlockBegin
2
*Paper_Space
70
0
10
0
20
0
30
0
3
*Paper_Space
0
ENDBLK
5
1D
100
AcDbEntity
8
0
100
AcDbBlockEnd
0
BLOCK
5
24
100
AcDbEntity
8
0
100
AcDbBlockBegin
2
*Paper_Space0
70
0
10
0
20
0
30
0
3
*Paper_Space0
0
ENDBLK
5
25
100
AcDbEntity
8
0
100
AcDbBlockEnd
0
BLOCK
5
E5
100
AcDbEntity
8
0
100
AcDbBlockBegin
2
*D1
70
1
10
0
20
0
30
0
3
*D1
0
LINE
5
E7
100
AcDbEntity
8
0
62
256
6
ByLayer
370
-2
48
1
60
0
100
AcDbLine
10
-70
20
-21.5875
30
0
11
-70
21
-56.488248
31
0
39
0
210
0
220
0
230
1
0
LINE
5
E8
100
AcDbEntity
8
0
62
256
6
ByLayer
370
-2
48
1
60
0
100
AcDbLine
10
391.5
20
-1.5875
30
0
11
391.5
21
-56.488248
31
0
39
0
210
0
220
0
230
1
0
LINE
5
E9
100
AcDbEntity
8
0
62
256
6
ByLayer
370
-2
48
1
60
0
100
AcDbLine
10
-66.5
20
-54.488248
30
0
11
388
21
-54.488248
31
0
39
0
210
0
220
0
230
1
0
SOLID
5
EA
100
AcDbEntity
8
0
62
256
6
ByLayer
370
-1
48
1
60
0
100
AcDbTrace
10
-66.5
20
-53.904915
30
0
11
-66.5
21
-55.071582
31
0
12
-70
22
-54.488248
32
0
13
-70
23
-54.488248
33
0
39
0
210
0
220
0
230
1
0
SOLID
5
EB
100
AcDbEntity
8
0
62
256
6
ByLayer
370
-1
48
1
60
0
100
AcDbTrace
10
388
20
-55.071582
30
0
11
388
21
-53.904915
31
0
12
391.5
22
-54.488248
32
0
13
391.5
23
-54.488248
33
0
39
0
210
0
220
0
230
1
0
MTEXT
5
EC
100
AcDbEntity
8
0
62
256
6
ByLayer
370
18
48
1
60
0
100
AcDbMText
10
160.75
20
-48.488248
30
0
210
0
220
0
230
1
1
\A1;461.5
40
3
41
0
44
1
50
0
71
5
72
5
7
iso_b_vert
0
POINT
5
ED
100
AcDbEntity
8
Defpoints
62
0
6
ByLayer
370
-1
48
1
60
0
100
AcDbPoint
10
-70
20
-20
30
0
39
0
210
0
220
0
230
1
50
360
0
POINT
5
EE
100
AcDbEntity
8
Defpoints
62
0
6
ByLayer
370
-1
48
1
60
0
100
AcDbPoint
10
391.5
20
0
30
0
39
0
210
0
220
0
230
1
50
360
0
POINT
5
EF
100
AcDbEntity
8
Defpoints
62
0
6
ByLayer
370
-1
48
1
60
0
100
AcDbPoint
10
391.5
20
-54.488248
30
0
39
0
210
0
220
0
230
1
50
360
0
ENDBLK
5
E6
100
AcDbEntity
8
0
100
AcDbBlockEnd
0
BLOCK
5
F7
100
AcDbEntity
8
0
100
AcDbBlockBegin
2
_U0
70
0
10
0
20
0
30
0
3
_U0
0
MTEXT
5
F1
100
AcDbEntity
8
SK2
62
256
6
ByLayer
370
18
48
1
60
0
100
AcDbMText
10
155.363715
20
-53.603134
30
0
210
0
220
0
230
1
1
\W0.7237;461.50
40
3
41
0
44
1.084337
50
0
71
7
72
5
7
iso_b_vert
0
LINE
5
F2
100
AcDbEntity
8
SK2
62
256
6
ByLayer
370
13
48
1
60
0
100
AcDbLine
10
-70
20
-21.5875
30
0
11
-70
21
-56.488248
31
0
39
0
210
0
220
0
230
1
0
LINE
5
F3
100
AcDbEntity
8
SK2
62
256
6
ByLayer
370
13
48
1
60
0
100
AcDbLine
10
391.5
20
-1.5875
30
0
11
391.5
21
-56.488248
31
0
39
0
210
0
220
0
230
1
0
LINE
5
F4
100
AcDbEntity
8
SK2
62
256
6
ByLayer
370
13
48
1
60
0
100
AcDbLine
10
-70
20
-54.488248
30
0
11
391.5
21
-54.488248
31
0
39
0
210
0
220
0
230
1
0
SOLID
5
F5
100
AcDbEntity
8
SK2
62
256
6
ByLayer
370
18
48
1
60
0
100
AcDbTrace
10
-70
20
-54.488248
30
0
11
-66.500002
21
-54.027465
31
0
12
-66.499998
22
-54.949032
32
0
13
-66.499998
23
-54.949032
33
0
39
0
210
0
220
0
230
1
0
SOLID
5
F6
100
AcDbEntity
8
SK2
62
256
6
ByLayer
370
18
48
1
60
0
100
AcDbTrace
10
391.5
20
-54.488248
30
0
11
388.000002
21
-54.949032
31
0
12
387.999998
22
-54.027465
32
0
13
387.999998
23
-54.027465
33
0
39
0
210
0
220
0
230
1
0
ENDBLK
5
F8
100
AcDbEntity
8
0
100
AcDbBlockEnd
0
BLOCK
5
FD
100
AcDbEntity
8
0
100
AcDbBlockBegin
2
*D3
70
1
10
0
20
0
30
0
3
*D3
0
LINE
5
FF
100
AcDbEntity
8
0
62
256
6
ByLayer
370
-2
48
1
60
0
100
AcDbLine
10
391.5
20
-1.5875
30
0
11
391.5
21
-46.488248
31
0
39
0
210
0
220
0
230
1
0
LINE
5
100
100
AcDbEntity
8
0
62
256
6
ByLayer
370
-2
48
1
60
0
100
AcDbLine
10
3
20
-22.225
30
0
11
3
21
-46.488248
31
0
39
0
210
0
220
0
230
1
0
LINE
5
101
100
AcDbEntity
8
0
62
256
6
ByLayer
370
-2
48
1
60
0
100
AcDbLine
10
388
20
-44.488248
30
0
11
6.5
21
-44.488248
31
0
39
0
210
0
220
0
230
1
0
SOLID
5
102
100
AcDbEntity
8
0
62
256
6
ByLayer
370
-1
48
1
60
0
100
AcDbTrace
10
388
20
-45.071582
30
0
11
388
21
-43.904915
31
0
12
391.5
22
-44.488248
32
0
13
391.5
23
-44.488248
33
0
39
0
210
0
220
0
230
1
0
SOLID
5
103
100
AcDbEntity
8
0
62
256
6
ByLayer
370
-1
48
1
60
0
100
AcDbTrace
10
6.5
20
-43.904915
30
0
11
6.5
21
-45.071582
31
0
12
3
22
-44.488248
32
0
13
3
23
-44.488248
33
0
39
0
210
0
220
0
230
1
0
MTEXT
5
104
100
AcDbEntity
8
0
62
256
6
ByLayer
370
18
48
1
60
0
100
AcDbMText
10
197.25
20
-38.488248
30
0
210
0
220
0
230
1
1
\A1;388.5
40
3
41
0
44
1
50
0
71
5
72
5
7
iso_b_vert
0
POINT
5
105
100
AcDbEntity
8
Defpoints
62
0
6
ByLayer
370
-1
48
1
60
0
100
AcDbPoint
10
391.5
20
0
30
0
39
0
210
0
220
0
230
1
50
360
0
POINT
5
106
100
AcDbEntity
8
Defpoints
62
0
6
ByLayer
370
-1
48
1
60
0
100
AcDbPoint
10
3
20
-20.6375
30
0
39
0
210
0
220
0
230
1
50
360
0
POINT
5
107
100
AcDbEntity
8
Defpoints
62
0
6
ByLayer
370
-1
48
1
60
0
100
AcDbPoint
10
3
20
-44.488248
30
0
39
0
210
0
220
0
230
1
50
360
0
ENDBLK
5
FE
100
AcDbEntity
8
0
100
AcDbBlockEnd
0
BLOCK
5
10F
100
AcDbEntity
8
0
100
AcDbBlockBegin
2
_U1
70
0
10
0
20
0
30
0
3
_U1
0
MTEXT
5
109
100
AcDbEntity
8
SK2
62
256
6
ByLayer
370
18
48
1
60
0
100
AcDbMText
10
191.646716
20
-43.603134
30
0
210
0
220
0
230
1
1
\W0.7513;388.50
40
3
41
0
44
1.084337
50
0
71
7
72
5
7
iso_b_vert
0
LINE
5
10A
100
AcDbEntity
8
SK2
62
256
6
ByLayer
370
13
48
1
60
0
100
AcDbLine
10
391.5
20
-1.5875
30
0
11
391.5
21
-46.488248
31
0
39
0
210
0
220
0
230
1
0
LINE
5
10B
100
AcDbEntity
8
SK2
62
256
6
ByLayer
370
13
48
1
60
0
100
AcDbLine
10
3
20
-22.225
30
0
11
3
21
-46.488248
31
0
39
0
210
0
220
0
230
1
0
LINE
5
10C
100
AcDbEntity
8
SK2
62
256
6
ByLayer
370
13
48
1
60
0
100
AcDbLine
10
391.5
20
-44.488248
30
0
11
3
21
-44.488248
31
0
39
0
210
0
220
0
230
1
0
SOLID
5
10D
100
AcDbEntity
8
SK2
62
256
6
ByLayer
370
18
48
1
60
0
100
AcDbTrace
10
391.5
20
-44.488248
30
0
11
388.000002
21
-44.949032
31
0
12
387.999998
22
-44.027465
32
0
13
387.999998
23
-44.027465
33
0
39
0
210
0
220
0
230
1
0
SOLID
5
10E
100
AcDbEntity
8
SK2
62
256
6
ByLayer
370
18
48
1
60
0
100
AcDbTrace
10
3
20
-44.488248
30
0
11
6.499998
21
-44.027465
31
0
12
6.500002
22
-44.949032
32
0
13
6.500002
23
-44.949032
33
0
39
0
210
0
220
0
230
1
0
ENDBLK
5
110
100
AcDbEntity
8
0
100
AcDbBlockEnd
0
BLOCK
5
115
100
AcDbEntity
8
0
100
AcDbBlockBegin
2
*D5
70
1
10
0
20
0
30
0
3
*D5
0
LINE
5
117
100
AcDbEntity
8
0
62
256
6
ByLayer
370
-2
48
1
60
0
100
AcDbLine
10
-70
20
-21.5875
30
0
11
-70
21
-46.488248
31
0
39
0
210
0
220
0
230
1
0
LINE
5
118
100
AcDbEntity
8
0
62
256
6
ByLayer
370
-2
48
1
60
0
100
AcDbLine
10
0
20
-21.5875
30
0
11
0
21
-46.488248
31
0
39
0
210
0
220
0
230
1
0
LINE
5
119
100
AcDbEntity
8
0
62
256
6
ByLayer
370
-2
48
1
60
0
100
AcDbLine
10
-66.5
20
-44.488248
30
0
11
-3.5
21
-44.488248
31
0
39
0
210
0
220
0
230
1
0
SOLID
5
11A
100
AcDbEntity
8
0
62
256
6
ByLayer
370
-1
48
1
60
0
100
AcDbTrace
10
-66.5
20
-43.904915
30
0
11
-66.5
21
-45.071582
31
0
12
-70
22
-44.488248
32
0
13
-70
23
-44.488248
33
0
39
0
210
0
220
0
230
1
0
SOLID
5
11B
100
AcDbEntity
8
0
62
256
6
ByLayer
370
-1
48
1
60
0
100
AcDbTrace
10
-3.5
20
-45.071582
30
0
11
-3.5
21
-43.904915
31
0
12
0
22
-44.488248
32
0
13
0
23
-44.488248
33
0
39
0
210
0
220
0
230
1
0
MTEXT
5
11C
100
AcDbEntity
8
0
62
256
6
ByLayer
370
18
48
1
60
0
100
AcDbMText
10
-35
20
-38.488248
30
0
210
0
220
0
230
1
1
\A1;70
40
3
41
0
44
1
50
0
71
5
72
5
7
iso_b_vert
0
POINT
5
11D
100
AcDbEntity
8
Defpoints
62
0
6
ByLayer
370
-1
48
1
60
0
100
AcDbPoint
10
-70
20
-20
30
0
39
0
210
0
220
0
230
1
50
360
0
POINT
5
11E
100
AcDbEntity
8
Defpoints
62
0
6
ByLayer
370
-1
48
1
60
0
100
AcDbPoint
10
0
20
-20
30
0
39
0
210
0
220
0
230
1
50
360
0
POINT
5
11F
100
AcDbEntity
8
Defpoints
62
0
6
ByLayer
370
-1
48
1
60
0
100
AcDbPoint
10
0
20
-44.488248
30
0
39
0
210
0
220
0
230
1
50
360
0
ENDBLK
5
116
100
AcDbEntity
8
0
100
AcDbBlockEnd
0
BLOCK
5
127
100
AcDbEntity
8
0
100
AcDbBlockBegin
2
_U2
70
0
10
0
20
0
30
0
3
_U2
0
MTEXT
5
121
100
AcDbEntity
8
SK2
62
256
6
ByLayer
370
18
48
1
60
0
100
AcDbMText
10
-39.48237
20
-43.603134
30
0
210
0
220
0
230
1
1
\W0.7468;70.00
40
3
41
0
44
1.084337
50
0
71
7
72
5
7
iso_b_vert
0
LINE
5
122
100
AcDbEntity
8
SK2
62
256
6
ByLayer
370
13
48
1
60
0
100
AcDbLine
10
-70
20
-21.5875
30
0
11
-70
21
-46.488248
31
0
39
0
210
0
220
0
230
1
0
LINE
5
123
100
AcDbEntity
8
SK2
62
256
6
ByLayer
370
13
48
1
60
0
100
AcDbLine
10
0
20
-21.5875
30
0
11
0
21
-46.488248
31
0
39
0
210
0
220
0
230
1
0
LINE
5
124
100
AcDbEntity
8
SK2
62
256
6
ByLayer
370
13
48
1
60
0
100
AcDbLine
10
-70
20
-44.488248
30
0
11
0
21
-44.488248
31
0
39
0
210
0
220
0
230
1
0
SOLID
5
125
100
AcDbEntity
8
SK2
62
256
6
ByLayer
370
18
48
1
60
0
100
AcDbTrace
10
-70
20
-44.488248
30
0
11
-66.500002
21
-44.027465
31
0
12
-66.499998
22
-44.949032
32
0
13
-66.499998
23
-44.949032
33
0
39
0
210
0
220
0
230
1
0
SOLID
5
126
100
AcDbEntity
8
SK2
62
256
6
ByLayer
370
18
48
1
60
0
100
AcDbTrace
10
0
20
-44.488248
30
0
11
-3.499998
21
-44.949032
31
0
12
-3.500002
22
-44.027465
32
0
13
-3.500002
23
-44.027465
33
0
39
0
210
0
220
0
230
1
0
ENDBLK
5
128
100
AcDbEntity
8
0
100
AcDbBlockEnd
0
BLOCK
5
12D
100
AcDbEntity
8
0
100
AcDbBlockBegin
2
*D7
70
1
10
0
20
0
30
0
3
*D7
0
LINE
5
12F
100
AcDbEntity
8
0
62
256
6
ByLayer
370
-2
48
1
60
0
100
AcDbLine
10
391.5
20
1.5875
30
0
11
391.5
21
43.488248
31
0
39
0
210
0
220
0
230
1
0
LINE
5
130
100
AcDbEntity
8
0
62
256
6
ByLayer
370
-2
48
1
60
0
100
AcDbLine
10
30
20
22.225
30
0
11
30
21
43.488248
31
0
39
0
210
0
220
0
230
1
0
LINE
5
131
100
AcDbEntity
8
0
62
256
6
ByLayer
370
-2
48
1
60
0
100
AcDbLine
10
388
20
41.488248
30
0
11
33.5
21
41.488248
31
0
39
0
210
0
220
0
230
1
0
SOLID
5
132
100
AcDbEntity
8
0
62
256
6
ByLayer
370
-1
48
1
60
0
100
AcDbTrace
10
388
20
40.904915
30
0
11
388
21
42.071582
31
0
12
391.5
22
41.488248
32
0
13
391.5
23
41.488248
33
0
39
0
210
0
220
0
230
1
0
SOLID
5
133
100
AcDbEntity
8
0
62
256
6
ByLayer
370
-1
48
1
60
0
100
AcDbTrace
10
33.5
20
42.071582
30
0
11
33.5
21
40.904915
31
0
12
30
22
41.488248
32
0
13
30
23
41.488248
33
0
39
0
210
0
220
0
230
1
0
MTEXT
5
134
100
AcDbEntity
8
0
62
256
6
ByLayer
370
18
48
1
60
0
100
AcDbMText
10
210.75
20
47.488248
30
0
210
0
220
0
230
1
1
\A1;361.5
40
3
41
0
44
1
50
0
71
5
72
5
7
iso_b_vert
0
POINT
5
135
100
AcDbEntity
8
Defpoints
62
0
6
ByLayer
370
-1
48
1
60
0
100
AcDbPoint
10
391.5
20
0
30
0
39
0
210
0
220
0
230
1
50
360
0
POINT
5
136
100
AcDbEntity
8
Defpoints
62
0
6
ByLayer
370
-1
48
1
60
0
100
AcDbPoint
10
30
20
20.6375
30
0
39
0
210
0
220
0
230
1
50
360
0
POINT
5
137
100
AcDbEntity
8
Defpoints
62
0
6
ByLayer
370
-1
48
1
60
0
100
AcDbPoint
10
30
20
41.488248
30
0
39
0
210
0
220
0
230
1
50
360
0
ENDBLK
5
12E
100
AcDbEntity
8
0
100
AcDbBlockEnd
0
BLOCK
5
13F
100
AcDbEntity
8
0
100
AcDbBlockBegin
2
_U3
70
0
10
0
20
0
30
0
3
_U3
0
MTEXT
5
139
100
AcDbEntity
8
SK2
62
256
6
ByLayer
370
18
48
1
60
0
100
AcDbMText
10
205.521658
20
42.373363
30
0
210
0
220
0
230
1
1
\W0.7022;361.50
40
3
41
0
44
1.084337
50
0
71
7
72
5
7
iso_b_vert
0
LINE
5
13A
100
AcDbEntity
8
SK2
62
256
6
ByLayer
370
13
48
1
60
0
100
AcDbLine
10
391.5
20
1.5875
30
0
11
391.5
21
43.488248
31
0
39
0
210
0
220
0
230
1
0
LINE
5
13B
100
AcDbEntity
8
SK2
62
256
6
ByLayer
370
13
48
1
60
0
100
AcDbLine
10
30
20
22.225
30
0
11
30
21
43.488248
31
0
39
0
210
0
220
0
230
1
0
LINE
5
13C
100
AcDbEntity
8
SK2
62
256
6
ByLayer
370
13
48
1
60
0
100
AcDbLine
10
391.5
20
41.488248
30
0
11
30
21
41.488248
31
0
39
0
210
0
220
0
230
1
0
SOLID
5
13D
100
AcDbEntity
8
SK2
62
256
6
ByLayer
370
18
48
1
60
0
100
AcDbTrace
10
391.5
20
41.488248
30
0
11
388.000002
21
41.027465
31
0
12
387.999998
22
41.949032
32
0
13
387.999998
23
41.949032
33
0
39
0
210
0
220
0
230
1
0
SOLID
5
13E
100
AcDbEntity
8
SK2
62
256
6
ByLayer
370
18
48
1
60
0
100
AcDbTrace
10
30
20
41.488248
30
0
11
33.499998
21
41.949032
31
0
12
33.500002
22
41.027465
32
0
13
33.500002
23
41.027465
33
0
39
0
210
0
220
0
230
1
0
ENDBLK
5
140
100
AcDbEntity
8
0
100
AcDbBlockEnd
0
ENDSEC
0
SECTION
2
ENTITIES
0
ARC
5
B0
100
AcDbEntity
8
SK2
62
256
6
ByLayer
370
13
48
1
60
0
100
AcDbCircle
39
0
10
391.5
20
0
30
0
40
19
210
0
220
0
230
1
100
AcDbArc
50
290
51
70
0
ELLIPSE
5
B1
100
AcDbEntity
8
SK1
62
256
6
ByLayer
370
18
48
1
60
0
100
AcDbEllipse
10
-28.447374
20
0
30
0
11
21.4473742004989
21
-2.43020130678638E-14
31
0
210
0
220
0
230
1
40
0.932515
41
-0.451026811796204
42
0.451026811796208
0
POINT
5
70
100
AcDbEntity
8
80
62
256
6
ByLayer
370
18
48
1
60
0
100
AcDbPoint
10
0
20
0
30
0
39
0
210
0
220
0
230
1
50
360
0
POINT
5
72
100
AcDbEntity
8
1
62
256
6
ByLayer
370
18
48
1
60
1
100
AcDbPoint
10
-70
20
-20
30
0
39
0
210
0
220
0
230
1
50
360
0
POINT
5
74
100
AcDbEntity
8
1
62
256
6
ByLayer
370
18
48
1
60
1
100
AcDbPoint
10
391.5
20
0
30
0
39
0
210
0
220
0
230
1
50
360
0
POINT
5
75
100
AcDbEntity
8
1
62
256
6
ByLayer
370
18
48
1
60
1
100
AcDbPoint
10
391.5
20
0
30
0
39
0
210
0
220
0
230
1
50
360
0
POINT
5
76
100
AcDbEntity
8
1
62
256
6
ByLayer
370
18
48
1
60
1
100
AcDbPoint
10
3
20
-20.6375
30
0
39
0
210
0
220
0
230
1
50
360
0
POINT
5
77
100
AcDbEntity
8
1
62
256
6
ByLayer
370
18
48
1
60
1
100
AcDbPoint
10
-70
20
-20
30
0
39
0
210
0
220
0
230
1
50
360
0
POINT
5
78
100
AcDbEntity
8
1
62
256
6
ByLayer
370
18
48
1
60
1
100
AcDbPoint
10
0
20
-20
30
0
39
0
210
0
220
0
230
1
50
360
0
POINT
5
79
100
AcDbEntity
8
1
62
256
6
ByLayer
370
18
48
1
60
1
100
AcDbPoint
10
391.5
20
0
30
0
39
0
210
0
220
0
230
1
50
360
0
POINT
5
7A
100
AcDbEntity
8
1
62
256
6
ByLayer
370
18
48
1
60
1
100
AcDbPoint
10
30
20
20.6375
30
0
39
0
210
0
220
0
230
1
50
360
0
SPLINE
5
B2
100
AcDbEntity
8
1
62
256
6
ByLayer
370
18
48
1
60
0
100
AcDbSpline
70
4
71
3
72
250
73
246
40
0
40
0
40
0
40
0
40
0.0010113231495522
40
0.0010113231495522
40
0.0133445166909179
40
0.0133445166909179
40
0.0195111134616007
40
0.0195111134616007
40
0.0256777102322835
40
0.0256777102322835
40
0.0287610086176246
40
0.0287610086176246
40
0.0318443070029658
40
0.0318443070029658
40
0.0380109037736486
40
0.0380109037736486
40
0.0503440973150138
40
0.0503440973150138
40
0.0565106940856963
40
0.0565106940856963
40
0.0626772908563788
40
0.0626772908563788
40
0.0688438876270613
40
0.0688438876270613
40
0.0750104843977437
40
0.0750104843977437
40
0.0873436779391086
40
0.0873436779391086
40
0.0935102747097912
40
0.0935102747097912
40
0.0996768714804738
40
0.0996768714804738
40
0.105843468251156
40
0.105843468251156
40
0.112010065021839
40
0.112010065021839
40
0.124343258563205
40
0.124343258563205
40
0.130509855333887
40
0.130509855333887
40
0.13667645210457
40
0.13667645210457
40
0.142843048875253
40
0.142843048875253
40
0.149009645645936
40
0.149009645645936
40
0.155176242416619
40
0.155176242416619
40
0.161342839187302
40
0.161342839187302
40
0.173676032728668
40
0.173676032728668
40
0.179842629499351
40
0.179842629499351
40
0.186009226270033
40
0.186009226270033
40
0.198342419811398
40
0.198342419811398
40
0.210675613352762
40
0.210675613352762
40
0.216842210123445
40
0.216842210123445
40
0.223008806894127
40
0.223008806894127
40
0.235342000435491
40
0.235342000435491
40
0.247675193976855
40
0.247675193976855
40
0.253841790747537
40
0.253841790747537
40
0.260008387518219
40
0.260008387518219
40
0.272341581059585
40
0.272341581059585
40
0.278508177830267
40
0.278508177830267
40
0.284674774600949
40
0.284674774600949
40
0.290841371371632
40
0.290841371371632
40
0.297007968142314
40
0.297007968142314
40
0.309341161683679
40
0.309341161683679
40
0.321674355225045
40
0.321674355225045
40
0.327840951995727
40
0.327840951995727
40
0.33400754876641
40
0.33400754876641
40
0.346340742307776
40
0.346340742307776
40
0.358673935849141
40
0.358673935849141
40
0.364840532619823
40
0.364840532619823
40
0.371007129390506
40
0.371007129390506
40
0.383340322931871
40
0.383340322931871
40
0.389506919702553
40
0.389506919702553
40
0.395673516473235
40
0.395673516473235
40
0.401840113243917
40
0.401840113243917
40
0.408006710014599
40
0.408006710014599
40
0.420339903555963
40
0.420339903555963
40
0.432673097097326
40
0.432673097097326
40
0.438839693868008
40
0.438839693868008
40
0.445006290638691
40
0.445006290638691
40
0.457339484180054
40
0.457339484180054
40
0.469672677721418
40
0.469672677721418
40
0.4758392744921
40
0.4758392744921
40
0.482005871262782
40
0.482005871262782
40
0.494339064804146
40
0.494339064804146
40
0.50667225834551
40
0.50667225834551
40
0.512838855116192
40
0.512838855116192
40
0.519005451886873
40
0.519005451886873
40
0.531338645428237
40
0.531338645428237
40
0.5436718389696
40
0.5436718389696
40
0.549838435740281
40
0.549838435740281
40
0.556005032510963
40
0.556005032510963
40
0.568338226052326
40
0.568338226052326
40
0.580671419593689
40
0.580671419593689
40
0.586838016364371
40
0.586838016364371
40
0.593004613135053
40
0.593004613135053
40
0.605337806676417
40
0.605337806676417
40
0.61767100021778
40
0.61767100021778
40
0.623837596988461
40
0.623837596988461
40
0.630004193759143
40
0.630004193759143
40
0.636170790529825
40
0.636170790529825
40
0.642337387300506
40
0.642337387300506
40
0.654670580841869
40
0.654670580841869
40
0.66083717761255
40
0.66083717761255
40
0.667003774383231
40
0.667003774383231
40
0.679336967924594
40
0.679336967924594
40
0.691670161465956
40
0.691670161465956
40
0.697836758236638
40
0.697836758236638
40
0.704003355007319
40
0.704003355007319
40
0.710169951778
40
0.710169951778
40
0.716336548548682
40
0.716336548548682
40
0.728669742090044
40
0.728669742090044
40
0.734836338860726
40
0.734836338860726
40
0.741002935631407
40
0.741002935631407
40
0.747169532402089
40
0.747169532402089
40
0.753336129172771
40
0.753336129172771
40
0.759502725943452
40
0.759502725943452
40
0.765669322714134
40
0.765669322714134
40
0.771835919484816
40
0.771835919484816
40
0.778002516255497
40
0.778002516255497
40
0.784169113026179
40
0.784169113026179
40
0.790335709796861
40
0.790335709796861
40
0.802668903338223
40
0.802668903338223
40
0.815002096879586
40
0.815002096879586
40
0.821168693650267
40
0.821168693650267
40
0.827335290420948
40
0.827335290420948
40
0.839668483962309
40
0.839668483962309
40
0.852001677503671
40
0.852001677503671
40
0.858168274274352
40
0.858168274274352
40
0.864334871045034
40
0.864334871045034
40
0.876668064586396
40
0.876668064586396
40
0.882834661357077
40
0.882834661357077
40
0.889001258127758
40
0.889001258127758
40
0.895167854898439
40
0.895167854898439
40
0.90133445166912
40
0.90133445166912
40
0.913667645210481
40
0.913667645210481
40
0.926000838751842
40
0.926000838751842
40
0.932167435522522
40
0.932167435522522
40
0.938334032293203
40
0.938334032293203
40
0.950667225834562
40
0.950667225834562
40
0.963000419375922
40
0.963000419375922
40
0.969167016146602
40
0.969167016146602
40
0.975333612917282
40
0.975333612917282
40
0.987666806458641
40
0.987666806458641
40
1
40
1
40
1
40
1
41
1
10
150.095697644655
20
14.3990741645031
30
0
41
1
10
150.167966767359
20
14.4160944730689
30
0
41
1
10
150.240238155436
20
14.4330791038886
30
0
41
1
10
151.193895565875
20
14.6567249936289
30
0
41
1
10
152.075617450782
20
14.8581161212947
30
0
41
1
10
153.39855375939
20
15.1525171820096
30
0
41
1
10
153.83959132119
20
15.249369147964
30
0
41
1
10
154.721753696004
20
15.4405507321059
30
0
41
1
10
155.162852895311
20
15.5349259168309
30
0
41
1
10
155.824688632838
20
15.6743620169615
30
0
41
1
10
156.045338993042
20
15.7204733663895
30
0
41
1
10
156.486746384784
20
15.8119096602838
30
0
41
1
10
156.707506421631
20
15.8572435478237
30
0
41
1
10
157.369672892664
20
15.9920623970987
30
0
41
1
10
157.811043491266
20
16.0803871850024
30
0
41
1
10
159.134885202121
20
16.3408098774622
30
0
41
1
10
160.01709756043
20
16.5083425599486
30
0
41
1
10
161.339742777393
20
16.7507791590639
30
0
41
1
10
161.780511859056
20
16.8301135459323
30
0
41
1
10
162.661793379585
20
16.9858614733097
30
0
41
1
10
163.102283050021
20
17.0623071120634
30
0
41
1
10
163.983114499242
20
17.212100540133
30
0
41
1
10
164.423510556146
20
17.2853710738806
30
0
41
1
10
165.304372077149
20
17.4285322148576
30
0
41
1
10
165.744811384644
20
17.4984602044294
30
0
41
1
10
167.066093684243
20
17.7033920461216
30
0
41
1
10
167.946914758901
20
17.8335309144134
30
0
41
1
10
169.267946827442
20
18.0192040943281
30
0
41
1
10
169.708256980588
20
18.0795053123608
30
0
41
1
10
170.588779477656
20
18.1969475781275
30
0
41
1
10
171.028974275542
20
18.254106971153
30
0
41
1
10
171.909326613815
20
18.3651772392291
30
0
41
1
10
172.34953200857
20
18.4190365282313
30
0
41
1
10
173.230190770822
20
18.523227365943
30
0
41
1
10
173.670611247574
20
18.5735941216177
30
0
41
1
10
174.992072311921
20
18.719600305308
30
0
41
1
10
175.873327638665
20
18.8101362226377
30
0
41
1
10
177.195488443304
20
18.935852848269
30
0
41
1
10
177.636254217392
20
18.9760764516545
30
0
41
1
10
178.517848532736
20
19.053164216303
30
0
41
1
10
178.958665960972
20
19.0900358869668
30
0
41
1
10
179.840383869388
20
19.1603784865212
30
0
41
1
10
180.281321450342
20
19.19382191185
30
0
41
1
10
181.163610086856
20
19.2570989703533
30
0
41
1
10
181.60492695612
20
19.2869569556616
30
0
41
1
10
182.487850221135
20
19.3431566236798
30
0
41
1
10
182.929503807381
20
19.3694980793758
30
0
41
1
10
183.81243482517
20
19.4186384763258
30
0
41
1
10
184.253788167758
20
19.4414423756657
30
0
41
1
10
185.5774707142
20
19.5045769889365
30
0
41
1
10
186.459413381385
20
19.5396400548272
30
0
41
1
10
187.781423630516
20
19.5816512133271
30
0
41
1
10
188.221972379661
20
19.5938778199957
30
0
41
1
10
189.103137411105
20
19.614720274783
30
0
41
1
10
189.543723862743
20
19.6233463471381
30
0
41
1
10
190.865405131363
20
19.643889368305
30
0
41
1
10
191.746434453731
20
19.6504737568873
30
0
41
1
10
193.50812718925
20
19.6494733235419
30
0
41
1
10
194.388786478851
20
19.6418896109821
30
0
41
1
10
195.709318856769
20
19.6197715136692
30
0
41
1
10
196.14942818831
20
19.6106035724478
30
0
41
1
10
197.029854676261
20
19.5887433566839
30
0
41
1
10
197.4701544394
20
19.576052080003
30
0
41
1
10
198.791216406866
20
19.5327038583819
30
0
41
1
10
199.672147701527
20
19.4967783183912
30
0
41
1
10
201.43427674678
20
19.4108326065451
30
0
41
1
10
202.315472133682
20
19.3608129579186
30
0
41
1
10
203.637283780193
20
19.2750075115949
30
0
41
1
10
204.077878731037
20
19.2445970003192
30
0
41
1
10
204.959394554609
20
19.1803545450411
30
0
41
1
10
205.400320394786
20
19.1465304036536
30
0
41
1
10
206.723503185505
20
19.0399157912387
30
0
41
1
10
207.606162354456
20
18.9619850571577
30
0
41
1
10
208.930826069585
20
18.8347088302484
30
0
41
1
10
209.372395996774
20
18.7905598308027
30
0
41
1
10
210.255100393715
20
18.6988285202949
30
0
41
1
10
210.696300299045
20
18.6512402871454
30
0
41
1
10
211.57836235729
20
18.5525735599714
30
0
41
1
10
212.019202547472
20
18.5014706086151
30
0
41
1
10
212.90081053645
20
18.3960281592718
30
0
41
1
10
213.341607343993
20
18.3417218036119
30
0
41
1
10
214.663900942595
20
18.1740085830611
30
0
41
1
10
215.545281672587
20
18.0557908986034
30
0
41
1
10
217.307569868281
20
17.8064043683736
30
0
41
1
10
218.188476257137
20
17.6752353401322
30
0
41
1
10
219.509300381667
20
17.4684772802312
30
0
41
1
10
219.949458896717
20
17.3978507037398
30
0
41
1
10
220.829804306205
20
17.2535233804498
30
0
41
1
10
221.270037378913
20
17.179888738885
30
0
41
1
10
222.590905050973
20
16.9545892258654
30
0
41
1
10
223.471655957189
20
16.7984599197024
30
0
41
1
10
225.233313169087
20
16.4741094506542
30
0
41
1
10
226.114220767396
20
16.3058912068036
30
0
41
1
10
227.43552705929
20
16.0441415832076
30
0
41
1
10
227.875927609692
20
15.9552746777613
30
0
41
1
10
228.756856866759
20
15.7746255753303
30
0
41
1
10
229.197439518609
20
15.6829380643201
30
0
41
1
10
230.519625490012
20
15.4039636971638
30
0
41
1
10
231.401575224106
20
15.2126100074274
30
0
41
1
10
232.725084575601
20
14.9172641033972
30
0
41
1
10
233.16635295336
20
14.8174303632318
30
0
41
1
10
234.049059285449
20
14.6149287517744
30
0
41
1
10
234.490534224834
20
14.5122531268802
30
0
41
1
10
235.373469044684
20
14.3040277313974
30
0
41
1
10
235.814734537995
20
14.1984744216893
30
0
41
1
10
236.696998341682
20
13.9847584667437
30
0
41
1
10
237.138049617325
20
13.8767056384826
30
0
41
1
10
238.461154929191
20
13.5493918882791
30
0
41
1
10
239.343035667974
20
13.3267201420217
30
0
41
1
10
241.106200355078
20
12.8720489907556
30
0
41
1
10
241.987493188535
20
12.6400690689531
30
0
41
1
10
243.308824989697
20
12.284720688658
30
0
41
1
10
243.749151200057
20
12.1650024548314
30
0
41
1
10
244.629650862615
20
11.9232059075039
30
0
41
1
10
245.069870049905
20
11.8012322235709
30
0
41
1
10
246.390744475374
20
11.432820899224
30
0
41
1
10
247.271464547972
20
11.1835468019639
30
0
41
1
10
249.032929938796
20
10.6771271381055
30
0
41
1
10
249.913688741145
20
10.4200139103375
30
0
41
1
10
251.234695850471
20
10.0280366430393
30
0
41
1
10
251.674999935682
20
9.89630062743504
30
0
41
1
10
252.555575346444
20
9.63073698996976
30
0
41
1
10
252.995880893089
20
9.49699448660223
30
0
41
1
10
254.317262842023
20
9.09394747115624
30
0
41
1
10
255.198647868992
20
8.82243274732869
30
0
41
1
10
256.962066616614
20
8.27308760080422
30
0
41
1
10
257.844118144258
20
7.99530369955338
30
0
41
1
10
259.167545188856
20
7.57347873860272
30
0
41
1
10
259.608741784056
20
7.43200011655534
30
0
41
1
10
260.491236463529
20
7.14726598440961
30
0
41
1
10
260.932638425274
20
7.0040364956356
30
0
41
1
10
262.256762406717
20
6.57342371305717
30
0
41
1
10
263.139292906158
20
6.28475291178785
30
0
41
1
10
264.903623576342
20
5.703420617245
30
0
41
1
10
265.785445002643
20
5.41081869542251
30
0
41
1
10
267.10749554042
20
4.96854153821215
30
0
41
1
10
267.54806459176
20
4.82055077792688
30
0
41
1
10
268.428943341745
20
4.52334999353269
30
0
41
1
10
268.869256308889
20
4.37414868441562
30
0
41
1
10
270.190337017349
20
3.92622738955933
30
0
41
1
10
271.071170788385
20
3.62697741446502
30
0
41
1
10
272.832732801822
20
3.02627450093581
30
0
41
1
10
273.71348595458
20
2.72489271709623
30
0
41
1
10
275.034410113962
20
2.27079855656723
30
0
41
1
10
275.474683733288
20
2.11909621292892
30
0
41
1
10
276.355129507002
20
1.81491887351061
30
0
41
1
10
276.795286841743
20
1.66240036316916
30
0
41
1
10
278.116070068084
20
1.20502878720296
30
0
41
1
10
278.997034940002
20
0.900443940858054
30
0
41
1
10
280.759483292143
20
0.29088034938394
30
0
41
1
10
281.640994201079
20
-0.0140186057754477
30
0
41
1
10
282.963532143025
20
-0.472014367056147
30
0
41
1
10
283.40442337372
20
-0.624787759749921
30
0
41
1
10
284.286265068297
20
-0.930646483782823
30
0
41
1
10
284.72719195552
20
-1.08380196347122
30
0
41
1
10
285.609354415478
20
-1.38968965129402
30
0
41
1
10
286.050624430542
20
-1.54231927779438
30
0
41
1
10
286.933499432209
20
-1.84707362388474
30
0
41
1
10
287.375126767789
20
-1.99922650671991
30
0
41
1
10
288.699461750945
20
-2.45475528832083
30
0
41
1
10
289.581952191594
20
-2.75729344872852
30
0
41
1
10
290.904933149899
20
-3.20983945478554
30
0
41
1
10
291.345800819549
20
-3.36047799308511
30
0
41
1
10
292.227251618223
20
-3.66142441525045
30
0
41
1
10
292.667808355907
20
-3.81180768697385
30
0
41
1
10
293.98934071576
20
-4.26162086450069
30
0
41
1
10
294.870404055131
20
-4.55907256061468
30
0
41
1
10
296.632350466286
20
-5.14993815676857
30
0
41
1
10
297.513239034412
20
-5.44333601649703
30
0
41
1
10
298.834290499718
20
-5.88081252040314
30
0
41
1
10
299.274593805255
20
-6.02620161280984
30
0
41
1
10
300.155074538971
20
-6.31618867808064
30
0
41
1
10
300.595227279743
20
-6.46085411113066
30
0
41
1
10
301.475541933719
20
-6.74901514208656
30
0
41
1
10
301.915758626371
20
-6.89236091040888
30
0
41
1
10
302.796384192431
20
-7.17739016675114
30
0
41
1
10
303.236770548293
20
-7.31913532203146
30
0
41
1
10
304.558093263694
20
-7.7422233499916
30
0
41
1
10
305.439205704373
20
-8.02138705856245
30
0
41
1
10
306.761070585187
20
-8.43618489591216
30
0
41
1
10
307.201724464687
20
-8.57379359890703
30
0
41
1
10
308.083067070114
20
-8.84776840193103
30
0
41
1
10
308.523735818387
20
-8.98418654733695
30
0
41
1
10
309.405190801653
20
-9.25555476161307
30
0
41
1
10
309.846028370366
20
-9.39037068655475
30
0
41
1
10
310.728073456744
20
-9.65788270926319
30
0
41
1
10
311.169250931991
20
-9.79065730524698
30
0
41
1
10
312.051870452749
20
-10.0543640283292
30
0
41
1
10
312.493315248647
20
-10.1852890080733
30
0
41
1
10
313.376454238763
20
-10.4453349033449
30
0
41
1
10
313.818023146712
20
-10.5744181089691
30
0
41
1
10
314.700785522466
20
-10.8306746867175
30
0
41
1
10
315.14203241675
20
-10.9578629816745
30
0
41
1
10
316.024227740256
20
-11.2104254141197
30
0
41
1
10
316.465161511983
20
-11.33583451699
30
0
41
1
10
317.346769995477
20
-11.5847291737429
30
0
41
1
10
317.787487932135
20
-11.708110114695
30
0
41
1
10
318.668974114004
20
-11.9522280663111
30
0
41
1
10
319.109708294898
20
-12.0730471029991
30
0
41
1
10
320.431807325856
20
-12.4319846050054
30
0
41
1
10
321.313084180218
20
-12.6665512676602
30
0
41
1
10
323.075202693888
20
-13.1266822078419
30
0
41
1
10
323.956024178663
20
-13.3522899490113
30
0
41
1
10
325.276798444998
20
-13.6841560430107
30
0
41
1
10
325.717019892785
20
-13.7936003373161
30
0
41
1
10
326.597676786026
20
-14.0095464102784
30
0
41
1
10
327.038079149324
20
-14.1161189571683
30
0
41
1
10
328.359420088179
20
-14.4318337532819
30
0
41
1
10
329.240506532802
20
-14.6369481155239
30
0
41
1
10
331.002877826031
20
-15.0368243271115
30
0
41
1
10
331.88415503055
20
-15.2316012786195
30
0
41
1
10
333.206052634444
20
-15.5162243003176
30
0
41
1
10
333.646700556157
20
-15.6098040451466
30
0
41
1
10
334.528357598006
20
-15.7937859256991
30
0
41
1
10
334.969342061846
20
-15.8842348616738
30
0
41
1
10
336.29266821195
20
-16.1511400056421
30
0
41
1
10
337.175392294327
20
-16.3231409536046
30
0
41
1
10
338.5001039292
20
-16.5724571482779
30
0
41
1
10
338.941620139432
20
-16.6540858163056
30
0
41
1
10
339.824256387327
20
-16.8143789319652
30
0
41
1
10
340.265417070556
20
-16.8930516364187
30
0
41
1
10
341.147391041164
20
-17.0474813680518
30
0
41
1
10
341.58820308912
20
-17.1232360731419
30
0
41
1
10
342.469823795832
20
-17.2713266381261
30
0
41
1
10
342.910623722312
20
-17.3436794880552
30
0
41
1
10
344.232897006549
20
-17.5558329545094
30
0
41
1
10
345.114246776001
20
-17.6907283002685
30
0
41
1
10
346.876439127878
20
-17.947725801018
30
0
41
1
10
347.757279396964
20
-18.0698321369552
30
0
41
1
10
349.077973568916
20
-18.2435331561687
30
0
41
1
10
349.518092608985
20
-18.29987140404
30
0
41
1
10
350.398438525122
20
-18.4090644545171
30
0
41
1
10
350.838682763318
20
-18.4619054241191
30
0
41
1
10
352.159535620256
20
-18.6152926482287
30
0
41
1
10
353.040255599394
20
-18.7107156040967
30
0
41
1
10
354.801820719276
20
-18.8880937450629
30
0
41
1
10
355.682664014795
20
-18.9700518321954
30
0
41
1
10
357.003843666713
20
-19.0829349621871
30
0
41
1
10
357.444197228321
20
-19.1189002716833
30
0
41
1
10
358.325110971087
20
-19.1872971991031
30
0
41
1
10
358.765710102145
20
-19.2197067364989
30
0
41
1
10
360.087885199947
20
-19.3116321805866
30
0
41
1
10
360.969803466098
20
-19.3658711489397
30
0
41
1
10
362.734392947101
20
-19.4603781708171
30
0
41
1
10
363.617064118376
20
-19.5006474774323
30
0
41
1
10
364.5
20
-19.5339012335166
30
0
0
SPLINE
5
B3
100
AcDbEntity
8
1
62
256
6
ByLayer
370
18
48
1
60
0
100
AcDbSpline
70
4
71
3
72
215
73
211
40
0
40
0
40
0
40
0
40
0.0080212570993647
40
0.0080212570993647
40
0.0141725291924969
40
0.0141725291924969
40
0.0203238012856291
40
0.0203238012856291
40
0.0326263454718942
40
0.0326263454718942
40
0.0449288896581593
40
0.0449288896581593
40
0.0510801617512918
40
0.0510801617512918
40
0.0572314338444244
40
0.0572314338444244
40
0.0695339780306888
40
0.0695339780306888
40
0.0756852501238213
40
0.0756852501238213
40
0.0818365222169538
40
0.0879877943100864
40
0.0879877943100864
40
0.0941390664032189
40
0.0941390664032189
40
0.106441610589485
40
0.106441610589485
40
0.11874415477575
40
0.11874415477575
40
0.124895426868883
40
0.124895426868883
40
0.131046698962016
40
0.131046698962016
40
0.155651787334547
40
0.155651787334547
40
0.16180305942768
40
0.16180305942768
40
0.167954331520813
40
0.167954331520813
40
0.180256875707078
40
0.180256875707078
40
0.186408147800211
40
0.186408147800211
40
0.192559419893343
40
0.192559419893343
40
0.198710691986476
40
0.198710691986476
40
0.204861964079608
40
0.204861964079608
40
0.229467052452136
40
0.229467052452136
40
0.235618324545268
40
0.235618324545268
40
0.2417695966384
40
0.2417695966384
40
0.254072140824665
40
0.254072140824665
40
0.266374685010929
40
0.266374685010929
40
0.272525957104061
40
0.272525957104061
40
0.278677229197194
40
0.278677229197194
40
0.303282317569722
40
0.303282317569722
40
0.309433589662854
40
0.309433589662854
40
0.315584861755986
40
0.315584861755986
40
0.32788740594225
40
0.32788740594225
40
0.340189950128515
40
0.340189950128515
40
0.346341222221646
40
0.346341222221646
40
0.352492494314779
40
0.352492494314779
40
0.377097582687307
40
0.377097582687307
40
0.38324885478044
40
0.38324885478044
40
0.389400126873572
40
0.389400126873572
40
0.401702671059837
40
0.401702671059837
40
0.414005215246103
40
0.414005215246103
40
0.420156487339235
40
0.420156487339235
40
0.426307759432368
40
0.426307759432368
40
0.4324590315255
40
0.4324590315255
40
0.438610303618633
40
0.438610303618633
40
0.450912847804897
40
0.450912847804897
40
0.457064119898029
40
0.457064119898029
40
0.463215391991161
40
0.463215391991161
40
0.475517936177425
40
0.475517936177425
40
0.487820480363688
40
0.487820480363688
40
0.49397175245682
40
0.49397175245682
40
0.500123024549952
40
0.500123024549952
40
0.524728112922482
40
0.524728112922482
40
0.530879385015614
40
0.530879385015614
40
0.537030657108747
40
0.537030657108747
40
0.54318192920188
40
0.54318192920188
40
0.549333201295012
40
0.549333201295012
40
0.561635745481278
40
0.561635745481278
40
0.567787017574411
40
0.567787017574411
40
0.573938289667544
40
0.573938289667544
40
0.598543378040077
40
0.598543378040077
40
0.60469465013321
40
0.60469465013321
40
0.610845922226343
40
0.610845922226343
40
0.62314846641261
40
0.62314846641261
40
0.635451010598876
40
0.635451010598876
40
0.641602282692008
40
0.641602282692008
40
0.647753554785141
40
0.647753554785141
40
0.660056098971406
40
0.660056098971406
40
0.666207371064539
40
0.666207371064539
40
0.672358643157672
40
0.672358643157672
40
0.678509915250805
40
0.678509915250805
40
0.684661187343938
40
0.684661187343938
40
0.696963731530204
40
0.696963731530204
40
0.709266275716471
40
0.709266275716471
40
0.715417547809604
40
0.715417547809604
40
0.721568819902737
40
0.721568819902737
40
0.746173908275268
40
0.746173908275268
40
0.752325180368401
40
0.752325180368401
40
0.758476452461534
40
0.758476452461534
40
0.770778996647799
40
0.770778996647799
40
0.776930268740932
40
0.776930268740932
40
0.783081540834065
40
0.783081540834065
40
0.789232812927198
40
0.789232812927198
40
0.795384085020331
40
0.795384085020331
40
0.819989173392862
40
0.819989173392862
40
0.826140445485995
40
0.826140445485995
40
0.832291717579128
40
0.832291717579128
40
0.844594261765393
40
0.844594261765393
40
0.856896805951659
40
0.856896805951659
40
0.863048078044792
40
0.863048078044792
40
0.869199350137924
40
0.869199350137924
40
0.893804438510455
40
0.893804438510455
40
0.899955710603588
40
0.899955710603588
40
0.90610698269672
40
0.90610698269672
40
0.918409526882985
40
0.918409526882985
40
0.93071207106925
40
0.93071207106925
40
0.936863343162383
40
0.936863343162383
40
0.943014615255515
40
0.943014615255515
40
0.967619703628047
40
0.967619703628047
40
0.973770975721179
40
0.973770975721179
40
0.979922247814312
40
0.979922247814312
40
0.992224792000578
40
0.992224792000578
40
1
40
1
40
1
40
1
41
1
10
328.270952584769
20
-14.3917997519036
30
0
41
1
10
327.681498731799
20
-14.5307002011763
30
0
41
1
10
327.09209701397
20
-14.667262730339
30
0
41
1
10
326.050822404637
20
-14.904493233827
30
0
41
1
10
325.598922746286
20
-15.0061054219435
30
0
41
1
10
324.695221677144
20
-15.2066369618388
30
0
41
1
10
324.243435985896
20
-15.3055833020816
30
0
41
1
10
322.887909233562
20
-15.5977888230896
30
0
41
1
10
321.983933215369
20
-15.7863099803498
30
0
41
1
10
320.175534561893
20
-16.1511069596551
30
0
41
1
10
319.271105782844
20
-16.3273724308671
30
0
41
1
10
317.91422244361
20
-16.5827134038357
30
0
41
1
10
317.461888704749
20
-16.6663175652203
30
0
41
1
10
316.557154907413
20
-16.8305095747935
30
0
41
1
10
316.104768053328
20
-16.9111153366586
30
0
41
1
10
314.747170616843
20
-17.1478821895454
30
0
41
1
10
313.841488223948
20
-17.2989552359791
30
0
41
1
10
312.482144547111
20
-17.5155998186939
30
0
41
1
10
312.028836493028
20
-17.586158800558
30
0
41
1
10
311.122635632259
20
-17.7238640783435
30
0
41
1
10
310.216701416371
20
-17.8581816695815
30
0
41
1
10
309.311339986466
20
-17.9857680628817
30
0
41
1
10
308.406278565136
20
-18.109992537551
30
0
41
1
10
307.953907356937
20
-18.1704317317203
30
0
41
1
10
306.596880740395
20
-18.3462909508328
30
0
41
1
10
305.692311201044
20
-18.4562698163314
30
0
41
1
10
303.883535044057
20
-18.6619787362543
30
0
41
1
10
302.979321398943
20
-18.7577020856625
30
0
41
1
10
301.623370231886
20
-18.8906735802014
30
0
41
1
10
301.171448486269
20
-18.9332274025259
30
0
41
1
10
300.267742274245
20
-19.0147889017427
30
0
41
1
10
299.815962592435
20
-19.0537970604726
30
0
41
1
10
297.556769082866
20
-19.2394975987922
30
0
41
1
10
295.748567255677
20
-19.3583934157444
30
0
41
1
10
293.487905535578
20
-19.4704092520791
30
0
41
1
10
293.035753701068
20
-19.4909759272995
30
0
41
1
10
292.131422582651
20
-19.5284195994881
30
0
41
1
10
291.679243010485
20
-19.5452933402456
30
0
41
1
10
290.32226835922
20
-19.5902436887651
30
0
41
1
10
289.417080619266
20
-19.6126799058112
30
0
41
1
10
288.058594302314
20
-19.6351091969203
30
0
41
1
10
287.605646838237
20
-19.6407132308615
30
0
41
1
10
286.699530219926
20
-19.6481721643624
30
0
41
1
10
286.246273834342
20
-19.6500269118245
30
0
41
1
10
285.340054010955
20
-19.6499724980553
30
0
41
1
10
284.887107390794
20
-19.6480641283965
30
0
41
1
10
283.981549629117
20
-19.640471886399
30
0
41
1
10
283.528932661614
20
-19.6347853265408
30
0
41
1
10
281.266017278554
20
-19.5969925804
30
0
41
1
10
279.456466864179
20
-19.5369323238185
30
0
41
1
10
277.196140550392
20
-19.424675847838
30
0
41
1
10
276.744158558429
20
-19.4003575098058
30
0
41
1
10
275.840363829697
20
-19.3479688723484
30
0
41
1
10
275.388540254211
20
-19.3199009685571
30
0
41
1
10
274.032913968841
20
-19.2302832368184
30
0
41
1
10
273.129030920421
20
-19.1632951421138
30
0
41
1
10
271.321130663809
20
-19.0148486758458
30
0
41
1
10
270.417107755138
20
-18.9333946066175
30
0
41
1
10
269.061073878934
20
-18.8002428095406
30
0
41
1
10
268.60906517607
20
-18.7540266920728
30
0
41
1
10
267.705048161162
20
-18.6579135069207
30
0
41
1
10
267.253024912941
20
-18.6080270901241
30
0
41
1
10
264.992231421799
20
-18.3500175733259
30
0
41
1
10
263.181767215959
20
-18.1159916605963
30
0
41
1
10
260.917038272062
20
-17.7881605624671
30
0
41
1
10
260.463980450611
20
-17.7208115416861
30
0
41
1
10
259.557837226954
20
-17.5825750409613
30
0
41
1
10
259.104925920906
20
-17.5117403784249
30
0
41
1
10
257.746332395638
20
-17.2945622201546
30
0
41
1
10
256.840880650595
20
-17.1434346238547
30
0
41
1
10
255.030650158574
20
-16.8284309557195
30
0
41
1
10
254.125866776122
20
-16.6645620750605
30
0
41
1
10
252.769300117871
20
-16.4090241716353
30
0
41
1
10
252.317218114018
20
-16.3222121861333
30
0
41
1
10
251.413242163424
20
-16.1453519720118
30
0
41
1
10
250.961324734796
20
-16.0553406931274
30
0
41
1
10
248.701554539218
20
-15.5982993859879
30
0
41
1
10
246.893527042543
20
-15.2097960500335
30
0
41
1
10
244.633874291937
20
-14.6944815934787
30
0
41
1
10
244.181970639841
20
-14.5899136905489
30
0
41
1
10
243.278179706192
20
-14.377825111902
30
0
41
1
10
242.826265657818
20
-14.270355701887
30
0
41
1
10
241.470167510082
20
-13.9442832024692
30
0
41
1
10
240.565724684005
20
-13.7218308531706
30
0
41
1
10
238.756208335652
20
-13.2665743148454
30
0
41
1
10
237.851131307154
20
-13.0337780953192
30
0
41
1
10
236.493144139482
20
-12.676542157232
30
0
41
1
10
236.040428072055
20
-12.5561029247769
30
0
41
1
10
235.134837480377
20
-12.3126005812993
30
0
41
1
10
234.68193316095
20
-12.1896047905396
30
0
41
1
10
233.77572695999
20
-11.9415475646806
30
0
41
1
10
233.322563307464
20
-11.8164653552433
30
0
41
1
10
232.416560007696
20
-11.5642783609198
30
0
41
1
10
231.963655165121
20
-11.4371576238967
30
0
41
1
10
230.605250026665
20
-11.0526752845484
30
0
41
1
10
229.700057960816
20
-10.7921988908362
30
0
41
1
10
228.342996971943
20
-10.3949735476449
30
0
41
1
10
227.890774819008
20
-10.2614533295532
30
0
41
1
10
226.986527732236
20
-9.99234768028705
30
0
41
1
10
226.534469667384
20
-9.85684498746443
30
0
41
1
10
225.178248873192
20
-9.44811193954101
30
0
41
1
10
224.274131033774
20
-9.17242981833752
30
0
41
1
10
222.466071255538
20
-8.61441653306818
30
0
41
1
10
221.56212718741
20
-8.3320911567622
30
0
41
1
10
220.206449950716
20
-7.9033162492444
30
0
41
1
10
219.754609045502
20
-7.75947800626705
30
0
41
1
10
218.850950278024
20
-7.47018114532437
30
0
41
1
10
218.399096921329
20
-7.32481751714656
30
0
41
1
10
216.139350336451
20
-6.59540949485759
30
0
41
1
10
214.330355777283
20
-6.00273564202439
30
0
41
1
10
212.068255461477
20
-5.24864414145057
30
0
41
1
10
211.615806279876
20
-5.09712109646281
30
0
41
1
10
210.710754948655
20
-4.79292602922504
30
0
41
1
10
210.25811539239
20
-4.64036084596805
30
0
41
1
10
209.352485946797
20
-4.33465213739257
30
0
41
1
10
208.899515312746
20
-4.18145366280689
30
0
41
1
10
207.993279641065
20
-3.87432107762066
30
0
41
1
10
207.539985598405
20
-3.72037889202815
30
0
41
1
10
206.180726835706
20
-3.25775185403839
30
0
41
1
10
205.275044637369
20
-2.94815066156895
30
0
41
1
10
203.917365312489
20
-2.48165711339181
30
0
41
1
10
203.46496088926
20
-2.32576775315428
30
0
41
1
10
202.560351370568
20
-2.01353216664336
30
0
41
1
10
202.108107134889
20
-1.85730037252199
30
0
41
1
10
199.846936353842
20
-1.0763067940261
30
0
41
1
10
198.038422904326
20
-0.451271696630584
30
0
41
1
10
195.778951635592
20
0.332195878833033
30
0
41
1
10
195.327132834879
20
0.489047089152791
30
0
41
1
10
194.423517750487
20
0.802690666960899
30
0
41
1
10
193.971681553239
20
0.959366909226333
30
0
41
1
10
192.615963398937
20
1.42860035174098
30
0
41
1
10
191.711933882487
20
1.74054286488371
30
0
41
1
10
189.903554095816
20
2.36300158003817
30
0
41
1
10
188.999204568272
20
2.6735199620241
30
0
41
1
10
187.642545893742
20
3.1385333144967
30
0
41
1
10
187.190320627669
20
3.29345865538229
30
0
41
1
10
186.285715011906
20
3.60273428847839
30
0
41
1
10
185.833295299611
20
3.75697061932624
30
0
41
1
10
184.475590302353
20
4.21820042406765
30
0
41
1
10
183.569912104122
20
4.5238682143148
30
0
41
1
10
182.210666447355
20
4.97988497280329
30
0
41
1
10
181.757376507391
20
5.13150501202486
30
0
41
1
10
180.851141225708
20
5.43377706627726
30
0
41
1
10
180.39817567568
20
5.58443816826329
30
0
41
1
10
179.492563823007
20
5.88484906260501
30
0
41
1
10
179.039935904659
20
6.03465004889014
30
0
41
1
10
178.134874572348
20
6.33298346237225
30
0
41
1
10
177.682403137627
20
6.48140990832496
30
0
41
1
10
176.32509969714
20
6.92429909983008
30
0
41
1
10
175.420419975903
20
7.21649025804319
30
0
41
1
10
173.611546936916
20
7.79507380194775
30
0
41
1
10
172.707355758338
20
8.08147227756012
30
0
41
1
10
171.351543399223
20
8.50698986254164
30
0
41
1
10
170.899703322849
20
8.64819557618068
30
0
41
1
10
169.99603827279
20
8.92886399723278
30
0
41
1
10
169.54417718535
20
9.0682334653398
30
0
41
1
10
167.284658292601
20
9.76009750739732
30
0
41
1
10
165.47647650476
20
10.297996983332
30
0
41
1
10
163.216182831183
20
10.9524292525322
30
0
41
1
10
162.764139674414
20
11.0824603068316
30
0
41
1
10
161.859889887787
20
11.3403334684108
30
0
41
1
10
161.407650017718
20
11.4680965819979
30
0
41
1
10
160.05056397771
20
11.8478254849734
30
0
41
1
10
159.14537662084
20
12.0962938396122
30
0
41
1
10
157.786983379681
20
12.4621700316341
30
0
41
1
10
157.334083820775
20
12.5829909628432
30
0
41
1
10
156.428099221227
20
12.8223927022357
30
0
41
1
10
155.974955071781
20
12.9409902608515
30
0
41
1
10
155.068766164011
20
13.1758938826826
30
0
41
1
10
154.615869151461
20
13.2922061876758
30
0
41
1
10
153.710261269521
20
13.5220895226985
30
0
41
1
10
153.257521661887
20
13.6356001890081
30
0
41
1
10
150.994140107286
20
14.1960394698652
30
0
41
1
10
149.18449027587
20
14.6218092872599
30
0
41
1
10
146.924386375509
20
15.1271006132368
30
0
41
1
10
146.472481269826
20
15.2268383410467
30
0
41
1
10
145.568675642411
20
15.4232478730408
30
0
41
1
10
145.116751189605
20
15.5198782499641
30
0
41
1
10
143.760926403642
20
15.805095943187
30
0
41
1
10
142.856983999317
20
15.9890307127279
30
0
41
1
10
141.049091138554
20
16.3447096828016
30
0
41
1
10
140.145145057077
20
16.5164616114928
30
0
41
1
10
138.789327259024
20
16.7650538492547
30
0
41
1
10
138.337420292857
20
16.8464321689298
30
0
41
1
10
137.433432632355
20
17.0058501669835
30
0
41
1
10
136.981333346255
20
17.0838646782221
30
0
41
1
10
134.720350036979
20
17.4655574808609
30
0
41
1
10
132.910012391206
20
17.7441965776886
30
0
41
1
10
130.64577760288
20
18.0596566842526
30
0
41
1
10
130.192877984669
20
18.1211139106785
30
0
41
1
10
129.286725338529
20
18.2404613682906
30
0
41
1
10
128.833638702814
20
18.2983179055213
30
0
41
1
10
127.474760795838
20
18.466454507444
30
0
41
1
10
126.569189223915
20
18.5713285373457
30
0
41
1
10
124.758846051499
20
18.7668320875022
30
0
41
1
10
123.854079638885
20
18.8574668181061
30
0
41
1
10
122.497638509013
20
18.9827733498835
30
0
41
1
10
122.045619320672
20
19.0227709714115
30
0
41
1
10
121.141576705556
20
19.099030925731
30
0
41
1
10
120.689549971907
20
19.1352941709478
30
0
41
1
10
118.429441669712
20
19.3073635945306
30
0
41
1
10
116.621417843703
20
19.4155245199643
30
0
41
1
10
114.362113962186
20
19.5140303058701
30
0
41
1
10
113.91029540486
20
19.5318888841798
30
0
41
1
10
113.0064778394
20
19.5638315780219
30
0
41
1
10
112.554481688219
20
19.5779198366572
30
0
41
1
10
111.198263873331
20
19.6145681263237
30
0
41
1
10
110.293811407889
20
19.6315161299212
30
0
41
1
10
108.817335853288
20
19.6469861431597
30
0
41
1
10
108.245465701561
20
19.6499941379365
30
0
41
1
10
107.673513160997
20
19.6500011801684
30
0
0
SPLINE
5
B4
100
AcDbEntity
8
1
62
256
6
ByLayer
370
18
48
1
60
0
100
AcDbSpline
70
4
71
3
72
26
73
22
40
0
40
0
40
0
40
0
40
0.124999999999996
40
0.124999999999996
40
0.187499999999994
40
0.187499999999994
40
0.249999999999993
40
0.249999999999993
40
0.499999999999985
40
0.499999999999985
40
0.562499999999983
40
0.562499999999983
40
0.624999999999981
40
0.624999999999981
40
0.749999999999985
40
0.749999999999985
40
0.874999999999989
40
0.874999999999989
40
0.937499999999994
40
0.937499999999994
40
1
40
1
40
1
40
1
41
1
10
383.988564290327
20
-2.94478368689926
30
0
41
1
10
383.175500544994
20
-2.65227033128497
30
0
41
1
10
382.362832056895
20
-2.35884791825149
30
0
41
1
10
381.144513359913
20
-1.91709927304984
30
0
41
1
10
380.738530650405
20
-1.76955427686406
30
0
41
1
10
379.926606294972
20
-1.47444401315388
30
0
41
1
10
379.520647622637
20
-1.3269258321742
30
0
41
1
10
377.490890007005
20
-0.589467931782565
30
0
41
1
10
375.867220054707
20
0.0001352531906207
30
0
41
1
10
373.838363076002
20
0.738234795558697
30
0
41
1
10
373.432634612428
20
0.885927022993542
30
0
41
1
10
372.62123840991
20
1.18138629499148
30
0
41
1
10
372.215553695354
20
1.32910645703703
30
0
41
1
10
370.998239468207
20
1.7714107582274
30
0
41
1
10
370.186422366199
20
2.06533894466674
30
0
41
1
10
368.562357999771
20
2.65164088247005
30
0
41
1
10
367.750104963325
20
2.94399874300274
30
0
41
1
10
366.531484217959
20
3.38159291733419
30
0
41
1
10
366.125237777459
20
3.52730236060279
30
0
41
1
10
365.312678817478
20
3.81844588352735
30
0
41
1
10
364.906381643329
20
3.96392209379428
30
0
41
1
10
364.5
20
4.10911907174989
30
0
0
SPLINE
5
B5
100
AcDbEntity
8
1
62
256
6
ByLayer
370
18
48
1
60
0
100
AcDbSpline
70
4
71
3
72
22
73
18
40
0
40
0
40
0
40
0
40
0.149677918379553
40
0.149677918379553
40
0.234710126541596
40
0.234710126541596
40
0.31974233470364
40
0.31974233470364
40
0.489806751027727
40
0.489806751027727
40
0.659871167351815
40
0.659871167351815
40
0.829935583675902
40
0.829935583675902
40
0.914967791837951
40
0.914967791837951
40
1
40
1
40
1
40
1
41
1
10
369.666122883077
20
20.6349221770312
30
0
41
1
10
370.38082905022
20
20.6350548634087
30
0
41
1
10
371.095410152902
20
20.6302861089314
30
0
41
1
10
372.215651495291
20
20.6150993836824
30
0
41
1
10
372.621438638535
20
20.6080096482542
30
0
41
1
10
373.432865074859
20
20.590633723537
30
0
41
1
10
373.83849166317
20
20.5803424597528
30
0
41
1
10
375.055527271183
20
20.54473316849
30
0
41
1
10
375.867182239867
20
20.5147191876095
30
0
41
1
10
377.490766737188
20
20.4421710514014
30
0
41
1
10
378.302718646502
20
20.3996414044694
30
0
41
1
10
379.926779711467
20
20.3019857761607
30
0
41
1
10
380.738867956574
20
20.2468485829488
30
0
41
1
10
381.957031656329
20
20.1545381876011
30
0
41
1
10
382.363123923335
20
20.1221825159738
30
0
41
1
10
383.175644867339
20
20.0544673421387
30
0
41
1
10
383.582047220244
20
20.0190941760253
30
0
41
1
10
383.988564290327
20
19.9821937457798
30
0
0
SPLINE
5
B6
100
AcDbEntity
8
1
62
256
6
ByLayer
370
18
48
1
60
0
100
AcDbSpline
70
4
71
3
72
190
73
186
40
0
40
0
40
0
40
0
40
0.0158815868491676
40
0.0158815868491676
40
0.0317631736983352
40
0.0317631736983352
40
0.039703967122919
40
0.039703967122919
40
0.0476447605475028
40
0.0476447605475028
40
0.0555855539720867
40
0.0555855539720867
40
0.0635263473966705
40
0.0635263473966705
40
0.0794079342458383
40
0.0794079342458383
40
0.0952895210950061
40
0.0952895210950061
40
0.10323031451959
40
0.10323031451959
40
0.111171107944174
40
0.111171107944174
40
0.127052694793341
40
0.127052694793341
40
0.142934281642509
40
0.142934281642509
40
0.150875075067093
40
0.150875075067093
40
0.158815868491677
40
0.158815868491677
40
0.174697455340844
40
0.174697455340844
40
0.190579042190012
40
0.190579042190012
40
0.198519835614596
40
0.198519835614596
40
0.20646062903918
40
0.20646062903918
40
0.222342215888349
40
0.222342215888349
40
0.238223802737518
40
0.238223802737518
40
0.246164596162102
40
0.246164596162102
40
0.254105389586686
40
0.254105389586686
40
0.269986976435854
40
0.269986976435854
40
0.285868563285023
40
0.285868563285023
40
0.293809356709607
40
0.293809356709607
40
0.301750150134191
40
0.301750150134191
40
0.309690943558775
40
0.309690943558775
40
0.317631736983359
40
0.317631736983359
40
0.333513323832527
40
0.333513323832527
40
0.341454117257111
40
0.341454117257111
40
0.349394910681694
40
0.349394910681694
40
0.365276497530863
40
0.365276497530863
40
0.381158084380031
40
0.381158084380031
40
0.389098877804615
40
0.389098877804615
40
0.397039671229198
40
0.397039671229198
40
0.412921258078366
40
0.412921258078366
40
0.428802844927534
40
0.428802844927534
40
0.436743638352118
40
0.436743638352118
40
0.444684431776702
40
0.444684431776702
40
0.46056601862587
40
0.46056601862587
40
0.468506812050454
40
0.468506812050454
40
0.476447605475037
40
0.476447605475037
40
0.484388398899621
40
0.484388398899621
40
0.492329192324205
40
0.492329192324205
40
0.508210779173372
40
0.508210779173372
40
0.52409236602254
40
0.52409236602254
40
0.532033159447123
40
0.532033159447123
40
0.539973952871707
40
0.539973952871707
40
0.555855539720874
40
0.555855539720874
40
0.571737126570041
40
0.571737126570041
40
0.579677919994625
40
0.579677919994625
40
0.587618713419209
40
0.587618713419209
40
0.603500300268376
40
0.603500300268376
40
0.619381887117543
40
0.619381887117543
40
0.627322680542127
40
0.627322680542127
40
0.635263473966711
40
0.635263473966711
40
0.651145060815877
40
0.651145060815877
40
0.667026647665044
40
0.667026647665044
40
0.674967441089628
40
0.674967441089628
40
0.682908234514211
40
0.682908234514211
40
0.698789821363377
40
0.698789821363377
40
0.714671408212544
40
0.714671408212544
40
0.722612201637127
40
0.722612201637127
40
0.730552995061711
40
0.730552995061711
40
0.746434581910877
40
0.746434581910877
40
0.762316168760044
40
0.762316168760044
40
0.770256962184627
40
0.770256962184627
40
0.77819775560921
40
0.77819775560921
40
0.782168152321502
40
0.782168152321502
40
0.786138549033793
40
0.786138549033793
40
0.794079342458376
40
0.794079342458376
40
0.809960929307541
40
0.809960929307541
40
0.817901722732124
40
0.817901722732124
40
0.825842516156706
40
0.825842516156706
40
0.833783309581289
40
0.833783309581289
40
0.841724103005872
40
0.841724103005872
40
0.857605689855038
40
0.857605689855038
40
0.86554648327962
40
0.86554648327962
40
0.873487276704203
40
0.873487276704203
40
0.881428070128786
40
0.881428070128786
40
0.889368863553369
40
0.889368863553369
40
0.905250450402535
40
0.905250450402535
40
0.913191243827118
40
0.913191243827118
40
0.921132037251701
40
0.921132037251701
40
0.929072830676284
40
0.929072830676284
40
0.937013624100867
40
0.937013624100867
40
0.94495441752545
40
0.94495441752545
40
0.952895210950033
40
0.952895210950033
40
0.968776797799198
40
0.968776797799198
40
0.97671759122378
40
0.97671759122378
40
0.984658384648362
40
0.984658384648362
40
1
40
1
40
1
40
1
41
1
10
26.0402554698599
20
19.2374601381038
30
0
41
1
10
26.9229792084546
20
19.1748840172388
30
0
41
1
10
27.8055203139091
20
19.1055055884437
30
0
41
1
10
29.5700189789689
20
18.9532035973396
30
0
41
1
10
30.4519770367189
20
18.8702798842052
30
0
41
1
10
31.774317547119
20
18.7356328198507
30
0
41
1
10
32.214998545862
20
18.6890389515486
30
0
41
1
10
33.0961329396059
20
18.5923906618685
30
0
41
1
10
33.5365715392244
20
18.5423215076091
30
0
41
1
10
34.4172603969276
20
18.4387408229461
30
0
41
1
10
34.8575538526758
20
18.3852704500506
30
0
41
1
10
35.7382608988757
20
18.2752157835612
30
0
41
1
10
36.1786404739824
20
18.218598554881
30
0
41
1
10
37.4997798379352
20
18.0439192908011
30
0
41
1
10
38.3805556248316
20
17.9210511572214
30
0
41
1
10
40.1419484882495
20
17.6622730213386
30
0
41
1
10
41.022545857552
20
17.5263375867386
30
0
41
1
10
42.3431919581255
20
17.3123742019584
30
0
41
1
10
42.7834048552236
20
17.2394252698818
30
0
41
1
10
43.6641147913842
20
17.0906855094929
30
0
41
1
10
44.1045788125951
20
17.0148513610672
30
0
41
1
10
45.4262096167608
20
16.7828515620861
30
0
41
1
10
46.3076289967318
20
16.6222131504556
30
0
41
1
10
48.0709470054659
20
16.2887028520167
30
0
41
1
10
48.9528380971412
20
16.1158195181851
30
0
41
1
10
50.2758706891882
20
15.846920428333
30
0
41
1
10
50.7169323820191
20
15.7557179046012
30
0
41
1
10
51.5994847793752
20
15.5707557120649
30
0
41
1
10
52.0410305787113
20
15.476939034474
30
0
41
1
10
53.3655137888716
20
15.1915193610531
30
0
41
1
10
54.2481449412359
20
14.9960052532211
30
0
41
1
10
56.012516052655
20
14.5942194254933
30
0
41
1
10
56.894253636298
20
14.3879439274359
30
0
41
1
10
58.2160036774989
20
14.0700375780488
30
0
41
1
10
58.6564423335784
20
13.9626454380132
30
0
41
1
10
59.5373790672569
20
13.7457352628757
30
0
41
1
10
59.9778687129793
20
13.6362026856958
30
0
41
1
10
61.2993050647636
20
13.3041947266425
30
0
41
1
10
62.1802217842109
20
13.0783171007443
30
0
41
1
10
63.9417963925971
20
12.617133037141
30
0
41
1
10
64.8224519276888
20
12.3818223053358
30
0
41
1
10
66.1430564268321
20
12.0213110990346
30
0
41
1
10
66.5831764809944
20
11.8998376101326
30
0
41
1
10
67.4635845432649
20
11.6550459578972
30
0
41
1
10
67.9038908166542
20
11.5317731680211
30
0
41
1
10
69.2250230059229
20
11.1591270974193
30
0
41
1
10
70.1060527787098
20
10.9069060920751
30
0
41
1
10
71.8684841836083
20
10.3944725541978
30
0
41
1
10
72.7498840122194
20
10.1342564932828
30
0
41
1
10
74.0720859338365
20
9.73742820177625
30
0
41
1
10
74.5128115479004
20
9.60400005682831
30
0
41
1
10
75.3945306125479
20
9.33556096629479
30
0
41
1
10
75.8355630810157
20
9.20065334693626
30
0
41
1
10
76.7179415941399
20
8.9293915017636
30
0
41
1
10
77.1592796426747
20
8.79301618586214
30
0
41
1
10
78.0422264294729
20
8.51870962576427
30
0
41
1
10
78.4838932416653
20
8.3807627792836
30
0
41
1
10
79.8083176305482
20
7.96480625375176
30
0
41
1
10
80.6907679212982
20
7.68459668339332
30
0
41
1
10
82.0135172098798
20
7.25943068767489
30
0
41
1
10
82.4542523531759
20
7.1168253558356
30
0
41
1
10
83.3355900462033
20
6.83047689233427
30
0
41
1
10
83.7762433638033
20
6.68687400047347
30
0
41
1
10
85.0981871835011
20
6.25487305940601
30
0
41
1
10
85.9793922256274
20
5.9650926927319
30
0
41
1
10
87.7414278433416
20
5.38145512088144
30
0
41
1
10
88.6222612079824
20
5.08760588773077
30
0
41
1
10
89.9430589581544
20
4.64327846306171
30
0
41
1
10
90.3832252101923
20
4.49450761790399
30
0
41
1
10
91.2635278405525
20
4.19611853298264
30
0
41
1
10
91.703719088592
20
4.04665628482229
30
0
41
1
10
93.0245499212352
20
3.59786515785913
30
0
41
1
10
93.9053368564403
20
3.297821235843
30
0
41
1
10
95.6671618084774
20
2.69543181014686
30
0
41
1
10
96.5482066464468
20
2.39310605785525
30
0
41
1
10
97.8698016582011
20
1.93740873514454
30
0
41
1
10
98.3103189939995
20
1.78508559840228
30
0
41
1
10
99.1914335640528
20
1.47990286988895
30
0
41
1
10
99.6320803427936
20
1.32718812651348
30
0
41
1
10
100.954543900069
20
0.869427102373265
30
0
41
1
10
101.836741483373
20
0.564348577656205
30
0
41
1
10
103.160692339184
20
0.106355082440245
30
0
41
1
10
103.602121273182
20
-0.0463637908845271
30
0
41
1
10
104.485175470867
20
-0.351994833207783
30
0
41
1
10
104.926733978709
20
-0.504883117203377
30
0
41
1
10
105.809370337272
20
-0.810712985128191
30
0
41
1
10
106.250508855032
20
-0.963718464797466
30
0
41
1
10
107.132481482615
20
-1.2697430511289
30
0
41
1
10
107.573355897046
20
-1.42264238543615
30
0
41
1
10
108.896002650768
20
-1.87995036270087
30
0
41
1
10
109.777642833711
20
-2.18343180605098
30
0
41
1
10
111.54041920009
20
-2.78839227801816
30
0
41
1
10
112.421570849319
20
-3.08982611405941
30
0
41
1
10
113.742773383817
20
-3.54089006773171
30
0
41
1
10
114.183079693808
20
-3.69108332374566
30
0
41
1
10
115.063513094413
20
-3.99111332682489
30
0
41
1
10
115.503668073674
20
-4.14086956047549
30
0
41
1
10
116.824397755626
20
-4.58808503784499
30
0
41
1
10
117.705088588885
20
-4.88391899137994
30
0
41
1
10
119.46658830782
20
-5.47181583600334
30
0
41
1
10
120.34741690501
20
-5.76382298792927
30
0
41
1
10
121.668611275906
20
-6.19937444118685
30
0
41
1
10
122.108999305456
20
-6.34415352984689
30
0
41
1
10
122.989733318954
20
-6.63295635091615
30
0
41
1
10
123.43009082619
20
-6.77694728264927
30
0
41
1
10
124.751642774005
20
-7.20629319977283
30
0
41
1
10
125.633209595522
20
-7.48932115245827
30
0
41
1
10
127.397084864159
20
-8.04987480590412
30
0
41
1
10
128.279416688755
20
-8.32733662640334
30
0
41
1
10
129.603346053935
20
-8.73972013318544
30
0
41
1
10
130.044747213299
20
-8.87655257052563
30
0
41
1
10
130.927581553788
20
-9.14899674992614
30
0
41
1
10
131.368796391629
20
-9.28455901349702
30
0
41
1
10
132.692351440017
20
-9.68791086218462
30
0
41
1
10
133.574572161394
20
-9.95246174213071
30
0
41
1
10
135.338377427071
20
-10.4738435493534
30
0
41
1
10
136.219987994287
20
-10.7306068724793
30
0
41
1
10
137.541803781109
20
-11.1102549069665
30
0
41
1
10
137.98230887203
20
-11.235887452986
30
0
41
1
10
138.863085510409
20
-11.4853863498523
30
0
41
1
10
139.303337078313
20
-11.609297711507
30
0
41
1
10
140.624165444291
20
-11.9773709972464
30
0
41
1
10
141.504896898016
20
-12.2176994017787
30
0
41
1
10
143.266355406191
20
-12.6891834529005
30
0
41
1
10
144.14710853971
20
-12.9202781089933
30
0
41
1
10
145.468114623264
20
-13.2602856686087
30
0
41
1
10
145.908429306037
20
-13.3725149417976
30
0
41
1
10
146.788985124462
20
-13.5948154063615
30
0
41
1
10
147.229200493599
20
-13.7049389775084
30
0
41
1
10
148.550068026916
20
-14.0313586192377
30
0
41
1
10
149.431127878214
20
-14.2433315217206
30
0
41
1
10
151.193895565875
20
-14.6567249936288
30
0
41
1
10
152.075617450782
20
-14.8581161212947
30
0
41
1
10
153.398553759389
20
-15.1525171820096
30
0
41
1
10
153.839591321189
20
-15.249369147964
30
0
41
1
10
154.721753696004
20
-15.4405507321059
30
0
41
1
10
155.162852895311
20
-15.5349259168308
30
0
41
1
10
155.824688632838
20
-15.6743620169615
30
0
41
1
10
156.045338993042
20
-15.7204733663894
30
0
41
1
10
156.486746384784
20
-15.8119096602838
30
0
41
1
10
156.707506421631
20
-15.8572435478236
30
0
41
1
10
157.369672892664
20
-15.9920623970986
30
0
41
1
10
157.811043491266
20
-16.0803871850024
30
0
41
1
10
159.13488520212
20
-16.3408098774621
30
0
41
1
10
160.01709756043
20
-16.5083425599485
30
0
41
1
10
161.339742777393
20
-16.7507791590638
30
0
41
1
10
161.780511859056
20
-16.8301135459322
30
0
41
1
10
162.661793379585
20
-16.9858614733096
30
0
41
1
10
163.102283050021
20
-17.0623071120634
30
0
41
1
10
163.983114499242
20
-17.2121005401329
30
0
41
1
10
164.423510556146
20
-17.2853710738806
30
0
41
1
10
165.304372077149
20
-17.4285322148575
30
0
41
1
10
165.744811384644
20
-17.4984602044294
30
0
41
1
10
167.066093684243
20
-17.7033920461216
30
0
41
1
10
167.9469147589
20
-17.8335309144134
30
0
41
1
10
169.267946827442
20
-18.0192040943281
30
0
41
1
10
169.708256980588
20
-18.0795053123607
30
0
41
1
10
170.588779477656
20
-18.1969475781274
30
0
41
1
10
171.028974275542
20
-18.2541069711529
30
0
41
1
10
171.909326613815
20
-18.3651772392291
30
0
41
1
10
172.34953200857
20
-18.4190365282313
30
0
41
1
10
173.230190770822
20
-18.523227365943
30
0
41
1
10
173.670611247574
20
-18.5735941216177
30
0
41
1
10
174.992072311921
20
-18.7196003053079
30
0
41
1
10
175.873327638665
20
-18.8101362226376
30
0
41
1
10
177.195488443303
20
-18.935852848269
30
0
41
1
10
177.636254217392
20
-18.9760764516545
30
0
41
1
10
178.517848532736
20
-19.053164216303
30
0
41
1
10
178.958665960972
20
-19.0900358869667
30
0
41
1
10
179.840383869388
20
-19.1603784865212
30
0
41
1
10
180.281321450342
20
-19.19382191185
30
0
41
1
10
181.163610086856
20
-19.2570989703533
30
0
41
1
10
181.60492695612
20
-19.2869569556616
30
0
41
1
10
182.487850221135
20
-19.3431566236798
30
0
41
1
10
182.929503807381
20
-19.3694980793758
30
0
41
1
10
183.81243482517
20
-19.4186384763258
30
0
41
1
10
184.253788167758
20
-19.4414423756657
30
0
41
1
10
185.5774707142
20
-19.5045769889364
30
0
41
1
10
186.459413381384
20
-19.5396400548272
30
0
41
1
10
187.781423630516
20
-19.5816512133271
30
0
41
1
10
188.221972379661
20
-19.5938778199957
30
0
41
1
10
189.103137411105
20
-19.614720274783
30
0
41
1
10
189.543723862744
20
-19.6233463471381
30
0
41
1
10
190.835447158831
20
-19.6434237286092
30
0
41
1
10
191.68652462643
20
-19.6500178003059
30
0
41
1
10
192.537434269637
20
-19.6499999918598
30
0
0
SPLINE
5
B7
100
AcDbEntity
8
1
62
256
6
ByLayer
370
18
48
1
60
0
100
AcDbSpline
70
4
71
3
72
44
73
40
40
0
40
0
40
0
40
0
40
0.051094887217955
40
0.051094887217955
40
0.124087588201181
40
0.124087588201181
40
0.160583938692795
40
0.160583938692795
40
0.197080289184411
40
0.197080289184411
40
0.270072990167641
40
0.270072990167641
40
0.306569340659259
40
0.306569340659259
40
0.343065691150875
40
0.343065691150875
40
0.379562041642493
40
0.379562041642493
40
0.41605839213411
40
0.41605839213411
40
0.489051093117344
40
0.489051093117344
40
0.562043794100578
40
0.562043794100578
40
0.598540144592198
40
0.598540144592198
40
0.635036495083818
40
0.635036495083818
40
0.708029196067056
40
0.708029196067056
40
0.781021897050294
40
0.781021897050294
40
0.817518247541912
40
0.817518247541912
40
0.854014598033533
40
0.854014598033533
40
0.927007299016766
40
0.927007299016766
40
1
40
1
40
1
40
1
41
1
10
328.271380270314
20
14.4093433639015
30
0
41
1
10
328.888080966914
20
14.5544365269025
30
0
41
1
10
329.50486226868
20
14.6969295567676
30
0
41
1
10
331.00287782603
20
15.0368243271115
30
0
41
1
10
331.88415503055
20
15.2316012786193
30
0
41
1
10
333.206052634444
20
15.5162243003176
30
0
41
1
10
333.646700556157
20
15.6098040451466
30
0
41
1
10
334.528357598005
20
15.793785925699
30
0
41
1
10
334.969342061845
20
15.8842348616737
30
0
41
1
10
336.29266821195
20
16.151140005642
30
0
41
1
10
337.175392294327
20
16.3231409536045
30
0
41
1
10
338.5001039292
20
16.5724571482778
30
0
41
1
10
338.941620139432
20
16.6540858163056
30
0
41
1
10
339.824256387327
20
16.8143789319651
30
0
41
1
10
340.265417070556
20
16.8930516364186
30
0
41
1
10
341.147391041163
20
17.0474813680517
30
0
41
1
10
341.58820308912
20
17.1232360731418
30
0
41
1
10
342.469823795832
20
17.271326638126
30
0
41
1
10
342.910623722312
20
17.3436794880552
30
0
41
1
10
344.232897006549
20
17.5558329545094
30
0
41
1
10
345.114246776001
20
17.6907283002686
30
0
41
1
10
346.876439127878
20
17.947725801018
30
0
41
1
10
347.757279396964
20
18.0698321369551
30
0
41
1
10
349.077973568915
20
18.2435331561686
30
0
41
1
10
349.518092608984
20
18.29987140404
30
0
41
1
10
350.398438525121
20
18.4090644545171
30
0
41
1
10
350.838682763317
20
18.4619054241191
30
0
41
1
10
352.159535620256
20
18.6152926482287
30
0
41
1
10
353.040255599394
20
18.7107156040966
30
0
41
1
10
354.801820719275
20
18.8880937450629
30
0
41
1
10
355.682664014795
20
18.9700518321954
30
0
41
1
10
357.003843666713
20
19.0829349621871
30
0
41
1
10
357.444197228321
20
19.1189002716832
30
0
41
1
10
358.325110971087
20
19.1872971991031
30
0
41
1
10
358.765710102145
20
19.2197067364989
30
0
41
1
10
360.087885199946
20
19.3116321805865
30
0
41
1
10
360.969803466097
20
19.3658711489397
30
0
41
1
10
362.7343929471
20
19.4603781708171
30
0
41
1
10
363.617064118376
20
19.5006474774323
30
0
41
1
10
364.5
20
19.5339012335166
30
0
0
SPLINE
5
B8
100
AcDbEntity
8
1
62
256
6
ByLayer
370
18
48
1
60
0
100
AcDbSpline
70
4
71
3
72
84
73
80
40
0
40
0
40
0
40
0
40
0.0344851368892109
40
0.0344851368892109
40
0.0689702737784219
40
0.0689702737784219
40
0.0862128422230283
40
0.0862128422230283
40
0.103455410667635
40
0.103455410667635
40
0.137940547556846
40
0.137940547556846
40
0.172425684446056
40
0.172425684446056
40
0.189668252890663
40
0.189668252890663
40
0.206910821335269
40
0.206910821335269
40
0.24139595822448
40
0.24139595822448
40
0.275881095113691
40
0.275881095113691
40
0.293123663558297
40
0.293123663558297
40
0.310366232002902
40
0.310366232002902
40
0.327608800447508
40
0.327608800447508
40
0.33623008466981
40
0.33623008466981
40
0.344851368892113
40
0.379336505781324
40
0.379336505781324
40
0.396579074225929
40
0.396579074225929
40
0.413821642670535
40
0.413821642670535
40
0.482791916448957
40
0.482791916448957
40
0.500034484893562
40
0.500034484893562
40
0.517277053338167
40
0.517277053338167
40
0.551762190227375
40
0.551762190227375
40
0.586247327116583
40
0.586247327116583
40
0.603489895561187
40
0.603489895561187
40
0.620732464005791
40
0.620732464005791
40
0.655217600894999
40
0.655217600894999
40
0.672460169339603
40
0.672460169339603
40
0.689702737784207
40
0.706945306228811
40
0.706945306228811
40
0.724187874673415
40
0.724187874673415
40
0.758673011562623
40
0.758673011562623
40
0.793158148451831
40
0.793158148451831
40
0.810400716896435
40
0.810400716896435
40
0.827643285341039
40
0.827643285341039
40
0.896613559119453
40
0.896613559119453
40
0.913856127564055
40
0.913856127564055
40
0.931098696008658
40
0.931098696008658
40
0.965583832897864
40
0.965583832897864
40
0.982826401342468
40
0.982826401342468
40
1
40
1
40
1
40
1
41
1
10
364.5
20
3.57420039219613
30
0
41
1
10
363.593833929808
20
3.88363198813121
30
0
41
1
10
362.687996348723
20
4.19091481113946
30
0
41
1
10
360.876984363601
20
4.80127092346299
30
0
41
1
10
359.971823554907
20
5.10438446455362
30
0
41
1
10
358.614698595271
20
5.55624611869047
30
0
41
1
10
358.162427588388
20
5.7064015752378
30
0
41
1
10
357.258108114528
20
6.00581833670373
30
0
41
1
10
356.806078751745
20
6.15513211406108
30
0
41
1
10
355.450104840549
20
6.6011140015402
30
0
41
1
10
354.546107103445
20
6.89536477836862
30
0
41
1
10
352.738132672435
20
7.47792091298027
30
0
41
1
10
351.83416372119
20
7.7662480018231
30
0
41
1
10
350.478338918251
20
8.19458025661407
30
0
41
1
10
350.02641993292
20
8.33666717160071
30
0
41
1
10
349.122641058071
20
8.61948996853681
30
0
41
1
10
348.67080022618
20
8.7602749292837
30
0
41
1
10
347.315124170619
20
9.17996106139211
30
0
41
1
10
346.410988613026
20
9.45581771484905
30
0
41
1
10
344.602096698179
20
9.99991575501204
30
0
41
1
10
343.697343696713
20
10.2681662068523
30
0
41
1
10
342.339853898109
20
10.6650817094228
30
0
41
1
10
341.887298304366
20
10.7964788891322
30
0
41
1
10
340.982081709903
20
11.0574797658703
30
0
41
1
10
340.529439074892
20
11.1871275061186
30
0
41
1
10
339.623871551337
20
11.444189916781
30
0
41
1
10
339.170919028493
20
11.5715385126099
30
0
41
1
10
338.491238668273
20
11.7607954509536
30
0
41
1
10
338.264623596592
20
11.8235926461267
30
0
41
1
10
337.811482563278
20
11.9485610024163
30
0
41
1
10
336.678760193966
20
12.2594429115867
30
0
41
1
10
335.546698504764
20
12.5626861331324
30
0
41
1
10
334.188959836293
20
12.9194894275974
30
0
41
1
10
333.736503923862
20
13.0372437259809
30
0
41
1
10
332.831853183353
20
13.2704128876322
30
0
41
1
10
332.379675706725
20
13.3858634445896
30
0
41
1
10
330.118953610894
20
13.956201063458
30
0
41
1
10
328.310533201025
20
14.3896700304577
30
0
41
1
10
326.050822404636
20
14.904493233827
30
0
41
1
10
325.598922746286
20
15.0061054219435
30
0
41
1
10
324.695221677144
20
15.2066369618389
30
0
41
1
10
324.243435985896
20
15.3055833020816
30
0
41
1
10
322.887909233562
20
15.5977888230897
30
0
41
1
10
321.983933215369
20
15.7863099803498
30
0
41
1
10
320.175534561893
20
16.1511069596552
30
0
41
1
10
319.271105782844
20
16.3273724308671
30
0
41
1
10
317.91422244361
20
16.5827134038357
30
0
41
1
10
317.461888704749
20
16.6663175652203
30
0
41
1
10
316.557154907413
20
16.8305095747936
30
0
41
1
10
316.104768053328
20
16.9111153366586
30
0
41
1
10
314.747170616843
20
17.1478821895455
30
0
41
1
10
313.841488223948
20
17.2989552359791
30
0
41
1
10
312.48214454711
20
17.515599818694
30
0
41
1
10
312.028836493027
20
17.586158800558
30
0
41
1
10
311.122635632259
20
17.7238640783436
30
0
41
1
10
310.216701545167
20
17.8581817533407
30
0
41
1
10
309.311339986466
20
17.9857680628817
30
0
41
1
10
308.406278565135
20
18.109992537551
30
0
41
1
10
307.953907356937
20
18.1704317317204
30
0
41
1
10
306.596880740395
20
18.3462909508328
30
0
41
1
10
305.692311201044
20
18.4562698163314
30
0
41
1
10
303.883535044056
20
18.6619787362544
30
0
41
1
10
302.979321398943
20
18.7577020856625
30
0
41
1
10
301.623370231886
20
18.8906735802014
30
0
41
1
10
301.171448486269
20
18.9332274025259
30
0
41
1
10
300.267742274245
20
19.0147889017428
30
0
41
1
10
299.815962592435
20
19.0537970604726
30
0
41
1
10
297.556769082866
20
19.2394975987922
30
0
41
1
10
295.748567255677
20
19.3583934157444
30
0
41
1
10
293.487905535578
20
19.4704092520791
30
0
41
1
10
293.035753701068
20
19.4909759272995
30
0
41
1
10
292.131422582651
20
19.5284195994881
30
0
41
1
10
291.679243010486
20
19.5452933402456
30
0
41
1
10
290.32226835922
20
19.5902436887651
30
0
41
1
10
289.417080619266
20
19.6126799058112
30
0
41
1
10
288.058594302314
20
19.6351091969203
30
0
41
1
10
287.605646838237
20
19.6407132308615
30
0
41
1
10
286.701342440374
20
19.6481572466007
30
0
41
1
10
286.24989985667
20
19.6500120439545
30
0
41
1
10
285.798601210228
20
19.6499999410882
30
0
0
SPLINE
5
B9
100
AcDbEntity
8
1
62
256
6
ByLayer
370
18
48
1
60
0
100
AcDbSpline
70
4
71
3
72
142
73
138
40
0
40
0
40
0
40
0
40
0.0204481378153764
40
0.0204481378153764
40
0.0306518030464652
40
0.0306518030464652
40
0.0408554682775543
40
0.0408554682775543
40
0.0612627987397319
40
0.0612627987397319
40
0.0816701292019094
40
0.0816701292019094
40
0.0918737944329982
40
0.0918737944329982
40
0.102077459664087
40
0.102077459664087
40
0.142892120588443
40
0.142892120588443
40
0.153095785819532
40
0.153095785819532
40
0.163299451050621
40
0.163299451050621
40
0.1837067815128
40
0.1837067815128
40
0.204114111974978
40
0.204114111974978
40
0.214317777206068
40
0.214317777206068
40
0.224521442437157
40
0.224521442437157
40
0.265336103361516
40
0.265336103361516
40
0.275539768592606
40
0.275539768592606
40
0.285743433823696
40
0.285743433823696
40
0.306150764285876
40
0.306150764285876
40
0.326558094748056
40
0.326558094748056
40
0.336761759979146
40
0.336761759979146
40
0.346965425210236
40
0.346965425210236
40
0.357169090441327
40
0.357169090441327
40
0.367372755672417
40
0.367372755672417
40
0.387780086134597
40
0.387780086134597
40
0.397983751365687
40
0.397983751365687
40
0.408187416596777
40
0.408187416596777
40
0.428594747058957
40
0.428594747058957
40
0.449002077521137
40
0.449002077521137
40
0.459205742752227
40
0.459205742752227
40
0.469409407983317
40
0.469409407983317
40
0.510224068907678
40
0.510224068907678
40
0.520427734138769
40
0.520427734138769
40
0.530631399369859
40
0.530631399369859
40
0.54083506460095
40
0.54083506460095
40
0.55103872983204
40
0.55103872983204
40
0.57144606029422
40
0.57144606029422
40
0.58164972552531
40
0.58164972552531
40
0.5918533907564
40
0.5918533907564
40
0.612260721218579
40
0.612260721218579
40
0.632668051680759
40
0.632668051680759
40
0.642871716911849
40
0.642871716911849
40
0.653075382142939
40
0.653075382142939
40
0.673482712605118
40
0.673482712605118
40
0.693890043067298
40
0.693890043067298
40
0.704093708298388
40
0.704093708298388
40
0.714297373529478
40
0.714297373529478
40
0.734704703991658
40
0.734704703991658
40
0.744908369222748
40
0.744908369222748
40
0.755112034453838
40
0.755112034453838
40
0.765315699684928
40
0.765315699684928
40
0.775519364916018
40
0.775519364916018
40
0.795926695378198
40
0.795926695378198
40
0.806130360609289
40
0.806130360609289
40
0.816334025840379
40
0.816334025840379
40
0.826537691071469
40
0.826537691071469
40
0.836741356302559
40
0.836741356302559
40
0.857148686764739
40
0.857148686764739
40
0.867352351995829
40
0.867352351995829
40
0.877556017226919
40
0.877556017226919
40
0.887759682458009
40
0.887759682458009
40
0.897963347689099
40
0.897963347689099
40
0.918370678151279
40
0.918370678151279
40
0.928574343382369
40
0.928574343382369
40
0.938778008613459
40
0.938778008613459
40
0.94898167384455
40
0.94898167384455
40
0.95918533907564
40
0.95918533907564
40
0.97959266953782
40
0.97959266953782
40
1
40
1
40
1
40
1
41
1
10
150.095070554987
20
-14.4021316526677
30
0
41
1
10
149.188499040427
20
-14.6155952223087
30
0
41
1
10
148.282256475114
20
-14.8235216569665
30
0
41
1
10
146.924386375509
20
-15.1271006132369
30
0
41
1
10
146.472481269826
20
-15.2268383410467
30
0
41
1
10
145.568675642411
20
-15.4232478730409
30
0
41
1
10
145.116751189605
20
-15.5198782499642
30
0
41
1
10
143.760926403642
20
-15.805095943187
30
0
41
1
10
142.856983999317
20
-15.9890307127279
30
0
41
1
10
141.049091138554
20
-16.3447096828016
30
0
41
1
10
140.145145057077
20
-16.5164616114929
30
0
41
1
10
138.789327259024
20
-16.7650538492547
30
0
41
1
10
138.337420292857
20
-16.8464321689298
30
0
41
1
10
137.433432632355
20
-17.0058501669836
30
0
41
1
10
136.981333346255
20
-17.0838646782221
30
0
41
1
10
134.720350036979
20
-17.465557480861
30
0
41
1
10
132.910012391206
20
-17.7441965776886
30
0
41
1
10
130.64577760288
20
-18.0596566842526
30
0
41
1
10
130.192877984669
20
-18.1211139106786
30
0
41
1
10
129.286725338529
20
-18.2404613682906
30
0
41
1
10
128.833638702814
20
-18.2983179055213
30
0
41
1
10
127.474760795838
20
-18.466454507444
30
0
41
1
10
126.569189223914
20
-18.5713285373457
30
0
41
1
10
124.758846051499
20
-18.7668320875022
30
0
41
1
10
123.854079638884
20
-18.8574668181061
30
0
41
1
10
122.497638509013
20
-18.9827733498836
30
0
41
1
10
122.045619320672
20
-19.0227709714115
30
0
41
1
10
121.141576705556
20
-19.099030925731
30
0
41
1
10
120.689549971907
20
-19.1352941709478
30
0
41
1
10
118.429441669712
20
-19.3073635945306
30
0
41
1
10
116.621417843703
20
-19.4155245199643
30
0
41
1
10
114.362113962185
20
-19.5140303058701
30
0
41
1
10
113.91029540486
20
-19.5318888841798
30
0
41
1
10
113.0064778394
20
-19.5638315780219
30
0
41
1
10
112.554481688219
20
-19.5779198366572
30
0
41
1
10
111.198263873331
20
-19.6145681263237
30
0
41
1
10
110.293811407889
20
-19.6315161299213
30
0
41
1
10
108.484405097618
20
-19.6504744794085
30
0
41
1
10
107.579457209417
20
-19.6524857912762
30
0
41
1
10
106.221759568541
20
-19.6441933602886
30
0
41
1
10
105.769147878408
20
-19.6395396266615
30
0
41
1
10
104.863571276758
20
-19.6264721255637
30
0
41
1
10
104.41061478517
20
-19.6180606900523
30
0
41
1
10
103.5043872908
20
-19.5974909059319
30
0
41
1
10
103.051122901172
20
-19.5853317207088
30
0
41
1
10
102.144995388063
20
-19.5572909912371
30
0
41
1
10
101.692044097864
20
-19.541407765658
30
0
41
1
10
100.333551116246
20
-19.4881704383503
30
0
41
1
10
99.4283755487108
20
-19.4452320241301
30
0
41
1
10
98.0714333989441
20
-19.3695612543195
30
0
41
1
10
97.6192502417857
20
-19.3424589201449
30
0
41
1
10
96.7148866459436
20
-19.2846351334774
30
0
41
1
10
96.2627195197692
20
-19.2539096470803
30
0
41
1
10
94.906293268559
20
-19.1563038282879
30
0
41
1
10
94.0021060096888
20
-19.0840007979503
30
0
41
1
10
92.1940397777258
20
-18.9248964255267
30
0
41
1
10
91.2901700734737
20
-18.8380880599426
30
0
41
1
10
89.9346923271216
20
-18.696845728852
30
0
41
1
10
89.4829094381012
20
-18.6479324709682
30
0
41
1
10
88.5791760568719
20
-18.5466757737894
30
0
41
1
10
88.1272422665654
20
-18.4943196758163
30
0
41
1
10
85.8672911648764
20
-18.2238861313607
30
0
41
1
10
84.0584161106214
20
-17.979961790802
30
0
41
1
10
81.7967764182609
20
-17.6395776680483
30
0
41
1
10
81.3444026596222
20
-17.5697411409551
30
0
41
1
10
80.4393199291335
20
-17.4268699550732
30
0
41
1
10
79.9866302866682
20
-17.3538123358148
30
0
41
1
10
79.0809756979199
20
-17.2044348074428
30
0
41
1
10
78.6280101338607
20
-17.1281156843845
30
0
41
1
10
77.7218155947982
20
-16.9721992888637
30
0
41
1
10
77.2685101906262
20
-16.8925883850072
30
0
41
1
10
75.9091457524983
20
-16.6489588881808
30
0
41
1
10
75.0034557408865
20
-16.4800951132386
30
0
41
1
10
73.6458034980469
20
-16.2170049596747
30
0
41
1
10
73.1933768033371
20
-16.1277109067219
30
0
41
1
10
72.2885403686394
20
-15.9463240853616
30
0
41
1
10
71.8361520392754
20
-15.8541971443852
30
0
41
1
10
70.4791063088709
20
-15.5734863406766
30
0
41
1
10
69.5745635590556
20
-15.3805842308784
30
0
41
1
10
67.7659047312611
20
-14.9830746988497
30
0
41
1
10
66.8618081137285
20
-14.778429949969
30
0
41
1
10
65.50604502463
20
-14.4625047481859
30
0
41
1
10
65.0541587237732
20
-14.355757167509
30
0
41
1
10
64.1502361505441
20
-14.1398252044119
30
0
41
1
10
63.6982226854659
20
-14.0305971518699
30
0
41
1
10
62.3420560554351
20
-13.6990818049296
30
0
41
1
10
61.437772016611
20
-13.4729765382325
30
0
41
1
10
59.628978477561
20
-13.0103265982224
30
0
41
1
10
58.7244924669604
20
-12.7737295358232
30
0
41
1
10
57.3676376090812
20
-12.4108283767062
30
0
41
1
10
56.9152976635379
20
-12.2886014748259
30
0
41
1
10
56.0103046981138
20
-12.0420973590487
30
0
41
1
10
55.5576749119029
20
-11.9177683968255
30
0
41
1
10
54.1994155370499
20
-11.5414927136418
30
0
41
1
10
53.2934113889895
20
-11.2862717487455
30
0
41
1
10
51.9337471419239
20
-10.8966530935524
30
0
41
1
10
51.480688894862
20
-10.7657236388546
30
0
41
1
10
50.5750067210352
20
-10.5017314719759
30
0
41
1
10
50.1223759784528
20
-10.3686435367159
30
0
41
1
10
49.2174887714394
20
-10.1004006598714
30
0
41
1
10
48.7652036965695
20
-9.96531942393807
30
0
41
1
10
47.8607699021239
20
-9.69371351782357
30
0
41
1
10
47.4086435349686
20
-9.55713112312543
30
0
41
1
10
46.0525617939471
20
-9.14498716669797
30
0
41
1
10
45.1488986869599
20
-8.86704373256035
30
0
41
1
10
43.794078882275
20
-8.44513607411034
30
0
41
1
10
43.3425858499103
20
-8.30366480520132
30
0
41
1
10
42.4398445008095
20
-8.01900196338931
30
0
41
1
10
41.9886058174948
20
-7.87578416990715
30
0
41
1
10
41.0863332056281
20
-7.58773203352243
30
0
41
1
10
40.6352678273101
20
-7.44298272553024
30
0
41
1
10
39.7331111723236
20
-7.15249951233326
30
0
41
1
10
39.2820421020343
20
-7.00670548558634
30
0
41
1
10
37.9288896118832
20
-6.56759920328429
30
0
41
1
10
37.0268559708398
20
-6.27257781229187
30
0
41
1
10
35.6739989829687
20
-5.82637033044537
30
0
41
1
10
35.2230799841133
20
-5.6770185391253
30
0
41
1
10
34.3213257879251
20
-5.37703144685875
30
0
41
1
10
33.8705012867633
20
-5.22636576657425
30
0
41
1
10
32.9688885471539
20
-4.92387973193553
30
0
41
1
10
32.5180670163054
20
-4.77215342346551
30
0
41
1
10
31.6162364100945
20
-4.46818504166941
30
0
41
1
10
31.1652491498627
20
-4.31588129928107
30
0
41
1
10
29.8120988857543
20
-3.8579382680627
30
0
41
1
10
28.9097426795501
20
-3.55128219831067
30
0
41
1
10
27.5559160266712
20
-3.08898891211371
30
0
41
1
10
27.1045928059694
20
-2.93450284467764
30
0
41
1
10
26.2018671831043
20
-2.62470213865345
30
0
41
1
10
25.7504763185337
20
-2.46935335063859
30
0
41
1
10
24.8475606517
20
-2.15798177084909
30
0
41
1
10
24.3960013889505
20
-2.00206051324031
30
0
41
1
10
23.4925384942066
20
-1.69016918658687
30
0
41
1
10
23.0406555820081
20
-1.53413805506398
30
0
41
1
10
21.6845792786205
20
-1.06571164090667
30
0
41
1
10
20.7799551532274
20
-0.75299427178328
30
0
41
1
10
18.969667319503
20
-0.126356818649981
30
0
41
1
10
18.0640037759228
20
0.187563492427984
30
0
41
1
10
17.1578831837649
20
0.502307202078981
30
0
0
SPLINE
5
BA
100
AcDbEntity
8
1
62
256
6
ByLayer
370
18
48
1
60
0
100
AcDbSpline
70
4
71
3
72
88
73
84
40
0
40
0
40
0
40
0
40
0.0624999999999985
40
0.0624999999999985
40
0.0937499999999978
40
0.0937499999999978
40
0.124999999999997
40
0.124999999999997
40
0.156249999999996
40
0.156249999999996
40
0.164062499999997
40
0.164062499999997
40
0.171874999999997
40
0.171874999999997
40
0.187499999999997
40
0.187499999999997
40
0.218749999999997
40
0.218749999999997
40
0.249999999999996
40
0.249999999999996
40
0.281249999999996
40
0.281249999999996
40
0.296874999999996
40
0.304687499999996
40
0.304687499999996
40
0.312499999999996
40
0.312499999999996
40
0.343749999999999
40
0.343749999999999
40
0.375000000000001
40
0.375000000000001
40
0.406250000000003
40
0.406250000000003
40
0.421875000000004
40
0.421875000000004
40
0.429687500000004
40
0.429687500000004
40
0.433593750000005
40
0.433593750000005
40
0.437500000000005
40
0.468750000000008
40
0.468750000000008
40
0.500000000000012
40
0.531250000000015
40
0.531250000000015
40
0.546875000000017
40
0.546875000000017
40
0.550781250000017
40
0.550781250000017
40
0.554687500000017
40
0.554687500000017
40
0.562500000000018
40
0.562500000000018
40
0.593750000000019
40
0.593750000000019
40
0.625000000000019
40
0.625000000000019
40
0.65625000000002
40
0.65625000000002
40
0.664062500000021
40
0.664062500000021
40
0.671875000000021
40
0.671875000000021
40
0.687500000000021
40
0.687500000000021
40
0.718750000000022
40
0.718750000000022
40
0.750000000000023
40
0.750000000000023
40
0.781250000000023
40
0.781250000000023
40
0.789062500000023
40
0.789062500000023
40
0.796875000000023
40
0.812500000000021
40
0.812500000000021
40
0.843750000000017
40
0.843750000000017
40
0.875000000000014
40
0.875000000000014
40
0.937500000000007
40
0.937500000000007
40
1
40
1
40
1
40
1
41
1
10
9.99999999999997
20
19.0741316654605
30
0
41
1
10
9.50038538737201
20
19.0228982781716
30
0
41
1
10
9.01983591758166
20
18.9592678335271
30
0
41
1
10
8.3275871810344
20
18.8403531793487
30
0
41
1
10
8.10161138446198
20
18.7967915660976
30
0
41
1
10
7.65935163159988
20
18.7008316625328
30
0
41
1
10
7.44306700388368
20
18.6484347701145
30
0
41
1
10
7.02044991567257
20
18.5336561957131
30
0
41
1
10
6.81411639419461
20
18.4712765578547
30
0
41
1
10
6.56267123792007
20
18.3862121793412
30
0
41
1
10
6.51270619111278
20
18.3688442029527
30
0
41
1
10
6.41343206938383
20
18.3333741474655
30
0
41
1
10
6.36408402689005
20
18.3152568436858
30
0
41
1
10
6.21749979996848
20
18.2599439069462
30
0
41
1
10
6.12162567108192
20
18.2217559025514
30
0
41
1
10
5.8395498675886
20
18.1030922529557
30
0
41
1
10
5.65888838335876
20
18.0185214461791
30
0
41
1
10
5.31249301456563
20
17.8375000743638
30
0
41
1
10
5.14675801619907
20
17.741051130455
30
0
41
1
10
4.83058132226327
20
17.535157354022
30
0
41
1
10
4.68013777007492
20
17.4257148489771
30
0
41
1
10
4.466412414692
20
17.2508018982836
30
0
41
1
10
4.36253804481558
20
17.1606552221704
30
0
41
1
10
4.26326870293175
20
17.0662538042188
30
0
41
1
10
4.19812880079773
20
17.0023471014797
30
0
41
1
10
4.16604536029976
20
16.9698725273485
30
0
41
1
10
4.00869822787482
20
16.8054507430317
30
0
41
1
10
3.89296433568015
20
16.6677505356858
30
0
41
1
10
3.68173488625372
20
16.3794615270022
30
0
41
1
10
3.58623840078907
20
16.2288738677442
30
0
41
1
10
3.41578125150895
20
15.9141130932146
30
0
41
1
10
3.34081864838549
20
15.749941573288
30
0
41
1
10
3.24429155025614
20
15.4928406360868
30
0
41
1
10
3.21477187203176
20
15.4053315258764
30
0
41
1
10
3.17457300118768
20
15.2712568046574
30
0
41
1
10
3.16185372265234
20
15.2260966011382
30
0
41
1
10
3.14380965652636
20
15.1576399547242
30
0
41
1
10
3.13796605286222
20
15.1346948018763
30
0
41
1
10
3.12665571194455
20
15.0886871180695
30
0
41
1
10
3.07742176973603
20
14.8809936279312
30
0
41
1
10
3.04304135431939
20
14.6673849274697
30
0
41
1
10
3.00482892310552
20
14.2783562893904
30
0
41
1
10
2.9895268715122
20
13.8800476709229
30
0
41
1
10
3.01978679541935
20
13.4631811921097
30
0
41
1
10
3.05978347042658
20
13.1435229988655
30
0
41
1
10
3.07600256474954
20
13.0358016898461
30
0
41
1
10
3.09993246323127
20
12.8996802004217
30
0
41
1
10
3.10490131120007
20
12.8723823991698
30
0
41
1
10
3.11520619920985
20
12.8176395184963
30
0
41
1
10
3.12054447522016
20
12.790184314116
30
0
41
1
10
3.13706897060946
20
12.7078079151726
30
0
41
1
10
3.14877625744727
20
12.6528122235539
30
0
41
1
10
3.21071910124867
20
12.3774548435571
30
0
41
1
10
3.27115677435236
20
12.1559561285864
30
0
41
1
10
3.41285004901057
20
11.7108319934198
30
0
41
1
10
3.49410857403403
20
11.4872063945461
30
0
41
1
10
3.67688484832503
20
11.0381367459383
30
0
41
1
10
3.77840454013563
20
10.8126925136855
30
0
41
1
10
3.91781088848859
20
10.5299527970316
30
0
41
1
10
3.94631818218703
20
10.4733581768863
30
0
41
1
10
4.00458353572574
20
10.3600808304344
30
0
41
1
10
4.03433525917067
20
10.3034133193475
30
0
41
1
10
4.12509251931613
20
10.13396388624
30
0
41
1
10
4.18771436194085
20
10.0215091826978
30
0
41
1
10
4.38172731154356
20
9.68568084437297
30
0
41
1
10
4.51925804518099
20
9.46384127995611
30
0
41
1
10
4.80983182286666
20
9.02430791177036
30
0
41
1
10
4.96287732657042
20
8.80661468378287
30
0
41
1
10
5.28384213586236
20
8.37547685637333
30
0
41
1
10
5.45176326303083
20
8.16203272686585
30
0
41
1
10
5.67065982182116
20
7.89796737971287
30
0
41
1
10
5.71491485510525
20
7.84526126791886
30
0
41
1
10
5.804201893174
20
7.74026247603121
30
0
41
1
10
5.93913210458018
20
7.58357710559071
30
0
41
1
10
6.07699892870109
20
7.42929172783292
30
0
41
1
10
6.35649716814906
20
7.12382839984815
30
0
41
1
10
6.54784510931584
20
6.92432718910933
30
0
41
1
10
6.93987534039657
20
6.53318090825124
30
0
41
1
10
7.14055899855668
20
6.34153686524004
30
0
41
1
10
7.75572299502946
20
5.77784278063743
30
0
41
1
10
8.18329736147243
20
5.41702513603911
30
0
41
1
10
9.06934178099742
20
4.72275694855676
30
0
41
1
10
9.52782187895313
20
4.38931240473713
30
0
41
1
10
10
20
4.0683265981057
30
0
0
SPLINE
5
BB
100
AcDbEntity
8
1
62
256
6
ByLayer
370
18
48
1
60
0
100
AcDbSpline
70
4
71
3
72
22
73
18
40
0
40
0
40
0
40
0
40
0.125
40
0.125
40
0.25
40
0.25
40
0.375
40
0.375
40
0.5
40
0.5
40
0.625
40
0.625
40
0.75
40
0.75
40
0.875
40
0.875
40
1
40
1
40
1
40
1
41
1
10
17.1578831837651
20
0.502307202078924
30
0
41
1
10
16.8412876438606
20
0.615771033373477
30
0
41
1
10
16.5272009159925
20
0.734140153738167
30
0
41
1
10
15.9036371328773
20
0.979813414400326
30
0
41
1
10
15.5941591774832
20
1.10711583751146
30
0
41
1
10
14.9795551446214
20
1.37008160477618
30
0
41
1
10
14.6744286351603
20
1.50574421231647
30
0
41
1
10
14.0684430819133
20
1.78520089596176
30
0
41
1
10
13.7675842238086
20
1.92899549648027
30
0
41
1
10
13.1702269845406
20
2.22483515884858
30
0
41
1
10
12.8737293014834
20
2.37688177731323
30
0
41
1
10
12.2853509429163
20
2.68966033860593
30
0
41
1
10
11.993471176851
20
2.85039426041914
30
0
41
1
10
11.4147233020617
20
3.1812425385433
30
0
41
1
10
11.1278559627263
20
3.3513586017904
30
0
41
1
10
10.5596391854172
20
3.70186859522383
30
0
41
1
10
10.2782900928332
20
3.88226341697825
30
0
41
1
10
9.99999999999999
20
4.06832659810573
30
0
0
SPLINE
5
BC
100
AcDbEntity
8
1
62
256
6
ByLayer
370
18
48
1
60
0
100
AcDbSpline
70
4
71
4
72
16
73
11
40
0
40
0
40
0
40
0
40
0
40
0.384336791669827
40
0.384336791669827
40
0.384336791669827
40
0.953931353371366
40
0.953931353371366
40
0.953931353371366
40
1
40
1
40
1
40
1
40
1
41
0.996542052833672
10
26.0402554698599
20
19.2374601381037
30
0
41
0.994684088283438
10
25.7609908203378
20
17.1542883832019
30
0
41
0.994551889503796
10
25.2861918352391
20
14.757327404866
30
0
41
1
10
24.6393220726128
20
12.3048195526081
30
0
41
1
10
22.9330847354182
20
6.86027419479592
30
0
41
0.988033871712585
10
21.5990693268126
20
3.46210876198602
30
0
41
1
10
20.2650539182069
20
1.23272743268455
30
0
41
1
10
19.1638556511855
20
0.10120651087081
30
0
41
0.999921723230423
10
19.082130031828
20
0.0227804822661067
30
0
41
0.999784162700047
10
19.0012700383563
20
-0.0490233607659925
30
0
41
0.999603239119324
10
18.921452616583
20
-0.11389727787194
30
0
0
SPLINE
5
BD
100
AcDbEntity
8
1
62
256
6
ByLayer
370
18
48
1
60
0
100
AcDbSpline
70
4
71
3
72
38
73
34
40
0
40
0
40
0
40
0
40
0.0624999999999986
40
0.0624999999999986
40
0.124999999999997
40
0.124999999999997
40
0.187499999999996
40
0.187499999999996
40
0.249999999999994
40
0.312499999999993
40
0.312499999999993
40
0.328124999999992
40
0.328124999999992
40
0.343749999999991
40
0.343749999999991
40
0.374999999999989
40
0.374999999999989
40
0.437499999999988
40
0.437499999999988
40
0.499999999999986
40
0.499999999999986
40
0.624999999999984
40
0.624999999999984
40
0.656249999999983
40
0.671874999999982
40
0.671874999999982
40
0.687499999999982
40
0.687499999999982
40
0.749999999999986
40
0.749999999999986
40
0.874999999999993
40
0.874999999999993
40
1
40
1
40
1
40
1
41
1
10
9.99999999999999
20
19.0741316654605
30
0
41
1
10
10.3032767714213
20
19.1154573773094
30
0
41
1
10
10.6104086744628
20
19.1519867223679
30
0
41
1
10
11.2320810180294
20
19.2171881560626
30
0
41
1
10
11.5466223061938
20
19.2458575396988
30
0
41
1
10
12.1829242177766
20
19.2967356011743
30
0
41
1
10
12.5046853860802
20
19.3189425897573
30
0
41
1
10
13.1553274781334
20
19.3580259929364
30
0
41
1
10
13.8130897901997
20
19.3917773289358
30
0
41
1
10
14.48504612872
20
19.4166720515729
30
0
41
1
10
14.9094819390401
20
19.4299005702192
30
0
41
1
10
14.9945924110443
20
19.432429256667
30
0
41
1
10
15.165261266037
20
19.4372616068825
30
0
41
1
10
15.2508584496062
20
19.4395662567429
30
0
41
1
10
15.5080684625034
20
19.4461485515373
30
0
41
1
10
15.6795928143794
20
19.4500825613752
30
0
41
1
10
16.1943157692265
20
19.460644016003
30
0
41
1
10
16.5376641825697
20
19.4660378835106
30
0
41
1
10
17.2247464134369
20
19.4740005100885
30
0
41
1
10
17.5684802674841
20
19.476568240006
30
0
41
1
10
18.6002424457098
20
19.4804159307026
30
0
41
1
10
19.288831315819
20
19.4779188458903
30
0
41
1
10
20.1504509316538
20
19.4684189692121
30
0
41
1
10
20.4090030934469
20
19.4650812978427
30
0
41
1
10
20.6676532078173
20
19.4609842229022
30
0
41
1
10
20.840108214678
20
19.4580800277136
30
0
41
1
10
20.9263947056395
20
19.4565406284143
30
0
41
1
10
21.3571784439264
20
19.4484145453685
30
0
41
1
10
21.6996637749503
20
19.4405473830155
30
0
41
1
10
22.7211548435957
20
19.4125012790381
30
0
41
1
10
23.3941967971237
20
19.3878962897385
30
0
41
1
10
24.7267831275633
20
19.3242731180844
30
0
41
1
10
25.3863418556275
20
19.28524498149
30
0
41
1
10
26.0402554698597
20
19.2374601381038
30
0
0
LINE
5
7B
100
AcDbEntity
8
4
62
256
6
ByLayer
370
18
48
0.05
60
0
100
AcDbLine
10
-5
20
0
30
0
11
396.5
21
0
31
0
39
0
210
0
220
0
230
1
0
LINE
5
7D
100
AcDbEntity
8
SK4
62
256
6
ByLayer
370
18
48
0.05
60
0
100
AcDbLine
10
-75
20
0
30
0
11
396.5
21
0
31
0
39
0
210
0
220
0
230
1
0
LINE
5
7F
100
AcDbEntity
8
80
62
256
6
ByLayer
370
18
48
1
60
0
100
AcDbLine
10
0
20
0
30
0
11
-5
21
0
31
0
39
0
210
0
220
0
230
1
0
LINE
5
80
100
AcDbEntity
8
1
62
256
6
ByLayer
370
18
48
1
60
0
100
AcDbLine
10
107.672245
20
19.65
30
0
11
10
21
19.65
31
0
39
0
210
0
220
0
230
1
0
LINE
5
81
100
AcDbEntity
8
1
62
256
6
ByLayer
370
18
48
1
60
0
100
AcDbLine
10
192.533542
20
-19.65
30
0
11
285.803656
21
-19.65
31
0
39
0
210
0
220
0
230
1
0
LINE
5
82
100
AcDbEntity
8
1
62
256
6
ByLayer
370
18
48
1
60
0
100
AcDbLine
10
285.803656
20
19.65
30
0
11
192.533542
21
19.65
31
0
39
0
210
0
220
0
230
1
0
LINE
5
83
100
AcDbEntity
8
1
62
256
6
ByLayer
370
18
48
1
60
0
100
AcDbLine
10
10
20
-19.65
30
0
11
107.672245
21
-19.65
31
0
39
0
210
0
220
0
230
1
0
LINE
5
84
100
AcDbEntity
8
1
62
256
6
ByLayer
370
18
48
1
60
0
100
AcDbLine
10
10
20
19.65
30
0
11
0
21
20
31
0
39
0
210
0
220
0
230
1
0
LINE
5
85
100
AcDbEntity
8
1
62
256
6
ByLayer
370
18
48
1
60
0
100
AcDbLine
10
0
20
-20
30
0
11
10
21
-19.65
31
0
39
0
210
0
220
0
230
1
0
LINE
5
86
100
AcDbEntity
8
1
62
256
6
ByLayer
370
18
48
1
60
0
100
AcDbLine
10
383.988564
20
20.6375
30
0
11
364.5
21
20.6375
31
0
39
0
210
0
220
0
230
1
0
LINE
5
87
100
AcDbEntity
8
1
62
256
6
ByLayer
370
18
48
1
60
0
100
AcDbLine
10
364.5
20
-20.6375
30
0
11
383.988564
21
-20.6375
31
0
39
0
210
0
220
0
230
1
0
LINE
5
88
100
AcDbEntity
8
SK1
62
256
6
ByLayer
370
18
48
1
60
0
100
AcDbLine
10
-69
20
-20
30
0
11
0
21
-20
31
0
39
0
210
0
220
0
230
1
0
LINE
5
8A
100
AcDbEntity
8
SK1
62
256
6
ByLayer
370
18
48
1
60
0
100
AcDbLine
10
0
20
20
30
0
11
-69
21
20
31
0
39
0
210
0
220
0
230
1
0
LINE
5
8B
100
AcDbEntity
8
1
62
256
6
ByLayer
370
18
48
1
60
0
100
AcDbLine
10
0
20
20
30
0
11
0
21
-20
31
0
39
0
210
0
220
0
230
1
0
LINE
5
8C
100
AcDbEntity
8
1
62
256
6
ByLayer
370
18
48
1
60
0
100
AcDbLine
10
10
20
19.65
30
0
11
10
21
19.074132
31
0
39
0
210
0
220
0
230
1
0
LINE
5
8D
100
AcDbEntity
8
1
62
256
6
ByLayer
370
18
48
1
60
0
100
AcDbLine
10
10
20
-19.65
30
0
11
10
21
4.068327
31
0
39
0
210
0
220
0
230
1
0
LINE
5
8E
100
AcDbEntity
8
SK1
62
256
6
ByLayer
370
18
48
1
60
0
100
AcDbLine
10
0
20
20
30
0
11
0
21
-20
31
0
39
0
210
0
220
0
230
1
0
LINE
5
8F
100
AcDbEntity
8
SK1
62
256
6
ByLayer
370
18
48
1
60
0
100
AcDbLine
10
-9.144737
20
-8.717798
30
0
11
-61.13497
21
-8.717798
31
0
39
0
210
0
220
0
230
1
0
LINE
5
90
100
AcDbEntity
8
SK1
62
256
6
ByLayer
370
18
48
1
60
0
100
AcDbLine
10
-61.13497
20
8.717798
30
0
11
-9.144737
21
8.717798
31
0
39
0
210
0
220
0
230
1
0
LINE
5
91
100
AcDbEntity
8
SK1
62
256
6
ByLayer
370
18
48
1
60
0
100
AcDbLine
10
-9.144737
20
-8.717798
30
0
11
-9.144737
21
8.717798
31
0
39
0
210
0
220
0
230
1
0
LINE
5
92
100
AcDbEntity
8
1
62
256
6
ByLayer
370
18
48
1
60
0
100
AcDbLine
10
364.5
20
20.6375
30
0
11
364.5
21
-20.6375
31
0
39
0
210
0
220
0
230
1
0
LINE
5
93
100
AcDbEntity
8
1
62
256
6
ByLayer
370
18
48
1
60
0
100
AcDbLine
10
364.5
20
20.6375
30
0
11
364.5
21
-20.6375
31
0
39
0
210
0
220
0
230
1
0
LINE
5
94
100
AcDbEntity
8
SK2
62
256
6
ByLayer
370
13
48
1
60
0
100
AcDbLine
10
-76.5
20
-20
30
0
11
-76.5
21
49.340455
31
0
39
0
210
0
220
0
230
1
0
LINE
5
96
100
AcDbEntity
8
SK2
62
256
6
ByLayer
370
13
48
1
60
0
100
AcDbLine
10
-71.5875
20
20
30
0
11
-78.5
21
20
31
0
39
0
210
0
220
0
230
1
0
LINE
5
97
100
AcDbEntity
8
SK2
62
256
6
ByLayer
370
13
48
1
60
0
100
AcDbLine
10
-71.5875
20
-20
30
0
11
-78.5
21
-20
31
0
39
0
210
0
220
0
230
1
0
LINE
5
98
100
AcDbEntity
8
1
62
256
6
ByLayer
370
18
48
1
60
1
100
AcDbLine
10
-76.5
20
20
30
0
11
-76.039216
21
16.500002
31
0
39
0
210
0
220
0
230
1
0
LINE
5
99
100
AcDbEntity
8
1
62
256
6
ByLayer
370
18
48
1
60
1
100
AcDbLine
10
-76.039216
20
16.500002
30
0
11
-76.960784
21
16.499998
31
0
39
0
210
0
220
0
230
1
0
LINE
5
9A
100
AcDbEntity
8
1
62
256
6
ByLayer
370
18
48
1
60
1
100
AcDbLine
10
-76.960784
20
16.499998
30
0
11
-76.5
21
20
31
0
39
0
210
0
220
0
230
1
0
LINE
5
9B
100
AcDbEntity
8
1
62
256
6
ByLayer
370
18
48
1
60
1
100
AcDbLine
10
-76.5
20
-20
30
0
11
-76.960784
21
-16.500002
31
0
39
0
210
0
220
0
230
1
0
LINE
5
9C
100
AcDbEntity
8
1
62
256
6
ByLayer
370
18
48
1
60
1
100
AcDbLine
10
-76.960784
20
-16.500002
30
0
11
-76.039216
21
-16.499998
31
0
39
0
210
0
220
0
230
1
0
LINE
5
9D
100
AcDbEntity
8
1
62
256
6
ByLayer
370
18
48
1
60
1
100
AcDbLine
10
-76.039216
20
-16.499998
30
0
11
-76.5
21
-20
31
0
39
0
210
0
220
0
230
1
0
LINE
5
9E
100
AcDbEntity
8
2
62
256
6
ByLayer
370
13
48
1
60
0
100
AcDbLine
10
399
20
-20.6375
30
0
11
399
21
49.228069
31
0
39
0
210
0
220
0
230
1
0
LINE
5
A0
100
AcDbEntity
8
2
62
256
6
ByLayer
370
13
48
1
60
0
100
AcDbLine
10
385.576064
20
20.6375
30
0
11
401
21
20.6375
31
0
39
0
210
0
220
0
230
1
0
LINE
5
A1
100
AcDbEntity
8
2
62
256
6
ByLayer
370
13
48
1
60
0
100
AcDbLine
10
385.576064
20
-20.6375
30
0
11
401
21
-20.6375
31
0
39
0
210
0
220
0
230
1
0
LINE
5
A2
100
AcDbEntity
8
1
62
256
6
ByLayer
370
18
48
1
60
1
100
AcDbLine
10
399
20
20.6375
30
0
11
399.460784
21
17.137502
31
0
39
0
210
0
220
0
230
1
0
LINE
5
A3
100
AcDbEntity
8
1
62
256
6
ByLayer
370
18
48
1
60
1
100
AcDbLine
10
399.460784
20
17.137502
30
0
11
398.539216
21
17.137498
31
0
39
0
210
0
220
0
230
1
0
LINE
5
A4
100
AcDbEntity
8
1
62
256
6
ByLayer
370
18
48
1
60
1
100
AcDbLine
10
398.539216
20
17.137498
30
0
11
399
21
20.6375
31
0
39
0
210
0
220
0
230
1
0
LINE
5
A5
100
AcDbEntity
8
1
62
256
6
ByLayer
370
18
48
1
60
1
100
AcDbLine
10
399
20
-20.6375
30
0
11
398.539216
21
-17.137502
31
0
39
0
210
0
220
0
230
1
0
LINE
5
A6
100
AcDbEntity
8
1
62
256
6
ByLayer
370
18
48
1
60
1
100
AcDbLine
10
398.539216
20
-17.137502
30
0
11
399.460784
21
-17.137498
31
0
39
0
210
0
220
0
230
1
0
LINE
5
A7
100
AcDbEntity
8
1
62
256
6
ByLayer
370
18
48
1
60
1
100
AcDbLine
10
399.460784
20
-17.137498
30
0
11
399
21
-20.6375
31
0
39
0
210
0
220
0
230
1
0
LINE
5
A8
100
AcDbEntity
8
SK2
62
256
6
ByLayer
370
13
48
1
60
0
100
AcDbLine
10
392.042957
20
-1.491762
30
0
11
398.682423
21
-19.733545
31
0
39
0
210
0
220
0
230
1
0
LINE
5
A9
100
AcDbEntity
8
SK2
62
256
6
ByLayer
370
13
48
1
60
0
100
AcDbLine
10
392.042957
20
1.491762
30
0
11
398.682423
21
19.733545
31
0
39
0
210
0
220
0
230
1
0
LINE
5
AA
100
AcDbEntity
8
1
62
256
6
ByLayer
370
18
48
1
60
1
100
AcDbLine
10
397.998383
20
-17.85416
30
0
11
401.051575
21
-16.082064
31
0
39
0
210
0
220
0
230
1
0
LINE
5
AB
100
AcDbEntity
8
1
62
256
6
ByLayer
370
18
48
1
60
1
100
AcDbLine
10
401.051575
20
-16.082064
30
0
11
401.406196
21
-16.93267
31
0
39
0
210
0
220
0
230
1
0
LINE
5
AC
100
AcDbEntity
8
1
62
256
6
ByLayer
370
18
48
1
60
1
100
AcDbLine
10
401.406196
20
-16.93267
30
0
11
397.998383
21
-17.85416
31
0
39
0
210
0
220
0
230
1
0
LINE
5
AD
100
AcDbEntity
8
1
62
256
6
ByLayer
370
18
48
1
60
1
100
AcDbLine
10
397.998383
20
17.85416
30
0
11
401.406193
21
16.932671
31
0
39
0
210
0
220
0
230
1
0
LINE
5
AE
100
AcDbEntity
8
1
62
256
6
ByLayer
370
18
48
1
60
1
100
AcDbLine
10
401.406193
20
16.932671
30
0
11
401.051579
21
16.082063
31
0
39
0
210
0
220
0
230
1
0
LINE
5
AF
100
AcDbEntity
8
1
62
256
6
ByLayer
370
18
48
1
60
1
100
AcDbLine
10
401.051579
20
16.082063
30
0
11
397.998383
21
17.85416
31
0
39
0
210
0
220
0
230
1
0
LINE
5
C2
100
AcDbEntity
8
1
62
256
6
ByLayer
370
18
48
1
60
1
100
AcDbLine
10
-76.5
20
20
30
0
11
-76.039216
21
16.500002
31
0
39
0
210
0
220
0
230
1
0
LINE
5
C3
100
AcDbEntity
8
1
62
256
6
ByLayer
370
18
48
1
60
1
100
AcDbLine
10
-76.039216
20
16.500002
30
0
11
-76.960784
21
16.499998
31
0
39
0
210
0
220
0
230
1
0
LINE
5
C4
100
AcDbEntity
8
1
62
256
6
ByLayer
370
18
48
1
60
1
100
AcDbLine
10
-76.960784
20
16.499998
30
0
11
-76.5
21
20
31
0
39
0
210
0
220
0
230
1
0
LINE
5
C6
100
AcDbEntity
8
1
62
256
6
ByLayer
370
18
48
1
60
1
100
AcDbLine
10
-76.5
20
-20
30
0
11
-76.960784
21
-16.500002
31
0
39
0
210
0
220
0
230
1
0
LINE
5
C7
100
AcDbEntity
8
1
62
256
6
ByLayer
370
18
48
1
60
1
100
AcDbLine
10
-76.960784
20
-16.500002
30
0
11
-76.039216
21
-16.499998
31
0
39
0
210
0
220
0
230
1
0
LINE
5
C8
100
AcDbEntity
8
1
62
256
6
ByLayer
370
18
48
1
60
1
100
AcDbLine
10
-76.039216
20
-16.499998
30
0
11
-76.5
21
-20
31
0
39
0
210
0
220
0
230
1
0
LINE
5
CC
100
AcDbEntity
8
1
62
256
6
ByLayer
370
18
48
1
60
1
100
AcDbLine
10
399
20
20.6375
30
0
11
399.460784
21
17.137502
31
0
39
0
210
0
220
0
230
1
0
LINE
5
CD
100
AcDbEntity
8
1
62
256
6
ByLayer
370
18
48
1
60
1
100
AcDbLine
10
399.460784
20
17.137502
30
0
11
398.539216
21
17.137498
31
0
39
0
210
0
220
0
230
1
0
LINE
5
CE
100
AcDbEntity
8
1
62
256
6
ByLayer
370
18
48
1
60
1
100
AcDbLine
10
398.539216
20
17.137498
30
0
11
399
21
20.6375
31
0
39
0
210
0
220
0
230
1
0
LINE
5
D0
100
AcDbEntity
8
1
62
256
6
ByLayer
370
18
48
1
60
1
100
AcDbLine
10
399
20
-20.6375
30
0
11
398.539216
21
-17.137502
31
0
39
0
210
0
220
0
230
1
0
LINE
5
D1
100
AcDbEntity
8
1
62
256
6
ByLayer
370
18
48
1
60
1
100
AcDbLine
10
398.539216
20
-17.137502
30
0
11
399.460784
21
-17.137498
31
0
39
0
210
0
220
0
230
1
0
LINE
5
D2
100
AcDbEntity
8
1
62
256
6
ByLayer
370
18
48
1
60
1
100
AcDbLine
10
399.460784
20
-17.137498
30
0
11
399
21
-20.6375
31
0
39
0
210
0
220
0
230
1
0
LINE
5
D5
100
AcDbEntity
8
1
62
256
6
ByLayer
370
18
48
1
60
1
100
AcDbLine
10
397.998383
20
-17.85416
30
0
11
401.051575
21
-16.082064
31
0
39
0
210
0
220
0
230
1
0
LINE
5
D6
100
AcDbEntity
8
1
62
256
6
ByLayer
370
18
48
1
60
1
100
AcDbLine
10
401.051575
20
-16.082064
30
0
11
401.406196
21
-16.93267
31
0
39
0
210
0
220
0
230
1
0
LINE
5
D7
100
AcDbEntity
8
1
62
256
6
ByLayer
370
18
48
1
60
1
100
AcDbLine
10
401.406196
20
-16.93267
30
0
11
397.998383
21
-17.85416
31
0
39
0
210
0
220
0
230
1
0
LINE
5
D9
100
AcDbEntity
8
1
62
256
6
ByLayer
370
18
48
1
60
1
100
AcDbLine
10
397.998383
20
17.85416
30
0
11
401.406193
21
16.932671
31
0
39
0
210
0
220
0
230
1
0
LINE
5
DA
100
AcDbEntity
8
1
62
256
6
ByLayer
370
18
48
1
60
1
100
AcDbLine
10
401.406193
20
16.932671
30
0
11
401.051579
21
16.082063
31
0
39
0
210
0
220
0
230
1
0
LINE
5
DB
100
AcDbEntity
8
1
62
256
6
ByLayer
370
18
48
1
60
1
100
AcDbLine
10
401.051579
20
16.082063
30
0
11
397.998383
21
17.85416
31
0
39
0
210
0
220
0
230
1
0
MTEXT
5
BE
100
AcDbEntity
8
SK2
62
256
6
ByLayer
370
18
48
1
60
0
100
AcDbMText
10
-77.841114
20
31.658438
30
0
210
0
220
0
230
1
1
%%c
40
3
41
0
44
1.084337
50
90
71
7
72
5
7
iso_b_vert
0
MTEXT
5
C1
100
AcDbEntity
8
SK2
62
256
6
ByLayer
370
18
48
1
60
0
100
AcDbMText
10
-77.841114
20
37.635
30
0
210
0
220
0
230
1
1
\W0.7728;40.000
40
3
41
0
44
1.084337
50
90
71
7
72
5
7
iso_b_vert
0
MTEXT
5
CA
100
AcDbEntity
8
2
62
256
6
ByLayer
370
18
48
1
60
0
100
AcDbMText
10
397.658886
20
32.295937
30
0
210
0
220
0
230
1
1
%%c
40
3
41
0
44
1.084337
50
90
71
7
72
5
7
iso_b_vert
0
MTEXT
5
CB
100
AcDbEntity
8
2
62
256
6
ByLayer
370
18
48
1
60
0
100
AcDbMText
10
397.658886
20
38.2725
30
0
210
0
220
0
230
1
1
\W0.7237;41.275
40
3
41
0
44
1.084337
50
90
71
7
72
5
7
iso_b_vert
0
MTEXT
5
D4
100
AcDbEntity
8
SK2
62
256
6
ByLayer
370
18
48
1
60
0
100
AcDbMText
10
411.409114
20
3.734657
30
0
210
0
220
0
230
1
1
\W0.7071;140%%d
40
3
41
0
44
1.084337
50
270
71
7
72
5
7
iso_b_vert
0
MTEXT
5
DD
100
AcDbEntity
8
SK6
62
256
6
ByLayer
370
18
48
1
60
0
100
AcDbMText
10
135.434419
20
-67.114886
30
0
210
0
220
0
230
1
1
\W0.7694;H85842.5
40
3
41
0
44
1.084337
50
0
71
7
72
5
7
iso_b_vert
0
HATCH
5
C5
100
AcDbEntity
8
SK2
62
256
6
ByLayer
370
13
48
1
60
0
100
AcDbHatch
10
0
20
0
30
0
210
0
220
0
230
1
2
ANSI31
70
0
71
0
91
1
92
5
93
3
72
1
10
-76.5
20
20
11
-76.0392162584472
21
16.5000016925532
72
1
10
-76.0392162584472
20
16.5000016925532
11
-76.9607837415528
21
16.4999983074468
72
1
10
-76.9607837415528
20
16.4999983074468
11
-76.5
21
20
97
0
75
0
76
1
52
0
41
0.0062
77
0
78
1
53
45
43
0
44
0
45
-0.0139193969876572
46
0.0139193969876572
79
0
47
0
98
1
10
0
20
0
0
HATCH
5
C9
100
AcDbEntity
8
SK2
62
256
6
ByLayer
370
13
48
1
60
0
100
AcDbHatch
10
0
20
0
30
0
210
0
220
0
230
1
2
ANSI31
70
0
71
0
91
1
92
5
93
3
72
1
10
-76.5
20
-20
11
-76.9607837415528
21
-16.5000016925532
72
1
10
-76.9607837415528
20
-16.5000016925532
11
-76.0392162584472
21
-16.4999983074468
72
1
10
-76.0392162584472
20
-16.4999983074468
11
-76.5
21
-20
97
0
75
0
76
1
52
0
41
0.0062
77
0
78
1
53
45
43
0
44
0
45
-0.0139193969876572
46
0.0139193969876572
79
0
47
0
98
1
10
0
20
0
0
HATCH
5
CF
100
AcDbEntity
8
2
62
256
6
ByLayer
370
13
48
1
60
0
100
AcDbHatch
10
0
20
0
30
0
210
0
220
0
230
1
2
ANSI31
70
0
71
0
91
1
92
5
93
3
72
1
10
399
20
20.6375
11
399.460783741553
21
17.1375016925532
72
1
10
399.460783741553
20
17.1375016925532
11
398.539216258447
21
17.1374983074468
72
1
10
398.539216258447
20
17.1374983074468
11
399
21
20.6375
97
0
75
0
76
1
52
0
41
0.0062
77
0
78
1
53
45
43
0
44
0
45
-0.0139193969876572
46
0.0139193969876572
79
0
47
0
98
1
10
0
20
0
0
HATCH
5
D3
100
AcDbEntity
8
2
62
256
6
ByLayer
370
13
48
1
60
0
100
AcDbHatch
10
0
20
0
30
0
210
0
220
0
230
1
2
ANSI31
70
0
71
0
91
1
92
5
93
3
72
1
10
399
20
-20.6375
11
398.539216258447
21
-17.1375016925532
72
1
10
398.539216258447
20
-17.1375016925532
11
399.460783741553
21
-17.1374983074468
72
1
10
399.460783741553
20
-17.1374983074468
11
399
21
-20.6375
97
0
75
0
76
1
52
0
41
0.0062
77
0
78
1
53
45
43
0
44
0
45
-0.0139193969876572
46
0.0139193969876572
79
0
47
0
98
1
10
0
20
0
0
HATCH
5
D8
100
AcDbEntity
8
SK2
62
256
6
ByLayer
370
13
48
1
60
0
100
AcDbHatch
10
0
20
0
30
0
210
0
220
0
230
1
2
ANSI31
70
0
71
0
91
1
92
5
93
3
72
1
10
397.998382723188
20
-17.8541597949323
11
401.051575425693
21
-16.0820638240607
72
1
10
401.051575425693
20
-16.0820638240607
11
401.406195833975
21
-16.9326700737196
72
1
10
401.406195833975
20
-16.9326700737196
11
397.998382723188
21
-17.8541597949323
97
0
75
0
76
1
52
0
41
0.0062
77
0
78
1
53
45
43
0
44
0
45
-0.0139193969876572
46
0.0139193969876572
79
0
47
0
98
1
10
0
20
0
0
HATCH
5
DC
100
AcDbEntity
8
SK2
62
256
6
ByLayer
370
13
48
1
60
0
100
AcDbHatch
10
0
20
0
30
0
210
0
220
0
230
1
2
ANSI31
70
0
71
0
91
1
92
5
93
3
72
1
10
397.998382723188
20
17.8541597949323
11
401.406192709519
21
16.9326713763017
72
1
10
401.406192709519
20
16.9326713763017
11
401.051578550149
21
16.0820625214788
72
1
10
401.051578550149
20
16.0820625214788
11
397.998382723188
21
17.8541597949323
97
0
75
0
76
1
52
0
41
0.0062
77
0
78
1
53
45
43
0
44
0
45
-0.0139193969876572
46
0.0139193969876572
79
0
47
0
98
1
10
0
20
0
0
DIMENSION
5
E0
100
AcDbEntity
8
SK2
62
256
6
ByLayer
370
18
48
1
60
0
100
AcDbDimension
2
_U0
10
391.5
20
-54.488248
30
0
11
160.75
21
-54.488248
31
0
70
32
71
1
72
1
41
1
210
0
220
0
230
1
3
Standard
100
AcDbAlignedDimension
13
-70
23
-20
33
0
14
391.5
24
0
34
0
50
0
100
AcDbRotatedDimension
1001
ACAD
1000
DSTYLE
1002
{
1070
   371
1070
    13
1070
   372
1070
    13
1070
     3
1000

1070
   170
1070
     0
1070
   144
1040
1.0
1070
   277
1070
     2
1070
   284
1070
     8
1070
   278
1070
    46
1070
   146
1040
1.166667
1070
   345
1005
16
1070
   347
1005
16
1070
   346
1005
16
1070
   344
1005
0
1070
   343
1005
0
1070
   172
1070
     1
1070
    76
1070
     0
1070
    75
1070
     0
1070
   282
1070
     0
1070
   281
1070
     0
1070
    71
1070
     0
1070
    74
1070
     0
1070
   279
1070
     0
1070
   173
1070
     1
1070
   340
1005
BF
1070
   271
1070
     2
1070
   272
1070
     3
1070
    77
1070
     1
1070
    73
1070
     1
1070
   171
1070
     3
1070
   274
1070
     4
1070
   177
1070
     2
1070
   176
1070
     2
1070
   178
1070
     2
1070
    78
1070
     8
1070
    48
1040
-0.1
1070
    41
1040
3.5
1070
   147
1040
1.5
1070
    42
1040
1.5875
1070
    44
1040
2.0
1070
   140
1040
3.0
1002
}
1001
ACAD_DSTYLE_DIM_LINETYPE
1070
   380
1005
16
1001
ACAD_DSTYLE_DIM_EXT1_LINETYPE
1070
   381
1005
16
1001
ACAD_DSTYLE_DIM_EXT2_LINETYPE
1070
   382
1005
16
0
DIMENSION
5
F9
100
AcDbEntity
8
SK2
62
256
6
ByLayer
370
18
48
1
60
0
100
AcDbDimension
2
_U1
10
3
20
-44.488248
30
0
11
197.25
21
-44.488248
31
0
70
32
71
1
72
1
41
1
210
0
220
0
230
1
3
Standard
100
AcDbAlignedDimension
13
391.5
23
0
33
0
14
3
24
-20.6375
34
0
50
0
100
AcDbRotatedDimension
1001
ACAD
1000
DSTYLE
1002
{
1070
   371
1070
    13
1070
   372
1070
    13
1070
     3
1000

1070
   170
1070
     0
1070
   144
1040
1.0
1070
   277
1070
     2
1070
   284
1070
     8
1070
   278
1070
    46
1070
   146
1040
1.166667
1070
   345
1005
16
1070
   347
1005
16
1070
   346
1005
16
1070
   344
1005
0
1070
   343
1005
0
1070
   172
1070
     1
1070
    76
1070
     0
1070
    75
1070
     0
1070
   282
1070
     0
1070
   281
1070
     0
1070
    71
1070
     0
1070
    74
1070
     0
1070
   279
1070
     0
1070
   173
1070
     1
1070
   340
1005
BF
1070
   271
1070
     2
1070
   272
1070
     3
1070
    77
1070
     1
1070
    73
1070
     1
1070
   171
1070
     3
1070
   274
1070
     4
1070
   177
1070
     2
1070
   176
1070
     2
1070
   178
1070
     2
1070
    78
1070
     8
1070
    48
1040
-0.1
1070
    41
1040
3.5
1070
   147
1040
1.5
1070
    42
1040
1.5875
1070
    44
1040
2.0
1070
   140
1040
3.0
1002
}
1001
ACAD_DSTYLE_DIM_LINETYPE
1070
   380
1005
16
1001
ACAD_DSTYLE_DIM_EXT1_LINETYPE
1070
   381
1005
16
1001
ACAD_DSTYLE_DIM_EXT2_LINETYPE
1070
   382
1005
16
0
DIMENSION
5
111
100
AcDbEntity
8
SK2
62
256
6
ByLayer
370
18
48
1
60
0
100
AcDbDimension
2
_U2
10
0
20
-44.488248
30
0
11
-35
21
-44.488248
31
0
70
32
71
1
72
1
41
1
210
0
220
0
230
1
3
Standard
100
AcDbAlignedDimension
13
-70
23
-20
33
0
14
0
24
-20
34
0
50
0
100
AcDbRotatedDimension
1001
ACAD
1000
DSTYLE
1002
{
1070
   371
1070
    13
1070
   372
1070
    13
1070
     3
1000

1070
   170
1070
     0
1070
   144
1040
1.0
1070
   277
1070
     2
1070
   284
1070
     8
1070
   278
1070
    46
1070
   146
1040
1.166667
1070
   345
1005
16
1070
   347
1005
16
1070
   346
1005
16
1070
   344
1005
0
1070
   343
1005
0
1070
   172
1070
     1
1070
    76
1070
     0
1070
    75
1070
     0
1070
   282
1070
     0
1070
   281
1070
     0
1070
    71
1070
     0
1070
    74
1070
     0
1070
   279
1070
     0
1070
   173
1070
     1
1070
   340
1005
BF
1070
   271
1070
     2
1070
   272
1070
     3
1070
    77
1070
     1
1070
    73
1070
     1
1070
   171
1070
     3
1070
   274
1070
     4
1070
   177
1070
     2
1070
   176
1070
     2
1070
   178
1070
     2
1070
    78
1070
     8
1070
    48
1040
-0.1
1070
    41
1040
3.5
1070
   147
1040
1.5
1070
    42
1040
1.5875
1070
    44
1040
2.0
1070
   140
1040
3.0
1002
}
1001
ACAD_DSTYLE_DIM_LINETYPE
1070
   380
1005
16
1001
ACAD_DSTYLE_DIM_EXT1_LINETYPE
1070
   381
1005
16
1001
ACAD_DSTYLE_DIM_EXT2_LINETYPE
1070
   382
1005
16
0
DIMENSION
5
129
100
AcDbEntity
8
SK2
62
256
6
ByLayer
370
18
48
1
60
0
100
AcDbDimension
2
_U3
10
30
20
41.488248
30
0
11
210.75
21
41.488248
31
0
70
32
71
1
72
1
41
1
210
0
220
0
230
1
3
Standard
100
AcDbAlignedDimension
13
391.5
23
0
33
0
14
30
24
20.6375
34
0
50
0
100
AcDbRotatedDimension
1001
ACAD
1000
DSTYLE
1002
{
1070
   371
1070
    13
1070
   372
1070
    13
1070
     3
1000

1070
   170
1070
     0
1070
   144
1040
1.0
1070
   277
1070
     2
1070
   284
1070
     8
1070
   278
1070
    46
1070
   146
1040
1.166667
1070
   345
1005
16
1070
   347
1005
16
1070
   346
1005
16
1070
   344
1005
0
1070
   343
1005
0
1070
   172
1070
     1
1070
    76
1070
     0
1070
    75
1070
     0
1070
   282
1070
     0
1070
   281
1070
     0
1070
    71
1070
     0
1070
    74
1070
     0
1070
   279
1070
     0
1070
   173
1070
     1
1070
   340
1005
BF
1070
   271
1070
     2
1070
   272
1070
     3
1070
    77
1070
     1
1070
    73
1070
     1
1070
   171
1070
     3
1070
   274
1070
     4
1070
   177
1070
     2
1070
   176
1070
     2
1070
   178
1070
     2
1070
    78
1070
     8
1070
    48
1040
-0.1
1070
    41
1040
3.5
1070
   147
1040
1.5
1070
    42
1040
1.5875
1070
    44
1040
2.0
1070
   140
1040
3.0
1002
}
1001
ACAD_DSTYLE_DIM_LINETYPE
1070
   380
1005
16
1001
ACAD_DSTYLE_DIM_EXT1_LINETYPE
1070
   381
1005
16
1001
ACAD_DSTYLE_DIM_EXT2_LINETYPE
1070
   382
1005
16
0
ENDSEC
0
SECTION
2
OBJECTS
0
DICTIONARY
5
1b1
330
0
100
AcDbDictionary
280
0
281
1
3
ACAD_GROUP
350
1b2
3
ACAD_MLINESTYLE
350
1b3
0
DICTIONARY
5
1b2
330
0
100
AcDbDictionary
280
0
281
1
0
DICTIONARY
5
1b3
330
0
100
AcDbDictionary
280
0
281
1
3
Standard
350
18
0
MLINESTYLE
5
18
330
1b3
100
AcDbMlineStyle
2
Standard
70
0
3

62
256
51
90
52
90
71
2
49
-0.5
62
256
6
ByLayer
49
0.5
62
256
6
ByLayer
0
RASTERVARIABLES
5
19f
330

100
AcDbRasterVariables
90
0
70
1
71
1
72
1
0
ENDSEC
0
EOF
