0
SECTION
2
HEADER
9
$ACADVER
1
AC1015
9
$DWGCODEPAGE
3
ANSI_1252
9
$HANDSEED
5
1c8
9
$ANGBASE
50
0
9
$ANGDIR
70
0
9
$ATTMODE
70
1
9
$AUNITS
70
0
9
$AUPREC
70
0
9
$CECOLOR
62
256
9
$CELTSCALE
40
1
9
$CELTYPE
6
ByLayer
9
$CELWEIGHT
370
18
9
$CLAYER
8
0
9
$CMLJUST
70
0
9
$CMLSCALE
40
1
9
$CMLSTYLE
2
Standard
9
$DIMSTYLE
2
Standard
9
$TEXTSIZE
40
0.2
9
$TEXTSTYLE
7
Standard
9
$LUNITS
70
2
9
$LUPREC
70
4
9
$EXTNAMES
290
1
9
$INSUNITS
70
4
9
$LTSCALE
40
1
9
$LWDISPLAY
290
1
9
$PDMODE
70
0
9
$PDSIZE
40
0
9
$PLINEGEN
70
0
0
ENDSEC
0
SECTION
2
CLASSES
0
CLASS
1
RASTERVARIABLES
2
AcDbRasterVariables
3
ISM
90
0
280
0
281
0
0
ENDSEC
0
SECTION
2
TABLES
0
TABLE
2
VPORT
5
1be
100
AcDbSymbolTable
0
VPORT
5
1
100
AcDbSymbolTableRecord
100
AcDbViewportTableRecord
2
*Active
70
0
10
0
20
0
11
1
21
1
12
-1
22
1
13
0
23
0
14
0.5
24
0.5
15
10
25
10
16
0
26
0
36
1
17
0
27
0
37
0
0
ENDTAB
0
TABLE
2
LTYPE
5
1bf
100
AcDbSymbolTable
0
LTYPE
5
14
100
AcDbSymbolTableRecord
100
AcDbLinetypeTableRecord
70
0
2
ByBlock
3

72
65
73
0
40
0
0
LTYPE
5
15
100
AcDbSymbolTableRecord
100
AcDbLinetypeTableRecord
70
0
2
ByLayer
3

72
65
73
0
40
0
0
LTYPE
5
16
100
AcDbSymbolTableRecord
100
AcDbLinetypeTableRecord
70
0
2
Continuous
3
Solid line
72
65
73
0
40
0
0
LTYPE
5
6E
100
AcDbSymbolTableRecord
100
AcDbLinetypeTableRecord
70
0
2
CENTER
3
____ _ ____ _ ____ _ ____
72
65
73
4
40
47.5
49
22
74
0
49
-8.5
74
0
49
8.5
74
0
49
-8.5
74
0
0
LTYPE
5
6F
100
AcDbSymbolTableRecord
100
AcDbLinetypeTableRecord
70
0
2
DASHED
3
__ __ __ __ __ __ __ __ __
72
65
73
2
40
25.72
49
12.86
74
0
49
-12.86
74
0
0
ENDTAB
0
TABLE
2
LAYER
5
1c0
100
AcDbSymbolTable
0
LAYER
5
10
100
AcDbSymbolTableRecord
100
AcDbLayerTableRecord
2
0
70
0
62
7
6
Continuous
290
1
370
-3
390
0
0
LAYER
5
71
100
AcDbSymbolTableRecord
100
AcDbLayerTableRecord
2
80
70
0
62
-6
6
Continuous
290
1
370
-3
390
0
0
LAYER
5
73
100
AcDbSymbolTableRecord
100
AcDbLayerTableRecord
2
1
70
0
62
4
6
Continuous
290
1
370
-3
390
0
0
LAYER
5
7F
100
AcDbSymbolTableRecord
100
AcDbLayerTableRecord
2
4
70
0
62
-2
6
CENTER
290
1
370
-3
390
0
0
LAYER
5
A8
100
AcDbSymbolTableRecord
100
AcDbLayerTableRecord
2
2
70
0
62
7
6
Continuous
290
1
370
-3
390
0
0
LAYER
5
ED
100
AcDbSymbolTableRecord
100
AcDbLayerTableRecord
2
Defpoints
70
0
62
7
6
Continuous
290
0
370
-3
390
0
0
LAYER
5
1aa
100
AcDbSymbolTableRecord
100
AcDbLayerTableRecord
2
SK4
70
0
62
2
6
CENTER
290
1
370
-3
390
0
0
LAYER
5
1ab
100
AcDbSymbolTableRecord
100
AcDbLayerTableRecord
2
SK1
70
0
62
4
6
Continuous
290
1
370
-3
390
0
0
LAYER
5
1ac
100
AcDbSymbolTableRecord
100
AcDbLayerTableRecord
2
SK2
70
0
62
7
6
Continuous
290
1
370
-3
390
0
0
LAYER
5
1ad
100
AcDbSymbolTableRecord
100
AcDbLayerTableRecord
2
SK6
70
0
62
5
6
Continuous
290
1
370
-3
390
0
0
ENDTAB
0
TABLE
2
STYLE
5
1c1
100
AcDbSymbolTable
0
STYLE
5
11
100
AcDbSymbolTableRecord
100
AcDbTextStyleTableRecord
2
Standard
3
txt
70
0
71
0
40
0
41
1
42
0
50
0
0
STYLE
5
C9
100
AcDbSymbolTableRecord
100
AcDbTextStyleTableRecord
2
iso_b_vert
3
simplex.shx
70
0
71
0
40
0
41
1
42
0
50
0
0
STYLE
5
CA
100
AcDbSymbolTableRecord
100
AcDbTextStyleTableRecord
2
DWGDirectTextStyle
3
simplex
70
0
71
0
40
0
41
1
42
0
50
0
0
ENDTAB
0
TABLE
2
DIMSTYLE
5
1c2
100
AcDbSymbolTable
100
AcDbDimStyleTable
0
DIMSTYLE
105
27
100
AcDbSymbolTableRecord
100
AcDbDimStyleTableRecord
2
Standard
70
0
3
<>
41
0.18
42
0.0625
44
0.18
140
0.18
147
0.09
73
0
74
0
77
1
271
2
275
0
278
52
280
0
340
11
0
ENDTAB
0
TABLE
2
VIEW
5
1c3
100
AcDbSymbolTable
0
ENDTAB
0
TABLE
2
UCS
5
1c4
100
AcDbSymbolTable
0
ENDTAB
0
TABLE
2
APPID
5
1c5
100
AcDbSymbolTable
0
APPID
5
12
100
AcDbSymbolTableRecord
100
AcDbRegAppTableRecord
2
ACAD
70
0
0
APPID
5
E9
100
AcDbSymbolTableRecord
100
AcDbRegAppTableRecord
2
ACAD_DSTYLE_DIMBREAK
70
0
0
APPID
5
169
100
AcDbSymbolTableRecord
100
AcDbRegAppTableRecord
2
ACAD_DSTYLE_DIM_LINETYPE
70
0
0
APPID
5
16A
100
AcDbSymbolTableRecord
100
AcDbRegAppTableRecord
2
ACAD_DSTYLE_DIM_EXT1_LINETYPE
70
0
0
APPID
5
16B
100
AcDbSymbolTableRecord
100
AcDbRegAppTableRecord
2
ACAD_DSTYLE_DIM_EXT2_LINETYPE
70
0
0
APPID
5
1A6
100
AcDbSymbolTableRecord
100
AcDbRegAppTableRecord
2
ACAD_MLEADERVER
70
0
0
ENDTAB
0
TABLE
2
BLOCK_RECORD
5
1c6
100
AcDbSymbolTable
0
BLOCK_RECORD
5
1F
100
AcDbSymbolTableRecord
100
AcDbBlockTableRecord
2
*Model_Space
340
0
70
0
0
BLOCK_RECORD
5
1B
100
AcDbSymbolTableRecord
100
AcDbBlockTableRecord
2
*Paper_Space
340
0
70
0
0
BLOCK_RECORD
5
23
100
AcDbSymbolTableRecord
100
AcDbBlockTableRecord
2
*Paper_Space0
340
0
70
0
0
BLOCK_RECORD
5
EE
100
AcDbSymbolTableRecord
100
AcDbBlockTableRecord
2
*D1
340
0
70
0
0
BLOCK_RECORD
5
FA
100
AcDbSymbolTableRecord
100
AcDbBlockTableRecord
2
_U0
340
0
70
0
0
BLOCK_RECORD
5
106
100
AcDbSymbolTableRecord
100
AcDbBlockTableRecord
2
*D3
340
0
70
0
0
BLOCK_RECORD
5
112
100
AcDbSymbolTableRecord
100
AcDbBlockTableRecord
2
_U1
340
0
70
0
0
BLOCK_RECORD
5
11E
100
AcDbSymbolTableRecord
100
AcDbBlockTableRecord
2
*D5
340
0
70
0
0
BLOCK_RECORD
5
12A
100
AcDbSymbolTableRecord
100
AcDbBlockTableRecord
2
_U2
340
0
70
0
0
BLOCK_RECORD
5
136
100
AcDbSymbolTableRecord
100
AcDbBlockTableRecord
2
*D7
340
0
70
0
0
BLOCK_RECORD
5
142
100
AcDbSymbolTableRecord
100
AcDbBlockTableRecord
2
_U3
340
0
70
0
0
ENDTAB
0
ENDSEC
0
SECTION
2
BLOCKS
0
BLOCK
5
20
100
AcDbEntity
8
0
100
AcDbBlockBegin
2
*Model_Space
70
0
10
0
20
0
30
0
3
*Model_Space
0
ENDBLK
5
21
100
AcDbEntity
8
0
100
AcDbBlockEnd
0
BLOCK
5
1C
100
AcDbEntity
8
0
100
AcDbBlockBegin
2
*Paper_Space
70
0
10
0
20
0
30
0
3
*Paper_Space
0
ENDBLK
5
1D
100
AcDbEntity
8
0
100
AcDbBlockEnd
0
BLOCK
5
24
100
AcDbEntity
8
0
100
AcDbBlockBegin
2
*Paper_Space0
70
0
10
0
20
0
30
0
3
*Paper_Space0
0
ENDBLK
5
25
100
AcDbEntity
8
0
100
AcDbBlockEnd
0
BLOCK
5
EF
100
AcDbEntity
8
0
100
AcDbBlockBegin
2
*D1
70
1
10
0
20
0
30
0
3
*D1
0
LINE
5
F1
100
AcDbEntity
8
0
62
256
6
ByLayer
370
-2
48
1
60
0
100
AcDbLine
10
-70
20
-21.5875
30
0
11
-70
21
-53.300936
31
0
39
0
210
0
220
0
230
1
0
LINE
5
F2
100
AcDbEntity
8
0
62
256
6
ByLayer
370
-2
48
1
60
0
100
AcDbLine
10
361.5
20
-1.5875
30
0
11
361.5
21
-53.300936
31
0
39
0
210
0
220
0
230
1
0
LINE
5
F3
100
AcDbEntity
8
0
62
256
6
ByLayer
370
-2
48
1
60
0
100
AcDbLine
10
-66.5
20
-51.300936
30
0
11
358
21
-51.300936
31
0
39
0
210
0
220
0
230
1
0
SOLID
5
F4
100
AcDbEntity
8
0
62
256
6
ByLayer
370
-1
48
1
60
0
100
AcDbTrace
10
-66.5
20
-50.717603
30
0
11
-66.5
21
-51.88427
31
0
12
-70
22
-51.300936
32
0
13
-70
23
-51.300936
33
0
39
0
210
0
220
0
230
1
0
SOLID
5
F5
100
AcDbEntity
8
0
62
256
6
ByLayer
370
-1
48
1
60
0
100
AcDbTrace
10
358
20
-51.88427
30
0
11
358
21
-50.717603
31
0
12
361.5
22
-51.300936
32
0
13
361.5
23
-51.300936
33
0
39
0
210
0
220
0
230
1
0
MTEXT
5
F6
100
AcDbEntity
8
0
62
256
6
ByLayer
370
18
48
1
60
0
100
AcDbMText
10
145.75
20
-45.300936
30
0
210
0
220
0
230
1
1
\A1;431.5
40
3
41
0
44
1
50
0
71
5
72
5
7
iso_b_vert
0
POINT
5
F7
100
AcDbEntity
8
Defpoints
62
0
6
ByLayer
370
-1
48
1
60
0
100
AcDbPoint
10
-70
20
-20
30
0
39
0
210
0
220
0
230
1
50
360
0
POINT
5
F8
100
AcDbEntity
8
Defpoints
62
0
6
ByLayer
370
-1
48
1
60
0
100
AcDbPoint
10
361.5
20
0
30
0
39
0
210
0
220
0
230
1
50
360
0
POINT
5
F9
100
AcDbEntity
8
Defpoints
62
0
6
ByLayer
370
-1
48
1
60
0
100
AcDbPoint
10
361.5
20
-51.300936
30
0
39
0
210
0
220
0
230
1
50
360
0
ENDBLK
5
F0
100
AcDbEntity
8
0
100
AcDbBlockEnd
0
BLOCK
5
101
100
AcDbEntity
8
0
100
AcDbBlockBegin
2
_U0
70
0
10
0
20
0
30
0
3
_U0
0
MTEXT
5
FB
100
AcDbEntity
8
SK2
62
256
6
ByLayer
370
18
48
1
60
0
100
AcDbMText
10
140.363715
20
-50.415822
30
0
210
0
220
0
230
1
1
\W0.7237;431.50
40
3
41
0
44
1.084337
50
0
71
7
72
5
7
iso_b_vert
0
LINE
5
FC
100
AcDbEntity
8
SK2
62
256
6
ByLayer
370
13
48
1
60
0
100
AcDbLine
10
-70
20
-21.5875
30
0
11
-70
21
-53.300936
31
0
39
0
210
0
220
0
230
1
0
LINE
5
FD
100
AcDbEntity
8
SK2
62
256
6
ByLayer
370
13
48
1
60
0
100
AcDbLine
10
361.5
20
-1.5875
30
0
11
361.5
21
-53.300936
31
0
39
0
210
0
220
0
230
1
0
LINE
5
FE
100
AcDbEntity
8
SK2
62
256
6
ByLayer
370
13
48
1
60
0
100
AcDbLine
10
-70
20
-51.300936
30
0
11
361.5
21
-51.300936
31
0
39
0
210
0
220
0
230
1
0
SOLID
5
FF
100
AcDbEntity
8
SK2
62
256
6
ByLayer
370
18
48
1
60
0
100
AcDbTrace
10
-70
20
-51.300936
30
0
11
-66.500002
21
-50.840152
31
0
12
-66.499998
22
-51.76172
32
0
13
-66.499998
23
-51.76172
33
0
39
0
210
0
220
0
230
1
0
SOLID
5
100
100
AcDbEntity
8
SK2
62
256
6
ByLayer
370
18
48
1
60
0
100
AcDbTrace
10
361.5
20
-51.300936
30
0
11
358.000002
21
-51.76172
31
0
12
357.999998
22
-50.840152
32
0
13
357.999998
23
-50.840152
33
0
39
0
210
0
220
0
230
1
0
ENDBLK
5
102
100
AcDbEntity
8
0
100
AcDbBlockEnd
0
BLOCK
5
107
100
AcDbEntity
8
0
100
AcDbBlockBegin
2
*D3
70
1
10
0
20
0
30
0
3
*D3
0
LINE
5
109
100
AcDbEntity
8
0
62
256
6
ByLayer
370
-2
48
1
60
0
100
AcDbLine
10
361.5
20
-1.5875
30
0
11
361.5
21
-43.300936
31
0
39
0
210
0
220
0
230
1
0
LINE
5
10A
100
AcDbEntity
8
0
62
256
6
ByLayer
370
-2
48
1
60
0
100
AcDbLine
10
3
20
-21.3375
30
0
11
3
21
-43.300936
31
0
39
0
210
0
220
0
230
1
0
LINE
5
10B
100
AcDbEntity
8
0
62
256
6
ByLayer
370
-2
48
1
60
0
100
AcDbLine
10
358
20
-41.300936
30
0
11
6.5
21
-41.300936
31
0
39
0
210
0
220
0
230
1
0
SOLID
5
10C
100
AcDbEntity
8
0
62
256
6
ByLayer
370
-1
48
1
60
0
100
AcDbTrace
10
358
20
-41.88427
30
0
11
358
21
-40.717603
31
0
12
361.5
22
-41.300936
32
0
13
361.5
23
-41.300936
33
0
39
0
210
0
220
0
230
1
0
SOLID
5
10D
100
AcDbEntity
8
0
62
256
6
ByLayer
370
-1
48
1
60
0
100
AcDbTrace
10
6.5
20
-40.717603
30
0
11
6.5
21
-41.88427
31
0
12
3
22
-41.300936
32
0
13
3
23
-41.300936
33
0
39
0
210
0
220
0
230
1
0
MTEXT
5
10E
100
AcDbEntity
8
0
62
256
6
ByLayer
370
18
48
1
60
0
100
AcDbMText
10
182.25
20
-35.300936
30
0
210
0
220
0
230
1
1
\A1;358.5
40
3
41
0
44
1
50
0
71
5
72
5
7
iso_b_vert
0
POINT
5
10F
100
AcDbEntity
8
Defpoints
62
0
6
ByLayer
370
-1
48
1
60
0
100
AcDbPoint
10
361.5
20
0
30
0
39
0
210
0
220
0
230
1
50
360
0
POINT
5
110
100
AcDbEntity
8
Defpoints
62
0
6
ByLayer
370
-1
48
1
60
0
100
AcDbPoint
10
3
20
-19.75
30
0
39
0
210
0
220
0
230
1
50
360
0
POINT
5
111
100
AcDbEntity
8
Defpoints
62
0
6
ByLayer
370
-1
48
1
60
0
100
AcDbPoint
10
3
20
-41.300936
30
0
39
0
210
0
220
0
230
1
50
360
0
ENDBLK
5
108
100
AcDbEntity
8
0
100
AcDbBlockEnd
0
BLOCK
5
119
100
AcDbEntity
8
0
100
AcDbBlockBegin
2
_U1
70
0
10
0
20
0
30
0
3
_U1
0
MTEXT
5
113
100
AcDbEntity
8
SK2
62
256
6
ByLayer
370
18
48
1
60
0
100
AcDbMText
10
176.646716
20
-40.415822
30
0
210
0
220
0
230
1
1
\W0.7513;358.50
40
3
41
0
44
1.084337
50
0
71
7
72
5
7
iso_b_vert
0
LINE
5
114
100
AcDbEntity
8
SK2
62
256
6
ByLayer
370
13
48
1
60
0
100
AcDbLine
10
361.5
20
-1.5875
30
0
11
361.5
21
-43.300936
31
0
39
0
210
0
220
0
230
1
0
LINE
5
115
100
AcDbEntity
8
SK2
62
256
6
ByLayer
370
13
48
1
60
0
100
AcDbLine
10
3
20
-21.3375
30
0
11
3
21
-43.300936
31
0
39
0
210
0
220
0
230
1
0
LINE
5
116
100
AcDbEntity
8
SK2
62
256
6
ByLayer
370
13
48
1
60
0
100
AcDbLine
10
361.5
20
-41.300936
30
0
11
3
21
-41.300936
31
0
39
0
210
0
220
0
230
1
0
SOLID
5
117
100
AcDbEntity
8
SK2
62
256
6
ByLayer
370
18
48
1
60
0
100
AcDbTrace
10
361.5
20
-41.300936
30
0
11
358.000002
21
-41.76172
31
0
12
357.999998
22
-40.840152
32
0
13
357.999998
23
-40.840152
33
0
39
0
210
0
220
0
230
1
0
SOLID
5
118
100
AcDbEntity
8
SK2
62
256
6
ByLayer
370
18
48
1
60
0
100
AcDbTrace
10
3
20
-41.300936
30
0
11
6.499998
21
-40.840152
31
0
12
6.500002
22
-41.76172
32
0
13
6.500002
23
-41.76172
33
0
39
0
210
0
220
0
230
1
0
ENDBLK
5
11A
100
AcDbEntity
8
0
100
AcDbBlockEnd
0
BLOCK
5
11F
100
AcDbEntity
8
0
100
AcDbBlockBegin
2
*D5
70
1
10
0
20
0
30
0
3
*D5
0
LINE
5
121
100
AcDbEntity
8
0
62
256
6
ByLayer
370
-2
48
1
60
0
100
AcDbLine
10
-70
20
-21.5875
30
0
11
-70
21
-43.300936
31
0
39
0
210
0
220
0
230
1
0
LINE
5
122
100
AcDbEntity
8
0
62
256
6
ByLayer
370
-2
48
1
60
0
100
AcDbLine
10
0
20
-21.5875
30
0
11
0
21
-43.300936
31
0
39
0
210
0
220
0
230
1
0
LINE
5
123
100
AcDbEntity
8
0
62
256
6
ByLayer
370
-2
48
1
60
0
100
AcDbLine
10
-66.5
20
-41.300936
30
0
11
-3.5
21
-41.300936
31
0
39
0
210
0
220
0
230
1
0
SOLID
5
124
100
AcDbEntity
8
0
62
256
6
ByLayer
370
-1
48
1
60
0
100
AcDbTrace
10
-66.5
20
-40.717603
30
0
11
-66.5
21
-41.88427
31
0
12
-70
22
-41.300936
32
0
13
-70
23
-41.300936
33
0
39
0
210
0
220
0
230
1
0
SOLID
5
125
100
AcDbEntity
8
0
62
256
6
ByLayer
370
-1
48
1
60
0
100
AcDbTrace
10
-3.5
20
-41.88427
30
0
11
-3.5
21
-40.717603
31
0
12
0
22
-41.300936
32
0
13
0
23
-41.300936
33
0
39
0
210
0
220
0
230
1
0
MTEXT
5
126
100
AcDbEntity
8
0
62
256
6
ByLayer
370
18
48
1
60
0
100
AcDbMText
10
-35
20
-35.300936
30
0
210
0
220
0
230
1
1
\A1;70
40
3
41
0
44
1
50
0
71
5
72
5
7
iso_b_vert
0
POINT
5
127
100
AcDbEntity
8
Defpoints
62
0
6
ByLayer
370
-1
48
1
60
0
100
AcDbPoint
10
-70
20
-20
30
0
39
0
210
0
220
0
230
1
50
360
0
POINT
5
128
100
AcDbEntity
8
Defpoints
62
0
6
ByLayer
370
-1
48
1
60
0
100
AcDbPoint
10
0
20
-20
30
0
39
0
210
0
220
0
230
1
50
360
0
POINT
5
129
100
AcDbEntity
8
Defpoints
62
0
6
ByLayer
370
-1
48
1
60
0
100
AcDbPoint
10
0
20
-41.300936
30
0
39
0
210
0
220
0
230
1
50
360
0
ENDBLK
5
120
100
AcDbEntity
8
0
100
AcDbBlockEnd
0
BLOCK
5
131
100
AcDbEntity
8
0
100
AcDbBlockBegin
2
_U2
70
0
10
0
20
0
30
0
3
_U2
0
MTEXT
5
12B
100
AcDbEntity
8
SK2
62
256
6
ByLayer
370
18
48
1
60
0
100
AcDbMText
10
-39.48237
20
-40.415822
30
0
210
0
220
0
230
1
1
\W0.7468;70.00
40
3
41
0
44
1.084337
50
0
71
7
72
5
7
iso_b_vert
0
LINE
5
12C
100
AcDbEntity
8
SK2
62
256
6
ByLayer
370
13
48
1
60
0
100
AcDbLine
10
-70
20
-21.5875
30
0
11
-70
21
-43.300936
31
0
39
0
210
0
220
0
230
1
0
LINE
5
12D
100
AcDbEntity
8
SK2
62
256
6
ByLayer
370
13
48
1
60
0
100
AcDbLine
10
0
20
-21.5875
30
0
11
0
21
-43.300936
31
0
39
0
210
0
220
0
230
1
0
LINE
5
12E
100
AcDbEntity
8
SK2
62
256
6
ByLayer
370
13
48
1
60
0
100
AcDbLine
10
-70
20
-41.300936
30
0
11
0
21
-41.300936
31
0
39
0
210
0
220
0
230
1
0
SOLID
5
12F
100
AcDbEntity
8
SK2
62
256
6
ByLayer
370
18
48
1
60
0
100
AcDbTrace
10
-70
20
-41.300936
30
0
11
-66.500002
21
-40.840152
31
0
12
-66.499998
22
-41.76172
32
0
13
-66.499998
23
-41.76172
33
0
39
0
210
0
220
0
230
1
0
SOLID
5
130
100
AcDbEntity
8
SK2
62
256
6
ByLayer
370
18
48
1
60
0
100
AcDbTrace
10
0
20
-41.300936
30
0
11
-3.499998
21
-41.76172
31
0
12
-3.500002
22
-40.840152
32
0
13
-3.500002
23
-40.840152
33
0
39
0
210
0
220
0
230
1
0
ENDBLK
5
132
100
AcDbEntity
8
0
100
AcDbBlockEnd
0
BLOCK
5
137
100
AcDbEntity
8
0
100
AcDbBlockBegin
2
*D7
70
1
10
0
20
0
30
0
3
*D7
0
LINE
5
139
100
AcDbEntity
8
0
62
256
6
ByLayer
370
-2
48
1
60
0
100
AcDbLine
10
361.5
20
1.5875
30
0
11
361.5
21
40.300936
31
0
39
0
210
0
220
0
230
1
0
LINE
5
13A
100
AcDbEntity
8
0
62
256
6
ByLayer
370
-2
48
1
60
0
100
AcDbLine
10
25
20
21.3375
30
0
11
25
21
40.300936
31
0
39
0
210
0
220
0
230
1
0
LINE
5
13B
100
AcDbEntity
8
0
62
256
6
ByLayer
370
-2
48
1
60
0
100
AcDbLine
10
358
20
38.300936
30
0
11
28.5
21
38.300936
31
0
39
0
210
0
220
0
230
1
0
SOLID
5
13C
100
AcDbEntity
8
0
62
256
6
ByLayer
370
-1
48
1
60
0
100
AcDbTrace
10
358
20
37.717603
30
0
11
358
21
38.88427
31
0
12
361.5
22
38.300936
32
0
13
361.5
23
38.300936
33
0
39
0
210
0
220
0
230
1
0
SOLID
5
13D
100
AcDbEntity
8
0
62
256
6
ByLayer
370
-1
48
1
60
0
100
AcDbTrace
10
28.5
20
38.88427
30
0
11
28.5
21
37.717603
31
0
12
25
22
38.300936
32
0
13
25
23
38.300936
33
0
39
0
210
0
220
0
230
1
0
MTEXT
5
13E
100
AcDbEntity
8
0
62
256
6
ByLayer
370
18
48
1
60
0
100
AcDbMText
10
193.25
20
44.300936
30
0
210
0
220
0
230
1
1
\A1;336.5
40
3
41
0
44
1
50
0
71
5
72
5
7
iso_b_vert
0
POINT
5
13F
100
AcDbEntity
8
Defpoints
62
0
6
ByLayer
370
-1
48
1
60
0
100
AcDbPoint
10
361.5
20
0
30
0
39
0
210
0
220
0
230
1
50
360
0
POINT
5
140
100
AcDbEntity
8
Defpoints
62
0
6
ByLayer
370
-1
48
1
60
0
100
AcDbPoint
10
25
20
19.75
30
0
39
0
210
0
220
0
230
1
50
360
0
POINT
5
141
100
AcDbEntity
8
Defpoints
62
0
6
ByLayer
370
-1
48
1
60
0
100
AcDbPoint
10
25
20
38.300936
30
0
39
0
210
0
220
0
230
1
50
360
0
ENDBLK
5
138
100
AcDbEntity
8
0
100
AcDbBlockEnd
0
BLOCK
5
149
100
AcDbEntity
8
0
100
AcDbBlockBegin
2
_U3
70
0
10
0
20
0
30
0
3
_U3
0
MTEXT
5
143
100
AcDbEntity
8
SK2
62
256
6
ByLayer
370
18
48
1
60
0
100
AcDbMText
10
187.646716
20
39.186051
30
0
210
0
220
0
230
1
1
\W0.7513;336.50
40
3
41
0
44
1.084337
50
0
71
7
72
5
7
iso_b_vert
0
LINE
5
144
100
AcDbEntity
8
SK2
62
256
6
ByLayer
370
13
48
1
60
0
100
AcDbLine
10
361.5
20
1.5875
30
0
11
361.5
21
40.300936
31
0
39
0
210
0
220
0
230
1
0
LINE
5
145
100
AcDbEntity
8
SK2
62
256
6
ByLayer
370
13
48
1
60
0
100
AcDbLine
10
25
20
21.3375
30
0
11
25
21
40.300936
31
0
39
0
210
0
220
0
230
1
0
LINE
5
146
100
AcDbEntity
8
SK2
62
256
6
ByLayer
370
13
48
1
60
0
100
AcDbLine
10
361.5
20
38.300936
30
0
11
25
21
38.300936
31
0
39
0
210
0
220
0
230
1
0
SOLID
5
147
100
AcDbEntity
8
SK2
62
256
6
ByLayer
370
18
48
1
60
0
100
AcDbTrace
10
361.5
20
38.300936
30
0
11
358.000002
21
37.840152
31
0
12
357.999998
22
38.76172
32
0
13
357.999998
23
38.76172
33
0
39
0
210
0
220
0
230
1
0
SOLID
5
148
100
AcDbEntity
8
SK2
62
256
6
ByLayer
370
18
48
1
60
0
100
AcDbTrace
10
25
20
38.300936
30
0
11
28.499998
21
38.76172
31
0
12
28.500002
22
37.840152
32
0
13
28.500002
23
37.840152
33
0
39
0
210
0
220
0
230
1
0
ENDBLK
5
14A
100
AcDbEntity
8
0
100
AcDbBlockEnd
0
ENDSEC
0
SECTION
2
ENTITIES
0
ARC
5
B9
100
AcDbEntity
8
SK2
62
256
6
ByLayer
370
13
48
1
60
0
100
AcDbCircle
39
0
10
361.5
20
0
30
0
40
18.9999999999999
210
0
220
0
230
1
100
AcDbArc
50
290
51
70
0
ELLIPSE
5
BA
100
AcDbEntity
8
SK1
62
256
6
ByLayer
370
18
48
1
60
0
100
AcDbEllipse
10
-28.447374
20
0
30
0
11
21.4473742004989
21
-2.43020130678638E-14
31
0
210
0
220
0
230
1
40
0.932515
41
-0.451026811796204
42
0.451026811796208
0
POINT
5
70
100
AcDbEntity
8
80
62
256
6
ByLayer
370
18
48
1
60
0
100
AcDbPoint
10
0
20
0
30
0
39
0
210
0
220
0
230
1
50
360
0
POINT
5
72
100
AcDbEntity
8
1
62
256
6
ByLayer
370
18
48
1
60
1
100
AcDbPoint
10
-70
20
-20
30
0
39
0
210
0
220
0
230
1
50
360
0
POINT
5
74
100
AcDbEntity
8
1
62
256
6
ByLayer
370
18
48
1
60
1
100
AcDbPoint
10
361.5
20
0
30
0
39
0
210
0
220
0
230
1
50
360
0
POINT
5
75
100
AcDbEntity
8
1
62
256
6
ByLayer
370
18
48
1
60
1
100
AcDbPoint
10
361.5
20
0
30
0
39
0
210
0
220
0
230
1
50
360
0
POINT
5
76
100
AcDbEntity
8
1
62
256
6
ByLayer
370
18
48
1
60
1
100
AcDbPoint
10
3
20
-19.75
30
0
39
0
210
0
220
0
230
1
50
360
0
POINT
5
77
100
AcDbEntity
8
1
62
256
6
ByLayer
370
18
48
1
60
1
100
AcDbPoint
10
-70
20
-20
30
0
39
0
210
0
220
0
230
1
50
360
0
POINT
5
78
100
AcDbEntity
8
1
62
256
6
ByLayer
370
18
48
1
60
1
100
AcDbPoint
10
0
20
-20
30
0
39
0
210
0
220
0
230
1
50
360
0
POINT
5
79
100
AcDbEntity
8
1
62
256
6
ByLayer
370
18
48
1
60
1
100
AcDbPoint
10
361.5
20
0
30
0
39
0
210
0
220
0
230
1
50
360
0
POINT
5
7A
100
AcDbEntity
8
1
62
256
6
ByLayer
370
18
48
1
60
1
100
AcDbPoint
10
25
20
19.75
30
0
39
0
210
0
220
0
230
1
50
360
0
SPLINE
5
BB
100
AcDbEntity
8
1
62
256
6
ByLayer
370
18
48
1
60
0
100
AcDbSpline
70
4
71
3
72
236
73
232
40
0
40
0
40
0
40
0
40
0.0022905994053786
40
0.0022905994053786
40
0.0081942053260584
40
0.0081942053260584
40
0.0200014171674177
40
0.0200014171674177
40
0.031808629008777
40
0.031808629008777
40
0.0377122349294566
40
0.0377122349294566
40
0.0436158408501363
40
0.0436158408501363
40
0.049519446770816
40
0.049519446770816
40
0.0554230526914956
40
0.0554230526914956
40
0.0790374763742138
40
0.0790374763742138
40
0.0849410822948934
40
0.0849410822948934
40
0.0908446882155731
40
0.0908446882155731
40
0.102651900056932
40
0.102651900056932
40
0.114459111898291
40
0.114459111898291
40
0.12036271781897
40
0.12036271781897
40
0.12626632373965
40
0.12626632373965
40
0.138073535581009
40
0.138073535581009
40
0.149880747422368
40
0.149880747422368
40
0.155784353343047
40
0.155784353343047
40
0.161687959263726
40
0.161687959263726
40
0.173495171105085
40
0.173495171105085
40
0.185302382946444
40
0.185302382946444
40
0.191205988867124
40
0.191205988867124
40
0.197109594787803
40
0.197109594787803
40
0.208916806629162
40
0.208916806629162
40
0.220724018470521
40
0.220724018470521
40
0.223675821430861
40
0.223675821430861
40
0.2266276243912
40
0.2266276243912
40
0.23253123031188
40
0.23253123031188
40
0.244338442153237
40
0.244338442153237
40
0.256145653994595
40
0.256145653994595
40
0.262049259915274
40
0.262049259915274
40
0.267952865835953
40
0.267952865835953
40
0.279760077677311
40
0.279760077677311
40
0.291567289518669
40
0.291567289518669
40
0.297470895439348
40
0.297470895439348
40
0.303374501360027
40
0.303374501360027
40
0.309278107280706
40
0.309278107280706
40
0.315181713201385
40
0.315181713201385
40
0.338796136884102
40
0.338796136884102
40
0.344699742804781
40
0.344699742804781
40
0.35060334872546
40
0.35060334872546
40
0.356506954646139
40
0.356506954646139
40
0.362410560566818
40
0.362410560566818
40
0.374217772408176
40
0.374217772408176
40
0.380121378328855
40
0.380121378328855
40
0.386024984249534
40
0.386024984249534
40
0.397832196090891
40
0.397832196090891
40
0.409639407932249
40
0.409639407932249
40
0.415543013852928
40
0.415543013852928
40
0.421446619773607
40
0.421446619773607
40
0.433253831614964
40
0.433253831614964
40
0.445061043456321
40
0.445061043456321
40
0.450964649377
40
0.450964649377
40
0.456868255297679
40
0.456868255297679
40
0.480482678980393
40
0.480482678980393
40
0.486386284901072
40
0.486386284901072
40
0.492289890821751
40
0.492289890821751
40
0.504097102663108
40
0.504097102663108
40
0.515904314504465
40
0.515904314504465
40
0.521807920425143
40
0.521807920425143
40
0.527711526345821
40
0.527711526345821
40
0.539518738187177
40
0.539518738187177
40
0.551325950028534
40
0.551325950028534
40
0.557229555949212
40
0.557229555949212
40
0.563133161869889
40
0.563133161869889
40
0.569036767790567
40
0.569036767790567
40
0.574940373711245
40
0.574940373711245
40
0.586747585552601
40
0.586747585552601
40
0.59265119147328
40
0.59265119147328
40
0.598554797393958
40
0.598554797393958
40
0.604458403314636
40
0.604458403314636
40
0.610362009235314
40
0.610362009235314
40
0.616265615155992
40
0.616265615155992
40
0.62216922107667
40
0.62216922107667
40
0.633976432918027
40
0.633976432918027
40
0.639880038838705
40
0.639880038838705
40
0.645783644759383
40
0.645783644759383
40
0.65759085660074
40
0.65759085660074
40
0.669398068442096
40
0.669398068442096
40
0.675301674362774
40
0.675301674362774
40
0.681205280283452
40
0.681205280283452
40
0.693012492124806
40
0.693012492124806
40
0.704819703966162
40
0.704819703966162
40
0.710723309886839
40
0.710723309886839
40
0.716626915807516
40
0.716626915807516
40
0.740241339490226
40
0.740241339490226
40
0.746144945410904
40
0.746144945410904
40
0.752048551331581
40
0.752048551331581
40
0.763855763172936
40
0.763855763172936
40
0.77566297501429
40
0.77566297501429
40
0.781566580934967
40
0.781566580934967
40
0.787470186855644
40
0.787470186855644
40
0.799277398696997
40
0.799277398696997
40
0.811084610538351
40
0.811084610538351
40
0.816988216459028
40
0.816988216459028
40
0.822891822379704
40
0.822891822379704
40
0.834699034221057
40
0.834699034221057
40
0.84650624606241
40
0.84650624606241
40
0.852409851983086
40
0.852409851983086
40
0.858313457903762
40
0.858313457903762
40
0.864217063824438
40
0.864217063824438
40
0.870120669745114
40
0.870120669745114
40
0.881927881586467
40
0.881927881586467
40
0.893735093427819
40
0.893735093427819
40
0.899638699348496
40
0.899638699348496
40
0.905542305269172
40
0.905542305269172
40
0.917349517110526
40
0.917349517110526
40
0.929156728951879
40
0.929156728951879
40
0.935060334872556
40
0.935060334872556
40
0.940963940793233
40
0.940963940793233
40
0.952771152634586
40
0.952771152634586
40
0.964578364475939
40
0.964578364475939
40
0.970481970396616
40
0.970481970396616
40
0.976385576317293
40
0.976385576317293
40
1
40
1
40
1
40
1
41
1
10
130.48108898036
20
14.6071035184402
30
0
41
1
10
130.636760783467
20
14.6448327122266
30
0
41
1
10
130.792398331776
20
14.6823885898314
30
0
41
1
10
131.34903826755
20
14.816122665821
30
0
41
1
10
131.749823828582
20
14.9113664577146
30
0
41
1
10
132.951778877312
20
15.193073490584
30
0
41
1
10
133.752679366275
20
15.3752713741323
30
0
41
1
10
135.353418842827
20
15.7291225233901
30
0
41
1
10
136.153273890997
20
15.9007437948762
30
0
41
1
10
137.352166660154
20
16.1504549304401
30
0
41
1
10
137.751648902532
20
16.2324046714613
30
0
41
1
10
138.550290898666
20
16.393763165561
30
0
41
1
10
138.949432888748
20
16.473199557646
30
0
41
1
10
139.747475962038
20
16.6293876294743
30
0
41
1
10
140.146419881288
20
16.7060717776321
30
0
41
1
10
140.94427083002
20
16.8564597416001
30
0
41
1
10
141.34315360548
20
16.930201892859
30
0
41
1
10
143.337261217351
20
17.2918316731705
30
0
41
1
10
144.931626428581
20
17.5584793701827
30
0
41
1
10
146.922622154873
20
17.8643782120107
30
0
41
1
10
147.320747354813
20
17.924149595949
30
0
41
1
10
148.117119043166
20
18.0405667500617
30
0
41
1
10
148.515341873638
20
18.0972430430959
30
0
41
1
10
149.710042551288
20
18.2627888155372
30
0
41
1
10
150.506561189276
20
18.3671685503062
30
0
41
1
10
152.099562479347
20
18.5641297785109
30
0
41
1
10
152.896042433003
20
18.6567150157156
30
0
41
1
10
154.090586747361
20
18.7868048593074
30
0
41
1
10
154.488722039782
20
18.8287138886878
30
0
41
1
10
155.285164991304
20
18.9093970291413
30
0
41
1
10
155.683497091373
20
18.9481545878332
30
0
41
1
10
156.87876058155
20
19.059751807148
30
0
41
1
10
157.675939597681
20
19.1279337677932
30
0
41
1
10
159.270831204107
20
19.2519816580782
30
0
41
1
10
160.068543122995
20
19.307849030083
30
0
41
1
10
161.265374358805
20
19.3824100340513
30
0
41
1
10
161.664342711783
20
19.4057304600985
30
0
41
1
10
162.462465634948
20
19.4492210273778
30
0
41
1
10
162.861664408445
20
19.4693721716943
30
0
41
1
10
164.059811131486
20
19.525007369121
30
0
41
1
10
164.859208632293
20
19.5557210239757
30
0
41
1
10
166.459092731943
20
19.6044697841788
30
0
41
1
10
167.259587699104
20
19.6225029907537
30
0
41
1
10
168.461032810765
20
19.6399772270294
30
0
41
1
10
168.861624506576
20
19.6442051174471
30
0
41
1
10
169.663051156136
20
19.6494379680435
30
0
41
1
10
170.063910198894
20
19.6504391611886
30
0
41
1
10
171.267280546412
20
19.6485949425129
30
0
41
1
10
172.070459700131
20
19.6409184468224
30
0
41
1
10
173.678454012984
20
19.612670733638
30
0
41
1
10
174.483286404521
20
19.5921009594052
30
0
41
1
10
175.490275478563
20
19.5582283002708
30
0
41
1
10
175.691748249313
20
19.5510442548674
30
0
41
1
10
176.094645677493
20
19.5358601374774
30
0
41
1
10
176.296050309247
20
19.5278609503328
30
0
41
1
10
176.900126778579
20
19.5026375612153
30
0
41
1
10
177.302655165911
20
19.4841825260277
30
0
41
1
10
178.51012508611
20
19.424071419551
30
0
41
1
10
179.314939454287
20
19.377685631734
30
0
41
1
10
180.923936442541
20
19.2723001358663
30
0
41
1
10
181.7281442725
20
19.2133106278546
30
0
41
1
10
182.933886319665
20
19.1153062902733
30
0
41
1
10
183.33570528092
20
19.0810502549249
30
0
41
1
10
184.139125390015
20
19.0093311315101
30
0
41
1
10
184.540704065789
20
18.9718500730233
30
0
41
1
10
185.745380182562
20
18.8547709432214
30
0
41
1
10
186.548612937324
20
18.7706989270468
30
0
41
1
10
188.155070001342
20
18.5904558187925
30
0
41
1
10
188.958300963882
20
18.4942890339312
30
0
41
1
10
190.163024211184
20
18.3408490815422
30
0
41
1
10
190.564577654643
20
18.2881692453379
30
0
41
1
10
191.367616835299
20
18.1797035625922
30
0
41
1
10
191.76908572217
20
18.1238989508662
30
0
41
1
10
192.572023617317
20
18.0092373555198
30
0
41
1
10
192.973535314579
20
17.9504267558122
30
0
41
1
10
193.776798521859
20
17.8300354666467
30
0
41
1
10
194.178521837455
20
17.7684240695366
30
0
41
1
10
196.187489988122
20
17.4531885984121
30
0
41
1
10
197.795848177589
20
17.1781922410386
30
0
41
1
10
199.806949400169
20
16.8044241088641
30
0
41
1
10
200.209227487465
20
16.7281968627848
30
0
41
1
10
201.014176508405
20
16.5732110154109
30
0
41
1
10
201.416822463839
20
16.4944179513265
30
0
41
1
10
202.222402458975
20
16.3341581778905
30
0
41
1
10
202.625404353042
20
16.2526807643851
30
0
41
1
10
203.43137258377
20
16.0870957622114
30
0
41
1
10
203.834242125797
20
16.0030097383014
30
0
41
1
10
205.042475679089
20
15.7468242546208
30
0
41
1
10
205.847465094875
20
15.5708020866963
30
0
41
1
10
207.054045078639
20
15.2986182278476
30
0
41
1
10
207.45607487863
20
15.2065060281712
30
0
41
1
10
208.260101331227
20
15.0200383364525
30
0
41
1
10
208.66211123789
20
14.9257092170059
30
0
41
1
10
209.868048522532
20
14.6393100228333
30
0
41
1
10
210.671875330096
20
14.4438150997366
30
0
41
1
10
212.279125818919
20
14.0434775693545
30
0
41
1
10
213.08254753246
20
13.8386319276142
30
0
41
1
10
214.287224613243
20
13.5240128697316
30
0
41
1
10
214.688684717908
20
13.4178660473886
30
0
41
1
10
215.491603687251
20
13.2034163550203
30
0
41
1
10
215.893108407872
20
13.0952087398023
30
0
41
1
10
217.097805722765
20
12.7677573762173
30
0
41
1
10
217.901109457497
20
12.5455390677078
30
0
41
1
10
219.507893714469
20
12.0929455330708
30
0
41
1
10
220.311378540817
20
11.8625800651884
30
0
41
1
10
221.516600153991
20
11.5105649988284
30
0
41
1
10
221.918325220202
20
11.3921144154467
30
0
41
1
10
222.721821344044
20
11.1531501928412
30
0
41
1
10
223.123630898511
20
11.0327243093018
30
0
41
1
10
225.133454857975
20
10.4269863042458
30
0
41
1
10
226.743218111057
20
9.92958462264741
30
0
41
1
10
228.75690670479
20
9.28956774140505
30
0
41
1
10
229.159751612753
20
9.16062829640333
30
0
41
1
10
229.965423451568
20
8.90091001542859
30
0
41
1
10
230.368087019126
20
8.77022069147057
30
0
41
1
10
231.575996524944
20
8.37678291178358
30
0
41
1
10
232.381060205779
20
8.11241001636037
30
0
41
1
10
233.990504098297
20
7.57885123173935
30
0
41
1
10
234.79490612959
20
7.30972155599878
30
0
41
1
10
236.000891772184
20
6.90214115690921
30
0
41
1
10
236.402783944361
20
6.76563270897628
30
0
41
1
10
237.206334140937
20
6.491241770898
30
0
41
1
10
237.607975199108
20
6.35331371337548
30
0
41
1
10
238.81291649414
20
5.93844419277903
30
0
41
1
10
239.616319852272
20
5.66064798629279
30
0
41
1
10
241.223028040351
20
5.1018078311044
30
0
41
1
10
242.026356722052
20
4.82082722536384
30
0
41
1
10
243.23118010076
20
4.39665793352967
30
0
41
1
10
243.632759441849
20
4.25481767393816
30
0
41
1
10
244.435834443546
20
3.9701596897246
30
0
41
1
10
244.837308546647
20
3.82728268304257
30
0
41
1
10
245.640299234493
20
3.54089215118185
30
0
41
1
10
246.04186327364
20
3.39750902559393
30
0
41
1
10
246.845192241418
20
3.11054615301347
30
0
41
1
10
247.246937417799
20
2.96691218320763
30
0
41
1
10
248.452364188569
20
2.5354156404255
30
0
41
1
10
249.256249000667
20
2.246992644481
30
0
41
1
10
250.462354657435
20
1.81287615233299
30
0
41
1
10
250.864435643279
20
1.66792158798126
30
0
41
1
10
251.668664943441
20
1.37744248253139
30
0
41
1
10
252.070801543709
20
1.23188477335071
30
0
41
1
10
252.875173173248
20
0.94028149961639
30
0
41
1
10
253.277442135233
20
0.794331555653656
30
0
41
1
10
254.082361932279
20
0.502749160490879
30
0
41
1
10
254.484982422322
20
0.357031041152112
30
0
41
1
10
255.290495975583
20
0.0656046644440096
30
0
41
1
10
255.693391848193
20
-0.0800956366164769
30
0
41
1
10
256.499445084301
20
-0.371518343759959
30
0
41
1
10
256.902366237918
20
-0.517153283384943
30
0
41
1
10
258.11071641914
20
-0.953904579614402
30
0
41
1
10
258.915759262163
20
-1.24488096411548
30
0
41
1
10
260.122391453366
20
-1.68145836733851
30
0
41
1
10
260.524454423093
20
-1.82698030453653
30
0
41
1
10
261.328586232793
20
-2.11716957782735
30
0
41
1
10
261.730640902975
20
-2.26187769715767
30
0
41
1
10
262.936687334321
20
-2.69508607565905
30
0
41
1
10
263.740565490933
20
-2.98266001690754
30
0
41
1
10
265.34787456097
20
-3.55575170436276
30
0
41
1
10
266.151302722234
20
-3.84127735621794
30
0
41
1
10
267.355952568141
20
-4.26843811533524
30
0
41
1
10
267.75739964702
20
-4.41069277212532
30
0
41
1
10
268.560349131595
20
-4.69422521934229
30
0
41
1
10
268.961884045423
20
-4.83541554700571
30
0
41
1
10
270.166620213384
20
-5.25740010163398
30
0
41
1
10
270.969923097563
20
-5.53668935011709
30
0
41
1
10
272.576670071115
20
-6.09161311794313
30
0
41
1
10
273.380114174401
20
-6.36724785698991
30
0
41
1
10
274.585240021347
20
-6.77832857537666
30
0
41
1
10
274.986921588907
20
-6.91501303857635
30
0
41
1
10
275.790372733606
20
-7.18731904441751
30
0
41
1
10
276.192189292725
20
-7.32281763706365
30
0
41
1
10
278.201969228531
20
-7.99641690095962
30
0
41
1
10
279.811590996569
20
-8.5239954293024
30
0
41
1
10
281.824998274656
20
-9.17152853344061
30
0
41
1
10
282.227739050674
20
-9.30046089246585
30
0
41
1
10
283.033374490217
20
-9.55708128856324
30
0
41
1
10
283.436149280676
20
-9.68464729352056
30
0
41
1
10
284.64428446946
20
-10.0640966725413
30
0
41
1
10
285.449495071644
20
-10.3131379553885
30
0
41
1
10
287.059259073373
20
-10.8040175796186
30
0
41
1
10
287.863829918296
20
-11.0458135661533
30
0
41
1
10
289.070078374952
20
-11.4033625556616
30
0
41
1
10
289.472059333039
20
-11.5216884590164
30
0
41
1
10
290.275790969328
20
-11.7566754229463
30
0
41
1
10
290.67754140613
20
-11.8733347026463
30
0
41
1
10
291.882907137519
20
-12.2197855196173
30
0
41
1
10
292.686593759632
20
-12.4461598337145
30
0
41
1
10
294.293884561755
20
-12.8904583333037
30
0
41
1
10
295.097513527211
20
-13.1083279942511
30
0
41
1
10
296.302796165225
20
-13.4289839554637
30
0
41
1
10
296.704530202286
20
-13.5348437711771
30
0
41
1
10
297.507917097408
20
-13.7445565103144
30
0
41
1
10
297.909547932961
20
-13.8484517731357
30
0
41
1
10
299.114611946098
20
-14.1565299281779
30
0
41
1
10
299.918388896988
20
-14.3567786769583
30
0
41
1
10
301.526473712635
20
-14.7476001663596
30
0
41
1
10
302.330793754504
20
-14.9381486396984
30
0
41
1
10
303.537563500711
20
-15.2168930880955
30
0
41
1
10
303.939868045814
20
-15.3086279471781
30
0
41
1
10
304.744547868046
20
-15.4897701284471
30
0
41
1
10
305.146904908447
20
-15.5792084240908
30
0
41
1
10
305.951773004472
20
-15.7555973274312
30
0
41
1
10
306.354329125745
20
-15.8424707219478
30
0
41
1
10
307.159810939999
20
-16.0133730450484
30
0
41
1
10
307.562761136342
20
-16.0974567632719
30
0
41
1
10
308.771690085654
20
-16.3456116495798
30
0
41
1
10
309.577236092723
20
-16.5054619318735
30
0
41
1
10
311.187360641911
20
-16.8142783339247
30
0
41
1
10
311.991921505077
20
-16.963270112765
30
0
41
1
10
313.197925303045
20
-17.178690987124
30
0
41
1
10
313.59981880434
20
-17.2491055833497
30
0
41
1
10
314.403651907109
20
-17.3868088226701
30
0
41
1
10
314.805563462774
20
-17.4541378581401
30
0
41
1
10
316.011204768215
20
-17.6516865356107
30
0
41
1
10
316.814852866897
20
-17.7774559228948
30
0
41
1
10
318.421775972531
20
-18.0173506106777
30
0
41
1
10
319.225048321206
20
-18.131480076644
30
0
41
1
10
320.429518036691
20
-18.2940434711037
30
0
41
1
10
320.830926693851
20
-18.3467967321238
30
0
41
1
10
321.633884864843
20
-18.4491281729209
30
0
41
1
10
322.035439107801
20
-18.4987052128092
30
0
41
1
10
323.240240805622
20
-18.6427804649168
30
0
41
1
10
324.043622497957
20
-18.7326299098011
30
0
41
1
10
325.650604582407
20
-18.9000776247028
30
0
41
1
10
326.454202578466
20
-18.9776789876623
30
0
41
1
10
327.659612490413
20
-19.0849282306313
30
0
41
1
10
328.061394973191
20
-19.1191647007334
30
0
41
1
10
328.86513234947
20
-19.184456103873
30
0
41
1
10
329.267130728712
20
-19.2154856241116
30
0
41
1
10
331.277799690135
20
-19.3625779521232
30
0
41
1
10
332.888269478149
20
-19.4547097499454
30
0
41
1
10
334.5
20
-19.5214131820718
30
0
0
SPLINE
5
BC
100
AcDbEntity
8
1
62
256
6
ByLayer
370
18
48
1
60
0
100
AcDbSpline
70
4
71
3
72
229
73
225
40
0
40
0
40
0
40
0
40
0.0056593080941421
40
0.0056593080941421
40
0.0174495363446973
40
0.0174495363446973
40
0.0233446504699746
40
0.0233446504699746
40
0.0292397645952518
40
0.0292397645952518
40
0.0528202210963594
40
0.0528202210963594
40
0.0587153352216362
40
0.0587153352216362
40
0.0646104493469128
40
0.0646104493469128
40
0.076400677597467
40
0.076400677597467
40
0.0881909058480211
40
0.0881909058480211
40
0.0940860199732985
40
0.0940860199732985
40
0.099981134098576
40
0.099981134098576
40
0.123561590599684
40
0.123561590599684
40
0.129456704724962
40
0.129456704724962
40
0.135351818850239
40
0.135351818850239
40
0.147142047100794
40
0.147142047100794
40
0.158932275351349
40
0.158932275351349
40
0.164827389476626
40
0.164827389476626
40
0.170722503601904
40
0.170722503601904
40
0.194302960103013
40
0.194302960103013
40
0.197250517165652
40
0.197250517165652
40
0.200198074228291
40
0.200198074228291
40
0.206093188353569
40
0.206093188353569
40
0.217883416604125
40
0.217883416604125
40
0.229673644854681
40
0.229673644854681
40
0.235568758979959
40
0.235568758979959
40
0.241463873105237
40
0.241463873105237
40
0.265044329606347
40
0.265044329606347
40
0.270939443731625
40
0.270939443731625
40
0.276834557856902
40
0.276834557856902
40
0.288624786107458
40
0.288624786107458
40
0.300415014358013
40
0.300415014358013
40
0.30631012848329
40
0.30631012848329
40
0.312205242608567
40
0.312205242608567
40
0.323995470859121
40
0.323995470859121
40
0.329890584984398
40
0.329890584984398
40
0.335785699109674
40
0.335785699109674
40
0.341680813234951
40
0.341680813234951
40
0.347575927360227
40
0.347575927360227
40
0.35936615561078
40
0.35936615561078
40
0.371156383861332
40
0.371156383861332
40
0.377051497986608
40
0.377051497986608
40
0.382946612111884
40
0.382946612111884
40
0.406527068612989
40
0.406527068612989
40
0.412422182738265
40
0.412422182738265
40
0.418317296863542
40
0.418317296863542
40
0.430107525114094
40
0.430107525114094
40
0.441897753364646
40
0.441897753364646
40
0.447792867489922
40
0.447792867489922
40
0.453687981615198
40
0.453687981615198
40
0.459583095740474
40
0.459583095740474
40
0.46547820986575
40
0.46547820986575
40
0.477268438116301
40
0.477268438116301
40
0.483163552241577
40
0.483163552241577
40
0.489058666366853
40
0.489058666366853
40
0.500848894617404
40
0.500848894617404
40
0.512639122867955
40
0.512639122867955
40
0.518534236993231
40
0.518534236993231
40
0.524429351118506
40
0.524429351118506
40
0.536219579369058
40
0.536219579369058
40
0.54800980761961
40
0.54800980761961
40
0.553904921744886
40
0.553904921744886
40
0.559800035870162
40
0.559800035870162
40
0.565695149995437
40
0.565695149995437
40
0.571590264120713
40
0.571590264120713
40
0.577485378245989
40
0.577485378245989
40
0.583380492371264
40
0.583380492371264
40
0.58927560649654
40
0.58927560649654
40
0.595170720621815
40
0.595170720621815
40
0.601065834747091
40
0.601065834747091
40
0.606960948872367
40
0.606960948872367
40
0.618751177122918
40
0.618751177122918
40
0.624646291248194
40
0.624646291248194
40
0.63054140537347
40
0.63054140537347
40
0.636436519498746
40
0.636436519498746
40
0.642331633624022
40
0.642331633624022
40
0.654121861874574
40
0.654121861874574
40
0.665912090125126
40
0.665912090125126
40
0.671807204250402
40
0.671807204250402
40
0.677702318375678
40
0.677702318375678
40
0.68949254662623
40
0.68949254662623
40
0.701282774876782
40
0.701282774876782
40
0.707177889002058
40
0.707177889002058
40
0.713073003127334
40
0.713073003127334
40
0.736653459628436
40
0.736653459628436
40
0.742548573753712
40
0.742548573753712
40
0.748443687878987
40
0.748443687878987
40
0.760233916129539
40
0.760233916129539
40
0.77202414438009
40
0.77202414438009
40
0.777919258505365
40
0.777919258505365
40
0.783814372630641
40
0.783814372630641
40
0.807394829131743
40
0.807394829131743
40
0.813289943257019
40
0.813289943257019
40
0.819185057382294
40
0.830975285632844
40
0.830975285632844
40
0.83687039975812
40
0.83687039975812
40
0.842765513883395
40
0.842765513883395
40
0.84866062800867
40
0.84866062800867
40
0.854555742133945
40
0.854555742133945
40
0.878136198635044
40
0.878136198635044
40
0.884031312760319
40
0.884031312760319
40
0.889926426885594
40
0.889926426885594
40
0.901716655136143
40
0.901716655136143
40
0.913506883386692
40
0.913506883386692
40
0.919401997511967
40
0.919401997511967
40
0.925297111637242
40
0.925297111637242
40
0.94887756813834
40
0.94887756813834
40
0.954772682263615
40
0.954772682263615
40
0.96066779638889
40
0.96066779638889
40
0.972458024639439
40
0.972458024639439
40
0.984248252889989
40
0.984248252889989
40
0.996038481140538
40
0.996038481140538
40
1
40
1
40
1
40
1
41
1
10
300.951491981699
20
-14.6084861544098
30
0
41
1
10
300.556138644032
20
-14.7041211492379
30
0
41
1
10
300.160925324558
20
-14.7985490781888
30
0
41
1
10
298.942798409155
20
-15.0860259345227
30
0
41
1
10
298.120376776138
20
-15.2751060598037
30
0
41
1
10
296.887780828108
20
-15.5511033890161
30
0
41
1
10
296.477079880059
20
-15.6418132937627
30
0
41
1
10
295.655782052874
20
-15.8202621860412
30
0
41
1
10
295.245197291673
20
-15.9080249636144
30
0
41
1
10
293.192638416995
20
-16.3396527788708
30
0
41
1
10
291.551730458628
20
-16.6619940421992
30
0
41
1
10
289.502607121144
20
-17.0371342485148
30
0
41
1
10
289.092890166086
20
-17.1107757290009
30
0
41
1
10
288.273441065154
20
-17.2549582141437
30
0
41
1
10
287.863705986834
20
-17.3254976092586
30
0
41
1
10
286.634497163082
20
-17.5325222691542
30
0
41
1
10
285.815019888397
20
-17.6644176099267
30
0
41
1
10
284.176153432166
20
-17.9161298898574
30
0
41
1
10
283.35676780267
20
-18.035951719617
30
0
41
1
10
282.127855520558
20
-18.206684290486
30
0
41
1
10
281.718260552851
20
-18.262108143433
30
0
41
1
10
280.898955192293
20
-18.369760674529
30
0
41
1
10
280.489222984967
20
-18.4219687109235
30
0
41
1
10
278.440175361857
20
-18.6749622025642
30
0
41
1
10
276.799731132304
20
-18.851721305094
30
0
41
1
10
274.74823862713
20
-19.0409297089488
30
0
41
1
10
274.337910110596
20
-19.0771899226942
30
0
41
1
10
273.517037521066
20
-19.1464229757219
30
0
41
1
10
273.106461901995
20
-19.1793756402472
30
0
41
1
10
271.874265987633
20
-19.2732240418631
30
0
41
1
10
271.052211875596
20
-19.3291377846007
30
0
41
1
10
269.407020174309
20
-19.427719297725
30
0
41
1
10
268.583883339987
20
-19.470388208225
30
0
41
1
10
267.348455017499
20
-19.5244071374832
30
0
41
1
10
266.936538876028
20
-19.5407518603224
30
0
41
1
10
266.112382087006
20
-19.5700607898858
30
0
41
1
10
265.700108370979
20
-19.5830155095834
30
0
41
1
10
263.637568497006
20
-19.639253987355
30
0
41
1
10
261.984011708801
20
-19.6570902452396
30
0
41
1
10
260.120244063335
20
-19.6462805607772
30
0
41
1
10
259.913109880183
20
-19.6446491197948
30
0
41
1
10
259.498744895138
20
-19.6405216992882
30
0
41
1
10
259.291483909559
20
-19.6380249945627
30
0
41
1
10
258.66983060276
20
-19.6292411672856
30
0
41
1
10
258.255518460129
20
-19.6216620891917
30
0
41
1
10
257.012766063008
20
-19.5938117354945
30
0
41
1
10
256.184585488204
20
-19.5684242367358
30
0
41
1
10
254.528968071637
20
-19.5040906876763
30
0
41
1
10
253.701529096925
20
-19.4651458488019
30
0
41
1
10
252.461029749029
20
-19.3965063895252
30
0
41
1
10
252.047649319291
20
-19.3719168288171
30
0
41
1
10
251.221070896069
20
-19.3193321482024
30
0
41
1
10
250.807843833981
20
-19.2913502674254
30
0
41
1
10
248.741617924541
20
-19.1432374811801
30
0
41
1
10
247.088681581718
20
-18.9984285685219
30
0
41
1
10
245.023167515377
20
-18.7842035445462
30
0
41
1
10
244.61010467814
20
-18.7396861750293
30
0
41
1
10
243.784030080867
20
-18.6473145929973
30
0
41
1
10
243.370995303481
20
-18.5994784754813
30
0
41
1
10
242.131605273396
20
-18.4512922247001
30
0
41
1
10
241.30505268092
20
-18.346195705978
30
0
41
1
10
239.651479800027
20
-18.1233346247428
30
0
41
1
10
238.824454990106
20
-18.00557527757
30
0
41
1
10
237.583662230755
20
-17.8192795286439
30
0
41
1
10
237.170025024022
20
-17.7555665848657
30
0
41
1
10
236.342664098524
20
-17.6249005498795
30
0
41
1
10
235.928924839279
20
-17.5579643487523
30
0
41
1
10
234.687201402828
20
-17.3527648190098
30
0
41
1
10
233.858789718418
20
-17.2100237898088
30
0
41
1
10
232.615368421458
20
-16.9869049877655
30
0
41
1
10
232.200671968444
20
-16.9110146165982
30
0
41
1
10
231.3716050782
20
-16.7563127520005
30
0
41
1
10
230.957212121938
20
-16.6774976835177
30
0
41
1
10
230.128725277821
20
-16.516909946553
30
0
41
1
10
229.714632278545
20
-16.4351358326802
30
0
41
1
10
228.88675473232
20
-16.2686072661977
30
0
41
1
10
228.472962445107
20
-16.1838631076813
30
0
41
1
10
227.231671305078
20
-15.925766247879
30
0
41
1
10
226.404315933325
20
-15.7484666841148
30
0
41
1
10
224.750067525182
20
-15.3832860644303
30
0
41
1
10
223.92316840192
20
-15.1954155925843
30
0
41
1
10
222.683259442121
20
-14.9055035241044
30
0
41
1
10
222.270030032465
20
-14.8075136985859
30
0
41
1
10
221.443732705548
20
-14.6087927492557
30
0
41
1
10
221.030666692138
20
-14.5080561387976
30
0
41
1
10
218.965139063053
20
-13.9986408821594
30
0
41
1
10
217.312178450701
20
-13.5726846573844
30
0
41
1
10
215.245906948859
20
-13.0161170851
30
0
41
1
10
214.832650194601
20
-12.9035911147157
30
0
41
1
10
214.006145621622
20
-12.6760728775148
30
0
41
1
10
213.592908784668
20
-12.5610553753336
30
0
41
1
10
212.352892211737
20
-12.212978538942
30
0
41
1
10
211.525773063732
20
-11.9769783624295
30
0
41
1
10
209.870784474925
20
-11.4968376736554
30
0
41
1
10
209.04290830683
20
-11.2527124155004
30
0
41
1
10
207.800616315812
20
-10.8801905483411
30
0
41
1
10
207.386440025962
20
-10.7549584821027
30
0
41
1
10
206.557942464078
20
-10.5023325206403
30
0
41
1
10
206.143636512866
20
-10.3748999888224
30
0
41
1
10
205.314697915676
20
-10.1183022889669
30
0
41
1
10
204.900207825984
20
-9.98923830125054
30
0
41
1
10
204.07149820535
20
-9.72966296323278
30
0
41
1
10
203.657233124722
20
-9.59913138502876
30
0
41
1
10
202.414724275446
20
-9.20526890192221
30
0
41
1
10
201.586763518888
20
-8.93968015935167
30
0
41
1
10
200.345484513672
20
-8.53654387980842
30
0
41
1
10
199.931836125516
20
-8.40137021994931
30
0
41
1
10
199.10477677549
20
-8.12939224646613
30
0
41
1
10
198.69138340578
20
-7.99254235777846
30
0
41
1
10
197.451328778947
20
-7.5801340486002
30
0
41
1
10
196.624660930163
20
-7.30306048436614
30
0
41
1
10
194.971467157545
20
-6.74449580485739
30
0
41
1
10
194.144944359015
20
-6.46299683631267
30
0
41
1
10
192.905365466764
20
-6.03717539112537
30
0
41
1
10
192.492207690783
20
-5.89463649301226
30
0
41
1
10
191.665977579389
20
-5.6083179634112
30
0
41
1
10
191.252922778514
20
-5.46449101821247
30
0
41
1
10
190.013703688009
20
-5.03163229375545
30
0
41
1
10
189.187310394287
20
-4.74169371422255
30
0
41
1
10
187.534037141005
20
-4.15909155507723
30
0
41
1
10
186.70717157294
20
-3.8663895013141
30
0
41
1
10
185.466620922763
20
-3.42497929437459
30
0
41
1
10
185.053062942657
20
-3.27744672889705
30
0
41
1
10
184.225879719683
20
-2.98154375379824
30
0
41
1
10
183.812270179204
20
-2.8331292251244
30
0
41
1
10
182.984892022186
20
-2.53571283091765
30
0
41
1
10
182.571087639326
20
-2.38681128448818
30
0
41
1
10
181.743171663681
20
-2.08883997163593
30
0
41
1
10
181.329074041229
20
-1.9397311048908
30
0
41
1
10
180.500614942313
20
-1.64122508173273
30
0
41
1
10
180.086252993665
20
-1.49182925796919
30
0
41
1
10
179.257276558549
20
-1.19271641843895
30
0
41
1
10
178.842578619765
20
-1.04296914054638
30
0
41
1
10
178.013554019682
20
-0.743323047164381
30
0
41
1
10
177.599190036927
20
-0.593409568772131
30
0
41
1
10
176.770774961173
20
-0.293356426492096
30
0
41
1
10
176.356737266315
20
-0.143178767113511
30
0
41
1
10
175.528908752981
20
0.157212780100679
30
0
41
1
10
175.115083666958
20
0.30732929724283
30
0
41
1
10
174.28749964109
20
0.60708947922879
30
0
41
1
10
173.873758085376
20
0.756782569727392
30
0
41
1
10
172.63270800735
20
1.20537093197532
30
0
41
1
10
171.805569432773
20
1.50376308230133
30
0
41
1
10
170.565290510801
20
1.9505987344416
30
0
41
1
10
170.151936664582
20
2.09942102083778
30
0
41
1
10
169.325390802409
20
2.39686512733249
30
0
41
1
10
168.91220926391
20
2.54551589842563
30
0
41
1
10
168.085964570225
20
2.84249370533956
30
0
41
1
10
167.672870903062
20
2.99073614799997
30
0
41
1
10
166.846589462437
20
3.28631249362181
30
0
41
1
10
166.433422143326
20
3.43370308069044
30
0
41
1
10
165.193866466
20
3.87475743103076
30
0
41
1
10
164.367419823246
20
4.16729208920503
30
0
41
1
10
162.714488707593
20
4.7496724680262
30
0
41
1
10
161.888027221032
20
5.03958026327831
30
0
41
1
10
160.648347407134
20
5.47251842413013
30
0
41
1
10
160.235089853684
20
5.61642108036929
30
0
41
1
10
159.408326173002
20
5.90290586557674
30
0
41
1
10
158.994841325156
20
6.04554548260725
30
0
41
1
10
157.754105840604
20
6.47173400825977
30
0
41
1
10
156.926570083034
20
6.75354225038922
30
0
41
1
10
155.27085117197
20
7.31281335464388
30
0
41
1
10
154.44268258091
20
7.59031456107385
30
0
41
1
10
153.200008356202
20
8.00345483182605
30
0
41
1
10
152.785690575841
20
8.14058924097728
30
0
41
1
10
151.956658006976
20
8.4131490388063
30
0
41
1
10
151.54216320078
20
8.54855987437935
30
0
41
1
10
149.47032977152
20
9.2212545763899
30
0
41
1
10
147.814383660758
20
9.74561874507481
30
0
41
1
10
145.746941868259
20
10.3852924942013
30
0
41
1
10
145.333564799656
20
10.5124010169922
30
0
41
1
10
144.506801085579
20
10.7644182354976
30
0
41
1
10
144.093429894211
20
10.8893651088709
30
0
41
1
10
142.853377199118
20
11.2611044355984
30
0
41
1
10
142.026753418013
20
11.5047908672783
30
0
41
1
10
140.373768157578
20
11.9841515266747
30
0
41
1
10
139.547411867802
20
12.2198376269536
30
0
41
1
10
138.308176823671
20
12.5675395815679
30
0
41
1
10
137.895146854725
20
12.682463273848
30
0
41
1
10
137.068939662932
20
12.9098357269546
30
0
41
1
10
136.655769851284
20
13.0223019549938
30
0
41
1
10
134.589640218288
20
13.5786616377817
30
0
41
1
10
132.935817453568
20
14.0046548896084
30
0
41
1
10
130.868000810644
20
14.5143372105752
30
0
41
1
10
130.454419331847
20
14.6151445364553
30
0
41
1
10
129.626981692964
20
14.8140452284307
30
0
41
1
10
128.385398429091
20
15.1083016488685
30
0
41
1
10
127.14262710192
20
15.3904875017863
30
0
41
1
10
125.899139481447
20
15.6647584971354
30
0
41
1
10
125.484447766757
20
15.7548792647942
30
0
41
1
10
124.655481553814
20
15.9323677797052
30
0
41
1
10
124.241154407925
20
16.0197480660727
30
0
41
1
10
123.412826591563
20
16.1917964564555
30
0
41
1
10
122.998840217056
20
16.2764855201191
30
0
41
1
10
122.171001713653
20
16.4428395344646
30
0
41
1
10
121.757132815685
20
16.5244805054526
30
0
41
1
10
119.688072244646
20
16.9251052877658
30
0
41
1
10
118.033730633779
20
17.2214331454779
30
0
41
1
10
115.967545518383
20
17.5625038462546
30
0
41
1
10
115.554413261435
20
17.6292660830316
30
0
41
1
10
114.728160841458
20
17.7596353218093
30
0
41
1
10
114.315014071928
20
17.8232119152024
30
0
41
1
10
113.075506070433
20
18.00913516952
30
0
41
1
10
112.249094451485
20
18.1266999101125
30
0
41
1
10
110.5962273557
20
18.3492177591009
30
0
41
1
10
109.769774137154
20
18.4541738799825
30
0
41
1
10
108.530165768881
20
18.6021945933301
30
0
41
1
10
108.116992123853
20
18.6499788717895
30
0
41
1
10
107.290537203269
20
18.7422760224354
30
0
41
1
10
106.877222802862
20
18.7867616666455
30
0
41
1
10
104.81013531272
20
19.0008400226197
30
0
41
1
10
103.154940548501
20
19.145576747789
30
0
41
1
10
101.084634722101
20
19.2935515316057
30
0
41
1
10
100.670524499107
20
19.3215015157192
30
0
41
1
10
99.8420728913378
20
19.3740236575206
30
0
41
1
10
99.427696162776
20
19.3985788453976
30
0
41
1
10
98.184017480665
20
19.4670953059788
30
0
41
1
10
97.3552324751952
20
19.5058812913703
30
0
41
1
10
95.6985815368349
20
19.5698055295862
30
0
41
1
10
94.8706899916845
20
19.5949458259712
30
0
41
1
10
93.2159127407114
20
19.631588251408
30
0
41
1
10
92.389117378909
20
19.6430762340995
30
0
41
1
10
91.2844835707854
20
19.6492263376262
30
0
41
1
10
91.0066797201472
20
19.6500016870622
30
0
41
1
10
90.7288865122174
20
19.650005754611
30
0
0
SPLINE
5
BD
100
AcDbEntity
8
1
62
256
6
ByLayer
370
18
48
1
60
0
100
AcDbSpline
70
4
71
3
72
26
73
22
40
0
40
0
40
0
40
0
40
0.125000000000009
40
0.125000000000009
40
0.18750000000001
40
0.18750000000001
40
0.250000000000011
40
0.250000000000011
40
0.500000000000015
40
0.500000000000015
40
0.562500000000016
40
0.562500000000016
40
0.625000000000017
40
0.625000000000017
40
0.750000000000011
40
0.750000000000011
40
0.875000000000006
40
0.875000000000006
40
0.937500000000003
40
0.937500000000003
40
1
40
1
40
1
40
1
41
1
10
354.311587873248
20
-2.81811249528033
30
0
41
1
10
353.484952857098
20
-2.52067278886273
30
0
41
1
10
352.658656690936
20
-2.22256783186782
30
0
41
1
10
351.419817760917
20
-1.77414227097643
30
0
41
1
10
351.006973228475
20
-1.6244533040678
30
0
41
1
10
350.181502984869
20
-1.32460586783227
30
0
41
1
10
349.768894951555
20
-1.17439844639273
30
0
41
1
10
347.706000476292
20
-0.423301406656435
30
0
41
1
10
346.055615584236
20
0.176288659067978
30
0
41
1
10
343.993085526937
20
0.925665921734179
30
0
41
1
10
343.580604374804
20
1.07554201090008
30
0
41
1
10
342.755707205966
20
1.3753374796193
30
0
41
1
10
342.34330900454
20
1.5253059393699
30
0
41
1
10
341.106025655296
20
1.97476119667874
30
0
41
1
10
340.280876265026
20
2.27331448583487
30
0
41
1
10
338.630000056998
20
2.86828579941684
30
0
41
1
10
337.804287652646
20
3.16474358034711
30
0
41
1
10
336.565400033892
20
3.60814167560093
30
0
41
1
10
336.152385264614
20
3.75572881063616
30
0
41
1
10
335.32626651122
20
4.05051980342125
30
0
41
1
10
334.913178294539
20
4.19776686566158
30
0
41
1
10
334.5
20
4.3446971828819
30
0
0
SPLINE
5
BE
100
AcDbEntity
8
1
62
256
6
ByLayer
370
18
48
1
60
0
100
AcDbSpline
70
4
71
3
72
106
73
102
40
0
40
0
40
0
40
0
40
0.0312500000000063
40
0.0312500000000063
40
0.0625000000000125
40
0.0625000000000125
40
0.0937500000000188
40
0.0937500000000188
40
0.125000000000025
40
0.125000000000025
40
0.140625000000027
40
0.140625000000027
40
0.148437500000029
40
0.148437500000029
40
0.15625000000003
40
0.15625000000003
40
0.187500000000038
40
0.187500000000038
40
0.218750000000046
40
0.218750000000046
40
0.250000000000054
40
0.250000000000054
40
0.281250000000062
40
0.281250000000062
40
0.296875000000066
40
0.296875000000066
40
0.304687500000068
40
0.304687500000068
40
0.312500000000069
40
0.312500000000069
40
0.343750000000075
40
0.343750000000075
40
0.37500000000008
40
0.37500000000008
40
0.406250000000086
40
0.406250000000086
40
0.437500000000091
40
0.437500000000091
40
0.441406250000092
40
0.441406250000092
40
0.445312500000092
40
0.445312500000092
40
0.453125000000093
40
0.468750000000095
40
0.468750000000095
40
0.484375000000097
40
0.484375000000097
40
0.500000000000099
40
0.500000000000099
40
0.515625000000101
40
0.531250000000103
40
0.531250000000103
40
0.535156250000104
40
0.535156250000104
40
0.539062500000104
40
0.546875000000105
40
0.562500000000108
40
0.562500000000108
40
0.593750000000114
40
0.593750000000114
40
0.625000000000121
40
0.625000000000121
40
0.628906250000121
40
0.628906250000121
40
0.632812500000121
40
0.632812500000121
40
0.64062500000012
40
0.64062500000012
40
0.656250000000117
40
0.656250000000117
40
0.687500000000112
40
0.687500000000112
40
0.718750000000106
40
0.718750000000106
40
0.726562500000105
40
0.726562500000105
40
0.734375000000103
40
0.734375000000103
40
0.750000000000098
40
0.750000000000098
40
0.781250000000089
40
0.781250000000089
40
0.812500000000081
40
0.812500000000081
40
0.843750000000073
40
0.843750000000073
40
0.85156250000007
40
0.85156250000007
40
0.859375000000067
40
0.875000000000059
40
0.875000000000059
40
0.906250000000044
40
0.906250000000044
40
0.937500000000029
40
0.937500000000029
40
0.968750000000014
40
0.968750000000014
40
0.97656250000001
40
0.97656250000001
40
0.984375000000007
40
1
40
1
40
1
40
1
41
1
10
354.311587873242
20
19.1228681948138
30
0
41
1
10
354.434943959695
20
18.8170060246613
30
0
41
1
10
354.558493415736
20
18.5065516523229
30
0
41
1
10
354.806189171884
20
17.8771816743723
30
0
41
1
10
354.930335260643
20
17.5582644026823
30
0
41
1
10
355.179371681433
20
16.9124895049779
30
0
41
1
10
355.304262108676
20
16.5856309627024
30
0
41
1
10
355.554874670881
20
15.9243349703003
30
0
41
1
10
355.680597241947
20
15.589897135438
30
0
41
1
10
355.869819707277
20
15.0827218794303
30
0
41
1
10
355.932999727087
20
14.9127426518822
30
0
41
1
10
356.027924441853
20
14.656403721072
30
0
41
1
10
356.059613676359
20
14.5706695196803
30
0
41
1
10
356.12293014761
20
14.3990495935417
30
0
41
1
10
356.154542032288
20
14.3132057466841
30
0
41
1
10
356.312369388159
20
13.8838183578604
30
0
41
1
10
356.437894887948
20
13.5397729343413
30
0
41
1
10
356.687368779901
20
12.8506030461135
30
0
41
1
10
356.811318092619
20
12.5054786593909
30
0
41
1
10
357.057360593174
20
11.8140737425052
30
0
41
1
10
357.179456766167
20
11.4677943542243
30
0
41
1
10
357.421276564681
20
10.7739117061664
30
0
41
1
10
357.541005757681
20
10.426310630554
30
0
41
1
10
357.718162393522
20
9.90368628125009
30
0
41
1
10
357.776805172885
20
9.72927315186843
30
0
41
1
10
357.864035843129
20
9.46730335161681
30
0
41
1
10
357.893005971021
20
9.37987366730846
30
0
41
1
10
357.950597785229
20
9.20513071712622
30
0
41
1
10
357.979206887767
20
9.11785619850085
30
0
41
1
10
358.121259473729
20
8.68194869746304
30
0
41
1
10
358.231758861528
20
8.33471546564869
30
0
41
1
10
358.444451300129
20
7.64266686999491
30
0
41
1
10
358.546658342991
20
7.29785375827944
30
0
41
1
10
358.73966003326
20
6.60993071113279
30
0
41
1
10
358.830471004228
20
6.26682225957299
30
0
41
1
10
358.996002018889
20
5.58138100764094
30
0
41
1
10
359.07072944471
20
5.23904545596719
30
0
41
1
10
359.141997249004
20
4.85371372404296
30
0
41
1
10
359.149736820312
20
4.81089617315811
30
0
41
1
10
359.164842626475
20
4.72525294387705
30
0
41
1
10
359.172213210858
20
4.68240088240876
30
0
41
1
10
359.193704372524
20
4.55405351729766
30
0
41
1
10
359.23419883361
20
4.29825599624581
30
0
41
1
10
359.26679395307
20
4.04518413569758
30
0
41
1
10
359.302524582758
20
3.71027049832622
30
0
41
1
10
359.316522377244
20
3.54407141437153
30
0
41
1
10
359.336208953968
20
3.21431712661311
30
0
41
1
10
359.341895445092
20
3.05076200518178
30
0
41
1
10
359.34459137134
20
2.72645877600064
30
0
41
1
10
359.338608135828
20
2.40496291134673
30
0
41
1
10
359.315064181115
20
2.08946918170997
30
0
41
1
10
359.294967107056
20
1.89429800353909
30
0
41
1
10
359.290679187409
20
1.85536443271366
30
0
41
1
10
359.281571324527
20
1.77770222436544
30
0
41
1
10
359.267096635453
20
1.66141656370328
30
0
41
1
10
359.228093092865
20
1.39438307920375
30
0
41
1
10
359.186216068822
20
1.17277620204015
30
0
41
1
10
359.092605326796
20
0.739033804501389
30
0
41
1
10
359.017109820758
20
0.462483105089319
30
0
41
1
10
358.846741217826
20
-0.0663746671256149
30
0
41
1
10
358.751882511029
20
-0.318688881770811
30
0
41
1
10
358.637099210115
20
-0.589108760760695
30
0
41
1
10
358.624232239875
20
-0.618968366283895
30
0
41
1
10
358.598279469394
20
-0.678313338808152
30
0
41
1
10
358.585186078273
20
-0.707815334025526
30
0
41
1
10
358.545666506474
20
-0.795587750953729
30
0
41
1
10
358.518991687603
20
-0.853148813419239
30
0
41
1
10
358.438079795908
20
-1.02302359654058
30
0
41
1
10
358.382958838187
20
-1.13253126663085
30
0
41
1
10
358.214697151409
20
-1.45016254693883
30
0
41
1
10
358.098695874473
20
-1.64742466997754
30
0
41
1
10
357.861287926264
20
-2.01392561461242
30
0
41
1
10
357.739865247729
20
-2.18315922166755
30
0
41
1
10
357.585438057808
20
-2.37720974354352
30
0
41
1
10
357.554418214861
20
-2.41514322179211
30
0
41
1
10
357.492121232975
20
-2.48924956427106
30
0
41
1
10
357.460830040519
20
-2.5254358307804
30
0
41
1
10
357.36699756781
20
-2.63088762123658
30
0
41
1
10
357.304366767407
20
-2.69720903962588
30
0
41
1
10
357.116344866822
20
-2.88450057910009
30
0
41
1
10
356.99083360176
20
-2.99382202793549
30
0
41
1
10
356.739712349006
20
-3.18216406016711
30
0
41
1
10
356.614098455073
20
-3.26118155008368
30
0
41
1
10
356.362733000231
20
-3.38894830991336
30
0
41
1
10
356.236979654807
20
-3.43769763395821
30
0
41
1
10
356.079570214522
20
-3.4793065253514
30
0
41
1
10
356.048066620323
20
-3.48665974637623
30
0
41
1
10
355.985321889728
20
-3.49936431110558
30
0
41
1
10
355.891491190082
20
-3.51544902630508
30
0
41
1
10
355.798489027444
20
-3.52271595388458
30
0
41
1
10
355.613508103646
20
-3.52569112141637
30
0
41
1
10
355.491551750495
20
-3.512282576735
30
0
41
1
10
355.249939659967
20
-3.45523319680197
30
0
41
1
10
355.130284097383
20
-3.41159108937225
30
0
41
1
10
354.892852071251
20
-3.294008222597
30
0
41
1
10
354.775075986167
20
-3.22006832109878
30
0
41
1
10
354.628765643222
20
-3.10828702867866
30
0
41
1
10
354.599582494265
20
-3.08498602473932
30
0
41
1
10
354.541448005006
20
-3.03656443807998
30
0
41
1
10
354.454555875665
20
-2.96117317945257
30
0
41
1
10
354.36855580158
20
-2.87753232484553
30
0
41
1
10
354.311587873242
20
-2.81811249527826
30
0
0
SPLINE
5
BF
100
AcDbEntity
8
1
62
256
6
ByLayer
370
18
48
1
60
0
100
AcDbSpline
70
4
71
3
72
22
73
18
40
0
40
0
40
0
40
0
40
0.0968819894468052
40
0.0968819894468052
40
0.187193790502123
40
0.187193790502123
40
0.27750559155744
40
0.27750559155744
40
0.458129193668074
40
0.458129193668074
40
0.638752795778709
40
0.638752795778709
40
0.729064596834032
40
0.729064596834032
40
0.819376397889355
40
0.819376397889355
40
1
40
1
40
1
40
1
41
1
10
340.603208750903
20
19.7475339605842
30
0
41
1
10
341.045887515339
20
19.7476202252527
30
0
41
1
10
341.488496643508
20
19.7457378477035
30
0
41
1
10
342.343532496488
20
19.7382881877734
30
0
41
1
10
342.75595682438
20
19.7329760894017
30
0
41
1
10
343.580692158553
20
19.7189028040601
30
0
41
1
10
343.993043604828
20
19.7101452814762
30
0
41
1
10
345.230376752401
20
19.678788943561
30
0
41
1
10
346.055484971466
20
19.6510935947803
30
0
41
1
10
347.705905083961
20
19.5821388058602
30
0
41
1
10
348.531231872926
20
19.5408836099591
30
0
41
1
10
349.769241412537
20
19.4687151541992
30
0
41
1
10
350.181906337698
20
19.4429390927073
30
0
41
1
10
351.007248907196
20
19.3879338526139
30
0
41
1
10
351.419956272375
20
19.3587171438117
30
0
41
1
10
352.658593333476
20
19.2661597906909
30
0
41
1
10
353.484887571952
20
19.1978455033501
30
0
41
1
10
354.311587873248
20
19.1228681948134
30
0
0
SPLINE
5
C0
100
AcDbEntity
8
1
62
256
6
ByLayer
370
18
48
1
60
0
100
AcDbSpline
70
4
71
3
72
168
73
164
40
0
40
0
40
0
40
0
40
0.0333856374974712
40
0.0333856374974712
40
0.0500784562462068
40
0.0500784562462068
40
0.0584248656205746
40
0.0584248656205746
40
0.0667712749949424
40
0.0667712749949424
40
0.0834640937436777
40
0.0834640937436777
40
0.100156912492413
40
0.100156912492413
40
0.108503321866781
40
0.108503321866781
40
0.116849731241148
40
0.116849731241148
40
0.133542549989884
40
0.133542549989884
40
0.150235368738619
40
0.150235368738619
40
0.158581778112987
40
0.158581778112987
40
0.166928187487355
40
0.166928187487355
40
0.175274596861722
40
0.175274596861722
40
0.18362100623609
40
0.18362100623609
40
0.200313824984826
40
0.200313824984826
40
0.208660234359194
40
0.208660234359194
40
0.217006643733562
40
0.217006643733562
40
0.233699462482298
40
0.233699462482298
40
0.250392281231034
40
0.250392281231034
40
0.258738690605402
40
0.258738690605402
40
0.26708509997977
40
0.26708509997977
40
0.283777918728507
40
0.283777918728507
40
0.300470737477244
40
0.300470737477244
40
0.308817146851612
40
0.308817146851612
40
0.317163556225981
40
0.317163556225981
40
0.333856374974717
40
0.333856374974717
40
0.342202784349086
40
0.342202784349086
40
0.350549193723455
40
0.350549193723455
40
0.358895603097823
40
0.358895603097823
40
0.367242012472192
40
0.367242012472192
40
0.400627649969665
40
0.400627649969665
40
0.408974059344034
40
0.408974059344034
40
0.417320468718402
40
0.417320468718402
40
0.425666878092771
40
0.425666878092771
40
0.43401328746714
40
0.43401328746714
40
0.467398924964613
40
0.467398924964613
40
0.475745334338981
40
0.475745334338981
40
0.48409174371335
40
0.48409174371335
40
0.500784562462086
40
0.500784562462086
40
0.509130971836455
40
0.509130971836455
40
0.517477381210823
40
0.517477381210823
40
0.525823790585191
40
0.525823790585191
40
0.53417019995956
40
0.53417019995956
40
0.550863018708297
40
0.550863018708297
40
0.567555837457034
40
0.567555837457034
40
0.575902246831402
40
0.575902246831402
40
0.584248656205771
40
0.584248656205771
40
0.600941474954509
40
0.600941474954509
40
0.617634293703246
40
0.617634293703246
40
0.625980703077615
40
0.625980703077615
40
0.634327112451984
40
0.634327112451984
40
0.651019931200722
40
0.651019931200722
40
0.66771274994946
40
0.66771274994946
40
0.67605915932383
40
0.67605915932383
40
0.684405568698199
40
0.684405568698199
40
0.692751978072569
40
0.692751978072569
40
0.701098387446938
40
0.701098387446938
40
0.717791206195676
40
0.717791206195676
40
0.726137615570046
40
0.726137615570046
40
0.734484024944415
40
0.734484024944415
40
0.751176843693153
40
0.751176843693153
40
0.767869662441891
40
0.767869662441891
40
0.77621607181626
40
0.77621607181626
40
0.784562481190629
40
0.784562481190629
40
0.792908890564998
40
0.792908890564998
40
0.801255299939368
40
0.801255299939368
40
0.834640937436843
40
0.834640937436843
40
0.842987346811212
40
0.842987346811212
40
0.851333756185581
40
0.851333756185581
40
0.868026574934319
40
0.868026574934319
40
0.884719393683056
40
0.884719393683056
40
0.893065803057425
40
0.893065803057425
40
0.901412212431793
40
0.901412212431793
40
0.91810503118053
40
0.91810503118053
40
0.934797849929267
40
0.934797849929267
40
0.943144259303635
40
0.943144259303635
40
0.951490668678003
40
0.951490668678003
40
0.968183487426739
40
0.968183487426739
40
0.984876306175476
40
0.984876306175476
40
0.993222715549844
40
0.993222715549844
40
1
40
1
40
1
40
1
41
1
10
25.9880822267556
20
17.400010357623
30
0
41
1
10
27.5993286815594
20
17.1280081497698
30
0
41
1
10
29.2098297475813
20
16.8347750969987
30
0
41
1
10
31.6233800341574
20
16.3620619865768
30
0
41
1
10
32.427518924484
20
16.1989794832007
30
0
41
1
10
33.6330647743092
20
15.945879897419
30
0
41
1
10
34.0348315480969
20
15.8601439002684
30
0
41
1
10
34.8384710238068
20
15.6863855424621
30
0
41
1
10
35.2403167467968
20
15.5983207852811
30
0
41
1
10
36.4458515141138
20
15.330454648732
30
0
41
1
10
37.2495490614477
20
15.1470025145848
30
0
41
1
10
38.8568110900782
20
14.770108711916
30
0
41
1
10
39.6603728900814
20
14.5766631077649
30
0
41
1
10
40.8654578090636
20
14.278645414351
30
0
41
1
10
41.2670991791086
20
14.1779741323929
30
0
41
1
10
42.0705759561522
20
13.9745450289464
30
0
41
1
10
42.4724206398069
20
13.8718080839109
30
0
41
1
10
43.6781867819452
20
13.5603804775121
30
0
41
1
10
44.4823339244979
20
13.3484625087718
30
0
41
1
10
46.0910915735493
20
12.9157507660319
30
0
41
1
10
46.8956998383702
20
12.6949532682487
30
0
41
1
10
48.1028111310545
20
12.356713664615
30
0
41
1
10
48.5051918818495
20
12.2427404341887
30
0
41
1
10
49.3101807252862
20
12.0127843824101
30
0
41
1
10
49.712833012327
20
11.8969017748573
30
0
41
1
10
50.5184710994879
20
11.6633803976666
30
0
41
1
10
50.921518482058
20
11.5456874786385
30
0
41
1
10
51.7273685758608
20
11.3085740088544
30
0
41
1
10
52.1301988436717
20
11.1891498056375
30
0
41
1
10
53.3383812392413
20
10.8282235565112
30
0
41
1
10
54.1434242025116
20
10.5840683802162
30
0
41
1
10
55.3502237725443
20
10.2121682935789
30
0
41
1
10
55.7523464799235
20
10.0872168563026
30
0
41
1
10
56.5563958686606
20
9.83555962660617
30
0
41
1
10
56.9583638416242
20
9.70895355829529
30
0
41
1
10
58.1643482078559
20
9.32742527655122
30
0
41
1
10
58.9683135128468
20
9.07047647812485
30
0
41
1
10
60.5759890328682
20
8.55091172759788
30
0
41
1
10
61.3797119693429
20
8.28832736859576
30
0
41
1
10
62.5849799419574
20
7.88987047355451
30
0
41
1
10
62.9866789957853
20
7.75627683104307
30
0
41
1
10
63.7899601212146
20
7.48752465313137
30
0
41
1
10
64.1915591987932
20
7.3524086171692
30
0
41
1
10
65.3966633805629
20
6.94595867012464
30
0
41
1
10
66.2003605451079
20
6.67323285107247
30
0
41
1
10
67.8080727249753
20
6.12358857132313
30
0
41
1
10
68.6121091456136
20
5.84672595616246
30
0
41
1
10
69.8182965115612
20
5.42798762899747
30
0
41
1
10
70.2203810071083
20
5.28783340120381
30
0
41
1
10
71.0245672063277
20
5.0062944361633
30
0
41
1
10
71.4266540032171
20
4.86486795236848
30
0
41
1
10
72.6333267310721
20
4.43978869533078
30
0
41
1
10
73.4383867872614
20
4.15551365557397
30
0
41
1
10
74.6466507773772
20
3.72712066325425
30
0
41
1
10
75.0495232272735
20
3.58400734520566
30
0
41
1
10
75.8554859876622
20
3.29709832391498
30
0
41
1
10
76.2585081981065
20
3.15332457305681
30
0
41
1
10
77.0641408308702
20
2.86523900758908
30
0
41
1
10
77.4668194479845
20
2.72090425023296
30
0
41
1
10
78.2718739227301
20
2.43157443412406
30
0
41
1
10
78.6742275645336
20
2.28651703568414
30
0
41
1
10
80.6855932316196
20
1.56057685665425
30
0
41
1
10
82.2943649360278
20
0.980442892535677
30
0
41
1
10
84.3040596347747
20
0.253588887983113
30
0
41
1
10
84.7059347310704
20
0.108133162396541
30
0
41
1
10
85.5095316520693
20
-0.183018894001265
30
0
41
1
10
85.9112396172845
20
-0.328753838016695
30
0
41
1
10
86.7145457137632
20
-0.620342138649789
30
0
41
1
10
87.1161815026923
20
-0.76609048266883
30
0
41
1
10
87.9196151817091
20
-1.05694897053897
30
0
41
1
10
88.3213827703319
20
-1.20214358975866
30
0
41
1
10
90.3303576815756
20
-1.92727045273225
30
0
41
1
10
91.9380511355494
20
-2.50446061535857
30
0
41
1
10
93.9474249799813
20
-3.22474335089461
30
0
41
1
10
94.3492999383388
20
-3.36870496474606
30
0
41
1
10
95.1533485447845
20
-3.65561422094635
30
0
41
1
10
95.5555039012871
20
-3.7986125904977
30
0
41
1
10
96.7622774584077
20
-4.22647665119922
30
0
41
1
10
97.567208888332
20
-4.51019563771166
30
0
41
1
10
98.7751218048785
20
-4.93378532415974
30
0
41
1
10
99.1778443222127
20
-5.07465333600084
30
0
41
1
10
99.9834365213899
20
-5.35579354988127
30
0
41
1
10
100.386368908424
20
-5.49608707664427
30
0
41
1
10
101.192057791208
20
-5.7760439215931
30
0
41
1
10
101.594708930011
20
-5.9157252432189
30
0
41
1
10
102.399896927261
20
-6.19375245189741
30
0
41
1
10
102.802460229974
20
-6.33202849397148
30
0
41
1
10
104.009994134041
20
-6.74483576215718
30
0
41
1
10
104.814788740572
20
-7.01740136885141
30
0
41
1
10
106.423779943959
20
-7.55766781075232
30
0
41
1
10
107.227975682611
20
-7.8253713981874
30
0
41
1
10
108.433669807574
20
-8.2236445066338
30
0
41
1
10
108.835446015006
20
-8.35590938462508
30
0
41
1
10
109.63891973845
20
-8.61902928114117
30
0
41
1
10
110.040664913217
20
-8.74976478724759
30
0
41
1
10
111.246028830278
20
-9.13925545456812
30
0
41
1
10
112.049683872548
20
-9.39552823391745
30
0
41
1
10
113.656974207758
20
-9.90176943006148
30
0
41
1
10
114.460616249429
20
-10.151721636186
30
0
41
1
10
115.665928959766
20
-10.5222197389065
30
0
41
1
10
116.067663294426
20
-10.6450069188
30
0
41
1
10
116.871109317701
20
-10.8890281892176
30
0
41
1
10
117.27285431568
20
-11.0101836198598
30
0
41
1
10
118.478490744478
20
-11.3703156823772
30
0
41
1
10
119.282642210266
20
-11.6062920150882
30
0
41
1
10
120.891499824344
20
-12.0705822077528
30
0
41
1
10
121.696222286268
20
-12.2988590762274
30
0
41
1
10
122.903607866074
20
-12.635748603417
30
0
41
1
10
123.306118963267
20
-12.7471258220202
30
0
41
1
10
124.111218728498
20
-12.9680747383546
30
0
41
1
10
124.513812504156
20
-13.0776337364121
30
0
41
1
10
125.319389900609
20
-13.2942764966209
30
0
41
1
10
125.722415086329
20
-13.4014018307588
30
0
41
1
10
126.527858579634
20
-13.6131229896753
30
0
41
1
10
126.93038639368
20
-13.7177471114411
30
0
41
1
10
128.137368050559
20
-14.0279839174701
30
0
41
1
10
128.941224768446
20
-14.2299562202282
30
0
41
1
10
130.145693468882
20
-14.5259295784096
30
0
41
1
10
130.546963462304
20
-14.6234222753881
30
0
41
1
10
131.34903826755
20
-14.8161226658209
30
0
41
1
10
131.749823828581
20
-14.9113664577145
30
0
41
1
10
132.951778877312
20
-15.193073490584
30
0
41
1
10
133.752679366274
20
-15.3752713741322
30
0
41
1
10
135.353418842827
20
-15.72912252339
30
0
41
1
10
136.153273890997
20
-15.9007437948761
30
0
41
1
10
137.352166660153
20
-16.15045493044
30
0
41
1
10
137.751648902532
20
-16.2324046714612
30
0
41
1
10
138.550290898665
20
-16.393763165561
30
0
41
1
10
138.949432888748
20
-16.4731995576459
30
0
41
1
10
139.747475962038
20
-16.6293876294743
30
0
41
1
10
140.146419881288
20
-16.706071777632
30
0
41
1
10
140.94427083002
20
-16.8564597416
30
0
41
1
10
141.34315360548
20
-16.930201892859
30
0
41
1
10
143.33726121735
20
-17.2918316731704
30
0
41
1
10
144.931626428581
20
-17.5584793701826
30
0
41
1
10
146.922622154873
20
-17.8643782120106
30
0
41
1
10
147.320747354813
20
-17.924149595949
30
0
41
1
10
148.117119043166
20
-18.0405667500617
30
0
41
1
10
148.515341873637
20
-18.0972430430958
30
0
41
1
10
149.710042551288
20
-18.2627888155372
30
0
41
1
10
150.506561189276
20
-18.3671685503061
30
0
41
1
10
152.099562479346
20
-18.5641297785108
30
0
41
1
10
152.896042433002
20
-18.6567150157156
30
0
41
1
10
154.09058674736
20
-18.7868048593074
30
0
41
1
10
154.488722039782
20
-18.8287138886877
30
0
41
1
10
155.285164991304
20
-18.9093970291412
30
0
41
1
10
155.683497091373
20
-18.9481545878331
30
0
41
1
10
156.87876058155
20
-19.0597518071479
30
0
41
1
10
157.67593959768
20
-19.1279337677932
30
0
41
1
10
159.270831204106
20
-19.2519816580781
30
0
41
1
10
160.068543122995
20
-19.307849030083
30
0
41
1
10
161.265374358805
20
-19.3824100340513
30
0
41
1
10
161.664342711783
20
-19.4057304600985
30
0
41
1
10
162.462465634948
20
-19.4492210273777
30
0
41
1
10
162.861664408445
20
-19.4693721716942
30
0
41
1
10
164.059811131485
20
-19.5250073691209
30
0
41
1
10
164.859208632293
20
-19.5557210239757
30
0
41
1
10
166.459092731943
20
-19.6044697841788
30
0
41
1
10
167.259587699104
20
-19.6225029907536
30
0
41
1
10
168.461032810765
20
-19.6399772270294
30
0
41
1
10
168.861624506575
20
-19.6442051174471
30
0
41
1
10
169.587717052909
20
-19.6489460800994
30
0
41
1
10
169.913192352739
20
-19.6500056238127
30
0
41
1
10
170.23882727513
20
-19.6499997988195
30
0
0
SPLINE
5
C1
100
AcDbEntity
8
1
62
256
6
ByLayer
370
18
48
1
60
0
100
AcDbSpline
70
4
71
3
72
42
73
38
40
0
40
0
40
0
40
0
40
0.0651517358798018
40
0.0651517358798018
40
0.101107438345967
40
0.101107438345967
40
0.137063140812131
40
0.137063140812131
40
0.173018843278297
40
0.173018843278297
40
0.208974545744462
40
0.208974545744462
40
0.280885950676791
40
0.280885950676791
40
0.352797355609121
40
0.352797355609121
40
0.388753058075284
40
0.388753058075284
40
0.424708760541447
40
0.424708760541447
40
0.496620165473768
40
0.496620165473768
40
0.56853157040609
40
0.56853157040609
40
0.604487272872251
40
0.604487272872251
40
0.640442975338412
40
0.640442975338412
40
0.712354380270728
40
0.712354380270728
40
0.784265785203044
40
0.784265785203044
40
0.820221487669203
40
0.820221487669203
40
0.856177190135362
40
0.856177190135362
40
1
40
1
40
1
40
1
41
1
10
300.949178452138
20
14.6071664572737
30
0
41
1
10
301.677687519575
20
14.7833815677471
30
0
41
1
10
302.406417958246
20
14.95561661735
30
0
41
1
10
303.537563500711
20
15.2168930880954
30
0
41
1
10
303.939868045814
20
15.308627947178
30
0
41
1
10
304.744547868046
20
15.4897701284471
30
0
41
1
10
305.146904908447
20
15.5792084240908
30
0
41
1
10
305.951773004472
20
15.7555973274311
30
0
41
1
10
306.354329125745
20
15.8424707219478
30
0
41
1
10
307.159810939999
20
16.0133730450484
30
0
41
1
10
307.562761136342
20
16.0974567632718
30
0
41
1
10
308.771690085654
20
16.3456116495797
30
0
41
1
10
309.577236092723
20
16.5054619318734
30
0
41
1
10
311.187360641911
20
16.8142783339247
30
0
41
1
10
311.991921505077
20
16.9632701127651
30
0
41
1
10
313.197925303044
20
17.178690987124
30
0
41
1
10
313.59981880434
20
17.2491055833496
30
0
41
1
10
314.403651907108
20
17.38680882267
30
0
41
1
10
314.805563462773
20
17.4541378581401
30
0
41
1
10
316.011204768215
20
17.6516865356106
30
0
41
1
10
316.814852866897
20
17.7774559228948
30
0
41
1
10
318.421775972531
20
18.0173506106776
30
0
41
1
10
319.225048321205
20
18.1314800766439
30
0
41
1
10
320.429518036691
20
18.2940434711037
30
0
41
1
10
320.830926693851
20
18.3467967321238
30
0
41
1
10
321.633884864843
20
18.4491281729209
30
0
41
1
10
322.035439107801
20
18.4987052128092
30
0
41
1
10
323.240240805622
20
18.6427804649168
30
0
41
1
10
324.043622497957
20
18.732629909801
30
0
41
1
10
325.650604582407
20
18.9000776247027
30
0
41
1
10
326.454202578465
20
18.9776789876623
30
0
41
1
10
327.659612490413
20
19.0849282306313
30
0
41
1
10
328.061394973191
20
19.1191647007334
30
0
41
1
10
328.86513234947
20
19.184456103873
30
0
41
1
10
329.267130728712
20
19.2154856241115
30
0
41
1
10
331.277799690135
20
19.3625779521232
30
0
41
1
10
332.888269478149
20
19.4547097499454
30
0
41
1
10
334.5
20
19.5214131820718
30
0
0
SPLINE
5
C2
100
AcDbEntity
8
1
62
256
6
ByLayer
370
18
48
1
60
0
100
AcDbSpline
70
4
71
3
72
84
73
80
40
0
40
0
40
0
40
0
40
0.0168634065212467
40
0.0168634065212467
40
0.0337268130424934
40
0.0337268130424934
40
0.0674536260849868
40
0.0674536260849868
40
0.0843170326062335
40
0.0843170326062335
40
0.10118043912748
40
0.10118043912748
40
0.118043845648727
40
0.118043845648727
40
0.134907252169974
40
0.134907252169974
40
0.168634065212465
40
0.168634065212465
40
0.185497471733712
40
0.185497471733712
40
0.202360878254958
40
0.202360878254958
40
0.219224284776205
40
0.219224284776205
40
0.236087691297452
40
0.236087691297452
40
0.269814504339945
40
0.269814504339945
40
0.303541317382439
40
0.303541317382439
40
0.320404723903686
40
0.320404723903686
40
0.337268130424932
40
0.337268130424932
40
0.370994943467426
40
0.370994943467426
40
0.404721756509919
40
0.404721756509919
40
0.421585163031165
40
0.421585163031165
40
0.438448569552411
40
0.438448569552411
40
0.472175382594902
40
0.472175382594902
40
0.505902195637394
40
0.505902195637394
40
0.522765602158639
40
0.522765602158639
40
0.539629008679883
40
0.539629008679883
40
0.607082634764858
40
0.607082634764858
40
0.623946041286103
40
0.623946041286103
40
0.640809447807349
40
0.640809447807349
40
0.674536260849837
40
0.674536260849837
40
0.708263073892325
40
0.708263073892325
40
0.725126480413569
40
0.725126480413569
40
0.741989886934812
40
0.741989886934812
40
0.809443513019781
40
0.809443513019781
40
0.826306919541023
40
0.826306919541023
40
0.843170326062266
40
0.843170326062266
40
0.876897139104751
40
0.876897139104751
40
0.910623952147237
40
0.910623952147237
40
0.927487358668479
40
0.927487358668479
40
0.944350765189722
40
0.944350765189722
40
1
40
1
40
1
40
1
41
1
10
334.5
20
4.28674648627256
30
0
41
1
10
334.085525629966
20
4.4335244894236
30
0
41
1
10
333.671149978883
20
4.5798081509117
30
0
41
1
10
332.842518198852
20
4.8711799138452
30
0
41
1
10
332.428275915653
20
5.01630670382846
30
0
41
1
10
331.185791243912
20
5.45007937722542
30
0
41
1
10
330.357786563447
20
5.73710737146053
30
0
41
1
10
329.116345442442
20
6.16466883678862
30
0
41
1
10
328.70262707962
20
6.30669482099907
30
0
41
1
10
327.875397460552
20
6.58979776765483
30
0
41
1
10
327.461899647293
20
6.73090982594994
30
0
41
1
10
326.635044930695
20
7.0120047865494
30
0
41
1
10
326.221653552765
20
7.1518972462178
30
0
41
1
10
325.394828516592
20
7.43008133743851
30
0
41
1
10
324.981412571918
20
7.56841950162351
30
0
41
1
10
323.741178705917
20
7.98124352865366
30
0
41
1
10
322.914370198883
20
8.25352918129795
30
0
41
1
10
321.674266521442
20
8.65778870652889
30
0
41
1
10
321.260917749055
20
8.7918489323275
30
0
41
1
10
320.434275223686
20
9.05862037946685
30
0
41
1
10
320.020991758444
20
9.19135677071864
30
0
41
1
10
319.19443725644
20
9.45536784094469
30
0
41
1
10
318.781135888844
20
9.58656764881786
30
0
41
1
10
317.954331317746
20
9.84698549855383
30
0
41
1
10
317.540848750012
20
9.97625441278248
30
0
41
1
10
316.300186810196
20
10.3613120803467
30
0
41
1
10
315.472788760361
20
10.6143430097754
30
0
41
1
10
313.817526254661
20
11.1133204028308
30
0
41
1
10
312.989684774607
20
11.3593197531669
30
0
41
1
10
311.747609753025
20
11.7230439949193
30
0
41
1
10
311.333499484267
20
11.8433293258502
30
0
41
1
10
310.504923783462
20
12.0815704530224
30
0
41
1
10
310.090479562676
20
12.1995751092602
30
0
41
1
10
308.846705728266
20
12.5503089444993
30
0
41
1
10
308.018316652621
20
12.7793599709078
30
0
41
1
10
306.363464525646
20
13.2281651353152
30
0
41
1
10
305.536973453347
20
13.4479622013924
30
0
41
1
10
304.298683673824
20
13.7708325264371
30
0
41
1
10
303.886140585998
20
13.8772688892561
30
0
41
1
10
303.061296543838
20
14.087352813944
30
0
41
1
10
302.649013541418
20
14.191041235328
30
0
41
1
10
301.41260500449
20
14.498128011203
30
0
41
1
10
300.588916000711
20
14.6975436635931
30
0
41
1
10
298.942798409155
20
15.0860259345228
30
0
41
1
10
298.120376776138
20
15.2751060598037
30
0
41
1
10
296.887780828108
20
15.5511033890161
30
0
41
1
10
296.477079880059
20
15.6418132937627
30
0
41
1
10
295.655782052874
20
15.8202621860412
30
0
41
1
10
295.245197291672
20
15.9080249636144
30
0
41
1
10
293.192638416995
20
16.3396527788708
30
0
41
1
10
291.551730458628
20
16.6619940421992
30
0
41
1
10
289.502607121144
20
17.0371342485148
30
0
41
1
10
289.092890166086
20
17.1107757290009
30
0
41
1
10
288.273441065154
20
17.2549582141437
30
0
41
1
10
287.863705986834
20
17.3254976092586
30
0
41
1
10
286.634497163082
20
17.5325222691542
30
0
41
1
10
285.815019888397
20
17.6644176099267
30
0
41
1
10
284.176153432166
20
17.9161298898574
30
0
41
1
10
283.35676780267
20
18.035951719617
30
0
41
1
10
282.127855520558
20
18.206684290486
30
0
41
1
10
281.718260552851
20
18.262108143433
30
0
41
1
10
280.898955192292
20
18.3697606745289
30
0
41
1
10
280.489222984967
20
18.4219687109235
30
0
41
1
10
278.440175361857
20
18.6749622025642
30
0
41
1
10
276.799731132304
20
18.851721305094
30
0
41
1
10
274.74823862713
20
19.0409297089488
30
0
41
1
10
274.337910110596
20
19.0771899226941
30
0
41
1
10
273.517037521067
20
19.1464229757219
30
0
41
1
10
273.106461901996
20
19.1793756402471
30
0
41
1
10
271.874265987634
20
19.2732240418631
30
0
41
1
10
271.052211875597
20
19.3291377846007
30
0
41
1
10
269.407020174309
20
19.427719297725
30
0
41
1
10
268.583883339987
20
19.4703882082249
30
0
41
1
10
267.348455017499
20
19.5244071374832
30
0
41
1
10
266.936538876028
20
19.5407518603224
30
0
41
1
10
266.112382087006
20
19.5700607898858
30
0
41
1
10
265.700108370979
20
19.5830155095833
30
0
41
1
10
263.926324243496
20
19.6313805959915
30
0
41
1
10
262.562648963792
20
19.6500159431784
30
0
41
1
10
261.196798784616
20
19.6500062152084
30
0
0
SPLINE
5
C3
100
AcDbEntity
8
1
62
256
6
ByLayer
370
18
48
1
60
0
100
AcDbSpline
70
4
71
3
72
121
73
117
40
0
40
0
40
0
40
0
40
0.0038968405739836
40
0.0038968405739836
40
0.0148430291391049
40
0.0367354062693479
40
0.0367354062693479
40
0.0476815948344699
40
0.0476815948344699
40
0.0586277833995918
40
0.0586277833995918
40
0.0695739719647138
40
0.0695739719647138
40
0.0805201605298354
40
0.0805201605298354
40
0.124304914790322
40
0.124304914790322
40
0.135251103355444
40
0.135251103355444
40
0.146197291920565
40
0.146197291920565
40
0.168089669050808
40
0.168089669050808
40
0.18998204618105
40
0.18998204618105
40
0.200928234746171
40
0.200928234746171
40
0.211874423311292
40
0.211874423311292
40
0.255659177571777
40
0.255659177571777
40
0.266605366136898
40
0.266605366136898
40
0.27755155470202
40
0.27755155470202
40
0.299443931832262
40
0.299443931832262
40
0.321336308962505
40
0.321336308962505
40
0.343228686092748
40
0.343228686092748
40
0.387013440353234
40
0.387013440353234
40
0.397959628918355
40
0.397959628918355
40
0.408905817483477
40
0.408905817483477
40
0.43079819461372
40
0.43079819461372
40
0.452690571743963
40
0.452690571743963
40
0.463636760309084
40
0.463636760309084
40
0.474582948874205
40
0.474582948874205
40
0.496475326004447
40
0.496475326004447
40
0.507421514569568
40
0.507421514569568
40
0.518367703134689
40
0.518367703134689
40
0.52931389169981
40
0.52931389169981
40
0.540260080264931
40
0.540260080264931
40
0.562152457395173
40
0.562152457395173
40
0.584044834525415
40
0.584044834525415
40
0.594991023090535
40
0.594991023090535
40
0.605937211655656
40
0.605937211655656
40
0.649721965916139
40
0.649721965916139
40
0.66066815448126
40
0.66066815448126
40
0.67161434304638
40
0.67161434304638
40
0.693506720176622
40
0.693506720176622
40
0.715399097306863
40
0.715399097306863
40
0.726345285871983
40
0.726345285871983
40
0.737291474437104
40
0.737291474437104
40
0.781076228697587
40
0.781076228697587
40
0.792022417262707
40
0.792022417262707
40
0.802968605827828
40
0.802968605827828
40
0.82486098295807
40
0.82486098295807
40
0.846753360088311
40
0.846753360088311
40
0.857699548653431
40
0.857699548653431
40
0.868645737218552
40
0.868645737218552
40
0.879591925783672
40
0.879591925783672
40
0.890538114348793
40
0.890538114348793
40
0.912430491479034
40
0.912430491479034
40
0.923376680044155
40
0.923376680044155
40
0.934322868609276
40
0.934322868609276
40
0.945269057174396
40
0.945269057174396
40
0.956215245739517
40
0.956215245739517
40
1
40
1
40
1
40
1
41
1
10
130.482505081525
20
-14.6078763283785
30
0
41
1
10
130.335250712716
20
-14.6436143045516
30
0
41
1
10
130.187984315551
20
-14.6791905824863
30
0
41
1
10
129.626981692964
20
-14.8140452284307
30
0
41
1
10
128.385398429091
20
-15.1083016488684
30
0
41
1
10
127.14262710192
20
-15.3904875017862
30
0
41
1
10
125.899139481447
20
-15.6647584971354
30
0
41
1
10
125.484447766757
20
-15.7548792647942
30
0
41
1
10
124.655481553814
20
-15.9323677797052
30
0
41
1
10
124.241154407925
20
-16.0197480660726
30
0
41
1
10
123.412826591563
20
-16.1917964564555
30
0
41
1
10
122.998840217056
20
-16.2764855201191
30
0
41
1
10
122.171001713653
20
-16.4428395344646
30
0
41
1
10
121.757132815685
20
-16.5244805054526
30
0
41
1
10
119.688072244647
20
-16.9251052877658
30
0
41
1
10
118.033730633779
20
-17.221433145478
30
0
41
1
10
115.967545518383
20
-17.5625038462546
30
0
41
1
10
115.554413261435
20
-17.6292660830316
30
0
41
1
10
114.728160841459
20
-17.7596353218093
30
0
41
1
10
114.315014071928
20
-17.8232119152024
30
0
41
1
10
113.075506070433
20
-18.00913516952
30
0
41
1
10
112.249094451485
20
-18.1266999101125
30
0
41
1
10
110.5962273557
20
-18.3492177591009
30
0
41
1
10
109.769774137154
20
-18.4541738799825
30
0
41
1
10
108.530165768882
20
-18.6021945933301
30
0
41
1
10
108.116992123853
20
-18.6499788717895
30
0
41
1
10
107.29053720327
20
-18.7422760224354
30
0
41
1
10
106.877222802862
20
-18.7867616666455
30
0
41
1
10
104.81013531272
20
-19.0008400226197
30
0
41
1
10
103.154940548501
20
-19.145576747789
30
0
41
1
10
101.084634722101
20
-19.2935515316057
30
0
41
1
10
100.670524499107
20
-19.3215015157192
30
0
41
1
10
99.842072891338
20
-19.3740236575206
30
0
41
1
10
99.4276961627763
20
-19.3985788453976
30
0
41
1
10
98.1840174806653
20
-19.4670953059788
30
0
41
1
10
97.3552324751955
20
-19.5058812913702
30
0
41
1
10
95.6985815368352
20
-19.5698055295862
30
0
41
1
10
94.8706899916846
20
-19.5949458259712
30
0
41
1
10
93.2159127407114
20
-19.631588251408
30
0
41
1
10
92.3891173789093
20
-19.6430762340995
30
0
41
1
10
89.9086525821934
20
-19.656886344909
30
0
41
1
10
88.2553055355671
20
-19.6387623393878
30
0
41
1
10
86.1895940624323
20
-19.581970771847
30
0
41
1
10
85.7765127281716
20
-19.5688963665761
30
0
41
1
10
84.9503995402928
20
-19.5393180971774
30
0
41
1
10
84.5373359672503
20
-19.522822236275
30
0
41
1
10
83.2979126190756
20
-19.4682977399434
30
0
41
1
10
82.4714026955147
20
-19.4252152247203
30
0
41
1
10
80.8180388288917
20
-19.3255967771448
30
0
41
1
10
79.9911821552602
20
-19.2690627556114
30
0
41
1
10
78.750737926152
20
-19.1740645494479
30
0
41
1
10
78.3372377156963
20
-19.1406924799719
30
0
41
1
10
77.5101562289456
20
-19.070543898994
30
0
41
1
10
77.0965485521283
20
-19.0337833191518
30
0
41
1
10
75.8552597015833
20
-18.9186357062327
30
0
41
1
10
75.0272014970616
20
-18.8353313985487
30
0
41
1
10
73.7844017315785
20
-18.7005240078393
30
0
41
1
10
73.3700155517451
20
-18.6539459930227
30
0
41
1
10
72.5410197817887
20
-18.5574834689061
30
0
41
1
10
72.1263203693339
20
-18.5075868755737
30
0
41
1
10
71.297598656913
20
-18.404566824587
30
0
41
1
10
70.8834935173529
20
-18.3514288239602
30
0
41
1
10
70.0557766544279
20
-18.2419118298643
30
0
41
1
10
69.6421461480557
20
-18.1855523776191
30
0
41
1
10
68.40165101796
20
-18.0120233409772
30
0
41
1
10
67.5752611764904
20
-17.8903216892103
30
0
41
1
10
65.9237896911227
20
-17.6348871295473
30
0
41
1
10
65.0987034566801
20
-17.5011603548792
30
0
41
1
10
63.8621442019382
20
-17.2914394966943
30
0
41
1
10
63.4501381416791
20
-17.2200069342315
30
0
41
1
10
62.6264881987339
20
-17.0740813990935
30
0
41
1
10
62.2148332894822
20
-16.9996024412102
30
0
41
1
10
60.1568588821798
20
-16.6204523256148
30
0
41
1
10
58.5116935453846
20
-16.2952360924485
30
0
41
1
10
56.4573107898992
20
-15.860700068448
30
0
41
1
10
56.0465392525144
20
-15.7723857400092
30
0
41
1
10
55.2252199449131
20
-15.5929103818328
30
0
41
1
10
54.8146733050624
20
-15.5017454440781
30
0
41
1
10
53.5830200257235
20
-15.2245897246253
30
0
41
1
10
52.7619221645954
20
-15.0349099779198
30
0
41
1
10
51.1198561446941
20
-14.645588778183
30
0
41
1
10
50.2988815678421
20
-14.4459593632521
30
0
41
1
10
49.067603548212
20
-14.1388669197024
30
0
41
1
10
48.6572087452836
20
-14.0352260896185
30
0
41
1
10
47.8364951992801
20
-13.8253531666049
30
0
41
1
10
47.4261890587097
20
-13.7190939512077
30
0
41
1
10
45.3743623634641
20
-13.1822904045317
30
0
41
1
10
43.7317355502173
20
-12.7357656416146
30
0
41
1
10
41.6775669784829
20
-12.1551137220163
30
0
41
1
10
41.2666901267649
20
-12.0378519945795
30
0
41
1
10
40.4448633693384
20
-11.8010230960297
30
0
41
1
10
40.0339301352674
20
-11.6814161766518
30
0
41
1
10
38.800797186658
20
-11.3196372184659
30
0
41
1
10
37.9781383692759
20
-11.0748101609086
30
0
41
1
10
36.3317534696827
20
-10.5777456743949
30
0
41
1
10
35.5080306515996
20
-10.325501135393
30
0
41
1
10
34.2717363121573
20
-9.94131945181181
30
0
41
1
10
33.8595206768138
20
-9.8122867763461
30
0
41
1
10
33.0348669843373
20
-9.55222954890246
30
0
41
1
10
32.6224450866642
20
-9.42116189181624
30
0
41
1
10
31.7972688720237
20
-9.15730531268204
30
0
41
1
10
31.3844818327166
20
-9.02460348558844
30
0
41
1
10
30.558463863348
20
-8.75778117093446
30
0
41
1
10
30.1452429873392
20
-8.62363417049673
30
0
41
1
10
28.904964958608
20
-8.21893246163427
30
0
41
1
10
28.0772891771036
20
-7.94612954050368
30
0
41
1
10
26.8346169691747
20
-7.53215850821977
30
0
41
1
10
26.4201550888616
20
-7.39335525967724
30
0
41
1
10
25.5910559474843
20
-7.1141682603762
30
0
41
1
10
25.1766083716927
20
-6.97380275581924
30
0
41
1
10
24.3477993969795
20
-6.69182900230044
30
0
41
1
10
23.933401522581
20
-6.55031553242895
30
0
41
1
10
23.1045338248139
20
-6.26646205773977
30
0
41
1
10
22.6900790770396
20
-6.12408295392805
30
0
41
1
10
20.6177397645971
20
-5.40983203437131
30
0
41
1
10
18.9596291993134
20
-4.83099870816025
30
0
41
1
10
17.3017765462542
20
-4.24332419311162
30
0
0
SPLINE
5
C4
100
AcDbEntity
8
1
62
256
6
ByLayer
370
18
48
1
60
0
100
AcDbSpline
70
4
71
3
72
88
73
84
40
0
40
0
40
0
40
0
40
0.0625000000000004
40
0.0625000000000004
40
0.0937500000000006
40
0.0937500000000006
40
0.125000000000001
40
0.125000000000001
40
0.156250000000001
40
0.156250000000001
40
0.164062500000001
40
0.164062500000001
40
0.171875000000001
40
0.171875000000001
40
0.1875
40
0.1875
40
0.21875
40
0.21875
40
0.249999999999999
40
0.249999999999999
40
0.281249999999998
40
0.281249999999998
40
0.296874999999998
40
0.304687499999998
40
0.304687499999998
40
0.312499999999997
40
0.312499999999997
40
0.343749999999997
40
0.343749999999997
40
0.374999999999996
40
0.374999999999996
40
0.406249999999995
40
0.406249999999995
40
0.421874999999995
40
0.421874999999995
40
0.429687499999995
40
0.429687499999995
40
0.437499999999995
40
0.437499999999995
40
0.468749999999995
40
0.468749999999995
40
0.499999999999994
40
0.531249999999994
40
0.531249999999994
40
0.546874999999994
40
0.546874999999994
40
0.554687499999994
40
0.554687499999994
40
0.562499999999994
40
0.562499999999994
40
0.593749999999995
40
0.593749999999995
40
0.624999999999995
40
0.624999999999995
40
0.656249999999996
40
0.656249999999996
40
0.664062499999996
40
0.664062499999996
40
0.671874999999996
40
0.687499999999997
40
0.687499999999997
40
0.718749999999998
40
0.718749999999998
40
0.749999999999998
40
0.749999999999998
40
0.781249999999999
40
0.781249999999999
40
0.789062499999999
40
0.789062499999999
40
0.796874999999999
40
0.812499999999999
40
0.812499999999999
40
0.843749999999999
40
0.843749999999999
40
0.874999999999998
40
0.874999999999998
40
0.937499999999998
40
0.937499999999998
40
0.968749999999998
40
0.968749999999998
40
0.984374999999999
40
0.984374999999999
40
1
40
1
40
1
40
1
41
1
10
10
20
17.2253335446892
30
0
41
1
10
9.50226881785386
20
17.1086510390948
30
0
41
1
10
9.02338043661231
20
16.974588522135
30
0
41
1
10
8.33323372424405
20
16.7431812924713
30
0
41
1
10
8.10789384875366
20
16.6609785398506
30
0
41
1
10
7.66676873248089
20
16.4855193652802
30
0
41
1
10
7.45098283030016
20
16.3922644146515
30
0
41
1
10
7.02921895733927
20
16.1935985126583
30
0
41
1
10
6.82323993267936
20
16.0881897512313
30
0
41
1
10
6.57214359543616
20
15.9479932669535
30
0
41
1
10
6.5222435980191
20
15.9195315096288
30
0
41
1
10
6.42309004465368
20
15.8617391383308
30
0
41
1
10
6.37379704249506
20
15.8323838527236
30
0
41
1
10
6.22736530634904
20
15.7432635835683
30
0
41
1
10
6.13157716450523
20
15.6823925846008
30
0
41
1
10
5.84971149161736
20
15.4952710963895
30
0
41
1
10
5.66912623788015
20
15.36451723425
30
0
41
1
10
5.32275341968479
20
15.0901605179739
30
0
41
1
10
5.15696474187757
20
14.9465592646714
30
0
41
1
10
4.84055123604358
20
14.6454909510058
30
0
41
1
10
4.68992453118396
20
14.488026255087
30
0
41
1
10
4.47582987090077
20
14.2404866859406
30
0
41
1
10
4.37174724119191
20
14.1138781223123
30
0
41
1
10
4.2722351019206
20
13.9828006565639
30
0
41
1
10
4.20692579072885
20
13.8943964534727
30
0
41
1
10
4.17475138011693
20
13.8496329524674
30
0
41
1
10
4.01701515742444
20
13.6239411639497
30
0
41
1
10
3.90091233775539
20
13.4375464026569
30
0
41
1
10
3.68884941681767
20
13.05262104033
30
0
41
1
10
3.59288832844227
20
12.8540914707763
30
0
41
1
10
3.4214309202539
20
12.4442999059593
30
0
41
1
10
3.34593255300896
20
12.2330394282698
30
0
41
1
10
3.24857245609877
20
11.9060151822773
30
0
41
1
10
3.21877028677471
20
11.7953166137607
30
0
41
1
10
3.17814422232416
20
11.6266436366933
30
0
41
1
10
3.16528197598248
20
11.5699816676772
30
0
41
1
10
3.14093685971062
20
11.4557659669254
30
0
41
1
10
3.12949099610056
20
11.3983816980261
30
0
41
1
10
3.07596431948217
20
11.1105536557501
30
0
41
1
10
3.04486970134619
20
10.8769073951093
30
0
41
1
10
3.00560730812015
20
10.4028875779008
30
0
41
1
10
2.98927368772137
20
9.9221404151923
30
0
41
1
10
3.01862319434521
20
9.42792022526555
30
0
41
1
10
3.05802075107826
20
9.05215847667583
30
0
41
1
10
3.07405417969788
20
8.92605472682206
30
0
41
1
10
3.10251832211773
20
8.73561516814979
30
0
41
1
10
3.11275533836151
20
8.67185255691319
30
0
41
1
10
3.13460178568698
20
8.54452300716153
30
0
41
1
10
3.14621832851438
20
8.48089825308125
30
0
41
1
10
3.20772030948147
20
8.16297577872766
30
0
41
1
10
3.26784632850968
20
7.90927955791398
30
0
41
1
10
3.40902666049735
20
7.4032409171013
30
0
41
1
10
3.49008385868881
20
7.15089874931721
30
0
41
1
10
3.6725994505355
20
6.64769532944035
30
0
41
1
10
3.77405975032387
20
6.39683420131394
30
0
41
1
10
3.91350316753525
20
6.08429440294225
30
0
41
1
10
3.94202724068343
20
6.02183028950046
30
0
41
1
10
4.00032251950776
20
5.89704217413066
30
0
41
1
10
4.0893899039922
20
5.71059679240366
30
0
41
1
10
4.18324357283814
20
5.52633144107034
30
0
41
1
10
4.37713118675944
20
5.16064025795652
30
0
41
1
10
4.51462219672467
20
4.92062871375779
30
0
41
1
10
4.80521631824571
20
4.44791076726861
30
0
41
1
10
4.95832192356732
20
4.21520549568271
30
0
41
1
10
5.27951761613541
20
3.75693992796033
30
0
41
1
10
5.44760958784464
20
3.53138051345317
30
0
41
1
10
5.66679400895512
20
3.25383875887417
30
0
41
1
10
5.71109008443037
20
3.19854584384788
30
0
41
1
10
5.80028524569705
20
3.08876068766636
30
0
41
1
10
5.93509146392405
20
2.92514483661623
30
0
41
1
10
6.07287635835225
20
2.76465164109001
30
0
41
1
10
6.3522676316107
20
2.44767573829373
30
0
41
1
10
6.54362042139513
20
2.24170236602558
30
0
41
1
10
6.93581002470988
20
1.83972969377586
30
0
41
1
10
7.13664827730756
20
1.64373189429583
30
0
41
1
10
7.75248095014693
20
1.0697722040708
30
0
41
1
10
8.18078315487132
20
0.705835082017188
30
0
41
1
10
8.84662197999255
20
0.18465997918733
30
0
41
1
10
9.07246952015815
20
0.0150601415372762
30
0
41
1
10
9.41670425446515
20
-0.233554367585356
30
0
41
1
10
9.53241572530591
20
-0.315499704350259
30
0
41
1
10
9.76517728363311
20
-0.477242445717252
30
0
41
1
10
9.88225544425707
20
-0.5570618297794
30
0
41
1
10
9.99999999999997
20
-0.635876993831374
30
0
0
SPLINE
5
C5
100
AcDbEntity
8
1
62
256
6
ByLayer
370
18
48
1
60
0
100
AcDbSpline
70
4
71
3
72
22
73
18
40
0
40
0
40
0
40
0
40
0.125
40
0.125
40
0.25
40
0.25
40
0.375
40
0.375
40
0.5
40
0.5
40
0.625
40
0.625
40
0.75
40
0.75
40
0.875
40
0.875
40
1
40
1
40
1
40
1
41
1
10
17.3017765462539
20
-4.24332419311148
30
0
41
1
10
16.9815746520503
20
-4.126202138678
30
0
41
1
10
16.6635686227551
20
-4.00461788254916
30
0
41
1
10
16.0314501921872
20
-3.75344910727895
30
0
41
1
10
15.7173362940019
20
-3.62386769144382
30
0
41
1
10
15.0927209198367
20
-3.35720505050907
30
0
41
1
10
14.7822190136881
20
-3.22012488556752
30
0
41
1
10
14.1647981997969
20
-2.9384670111958
30
0
41
1
10
13.8578800910416
20
-2.79388795465673
30
0
41
1
10
13.247843767531
20
-2.49674036618063
30
0
41
1
10
12.9447271913767
20
-2.34416881259776
30
0
41
1
10
12.3427186307583
20
-2.03011937038539
30
0
41
1
10
12.0438284413681
20
-1.86863812474289
30
0
41
1
10
11.4508509225685
20
-1.53552856541862
30
0
41
1
10
11.1567649360513
20
-1.3638977808514
30
0
41
1
10
10.5740784345325
20
-1.0090163177783
30
0
41
1
10
10.2854784638223
20
-0.8257647794847
30
0
41
1
10
9.99999999999997
20
-0.635876993831374
30
0
0
SPLINE
5
C6
100
AcDbEntity
8
1
62
256
6
ByLayer
370
18
48
1
60
0
100
AcDbSpline
70
4
71
4
72
16
73
11
40
0
40
0
40
0
40
0
40
0
40
0.332657301109389
40
0.332657301109389
40
0.332657301109389
40
0.782014526875555
40
0.782014526875555
40
0.782014526875555
40
1
40
1
40
1
40
1
40
1
41
0.997346169035112
10
25.9880822267555
20
17.4000103576225
30
0
41
0.994890664567514
10
25.7552828651155
20
15.7733102189362
30
0
41
0.993442107175867
10
25.2941755836491
20
13.6211834715109
30
0
41
1
10
24.618339756565
20
11.1620092165748
30
0
41
1
10
22.921576476509
20
5.72735714303235
30
0
41
0.988033871712585
10
21.6449293865049
20
2.17863797890561
30
0
41
1
10
20.3682822965007
20
-0.634587989570122
30
0
41
1
10
18.9203263471207
20
-3.21248651618444
30
0
41
0.997184047658321
10
18.4684145249002
20
-3.89107186325058
30
0
41
0.995650241336128
10
18.0820995342726
20
-4.30170115083345
30
0
41
0.995520662724795
10
17.7814277515765
20
-4.43229758545789
30
0
0
SPLINE
5
C7
100
AcDbEntity
8
1
62
256
6
ByLayer
370
18
48
1
60
0
100
AcDbSpline
70
4
71
3
72
38
73
34
40
0
40
0
40
0
40
0
40
0.0624999999999929
40
0.0624999999999929
40
0.124999999999986
40
0.124999999999986
40
0.187499999999979
40
0.187499999999979
40
0.249999999999971
40
0.312499999999964
40
0.312499999999964
40
0.328124999999964
40
0.328124999999964
40
0.343749999999963
40
0.343749999999963
40
0.374999999999962
40
0.374999999999962
40
0.437499999999962
40
0.437499999999962
40
0.499999999999963
40
0.499999999999963
40
0.624999999999966
40
0.624999999999966
40
0.656249999999965
40
0.656249999999965
40
0.671874999999966
40
0.671874999999966
40
0.687499999999967
40
0.749999999999974
40
0.749999999999974
40
0.874999999999987
40
0.874999999999987
40
1
40
1
40
1
40
1
41
1
10
9.99999999999999
20
17.2253335446892
30
0
41
1
10
10.304595173451
20
17.3057740310604
30
0
41
1
10
10.6129797549145
20
17.3789822799017
30
0
41
1
10
11.2370333603275
20
17.5127408549595
30
0
41
1
10
11.552703248223
20
17.5732879904871
30
0
41
1
10
12.1911473583538
20
17.6831225498095
30
0
41
1
10
12.5139221388828
20
17.7324079893836
30
0
41
1
10
13.1664868234253
20
17.8207943944418
30
0
41
1
10
13.8260670990246
20
17.8989946003542
30
0
41
1
10
14.499654622567
20
17.9584209739683
30
0
41
1
10
14.925058546035
20
17.9900394751029
30
0
41
1
10
15.0103600701815
20
17.9960864395198
30
0
41
1
10
15.1814060530626
20
18.0076331756682
30
0
41
1
10
15.2671287758714
20
18.0131308913819
30
0
41
1
10
15.5240949043653
20
18.0287628461194
30
0
41
1
10
15.69542083072
20
18.0380561552794
30
0
41
1
10
16.2094431908975
20
18.0626979681085
30
0
41
1
10
16.5521841822461
20
18.0748160217347
30
0
41
1
10
17.2377806875755
20
18.0910069631161
30
0
41
1
10
17.5806362143782
20
18.0950782238828
30
0
41
1
10
18.6093690533675
20
18.0957413366948
30
0
41
1
10
19.2954127453988
20
18.0808460478789
30
0
41
1
10
20.1532268560401
20
18.043542474849
30
0
41
1
10
20.3248026443541
20
18.0351424630236
30
0
41
1
10
20.5821853978781
20
18.0211297025032
30
0
41
1
10
20.6680158650813
20
18.0162210847701
30
0
41
1
10
20.8393088764646
20
18.0059551399744
30
0
41
1
10
21.2668243827722
20
17.9791579223605
30
0
41
1
10
21.6908293130994
20
17.9467436864169
30
0
41
1
10
22.7022828547704
20
17.8584147828398
30
0
41
1
10
23.3683691491577
20
17.7854753456199
30
0
41
1
10
24.6873327854885
20
17.6126464259529
30
0
41
1
10
25.340236043727
20
17.5127764044007
30
0
41
1
10
25.9880822267554
20
17.400010357623
30
0
0
LINE
5
7B
100
AcDbEntity
8
SK4
62
256
6
ByLayer
370
18
48
0.05
60
0
100
AcDbLine
10
-75
20
0
30
0
11
366.5
21
0
31
0
39
0
210
0
220
0
230
1
0
LINE
5
7D
100
AcDbEntity
8
80
62
256
6
ByLayer
370
18
48
1
60
0
100
AcDbLine
10
0
20
0
30
0
11
-5
21
0
31
0
39
0
210
0
220
0
230
1
0
LINE
5
7E
100
AcDbEntity
8
4
62
256
6
ByLayer
370
18
48
0.05
60
0
100
AcDbLine
10
-5
20
0
30
0
11
366.5
21
0
31
0
39
0
210
0
220
0
230
1
0
LINE
5
80
100
AcDbEntity
8
1
62
256
6
ByLayer
370
18
48
1
60
0
100
AcDbLine
10
90.727115
20
19.65
30
0
11
10
21
19.65
31
0
39
0
210
0
220
0
230
1
0
LINE
5
81
100
AcDbEntity
8
1
62
256
6
ByLayer
370
18
48
1
60
0
100
AcDbLine
10
170.237795
20
-19.65
30
0
11
261.197508
21
-19.65
31
0
39
0
210
0
220
0
230
1
0
LINE
5
82
100
AcDbEntity
8
1
62
256
6
ByLayer
370
18
48
1
60
0
100
AcDbLine
10
261.197508
20
19.65
30
0
11
170.237795
21
19.65
31
0
39
0
210
0
220
0
230
1
0
LINE
5
83
100
AcDbEntity
8
1
62
256
6
ByLayer
370
18
48
1
60
0
100
AcDbLine
10
10
20
-19.65
30
0
11
90.727115
21
-19.65
31
0
39
0
210
0
220
0
230
1
0
LINE
5
84
100
AcDbEntity
8
1
62
256
6
ByLayer
370
18
48
1
60
0
100
AcDbLine
10
361.5
20
0
30
0
11
354.311588
21
19.75
31
0
39
0
210
0
220
0
230
1
0
LINE
5
85
100
AcDbEntity
8
1
62
256
6
ByLayer
370
18
48
1
60
0
100
AcDbLine
10
354.311588
20
-19.75
30
0
11
361.5
21
0
31
0
39
0
210
0
220
0
230
1
0
LINE
5
86
100
AcDbEntity
8
1
62
256
6
ByLayer
370
18
48
1
60
0
100
AcDbLine
10
10
20
19.65
30
0
11
0
21
20
31
0
39
0
210
0
220
0
230
1
0
LINE
5
87
100
AcDbEntity
8
1
62
256
6
ByLayer
370
18
48
1
60
0
100
AcDbLine
10
0
20
-20
30
0
11
10
21
-19.65
31
0
39
0
210
0
220
0
230
1
0
LINE
5
88
100
AcDbEntity
8
1
62
256
6
ByLayer
370
18
48
1
60
0
100
AcDbLine
10
361.5
20
0
30
0
11
354.311588
21
19.75
31
0
39
0
210
0
220
0
230
1
0
LINE
5
89
100
AcDbEntity
8
1
62
256
6
ByLayer
370
18
48
1
60
0
100
AcDbLine
10
354.311588
20
-19.75
30
0
11
361.5
21
0
31
0
39
0
210
0
220
0
230
1
0
LINE
5
8A
100
AcDbEntity
8
1
62
256
6
ByLayer
370
18
48
1
60
0
100
AcDbLine
10
354.311588
20
19.75
30
0
11
334.5
21
19.75
31
0
39
0
210
0
220
0
230
1
0
LINE
5
8B
100
AcDbEntity
8
1
62
256
6
ByLayer
370
18
48
1
60
0
100
AcDbLine
10
334.5
20
-19.75
30
0
11
354.311588
21
-19.75
31
0
39
0
210
0
220
0
230
1
0
LINE
5
8C
100
AcDbEntity
8
SK1
62
256
6
ByLayer
370
18
48
1
60
0
100
AcDbLine
10
-69
20
-20
30
0
11
0
21
-20
31
0
39
0
210
0
220
0
230
1
0
LINE
5
8E
100
AcDbEntity
8
SK1
62
256
6
ByLayer
370
18
48
1
60
0
100
AcDbLine
10
0
20
20
30
0
11
-69
21
20
31
0
39
0
210
0
220
0
230
1
0
LINE
5
8F
100
AcDbEntity
8
1
62
256
6
ByLayer
370
18
48
1
60
0
100
AcDbLine
10
0
20
20
30
0
11
0
21
-20
31
0
39
0
210
0
220
0
230
1
0
LINE
5
90
100
AcDbEntity
8
1
62
256
6
ByLayer
370
18
48
1
60
0
100
AcDbLine
10
354.311588
20
19.75
30
0
11
354.311588
21
19.122868
31
0
39
0
210
0
220
0
230
1
0
LINE
5
91
100
AcDbEntity
8
1
62
256
6
ByLayer
370
18
48
1
60
0
100
AcDbLine
10
354.311588
20
-19.75
30
0
11
354.311588
21
-2.818112
31
0
39
0
210
0
220
0
230
1
0
LINE
5
92
100
AcDbEntity
8
1
62
256
6
ByLayer
370
18
48
1
60
0
100
AcDbLine
10
10
20
19.65
30
0
11
10
21
17.225334
31
0
39
0
210
0
220
0
230
1
0
LINE
5
93
100
AcDbEntity
8
1
62
256
6
ByLayer
370
18
48
1
60
0
100
AcDbLine
10
10
20
-19.65
30
0
11
10
21
-0.635877
31
0
39
0
210
0
220
0
230
1
0
LINE
5
94
100
AcDbEntity
8
SK1
62
256
6
ByLayer
370
18
48
1
60
0
100
AcDbLine
10
0
20
20
30
0
11
0
21
-20
31
0
39
0
210
0
220
0
230
1
0
LINE
5
95
100
AcDbEntity
8
SK1
62
256
6
ByLayer
370
18
48
1
60
0
100
AcDbLine
10
-9.144737
20
-8.717798
30
0
11
-61.13497
21
-8.717798
31
0
39
0
210
0
220
0
230
1
0
LINE
5
96
100
AcDbEntity
8
SK1
62
256
6
ByLayer
370
18
48
1
60
0
100
AcDbLine
10
-61.13497
20
8.717798
30
0
11
-9.144737
21
8.717798
31
0
39
0
210
0
220
0
230
1
0
LINE
5
97
100
AcDbEntity
8
SK1
62
256
6
ByLayer
370
18
48
1
60
0
100
AcDbLine
10
-9.144737
20
-8.717798
30
0
11
-9.144737
21
8.717798
31
0
39
0
210
0
220
0
230
1
0
LINE
5
98
100
AcDbEntity
8
1
62
256
6
ByLayer
370
18
48
1
60
0
100
AcDbLine
10
354.311588
20
19.75
30
0
11
354.311588
21
-19.75
31
0
39
0
210
0
220
0
230
1
0
LINE
5
99
100
AcDbEntity
8
1
62
256
6
ByLayer
370
18
48
1
60
0
100
AcDbLine
10
354.311588
20
19.75
30
0
11
354.311588
21
-19.75
31
0
39
0
210
0
220
0
230
1
0
LINE
5
9A
100
AcDbEntity
8
1
62
256
6
ByLayer
370
18
48
1
60
0
100
AcDbLine
10
354.311588
20
19.75
30
0
11
354.311588
21
-19.75
31
0
39
0
210
0
220
0
230
1
0
LINE
5
9B
100
AcDbEntity
8
1
62
256
6
ByLayer
370
18
48
1
60
0
100
AcDbLine
10
334.5
20
19.75
30
0
11
334.5
21
-19.75
31
0
39
0
210
0
220
0
230
1
0
LINE
5
9C
100
AcDbEntity
8
1
62
256
6
ByLayer
370
18
48
1
60
0
100
AcDbLine
10
334.5
20
19.75
30
0
11
334.5
21
-19.75
31
0
39
0
210
0
220
0
230
1
0
LINE
5
9D
100
AcDbEntity
8
SK2
62
256
6
ByLayer
370
13
48
1
60
0
100
AcDbLine
10
-76.5
20
-20
30
0
11
-76.5
21
49.340455
31
0
39
0
210
0
220
0
230
1
0
LINE
5
9F
100
AcDbEntity
8
SK2
62
256
6
ByLayer
370
13
48
1
60
0
100
AcDbLine
10
-71.5875
20
20
30
0
11
-78.5
21
20
31
0
39
0
210
0
220
0
230
1
0
LINE
5
A0
100
AcDbEntity
8
SK2
62
256
6
ByLayer
370
13
48
1
60
0
100
AcDbLine
10
-71.5875
20
-20
30
0
11
-78.5
21
-20
31
0
39
0
210
0
220
0
230
1
0
LINE
5
A1
100
AcDbEntity
8
1
62
256
6
ByLayer
370
18
48
1
60
1
100
AcDbLine
10
-76.5
20
20
30
0
11
-76.039216
21
16.500002
31
0
39
0
210
0
220
0
230
1
0
LINE
5
A2
100
AcDbEntity
8
1
62
256
6
ByLayer
370
18
48
1
60
1
100
AcDbLine
10
-76.039216
20
16.500002
30
0
11
-76.960784
21
16.499998
31
0
39
0
210
0
220
0
230
1
0
LINE
5
A3
100
AcDbEntity
8
1
62
256
6
ByLayer
370
18
48
1
60
1
100
AcDbLine
10
-76.960784
20
16.499998
30
0
11
-76.5
21
20
31
0
39
0
210
0
220
0
230
1
0
LINE
5
A4
100
AcDbEntity
8
1
62
256
6
ByLayer
370
18
48
1
60
1
100
AcDbLine
10
-76.5
20
-20
30
0
11
-76.960784
21
-16.500002
31
0
39
0
210
0
220
0
230
1
0
LINE
5
A5
100
AcDbEntity
8
1
62
256
6
ByLayer
370
18
48
1
60
1
100
AcDbLine
10
-76.960784
20
-16.500002
30
0
11
-76.039216
21
-16.499998
31
0
39
0
210
0
220
0
230
1
0
LINE
5
A6
100
AcDbEntity
8
1
62
256
6
ByLayer
370
18
48
1
60
1
100
AcDbLine
10
-76.039216
20
-16.499998
30
0
11
-76.5
21
-20
31
0
39
0
210
0
220
0
230
1
0
LINE
5
A7
100
AcDbEntity
8
2
62
256
6
ByLayer
370
13
48
1
60
0
100
AcDbLine
10
369
20
-19.75
30
0
11
369
21
48.774569
31
0
39
0
210
0
220
0
230
1
0
LINE
5
A9
100
AcDbEntity
8
2
62
256
6
ByLayer
370
13
48
1
60
0
100
AcDbLine
10
355.899088
20
19.75
30
0
11
371
21
19.75
31
0
39
0
210
0
220
0
230
1
0
LINE
5
AA
100
AcDbEntity
8
2
62
256
6
ByLayer
370
13
48
1
60
0
100
AcDbLine
10
355.899088
20
-19.75
30
0
11
371
21
-19.75
31
0
39
0
210
0
220
0
230
1
0
LINE
5
AB
100
AcDbEntity
8
1
62
256
6
ByLayer
370
18
48
1
60
1
100
AcDbLine
10
369
20
19.75
30
0
11
369.460784
21
16.250002
31
0
39
0
210
0
220
0
230
1
0
LINE
5
AC
100
AcDbEntity
8
1
62
256
6
ByLayer
370
18
48
1
60
1
100
AcDbLine
10
369.460784
20
16.250002
30
0
11
368.539216
21
16.249998
31
0
39
0
210
0
220
0
230
1
0
LINE
5
AD
100
AcDbEntity
8
1
62
256
6
ByLayer
370
18
48
1
60
1
100
AcDbLine
10
368.539216
20
16.249998
30
0
11
369
21
19.75
31
0
39
0
210
0
220
0
230
1
0
LINE
5
AE
100
AcDbEntity
8
1
62
256
6
ByLayer
370
18
48
1
60
1
100
AcDbLine
10
369
20
-19.75
30
0
11
368.539216
21
-16.250002
31
0
39
0
210
0
220
0
230
1
0
LINE
5
AF
100
AcDbEntity
8
1
62
256
6
ByLayer
370
18
48
1
60
1
100
AcDbLine
10
368.539216
20
-16.250002
30
0
11
369.460784
21
-16.249998
31
0
39
0
210
0
220
0
230
1
0
LINE
5
B0
100
AcDbEntity
8
1
62
256
6
ByLayer
370
18
48
1
60
1
100
AcDbLine
10
369.460784
20
-16.249998
30
0
11
369
21
-19.75
31
0
39
0
210
0
220
0
230
1
0
LINE
5
B1
100
AcDbEntity
8
SK2
62
256
6
ByLayer
370
13
48
1
60
0
100
AcDbLine
10
362.042957
20
-1.491762
30
0
11
368.682423
21
-19.733545
31
0
39
0
210
0
220
0
230
1
0
LINE
5
B2
100
AcDbEntity
8
SK2
62
256
6
ByLayer
370
13
48
1
60
0
100
AcDbLine
10
362.042957
20
1.491762
30
0
11
368.682423
21
19.733545
31
0
39
0
210
0
220
0
230
1
0
LINE
5
B3
100
AcDbEntity
8
1
62
256
6
ByLayer
370
18
48
1
60
1
100
AcDbLine
10
367.998383
20
-17.85416
30
0
11
371.051575
21
-16.082064
31
0
39
0
210
0
220
0
230
1
0
LINE
5
B4
100
AcDbEntity
8
1
62
256
6
ByLayer
370
18
48
1
60
1
100
AcDbLine
10
371.051575
20
-16.082064
30
0
11
371.406196
21
-16.93267
31
0
39
0
210
0
220
0
230
1
0
LINE
5
B5
100
AcDbEntity
8
1
62
256
6
ByLayer
370
18
48
1
60
1
100
AcDbLine
10
371.406196
20
-16.93267
30
0
11
367.998383
21
-17.85416
31
0
39
0
210
0
220
0
230
1
0
LINE
5
B6
100
AcDbEntity
8
1
62
256
6
ByLayer
370
18
48
1
60
1
100
AcDbLine
10
367.998383
20
17.85416
30
0
11
371.406193
21
16.932671
31
0
39
0
210
0
220
0
230
1
0
LINE
5
B7
100
AcDbEntity
8
1
62
256
6
ByLayer
370
18
48
1
60
1
100
AcDbLine
10
371.406193
20
16.932671
30
0
11
371.051579
21
16.082063
31
0
39
0
210
0
220
0
230
1
0
LINE
5
B8
100
AcDbEntity
8
1
62
256
6
ByLayer
370
18
48
1
60
1
100
AcDbLine
10
371.051579
20
16.082063
30
0
11
367.998383
21
17.85416
31
0
39
0
210
0
220
0
230
1
0
LINE
5
CC
100
AcDbEntity
8
1
62
256
6
ByLayer
370
18
48
1
60
1
100
AcDbLine
10
-76.5
20
20
30
0
11
-76.039216
21
16.500002
31
0
39
0
210
0
220
0
230
1
0
LINE
5
CD
100
AcDbEntity
8
1
62
256
6
ByLayer
370
18
48
1
60
1
100
AcDbLine
10
-76.039216
20
16.500002
30
0
11
-76.960784
21
16.499998
31
0
39
0
210
0
220
0
230
1
0
LINE
5
CE
100
AcDbEntity
8
1
62
256
6
ByLayer
370
18
48
1
60
1
100
AcDbLine
10
-76.960784
20
16.499998
30
0
11
-76.5
21
20
31
0
39
0
210
0
220
0
230
1
0
LINE
5
D0
100
AcDbEntity
8
1
62
256
6
ByLayer
370
18
48
1
60
1
100
AcDbLine
10
-76.5
20
-20
30
0
11
-76.960784
21
-16.500002
31
0
39
0
210
0
220
0
230
1
0
LINE
5
D1
100
AcDbEntity
8
1
62
256
6
ByLayer
370
18
48
1
60
1
100
AcDbLine
10
-76.960784
20
-16.500002
30
0
11
-76.039216
21
-16.499998
31
0
39
0
210
0
220
0
230
1
0
LINE
5
D2
100
AcDbEntity
8
1
62
256
6
ByLayer
370
18
48
1
60
1
100
AcDbLine
10
-76.039216
20
-16.499998
30
0
11
-76.5
21
-20
31
0
39
0
210
0
220
0
230
1
0
LINE
5
D6
100
AcDbEntity
8
1
62
256
6
ByLayer
370
18
48
1
60
1
100
AcDbLine
10
369
20
19.75
30
0
11
369.460784
21
16.250002
31
0
39
0
210
0
220
0
230
1
0
LINE
5
D7
100
AcDbEntity
8
1
62
256
6
ByLayer
370
18
48
1
60
1
100
AcDbLine
10
369.460784
20
16.250002
30
0
11
368.539216
21
16.249998
31
0
39
0
210
0
220
0
230
1
0
LINE
5
D8
100
AcDbEntity
8
1
62
256
6
ByLayer
370
18
48
1
60
1
100
AcDbLine
10
368.539216
20
16.249998
30
0
11
369
21
19.75
31
0
39
0
210
0
220
0
230
1
0
LINE
5
DA
100
AcDbEntity
8
1
62
256
6
ByLayer
370
18
48
1
60
1
100
AcDbLine
10
369
20
-19.75
30
0
11
368.539216
21
-16.250002
31
0
39
0
210
0
220
0
230
1
0
LINE
5
DB
100
AcDbEntity
8
1
62
256
6
ByLayer
370
18
48
1
60
1
100
AcDbLine
10
368.539216
20
-16.250002
30
0
11
369.460784
21
-16.249998
31
0
39
0
210
0
220
0
230
1
0
LINE
5
DC
100
AcDbEntity
8
1
62
256
6
ByLayer
370
18
48
1
60
1
100
AcDbLine
10
369.460784
20
-16.249998
30
0
11
369
21
-19.75
31
0
39
0
210
0
220
0
230
1
0
LINE
5
DF
100
AcDbEntity
8
1
62
256
6
ByLayer
370
18
48
1
60
1
100
AcDbLine
10
367.998383
20
-17.85416
30
0
11
371.051575
21
-16.082064
31
0
39
0
210
0
220
0
230
1
0
LINE
5
E0
100
AcDbEntity
8
1
62
256
6
ByLayer
370
18
48
1
60
1
100
AcDbLine
10
371.051575
20
-16.082064
30
0
11
371.406196
21
-16.93267
31
0
39
0
210
0
220
0
230
1
0
LINE
5
E1
100
AcDbEntity
8
1
62
256
6
ByLayer
370
18
48
1
60
1
100
AcDbLine
10
371.406196
20
-16.93267
30
0
11
367.998383
21
-17.85416
31
0
39
0
210
0
220
0
230
1
0
LINE
5
E3
100
AcDbEntity
8
1
62
256
6
ByLayer
370
18
48
1
60
1
100
AcDbLine
10
367.998383
20
17.85416
30
0
11
371.406193
21
16.932671
31
0
39
0
210
0
220
0
230
1
0
LINE
5
E4
100
AcDbEntity
8
1
62
256
6
ByLayer
370
18
48
1
60
1
100
AcDbLine
10
371.406193
20
16.932671
30
0
11
371.051579
21
16.082063
31
0
39
0
210
0
220
0
230
1
0
LINE
5
E5
100
AcDbEntity
8
1
62
256
6
ByLayer
370
18
48
1
60
1
100
AcDbLine
10
371.051579
20
16.082063
30
0
11
367.998383
21
17.85416
31
0
39
0
210
0
220
0
230
1
0
MTEXT
5
C8
100
AcDbEntity
8
SK2
62
256
6
ByLayer
370
18
48
1
60
0
100
AcDbMText
10
-77.841114
20
31.658438
30
0
210
0
220
0
230
1
1
%%c
40
3
41
0
44
1.084337
50
90
71
7
72
5
7
iso_b_vert
0
MTEXT
5
CB
100
AcDbEntity
8
SK2
62
256
6
ByLayer
370
18
48
1
60
0
100
AcDbMText
10
-77.841114
20
37.635
30
0
210
0
220
0
230
1
1
\W0.7728;40.000
40
3
41
0
44
1.084337
50
90
71
7
72
5
7
iso_b_vert
0
MTEXT
5
D4
100
AcDbEntity
8
2
62
256
6
ByLayer
370
18
48
1
60
0
100
AcDbMText
10
367.658886
20
31.408438
30
0
210
0
220
0
230
1
1
%%c
40
3
41
0
44
1.084337
50
90
71
7
72
5
7
iso_b_vert
0
MTEXT
5
D5
100
AcDbEntity
8
2
62
256
6
ByLayer
370
18
48
1
60
0
100
AcDbMText
10
367.658886
20
37.385
30
0
210
0
220
0
230
1
1
\W0.7513;39.500
40
3
41
0
44
1.084337
50
90
71
7
72
5
7
iso_b_vert
0
MTEXT
5
DE
100
AcDbEntity
8
SK2
62
256
6
ByLayer
370
18
48
1
60
0
100
AcDbMText
10
381.409114
20
3.734657
30
0
210
0
220
0
230
1
1
\W0.7071;140%%d
40
3
41
0
44
1.084337
50
270
71
7
72
5
7
iso_b_vert
0
MTEXT
5
E7
100
AcDbEntity
8
SK6
62
256
6
ByLayer
370
18
48
1
60
0
100
AcDbMText
10
121.514959
20
-67.114886
30
0
210
0
220
0
230
1
1
\W0.7680;H85839.5
40
3
41
0
44
1.084337
50
0
71
7
72
5
7
iso_b_vert
0
HATCH
5
CF
100
AcDbEntity
8
SK2
62
256
6
ByLayer
370
13
48
1
60
0
100
AcDbHatch
10
0
20
0
30
0
210
0
220
0
230
1
2
ANSI31
70
0
71
0
91
1
92
5
93
3
72
1
10
-76.5
20
20
11
-76.0392162584472
21
16.5000016925532
72
1
10
-76.0392162584472
20
16.5000016925532
11
-76.9607837415528
21
16.4999983074468
72
1
10
-76.9607837415528
20
16.4999983074468
11
-76.5
21
20
97
0
75
0
76
1
52
0
41
0.0062
77
0
78
1
53
45
43
0
44
0
45
-0.0139193969876572
46
0.0139193969876572
79
0
47
0
98
1
10
0
20
0
0
HATCH
5
D3
100
AcDbEntity
8
SK2
62
256
6
ByLayer
370
13
48
1
60
0
100
AcDbHatch
10
0
20
0
30
0
210
0
220
0
230
1
2
ANSI31
70
0
71
0
91
1
92
5
93
3
72
1
10
-76.5
20
-20
11
-76.9607837415528
21
-16.5000016925532
72
1
10
-76.9607837415528
20
-16.5000016925532
11
-76.0392162584472
21
-16.4999983074468
72
1
10
-76.0392162584472
20
-16.4999983074468
11
-76.5
21
-20
97
0
75
0
76
1
52
0
41
0.0062
77
0
78
1
53
45
43
0
44
0
45
-0.0139193969876572
46
0.0139193969876572
79
0
47
0
98
1
10
0
20
0
0
HATCH
5
D9
100
AcDbEntity
8
2
62
256
6
ByLayer
370
13
48
1
60
0
100
AcDbHatch
10
0
20
0
30
0
210
0
220
0
230
1
2
ANSI31
70
0
71
0
91
1
92
5
93
3
72
1
10
369
20
19.75
11
369.460783741553
21
16.2500016925532
72
1
10
369.460783741553
20
16.2500016925532
11
368.539216258447
21
16.2499983074468
72
1
10
368.539216258447
20
16.2499983074468
11
369
21
19.75
97
0
75
0
76
1
52
0
41
0.0062
77
0
78
1
53
45
43
0
44
0
45
-0.0139193969876572
46
0.0139193969876572
79
0
47
0
98
1
10
0
20
0
0
HATCH
5
DD
100
AcDbEntity
8
2
62
256
6
ByLayer
370
13
48
1
60
0
100
AcDbHatch
10
0
20
0
30
0
210
0
220
0
230
1
2
ANSI31
70
0
71
0
91
1
92
5
93
3
72
1
10
369
20
-19.75
11
368.539216258447
21
-16.2500016925532
72
1
10
368.539216258447
20
-16.2500016925532
11
369.460783741553
21
-16.2499983074468
72
1
10
369.460783741553
20
-16.2499983074468
11
369
21
-19.75
97
0
75
0
76
1
52
0
41
0.0062
77
0
78
1
53
45
43
0
44
0
45
-0.0139193969876572
46
0.0139193969876572
79
0
47
0
98
1
10
0
20
0
0
HATCH
5
E2
100
AcDbEntity
8
SK2
62
256
6
ByLayer
370
13
48
1
60
0
100
AcDbHatch
10
0
20
0
30
0
210
0
220
0
230
1
2
ANSI31
70
0
71
0
91
1
92
5
93
3
72
1
10
367.998382723188
20
-17.8541597949322
11
371.051575425693
21
-16.0820638240607
72
1
10
371.051575425693
20
-16.0820638240607
11
371.406195833975
21
-16.9326700737196
72
1
10
371.406195833975
20
-16.9326700737196
11
367.998382723188
21
-17.8541597949322
97
0
75
0
76
1
52
0
41
0.0062
77
0
78
1
53
45
43
0
44
0
45
-0.0139193969876572
46
0.0139193969876572
79
0
47
0
98
1
10
0
20
0
0
HATCH
5
E6
100
AcDbEntity
8
SK2
62
256
6
ByLayer
370
13
48
1
60
0
100
AcDbHatch
10
0
20
0
30
0
210
0
220
0
230
1
2
ANSI31
70
0
71
0
91
1
92
5
93
3
72
1
10
367.998382723188
20
17.8541597949322
11
371.406192709519
21
16.9326713763016
72
1
10
371.406192709519
20
16.9326713763016
11
371.051578550149
21
16.0820625214787
72
1
10
371.051578550149
20
16.0820625214787
11
367.998382723188
21
17.8541597949322
97
0
75
0
76
1
52
0
41
0.0062
77
0
78
1
53
45
43
0
44
0
45
-0.0139193969876572
46
0.0139193969876572
79
0
47
0
98
1
10
0
20
0
0
DIMENSION
5
EA
100
AcDbEntity
8
SK2
62
256
6
ByLayer
370
18
48
1
60
0
100
AcDbDimension
2
_U0
10
361.5
20
-51.300936
30
0
11
145.75
21
-51.300936
31
0
70
32
71
1
72
1
41
1
210
0
220
0
230
1
3
Standard
100
AcDbAlignedDimension
13
-70
23
-20
33
0
14
361.5
24
0
34
0
50
0
100
AcDbRotatedDimension
1001
ACAD
1000
DSTYLE
1002
{
1070
   371
1070
    13
1070
   372
1070
    13
1070
     3
1000

1070
   170
1070
     0
1070
   144
1040
1.0
1070
   277
1070
     2
1070
   284
1070
     8
1070
   278
1070
    46
1070
   146
1040
1.166667
1070
   345
1005
16
1070
   347
1005
16
1070
   346
1005
16
1070
   344
1005
0
1070
   343
1005
0
1070
   172
1070
     1
1070
    76
1070
     0
1070
    75
1070
     0
1070
   282
1070
     0
1070
   281
1070
     0
1070
    71
1070
     0
1070
    74
1070
     0
1070
   279
1070
     0
1070
   173
1070
     1
1070
   340
1005
C9
1070
   271
1070
     2
1070
   272
1070
     3
1070
    77
1070
     1
1070
    73
1070
     1
1070
   171
1070
     3
1070
   274
1070
     4
1070
   177
1070
     2
1070
   176
1070
     2
1070
   178
1070
     2
1070
    78
1070
     8
1070
    48
1040
-0.1
1070
    41
1040
3.5
1070
   147
1040
1.5
1070
    42
1040
1.5875
1070
    44
1040
2.0
1070
   140
1040
3.0
1002
}
1001
ACAD_DSTYLE_DIM_LINETYPE
1070
   380
1005
16
1001
ACAD_DSTYLE_DIM_EXT1_LINETYPE
1070
   381
1005
16
1001
ACAD_DSTYLE_DIM_EXT2_LINETYPE
1070
   382
1005
16
0
DIMENSION
5
103
100
AcDbEntity
8
SK2
62
256
6
ByLayer
370
18
48
1
60
0
100
AcDbDimension
2
_U1
10
3
20
-41.300936
30
0
11
182.25
21
-41.300936
31
0
70
32
71
1
72
1
41
1
210
0
220
0
230
1
3
Standard
100
AcDbAlignedDimension
13
361.5
23
0
33
0
14
3
24
-19.75
34
0
50
0
100
AcDbRotatedDimension
1001
ACAD
1000
DSTYLE
1002
{
1070
   371
1070
    13
1070
   372
1070
    13
1070
     3
1000

1070
   170
1070
     0
1070
   144
1040
1.0
1070
   277
1070
     2
1070
   284
1070
     8
1070
   278
1070
    46
1070
   146
1040
1.166667
1070
   345
1005
16
1070
   347
1005
16
1070
   346
1005
16
1070
   344
1005
0
1070
   343
1005
0
1070
   172
1070
     1
1070
    76
1070
     0
1070
    75
1070
     0
1070
   282
1070
     0
1070
   281
1070
     0
1070
    71
1070
     0
1070
    74
1070
     0
1070
   279
1070
     0
1070
   173
1070
     1
1070
   340
1005
C9
1070
   271
1070
     2
1070
   272
1070
     3
1070
    77
1070
     1
1070
    73
1070
     1
1070
   171
1070
     3
1070
   274
1070
     4
1070
   177
1070
     2
1070
   176
1070
     2
1070
   178
1070
     2
1070
    78
1070
     8
1070
    48
1040
-0.1
1070
    41
1040
3.5
1070
   147
1040
1.5
1070
    42
1040
1.5875
1070
    44
1040
2.0
1070
   140
1040
3.0
1002
}
1001
ACAD_DSTYLE_DIM_LINETYPE
1070
   380
1005
16
1001
ACAD_DSTYLE_DIM_EXT1_LINETYPE
1070
   381
1005
16
1001
ACAD_DSTYLE_DIM_EXT2_LINETYPE
1070
   382
1005
16
0
DIMENSION
5
11B
100
AcDbEntity
8
SK2
62
256
6
ByLayer
370
18
48
1
60
0
100
AcDbDimension
2
_U2
10
0
20
-41.300936
30
0
11
-35
21
-41.300936
31
0
70
32
71
1
72
1
41
1
210
0
220
0
230
1
3
Standard
100
AcDbAlignedDimension
13
-70
23
-20
33
0
14
0
24
-20
34
0
50
0
100
AcDbRotatedDimension
1001
ACAD
1000
DSTYLE
1002
{
1070
   371
1070
    13
1070
   372
1070
    13
1070
     3
1000

1070
   170
1070
     0
1070
   144
1040
1.0
1070
   277
1070
     2
1070
   284
1070
     8
1070
   278
1070
    46
1070
   146
1040
1.166667
1070
   345
1005
16
1070
   347
1005
16
1070
   346
1005
16
1070
   344
1005
0
1070
   343
1005
0
1070
   172
1070
     1
1070
    76
1070
     0
1070
    75
1070
     0
1070
   282
1070
     0
1070
   281
1070
     0
1070
    71
1070
     0
1070
    74
1070
     0
1070
   279
1070
     0
1070
   173
1070
     1
1070
   340
1005
C9
1070
   271
1070
     2
1070
   272
1070
     3
1070
    77
1070
     1
1070
    73
1070
     1
1070
   171
1070
     3
1070
   274
1070
     4
1070
   177
1070
     2
1070
   176
1070
     2
1070
   178
1070
     2
1070
    78
1070
     8
1070
    48
1040
-0.1
1070
    41
1040
3.5
1070
   147
1040
1.5
1070
    42
1040
1.5875
1070
    44
1040
2.0
1070
   140
1040
3.0
1002
}
1001
ACAD_DSTYLE_DIM_LINETYPE
1070
   380
1005
16
1001
ACAD_DSTYLE_DIM_EXT1_LINETYPE
1070
   381
1005
16
1001
ACAD_DSTYLE_DIM_EXT2_LINETYPE
1070
   382
1005
16
0
DIMENSION
5
133
100
AcDbEntity
8
SK2
62
256
6
ByLayer
370
18
48
1
60
0
100
AcDbDimension
2
_U3
10
25
20
38.300936
30
0
11
193.25
21
38.300936
31
0
70
32
71
1
72
1
41
1
210
0
220
0
230
1
3
Standard
100
AcDbAlignedDimension
13
361.5
23
0
33
0
14
25
24
19.75
34
0
50
0
100
AcDbRotatedDimension
1001
ACAD
1000
DSTYLE
1002
{
1070
   371
1070
    13
1070
   372
1070
    13
1070
     3
1000

1070
   170
1070
     0
1070
   144
1040
1.0
1070
   277
1070
     2
1070
   284
1070
     8
1070
   278
1070
    46
1070
   146
1040
1.166667
1070
   345
1005
16
1070
   347
1005
16
1070
   346
1005
16
1070
   344
1005
0
1070
   343
1005
0
1070
   172
1070
     1
1070
    76
1070
     0
1070
    75
1070
     0
1070
   282
1070
     0
1070
   281
1070
     0
1070
    71
1070
     0
1070
    74
1070
     0
1070
   279
1070
     0
1070
   173
1070
     1
1070
   340
1005
C9
1070
   271
1070
     2
1070
   272
1070
     3
1070
    77
1070
     1
1070
    73
1070
     1
1070
   171
1070
     3
1070
   274
1070
     4
1070
   177
1070
     2
1070
   176
1070
     2
1070
   178
1070
     2
1070
    78
1070
     8
1070
    48
1040
-0.1
1070
    41
1040
3.5
1070
   147
1040
1.5
1070
    42
1040
1.5875
1070
    44
1040
2.0
1070
   140
1040
3.0
1002
}
1001
ACAD_DSTYLE_DIM_LINETYPE
1070
   380
1005
16
1001
ACAD_DSTYLE_DIM_EXT1_LINETYPE
1070
   381
1005
16
1001
ACAD_DSTYLE_DIM_EXT2_LINETYPE
1070
   382
1005
16
0
ENDSEC
0
SECTION
2
OBJECTS
0
DICTIONARY
5
1bb
330
0
100
AcDbDictionary
280
0
281
1
3
ACAD_GROUP
350
1bc
3
ACAD_MLINESTYLE
350
1bd
0
DICTIONARY
5
1bc
330
0
100
AcDbDictionary
280
0
281
1
0
DICTIONARY
5
1bd
330
0
100
AcDbDictionary
280
0
281
1
3
Standard
350
18
0
MLINESTYLE
5
18
330
1bd
100
AcDbMlineStyle
2
Standard
70
0
3

62
256
51
90
52
90
71
2
49
-0.5
62
256
6
ByLayer
49
0.5
62
256
6
ByLayer
0
RASTERVARIABLES
5
1a9
330

100
AcDbRasterVariables
90
0
70
1
71
1
72
1
0
ENDSEC
0
EOF
