0
SECTION
2
HEADER
9
$ACADVER
1
AC1015
9
$DWGCODEPAGE
3
ANSI_1252
9
$HANDSEED
5
246
9
$ANGBASE
50
0
9
$ANGDIR
70
0
9
$ATTMODE
70
1
9
$AUNITS
70
0
9
$AUPREC
70
0
9
$CECOLOR
62
256
9
$CELTSCALE
40
1
9
$CELTYPE
6
ByLayer
9
$CELWEIGHT
370
18
9
$CLAYER
8
0
9
$CMLJUST
70
0
9
$CMLSCALE
40
1
9
$CMLSTYLE
2
Standard
9
$DIMSTYLE
2
Standard
9
$TEXTSIZE
40
0.2
9
$TEXTSTYLE
7
Standard
9
$LUNITS
70
2
9
$LUPREC
70
4
9
$EXTNAMES
290
1
9
$INSUNITS
70
4
9
$LTSCALE
40
1
9
$LWDISPLAY
290
1
9
$PDMODE
70
0
9
$PDSIZE
40
0
9
$PLINEGEN
70
0
0
ENDSEC
0
SECTION
2
CLASSES
0
CLASS
1
RASTERVARIABLES
2
AcDbRasterVariables
3
ISM
90
0
280
0
281
0
0
ENDSEC
0
SECTION
2
TABLES
0
TABLE
2
VPORT
5
23c
100
AcDbSymbolTable
0
VPORT
5
1
100
AcDbSymbolTableRecord
100
AcDbViewportTableRecord
2
*Active
70
0
10
0
20
0
11
1
21
1
12
-1
22
1
13
0
23
0
14
0.5
24
0.5
15
10
25
10
16
0
26
0
36
1
17
0
27
0
37
0
0
ENDTAB
0
TABLE
2
LTYPE
5
23d
100
AcDbSymbolTable
0
LTYPE
5
14
100
AcDbSymbolTableRecord
100
AcDbLinetypeTableRecord
70
0
2
ByBlock
3

72
65
73
0
40
0
0
LTYPE
5
15
100
AcDbSymbolTableRecord
100
AcDbLinetypeTableRecord
70
0
2
ByLayer
3

72
65
73
0
40
0
0
LTYPE
5
16
100
AcDbSymbolTableRecord
100
AcDbLinetypeTableRecord
70
0
2
Continuous
3
Solid line
72
65
73
0
40
0
0
LTYPE
5
6E
100
AcDbSymbolTableRecord
100
AcDbLinetypeTableRecord
70
0
2
CENTER
3
____ _ ____ _ ____ _ ____
72
65
73
4
40
47.5
49
22
74
0
49
-8.5
74
0
49
8.5
74
0
49
-8.5
74
0
0
LTYPE
5
6F
100
AcDbSymbolTableRecord
100
AcDbLinetypeTableRecord
70
0
2
DASHED
3
__ __ __ __ __ __ __ __ __
72
65
73
2
40
25.72
49
12.86
74
0
49
-12.86
74
0
0
ENDTAB
0
TABLE
2
LAYER
5
23e
100
AcDbSymbolTable
0
LAYER
5
10
100
AcDbSymbolTableRecord
100
AcDbLayerTableRecord
2
0
70
0
62
7
6
Continuous
290
1
370
-3
390
0
0
LAYER
5
71
100
AcDbSymbolTableRecord
100
AcDbLayerTableRecord
2
81
70
0
62
-3
6
Continuous
290
1
370
-3
390
0
0
LAYER
5
73
100
AcDbSymbolTableRecord
100
AcDbLayerTableRecord
2
80
70
0
62
-6
6
Continuous
290
1
370
-3
390
0
0
LAYER
5
75
100
AcDbSymbolTableRecord
100
AcDbLayerTableRecord
2
1
70
0
62
4
6
Continuous
290
1
370
-3
390
0
0
LAYER
5
7F
100
AcDbSymbolTableRecord
100
AcDbLayerTableRecord
2
4
70
0
62
-2
6
CENTER
290
1
370
-3
390
0
0
LAYER
5
B3
100
AcDbSymbolTableRecord
100
AcDbLayerTableRecord
2
2
70
0
62
7
6
Continuous
290
1
370
-3
390
0
0
LAYER
5
16B
100
AcDbSymbolTableRecord
100
AcDbLayerTableRecord
2
Defpoints
70
0
62
7
6
Continuous
290
0
370
-3
390
0
0
LAYER
5
228
100
AcDbSymbolTableRecord
100
AcDbLayerTableRecord
2
SK4
70
0
62
2
6
CENTER
290
1
370
-3
390
0
0
LAYER
5
229
100
AcDbSymbolTableRecord
100
AcDbLayerTableRecord
2
SK1
70
0
62
4
6
Continuous
290
1
370
-3
390
0
0
LAYER
5
22a
100
AcDbSymbolTableRecord
100
AcDbLayerTableRecord
2
SK2
70
0
62
7
6
Continuous
290
1
370
-3
390
0
0
LAYER
5
22b
100
AcDbSymbolTableRecord
100
AcDbLayerTableRecord
2
SK6
70
0
62
5
6
Continuous
290
1
370
-3
390
0
0
ENDTAB
0
TABLE
2
STYLE
5
23f
100
AcDbSymbolTable
0
STYLE
5
11
100
AcDbSymbolTableRecord
100
AcDbTextStyleTableRecord
2
Standard
3
txt
70
0
71
0
40
0
41
1
42
0
50
0
0
STYLE
5
147
100
AcDbSymbolTableRecord
100
AcDbTextStyleTableRecord
2
iso_b_vert
3
simplex.shx
70
0
71
0
40
0
41
1
42
0
50
0
0
STYLE
5
148
100
AcDbSymbolTableRecord
100
AcDbTextStyleTableRecord
2
DWGDirectTextStyle
3
simplex
70
0
71
0
40
0
41
1
42
0
50
0
0
ENDTAB
0
TABLE
2
DIMSTYLE
5
240
100
AcDbSymbolTable
100
AcDbDimStyleTable
0
DIMSTYLE
105
27
100
AcDbSymbolTableRecord
100
AcDbDimStyleTableRecord
2
Standard
70
0
3
<>
41
0.18
42
0.0625
44
0.18
140
0.18
147
0.09
73
0
74
0
77
1
271
2
275
0
278
52
280
0
340
11
0
ENDTAB
0
TABLE
2
VIEW
5
241
100
AcDbSymbolTable
0
ENDTAB
0
TABLE
2
UCS
5
242
100
AcDbSymbolTable
0
ENDTAB
0
TABLE
2
APPID
5
243
100
AcDbSymbolTable
0
APPID
5
12
100
AcDbSymbolTableRecord
100
AcDbRegAppTableRecord
2
ACAD
70
0
0
APPID
5
167
100
AcDbSymbolTableRecord
100
AcDbRegAppTableRecord
2
ACAD_DSTYLE_DIMBREAK
70
0
0
APPID
5
1E7
100
AcDbSymbolTableRecord
100
AcDbRegAppTableRecord
2
ACAD_DSTYLE_DIM_LINETYPE
70
0
0
APPID
5
1E8
100
AcDbSymbolTableRecord
100
AcDbRegAppTableRecord
2
ACAD_DSTYLE_DIM_EXT1_LINETYPE
70
0
0
APPID
5
1E9
100
AcDbSymbolTableRecord
100
AcDbRegAppTableRecord
2
ACAD_DSTYLE_DIM_EXT2_LINETYPE
70
0
0
APPID
5
224
100
AcDbSymbolTableRecord
100
AcDbRegAppTableRecord
2
ACAD_MLEADERVER
70
0
0
ENDTAB
0
TABLE
2
BLOCK_RECORD
5
244
100
AcDbSymbolTable
0
BLOCK_RECORD
5
1F
100
AcDbSymbolTableRecord
100
AcDbBlockTableRecord
2
*Model_Space
340
0
70
0
0
BLOCK_RECORD
5
1B
100
AcDbSymbolTableRecord
100
AcDbBlockTableRecord
2
*Paper_Space
340
0
70
0
0
BLOCK_RECORD
5
23
100
AcDbSymbolTableRecord
100
AcDbBlockTableRecord
2
*Paper_Space0
340
0
70
0
0
BLOCK_RECORD
5
16C
100
AcDbSymbolTableRecord
100
AcDbBlockTableRecord
2
*D1
340
0
70
0
0
BLOCK_RECORD
5
178
100
AcDbSymbolTableRecord
100
AcDbBlockTableRecord
2
_U0
340
0
70
0
0
BLOCK_RECORD
5
184
100
AcDbSymbolTableRecord
100
AcDbBlockTableRecord
2
*D3
340
0
70
0
0
BLOCK_RECORD
5
190
100
AcDbSymbolTableRecord
100
AcDbBlockTableRecord
2
_U1
340
0
70
0
0
BLOCK_RECORD
5
19C
100
AcDbSymbolTableRecord
100
AcDbBlockTableRecord
2
*D5
340
0
70
0
0
BLOCK_RECORD
5
1A8
100
AcDbSymbolTableRecord
100
AcDbBlockTableRecord
2
_U2
340
0
70
0
0
BLOCK_RECORD
5
1B4
100
AcDbSymbolTableRecord
100
AcDbBlockTableRecord
2
*D7
340
0
70
0
0
BLOCK_RECORD
5
1C0
100
AcDbSymbolTableRecord
100
AcDbBlockTableRecord
2
_U3
340
0
70
0
0
ENDTAB
0
ENDSEC
0
SECTION
2
BLOCKS
0
BLOCK
5
20
100
AcDbEntity
8
0
100
AcDbBlockBegin
2
*Model_Space
70
0
10
0
20
0
30
0
3
*Model_Space
0
ENDBLK
5
21
100
AcDbEntity
8
0
100
AcDbBlockEnd
0
BLOCK
5
1C
100
AcDbEntity
8
0
100
AcDbBlockBegin
2
*Paper_Space
70
0
10
0
20
0
30
0
3
*Paper_Space
0
ENDBLK
5
1D
100
AcDbEntity
8
0
100
AcDbBlockEnd
0
BLOCK
5
24
100
AcDbEntity
8
0
100
AcDbBlockBegin
2
*Paper_Space0
70
0
10
0
20
0
30
0
3
*Paper_Space0
0
ENDBLK
5
25
100
AcDbEntity
8
0
100
AcDbBlockEnd
0
BLOCK
5
16D
100
AcDbEntity
8
0
100
AcDbBlockBegin
2
*D1
70
1
10
0
20
0
30
0
3
*D1
0
LINE
5
16F
100
AcDbEntity
8
0
62
256
6
ByLayer
370
-2
48
1
60
0
100
AcDbLine
10
-60
20
-17.5875
30
0
11
-60
21
-48.708423
31
0
39
0
210
0
220
0
230
1
0
LINE
5
170
100
AcDbEntity
8
0
62
256
6
ByLayer
370
-2
48
1
60
0
100
AcDbLine
10
235.2
20
-1.5875
30
0
11
235.2
21
-48.708423
31
0
39
0
210
0
220
0
230
1
0
LINE
5
171
100
AcDbEntity
8
0
62
256
6
ByLayer
370
-2
48
1
60
0
100
AcDbLine
10
-56.5
20
-46.708423
30
0
11
231.7
21
-46.708423
31
0
39
0
210
0
220
0
230
1
0
SOLID
5
172
100
AcDbEntity
8
0
62
256
6
ByLayer
370
-1
48
1
60
0
100
AcDbTrace
10
-56.5
20
-46.125089
30
0
11
-56.5
21
-47.291756
31
0
12
-60
22
-46.708423
32
0
13
-60
23
-46.708423
33
0
39
0
210
0
220
0
230
1
0
SOLID
5
173
100
AcDbEntity
8
0
62
256
6
ByLayer
370
-1
48
1
60
0
100
AcDbTrace
10
231.7
20
-47.291756
30
0
11
231.7
21
-46.125089
31
0
12
235.2
22
-46.708423
32
0
13
235.2
23
-46.708423
33
0
39
0
210
0
220
0
230
1
0
MTEXT
5
174
100
AcDbEntity
8
0
62
256
6
ByLayer
370
18
48
1
60
0
100
AcDbMText
10
87.6
20
-40.708423
30
0
210
0
220
0
230
1
1
\A1;295.2
40
3
41
0
44
1
50
0
71
5
72
5
7
iso_b_vert
0
POINT
5
175
100
AcDbEntity
8
Defpoints
62
0
6
ByLayer
370
-1
48
1
60
0
100
AcDbPoint
10
-60
20
-16
30
0
39
0
210
0
220
0
230
1
50
360
0
POINT
5
176
100
AcDbEntity
8
Defpoints
62
0
6
ByLayer
370
-1
48
1
60
0
100
AcDbPoint
10
235.2
20
0
30
0
39
0
210
0
220
0
230
1
50
360
0
POINT
5
177
100
AcDbEntity
8
Defpoints
62
0
6
ByLayer
370
-1
48
1
60
0
100
AcDbPoint
10
235.2
20
-46.708423
30
0
39
0
210
0
220
0
230
1
50
360
0
ENDBLK
5
16E
100
AcDbEntity
8
0
100
AcDbBlockEnd
0
BLOCK
5
17F
100
AcDbEntity
8
0
100
AcDbBlockBegin
2
_U0
70
0
10
0
20
0
30
0
3
_U0
0
MTEXT
5
179
100
AcDbEntity
8
SK2
62
256
6
ByLayer
370
18
48
1
60
0
100
AcDbMText
10
81.996716
20
-45.823308
30
0
210
0
220
0
230
1
1
\W0.7513;295.20
40
3
41
0
44
1.084337
50
0
71
7
72
5
7
iso_b_vert
0
LINE
5
17A
100
AcDbEntity
8
SK2
62
256
6
ByLayer
370
13
48
1
60
0
100
AcDbLine
10
-60
20
-17.5875
30
0
11
-60
21
-48.708423
31
0
39
0
210
0
220
0
230
1
0
LINE
5
17B
100
AcDbEntity
8
SK2
62
256
6
ByLayer
370
13
48
1
60
0
100
AcDbLine
10
235.2
20
-1.5875
30
0
11
235.2
21
-48.708423
31
0
39
0
210
0
220
0
230
1
0
LINE
5
17C
100
AcDbEntity
8
SK2
62
256
6
ByLayer
370
13
48
1
60
0
100
AcDbLine
10
-60
20
-46.708423
30
0
11
235.2
21
-46.708423
31
0
39
0
210
0
220
0
230
1
0
SOLID
5
17D
100
AcDbEntity
8
SK2
62
256
6
ByLayer
370
18
48
1
60
0
100
AcDbTrace
10
-60
20
-46.708423
30
0
11
-56.500002
21
-46.247639
31
0
12
-56.499998
22
-47.169206
32
0
13
-56.499998
23
-47.169206
33
0
39
0
210
0
220
0
230
1
0
SOLID
5
17E
100
AcDbEntity
8
SK2
62
256
6
ByLayer
370
18
48
1
60
0
100
AcDbTrace
10
235.2
20
-46.708423
30
0
11
231.700002
21
-47.169206
31
0
12
231.699998
22
-46.247639
32
0
13
231.699998
23
-46.247639
33
0
39
0
210
0
220
0
230
1
0
ENDBLK
5
180
100
AcDbEntity
8
0
100
AcDbBlockEnd
0
BLOCK
5
185
100
AcDbEntity
8
0
100
AcDbBlockBegin
2
*D3
70
1
10
0
20
0
30
0
3
*D3
0
LINE
5
187
100
AcDbEntity
8
0
62
256
6
ByLayer
370
-2
48
1
60
0
100
AcDbLine
10
235.2
20
-1.5875
30
0
11
235.2
21
-38.708423
31
0
39
0
210
0
220
0
230
1
0
LINE
5
188
100
AcDbEntity
8
0
62
256
6
ByLayer
370
-2
48
1
60
0
100
AcDbLine
10
3
20
-13.5875
30
0
11
3
21
-38.708423
31
0
39
0
210
0
220
0
230
1
0
LINE
5
189
100
AcDbEntity
8
0
62
256
6
ByLayer
370
-2
48
1
60
0
100
AcDbLine
10
231.7
20
-36.708423
30
0
11
6.5
21
-36.708423
31
0
39
0
210
0
220
0
230
1
0
SOLID
5
18A
100
AcDbEntity
8
0
62
256
6
ByLayer
370
-1
48
1
60
0
100
AcDbTrace
10
231.7
20
-37.291756
30
0
11
231.7
21
-36.125089
31
0
12
235.2
22
-36.708423
32
0
13
235.2
23
-36.708423
33
0
39
0
210
0
220
0
230
1
0
SOLID
5
18B
100
AcDbEntity
8
0
62
256
6
ByLayer
370
-1
48
1
60
0
100
AcDbTrace
10
6.5
20
-36.125089
30
0
11
6.5
21
-37.291756
31
0
12
3
22
-36.708423
32
0
13
3
23
-36.708423
33
0
39
0
210
0
220
0
230
1
0
MTEXT
5
18C
100
AcDbEntity
8
0
62
256
6
ByLayer
370
18
48
1
60
0
100
AcDbMText
10
119.1
20
-30.708423
30
0
210
0
220
0
230
1
1
\A1;232.2
40
3
41
0
44
1
50
0
71
5
72
5
7
iso_b_vert
0
POINT
5
18D
100
AcDbEntity
8
Defpoints
62
0
6
ByLayer
370
-1
48
1
60
0
100
AcDbPoint
10
235.2
20
0
30
0
39
0
210
0
220
0
230
1
50
360
0
POINT
5
18E
100
AcDbEntity
8
Defpoints
62
0
6
ByLayer
370
-1
48
1
60
0
100
AcDbPoint
10
3
20
-12
30
0
39
0
210
0
220
0
230
1
50
360
0
POINT
5
18F
100
AcDbEntity
8
Defpoints
62
0
6
ByLayer
370
-1
48
1
60
0
100
AcDbPoint
10
3
20
-36.708423
30
0
39
0
210
0
220
0
230
1
50
360
0
ENDBLK
5
186
100
AcDbEntity
8
0
100
AcDbBlockEnd
0
BLOCK
5
197
100
AcDbEntity
8
0
100
AcDbBlockBegin
2
_U1
70
0
10
0
20
0
30
0
3
_U1
0
MTEXT
5
191
100
AcDbEntity
8
SK2
62
256
6
ByLayer
370
18
48
1
60
0
100
AcDbMText
10
113.496716
20
-35.823308
30
0
210
0
220
0
230
1
1
\W0.7513;232.20
40
3
41
0
44
1.084337
50
0
71
7
72
5
7
iso_b_vert
0
LINE
5
192
100
AcDbEntity
8
SK2
62
256
6
ByLayer
370
13
48
1
60
0
100
AcDbLine
10
235.2
20
-1.5875
30
0
11
235.2
21
-38.708423
31
0
39
0
210
0
220
0
230
1
0
LINE
5
193
100
AcDbEntity
8
SK2
62
256
6
ByLayer
370
13
48
1
60
0
100
AcDbLine
10
3
20
-13.5875
30
0
11
3
21
-38.708423
31
0
39
0
210
0
220
0
230
1
0
LINE
5
194
100
AcDbEntity
8
SK2
62
256
6
ByLayer
370
13
48
1
60
0
100
AcDbLine
10
235.2
20
-36.708423
30
0
11
3
21
-36.708423
31
0
39
0
210
0
220
0
230
1
0
SOLID
5
195
100
AcDbEntity
8
SK2
62
256
6
ByLayer
370
18
48
1
60
0
100
AcDbTrace
10
235.2
20
-36.708423
30
0
11
231.700002
21
-37.169206
31
0
12
231.699998
22
-36.247639
32
0
13
231.699998
23
-36.247639
33
0
39
0
210
0
220
0
230
1
0
SOLID
5
196
100
AcDbEntity
8
SK2
62
256
6
ByLayer
370
18
48
1
60
0
100
AcDbTrace
10
3
20
-36.708423
30
0
11
6.499998
21
-36.247639
31
0
12
6.500002
22
-37.169206
32
0
13
6.500002
23
-37.169206
33
0
39
0
210
0
220
0
230
1
0
ENDBLK
5
198
100
AcDbEntity
8
0
100
AcDbBlockEnd
0
BLOCK
5
19D
100
AcDbEntity
8
0
100
AcDbBlockBegin
2
*D5
70
1
10
0
20
0
30
0
3
*D5
0
LINE
5
19F
100
AcDbEntity
8
0
62
256
6
ByLayer
370
-2
48
1
60
0
100
AcDbLine
10
-60
20
-17.5875
30
0
11
-60
21
-38.708423
31
0
39
0
210
0
220
0
230
1
0
LINE
5
1A0
100
AcDbEntity
8
0
62
256
6
ByLayer
370
-2
48
1
60
0
100
AcDbLine
10
0
20
-17.5875
30
0
11
0
21
-38.708423
31
0
39
0
210
0
220
0
230
1
0
LINE
5
1A1
100
AcDbEntity
8
0
62
256
6
ByLayer
370
-2
48
1
60
0
100
AcDbLine
10
-56.5
20
-36.708423
30
0
11
-3.5
21
-36.708423
31
0
39
0
210
0
220
0
230
1
0
SOLID
5
1A2
100
AcDbEntity
8
0
62
256
6
ByLayer
370
-1
48
1
60
0
100
AcDbTrace
10
-56.5
20
-36.125089
30
0
11
-56.5
21
-37.291756
31
0
12
-60
22
-36.708423
32
0
13
-60
23
-36.708423
33
0
39
0
210
0
220
0
230
1
0
SOLID
5
1A3
100
AcDbEntity
8
0
62
256
6
ByLayer
370
-1
48
1
60
0
100
AcDbTrace
10
-3.5
20
-37.291756
30
0
11
-3.5
21
-36.125089
31
0
12
0
22
-36.708423
32
0
13
0
23
-36.708423
33
0
39
0
210
0
220
0
230
1
0
MTEXT
5
1A4
100
AcDbEntity
8
0
62
256
6
ByLayer
370
18
48
1
60
0
100
AcDbMText
10
-30
20
-30.708423
30
0
210
0
220
0
230
1
1
\A1;60
40
3
41
0
44
1
50
0
71
5
72
5
7
iso_b_vert
0
POINT
5
1A5
100
AcDbEntity
8
Defpoints
62
0
6
ByLayer
370
-1
48
1
60
0
100
AcDbPoint
10
-60
20
-16
30
0
39
0
210
0
220
0
230
1
50
360
0
POINT
5
1A6
100
AcDbEntity
8
Defpoints
62
0
6
ByLayer
370
-1
48
1
60
0
100
AcDbPoint
10
0
20
-16
30
0
39
0
210
0
220
0
230
1
50
360
0
POINT
5
1A7
100
AcDbEntity
8
Defpoints
62
0
6
ByLayer
370
-1
48
1
60
0
100
AcDbPoint
10
0
20
-36.708423
30
0
39
0
210
0
220
0
230
1
50
360
0
ENDBLK
5
19E
100
AcDbEntity
8
0
100
AcDbBlockEnd
0
BLOCK
5
1AF
100
AcDbEntity
8
0
100
AcDbBlockBegin
2
_U2
70
0
10
0
20
0
30
0
3
_U2
0
MTEXT
5
1A9
100
AcDbEntity
8
SK2
62
256
6
ByLayer
370
18
48
1
60
0
100
AcDbMText
10
-34.48237
20
-35.823308
30
0
210
0
220
0
230
1
1
\W0.7468;60.00
40
3
41
0
44
1.084337
50
0
71
7
72
5
7
iso_b_vert
0
LINE
5
1AA
100
AcDbEntity
8
SK2
62
256
6
ByLayer
370
13
48
1
60
0
100
AcDbLine
10
-60
20
-17.5875
30
0
11
-60
21
-38.708423
31
0
39
0
210
0
220
0
230
1
0
LINE
5
1AB
100
AcDbEntity
8
SK2
62
256
6
ByLayer
370
13
48
1
60
0
100
AcDbLine
10
0
20
-17.5875
30
0
11
0
21
-38.708423
31
0
39
0
210
0
220
0
230
1
0
LINE
5
1AC
100
AcDbEntity
8
SK2
62
256
6
ByLayer
370
13
48
1
60
0
100
AcDbLine
10
-60
20
-36.708423
30
0
11
0
21
-36.708423
31
0
39
0
210
0
220
0
230
1
0
SOLID
5
1AD
100
AcDbEntity
8
SK2
62
256
6
ByLayer
370
18
48
1
60
0
100
AcDbTrace
10
-60
20
-36.708423
30
0
11
-56.500002
21
-36.247639
31
0
12
-56.499998
22
-37.169206
32
0
13
-56.499998
23
-37.169206
33
0
39
0
210
0
220
0
230
1
0
SOLID
5
1AE
100
AcDbEntity
8
SK2
62
256
6
ByLayer
370
18
48
1
60
0
100
AcDbTrace
10
0
20
-36.708423
30
0
11
-3.499998
21
-37.169206
31
0
12
-3.500002
22
-36.247639
32
0
13
-3.500002
23
-36.247639
33
0
39
0
210
0
220
0
230
1
0
ENDBLK
5
1B0
100
AcDbEntity
8
0
100
AcDbBlockEnd
0
BLOCK
5
1B5
100
AcDbEntity
8
0
100
AcDbBlockBegin
2
*D7
70
1
10
0
20
0
30
0
3
*D7
0
LINE
5
1B7
100
AcDbEntity
8
0
62
256
6
ByLayer
370
-2
48
1
60
0
100
AcDbLine
10
235.2
20
1.5875
30
0
11
235.2
21
35.708423
31
0
39
0
210
0
220
0
230
1
0
LINE
5
1B8
100
AcDbEntity
8
0
62
256
6
ByLayer
370
-2
48
1
60
0
100
AcDbLine
10
27
20
13.5875
30
0
11
27
21
35.708423
31
0
39
0
210
0
220
0
230
1
0
LINE
5
1B9
100
AcDbEntity
8
0
62
256
6
ByLayer
370
-2
48
1
60
0
100
AcDbLine
10
231.7
20
33.708423
30
0
11
30.5
21
33.708423
31
0
39
0
210
0
220
0
230
1
0
SOLID
5
1BA
100
AcDbEntity
8
0
62
256
6
ByLayer
370
-1
48
1
60
0
100
AcDbTrace
10
231.7
20
33.125089
30
0
11
231.7
21
34.291756
31
0
12
235.2
22
33.708423
32
0
13
235.2
23
33.708423
33
0
39
0
210
0
220
0
230
1
0
SOLID
5
1BB
100
AcDbEntity
8
0
62
256
6
ByLayer
370
-1
48
1
60
0
100
AcDbTrace
10
30.5
20
34.291756
30
0
11
30.5
21
33.125089
31
0
12
27
22
33.708423
32
0
13
27
23
33.708423
33
0
39
0
210
0
220
0
230
1
0
MTEXT
5
1BC
100
AcDbEntity
8
0
62
256
6
ByLayer
370
18
48
1
60
0
100
AcDbMText
10
131.1
20
39.708423
30
0
210
0
220
0
230
1
1
\A1;208.2
40
3
41
0
44
1
50
0
71
5
72
5
7
iso_b_vert
0
POINT
5
1BD
100
AcDbEntity
8
Defpoints
62
0
6
ByLayer
370
-1
48
1
60
0
100
AcDbPoint
10
235.2
20
0
30
0
39
0
210
0
220
0
230
1
50
360
0
POINT
5
1BE
100
AcDbEntity
8
Defpoints
62
0
6
ByLayer
370
-1
48
1
60
0
100
AcDbPoint
10
27
20
12
30
0
39
0
210
0
220
0
230
1
50
360
0
POINT
5
1BF
100
AcDbEntity
8
Defpoints
62
0
6
ByLayer
370
-1
48
1
60
0
100
AcDbPoint
10
27
20
33.708423
30
0
39
0
210
0
220
0
230
1
50
360
0
ENDBLK
5
1B6
100
AcDbEntity
8
0
100
AcDbBlockEnd
0
BLOCK
5
1C7
100
AcDbEntity
8
0
100
AcDbBlockBegin
2
_U3
70
0
10
0
20
0
30
0
3
_U3
0
MTEXT
5
1C1
100
AcDbEntity
8
SK2
62
256
6
ByLayer
370
18
48
1
60
0
100
AcDbMText
10
125.496716
20
34.593537
30
0
210
0
220
0
230
1
1
\W0.7513;208.20
40
3
41
0
44
1.084337
50
0
71
7
72
5
7
iso_b_vert
0
LINE
5
1C2
100
AcDbEntity
8
SK2
62
256
6
ByLayer
370
13
48
1
60
0
100
AcDbLine
10
235.2
20
1.5875
30
0
11
235.2
21
35.708423
31
0
39
0
210
0
220
0
230
1
0
LINE
5
1C3
100
AcDbEntity
8
SK2
62
256
6
ByLayer
370
13
48
1
60
0
100
AcDbLine
10
27
20
13.5875
30
0
11
27
21
35.708423
31
0
39
0
210
0
220
0
230
1
0
LINE
5
1C4
100
AcDbEntity
8
SK2
62
256
6
ByLayer
370
13
48
1
60
0
100
AcDbLine
10
235.2
20
33.708423
30
0
11
27
21
33.708423
31
0
39
0
210
0
220
0
230
1
0
SOLID
5
1C5
100
AcDbEntity
8
SK2
62
256
6
ByLayer
370
18
48
1
60
0
100
AcDbTrace
10
235.2
20
33.708423
30
0
11
231.700002
21
33.247639
31
0
12
231.699998
22
34.169206
32
0
13
231.699998
23
34.169206
33
0
39
0
210
0
220
0
230
1
0
SOLID
5
1C6
100
AcDbEntity
8
SK2
62
256
6
ByLayer
370
18
48
1
60
0
100
AcDbTrace
10
27
20
33.708423
30
0
11
30.499998
21
34.169206
31
0
12
30.500002
22
33.247639
32
0
13
30.500002
23
33.247639
33
0
39
0
210
0
220
0
230
1
0
ENDBLK
5
1C8
100
AcDbEntity
8
0
100
AcDbBlockEnd
0
ENDSEC
0
SECTION
2
ENTITIES
0
ARC
5
C4
100
AcDbEntity
8
SK2
62
256
6
ByLayer
370
13
48
1
60
0
100
AcDbCircle
39
0
10
235.2
20
0
30
0
40
19
210
0
220
0
230
1
100
AcDbArc
50
290
51
70
0
ELLIPSE
5
C5
100
AcDbEntity
8
SK1
62
256
6
ByLayer
370
18
48
1
60
0
100
AcDbEllipse
10
-42.079759
20
0
30
0
11
-2.93905524917505E-15
21
-16.0000000000073
31
0
210
0
220
0
230
1
40
0.932515
41
-1.80249142112189
42
-1.3391012324679
0
ELLIPSE
5
C6
100
AcDbEntity
8
SK1
62
256
6
ByLayer
370
18
48
1
60
0
100
AcDbEllipse
10
375.907546
20
0
30
0
11
458.180052524353
21
-5.19163675692399E-13
31
0
210
0
220
0
230
1
40
0.034921
41
2.59367031451701
42
2.79796683129766
0
ELLIPSE
5
C7
100
AcDbEntity
8
SK1
62
256
6
ByLayer
370
18
48
1
60
0
100
AcDbEllipse
10
-29.157899
20
0
30
0
11
17.1578993603954
21
-1.94416104542868E-14
31
0
210
0
220
0
230
1
40
0.932515
41
-0.494065251162693
42
0.494065251162695
0
ELLIPSE
5
C8
100
AcDbEntity
8
SK1
62
256
6
ByLayer
370
18
48
1
60
0
100
AcDbEllipse
10
375.907546
20
0
30
0
11
458.180052528051
21
-5.19163675696589E-13
31
0
210
0
220
0
230
1
40
0.034921
41
-2.79796683129846
42
-2.59367031451889
0
POINT
5
70
100
AcDbEntity
8
81
62
256
6
ByLayer
370
18
48
1
60
0
100
AcDbPoint
10
235.2
20
0
30
0
39
0
210
0
220
0
230
1
50
360
0
POINT
5
72
100
AcDbEntity
8
80
62
256
6
ByLayer
370
18
48
1
60
0
100
AcDbPoint
10
0
20
0
30
0
39
0
210
0
220
0
230
1
50
360
0
POINT
5
74
100
AcDbEntity
8
1
62
256
6
ByLayer
370
18
48
1
60
1
100
AcDbPoint
10
-60
20
-16
30
0
39
0
210
0
220
0
230
1
50
360
0
POINT
5
76
100
AcDbEntity
8
1
62
256
6
ByLayer
370
18
48
1
60
1
100
AcDbPoint
10
235.2
20
0
30
0
39
0
210
0
220
0
230
1
50
360
0
POINT
5
77
100
AcDbEntity
8
1
62
256
6
ByLayer
370
18
48
1
60
1
100
AcDbPoint
10
235.2
20
0
30
0
39
0
210
0
220
0
230
1
50
360
0
POINT
5
78
100
AcDbEntity
8
1
62
256
6
ByLayer
370
18
48
1
60
1
100
AcDbPoint
10
3
20
-12
30
0
39
0
210
0
220
0
230
1
50
360
0
POINT
5
79
100
AcDbEntity
8
1
62
256
6
ByLayer
370
18
48
1
60
1
100
AcDbPoint
10
-60
20
-16
30
0
39
0
210
0
220
0
230
1
50
360
0
POINT
5
7A
100
AcDbEntity
8
1
62
256
6
ByLayer
370
18
48
1
60
1
100
AcDbPoint
10
0
20
-16
30
0
39
0
210
0
220
0
230
1
50
360
0
POINT
5
7B
100
AcDbEntity
8
1
62
256
6
ByLayer
370
18
48
1
60
1
100
AcDbPoint
10
235.2
20
0
30
0
39
0
210
0
220
0
230
1
50
360
0
POINT
5
7C
100
AcDbEntity
8
1
62
256
6
ByLayer
370
18
48
1
60
1
100
AcDbPoint
10
27
20
12
30
0
39
0
210
0
220
0
230
1
50
360
0
SPLINE
5
C9
100
AcDbEntity
8
1
62
256
6
ByLayer
370
18
48
1
60
0
100
AcDbSpline
70
4
71
3
72
21
73
17
40
0
40
0
40
0
40
0
40
0.124999999999997
40
0.124999999999997
40
0.249999999999993
40
0.249999999999993
40
0.499999999999987
40
0.499999999999987
40
0.562499999999988
40
0.562499999999988
40
0.62499999999999
40
0.749999999999993
40
0.749999999999993
40
0.874999999999997
40
0.874999999999997
40
1
40
1
40
1
40
1
41
1
10
230.832357188805
20
-1.7125524528353
30
0
41
1
10
230.37217860979
20
-1.54677899762899
30
0
41
1
10
229.912309425928
20
-1.38023570204243
30
0
41
1
10
228.992768321733
20
-1.04677734117161
30
0
41
1
10
228.533038028752
20
-0.880023656379109
30
0
41
1
10
227.154018442343
20
-0.379547154070139
30
0
41
1
10
226.234899390796
20
-0.0456111112526969
30
0
41
1
10
225.086484576033
20
0.372715263612349
30
0
41
1
10
224.856834580052
20
0.456449967758971
30
0
41
1
10
224.397478820866
20
0.623722388897136
30
0
41
1
10
223.708352051659
20
0.874309458198042
30
0
41
1
10
223.018955260623
20
1.12395861173829
30
0
41
1
10
222.099551230138
20
1.45607839838374
30
0
41
1
10
221.639745021735
20
1.62176532990827
30
0
41
1
10
220.71999657724
20
1.9525916666434
30
0
41
1
10
220.260095996372
20
2.11784548250111
30
0
41
1
10
219.8
20
2.28247440985169
30
0
0
SPLINE
5
CA
100
AcDbEntity
8
1
62
256
6
ByLayer
370
18
48
1
60
0
100
AcDbSpline
70
4
71
3
72
92
73
88
40
0
40
0
40
0
40
0
40
0.0312499999999993
40
0.0312499999999993
40
0.0624999999999987
40
0.0624999999999987
40
0.093749999999998
40
0.093749999999998
40
0.124999999999997
40
0.124999999999997
40
0.140624999999998
40
0.140624999999998
40
0.148437499999999
40
0.148437499999999
40
0.15625
40
0.187500000000004
40
0.187500000000004
40
0.218750000000009
40
0.218750000000009
40
0.250000000000013
40
0.250000000000013
40
0.281250000000018
40
0.281250000000018
40
0.296875000000019
40
0.296875000000019
40
0.31250000000002
40
0.31250000000002
40
0.343750000000022
40
0.343750000000022
40
0.375000000000024
40
0.375000000000024
40
0.406250000000027
40
0.406250000000027
40
0.437500000000029
40
0.437500000000029
40
0.445312500000029
40
0.445312500000029
40
0.45312500000003
40
0.468750000000032
40
0.468750000000032
40
0.500000000000035
40
0.500000000000035
40
0.531250000000039
40
0.531250000000039
40
0.53906250000004
40
0.53906250000004
40
0.546875000000041
40
0.562500000000043
40
0.562500000000043
40
0.593750000000046
40
0.593750000000046
40
0.625000000000048
40
0.625000000000048
40
0.632812500000049
40
0.632812500000049
40
0.640625000000049
40
0.656250000000049
40
0.656250000000049
40
0.68750000000005
40
0.68750000000005
40
0.71875000000005
40
0.71875000000005
40
0.726562500000049
40
0.726562500000049
40
0.734375000000048
40
0.734375000000048
40
0.750000000000046
40
0.750000000000046
40
0.781250000000041
40
0.781250000000041
40
0.812500000000036
40
0.812500000000036
40
0.843750000000032
40
0.843750000000032
40
0.85156250000003
40
0.85156250000003
40
0.859375000000029
40
0.875000000000027
40
0.875000000000027
40
0.906250000000019
40
0.937500000000012
40
0.968750000000005
40
0.968750000000005
40
0.976562500000003
40
0.976562500000003
40
0.984375000000001
40
1
40
1
40
1
40
1
41
1
10
230.832357188806
20
11.6189441403183
30
0
41
1
10
230.907312909391
20
11.4330653581763
30
0
41
1
10
230.982385898944
20
11.2444016975622
30
0
41
1
10
231.132893424563
20
10.8619447994357
30
0
41
1
10
231.208327828317
20
10.6681505761081
30
0
41
1
10
231.359647178754
20
10.275750007833
30
0
41
1
10
231.435532180959
20
10.0771431047531
30
0
41
1
10
231.587805491202
20
9.6753375951125
30
0
41
1
10
231.664194060941
20
9.47213875325031
30
0
41
1
10
231.779163314687
20
9.16399793088689
30
0
41
1
10
231.817550455568
20
9.06072658247194
30
0
41
1
10
231.875224764393
20
8.90498980354877
30
0
41
1
10
231.894478415656
20
8.85290311299519
30
0
41
1
10
231.932947856496
20
8.74863875877961
30
0
41
1
10
232.028980169282
20
8.48787470472499
30
0
41
1
10
232.124315506588
20
8.22660297176046
30
0
41
1
10
232.275897598413
20
7.80791393875623
30
0
41
1
10
232.351212363668
20
7.59824260351493
30
0
41
1
10
232.500716381058
20
7.17819731467947
30
0
41
1
10
232.574907344279
20
6.96782395981108
30
0
41
1
10
232.721844773855
20
6.5462690333415
30
0
41
1
10
232.794594208913
20
6.33508852977531
30
0
41
1
10
232.902233877893
20
6.0175713805277
30
0
41
1
10
232.937864388627
20
5.91160719305225
30
0
41
1
10
233.008529700131
20
5.69939396333601
30
0
41
1
10
233.043581079466
20
5.59309148342069
30
0
41
1
10
233.147157925801
20
5.27524352244737
30
0
41
1
10
233.214289632028
20
5.06426598926288
30
0
41
1
10
233.343491310378
20
4.64379884716629
30
0
41
1
10
233.405570074775
20
4.43431024186336
30
0
41
1
10
233.522786799098
20
4.01637827384116
30
0
41
1
10
233.577934682542
20
3.80793572932228
30
0
41
1
10
233.678457129364
20
3.39152839304578
30
0
41
1
10
233.723836692364
20
3.18356163036822
30
0
41
1
10
233.771927057915
20
2.92347181095715
30
0
41
1
10
233.781116462384
20
2.87141059895436
30
0
41
1
10
233.798524256489
20
2.76742477123869
30
0
41
1
10
233.823124859093
20
2.61199168342952
30
0
41
1
10
233.842927345572
20
2.45821707696214
30
0
41
1
10
233.875489734465
20
2.1529655869067
30
0
41
1
10
233.887738514821
20
1.9525178198848
30
0
41
1
10
233.891025109642
20
1.55844413171542
30
0
41
1
10
233.882043737113
20
1.36482145725674
30
0
41
1
10
233.857641850817
20
1.1276882651257
30
0
41
1
10
233.852102328854
20
1.08045670148556
30
0
41
1
10
233.839774754734
20
0.986726351796136
30
0
41
1
10
233.819467813337
20
0.847625962624079
30
0
41
1
10
233.794028774022
20
0.712955732128506
30
0
41
1
10
233.737161886973
20
0.449378859603456
30
0
41
1
10
233.691298374467
20
0.281335037877255
30
0
41
1
10
233.587802062064
20
-0.0400054978838682
30
0
41
1
10
233.530177977813
20
-0.193306568822038
30
0
41
1
10
233.45270593449
20
-0.37585725441582
30
0
41
1
10
233.436923063812
20
-0.411942378251297
30
0
41
1
10
233.404906097028
20
-0.483064317308788
30
0
41
1
10
233.356281148235
20
-0.588006027442646
30
0
41
1
10
233.30604387783
20
-0.687826785461823
30
0
41
1
10
233.203809735886
20
-0.880845651712548
30
0
41
1
10
233.133330775779
20
-1.00071310593842
30
0
41
1
10
232.989094513825
20
-1.22341432439521
30
0
41
1
10
232.915327465612
20
-1.32624489199628
30
0
41
1
10
232.821513521743
20
-1.44415435173352
30
0
41
1
10
232.802669283397
20
-1.46720355874135
30
0
41
1
10
232.764824918032
20
-1.51223221116888
30
0
41
1
10
232.74581170622
20
-1.53422515307903
30
0
41
1
10
232.688791735192
20
-1.59832149231531
30
0
41
1
10
232.650733183779
20
-1.63863274785967
30
0
41
1
10
232.536481363739
20
-1.75247078948249
30
0
41
1
10
232.460217599604
20
-1.81891648891974
30
0
41
1
10
232.307636886433
20
-1.93339348308336
30
0
41
1
10
232.23131755912
20
-1.98142287784123
30
0
41
1
10
232.07860222227
20
-2.05909169449546
30
0
41
1
10
232.002205125549
20
-2.08873113376754
30
0
41
1
10
231.906581027494
20
-2.11404026423733
30
0
41
1
10
231.88743748626
20
-2.11851521051125
30
0
41
1
10
231.849306738355
20
-2.12624873901945
30
0
41
1
10
231.792285431549
20
-2.13604227933925
30
0
41
1
10
231.735769888221
20
-2.14047583588717
30
0
41
1
10
231.623363621839
20
-2.14231766842678
30
0
41
1
10
231.475154331128
20
-2.12606400967655
30
0
41
1
10
231.257056871168
20
-2.04656552309629
30
0
41
1
10
231.113957442954
20
-1.95675065142257
30
0
41
1
10
231.025077737465
20
-1.88885767662436
30
0
41
1
10
231.007343042601
20
-1.87469965301173
30
0
41
1
10
230.972019577144
20
-1.84528106048484
30
0
41
1
10
230.9192229913
20
-1.79947613296832
30
0
41
1
10
230.866969892164
20
-1.74865653898226
30
0
41
1
10
230.832357188806
20
-1.71255245283561
30
0
0
SPLINE
5
CB
100
AcDbEntity
8
1
62
256
6
ByLayer
370
18
48
1
60
0
100
AcDbSpline
70
4
71
3
72
26
73
22
40
0
40
0
40
0
40
0
40
0.0066019264685728
40
0.0066019264685728
40
0.172168272057156
40
0.172168272057156
40
0.254951444851438
40
0.254951444851438
40
0.337734617645721
40
0.337734617645721
40
0.420517790440004
40
0.420517790440004
40
0.503300963234286
40
0.503300963234286
40
0.668867308822852
40
0.668867308822852
40
0.834433654411417
40
0.834433654411417
40
0.917216827205709
40
0.917216827205709
40
1
40
1
40
1
40
1
41
1
10
222.504100982902
20
11.9985009307702
30
0
41
1
10
222.522432816772
20
11.9985041892549
30
0
41
1
10
222.540764531246
20
11.9985019053662
30
0
41
1
10
223.018824748295
20
11.9982978621887
30
0
41
1
10
223.478473704196
20
11.9946162600537
30
0
41
1
10
224.167771196023
20
11.9838523000152
30
0
41
1
10
224.397509112471
20
11.9793904406961
30
0
41
1
10
224.856908725311
20
11.9687079781476
30
0
41
1
10
225.08656340671
20
11.9624851421906
30
0
41
1
10
225.545865020732
20
11.9482859782288
30
0
41
1
10
225.77551302687
20
11.9403096841373
30
0
41
1
10
226.234908699931
20
11.9226384431789
30
0
41
1
10
226.464652140192
20
11.9129436791275
30
0
41
1
10
227.153954972435
20
11.8812741930721
30
0
41
1
10
227.613595363779
20
11.856717896527
30
0
41
1
10
228.533026423826
20
11.8007017027702
30
0
41
1
10
228.992815210607
20
11.7692412566195
30
0
41
1
10
229.682552707166
20
11.7168024065746
30
0
41
1
10
229.91247049461
20
11.6984450681823
30
0
41
1
10
230.372335216327
20
11.659974593354
30
0
41
1
10
230.602297848005
20
11.6398703796517
30
0
41
1
10
230.832357188805
20
11.6189441403184
30
0
0
SPLINE
5
CC
100
AcDbEntity
8
1
62
256
6
ByLayer
370
18
48
1
60
0
100
AcDbSpline
70
4
71
3
72
172
73
168
40
0
40
0
40
0
40
0
40
0.0314040762230905
40
0.0314040762230905
40
0.0471061143346358
40
0.0471061143346358
40
0.0549571333904086
40
0.0549571333904086
40
0.0628081524461815
40
0.0628081524461815
40
0.0942122286692716
40
0.0942122286692716
40
0.102063247725044
40
0.102063247725044
40
0.109914266780817
40
0.109914266780817
40
0.125616304892361
40
0.125616304892361
40
0.141318343003906
40
0.141318343003906
40
0.149169362059678
40
0.149169362059678
40
0.15702038111545
40
0.15702038111545
40
0.18842445733854
40
0.18842445733854
40
0.204126495450085
40
0.204126495450085
40
0.21982853356163
40
0.21982853356163
40
0.235530571673174
40
0.235530571673174
40
0.243381590728947
40
0.243381590728947
40
0.251232609784719
40
0.251232609784719
40
0.266934647896264
40
0.266934647896264
40
0.282636686007809
40
0.282636686007809
40
0.290487705063581
40
0.290487705063581
40
0.298338724119353
40
0.298338724119353
40
0.306189743175125
40
0.306189743175125
40
0.314040762230898
40
0.314040762230898
40
0.329742800342443
40
0.329742800342443
40
0.337593819398215
40
0.337593819398215
40
0.345444838453987
40
0.345444838453987
40
0.361146876565532
40
0.361146876565532
40
0.376848914677077
40
0.376848914677077
40
0.38469993373285
40
0.38469993373285
40
0.392550952788623
40
0.392550952788623
40
0.400401971844395
40
0.400401971844395
40
0.408252990900168
40
0.408252990900168
40
0.439657067123258
40
0.439657067123258
40
0.44750808617903
40
0.44750808617903
40
0.455359105234803
40
0.455359105234803
40
0.471061143346349
40
0.471061143346349
40
0.486763181457895
40
0.486763181457895
40
0.494614200513668
40
0.494614200513668
40
0.502465219569441
40
0.502465219569441
40
0.533869295792532
40
0.533869295792532
40
0.541720314848305
40
0.541720314848305
40
0.549571333904078
40
0.549571333904078
40
0.565273372015624
40
0.565273372015624
40
0.580975410127171
40
0.580975410127171
40
0.588826429182945
40
0.588826429182945
40
0.596677448238718
40
0.596677448238718
40
0.604528467294491
40
0.604528467294491
40
0.612379486350265
40
0.612379486350265
40
0.628081524461812
40
0.628081524461812
40
0.635932543517585
40
0.635932543517585
40
0.643783562573358
40
0.643783562573358
40
0.659485600684905
40
0.659485600684905
40
0.675187638796452
40
0.675187638796452
40
0.683038657852225
40
0.683038657852225
40
0.690889676907999
40
0.690889676907999
40
0.72229375313109
40
0.72229375313109
40
0.730144772186863
40
0.730144772186863
40
0.737995791242636
40
0.737995791242636
40
0.745846810298409
40
0.745846810298409
40
0.753697829354182
40
0.753697829354182
40
0.761548848409955
40
0.761548848409955
40
0.769399867465728
40
0.769399867465728
40
0.777250886521501
40
0.777250886521501
40
0.785101905577274
40
0.785101905577274
40
0.792952924633047
40
0.792952924633047
40
0.80080394368882
40
0.80080394368882
40
0.816505981800366
40
0.816505981800366
40
0.832208019911912
40
0.832208019911912
40
0.840059038967684
40
0.840059038967684
40
0.847910058023457
40
0.847910058023457
40
0.879314134246546
40
0.879314134246546
40
0.887165153302318
40
0.887165153302318
40
0.89501617235809
40
0.89501617235809
40
0.910718210469634
40
0.910718210469634
40
0.918569229525405
40
0.918569229525405
40
0.926420248581177
40
0.926420248581177
40
0.934271267636949
40
0.934271267636949
40
0.94212228669272
40
0.94212228669272
40
0.957824324804264
40
0.957824324804264
40
0.973526362915807
40
0.973526362915807
40
0.981377381971579
40
0.981377381971579
40
0.989228401027351
40
0.989228401027351
40
1
40
1
40
1
40
1
41
1
10
19.6514512414487
20
11.6144717321734
30
0
41
1
10
20.695582930803
20
11.5695865563114
30
0
41
1
10
21.7392577862922
20
11.5075247670302
30
0
41
1
10
23.3033100411485
20
11.3887702122697
30
0
41
1
10
23.8244167487616
20
11.3448910379809
30
0
41
1
10
24.6056468881879
20
11.2725329725734
30
0
41
1
10
24.8660012069589
20
11.2473326176822
30
0
41
1
10
25.38679297128
20
11.1949290838892
30
0
41
1
10
25.6472089986799
20
11.1677109304922
30
0
41
1
10
26.9493344558425
20
11.0265246042384
30
0
41
1
10
27.9911528538621
20
10.8973200803491
30
0
41
1
10
29.2929351413424
20
10.7146846159908
30
0
41
1
10
29.5532795297007
20
10.6771086985814
30
0
41
1
10
30.0740822462908
20
10.6000173841284
30
0
41
1
10
30.3345576567791
20
10.5605238825687
30
0
41
1
10
31.1161833437779
20
10.4391925072306
30
0
41
1
10
31.6374957985505
20
10.3544602458001
30
0
41
1
10
32.6804842864361
20
10.1771920929057
30
0
41
1
10
33.2021585722517
20
10.0846541715171
30
0
41
1
10
33.9848623643077
20
9.93981324819984
30
0
41
1
10
34.2457797712626
20
9.8905007715972
30
0
41
1
10
34.7677766768462
20
9.78999897178736
30
0
41
1
10
35.0289012011743
20
9.73886733179518
30
0
41
1
10
36.3340791139387
20
9.47907646300419
30
0
41
1
10
37.3775395457182
20
9.25776580874214
30
0
41
1
10
38.9409013424287
20
8.90425515399542
30
0
41
1
10
39.4616393968125
20
8.7826562799998
30
0
41
1
10
40.5033579397634
20
8.53382836496289
30
0
41
1
10
41.0242684374416
20
8.40648376430485
30
0
41
1
10
42.0660075021088
20
8.14561563216989
30
0
41
1
10
42.5868509793357
20
8.01212093574554
30
0
41
1
10
43.3679926801091
20
7.80709232628479
30
0
41
1
10
43.6283522331694
20
7.73795011587038
30
0
41
1
10
44.1490201824205
20
7.59803737419355
30
0
41
1
10
44.4093359641317
20
7.52728100098037
30
0
41
1
10
45.1905453627099
20
7.31330491874928
30
0
41
1
10
45.7116195919946
20
7.16820994011277
30
0
41
1
10
46.7541294930964
20
6.87278511594852
30
0
41
1
10
47.275562187021
20
6.72244741796456
30
0
41
1
10
48.0579004143543
20
6.49279433936013
30
0
41
1
10
48.3187092454744
20
6.41554657889279
30
0
41
1
10
48.8403711520453
20
6.2596102370139
30
0
41
1
10
49.1012336855994
20
6.18094344959499
30
0
41
1
10
49.6231570261001
20
6.0225411099824
30
0
41
1
10
49.8842857616986
20
5.94283297632097
30
0
41
1
10
50.4064962803906
20
5.78252466939904
30
0
41
1
10
50.6675486289778
20
5.70190179687609
30
0
41
1
10
51.4505261708229
20
5.45857903908845
30
0
41
1
10
51.9722761050555
20
5.2944368971288
30
0
41
1
10
52.7544694781884
20
5.04513238113731
30
0
41
1
10
53.0151283600045
20
4.96151455276623
30
0
41
1
10
53.5362882710745
20
4.79320889011245
30
0
41
1
10
53.7967744464558
20
4.70848193365188
30
0
41
1
10
54.5781181244089
20
4.45301028705606
30
0
41
1
10
55.0990506062906
20
4.28147589238762
30
0
41
1
10
56.1409086576846
20
3.9357887943159
30
0
41
1
10
56.6618155434267
20
3.76158656374633
30
0
41
1
10
57.4430466183281
20
3.49798664603111
30
0
41
1
10
57.7034375935225
20
3.4097428094492
30
0
41
1
10
58.2241594671741
20
3.23243978470782
30
0
41
1
10
58.4844769870776
20
3.14334375348542
30
0
41
1
10
59.0051149769214
20
2.96450458632853
30
0
41
1
10
59.2654412692001
20
2.8747772660054
30
0
41
1
10
59.7862497380017
20
2.69509941626165
30
0
41
1
10
60.0467206401288
20
2.60511834033903
30
0
41
1
10
61.349282280087
20
2.15415958277666
30
0
41
1
10
62.3920626423171
20
1.7902315325527
30
0
41
1
10
63.6959424496681
20
1.32984134887258
30
0
41
1
10
63.9567394746122
20
1.23748954590224
30
0
41
1
10
64.4785960861142
20
1.05287320683294
30
0
41
1
10
64.7396379847348
20
0.960558415819094
30
0
41
1
10
65.5230702012447
20
0.683499574709117
30
0
41
1
10
66.0452354937517
20
0.498822335326167
30
0
41
1
10
67.0888820495927
20
0.1291922290402
30
0
41
1
10
67.6104210477472
20
-0.0557477272276117
30
0
41
1
10
68.3921898607413
20
-0.333663837613187
30
0
41
1
10
68.6526966337586
20
-0.426366040106331
30
0
41
1
10
69.1736788323342
20
-0.611512737782391
30
0
41
1
10
69.4341710681786
20
-0.703909399961617
30
0
41
1
10
70.736673562233
20
-1.16491460115856
30
0
41
1
10
71.7785798682743
20
-1.53124988205056
30
0
41
1
10
73.0803163925776
20
-1.98756389049311
30
0
41
1
10
73.3406183122134
20
-2.07878220782953
30
0
41
1
10
73.861221571339
20
-2.26087545416405
30
0
41
1
10
74.1215647177826
20
-2.35163362333728
30
0
41
1
10
74.9027825792008
20
-2.62286804864166
30
0
41
1
10
75.4238058717134
20
-2.80241633865916
30
0
41
1
10
76.4661071246697
20
-3.15943639527646
30
0
41
1
10
76.9873881617935
20
-3.33689948196346
30
0
41
1
10
77.7694210958218
20
-3.60174703508213
30
0
41
1
10
78.0301029313825
20
-3.68984412759443
30
0
41
1
10
78.5515528909431
20
-3.86545182492498
30
0
41
1
10
78.8123271505198
20
-3.95294555085738
30
0
41
1
10
79.3341185272332
20
-4.12692045894471
30
0
41
1
10
79.5951286861348
20
-4.21342092781589
30
0
41
1
10
80.1173244360137
20
-4.38559455963661
30
0
41
1
10
80.3785418141776
20
-4.47126683266174
30
0
41
1
10
81.1618407862715
20
-4.72685944674561
30
0
41
1
10
81.6837586527193
20
-4.89541525999482
30
0
41
1
10
82.4661297544931
20
-5.14570555219666
30
0
41
1
10
82.7268358213633
20
-5.22871123055904
30
0
41
1
10
83.2480664059886
20
-5.39390065923004
30
0
41
1
10
83.5085849695704
20
-5.47609805083681
30
0
41
1
10
84.2901941002817
20
-5.72062969710066
30
0
41
1
10
84.811279438309
20
-5.88106072467866
30
0
41
1
10
85.8533038428384
20
-6.19722456003962
30
0
41
1
10
86.3742395562747
20
-6.35296468188469
30
0
41
1
10
87.1554460885766
20
-6.5832505455727
30
0
41
1
10
87.4158161042511
20
-6.65945640407415
30
0
41
1
10
87.9364641515208
20
-6.81081296375879
30
0
41
1
10
88.1967481450636
20
-6.88594875913427
30
0
41
1
10
89.4983012219961
20
-7.25814113865451
30
0
41
1
10
90.5403713405135
20
-7.54388162920111
30
0
41
1
10
91.8433509468927
20
-7.88754750760412
30
0
41
1
10
92.1039675949808
20
-7.95559987024694
30
0
41
1
10
92.6252296158752
20
-8.09036233981874
30
0
41
1
10
92.8858641192908
20
-8.15709460341014
30
0
41
1
10
93.4072113162668
20
-8.28910494165879
30
0
41
1
10
93.6679647315822
20
-8.35429958650644
30
0
41
1
10
94.1896958467776
20
-8.48294351481715
30
0
41
1
10
94.4506609377637
20
-8.5464187171554
30
0
41
1
10
94.972768157361
20
-8.67172373737876
30
0
41
1
10
95.2339540998457
20
-8.73356376630247
30
0
41
1
10
95.7562704159715
20
-8.85558708955358
30
0
41
1
10
96.0173504096989
20
-8.91575921662988
30
0
41
1
10
96.5393415957616
20
-9.03444810445001
30
0
41
1
10
96.8002537110849
20
-9.09296320231496
30
0
41
1
10
97.3218926983539
20
-9.208362497254
30
0
41
1
10
97.5826066196663
20
-9.26526913927273
30
0
41
1
10
98.1038895582792
20
-9.3773699761669
30
0
41
1
10
98.364465322254
20
-9.4325516389022
30
0
41
1
10
98.8856321724581
20
-9.54093613531188
30
0
41
1
10
99.1462211837175
20
-9.59414449241973
30
0
41
1
10
99.9279213021434
20
-9.75097582537757
30
0
41
1
10
100.448979997384
20
-9.85178284648444
30
0
41
1
10
101.490853945862
20
-10.0460692941267
30
0
41
1
10
102.011666262036
20
-10.1395533494401
30
0
41
1
10
102.792617716528
20
-10.2743539095312
30
0
41
1
10
103.052878543985
20
-10.318396259193
30
0
41
1
10
103.573519635579
20
-10.4043857785813
30
0
41
1
10
103.833890705676
20
-10.446347612114
30
0
41
1
10
105.135941685331
20
-10.6510973122535
30
0
41
1
10
106.178187762252
20
-10.7988055131593
30
0
41
1
10
107.481066318678
20
-10.9639462532004
30
0
41
1
10
107.741645207278
20
-10.9959939163819
30
0
41
1
10
108.262940807454
20
-11.0579908980625
30
0
41
1
10
108.523671770033
20
-11.0879273445518
30
0
41
1
10
109.306185969892
20
-11.1745007117007
30
0
41
1
10
109.828212939014
20
-11.2279775152431
30
0
41
1
10
110.611693366612
20
-11.3019137767591
30
0
41
1
10
110.872859460062
20
-11.3255043338125
30
0
41
1
10
111.39493641406
20
-11.3705617281235
30
0
41
1
10
111.655885401244
20
-11.3920321910455
30
0
41
1
10
112.177590886891
20
-11.4328586126468
30
0
41
1
10
112.438338022541
20
-11.4522197304376
30
0
41
1
10
112.959677028967
20
-11.4887938305235
30
0
41
1
10
113.220307390554
20
-11.5059846225461
30
0
41
1
10
114.002211421876
20
-11.5542239239387
30
0
41
1
10
114.523437049692
20
-11.5819794406471
30
0
41
1
10
115.565634960582
20
-11.6288282948766
30
0
41
1
10
116.086608084184
20
-11.6479199410959
30
0
41
1
10
116.867796889264
20
-11.670052159816
30
0
41
1
10
117.128135118457
20
-11.676346605227
30
0
41
1
10
117.648749646904
20
-11.6867460490859
30
0
41
1
10
117.909033902568
20
-11.6908487452009
30
0
41
1
10
118.526546807098
20
-11.6979643585977
30
0
41
1
10
118.883814686711
20
-11.700011121082
30
0
41
1
10
119.241132268028
20
-11.7000010748084
30
0
0
SPLINE
5
CD
100
AcDbEntity
8
1
62
256
6
ByLayer
370
18
48
1
60
0
100
AcDbSpline
70
4
71
3
72
42
73
38
40
0
40
0
40
0
40
0
40
0.0508177454372422
40
0.0508177454372422
40
0.0873247552281224
40
0.0873247552281224
40
0.123831765019004
40
0.123831765019004
40
0.160338774809884
40
0.160338774809884
40
0.196845784600765
40
0.196845784600765
40
0.26985980418252
40
0.26985980418252
40
0.306366813973397
40
0.306366813973397
40
0.342873823764275
40
0.342873823764275
40
0.379380833555152
40
0.379380833555152
40
0.41588784334603
40
0.41588784334603
40
0.561915882509533
40
0.561915882509533
40
0.598422892300407
40
0.598422892300407
40
0.634929902091282
40
0.634929902091282
40
0.707943921673022
40
0.707943921673022
40
0.780957941254763
40
0.780957941254763
40
0.817464951045637
40
0.817464951045637
40
0.853971960836512
40
0.853971960836512
40
1
40
1
40
1
40
1
41
1
10
198.391376977095
20
8.63325508901247
30
0
41
1
10
198.754072423371
20
8.7199763272184
30
0
41
1
10
199.116849398346
20
8.8051592654528
30
0
41
1
10
199.740351507865
20
8.94894455316134
30
0
41
1
10
200.00104566445
20
9.00827661840495
30
0
41
1
10
200.522487240639
20
9.12539578325925
30
0
41
1
10
200.783217278842
20
9.18321345409225
30
0
41
1
10
201.304845764775
20
9.29708638067871
30
0
41
1
10
201.565776618726
20
9.35308501657872
30
0
41
1
10
202.087863516228
20
9.4632291772281
30
0
41
1
10
202.349069927352
20
9.51738963177854
30
0
41
1
10
203.132378757458
20
9.677041971427
30
0
41
1
10
203.65428423009
20
9.77974113487269
30
0
41
1
10
204.436602463536
20
9.92834562786666
30
0
41
1
10
204.697287449938
20
9.97696874401922
30
0
41
1
10
205.218457204632
20
10.0724218278785
30
0
41
1
10
205.478930352681
20
10.1192677308509
30
0
41
1
10
205.999761056597
20
10.2110331610046
30
0
41
1
10
206.260125419853
20
10.2559428138173
30
0
41
1
10
206.780874415131
20
10.3436593700144
30
0
41
1
10
207.041242218793
20
10.3864910157178
30
0
41
1
10
208.342943682414
20
10.595684500707
30
0
41
1
10
209.383926596911
20
10.7471328036383
30
0
41
1
10
210.684179177245
20
10.9169832854005
30
0
41
1
10
210.94419610979
20
10.9499580953201
30
0
41
1
10
211.464360210986
20
11.0137236651678
30
0
41
1
10
211.724486130344
20
11.0445376487103
30
0
41
1
10
212.504961988032
20
11.1338231921299
30
0
41
1
10
213.025407546268
20
11.1891445080503
30
0
41
1
10
214.06640762304
20
11.2915175154443
30
0
41
1
10
214.58696890289
20
11.3385635116298
30
0
41
1
10
215.367807576462
20
11.4029202572675
30
0
41
1
10
215.628098025734
20
11.4233269195255
30
0
41
1
10
216.148836847282
20
11.4619600493557
30
0
41
1
10
216.409302167855
20
11.4801779052157
30
0
41
1
10
217.712080499786
20
11.5658208527325
30
0
41
1
10
218.755592777679
20
11.6170598600137
30
0
41
1
10
219.8
20
11.6509904826146
30
0
0
SPLINE
5
CE
100
AcDbEntity
8
1
62
256
6
ByLayer
370
18
48
1
60
0
100
AcDbSpline
70
4
71
3
72
86
73
82
40
0
40
0
40
0
40
0
40
0.0350508235021469
40
0.0350508235021469
40
0.0701016470042939
40
0.0701016470042939
40
0.0876270587553689
40
0.0876270587553689
40
0.105152470506444
40
0.105152470506444
40
0.140203294008594
40
0.140203294008594
40
0.175254117510744
40
0.175254117510744
40
0.192779529261819
40
0.192779529261819
40
0.210304941012894
40
0.210304941012894
40
0.22783035276397
40
0.22783035276397
40
0.245355764515045
40
0.245355764515045
40
0.280406588017198
40
0.280406588017198
40
0.315457411519352
40
0.315457411519352
40
0.332982823270428
40
0.332982823270428
40
0.350508235021505
40
0.350508235021505
40
0.385559058523658
40
0.385559058523658
40
0.403084470274735
40
0.403084470274735
40
0.420609882025812
40
0.420609882025812
40
0.438135293776888
40
0.438135293776888
40
0.455660705527965
40
0.455660705527965
40
0.490711529030122
40
0.490711529030122
40
0.525762352532278
40
0.525762352532278
40
0.543287764283357
40
0.543287764283357
40
0.560813176034435
40
0.560813176034435
40
0.595863999536588
40
0.595863999536588
40
0.630914823038742
40
0.630914823038742
40
0.64844023478982
40
0.64844023478982
40
0.665965646540898
40
0.665965646540898
40
0.701016470043055
40
0.701016470043055
40
0.736067293545212
40
0.736067293545212
40
0.75359270529629
40
0.75359270529629
40
0.771118117047368
40
0.771118117047368
40
0.841219764051685
40
0.841219764051685
40
0.858745175802763
40
0.858745175802763
40
0.876270587553841
40
0.876270587553841
40
0.911321411055996
40
0.911321411055996
40
0.946372234558152
40
0.946372234558152
40
0.96389764630923
40
0.96389764630923
40
0.981423058060308
40
0.981423058060308
40
0.998948469811386
40
0.998948469811386
40
1
40
1
40
1
40
1
41
1
10
219.8
20
2.11689408322772
30
0
41
1
10
219.264074925671
20
2.30426825409475
30
0
41
1
10
218.728368639024
20
2.49036016316347
30
0
41
1
10
217.657385277302
20
2.85999581318805
30
0
41
1
10
217.122115689406
20
3.04356110908682
30
0
41
1
10
216.319582473777
20
3.31714084025444
30
0
41
1
10
216.05213344096
20
3.40803957995325
30
0
41
1
10
215.51736722971
20
3.58926679271033
30
0
41
1
10
215.250062475999
20
3.67962866840679
30
0
41
1
10
214.448234622174
20
3.94955190050916
30
0
41
1
10
213.913678028643
20
4.12762981186879
30
0
41
1
10
212.844561089771
20
4.48009194745202
30
0
41
1
10
212.31000050214
20
4.65447626069076
30
0
41
1
10
211.508222004106
20
4.91345352694293
30
0
41
1
10
211.240974055431
20
4.99934871289628
30
0
41
1
10
210.706511721247
20
5.170300797784
30
0
41
1
10
210.43930058504
20
5.25536556406749
30
0
41
1
10
209.904829769333
20
5.42444371088288
30
0
41
1
10
209.63756205836
20
5.50843683314216
30
0
41
1
10
209.102894585831
20
5.67516433806739
30
0
41
1
10
208.835505488758
20
5.75792580373982
30
0
41
1
10
208.033184969354
20
6.00443867999303
30
0
41
1
10
207.498096935229
20
6.16641131279334
30
0
41
1
10
206.427554007416
20
6.48572893918532
30
0
41
1
10
205.892116335885
20
6.64311474552079
30
0
41
1
10
205.088670359266
20
6.87565714749704
30
0
41
1
10
204.820732188547
20
6.95250003985322
30
0
41
1
10
204.284782104111
20
7.10463472187817
30
0
41
1
10
204.016864159133
20
7.17992451636979
30
0
41
1
10
203.213286146003
20
7.40348604763531
30
0
41
1
10
202.677797789219
20
7.54944343955714
30
0
41
1
10
201.874967073159
20
7.76389788896117
30
0
41
1
10
201.607425131217
20
7.83463800158677
30
0
41
1
10
201.072489889468
20
7.97465000900141
30
0
41
1
10
200.805103328401
20
8.04393541389291
30
0
41
1
10
200.270422686786
20
8.18091448563752
30
0
41
1
10
200.003124209746
20
8.24859883192462
30
0
41
1
10
199.468510827153
20
8.38216025018994
30
0
41
1
10
199.20120509197
20
8.44805672168539
30
0
41
1
10
198.399309659402
20
8.64314206862039
30
0
41
1
10
197.864736397188
20
8.76971838899962
30
0
41
1
10
196.795684320335
20
9.0160092203237
30
0
41
1
10
196.261211510118
20
9.13573449132332
30
0
41
1
10
195.459602598098
20
9.31018711477921
30
0
41
1
10
195.192399429547
20
9.36745095237418
30
0
41
1
10
194.657859321547
20
9.4799795527392
30
0
41
1
10
194.390538497304
20
9.53527273743794
30
0
41
1
10
193.588429059965
20
9.69825658526608
30
0
41
1
10
193.053490333362
20
9.80304902909037
30
0
41
1
10
191.983281327092
20
10.0050107306901
30
0
41
1
10
191.448037394443
20
10.1022183479876
30
0
41
1
10
190.644928055914
20
10.2422638793825
30
0
41
1
10
190.37717193681
20
10.2879658726547
30
0
41
1
10
189.841444718702
20
10.3772582445516
30
0
41
1
10
189.57341954197
20
10.4208570352543
30
0
41
1
10
188.769473968337
20
10.5484589405303
30
0
41
1
10
188.233766731001
20
10.629251048521
30
0
41
1
10
187.162906495751
20
10.7823800011042
30
0
41
1
10
186.627754435771
20
10.8547182451368
30
0
41
1
10
185.825488787393
20
10.9569048362004
30
0
41
1
10
185.558147263127
20
10.9899141620456
30
0
41
1
10
185.023453801122
20
11.0536606556867
30
0
41
1
10
184.756114682741
20
11.084412088422
30
0
41
1
10
183.41946396675
20
11.2325947462162
30
0
41
1
10
182.350269738378
20
11.3333519838214
30
0
41
1
10
181.014293891856
20
11.4372465216653
30
0
41
1
10
180.747113494859
20
11.4569106936372
30
0
41
1
10
180.212679116898
20
11.4939479702674
30
0
41
1
10
179.945414914947
20
11.5113165940234
30
0
41
1
10
179.143485955404
20
11.5599888971651
30
0
41
1
10
178.608692821552
20
11.5878656816167
30
0
41
1
10
177.538800536584
20
11.6345038472747
30
0
41
1
10
177.003702279705
20
11.6532659828904
30
0
41
1
10
176.200868619154
20
11.6745289369009
30
0
41
1
10
175.933241305643
20
11.6804704333036
30
0
41
1
10
175.397797527226
20
11.6900256701451
30
0
41
1
10
175.129975966901
20
11.6936405168421
30
0
41
1
10
174.594136438846
20
11.6985520232942
30
0
41
1
10
174.326066155126
20
11.6998484961974
30
0
41
1
10
174.042008276024
20
11.699995817072
30
0
41
1
10
174.025929697372
20
11.6999999917094
30
0
41
1
10
174.009851367923
20
11.700000002581
30
0
0
SPLINE
5
CF
100
AcDbEntity
8
1
62
256
6
ByLayer
370
18
48
1
60
0
100
AcDbSpline
70
4
71
3
72
124
73
120
40
0
40
0
40
0
40
0
40
0.0029512654559258
40
0.0029512654559258
40
0.0228922401468098
40
0.0228922401468098
40
0.0328627274922512
40
0.0328627274922512
40
0.0428332148376929
40
0.0428332148376929
40
0.08271516421946
40
0.08271516421946
40
0.092685651564902
40
0.092685651564902
40
0.102656138910344
40
0.102656138910344
40
0.122597113601226
40
0.122597113601226
40
0.132567600946668
40
0.132567600946668
40
0.142538088292109
40
0.142538088292109
40
0.15250857563755
40
0.15250857563755
40
0.162479062982991
40
0.162479062982991
40
0.202361012364757
40
0.202361012364757
40
0.212331499710197
40
0.212331499710197
40
0.222301987055638
40
0.222301987055638
40
0.242242961746521
40
0.242242961746521
40
0.262183936437403
40
0.262183936437403
40
0.282124911128286
40
0.282124911128286
40
0.322006860510052
40
0.322006860510052
40
0.331977347855493
40
0.331977347855493
40
0.341947835200934
40
0.341947835200934
40
0.361888809891816
40
0.361888809891816
40
0.381829784582698
40
0.381829784582698
40
0.40177075927358
40
0.40177075927358
40
0.441652708655343
40
0.441652708655343
40
0.451623196000783
40
0.451623196000783
40
0.461593683346224
40
0.461593683346224
40
0.481534658037105
40
0.481534658037105
40
0.501475632727987
40
0.501475632727987
40
0.511446120073427
40
0.511446120073427
40
0.521416607418868
40
0.521416607418868
40
0.561298556800632
40
0.561298556800632
40
0.571269044146073
40
0.571269044146073
40
0.581239531491514
40
0.581239531491514
40
0.601180506182395
40
0.601180506182395
40
0.621121480873277
40
0.621121480873277
40
0.631091968218718
40
0.631091968218718
40
0.641062455564159
40
0.641062455564159
40
0.68094440494592
40
0.68094440494592
40
0.69091489229136
40
0.69091489229136
40
0.700885379636801
40
0.700885379636801
40
0.710855866982241
40
0.710855866982241
40
0.720826354327681
40
0.720826354327681
40
0.74076732901856
40
0.74076732901856
40
0.750737816364001
40
0.750737816364001
40
0.760708303709441
40
0.760708303709441
40
0.800590253091202
40
0.800590253091202
40
0.810560740436643
40
0.810560740436643
40
0.820531227782083
40
0.820531227782083
40
0.840472202472963
40
0.840472202472963
40
0.860413177163844
40
0.860413177163844
40
0.870383664509283
40
0.870383664509283
40
0.880354151854723
40
0.880354151854723
40
0.890324639200163
40
0.890324639200163
40
0.900295126545603
40
0.900295126545603
40
0.920236101236483
40
0.920236101236483
40
0.940177075927362
40
0.940177075927362
40
0.960118050618241
40
0.960118050618241
40
1
40
1
40
1
40
1
41
1
10
94.8478304360946
20
-8.63554862619284
30
0
41
1
10
94.7686621899533
20
-8.65447966161108
30
0
41
1
10
94.6894978526553
20
-8.6733360500524
30
0
41
1
10
94.0754706790521
20
-8.81902333724719
30
0
41
1
10
93.5408110170131
20
-8.94257648636429
30
0
41
1
10
92.7391164602067
20
-9.12281305606851
30
0
41
1
10
92.4719221055112
20
-9.18202012911789
30
0
41
1
10
91.9374988948776
20
-9.29850055933713
30
0
41
1
10
91.6702662471731
20
-9.35576847101422
30
0
41
1
10
90.3340384915631
20
-9.63733760397142
30
0
41
1
10
89.2648252191098
20
-9.84733235568891
30
0
41
1
10
87.928282246945
20
-10.091050048186
30
0
41
1
10
87.6609805492712
20
-10.1388621130263
30
0
41
1
10
87.1262162978987
20
-10.2323709883041
30
0
41
1
10
86.8587637887148
20
-10.2780836169028
30
0
41
1
10
86.0561998479456
20
-10.4121121890384
30
0
41
1
10
85.5208798927266
20
-10.4973185767335
30
0
41
1
10
84.7175249957644
20
-10.6189631191299
30
0
41
1
10
84.4496786508478
20
-10.6584846225263
30
0
41
1
10
83.9138765359645
20
-10.7354826184465
30
0
41
1
10
83.6458738234591
20
-10.7729684438782
30
0
41
1
10
83.1100030600663
20
-10.8458446034227
30
0
41
1
10
82.8421719802043
20
-10.8812227537341
30
0
41
1
10
82.3066180471862
20
-10.9497537101045
30
0
41
1
10
82.0388842350769
20
-10.982896230466
30
0
41
1
10
80.7004211503154
20
-11.1430200706396
30
0
41
1
10
79.6303478663828
20
-11.2533326655295
30
0
41
1
10
78.2938807159698
20
-11.3692247025506
30
0
41
1
10
78.0266594652469
20
-11.391308908788
30
0
41
1
10
77.4922151625984
20
-11.4331885502457
30
0
41
1
10
77.2249809471091
20
-11.4529786799969
30
0
41
1
10
76.4232456726262
20
-11.5089195260197
30
0
41
1
10
75.8887104456415
20
-11.5416427999267
30
0
41
1
10
74.8195968696641
20
-11.598005024937
30
0
41
1
10
74.2850246595218
20
-11.6216477091351
30
0
41
1
10
73.2159450670632
20
-11.6598253130563
30
0
41
1
10
72.6814117549318
20
-11.6743353355389
30
0
41
1
10
71.0768312923028
20
-11.7039241535316
30
0
41
1
10
70.0060884764834
20
-11.7052165833848
30
0
41
1
10
68.6666236646994
20
-11.6836403017221
30
0
41
1
10
68.3986342273275
20
-11.6781578728874
30
0
41
1
10
67.8628470641782
20
-11.6648701106833
30
0
41
1
10
67.595008502378
20
-11.6570724277242
30
0
41
1
10
66.7916246786115
20
-11.6302478052173
30
0
41
1
10
66.2562245384396
20
-11.6077895985216
30
0
41
1
10
65.1858394862511
20
-11.5537758465466
30
0
41
1
10
64.6508582003918
20
-11.5222201757335
30
0
41
1
10
63.5814217237747
20
-11.4499317132413
30
0
41
1
10
63.0469898372988
20
-11.4091676284044
30
0
41
1
10
61.4434523849432
20
-11.2737102146198
30
0
41
1
10
60.3743229444906
20
-11.1658186318786
30
0
41
1
10
59.0380361364433
20
-11.0087773952037
30
0
41
1
10
58.7707900253979
20
-10.9762517430646
30
0
41
1
10
58.2362948697214
20
-10.9089789079122
30
0
41
1
10
57.9690192154896
20
-10.8742578514645
30
0
41
1
10
57.1669743193399
20
-10.766989996
30
0
41
1
10
56.6320363125292
20
-10.6912923944121
30
0
41
1
10
55.5617151110557
20
-10.5315133050223
30
0
41
1
10
55.026332580274
20
-10.4474326108358
30
0
41
1
10
54.2230027537929
20
-10.3148797501206
30
0
41
1
10
53.9551899897711
20
-10.2696129235418
30
0
41
1
10
53.4194315125085
20
-10.1769846897719
30
0
41
1
10
53.1514386320069
20
-10.1296199429972
30
0
41
1
10
51.8119252387246
20
-9.88816546083348
30
0
41
1
10
50.7412168650171
20
-9.679935079128
30
0
41
1
10
49.4042126524757
20
-9.40055248079085
30
0
41
1
10
49.1368824880352
20
-9.34371571735147
30
0
41
1
10
48.6023632652662
20
-9.22811575400482
30
0
41
1
10
48.3351657795695
20
-9.16936597928859
30
0
41
1
10
47.5335350989427
20
-8.99067112190664
30
0
41
1
10
46.9991273389578
20
-8.86817347760575
30
0
41
1
10
45.9303697795651
20
-8.61643030886319
30
0
41
1
10
45.3960182168611
20
-8.48718930558277
30
0
41
1
10
44.5946110251907
20
-8.28810505549993
30
0
41
1
10
44.3275004494225
20
-8.22086189677501
30
0
41
1
10
43.7932986155527
20
-8.08466657732609
30
0
41
1
10
43.5262025315964
20
-8.01572363314503
30
0
41
1
10
42.1904774117338
20
-7.66734047517113
30
0
41
1
10
41.1210665535627
20
-7.37705362997795
30
0
41
1
10
39.7835416572461
20
-6.99912601118731
30
0
41
1
10
39.5159983476742
20
-6.92278490354156
30
0
41
1
10
38.9808421024714
20
-6.76856535271108
30
0
41
1
10
38.7132388803782
20
-6.69066255378809
30
0
41
1
10
38.1778091339606
20
-6.53367846000725
30
0
41
1
10
37.9099906814405
20
-6.45457933042053
30
0
41
1
10
37.3741497737155
20
-6.29516389200092
30
0
41
1
10
37.1060619384406
20
-6.21482768123323
30
0
41
1
10
36.3022244236678
20
-5.97219691097925
30
0
41
1
10
35.7667702066618
20
-5.80825563655637
30
0
41
1
10
34.9643149020709
20
-5.55888493114608
30
0
41
1
10
34.6969533432904
20
-5.47517797156974
30
0
41
1
10
34.1624732195583
20
-5.30660669875274
30
0
41
1
10
33.895349758359
20
-5.22175507197673
30
0
41
1
10
32.5600734148318
20
-4.7953099399187
30
0
41
1
10
31.4927137943666
20
-4.44778262997812
30
0
41
1
10
30.1597992239443
20
-4.00490973813615
30
0
41
1
10
29.8932813186288
20
-3.91590913766081
30
0
41
1
10
29.3603832085584
20
-3.73703348198225
30
0
41
1
10
29.094017256582
20
-3.64711910266189
30
0
41
1
10
28.2949779609209
20
-3.37646813494132
30
0
41
1
10
27.7622898071083
20
-3.19502736533101
30
0
41
1
10
26.69694701365
20
-2.83008316360528
30
0
41
1
10
26.1642892273497
20
-2.64658879178313
30
0
41
1
10
25.3653898068065
20
-2.36962623985406
30
0
41
1
10
25.0991055689657
20
-2.27701547940811
30
0
41
1
10
24.5665781191802
20
-2.09118403620138
30
0
41
1
10
24.3003356299244
20
-1.99796106137165
30
0
41
1
10
23.7678031411122
20
-1.81115414009034
30
0
41
1
10
23.5015040002448
20
-1.71759624803173
30
0
41
1
10
22.9687856113203
20
-1.53032812460617
30
0
41
1
10
22.7023761782126
20
-1.43659002076788
30
0
41
1
10
21.9030080173517
20
-1.15503422906136
30
0
41
1
10
21.3699067487511
20
-0.966883365504941
30
0
41
1
10
20.3033740676128
20
-0.589544305368349
30
0
41
1
10
19.7699631646056
20
-0.400295997198015
30
0
41
1
10
18.7027752622633
20
-0.0208450421218345
30
0
41
1
10
18.1688043317005
20
0.168789067754972
30
0
41
1
10
16.5656297287306
20
0.737019055851931
30
0
41
1
10
15.4952207772093
20
1.11509478164666
30
0
41
1
10
14.4234364234702
20
1.49325161307738
30
0
0
SPLINE
5
D0
100
AcDbEntity
8
1
62
256
6
ByLayer
370
18
48
1
60
0
100
AcDbSpline
70
4
71
3
72
10
73
6
40
0
40
0
40
0
40
0
40
0.510171508530805
40
0.510171508530805
40
1
40
1
40
1
40
1
41
1
10
219.8
20
-11.9576115735819
30
0
41
1
10
220.260139482291
20
-11.9714427084948
30
0
41
1
10
220.719913073476
20
-11.9817913933231
30
0
41
1
10
221.621225987648
20
-11.9951306894726
30
0
41
1
10
222.062698062275
20
-11.9984224710386
30
0
41
1
10
222.504100914201
20
-11.998500930758
30
0
0
SPLINE
5
D1
100
AcDbEntity
8
1
62
256
6
ByLayer
370
18
48
1
60
0
100
AcDbSpline
70
4
71
3
72
224
73
220
40
0
40
0
40
0
40
0
40
0.0051805676080287
40
0.0051805676080287
40
0.0114372935979153
40
0.0114372935979153
40
0.017694019587802
40
0.017694019587802
40
0.0239507455776886
40
0.0239507455776886
40
0.0302074715675753
40
0.0302074715675753
40
0.0364641975574618
40
0.0364641975574618
40
0.048977649537235
40
0.048977649537235
40
0.0614911015170082
40
0.0614911015170082
40
0.0677478275068944
40
0.0677478275068944
40
0.0740045534967808
40
0.0740045534967808
40
0.0990314574563266
40
0.0990314574563266
40
0.105288183446213
40
0.105288183446213
40
0.1115449094361
40
0.1115449094361
40
0.124058361415873
40
0.124058361415873
40
0.13031508740576
40
0.13031508740576
40
0.136571813395646
40
0.136571813395646
40
0.142828539385533
40
0.142828539385533
40
0.14908526537542
40
0.14908526537542
40
0.161598717355193
40
0.161598717355193
40
0.174112169334967
40
0.174112169334967
40
0.180368895324853
40
0.180368895324853
40
0.18662562131474
40
0.18662562131474
40
0.199139073294512
40
0.199139073294512
40
0.211652525274284
40
0.211652525274284
40
0.21790925126417
40
0.21790925126417
40
0.224165977254057
40
0.224165977254057
40
0.236679429233828
40
0.236679429233828
40
0.242936155223714
40
0.242936155223714
40
0.2491928812136
40
0.2491928812136
40
0.255449607203486
40
0.255449607203486
40
0.261706333193372
40
0.261706333193372
40
0.267963059183258
40
0.267963059183258
40
0.274219785173144
40
0.274219785173144
40
0.286733237152915
40
0.286733237152915
40
0.299246689132687
40
0.299246689132687
40
0.305503415122573
40
0.305503415122573
40
0.311760141112459
40
0.311760141112459
40
0.324273593092232
40
0.324273593092232
40
0.336787045072005
40
0.336787045072005
40
0.343043771061892
40
0.343043771061892
40
0.349300497051779
40
0.349300497051779
40
0.361813949031552
40
0.361813949031552
40
0.368070675021439
40
0.368070675021439
40
0.374327401011325
40
0.374327401011325
40
0.380584127001212
40
0.380584127001212
40
0.386840852991098
40
0.386840852991098
40
0.399354304970871
40
0.399354304970871
40
0.411867756950645
40
0.411867756950645
40
0.424381208930418
40
0.424381208930418
40
0.449408112889965
40
0.449408112889965
40
0.455664838879852
40
0.455664838879852
40
0.461921564869739
40
0.461921564869739
40
0.474435016849512
40
0.474435016849512
40
0.486948468829285
40
0.486948468829285
40
0.493205194819171
40
0.493205194819171
40
0.499461920809057
40
0.499461920809057
40
0.511975372788829
40
0.511975372788829
40
0.5244888247686
40
0.5244888247686
40
0.530745550758486
40
0.530745550758486
40
0.537002276748372
40
0.537002276748372
40
0.549515728728143
40
0.549515728728143
40
0.562029180707914
40
0.562029180707914
40
0.5682859066978
40
0.5682859066978
40
0.574542632687686
40
0.574542632687686
40
0.580799358677572
40
0.580799358677572
40
0.587056084667458
40
0.587056084667458
40
0.59956953664723
40
0.59956953664723
40
0.605826262637116
40
0.605826262637116
40
0.612082988627002
40
0.612082988627002
40
0.618339714616888
40
0.618339714616888
40
0.624596440606774
40
0.624596440606774
40
0.637109892586546
40
0.637109892586546
40
0.649623344566319
40
0.649623344566319
40
0.655880070556205
40
0.655880070556205
40
0.662136796546091
40
0.662136796546091
40
0.674650248525864
40
0.674650248525864
40
0.687163700505637
40
0.687163700505637
40
0.693420426495524
40
0.693420426495524
40
0.69967715248541
40
0.69967715248541
40
0.724704056444959
40
0.724704056444959
40
0.730960782434846
40
0.730960782434846
40
0.737217508424733
40
0.737217508424733
40
0.749730960404506
40
0.749730960404506
40
0.76224441238428
40
0.76224441238428
40
0.768501138374167
40
0.768501138374167
40
0.774757864364054
40
0.774757864364054
40
0.787271316343829
40
0.787271316343829
40
0.799784768323604
40
0.799784768323604
40
0.806041494313491
40
0.806041494313491
40
0.812298220303379
40
0.812298220303379
40
0.824811672283153
40
0.824811672283153
40
0.837325124262928
40
0.837325124262928
40
0.843581850252815
40
0.843581850252815
40
0.849838576242703
40
0.849838576242703
40
0.85609530223259
40
0.85609530223259
40
0.862352028222477
40
0.862352028222477
40
0.874865480202252
40
0.874865480202252
40
0.88112220619214
40
0.88112220619214
40
0.887378932182028
40
0.887378932182028
40
0.893635658171916
40
0.893635658171916
40
0.899892384161803
40
0.899892384161803
40
0.924919288121354
40
0.924919288121354
40
0.931176014111242
40
0.931176014111242
40
0.93743274010113
40
0.93743274010113
40
0.949946192080904
40
0.949946192080904
40
0.962459644060678
40
0.962459644060678
40
0.968716370050565
40
0.968716370050565
40
0.974973096040453
40
0.974973096040453
40
1
40
1
40
1
40
1
41
1
10
94.8464293294992
20
8.64132777752548
30
0
41
1
10
95.0626154258018
20
8.69297223072209
30
0
41
1
10
95.2788733661272
20
8.74405778684221
30
0
41
1
10
95.7562704159714
20
8.85558708955358
30
0
41
1
10
96.017350409699
20
8.91575921662991
30
0
41
1
10
96.5393415957616
20
9.03444810445004
30
0
41
1
10
96.8002537110851
20
9.09296320231499
30
0
41
1
10
97.321892698354
20
9.20836249725406
30
0
41
1
10
97.5826066196663
20
9.26526913927276
30
0
41
1
10
98.1038895582793
20
9.37736997616693
30
0
41
1
10
98.3644653222541
20
9.43255163890223
30
0
41
1
10
98.8856321724583
20
9.54093613531194
30
0
41
1
10
99.1462211837175
20
9.59414449241973
30
0
41
1
10
99.9279213021434
20
9.75097582537757
30
0
41
1
10
100.448979997384
20
9.85178284648441
30
0
41
1
10
101.490853945862
20
10.0460692941267
30
0
41
1
10
102.011666262036
20
10.1395533494401
30
0
41
1
10
102.792617716528
20
10.2743539095313
30
0
41
1
10
103.052878543985
20
10.318396259193
30
0
41
1
10
103.573519635579
20
10.4043857785813
30
0
41
1
10
103.833890705676
20
10.446347612114
30
0
41
1
10
105.135941685331
20
10.6510973122536
30
0
41
1
10
106.178187762252
20
10.7988055131593
30
0
41
1
10
107.481066318678
20
10.9639462532004
30
0
41
1
10
107.741645207278
20
10.9959939163819
30
0
41
1
10
108.262940807454
20
11.0579908980625
30
0
41
1
10
108.523671770033
20
11.0879273445519
30
0
41
1
10
109.306185969892
20
11.1745007117007
30
0
41
1
10
109.828212939014
20
11.2279775152431
30
0
41
1
10
110.611693366612
20
11.3019137767591
30
0
41
1
10
110.872859460062
20
11.3255043338125
30
0
41
1
10
111.39493641406
20
11.3705617281235
30
0
41
1
10
111.655885401244
20
11.3920321910455
30
0
41
1
10
112.177590886891
20
11.4328586126468
30
0
41
1
10
112.438338022541
20
11.4522197304376
30
0
41
1
10
112.959677028967
20
11.4887938305236
30
0
41
1
10
113.220307390554
20
11.5059846225461
30
0
41
1
10
114.002211421876
20
11.5542239239387
30
0
41
1
10
114.523437049692
20
11.5819794406471
30
0
41
1
10
115.565634960582
20
11.6288282948766
30
0
41
1
10
116.086608084184
20
11.6479199410959
30
0
41
1
10
116.867796889264
20
11.670052159816
30
0
41
1
10
117.128135118457
20
11.676346605227
30
0
41
1
10
117.648749646904
20
11.6867460490859
30
0
41
1
10
117.909033902568
20
11.6908487452009
30
0
41
1
10
118.690036698188
20
11.6998482558422
30
0
41
1
10
119.210894861057
20
11.7014513480046
30
0
41
1
10
120.252745501013
20
11.6959399836322
30
0
41
1
10
120.77376053452
20
11.6888234992126
30
0
41
1
10
121.555335052312
20
11.6715662926575
30
0
41
1
10
121.81586853789
20
11.6647158637205
30
0
41
1
10
122.336940587583
20
11.6488012360322
30
0
41
1
10
122.597463142505
20
11.6397303776668
30
0
41
1
10
123.37932816456
20
11.6092662978253
30
0
41
1
10
123.900959378294
20
11.5846350778557
30
0
41
1
10
124.68385483906
20
11.5412058600697
30
0
41
1
10
124.944894775614
20
11.5256477852298
30
0
41
1
10
125.46710692501
20
11.4923564017059
30
0
41
1
10
125.728321819949
20
11.474619932021
30
0
41
1
10
126.250487821039
20
11.4369845590444
30
0
41
1
10
126.511476207579
20
11.4170847766078
30
0
41
1
10
127.033233113705
20
11.3750930336503
30
0
41
1
10
127.294000877056
20
11.3529988747161
30
0
41
1
10
127.815444575084
20
11.3067001072281
30
0
41
1
10
128.076133320214
20
11.2825054371568
30
0
41
1
10
128.597508251028
20
11.2320900331698
30
0
41
1
10
128.858176023588
20
11.2058558102846
30
0
41
1
10
129.640081736266
20
11.1240567062172
30
0
41
1
10
130.161232088885
20
11.0654065749747
30
0
41
1
10
131.203190476904
20
10.9397841669629
30
0
41
1
10
131.723976704197
20
10.8727881868089
30
0
41
1
10
132.504882460168
20
10.7659738665827
30
0
41
1
10
132.765182437004
20
10.7293619529834
30
0
41
1
10
133.28589094824
20
10.6542622234012
30
0
41
1
10
133.546281558936
20
10.6157550914358
30
0
41
1
10
134.327529328608
20
10.4973381446897
30
0
41
1
10
134.848459099106
20
10.4145323281851
30
0
41
1
10
135.890376375019
20
10.2410203095507
30
0
41
1
10
136.411353293732
20
10.1502977679939
30
0
41
1
10
137.192825150505
20
10.0081637236505
30
0
41
1
10
137.453335618526
20
9.95980270201861
30
0
41
1
10
137.974540097477
20
9.86133229093494
30
0
41
1
10
138.235242786082
20
9.81123822048642
30
0
41
1
10
139.017568517331
20
9.65826556713859
30
0
41
1
10
139.539415046674
20
9.55270712256842
30
0
41
1
10
140.322560117948
20
9.38888480357539
30
0
41
1
10
140.583701441361
20
9.33335494377502
30
0
41
1
10
141.105957889697
20
9.22046063267848
30
0
41
1
10
141.366984572521
20
9.16311549218273
30
0
41
1
10
141.888821727948
20
9.04659960895202
30
0
41
1
10
142.149614103198
20
8.98739419655271
30
0
41
1
10
142.671159700252
20
8.86748213261893
30
0
41
1
10
142.931918737259
20
8.80678809182928
30
0
41
1
10
143.714121854012
20
8.62244809435077
30
0
41
1
10
144.235490716432
20
8.49654476250149
30
0
41
1
10
145.277871349483
20
8.23844341335143
30
0
41
1
10
145.798893584337
20
8.10626611034928
30
0
41
1
10
146.840453595376
20
7.83531642890722
30
0
41
1
10
147.360976262619
20
7.69649659087878
30
0
41
1
10
148.923223462111
20
7.27312222049602
30
0
41
1
10
149.965111702517
20
6.98063356441338
30
0
41
1
10
151.26739510846
20
6.60092051761129
30
0
41
1
10
151.527842644026
20
6.52425710014913
30
0
41
1
10
152.048747148621
20
6.36954425008767
30
0
41
1
10
152.30923420429
20
6.29156579425086
30
0
41
1
10
153.091004571067
20
6.05626660358371
30
0
41
1
10
153.612515998299
20
5.89739270860096
30
0
41
1
10
154.656030179022
20
5.5752347652784
30
0
41
1
10
155.178031966101
20
5.41194736213197
30
0
41
1
10
155.96132708655
20
5.16347753286374
30
0
41
1
10
156.222431141229
20
5.08004870791501
30
0
41
1
10
156.744334488061
20
4.91215957796112
30
0
41
1
10
157.005191690488
20
4.8277089966771
30
0
41
1
10
157.78769298953
20
4.57340379212644
30
0
41
1
10
158.309295552149
20
4.40267509271737
30
0
41
1
10
159.35212487386
20
4.0582034518803
30
0
41
1
10
159.873373458563
20
3.88451817583086
30
0
41
1
10
160.654914781296
20
3.62159209533556
30
0
41
1
10
160.915373158556
20
3.53354978709317
30
0
41
1
10
161.436166053619
20
3.35662658508238
30
0
41
1
10
161.696481661842
20
3.26769365680335
30
0
41
1
10
162.477481533865
20
3.00028674828212
30
0
41
1
10
162.998282085752
20
2.8213811935448
30
0
41
1
10
164.039975136749
20
2.46183957011903
30
0
41
1
10
164.560863998329
20
2.28119312416098
30
0
41
1
10
165.34217218579
20
2.0086595965536
30
0
41
1
10
165.602606383797
20
1.91756075511597
30
0
41
1
10
166.123443467219
20
1.73477397836697
30
0
41
1
10
166.383838624761
20
1.64306389659635
30
0
41
1
10
166.904705909809
20
1.4593573287392
30
0
41
1
10
167.165187381247
20
1.36738736309138
30
0
41
1
10
167.686342017178
20
1.18348946892832
30
0
41
1
10
167.94699597761
20
1.09150721673933
30
0
41
1
10
168.729135991214
20
0.815315122454365
30
0
41
1
10
169.250813193908
20
0.630897788360954
30
0
41
1
10
170.033631102761
20
0.353621353641017
30
0
41
1
10
170.294620308252
20
0.261085970114408
30
0
41
1
10
170.816685935606
20
0.0757558533181566
30
0
41
1
10
171.077808678028
20
-0.0170692447792931
30
0
41
1
10
171.599796376396
20
-0.20283197051458
30
0
41
1
10
171.86070543221
20
-0.295702133688735
30
0
41
1
10
172.382509686569
20
-0.480971035985107
30
0
41
1
10
172.643383979308
20
-0.573430803981552
30
0
41
1
10
173.425891542916
20
-0.850383343547151
30
0
41
1
10
173.947406777542
20
-1.03445812633134
30
0
41
1
10
174.989983629686
20
-1.40189712949845
30
0
41
1
10
175.511043328735
20
-1.58526649873258
30
0
41
1
10
176.292226978426
20
-1.85996032232606
30
0
41
1
10
176.552570033123
20
-1.95141878596172
30
0
41
1
10
177.073294713471
20
-2.13372639677425
30
0
41
1
10
177.333690865181
20
-2.22453529781501
30
0
41
1
10
178.114918154702
20
-2.49610775229883
30
0
41
1
10
178.635776742778
20
-2.67604924938948
30
0
41
1
10
179.677482652492
20
-3.03397890517951
30
0
41
1
10
180.198327387768
20
-3.21197428070096
30
0
41
1
10
180.979501865932
20
-3.47771982407693
30
0
41
1
10
181.239859502426
20
-3.56614327631075
30
0
41
1
10
181.760681627633
20
-3.74219697696006
30
0
41
1
10
182.021171593743
20
-3.82975865225347
30
0
41
1
10
183.323970828974
20
-4.26537142670713
30
0
41
1
10
184.367284243313
20
-4.60697354598844
30
0
41
1
10
185.672098791729
20
-5.02710952157332
30
0
41
1
10
185.93309620803
20
-5.11082552320633
30
0
41
1
10
186.455202236506
20
-5.27730133081661
30
0
41
1
10
186.716181102151
20
-5.35999607106919
30
0
41
1
10
187.499058412545
20
-5.60604335630424
30
0
41
1
10
188.020808324861
20
-5.76759624066878
30
0
41
1
10
189.063820410264
20
-6.08617913321805
30
0
41
1
10
189.585092969392
20
-6.24318256884419
30
0
41
1
10
190.366567204071
20
-6.47544842795426
30
0
41
1
10
190.626983425433
20
-6.55233636011243
30
0
41
1
10
191.147671206709
20
-6.70502253742742
30
0
41
1
10
191.407963164322
20
-6.78077145629916
30
0
41
1
10
192.188947327106
20
-7.00562953494884
30
0
41
1
10
192.709660272639
20
-7.15256138075432
30
0
41
1
10
193.751029703947
20
-7.44091476480398
30
0
41
1
10
194.27168385532
20
-7.5823404969174
30
0
41
1
10
195.052541641434
20
-7.7905036408811
30
0
41
1
10
195.3128009373
20
-7.85924103607036
30
0
41
1
10
195.833270656606
20
-7.99539624956245
30
0
41
1
10
196.093491651687
20
-8.06279093503474
30
0
41
1
10
196.874322022107
20
-8.26249323260586
30
0
41
1
10
197.39516159754
20
-8.39219895910094
30
0
41
1
10
198.437175700446
20
-8.64527578505846
30
0
41
1
10
198.95836714762
20
-8.76861180928654
30
0
41
1
10
199.740351507865
20
-8.94894455316131
30
0
41
1
10
200.00104566445
20
-9.00827661840498
30
0
41
1
10
200.522487240639
20
-9.12539578325928
30
0
41
1
10
200.783217278843
20
-9.18321345409228
30
0
41
1
10
201.304845764775
20
-9.29708638067876
30
0
41
1
10
201.565776618726
20
-9.35308501657875
30
0
41
1
10
202.087863516228
20
-9.46322917722813
30
0
41
1
10
202.349069927352
20
-9.51738963177854
30
0
41
1
10
203.132378757457
20
-9.677041971427
30
0
41
1
10
203.65428423009
20
-9.77974113487278
30
0
41
1
10
204.436602463536
20
-9.92834562786669
30
0
41
1
10
204.697287449938
20
-9.97696874401922
30
0
41
1
10
205.218457204632
20
-10.0724218278786
30
0
41
1
10
205.478930352681
20
-10.1192677308509
30
0
41
1
10
205.999761056597
20
-10.2110331610046
30
0
41
1
10
206.260125419853
20
-10.2559428138173
30
0
41
1
10
206.780874415131
20
-10.3436593700144
30
0
41
1
10
207.041242218793
20
-10.3864910157179
30
0
41
1
10
208.342943682414
20
-10.595684500707
30
0
41
1
10
209.383926596911
20
-10.7471328036383
30
0
41
1
10
210.684179177245
20
-10.9169832854005
30
0
41
1
10
210.94419610979
20
-10.9499580953201
30
0
41
1
10
211.464360210986
20
-11.0137236651678
30
0
41
1
10
211.724486130344
20
-11.0445376487103
30
0
41
1
10
212.504961988032
20
-11.1338231921299
30
0
41
1
10
213.025407546268
20
-11.1891445080503
30
0
41
1
10
214.06640762304
20
-11.2915175154443
30
0
41
1
10
214.58696890289
20
-11.3385635116298
30
0
41
1
10
215.367807576462
20
-11.4029202572675
30
0
41
1
10
215.628098025734
20
-11.4233269195255
30
0
41
1
10
216.148836847282
20
-11.4619600493557
30
0
41
1
10
216.409302167855
20
-11.4801779052157
30
0
41
1
10
217.712080499786
20
-11.5658208527326
30
0
41
1
10
218.75559277768
20
-11.6170598600137
30
0
41
1
10
219.8
20
-11.6509904826146
30
0
0
SPLINE
5
D2
100
AcDbEntity
8
1
62
256
6
ByLayer
370
18
48
1
60
0
100
AcDbSpline
70
4
71
3
72
220
73
216
40
0
40
0
40
0
40
0
40
0.00830322938519
40
0.00830322938519
40
0.0208458744019776
40
0.0208458744019776
40
0.0271171969103714
40
0.0271171969103714
40
0.0333885194187652
40
0.0333885194187652
40
0.0459311644355539
40
0.0459311644355539
40
0.0584738094523427
40
0.0584738094523427
40
0.0647451319607377
40
0.0647451319607377
40
0.0710164544691326
40
0.0710164544691326
40
0.0835590994859225
40
0.0835590994859225
40
0.0961017445027124
40
0.0961017445027124
40
0.102373067011108
40
0.102373067011108
40
0.108644389519503
40
0.108644389519503
40
0.133729679553085
40
0.133729679553085
40
0.14000100206148
40
0.14000100206148
40
0.146272324569875
40
0.146272324569875
40
0.158814969586665
40
0.158814969586665
40
0.171357614603456
40
0.171357614603456
40
0.177628937111851
40
0.177628937111851
40
0.183900259620246
40
0.183900259620246
40
0.190171582128641
40
0.190171582128641
40
0.196442904637036
40
0.196442904637036
40
0.208985549653826
40
0.208985549653826
40
0.21525687216222
40
0.21525687216222
40
0.221528194670615
40
0.221528194670615
40
0.234070839687404
40
0.234070839687404
40
0.246613484704193
40
0.246613484704193
40
0.252884807212587
40
0.252884807212587
40
0.259156129720982
40
0.259156129720982
40
0.271698774737771
40
0.271698774737771
40
0.284241419754561
40
0.284241419754561
40
0.296784064771351
40
0.296784064771351
40
0.303055387279746
40
0.303055387279746
40
0.30932670978814
40
0.30932670978814
40
0.32186935480493
40
0.32186935480493
40
0.33441199982172
40
0.33441199982172
40
0.346954644838509
40
0.346954644838509
40
0.359497289855299
40
0.359497289855299
40
0.372039934872088
40
0.372039934872088
40
0.384582579888878
40
0.384582579888878
40
0.397125224905668
40
0.397125224905668
40
0.403396547414062
40
0.403396547414062
40
0.409667869922457
40
0.409667869922457
40
0.422210514939246
40
0.422210514939246
40
0.428481837447641
40
0.428481837447641
40
0.434753159956035
40
0.434753159956035
40
0.44102448246443
40
0.44102448246443
40
0.447295804972825
40
0.447295804972825
40
0.459838449989615
40
0.459838449989615
40
0.472381095006404
40
0.472381095006404
40
0.478652417514799
40
0.478652417514799
40
0.484923740023194
40
0.484923740023194
40
0.497466385039984
40
0.497466385039984
40
0.510009030056774
40
0.510009030056774
40
0.516280352565169
40
0.516280352565169
40
0.522551675073564
40
0.522551675073564
40
0.535094320090354
40
0.535094320090354
40
0.541365642598749
40
0.541365642598749
40
0.547636965107144
40
0.547636965107144
40
0.553908287615538
40
0.553908287615538
40
0.560179610123933
40
0.560179610123933
40
0.572722255140723
40
0.572722255140723
40
0.585264900157512
40
0.585264900157512
40
0.591536222665907
40
0.591536222665907
40
0.597807545174302
40
0.597807545174302
40
0.610350190191092
40
0.610350190191092
40
0.622892835207882
40
0.622892835207882
40
0.629164157716278
40
0.629164157716278
40
0.635435480224673
40
0.635435480224673
40
0.647978125241462
40
0.647978125241462
40
0.660520770258252
40
0.660520770258252
40
0.666792092766647
40
0.666792092766647
40
0.673063415275042
40
0.673063415275042
40
0.679334737783437
40
0.679334737783437
40
0.685606060291831
40
0.685606060291831
40
0.698148705308621
40
0.698148705308621
40
0.71069135032541
40
0.71069135032541
40
0.716962672833805
40
0.716962672833805
40
0.7232339953422
40
0.7232339953422
40
0.73577664035899
40
0.73577664035899
40
0.742047962867385
40
0.742047962867385
40
0.74831928537578
40
0.74831928537578
40
0.754590607884174
40
0.754590607884174
40
0.760861930392569
40
0.760861930392569
40
0.773404575409359
40
0.773404575409359
40
0.779675897917753
40
0.779675897917753
40
0.785947220426148
40
0.785947220426148
40
0.792218542934542
40
0.792218542934542
40
0.798489865442937
40
0.798489865442937
40
0.811032510459726
40
0.811032510459726
40
0.823575155476516
40
0.823575155476516
40
0.829846477984911
40
0.829846477984911
40
0.836117800493306
40
0.836117800493306
40
0.861203090526887
40
0.861203090526887
40
0.867474413035282
40
0.867474413035282
40
0.873745735543677
40
0.873745735543677
40
0.886288380560467
40
0.886288380560467
40
0.892559703068862
40
0.892559703068862
40
0.898831025577257
40
0.898831025577257
40
0.905102348085651
40
0.905102348085651
40
0.911373670594046
40
0.911373670594046
40
0.936458960627625
40
0.936458960627625
40
0.942730283136019
40
0.942730283136019
40
0.949001605644414
40
0.949001605644414
40
0.961544250661202
40
0.961544250661202
40
0.97408689567799
40
0.97408689567799
40
0.986629540694778
40
0.986629540694778
40
1
40
1
40
1
40
1
41
1
10
198.391834124342
20
-8.64377192732897
30
0
41
1
10
198.037943391441
20
-8.72831573323418
30
0
41
1
10
197.684066527334
20
-8.81134155535875
30
0
41
1
10
196.795684320335
20
-9.01600922032367
30
0
41
1
10
196.261211510119
20
-9.13573449132343
30
0
41
1
10
195.459602598098
20
-9.31018711477907
30
0
41
1
10
195.192399429547
20
-9.36745095237416
30
0
41
1
10
194.657859321547
20
-9.4799795527392
30
0
41
1
10
194.390538497304
20
-9.53527273743794
30
0
41
1
10
193.588429059965
20
-9.69825658526611
30
0
41
1
10
193.053490333362
20
-9.8030490290904
30
0
41
1
10
191.983281327092
20
-10.0050107306901
30
0
41
1
10
191.448037394443
20
-10.1022183479876
30
0
41
1
10
190.644928055914
20
-10.2422638793825
30
0
41
1
10
190.37717193681
20
-10.2879658726547
30
0
41
1
10
189.841444718702
20
-10.3772582445516
30
0
41
1
10
189.57341954197
20
-10.4208570352543
30
0
41
1
10
188.769473968337
20
-10.5484589405302
30
0
41
1
10
188.233766731001
20
-10.629251048521
30
0
41
1
10
187.162906495751
20
-10.7823800011042
30
0
41
1
10
186.627754435771
20
-10.8547182451368
30
0
41
1
10
185.825488787393
20
-10.9569048362004
30
0
41
1
10
185.558147263127
20
-10.9899141620455
30
0
41
1
10
185.023453801122
20
-11.0536606556867
30
0
41
1
10
184.756114682741
20
-11.084412088422
30
0
41
1
10
183.41946396675
20
-11.2325947462162
30
0
41
1
10
182.350269738378
20
-11.3333519838214
30
0
41
1
10
181.014293891856
20
-11.4372465216653
30
0
41
1
10
180.747113494858
20
-11.4569106936372
30
0
41
1
10
180.212679116897
20
-11.4939479702674
30
0
41
1
10
179.945414914947
20
-11.5113165940234
30
0
41
1
10
179.143485955404
20
-11.5599888971651
30
0
41
1
10
178.608692821552
20
-11.5878656816167
30
0
41
1
10
177.538800536584
20
-11.6345038472747
30
0
41
1
10
177.003702279705
20
-11.6532659828904
30
0
41
1
10
176.200868619154
20
-11.6745289369009
30
0
41
1
10
175.933241305643
20
-11.6804704333036
30
0
41
1
10
175.397797527225
20
-11.6900256701451
30
0
41
1
10
175.129975966901
20
-11.6936405168421
30
0
41
1
10
174.594136438846
20
-11.6985520232942
30
0
41
1
10
174.326066155126
20
-11.6998484961975
30
0
41
1
10
173.790108050874
20
-11.7001264600296
30
0
41
1
10
173.522197976993
20
-11.6991086981803
30
0
41
1
10
172.718686886039
20
-11.6925928914006
30
0
41
1
10
172.183309743252
20
-11.6836357234994
30
0
41
1
10
171.380757602938
20
-11.663243841865
30
0
41
1
10
171.11332151997
20
-11.6552859609774
30
0
41
1
10
170.578516839627
20
-11.6370706491813
30
0
41
1
10
170.311136954561
20
-11.6268170571078
30
0
41
1
10
169.509017937389
20
-11.5926513722134
30
0
41
1
10
168.974329577869
20
-11.5653283809466
30
0
41
1
10
167.905108639521
20
-11.5016158465801
30
0
41
1
10
167.370576516535
20
-11.4652264590124
30
0
41
1
10
166.568939845457
20
-11.4037867207087
30
0
41
1
10
166.301766241354
20
-11.3821551766446
30
0
41
1
10
165.767406013433
20
-11.3366388402091
30
0
41
1
10
165.500189039291
20
-11.3127756064233
30
0
41
1
10
164.698410197028
20
-11.2378984290668
30
0
41
1
10
164.163728125595
20
-11.1835946925846
30
0
41
1
10
163.09408062553
20
-11.0662099456573
30
0
41
1
10
162.559119411664
20
-11.0031266055806
30
0
41
1
10
161.489021501932
20
-10.8680147131928
30
0
41
1
10
160.953898253937
20
-10.7959534176352
30
0
41
1
10
160.150560589304
20
-10.6816811073171
30
0
41
1
10
159.882687125413
20
-10.6425471685187
30
0
41
1
10
159.346760692951
20
-10.5621858450374
30
0
41
1
10
159.07867391747
20
-10.520953720719
30
0
41
1
10
158.274788232731
20
-10.3942104383337
30
0
41
1
10
157.739173153403
20
-10.3056276832956
30
0
41
1
10
156.668617548283
20
-10.1202020832447
30
0
41
1
10
156.133748756563
20
-10.0232428815138
30
0
41
1
10
155.064047606082
20
-9.82198692807069
30
0
41
1
10
154.529267343272
20
-9.71762612013518
30
0
41
1
10
153.459883315302
20
-9.50143066624247
30
0
41
1
10
152.925280924414
20
-9.38959499801368
30
0
41
1
10
151.85636163635
20
-9.15824225833748
30
0
41
1
10
151.322093392659
20
-9.03862583396486
30
0
41
1
10
150.253210422215
20
-8.79280784769435
30
0
41
1
10
149.718620899323
20
-8.66657404862852
30
0
41
1
10
148.649205967506
20
-8.40737497364603
30
0
41
1
10
148.114377313622
20
-8.27441597384336
30
0
41
1
10
147.311993655502
20
-8.06982926243225
30
0
41
1
10
147.04451094041
20
-8.00077094377838
30
0
41
1
10
146.509497461567
20
-7.86092859476878
30
0
41
1
10
146.241954490435
20
-7.79016912008456
30
0
41
1
10
145.439008338197
20
-7.57582513699464
30
0
41
1
10
144.903352020359
20
-7.43004344832204
30
0
41
1
10
144.099355688219
20
-7.20699898091093
30
0
41
1
10
143.831275888542
20
-7.13192301194297
30
0
41
1
10
143.295397583499
20
-6.98040829649835
30
0
41
1
10
143.027544363291
20
-6.90395379839097
30
0
41
1
10
142.492023164092
20
-6.74961780636295
30
0
41
1
10
142.22436086317
20
-6.67172270620287
30
0
41
1
10
141.689194732073
20
-6.51456538095317
30
0
41
1
10
141.421686622939
20
-6.43531299262887
30
0
41
1
10
140.619223409678
20
-6.19593072701161
30
0
41
1
10
140.084327452893
20
-6.03418425645819
30
0
41
1
10
139.014765348695
20
-5.70623392888376
30
0
41
1
10
138.480093803765
20
-5.54004320567779
30
0
41
1
10
137.678292064788
20
-5.28732662286785
30
0
41
1
10
137.41105920611
20
-5.20251538689635
30
0
41
1
10
136.876670066428
20
-5.03172413675912
30
0
41
1
10
136.60951932085
20
-4.94572908658267
30
0
41
1
10
135.807937813131
20
-4.68661674664381
30
0
41
1
10
135.273423190875
20
-4.51225937030139
30
0
41
1
10
134.204171904284
20
-4.16025402946903
30
0
41
1
10
133.669432446955
20
-3.98261414005901
30
0
41
1
10
132.867228551945
20
-3.71348487270279
30
0
41
1
10
132.599814541869
20
-3.62332139131672
30
0
41
1
10
132.064950760973
20
-3.44210948371119
30
0
41
1
10
131.797495587593
20
-3.35107536516682
30
0
41
1
10
130.994907584357
20
-3.07710568337762
30
0
41
1
10
130.459504688239
20
-2.89343760895312
30
0
41
1
10
129.65592209813
20
-2.61630910984192
30
0
41
1
10
129.387981363182
20
-2.52366202919794
30
0
41
1
10
128.851945943372
20
-2.33780822294582
30
0
41
1
10
128.583911721198
20
-2.24462221915636
30
0
41
1
10
128.04811474523
20
-2.05781511359712
30
0
41
1
10
127.780308001153
20
-1.96417874568627
30
0
41
1
10
127.24488588822
20
-1.77641799932911
30
0
41
1
10
126.977285724026
20
-1.6822502548529
30
0
41
1
10
126.17458976907
20
-1.39953614245067
30
0
41
1
10
125.639566791127
20
-1.2108691738282
30
0
41
1
10
124.56976083357
20
-0.833080811314346
30
0
41
1
10
124.034974511399
20
-0.643968906675383
30
0
41
1
10
123.233040758205
20
-0.359772931435003
30
0
41
1
10
122.965771699318
20
-0.264949422330432
30
0
41
1
10
122.431325695011
20
-0.0750976142965953
30
0
41
1
10
122.16414617513
20
0.0199233314845628
30
0
41
1
10
121.362596065354
20
0.304867323311413
30
0
41
1
10
120.828140742435
20
0.494463602415834
30
0
41
1
10
119.759029640615
20
0.87285884805641
30
0
41
1
10
119.224384801991
20
1.06168892401286
30
0
41
1
10
118.422321887361
20
1.34449107224069
30
0
41
1
10
118.154951780236
20
1.43868500814383
30
0
41
1
10
117.620187252777
20
1.62694640790954
30
0
41
1
10
117.352803587026
20
1.72104433027064
30
0
41
1
10
116.550526094936
20
2.00289282549821
30
0
41
1
10
116.015365366976
20
2.18980052031583
30
0
41
1
10
114.944412183332
20
2.56159609645545
30
0
41
1
10
114.408623146762
20
2.74649371086466
30
0
41
1
10
113.604532464779
20
3.02251326934149
30
0
41
1
10
113.336570322748
20
3.11425553733147
30
0
41
1
10
112.800883420019
20
3.29720881241096
30
0
41
1
10
112.533148475778
20
3.38843682973658
30
0
41
1
10
111.997811146236
20
3.57015939866147
30
0
41
1
10
111.730201580208
20
3.66063419133661
30
0
41
1
10
111.195025300003
20
3.84060981108647
30
0
41
1
10
110.927469326758
20
3.93014038717496
30
0
41
1
10
110.12491114356
20
4.19740353846723
30
0
41
1
10
109.590014652432
20
4.37379800132032
30
0
41
1
10
108.52055462838
20
4.72316223333968
30
0
41
1
10
107.986005311882
20
4.89616855296342
30
0
41
1
10
107.184432965373
20
5.15309173253215
30
0
41
1
10
106.91724917937
20
5.23821155948536
30
0
41
1
10
106.38281645938
20
5.40721144785203
30
0
41
1
10
106.115578841442
20
5.4911206032439
30
0
41
1
10
105.313807801172
20
5.7410955778808
30
0
41
1
10
104.779212408109
20
5.90540111675267
30
0
41
1
10
103.977253505076
20
6.14848230545638
30
0
41
1
10
103.709924189121
20
6.22894927798811
30
0
41
1
10
103.175258250695
20
6.38878772929715
30
0
41
1
10
102.907928481132
20
6.46817526700107
30
0
41
1
10
102.37321171803
20
6.62572984559387
30
0
41
1
10
102.105820859657
20
6.7038874948889
30
0
41
1
10
101.570869056011
20
6.85871781369255
30
0
41
1
10
101.30331571435
20
6.93540890838977
30
0
41
1
10
100.50044448355
20
7.1633633221839
30
0
41
1
10
99.9649100101775
20
7.31249654878951
30
0
41
1
10
99.1612116186554
20
7.53201255986539
30
0
41
1
10
98.893220863946
20
7.60449412464868
30
0
41
1
10
98.3572232782933
20
7.7480432820619
30
0
41
1
10
98.0893289925424
20
7.8190847591512
30
0
41
1
10
97.553747206998
20
7.95969075767312
30
0
41
1
10
97.2860493156024
20
8.02923164183247
30
0
41
1
10
96.7506959219407
20
8.16649267901497
30
0
41
1
10
96.4830565321205
20
8.23424784513088
30
0
41
1
10
95.6802543662349
20
8.43491094888671
30
0
41
1
10
95.1452043748209
20
8.56521274570139
30
0
41
1
10
94.0754706790521
20
8.81902333724716
30
0
41
1
10
93.5408110170131
20
8.94257648636426
30
0
41
1
10
92.7391164602066
20
9.12281305606851
30
0
41
1
10
92.4719221055111
20
9.18202012911789
30
0
41
1
10
91.9374988948775
20
9.29850055933716
30
0
41
1
10
91.670266247173
20
9.35576847101419
30
0
41
1
10
90.3340384915631
20
9.63733760397139
30
0
41
1
10
89.2648252191098
20
9.84733235568893
30
0
41
1
10
87.928282246945
20
10.091050048186
30
0
41
1
10
87.6609805492712
20
10.1388621130263
30
0
41
1
10
87.1262162978986
20
10.2323709883041
30
0
41
1
10
86.8587637887146
20
10.2780836169028
30
0
41
1
10
86.0561998479454
20
10.4121121890384
30
0
41
1
10
85.5208798927265
20
10.4973185767335
30
0
41
1
10
84.7175249957643
20
10.6189631191299
30
0
41
1
10
84.4496786508476
20
10.6584846225263
30
0
41
1
10
83.9138765359644
20
10.7354826184465
30
0
41
1
10
83.6458738234589
20
10.7729684438782
30
0
41
1
10
83.1100030600662
20
10.8458446034227
30
0
41
1
10
82.8421719802042
20
10.8812227537341
30
0
41
1
10
82.3066180471861
20
10.9497537101045
30
0
41
1
10
82.0388842350768
20
10.982896230466
30
0
41
1
10
80.7004211503152
20
11.1430200706396
30
0
41
1
10
79.6303478663827
20
11.2533326655295
30
0
41
1
10
78.2938807159698
20
11.3692247025506
30
0
41
1
10
78.026659465247
20
11.391308908788
30
0
41
1
10
77.4922151625985
20
11.4331885502457
30
0
41
1
10
77.2249809471091
20
11.4529786799969
30
0
41
1
10
76.4232456726263
20
11.5089195260197
30
0
41
1
10
75.8887104456415
20
11.5416427999267
30
0
41
1
10
74.819596869664
20
11.598005024937
30
0
41
1
10
74.2850246595217
20
11.6216477091351
30
0
41
1
10
73.2159450670632
20
11.6598253130563
30
0
41
1
10
72.6814117549317
20
11.6743353355389
30
0
41
1
10
71.5763906883886
20
11.6947121679742
30
0
41
1
10
71.0059392929628
20
11.6999893212615
30
0
41
1
10
70.4352267101353
20
11.7000115634351
30
0
0
SPLINE
5
D3
100
AcDbEntity
8
1
62
256
6
ByLayer
370
18
48
1
60
0
100
AcDbSpline
70
4
71
3
72
14
73
10
40
0
40
0
40
0
40
0
40
0.25
40
0.25
40
0.5
40
0.5
40
0.75
40
0.75
40
1
40
1
40
1
40
1
41
1
10
14.4234364234702
20
1.49325161307743
30
0
41
1
10
14.0428648503982
20
1.63181990107657
30
0
41
1
10
13.665849714078
20
1.77772601884109
30
0
41
1
10
12.9175203064197
20
2.08076794335784
30
0
41
1
10
12.5461975058741
20
2.23788773435879
30
0
41
1
10
11.8088050371856
20
2.5620719928896
30
0
41
1
10
11.4427366760443
20
2.72914319434125
30
0
41
1
10
10.7165174986766
20
3.07432669429846
30
0
41
1
10
10.3563743372744
20
3.25245986897781
30
0
41
1
10
10
20
3.43761991294812
30
0
0
SPLINE
5
D4
100
AcDbEntity
8
1
62
256
6
ByLayer
370
18
48
1
60
0
100
AcDbSpline
70
4
71
4
72
13
73
8
40
0
40
0
40
0
40
0
40
0
40
0.44578493307392
40
0.44578493307392
40
0.44578493307392
40
1
40
1
40
1
40
1
40
1
41
0.996950676799056
10
19.6514512414478
20
11.6144717321653
30
0
41
0.994750587143043
10
19.4993289865858
20
10.2994805571949
30
0
41
0.993975420439906
10
19.2203498053835
20
8.79367607280846
30
0
41
1
10
18.8258626024721
20
7.28077052023224
30
0
41
1
10
17.8829455913216
20
4.32589404895089
30
0
41
0.990688221666159
10
17.2194306671809
20
2.67565644501934
30
0
41
0.996707653311301
10
16.5340592978827
20
1.52941814380299
30
0
41
0.999223954413434
10
15.9618734483303
20
0.929182123113617
30
0
0
SPLINE
5
D5
100
AcDbEntity
8
1
62
256
6
ByLayer
370
18
48
1
60
0
100
AcDbSpline
70
4
71
3
72
27
73
23
40
0
40
0
40
0
40
0
40
0.125000000000019
40
0.125000000000019
40
0.250000000000038
40
0.250000000000038
40
0.375000000000057
40
0.375000000000057
40
0.40625000000006
40
0.40625000000006
40
0.421875000000062
40
0.421875000000062
40
0.437500000000064
40
0.500000000000059
40
0.500000000000059
40
0.625000000000044
40
0.625000000000044
40
0.750000000000029
40
0.750000000000029
40
0.875000000000015
40
0.875000000000015
40
1
40
1
40
1
40
1
41
1
10
10
20
11.6713690436438
30
0
41
1
10
10.3951403705441
20
11.6805262330309
30
0
41
1
10
10.7936924248025
20
11.6859366722197
30
0
41
1
10
11.5970898189462
20
11.6932025294503
30
0
41
1
10
12.0019395957121
20
11.6950399601859
30
0
41
1
10
12.8176451533146
20
11.6972904068081
30
0
41
1
10
13.2285042515584
20
11.697695774622
30
0
41
1
10
13.7457265786659
20
11.6977789010948
30
0
41
1
10
13.8493536262312
20
11.6977711905311
30
0
41
1
10
14.00506634295
20
11.6977227824028
30
0
41
1
10
14.0570331685157
20
11.6977004501634
30
0
41
1
10
14.1607708176829
20
11.6976431243803
30
0
41
1
10
14.4197947633712
20
11.6974675339374
30
0
41
1
10
14.6772436355874
20
11.6971293529236
30
0
41
1
10
15.2922803935968
20
11.6958870252036
30
0
41
1
10
15.6985172164136
20
11.6945031118194
30
0
41
1
10
16.5043529763414
20
11.6894033005171
30
0
41
1
10
16.9039493092364
20
11.6856742007666
30
0
41
1
10
17.6974747580818
20
11.6741987217148
30
0
41
1
10
18.0914050262176
20
11.6664407763523
30
0
41
1
10
18.8746396869343
20
11.6451643170059
30
0
41
1
10
19.2639500664654
20
11.6316408717283
30
0
41
1
10
19.6514512414486
20
11.6144717321734
30
0
0
SPLINE
5
D6
100
AcDbEntity
8
1
62
256
6
ByLayer
370
18
48
1
60
0
100
AcDbSpline
70
4
71
3
72
103
73
99
40
0
40
0
40
0
40
0
40
0.0625000000000013
40
0.0625000000000013
40
0.0937500000000027
40
0.0937500000000027
40
0.125000000000004
40
0.125000000000004
40
0.156250000000005
40
0.156250000000005
40
0.171875000000006
40
0.171875000000006
40
0.187500000000007
40
0.187500000000007
40
0.218750000000008
40
0.218750000000008
40
0.25000000000001
40
0.25000000000001
40
0.281250000000011
40
0.281250000000011
40
0.289062500000011
40
0.289062500000011
40
0.296875000000012
40
0.312500000000012
40
0.312500000000012
40
0.343750000000011
40
0.343750000000011
40
0.359375000000011
40
0.359375000000011
40
0.367187500000011
40
0.371093750000011
40
0.371093750000011
40
0.375000000000011
40
0.375000000000011
40
0.406250000000012
40
0.406250000000012
40
0.437500000000012
40
0.437500000000012
40
0.445312500000012
40
0.445312500000012
40
0.453125000000012
40
0.453125000000012
40
0.468750000000012
40
0.468750000000012
40
0.500000000000013
40
0.500000000000013
40
0.515625000000013
40
0.515625000000013
40
0.519531250000013
40
0.519531250000013
40
0.523437500000013
40
0.531250000000013
40
0.531250000000013
40
0.562500000000013
40
0.562500000000013
40
0.578125000000013
40
0.578125000000013
40
0.582031250000013
40
0.582031250000013
40
0.585937500000014
40
0.585937500000014
40
0.593750000000013
40
0.593750000000013
40
0.625000000000009
40
0.625000000000009
40
0.640625000000007
40
0.640625000000007
40
0.648437500000007
40
0.648437500000007
40
0.656250000000006
40
0.656250000000006
40
0.687500000000004
40
0.687500000000004
40
0.718750000000002
40
0.718750000000002
40
0.75
40
0.75
40
0.7578125
40
0.7578125
40
0.765625
40
0.765625
40
0.78125
40
0.78125
40
0.812499999999999
40
0.812499999999999
40
0.843749999999999
40
0.843749999999999
40
0.874999999999998
40
0.874999999999998
40
0.906249999999998
40
0.906249999999998
40
0.937499999999997
40
0.937499999999997
40
0.953124999999997
40
0.953124999999997
40
0.968749999999998
40
0.968749999999998
40
1
40
1
40
1
40
1
41
1
10
10
20
11.6713690436438
30
0
41
1
10
9.5661321666079
20
11.8467502250713
30
0
41
1
10
9.14190357541776
20
12.0134392741707
30
0
41
1
10
8.51963452393645
20
12.2465588549284
30
0
41
1
10
8.3145613998296
20
12.3214332945095
30
0
41
1
10
7.90910989445229
20
12.4646672609508
30
0
41
1
10
7.70873110834251
20
12.5330288819141
30
0
41
1
10
7.31271302009631
20
12.6621931555326
30
0
41
1
10
7.11707303773868
20
12.722999160643
30
0
41
1
10
6.82725075852514
20
12.8075493829374
30
0
41
1
10
6.73125019162507
20
12.8346205391749
30
0
41
1
10
6.54048506164776
20
12.8863366838336
30
0
41
1
10
6.44626274049062
20
12.9108340128309
30
0
41
1
10
6.16715132707522
20
12.980008392941
30
0
41
1
10
5.98578668996851
20
13.0203862767187
30
0
41
1
10
5.63271806254174
20
13.0882479563162
30
0
41
1
10
5.46101140178607
20
13.1157378253377
30
0
41
1
10
5.12773454534174
20
13.1559675821217
30
0
41
1
10
4.9661594505327
20
13.1687181925827
30
0
41
1
10
4.77103947235133
20
13.1738483108981
30
0
41
1
10
4.73233234546994
20
13.1743302639863
30
0
41
1
10
4.65601477420927
20
13.174165533167
30
0
41
1
10
4.54304473320543
20
13.1722309431356
30
0
41
1
10
4.43462144191243
20
13.1651228265594
30
0
41
1
10
4.22395931293673
20
13.1436554329375
30
0
41
1
10
4.0917398393387
20
13.119706325659
30
0
41
1
10
3.90660342626433
20
13.067451942401
30
0
41
1
10
3.84709556601743
20
13.0473051098647
30
0
41
1
10
3.7613093072366
20
13.0126774741185
30
0
41
1
10
3.71928580366921
20
12.9942608306203
30
0
41
1
10
3.67860604944798
20
12.9741209114861
30
0
41
1
10
3.65178979564379
20
12.9603028695904
30
0
41
1
10
3.63852176423293
20
12.9531914424972
30
0
41
1
10
3.52084550602024
20
12.887585149252
30
0
41
1
10
3.42833901217658
20
12.8178352829861
30
0
41
1
10
3.26834602531014
20
12.6538675095744
30
0
41
1
10
3.20084508422619
20
12.5596645794121
30
0
41
1
10
3.13343642356554
20
12.4249259647403
30
0
41
1
10
3.12080700176824
20
12.3971255118784
30
0
41
1
10
3.09730380265009
20
12.3397608895904
30
0
41
1
10
3.08650232571205
20
12.3103699094156
30
0
41
1
10
3.0569732647308
20
12.2202057812454
30
0
41
1
10
3.04109581849887
20
12.1573889496922
30
0
41
1
10
3.00479151918616
20
11.9608447916541
30
0
41
1
10
2.99564479953753
20
11.8190498311293
30
0
41
1
10
3.00497749436892
20
11.58986162845
30
0
41
1
10
3.01194231232842
20
11.5107098902824
30
0
41
1
10
3.0256087533665
20
11.4082380539272
30
0
41
1
10
3.02859443517006
20
11.387541744369
30
0
41
1
10
3.03504167946923
20
11.3459510345686
30
0
41
1
10
3.04542558148789
20
11.2832592060676
30
0
41
1
10
3.05792327212532
20
11.2196630568143
30
0
41
1
10
3.10418365678981
20
11.0057182232032
30
0
41
1
10
3.15586114026262
20
10.8283163279989
30
0
41
1
10
3.25426409729411
20
10.553596816488
30
0
41
1
10
3.29055726251845
20
10.460583832991
30
0
41
1
10
3.34024518284812
20
10.3425724901954
30
0
41
1
10
3.3503990057969
20
10.3188829134168
30
0
41
1
10
3.37113868115848
20
10.2713303064522
30
0
41
1
10
3.38172891162291
20
10.2474583261375
30
0
41
1
10
3.4140272578253
20
10.1758455453326
30
0
41
1
10
3.43629865521106
20
10.1280243106143
30
0
41
1
10
3.55123715475735
20
9.88854928560309
30
0
41
1
10
3.6546072487758
20
9.69579472544595
30
0
41
1
10
3.82516213249818
20
9.40536265882272
30
0
41
1
10
3.88460536620292
20
9.30833411261139
30
0
41
1
10
3.97751365015341
20
9.16251340073723
30
0
41
1
10
4.00910731901355
20
9.1138601283281
30
0
41
1
10
4.07352270780397
20
9.01646839854206
30
0
41
1
10
4.10636281160561
20
8.96770579355552
30
0
41
1
10
4.27260928295905
20
8.7250983755097
30
0
41
1
10
4.41285394719209
20
8.5337447012935
30
0
41
1
10
4.70593112959874
20
8.15597098307873
30
0
41
1
10
4.85877357130691
20
7.96955424958765
30
0
41
1
10
5.17563908995599
20
7.60124689781574
30
0
41
1
10
5.33966763227298
20
7.41935816166375
30
0
41
1
10
5.55096554274843
20
7.19459497152849
30
0
41
1
10
5.59353865560558
20
7.14977224880874
30
0
41
1
10
5.67929509431025
20
7.06038083966712
30
0
41
1
10
5.72250211815575
20
7.01578861705684
30
0
41
1
10
5.85255810280159
20
6.88284602342549
30
0
41
1
10
5.93997781972284
20
6.79518524487449
30
0
41
1
10
6.20421286345011
20
6.53487090480016
30
0
41
1
10
6.38300031987848
20
6.36487974563471
30
0
41
1
10
6.74503351781887
20
6.03091179137598
30
0
41
1
10
6.92828003618055
20
5.86693625001448
30
0
41
1
10
7.29854328885338
20
5.54408035004289
30
0
41
1
10
7.48555979802458
20
5.38519991094611
30
0
41
1
10
7.86277902435891
20
5.07176322453
30
0
41
1
10
8.05298084560901
20
4.91720602792205
30
0
41
1
10
8.43610881846983
20
4.61181021240145
30
0
41
1
10
8.62903372274123
20
4.46097020058892
30
0
41
1
10
8.92023459544507
20
4.23719655976038
30
0
41
1
10
9.01760514634469
20
4.16302146311281
30
0
41
1
10
9.21293316318247
20
4.01547588300753
30
0
41
1
10
9.31090118725558
20
3.942097979388
30
0
41
1
10
9.60526039002241
20
3.72345964067193
30
0
41
1
10
9.80223685065087
20
3.57958083694388
30
0
41
1
10
10
20
3.43761991294815
30
0
0
SPLINE
5
D7
100
AcDbEntity
8
SK1
62
256
6
ByLayer
370
18
48
1
60
0
100
AcDbSpline
70
4
71
3
72
37
73
33
40
0
40
0
40
0
40
0
40
0.124999999999999
40
0.124999999999999
40
0.249999999999997
40
0.249999999999997
40
0.374999999999996
40
0.374999999999996
40
0.437499999999996
40
0.437499999999996
40
0.499999999999995
40
0.499999999999995
40
0.624999999999995
40
0.624999999999995
40
0.656249999999996
40
0.656249999999996
40
0.687499999999996
40
0.687499999999996
40
0.749999999999997
40
0.749999999999997
40
0.812499999999999
40
0.812499999999999
40
0.843749999999999
40
0.843749999999999
40
0.874999999999999
40
0.874999999999999
40
0.9375
40
0.9375
40
0.953125
40
0.953125
40
0.96875
40
1
40
1
40
1
40
1
41
1
10
-56.6013095599541
20
-3.67404242557649
30
0
41
1
10
-56.5818983671532
20
-3.76227101295461
30
0
41
1
10
-56.5608730792548
20
-3.84980231602845
30
0
41
1
10
-56.5149011456991
20
-4.02327304907473
30
0
41
1
10
-56.4899592553202
20
-4.1092138747162
30
0
41
1
10
-56.4351919062966
20
-4.27922783366643
30
0
41
1
10
-56.4053764863432
20
-4.36330392303796
30
0
41
1
10
-56.3559085219568
20
-4.48770487574166
30
0
41
1
10
-56.3386238532612
20
-4.52888499906533
30
0
41
1
10
-56.3022004610974
20
-4.6105950760475
30
0
41
1
10
-56.2830277903437
20
-4.65119311461675
30
0
41
1
10
-56.2224911706718
20
-4.77130399167868
30
0
41
1
10
-56.1782467144578
20
-4.84907413383172
30
0
41
1
10
-56.115968443464
20
-4.94231131697211
30
0
41
1
10
-56.10315836213
20
-4.96075692759766
30
0
41
1
10
-56.0767470461803
20
-4.99720157474036
30
0
41
1
10
-56.0631669720757
20
-5.01516889117784
30
0
41
1
10
-56.0213776959376
20
-5.06798704911631
30
0
41
1
10
-55.992061754375
20
-5.10185542724588
30
0
41
1
10
-55.9298321318184
20
-5.16631273888052
30
0
41
1
10
-55.8969272538349
20
-5.19690945406094
30
0
41
1
10
-55.8440712942131
20
-5.23964848292457
30
0
41
1
10
-55.8258658181591
20
-5.25336554431573
30
0
41
1
10
-55.7880772055068
20
-5.27956269503571
30
0
41
1
10
-55.7687283546429
20
-5.29187752331967
30
0
41
1
10
-55.7092375195426
20
-5.32619065397267
30
0
41
1
10
-55.6676447686972
20
-5.34560920419477
30
0
41
1
10
-55.6125612417126
20
-5.36437634382568
30
0
41
1
10
-55.6013755519815
20
-5.36785346658095
30
0
41
1
10
-55.5789098857052
20
-5.37414928699397
30
0
41
1
10
-55.5449888078968
20
-5.38263478003245
30
0
41
1
10
-55.5103812675636
20
-5.38816693911767
30
0
41
1
10
-55.4869828320874
20
-5.39045045482675
30
0
0
SPLINE
5
D8
100
AcDbEntity
8
SK1
62
256
6
ByLayer
370
18
48
1
60
0
100
AcDbSpline
70
4
71
3
72
38
73
34
40
0
40
0
40
0
40
0
40
0.0624999999999988
40
0.0624999999999988
40
0.0937499999999982
40
0.0937499999999982
40
0.109374999999998
40
0.109374999999998
40
0.124999999999999
40
0.124999999999999
40
0.187499999999997
40
0.187499999999997
40
0.218749999999997
40
0.218749999999997
40
0.249999999999996
40
0.249999999999996
40
0.312499999999996
40
0.312499999999996
40
0.374999999999996
40
0.374999999999996
40
0.437499999999996
40
0.437499999999996
40
0.468749999999996
40
0.468749999999996
40
0.499999999999996
40
0.499999999999996
40
0.624999999999997
40
0.624999999999997
40
0.749999999999998
40
0.749999999999998
40
0.874999999999999
40
0.874999999999999
40
1
40
1
40
1
40
1
41
1
10
-55.4869828320874
20
5.39045045482675
30
0
41
1
10
-55.5340112854939
20
5.38586082265942
30
0
41
1
10
-55.5792475407432
20
5.37567921640115
30
0
41
1
10
-55.6448597758275
20
5.35339526064908
30
0
41
1
10
-55.6663543340588
20
5.34479075805541
30
0
41
1
10
-55.6980700363939
20
5.33023526841174
30
0
41
1
10
-55.7085426555182
20
5.32511155488996
30
0
41
1
10
-55.7290868425515
20
5.31446061507978
30
0
41
1
10
-55.7391894091154
20
5.30891956332113
30
0
41
1
10
-55.7889172059676
20
5.28021446580462
30
0
41
1
10
-55.8262117488448
20
5.25408170222258
30
0
41
1
10
-55.87927436858
20
5.21118741343659
30
0
41
1
10
-55.8964771995976
20
5.19626735233749
30
0
41
1
10
-55.9300114215657
20
5.16530406746776
30
0
41
1
10
-55.9462917892921
20
5.14930296213541
30
0
41
1
10
-55.9934356942821
20
5.10035000843709
30
0
41
1
10
-56.0228020768564
20
5.06628595710666
30
0
41
1
10
-56.078326436026
20
4.99590453061043
30
0
41
1
10
-56.1044778219573
20
4.95958275029739
30
0
41
1
10
-56.1541566098393
20
4.88506830814691
30
0
41
1
10
-56.1776808746374
20
4.84687355258669
30
0
41
1
10
-56.2113079014024
20
4.78837896752557
30
0
41
1
10
-56.2222393682362
20
4.76867706562567
30
0
41
1
10
-56.2434756231488
20
4.72911675343036
30
0
41
1
10
-56.2537968848612
20
4.7092302403565
30
0
41
1
10
-56.3040524668077
20
4.60930752204828
30
0
41
1
10
-56.3399893600631
20
4.52781806830399
30
0
41
1
10
-56.4056776145828
20
4.36246555081721
30
0
41
1
10
-56.4354058590262
20
4.27859519764016
30
0
41
1
10
-56.4900491389977
20
4.10890313734902
30
0
41
1
10
-56.5149546873468
20
4.02307844746088
30
0
41
1
10
-56.56088189532
20
3.84976160662609
30
0
41
1
10
-56.5818990222464
20
3.76226803539686
30
0
41
1
10
-56.6013095599541
20
3.67404242557649
30
0
0
SPLINE
5
D9
100
AcDbEntity
8
SK1
62
256
6
ByLayer
370
18
48
1
60
0
100
AcDbSpline
70
4
71
3
72
33
73
29
40
0
40
0
40
0
40
0
40
0.125000000000006
40
0.125000000000006
40
0.250000000000012
40
0.250000000000012
40
0.375000000000017
40
0.375000000000017
40
0.40625000000002
40
0.40625000000002
40
0.437500000000023
40
0.437500000000023
40
0.500000000000019
40
0.500000000000019
40
0.625000000000009
40
0.625000000000009
40
0.656250000000005
40
0.656250000000005
40
0.687500000000001
40
0.687500000000001
40
0.749999999999993
40
0.812499999999985
40
0.812499999999985
40
0.843749999999988
40
0.843749999999988
40
0.87499999999999
40
0.87499999999999
40
1
40
1
40
1
40
1
41
1
10
-14.051872681288
20
7.58734230610622
30
0
41
1
10
-14.0806477010082
20
7.63716049470688
30
0
41
1
10
-14.1111960666033
20
7.68574713585582
30
0
41
1
10
-14.1763795738798
20
7.78016829172287
30
0
41
1
10
-14.2110110664831
20
7.82600493913273
30
0
41
1
10
-14.2851110385999
20
7.91451556477941
30
0
41
1
10
-14.3245721279275
20
7.95719387593883
30
0
41
1
10
-14.3776213268518
20
8.00817431396229
30
0
41
1
10
-14.3884185818754
20
8.01825128676794
30
0
41
1
10
-14.4104115542246
20
8.03815365023897
30
0
41
1
10
-14.4216108037395
20
8.04798083475526
30
0
41
1
10
-14.455622663142
20
8.07687937861485
30
0
41
1
10
-14.4789160665747
20
8.09543103467254
30
0
41
1
10
-14.5508106006942
20
8.14878338695524
30
0
41
1
10
-14.6014062936362
20
8.18130323174049
30
0
41
1
10
-14.6687381239779
20
8.21735588111801
30
0
41
1
10
-14.6824104044294
20
8.22433484183665
30
0
41
1
10
-14.710192970406
20
8.23780190427706
30
0
41
1
10
-14.7242927464647
20
8.24428275713819
30
0
41
1
10
-14.7668701147152
20
8.26277278740699
30
0
41
1
10
-14.8246359059293
20
8.28501525135295
30
0
41
1
10
-14.8845078995177
20
8.30218349007504
30
0
41
1
10
-14.9302595196826
20
8.31302504752674
30
0
41
1
10
-14.9456514993249
20
8.31629937780269
30
0
41
1
10
-14.976730334019
20
8.3221411784192
30
0
41
1
10
-14.9924519952567
20
8.32471328587587
30
0
41
1
10
-15.0714171524834
20
8.33566995587665
30
0
41
1
10
-15.1349687406039
20
8.33829643503807
30
0
41
1
10
-15.198909252112
20
8.33463752287949
30
0
0
SPLINE
5
DA
100
AcDbEntity
8
SK1
62
256
6
ByLayer
370
18
48
1
60
0
100
AcDbSpline
70
4
71
3
72
28
73
24
40
0
40
0
40
0
40
0
40
0.124999999999995
40
0.124999999999995
40
0.187499999999992
40
0.187499999999992
40
0.24999999999999
40
0.24999999999999
40
0.374999999999983
40
0.374999999999983
40
0.437499999999979
40
0.437499999999979
40
0.499999999999976
40
0.499999999999976
40
0.624999999999981
40
0.624999999999981
40
0.687499999999984
40
0.687499999999984
40
0.749999999999987
40
0.749999999999987
40
0.874999999999994
40
0.874999999999994
40
1
40
1
40
1
40
1
41
1
10
-15.198909252112
20
-8.33463752287949
30
0
41
1
10
-15.1350143484387
20
-8.33829382518937
30
0
41
1
10
-15.0719017967204
20
-8.33565332559238
30
0
41
1
10
-14.978337274282
20
-8.32279548271791
30
0
41
1
10
-14.9473338896935
20
-8.31702027865589
30
0
41
1
10
-14.8856931933269
20
-8.30251274872501
30
0
41
1
10
-14.8554833479755
20
-8.29387762923409
30
0
41
1
10
-14.7669559756536
20
-8.26429996307647
30
0
41
1
10
-14.7105270717761
20
-8.23965842490713
30
0
41
1
10
-14.6292411643099
20
-8.19624288886422
30
0
41
1
10
-14.6029581616285
20
-8.18081975592636
30
0
41
1
10
-14.5521237698499
20
-8.14844888077508
30
0
41
1
10
-14.5275204196119
20
-8.13147265143903
30
0
41
1
10
-14.4558957807576
20
-8.07840113768455
30
0
41
1
10
-14.411048006958
20
-8.04017416621042
30
0
41
1
10
-14.347408645875
20
-7.9791980354984
30
0
41
1
10
-14.3267704985616
20
-7.9582267315275
30
0
41
1
10
-14.2867812208927
20
-7.91531082173958
30
0
41
1
10
-14.267487937703
20
-7.89343345035931
30
0
41
1
10
-14.2115013365259
20
-7.82665213506647
30
0
41
1
10
-14.1766922853205
20
-7.78060380498701
30
0
41
1
10
-14.1112733091054
20
-7.68587638410847
30
0
41
1
10
-14.080667629502
20
-7.63719499690606
30
0
41
1
10
-14.051872681288
20
-7.58734230610622
30
0
0
SPLINE
5
DB
100
AcDbEntity
8
1
62
256
6
ByLayer
370
13
48
1
60
0
100
AcDbSpline
70
4
71
3
72
145
73
141
40
0
40
0
40
0
40
0
40
0.015625000000001
40
0.015625000000001
40
0.031250000000002
40
0.031250000000002
40
0.046875000000003
40
0.046875000000003
40
0.062500000000004
40
0.062500000000004
40
0.078125000000005
40
0.078125000000005
40
0.093750000000006
40
0.093750000000006
40
0.109375000000007
40
0.109375000000007
40
0.125000000000008
40
0.125000000000008
40
0.140625000000009
40
0.140625000000009
40
0.15625000000001
40
0.15625000000001
40
0.171875000000011
40
0.171875000000011
40
0.187500000000012
40
0.187500000000012
40
0.203125000000013
40
0.203125000000013
40
0.218750000000014
40
0.218750000000014
40
0.234375000000015
40
0.234375000000015
40
0.250000000000016
40
0.250000000000016
40
0.257812500000016
40
0.257812500000016
40
0.261718750000016
40
0.261718750000016
40
0.265625000000016
40
0.265625000000016
40
0.281250000000016
40
0.281250000000016
40
0.296875000000015
40
0.296875000000015
40
0.312500000000014
40
0.312500000000014
40
0.328125000000014
40
0.328125000000014
40
0.343750000000013
40
0.343750000000013
40
0.359375000000013
40
0.359375000000013
40
0.375000000000012
40
0.375000000000012
40
0.390625000000011
40
0.390625000000011
40
0.406250000000011
40
0.406250000000011
40
0.42187500000001
40
0.42187500000001
40
0.43750000000001
40
0.43750000000001
40
0.453125000000009
40
0.453125000000009
40
0.468750000000008
40
0.468750000000008
40
0.484375000000008
40
0.484375000000008
40
0.500000000000007
40
0.500000000000007
40
0.515625000000007
40
0.515625000000007
40
0.519531250000006
40
0.519531250000006
40
0.523437500000006
40
0.523437500000006
40
0.531250000000006
40
0.531250000000006
40
0.546875000000005
40
0.546875000000005
40
0.562500000000005
40
0.562500000000005
40
0.578125000000004
40
0.578125000000004
40
0.593750000000003
40
0.593750000000003
40
0.609375000000003
40
0.609375000000003
40
0.625000000000002
40
0.625000000000002
40
0.640625000000001
40
0.640625000000001
40
0.65625
40
0.65625
40
0.671875
40
0.671875
40
0.687499999999999
40
0.687499999999999
40
0.703124999999998
40
0.703124999999998
40
0.718749999999997
40
0.718749999999997
40
0.734374999999997
40
0.734374999999997
40
0.749999999999996
40
0.749999999999996
40
0.765624999999995
40
0.765624999999995
40
0.781249999999994
40
0.781249999999994
40
0.785156249999994
40
0.785156249999994
40
0.789062499999994
40
0.796874999999994
40
0.796874999999994
40
0.812499999999995
40
0.812499999999995
40
0.828124999999995
40
0.828124999999995
40
0.843749999999996
40
0.843749999999996
40
0.859374999999996
40
0.859374999999996
40
0.874999999999997
40
0.874999999999997
40
0.890624999999997
40
0.890624999999997
40
0.906249999999997
40
0.906249999999997
40
0.921874999999998
40
0.921874999999998
40
0.937499999999998
40
0.937499999999998
40
0.953124999999999
40
0.953124999999999
40
0.968749999999999
40
0.968749999999999
40
0.984375
40
0.984375
40
1
40
1
40
1
40
1
41
1
10
220.286343440823
20
12
30
0
41
1
10
220.341270595761
20
12
30
0
41
1
10
220.396197750698
20
11.9857068512513
30
0
41
1
10
220.506052060573
20
11.9257116619188
30
0
41
1
10
220.560979215511
20
11.880003328391
30
0
41
1
10
220.670833525386
20
11.7548242617625
30
0
41
1
10
220.725760680323
20
11.6753473670177
30
0
41
1
10
220.835614990198
20
11.4809475909869
30
0
41
1
10
220.890542145135
20
11.3660193355502
30
0
41
1
10
221.00039645501
20
11.0998788654135
30
0
41
1
10
221.055323609947
20
10.948662764287
30
0
41
1
10
221.165177919822
20
10.6100958814717
30
0
41
1
10
221.22010507476
20
10.422743330998
30
0
41
1
10
221.329959384634
20
10.0131272372504
30
0
41
1
10
221.384886539572
20
9.7908644759045
30
0
41
1
10
221.494740849446
20
9.31374229974455
30
0
41
1
10
221.549668004384
20
9.05888634673082
30
0
41
1
10
221.659522314259
20
8.51991929104344
30
0
41
1
10
221.714449469196
20
8.23581410032028
30
0
41
1
10
221.824303779071
20
7.6425753797196
30
0
41
1
10
221.879230934008
20
7.33344964185835
30
0
41
1
10
221.989085243883
20
6.69507386105215
30
0
41
1
10
222.044012398821
20
6.36583267221988
30
0
41
1
10
222.153866708695
20
5.69255418415935
30
0
41
1
10
222.208793863633
20
5.3485258793296
30
0
41
1
10
222.318648173507
20
4.65115416272729
30
0
41
1
10
222.373575328445
20
4.29781901782587
30
0
41
1
10
222.48342963832
20
3.58720524514655
30
0
41
1
10
222.538356793257
20
3.22993347501739
30
0
41
1
10
222.648211103132
20
2.51647938895803
30
0
41
1
10
222.703138258069
20
2.16030210441039
30
0
41
1
10
222.812992567944
20
1.45355154147569
30
0
41
1
10
222.867919722882
20
1.10298133185333
30
0
41
1
10
222.950310455288
20
0.584234810637639
30
0
41
1
10
222.977774032757
20
0.412498827367529
30
0
41
1
10
223.01896939896
20
0.156977885597342
30
0
41
1
10
223.032701187694
20
0.0722176239779344
30
0
41
1
10
223.060164765162
20
-0.0968378379731973
30
0
41
1
10
223.073896553897
20
-0.181734174165001
30
0
41
1
10
223.142555497569
20
-0.607937929612319
30
0
41
1
10
223.197482652506
20
-0.954439086940027
30
0
41
1
10
223.307336962381
20
-1.65497790952486
30
0
41
1
10
223.362264117318
20
-2.00901341457572
30
0
41
1
10
223.472118427193
20
-2.72040325868505
30
0
41
1
10
223.527045582131
20
-3.07775349931845
30
0
41
1
10
223.636899892005
20
-3.7909713829807
30
0
41
1
10
223.691827046943
20
-4.14683300269093
30
0
41
1
10
223.801681356818
20
-4.85184057900437
30
0
41
1
10
223.856608511755
20
-5.20097886925203
30
0
41
1
10
223.96646282163
20
-5.88708181553528
30
0
41
1
10
224.021389976567
20
-6.22403772390831
30
0
41
1
10
224.131244286442
20
-6.88034169878475
30
0
41
1
10
224.186171441379
20
-7.19968072922774
30
0
41
1
10
224.296025751254
20
-7.81561054144848
30
0
41
1
10
224.350952906192
20
-8.11219291384057
30
0
41
1
10
224.460807216067
20
-8.67802811179732
30
0
41
1
10
224.515734371004
20
-8.94727404180574
30
0
41
1
10
224.625588680879
20
-9.4546471004052
30
0
41
1
10
224.680515835816
20
-9.69276955073272
30
0
41
1
10
224.790370145691
20
-10.1350745493981
30
0
41
1
10
224.845297300628
20
-10.3392550355193
30
0
41
1
10
224.955151610503
20
-10.7119254919243
30
0
41
1
10
225.01007876544
20
-10.8804160549693
30
0
41
1
10
225.119933075315
20
-11.1810483856431
30
0
41
1
10
225.174860230253
20
-11.3131931016689
30
0
41
1
10
225.284714540127
20
-11.5415132164622
30
0
41
1
10
225.339641695065
20
-11.6376933675959
30
0
41
1
10
225.44949600494
20
-11.7953837371778
30
0
41
1
10
225.504423159877
20
-11.8568998295216
30
0
41
1
10
225.614277469752
20
-11.9473192490993
30
0
41
1
10
225.669204624689
20
-11.9762288821425
30
0
41
1
10
225.737863568361
20
-11.9936264483733
30
0
41
1
10
225.751595357095
20
-11.9961701211381
30
0
41
1
10
225.779058934564
20
-11.9994308282968
30
0
41
1
10
225.792790723299
20
-12.0001482674585
30
0
41
1
10
225.833986089502
20
-11.9996276635498
30
0
41
1
10
225.86144966697
20
-11.9957011892007
30
0
41
1
10
225.943840399376
20
-11.9726381390547
30
0
41
1
10
225.998767554314
20
-11.9422021732635
30
0
41
1
10
226.108621864189
20
-11.848615428055
30
0
41
1
10
226.163549019126
20
-11.7854583489418
30
0
41
1
10
226.273403329001
20
-11.6244038999489
30
0
41
1
10
226.328330483938
20
-11.5265006943131
30
0
41
1
10
226.438184793813
20
-11.2946934921629
30
0
41
1
10
226.493111948751
20
-11.1607848156575
30
0
41
1
10
226.602966258625
20
-10.8566316324676
30
0
41
1
10
226.657893413563
20
-10.6863842806098
30
0
41
1
10
226.767747723438
20
-10.3102596277854
30
0
41
1
10
226.822674878375
20
-10.104381858533
30
0
41
1
10
226.93252918825
20
-9.65879479463024
30
0
41
1
10
226.987456343187
20
-9.41908769305928
30
0
41
1
10
227.097310653062
20
-8.90870786761423
30
0
41
1
10
227.152237807999
20
-8.63803994167517
30
0
41
1
10
227.262092117874
20
-8.06956640931142
30
0
41
1
10
227.317019272812
20
-7.771767790242
30
0
41
1
10
227.426873582686
20
-7.15364411672607
30
0
41
1
10
227.481800737624
20
-6.83332752344796
30
0
41
1
10
227.591655047499
20
-6.17532768713178
30
0
41
1
10
227.646582202436
20
-5.83765348685043
30
0
41
1
10
227.756436512311
20
-5.15038062121209
30
0
41
1
10
227.811363667248
20
-4.80079066780417
30
0
41
1
10
227.921217977123
20
-4.09514105070673
30
0
41
1
10
227.97614513206
20
-3.73908898439907
30
0
41
1
10
228.085999441935
20
-3.02573494604806
30
0
41
1
10
228.140926596873
20
-2.66843890807004
30
0
41
1
10
228.250780906748
20
-1.95737691885176
30
0
41
1
10
228.305708061685
20
-1.60361497024277
30
0
41
1
10
228.41556237156
20
-0.903811507976542
30
0
41
1
10
228.470489526497
20
-0.5577720640797
30
0
41
1
10
228.539148470169
20
-0.132241681300314
30
0
41
1
10
228.552880258903
20
-0.047653134612716
30
0
41
1
10
228.580343836372
20
0.121545018978424
30
0
41
1
10
228.621539202575
20
0.376440509112911
30
0
41
1
10
228.662734568778
20
0.634416690767864
30
0
41
1
10
228.745125301184
20
1.15384314532071
30
0
41
1
10
228.800052456122
20
1.50478056447054
30
0
41
1
10
228.909906765997
20
2.21206057008169
30
0
41
1
10
228.964833920934
20
2.56839999323378
30
0
41
1
10
229.074688230809
20
3.28194491533131
30
0
41
1
10
229.129615385746
20
3.63914528887878
30
0
41
1
10
229.239469695621
20
4.34936175708904
30
0
41
1
10
229.294396850558
20
4.70237091374651
30
0
41
1
10
229.404251160433
20
5.39882513576481
30
0
41
1
10
229.459178315371
20
5.74226188127071
30
0
41
1
10
229.569032625245
20
6.41409284197943
30
0
41
1
10
229.623959780183
20
6.74247804852411
30
0
41
1
10
229.733814090058
20
7.37889173070079
30
0
41
1
10
229.788741244995
20
7.68691138270319
30
0
41
1
10
229.89859555487
20
8.27771501109538
30
0
41
1
10
229.953522709807
20
8.56049126935176
30
0
41
1
10
230.063377019682
20
9.09661611369006
30
0
41
1
10
230.118304174619
20
9.3499588961127
30
0
41
1
10
230.228158484494
20
9.8239175446468
30
0
41
1
10
230.283085639432
20
10.0445300767245
30
0
41
1
10
230.392939949307
20
10.4507606678775
30
0
41
1
10
230.447867104244
20
10.636378074635
30
0
41
1
10
230.557721414119
20
10.9714428205498
30
0
41
1
10
230.612648569056
20
11.120892043387
30
0
41
1
10
230.722502878931
20
11.3835174247969
30
0
41
1
10
230.777430033868
20
11.4966975576517
30
0
41
1
10
230.832357188806
20
11.5921810349133
30
0
0
SPLINE
5
DC
100
AcDbEntity
8
1
62
256
6
ByLayer
370
13
48
1
60
0
100
AcDbSpline
70
4
71
3
72
10
73
6
40
0
40
0
40
0
40
0
40
0.5
40
0.5
40
1
40
1
40
1
40
1
41
1
10
230.499544114143
20
12
30
0
41
1
10
230.55501295992
20
12
30
0
41
1
10
230.610481805697
20
11.9854232007578
30
0
41
1
10
230.721419497251
20
11.9242111402451
30
0
41
1
10
230.776888343029
20
11.8775692684481
30
0
41
1
10
230.832357188806
20
11.8136905714437
30
0
0
SPLINE
5
DD
100
AcDbEntity
8
1
62
256
6
ByLayer
370
13
48
1
60
0
100
AcDbSpline
70
4
71
3
72
14
73
10
40
0
40
0
40
0
40
0
40
0.25
40
0.25
40
0.5
40
0.5
40
0.75
40
0.75
40
1
40
1
40
1
40
1
41
1
10
219.8
20
10.7939744945486
30
0
41
1
10
219.868263088925
20
11.0030669747303
30
0
41
1
10
219.936526177851
20
11.1842033910105
30
0
41
1
10
220.073052355701
20
11.4905574111629
30
0
41
1
10
220.141315444627
20
11.6157878842029
30
0
41
1
10
220.277841622477
20
11.8126129071914
30
0
41
1
10
220.346104711403
20
11.884224795785
30
0
41
1
10
220.482630889253
20
11.9779090018553
30
0
41
1
10
220.550893978179
20
12
30
0
41
1
10
220.619157067104
20
12
30
0
0
SPLINE
5
DE
100
AcDbEntity
8
1
62
256
6
ByLayer
370
13
48
1
60
0
100
AcDbSpline
70
4
71
3
72
134
73
130
40
0
40
0
40
0
40
0
40
0.015625
40
0.015625
40
0.03125
40
0.03125
40
0.0468750000000001
40
0.0468750000000001
40
0.0625000000000001
40
0.0625000000000001
40
0.0781250000000001
40
0.0781250000000001
40
0.0937500000000002
40
0.0937500000000002
40
0.109375
40
0.109375
40
0.125
40
0.125
40
0.140625
40
0.140625
40
0.15625
40
0.15625
40
0.171875
40
0.171875
40
0.1875
40
0.1875
40
0.203125
40
0.203125
40
0.21875
40
0.21875
40
0.234375
40
0.234375
40
0.25
40
0.25
40
0.265625
40
0.265625
40
0.28125
40
0.28125
40
0.296875
40
0.296875
40
0.3125
40
0.3125
40
0.328125
40
0.328125
40
0.34375
40
0.34375
40
0.359375
40
0.359375
40
0.375
40
0.375
40
0.390625
40
0.390625
40
0.40625
40
0.40625
40
0.421875
40
0.421875
40
0.4375
40
0.4375
40
0.453125
40
0.453125
40
0.46875
40
0.46875
40
0.484375
40
0.484375
40
0.5
40
0.5
40
0.515625
40
0.515625
40
0.53125
40
0.53125
40
0.546875
40
0.546875
40
0.5625
40
0.5625
40
0.578125
40
0.578125
40
0.59375
40
0.59375
40
0.609375
40
0.609375
40
0.625
40
0.625
40
0.640625
40
0.640625
40
0.65625
40
0.65625
40
0.671875
40
0.671875
40
0.6875
40
0.6875
40
0.703125
40
0.703125
40
0.71875
40
0.71875
40
0.734375
40
0.734375
40
0.75
40
0.75
40
0.765625
40
0.765625
40
0.78125
40
0.78125
40
0.796875
40
0.796875
40
0.8125
40
0.8125
40
0.828125
40
0.828125
40
0.84375
40
0.84375
40
0.859375
40
0.859375
40
0.875
40
0.875
40
0.890625
40
0.890625
40
0.90625
40
0.90625
40
0.921875
40
0.921875
40
0.9375
40
0.9375
40
0.953125
40
0.953125
40
0.96875
40
0.96875
40
0.984375
40
0.984375
40
1
40
1
40
1
40
1
41
1
10
219.800000551618
20
12
30
0
41
1
10
219.857460742437
20
12
30
0
41
1
10
219.914920933255
20
11.9843564008018
30
0
41
1
10
220.029841314893
20
11.9185614157765
30
0
41
1
10
220.087301505711
20
11.868402140351
30
0
41
1
10
220.202221887349
20
11.7309267428894
30
0
41
1
10
220.259682078167
20
11.6436029598578
30
0
41
1
10
220.374602459805
20
11.4299721327648
30
0
41
1
10
220.432062650623
20
11.3036585655958
30
0
41
1
10
220.546983032261
20
11.0112608353412
30
0
41
1
10
220.60444322308
20
10.8451722418484
30
0
41
1
10
220.719363604717
20
10.4736442007117
30
0
41
1
10
220.776823795536
20
10.2682032399513
30
0
41
1
10
220.891744177173
20
9.81968943295877
30
0
41
1
10
220.949204367992
20
9.57661849797447
30
0
41
1
10
221.064124749629
20
9.05585855061975
30
0
41
1
10
221.121584940448
20
8.77817491774718
30
0
41
1
10
221.236505322085
20
8.19238853367366
30
0
41
1
10
221.293965512904
20
7.88429415739984
30
0
41
1
10
221.408885894541
20
7.24286174211548
30
0
41
1
10
221.46634608536
20
6.90953414897794
30
0
41
1
10
221.581266466997
20
6.2235009613153
30
0
41
1
10
221.638726657816
20
5.87080667935587
30
0
41
1
10
221.753647039453
20
5.15226473958245
30
0
41
1
10
221.811107230272
20
4.78642800799963
30
0
41
1
10
221.926027611909
20
4.04784635093233
30
0
41
1
10
221.983487802728
20
3.67511088817042
30
0
41
1
10
222.098408184365
20
2.92868772364366
30
0
41
1
10
222.155868375184
20
2.5550072802009
30
0
41
1
10
222.270788756821
20
1.81210753778007
30
0
41
1
10
222.32824894764
20
1.44289295387023
30
0
41
1
10
222.443169329278
20
0.713615196549654
30
0
41
1
10
222.500629520096
20
0.353554231799052
30
0
41
1
10
222.615549901734
20
-0.353552534742818
30
0
41
1
10
222.673010092552
20
-0.71361346081963
30
0
41
1
10
222.787930474189
20
-1.44289118906701
30
0
41
1
10
222.845390665008
20
-1.81210576187067
30
0
41
1
10
222.960311046646
20
-2.55500549019149
30
0
41
1
10
223.017771237464
20
-2.92868593064463
30
0
41
1
10
223.132691619102
20
-3.67510909833817
30
0
41
1
10
223.190151809921
20
-4.04784456726043
30
0
41
1
10
223.305072191558
20
-4.78642624647946
30
0
41
1
10
223.362532382376
20
-5.15226299405677
30
0
41
1
10
223.477452764014
20
-5.87080497588005
30
0
41
1
10
223.534912954832
20
-6.22349928389644
30
0
41
1
10
223.64983333647
20
-6.90953253343727
30
0
41
1
10
223.707293527289
20
-7.24286016239572
30
0
41
1
10
223.822213908926
20
-7.88429265824379
30
0
41
1
10
223.879674099745
20
-8.19238707925805
30
0
41
1
10
223.994594481382
20
-8.77817356038784
30
0
41
1
10
224.052054672201
20
-9.05585724557207
30
0
41
1
10
224.166975053838
20
-9.57661730337409
30
0
41
1
10
224.224435244657
20
-9.81968829648878
30
0
41
1
10
224.339355626294
20
-10.2682022235547
30
0
41
1
10
224.396815817113
20
-10.4736432462524
30
0
41
1
10
224.51173619875
20
-10.8451714129727
30
0
41
1
10
224.569196389569
20
-11.0112600701065
30
0
41
1
10
224.684116771206
20
-11.303657927321
30
0
41
1
10
224.741576962025
20
-11.429971557805
30
0
41
1
10
224.856497343662
20
-11.6436025093893
30
0
41
1
10
224.913957534481
20
-11.7309263535946
30
0
41
1
10
225.028877916118
20
-11.8684018697636
30
0
41
1
10
225.086338106937
20
-11.9185612027217
30
0
41
1
10
225.201258488574
20
-11.9843562980405
30
0
41
1
10
225.258718679393
20
-11.9999999499999
30
0
41
1
10
225.373639061031
20
-12.0000000499999
30
0
41
1
10
225.431099251849
20
-11.9843565035629
30
0
41
1
10
225.546019633487
20
-11.9185616288311
30
0
41
1
10
225.603479824305
20
-11.8684024109382
30
0
41
1
10
225.718400205942
20
-11.7309271321839
30
0
41
1
10
225.775860396761
20
-11.643603410326
30
0
41
1
10
225.890780778399
20
-11.4299727077243
30
0
41
1
10
225.948240969217
20
-11.3036592038702
30
0
41
1
10
226.063161350855
20
-11.0112616005756
30
0
41
1
10
226.120621541674
20
-10.8451730707238
30
0
41
1
10
226.235541923311
20
-10.4736451551706
30
0
41
1
10
226.293002114129
20
-10.2682042563476
30
0
41
1
10
226.407922495767
20
-9.8196905694285
30
0
41
1
10
226.465382686585
20
-9.57661969257455
30
0
41
1
10
226.580303068223
20
-9.05585985566719
30
0
41
1
10
226.637763259041
20
-8.77817627510626
30
0
41
1
10
226.752683640679
20
-8.19238998808902
30
0
41
1
10
226.810143831498
20
-7.88429565655568
30
0
41
1
10
226.925064213135
20
-7.2428633218351
30
0
41
1
10
226.982524403954
20
-6.90953576451844
30
0
41
1
10
227.097444785591
20
-6.22350263873403
30
0
41
1
10
227.15490497641
20
-5.87080838283154
30
0
41
1
10
227.269825358047
20
-5.15226648510804
30
0
41
1
10
227.327285548866
20
-4.78642976951971
30
0
41
1
10
227.442205930503
20
-4.04784813460421
30
0
41
1
10
227.499666121322
20
-3.67511267800262
30
0
41
1
10
227.614586502959
20
-2.92868951664269
30
0
41
1
10
227.672046693778
20
-2.5550090702103
30
0
41
1
10
227.786967075416
20
-1.81210931368952
30
0
41
1
10
227.844427266234
20
-1.44289471867347
30
0
41
1
10
227.959347647871
20
-0.713616932279791
30
0
41
1
10
228.01680783869
20
-0.353555949566072
30
0
41
1
10
228.131728220327
20
0.35355085839717
30
0
41
1
10
228.189188411146
20
0.713611725089663
30
0
41
1
10
228.304108792783
20
1.44288942426388
30
0
41
1
10
228.361568983602
20
1.8121039859613
30
0
41
1
10
228.476489365239
20
2.55500370018214
30
0
41
1
10
228.533949556058
20
2.9286841376456
30
0
41
1
10
228.648869937696
20
3.67510730850592
30
0
41
1
10
228.706330128514
20
4.04784278358846
30
0
41
1
10
228.821250510152
20
4.78642448495924
30
0
41
1
10
228.87871070097
20
5.152261248531
30
0
41
1
10
228.993631082608
20
5.87080327240415
30
0
41
1
10
229.051091273426
20
6.22349760647748
30
0
41
1
10
229.166011655064
20
6.90953091789643
30
0
41
1
10
229.223471845882
20
7.24285858267572
30
0
41
1
10
229.33839222752
20
7.8842911590875
30
0
41
1
10
229.395852418339
20
8.19238562484225
30
0
41
1
10
229.510772799976
20
8.77817220302825
30
0
41
1
10
229.568232990795
20
9.05585594052411
30
0
41
1
10
229.683153372432
20
9.57661610877344
30
0
41
1
10
229.740613563251
20
9.8196871600185
30
0
41
1
10
229.855533944888
20
10.2682012071578
30
0
41
1
10
229.912994135707
20
10.4736422917929
30
0
41
1
10
230.027914517344
20
10.8451705840967
30
0
41
1
10
230.085374708163
20
11.0112593048715
30
0
41
1
10
230.2002950898
20
11.303657289046
30
0
41
1
10
230.257755280619
20
11.429970982845
30
0
41
1
10
230.372675662256
20
11.6436020589205
30
0
41
1
10
230.430135853075
20
11.7309259642995
30
0
41
1
10
230.545056234712
20
11.8684015991759
30
0
41
1
10
230.602516425531
20
11.9185609896665
30
0
41
1
10
230.717436807168
20
11.9843561952789
30
0
41
1
10
230.774896997987
20
11.9999998999995
30
0
41
1
10
230.832357188806
20
11.9999999999995
30
0
0
SPLINE
5
DF
100
AcDbEntity
8
1
62
256
6
ByLayer
370
13
48
1
60
0
100
AcDbSpline
70
4
71
3
72
14
73
10
40
0
40
0
40
0
40
0
40
0.25
40
0.25
40
0.5
40
0.5
40
0.75
40
0.75
40
1
40
1
40
1
40
1
41
1
10
230.013201224937
20
12
30
0
41
1
10
230.081464221926
20
12
30
0
41
1
10
230.149727218915
20
11.9779090614754
30
0
41
1
10
230.286253212893
20
11.8842251146845
30
0
41
1
10
230.354516209882
20
11.8126134258759
30
0
41
1
10
230.491042203861
20
11.6157889560136
30
0
41
1
10
230.55930520085
20
11.4905588364235
30
0
41
1
10
230.695831194828
20
11.1842056791085
30
0
41
1
10
230.764094191816
20
11.0030697722776
30
0
41
1
10
230.832357188806
20
10.7939778737998
30
0
0
SPLINE
5
E0
100
AcDbEntity
8
1
62
256
6
ByLayer
370
13
48
1
60
0
100
AcDbSpline
70
4
71
3
72
10
73
6
40
0
40
0
40
0
40
0
40
0.5
40
0.5
40
1
40
1
40
1
40
1
41
1
10
219.8
20
11.8136893009398
30
0
41
1
10
219.85546902965
20
11.8775684379036
30
0
41
1
10
219.910938059299
20
11.9242106282699
30
0
41
1
10
220.021876118599
20
11.9854231039998
30
0
41
1
10
220.077345148249
20
12
30
0
41
1
10
220.132814177898
20
12
30
0
0
SPLINE
5
E1
100
AcDbEntity
8
1
62
256
6
ByLayer
370
13
48
1
60
0
100
AcDbSpline
70
4
71
3
72
146
73
142
40
0
40
0
40
0
40
0
40
0.0156249999999996
40
0.0156249999999996
40
0.0312499999999991
40
0.0312499999999991
40
0.0468749999999986
40
0.0468749999999986
40
0.0624999999999982
40
0.0624999999999982
40
0.0781249999999977
40
0.0781249999999977
40
0.0937499999999973
40
0.0937499999999973
40
0.109374999999997
40
0.109374999999997
40
0.124999999999996
40
0.124999999999996
40
0.140624999999996
40
0.140624999999996
40
0.156249999999995
40
0.156249999999995
40
0.171874999999995
40
0.171874999999995
40
0.187499999999994
40
0.187499999999994
40
0.203124999999994
40
0.203124999999994
40
0.210937499999994
40
0.210937499999994
40
0.214843749999994
40
0.214843749999994
40
0.218749999999994
40
0.218749999999994
40
0.234374999999993
40
0.234374999999993
40
0.249999999999993
40
0.249999999999993
40
0.265624999999993
40
0.265624999999993
40
0.281249999999993
40
0.281249999999993
40
0.296874999999993
40
0.296874999999993
40
0.312499999999993
40
0.312499999999993
40
0.328124999999993
40
0.328124999999993
40
0.343749999999993
40
0.343749999999993
40
0.359374999999993
40
0.359374999999993
40
0.374999999999993
40
0.374999999999993
40
0.390624999999993
40
0.390624999999993
40
0.406249999999993
40
0.406249999999993
40
0.421874999999993
40
0.421874999999993
40
0.437499999999993
40
0.437499999999993
40
0.453124999999993
40
0.453124999999993
40
0.468749999999993
40
0.468749999999993
40
0.476562499999993
40
0.476562499999993
40
0.480468749999993
40
0.480468749999993
40
0.484374999999993
40
0.484374999999993
40
0.499999999999994
40
0.499999999999994
40
0.515624999999995
40
0.515624999999995
40
0.531249999999997
40
0.531249999999997
40
0.546874999999998
40
0.546874999999998
40
0.562499999999999
40
0.562499999999999
40
0.578125
40
0.578125
40
0.593750000000002
40
0.593750000000002
40
0.609375000000003
40
0.609375000000003
40
0.625000000000004
40
0.625000000000004
40
0.640625000000005
40
0.640625000000005
40
0.656250000000006
40
0.656250000000006
40
0.671875000000008
40
0.671875000000008
40
0.687500000000009
40
0.687500000000009
40
0.70312500000001
40
0.70312500000001
40
0.718750000000011
40
0.718750000000011
40
0.734375000000013
40
0.734375000000013
40
0.738281250000013
40
0.738281250000013
40
0.742187500000013
40
0.742187500000013
40
0.750000000000013
40
0.750000000000013
40
0.765625000000012
40
0.765625000000012
40
0.781250000000011
40
0.781250000000011
40
0.79687500000001
40
0.79687500000001
40
0.812500000000009
40
0.812500000000009
40
0.828125000000009
40
0.828125000000009
40
0.843750000000008
40
0.843750000000008
40
0.859375000000007
40
0.859375000000007
40
0.875000000000006
40
0.875000000000006
40
0.890625000000006
40
0.890625000000006
40
0.906250000000005
40
0.906250000000005
40
0.921875000000004
40
0.921875000000004
40
0.937500000000003
40
0.937500000000003
40
0.953125000000002
40
0.953125000000002
40
0.968750000000002
40
0.968750000000002
40
0.984375000000001
40
0.984375000000001
40
1
40
1
40
1
40
1
41
1
10
219.8
20
11.5921829527379
30
0
41
1
10
219.854927160683
20
11.4966997019488
30
0
41
1
10
219.909854321367
20
11.383519796297
30
0
41
1
10
220.019708642734
20
11.1208948644058
30
0
41
1
10
220.074635803417
20
10.9714458638703
30
0
41
1
10
220.184490124784
20
10.6363815509205
30
0
41
1
10
220.239417285467
20
10.4507643548099
30
0
41
1
10
220.349271606834
20
10.0445341666372
30
0
41
1
10
220.404198767518
20
9.82392182687624
30
0
41
1
10
220.514053088885
20
9.34996353856516
30
0
41
1
10
220.568980249568
20
9.09662092403403
30
0
41
1
10
220.678834570935
20
8.56049638603082
30
0
41
1
10
220.733761731618
20
8.27772026620718
30
0
41
1
10
220.843616052985
20
7.68691688164668
30
0
41
1
10
220.898543213669
20
7.37889733503792
30
0
41
1
10
221.008397535035
20
6.74248382872762
30
0
41
1
10
221.063324695719
20
6.41409869265647
30
0
41
1
10
221.173179017086
20
5.74226783785608
30
0
41
1
10
221.228106177769
20
5.39883112779123
30
0
41
1
10
221.337960499136
20
4.70237694315924
30
0
41
1
10
221.39288765982
20
4.3493677884575
30
0
41
1
10
221.502741981186
20
3.63915129360834
30
0
41
1
10
221.55766914187
20
3.28195089147911
30
0
41
1
10
221.667523463237
20
2.56840588565675
30
0
41
1
10
221.72245062392
20
2.21206640737489
30
0
41
1
10
221.832304945287
20
1.50478626957343
30
0
41
1
10
221.88723210597
20
1.15384877337524
30
0
41
1
10
221.969622846995
20
0.634422190462686
30
0
41
1
10
221.997086427337
20
0.462438024442406
30
0
41
1
10
222.03828179785
20
0.206515797835493
30
0
41
1
10
222.05201358802
20
0.121550379807758
30
0
41
1
10
222.079477168362
20
-0.0476478222838352
30
0
41
1
10
222.093208958533
20
-0.132236345154581
30
0
41
1
10
222.161867909387
20
-0.557766699408234
30
0
41
1
10
222.216795070071
20
-0.903806129912908
30
0
41
1
10
222.326649391438
20
-1.60360958679246
30
0
41
1
10
222.381576552121
20
-1.95737154341535
30
0
41
1
10
222.491430873488
20
-2.6684335720156
30
0
41
1
10
222.546358034171
20
-3.02572964136945
30
0
41
1
10
222.656212355538
20
-3.73908376693427
30
0
41
1
10
222.711139516222
20
-4.09513588908578
30
0
41
1
10
222.820993837588
20
-4.80078564238087
30
0
41
1
10
222.875920998272
20
-5.1503756761455
30
0
41
1
10
222.985775319639
20
-5.83764872585687
30
0
41
1
10
223.040702480322
20
-6.17532302985353
30
0
41
1
10
223.150556801689
20
-6.83332309457947
30
0
41
1
10
223.205483962373
20
-7.15363981254674
30
0
41
1
10
223.315338283739
20
-7.7717637529025
30
0
41
1
10
223.370265444423
20
-8.06956251411341
30
0
41
1
10
223.48011976579
20
-8.63803634378468
30
0
41
1
10
223.535046926473
20
-8.90870442487784
30
0
41
1
10
223.64490124784
20
-9.41908456861901
30
0
41
1
10
223.699828408523
20
-9.65879183331896
30
0
41
1
10
223.80968272989
20
-10.1043792262118
30
0
41
1
10
223.864609890573
20
-10.3102571613128
30
0
41
1
10
223.97446421194
20
-10.68638214348
30
0
41
1
10
224.029391372624
20
-10.8566296588218
30
0
41
1
10
224.139245693991
20
-11.160783162054
30
0
41
1
10
224.194172854674
20
-11.2946919951106
30
0
41
1
10
224.304027176041
20
-11.5264994996438
30
0
41
1
10
224.358954336724
20
-11.6244028511079
30
0
41
1
10
224.468808658091
20
-11.7854575781791
30
0
41
1
10
224.523735818775
20
-11.8486147895422
30
0
41
1
10
224.633590140142
20
-11.9422017837974
30
0
41
1
10
224.688517300825
20
-11.9726378663881
30
0
41
1
10
224.77090804185
20
-11.9957010794415
30
0
41
1
10
224.798371622192
20
-11.9996276060515
30
0
41
1
10
224.839566992705
20
-12.0001482852601
30
0
41
1
10
224.853298782875
20
-11.9994308711048
30
0
41
1
10
224.880762363217
20
-11.996170214431
30
0
41
1
10
224.894494153388
20
-11.9936265670359
30
0
41
1
10
224.963153104242
20
-11.9762291282046
30
0
41
1
10
225.018080264925
20
-11.9473195988635
30
0
41
1
10
225.127934586292
20
-11.856900387813
30
0
41
1
10
225.182861746976
20
-11.7953844002906
30
0
41
1
10
225.292716068343
20
-11.6376942386329
30
0
41
1
10
225.347643229026
20
-11.5415141905964
30
0
41
1
10
225.457497550393
20
-11.3131942771783
30
0
41
1
10
225.512424711076
20
-11.1810496594236
30
0
41
1
10
225.622279032443
20
-10.8804175173065
30
0
41
1
10
225.677206193127
20
-10.7119270445391
30
0
41
1
10
225.787060514493
20
-10.3392567576995
30
0
41
1
10
225.841987675177
20
-10.1350763508584
30
0
41
1
10
225.951841996544
20
-9.69277149716169
30
0
41
1
10
226.006769157227
20
-9.45464911251628
30
0
41
1
10
226.116623478594
20
-8.94727616970962
30
0
41
1
10
226.171550639277
20
-8.67803028980768
30
0
41
1
10
226.281404960644
20
-8.11219517530043
30
0
41
1
10
226.336332121328
20
-7.81561283625001
30
0
41
1
10
226.446186442695
20
-7.19968307363223
30
0
41
1
10
226.501113603378
20
-6.8803440594522
30
0
41
1
10
226.610967924745
20
-6.22404010057559
30
0
41
1
10
226.665895085428
20
-5.88708419194376
30
0
41
1
10
226.775749406795
20
-5.2009812299504
30
0
41
1
10
226.830676567478
20
-4.85184292425765
30
0
41
1
10
226.940530888845
20
-4.14683530381311
30
0
41
1
10
226.995458049529
20
-3.79097365542393
30
0
41
1
10
227.105312370896
20
-3.0777557035284
30
0
41
1
10
227.160239531579
20
-2.7204054233477
30
0
41
1
10
227.270093852946
20
-2.00901549183331
30
0
41
1
10
227.325021013629
20
-1.65497993893075
30
0
41
1
10
227.434875334996
20
-0.954441014897725
30
0
41
1
10
227.48980249568
20
-0.607939803978155
30
0
41
1
10
227.558461446534
20
-0.181735979453009
30
0
41
1
10
227.572193236705
20
-0.0968396293406499
30
0
41
1
10
227.599656817046
20
0.0722158606265566
30
0
41
1
10
227.613388607217
20
0.156976117264293
30
0
41
1
10
227.65458397773
20
0.412497071402129
30
0
41
1
10
227.682047558072
20
0.584233063891986
30
0
41
1
10
227.764438299097
20
1.10297961572044
30
0
41
1
10
227.81936545978
20
1.45354984970169
30
0
41
1
10
227.929219781147
20
2.16030046913963
30
0
41
1
10
227.98414694183
20
2.51647778583308
30
0
41
1
10
228.094001263197
20
3.2299319434473
30
0
41
1
10
228.148928423881
20
3.58720375298574
30
0
41
1
10
228.258782745248
20
4.29781761078647
30
0
41
1
10
228.313709905931
20
4.65115280139878
30
0
41
1
10
228.423564227298
20
5.34852461434309
30
0
41
1
10
228.478491387981
20
5.69255296980108
30
0
41
1
10
228.588345709348
20
6.36583156229696
30
0
41
1
10
228.643272870032
20
6.69507280493201
30
0
41
1
10
228.753127191398
20
7.33344869453245
30
0
41
1
10
228.808054352082
20
7.64257448737993
30
0
41
1
10
228.917908673449
20
8.23581331704878
30
0
41
1
10
228.972835834132
20
8.51991856184839
30
0
41
1
10
229.082690155499
20
9.05888572275248
30
0
41
1
10
229.137617316182
20
9.31374172690153
30
0
41
1
10
229.247471637549
20
9.79086400058438
30
0
41
1
10
229.302398798233
20
10.0131268083141
30
0
41
1
10
229.412253119599
20
10.4227429886233
30
0
41
1
10
229.467180280283
20
10.6100955792724
30
0
41
1
10
229.57703460165
20
10.9486625352157
30
0
41
1
10
229.631961762333
20
11.0998786692942
30
0
41
1
10
229.7418160837
20
11.3660191975728
30
0
41
1
10
229.796743244383
20
11.4809474782007
30
0
41
1
10
229.906597565751
20
11.6753472967756
30
0
41
1
10
229.961524726434
20
11.7548242088758
30
0
41
1
10
230.071379047801
20
11.8800033027065
30
0
41
1
10
230.126306208484
20
11.9257116460842
30
0
41
1
10
230.236160529851
20
11.9857068482573
30
0
41
1
10
230.291087690534
20
12
30
0
41
1
10
230.346014851218
20
12
30
0
0
SPLINE
5
E2
100
AcDbEntity
8
1
62
256
6
ByLayer
370
13
48
1
60
0
100
AcDbSpline
70
4
71
3
72
22
73
18
40
0
40
0
40
0
40
0
40
0.125
40
0.125
40
0.25
40
0.25
40
0.375
40
0.375
40
0.5
40
0.5
40
0.625
40
0.625
40
0.75
40
0.75
40
0.875
40
0.875
40
1
40
1
40
1
40
1
41
1
10
229.526858335731
20
12
30
0
41
1
10
229.581254121276
20
12
30
0
41
1
10
229.635649906821
20
11.9859823788381
30
0
41
1
10
229.74444147791
20
11.927168521549
30
0
41
1
10
229.798837263455
20
11.8823662920681
30
0
41
1
10
229.907628834545
20
11.7596894013481
30
0
41
1
10
229.962024620089
20
11.6818088621524
30
0
41
1
10
230.070816191179
20
11.4913224650633
30
0
41
1
10
230.125211976724
20
11.3787114561654
30
0
41
1
10
230.234003547813
20
11.1179200739646
30
0
41
1
10
230.288399333358
20
10.9697359312435
30
0
41
1
10
230.397190904448
20
10.6378994376027
30
0
41
1
10
230.451586689992
20
10.4542452923877
30
0
41
1
10
230.560378261082
20
10.0526008096145
30
0
41
1
10
230.614774046627
20
9.83461106920018
30
0
41
1
10
230.723565617716
20
9.3664776268829
30
0
41
1
10
230.777961403261
20
9.11633705284731
30
0
41
1
10
230.832357188806
20
8.85170790166143
30
0
0
SPLINE
5
E3
100
AcDbEntity
8
1
62
256
6
ByLayer
370
13
48
1
60
0
100
AcDbSpline
70
4
71
3
72
130
73
126
40
0
40
0
40
0
40
0
40
0.0156249999999992
40
0.0156249999999992
40
0.0312499999999983
40
0.0312499999999983
40
0.0468749999999976
40
0.0468749999999976
40
0.0624999999999968
40
0.0624999999999968
40
0.0781249999999959
40
0.0781249999999959
40
0.0937499999999952
40
0.0937499999999952
40
0.109374999999994
40
0.109374999999994
40
0.124999999999994
40
0.124999999999994
40
0.156249999999992
40
0.156249999999992
40
0.171874999999992
40
0.171874999999992
40
0.175781249999991
40
0.175781249999991
40
0.179687499999991
40
0.179687499999991
40
0.187499999999991
40
0.187499999999991
40
0.21874999999999
40
0.21874999999999
40
0.23437499999999
40
0.23437499999999
40
0.24999999999999
40
0.24999999999999
40
0.26562499999999
40
0.26562499999999
40
0.281249999999989
40
0.281249999999989
40
0.296874999999989
40
0.296874999999989
40
0.312499999999989
40
0.312499999999989
40
0.328124999999989
40
0.328124999999989
40
0.343749999999988
40
0.343749999999988
40
0.359374999999988
40
0.359374999999988
40
0.374999999999988
40
0.374999999999988
40
0.390624999999988
40
0.390624999999988
40
0.406249999999987
40
0.406249999999987
40
0.437499999999987
40
0.437499999999987
40
0.445312499999986
40
0.445312499999986
40
0.449218749999987
40
0.449218749999987
40
0.453124999999987
40
0.453124999999987
40
0.468749999999988
40
0.468749999999988
40
0.499999999999989
40
0.499999999999989
40
0.51562499999999
40
0.51562499999999
40
0.531249999999991
40
0.531249999999991
40
0.546874999999992
40
0.546874999999992
40
0.562499999999993
40
0.562499999999993
40
0.578124999999994
40
0.578124999999994
40
0.593749999999995
40
0.593749999999995
40
0.609374999999996
40
0.609374999999996
40
0.624999999999997
40
0.624999999999997
40
0.640624999999998
40
0.640624999999998
40
0.656249999999999
40
0.656249999999999
40
0.671875
40
0.671875
40
0.687500000000001
40
0.687500000000001
40
0.718750000000003
40
0.718750000000003
40
0.722656250000003
40
0.722656250000003
40
0.726562500000003
40
0.726562500000003
40
0.734375000000003
40
0.734375000000003
40
0.750000000000003
40
0.750000000000003
40
0.781250000000003
40
0.781250000000003
40
0.796875000000003
40
0.796875000000003
40
0.812500000000002
40
0.812500000000002
40
0.828125000000002
40
0.828125000000002
40
0.843750000000002
40
0.843750000000002
40
0.859375000000002
40
0.859375000000002
40
0.875000000000001
40
0.875000000000001
40
0.890625000000001
40
0.890625000000001
40
0.906250000000001
40
0.906250000000001
40
0.921875
40
0.921875
40
0.9375
40
0.9375
40
0.96875
40
0.96875
40
1
40
1
40
1
40
1
41
1
10
219.8
20
10.2771146575977
30
0
41
1
10
219.852394124802
20
10.0849851544131
30
0
41
1
10
219.904788249604
20
9.87690114403765
30
0
41
1
10
220.009576499209
20
9.43071986434563
30
0
41
1
10
220.061970624011
20
9.19262503074606
30
0
41
1
10
220.166758873615
20
8.68918071756571
30
0
41
1
10
220.219152998417
20
8.4238355692415
30
0
41
1
10
220.323941248021
20
7.86940902389853
30
0
41
1
10
220.376335372824
20
7.58033348603803
30
0
41
1
10
220.481123622428
20
6.98256983508321
30
0
41
1
10
220.53351774723
20
6.67388855371237
30
0
41
1
10
220.638305996834
20
6.04144968850753
30
0
41
1
10
220.690700121637
20
5.7176992546097
30
0
41
1
10
220.795488371241
20
5.05985862809243
30
0
41
1
10
220.847882496043
20
4.7257752541889
30
0
41
1
10
220.952670745647
20
4.05199354735819
30
0
41
1
10
221.005064870449
20
3.71230115226123
30
0
41
1
10
221.162247244856
20
2.69158106468495
30
0
41
1
10
221.26703549446
20
2.00916675032931
30
0
41
1
10
221.424217868866
20
1.00609650600123
30
0
41
1
10
221.476611993669
20
0.675105712065175
30
0
41
1
10
221.542104649671
20
0.267516580583163
30
0
41
1
10
221.555203180872
20
0.186304802798276
30
0
41
1
10
221.581400243273
20
0.024536168998651
30
0
41
1
10
221.594498774473
20
-0.0559046450021583
30
0
41
1
10
221.633794368075
20
-0.29881101119696
30
0
41
1
10
221.659991430476
20
-0.462048750366392
30
0
41
1
10
221.790976742482
20
-1.28385269268708
30
0
41
1
10
221.895764992086
20
-1.95960739897026
30
0
41
1
10
222.052947366492
20
-2.97945421340367
30
0
41
1
10
222.105341491294
20
-3.32036841348435
30
0
41
1
10
222.210129740899
20
-3.99986616774566
30
0
41
1
10
222.262523865701
20
-4.33844466390048
30
0
41
1
10
222.367312115305
20
-5.00867785344869
30
0
41
1
10
222.419706240107
20
-5.34032631333295
30
0
41
1
10
222.524494489711
20
-5.9919520877144
30
0
41
1
10
222.576888614514
20
-6.31192242841729
30
0
41
1
10
222.681676864118
20
-6.93549042188542
30
0
41
1
10
222.73407098892
20
-7.23908094662738
30
0
41
1
10
222.838859238524
20
-7.82544750075701
30
0
41
1
10
222.891253363327
20
-8.10821690915179
30
0
41
1
10
222.996041612931
20
-8.64896800583713
30
0
41
1
10
223.048435737733
20
-8.90694421688451
30
0
41
1
10
223.153223987337
20
-9.3947881641358
30
0
41
1
10
223.20561811214
20
-9.62465207691608
30
0
41
1
10
223.310406361744
20
-10.05374447985
30
0
41
1
10
223.362800486546
20
-10.2529711036127
30
0
41
1
10
223.46758873615
20
-10.6191420941842
30
0
41
1
10
223.519982860953
20
-10.7860866085875
30
0
41
1
10
223.624771110557
20
-11.0869524245934
30
0
41
1
10
223.677165235359
20
-11.2208757072325
30
0
41
1
10
223.781953484963
20
-11.4558311392478
30
0
41
1
10
223.834347609765
20
-11.5568667360264
30
0
41
1
10
223.991529984172
20
-11.8120199920051
30
0
41
1
10
224.096318233776
20
-11.9179336930777
30
0
41
1
10
224.227303545781
20
-11.9793587618366
30
0
41
1
10
224.253500608182
20
-11.9881152166583
30
0
41
1
10
224.292796201784
20
-11.996182941169
30
0
41
1
10
224.305894732985
20
-11.9980278593515
30
0
41
1
10
224.332091795386
20
-12.0000685392243
30
0
41
1
10
224.345190326586
20
-12.0002678991486
30
0
41
1
10
224.410682982589
20
-11.9971963836209
30
0
41
1
10
224.463077107391
20
-11.98161280857
30
0
41
1
10
224.620259481797
20
-11.8918419443135
30
0
41
1
10
224.725047731402
20
-11.7743424245124
30
0
41
1
10
224.882230105808
20
-11.5011024976671
30
0
41
1
10
224.93462423061
20
-11.3939236054306
30
0
41
1
10
225.039412480215
20
-11.1465927597698
30
0
41
1
10
225.091806605017
20
-11.0064376007395
30
0
41
1
10
225.196594854621
20
-10.6931784243381
30
0
41
1
10
225.248988979423
20
-10.5200727477348
30
0
41
1
10
225.353777229027
20
-10.1418194473006
30
0
41
1
10
225.40617135383
20
-9.93667204793766
30
0
41
1
10
225.510959603434
20
-9.49614759899768
30
0
41
1
10
225.563353728236
20
-9.26077279621373
30
0
41
1
10
225.66814197784
20
-8.76247447361118
30
0
41
1
10
225.720536102643
20
-8.49955511881399
30
0
41
1
10
225.825324352247
20
-7.94962043261322
30
0
41
1
10
225.877718477049
20
-7.66261083787629
30
0
41
1
10
225.982506726653
20
-7.06857011975029
30
0
41
1
10
226.034900851455
20
-6.76154576365593
30
0
41
1
10
226.13968910106
20
-6.13198185302133
30
0
41
1
10
226.192083225862
20
-5.80944944699476
30
0
41
1
10
226.296871475466
20
-5.15359631810085
30
0
41
1
10
226.349265600268
20
-4.82028247071401
30
0
41
1
10
226.454053849873
20
-4.14760101937063
30
0
41
1
10
226.506447974675
20
-3.80823945543352
30
0
41
1
10
226.611236224279
20
-3.12800900483839
30
0
41
1
10
226.663630349081
20
-2.78714492148094
30
0
41
1
10
226.820812723488
20
-1.76858308146143
30
0
41
1
10
226.925600973092
20
-1.09520273334579
30
0
41
1
10
227.043487753897
20
-0.359497002790306
30
0
41
1
10
227.056586285097
20
-0.278049608489766
30
0
41
1
10
227.082783347498
20
-0.115793888716695
30
0
41
1
10
227.095881878699
20
-0.0351673031605628
30
0
41
1
10
227.135177472301
20
0.206996768712287
30
0
41
1
10
227.161374534702
20
0.3697709221519
30
0
41
1
10
227.239965721905
20
0.861566790576632
30
0
41
1
10
227.292359846707
20
1.19407976390329
30
0
41
1
10
227.449542221113
20
2.20074270211532
30
0
41
1
10
227.554330470718
20
2.88424341213838
30
0
41
1
10
227.711512845124
20
3.90409822417877
30
0
41
1
10
227.763906969926
20
4.24308856409388
30
0
41
1
10
227.868695219531
20
4.91458727640946
30
0
41
1
10
227.921089344333
20
5.24708951017931
30
0
41
1
10
228.025877593937
20
5.90087101232595
30
0
41
1
10
228.078271718739
20
6.22214335349275
30
0
41
1
10
228.183059968343
20
6.84875017899139
30
0
41
1
10
228.235454093146
20
7.1540775221018
30
0
41
1
10
228.34024234275
20
7.74431896285933
30
0
41
1
10
228.392636467552
20
8.02922636347279
30
0
41
1
10
228.497424717156
20
8.57460221690366
30
0
41
1
10
228.549818841959
20
8.83506506040479
30
0
41
1
10
228.654607091563
20
9.3281628288247
30
0
41
1
10
228.707001216365
20
9.56079375806425
30
0
41
1
10
228.811789465969
20
9.99562143009052
30
0
41
1
10
228.864183590771
20
10.1978161159303
30
0
41
1
10
228.968971840376
20
10.5700395741366
30
0
41
1
10
229.021365965178
20
10.7400683087926
30
0
41
1
10
229.126154214782
20
11.047134172703
30
0
41
1
10
229.178548339584
20
11.1841731236822
30
0
41
1
10
229.335730713991
20
11.5458816871397
30
0
41
1
10
229.440518963595
20
11.7208118295764
30
0
41
1
10
229.650095462804
20
11.9477936802455
30
0
41
1
10
229.754883712408
20
12
30
0
41
1
10
229.859671962012
20
12
30
0
0
SPLINE
5
E4
100
AcDbEntity
8
1
62
256
6
ByLayer
370
13
48
1
60
0
100
AcDbSpline
70
4
71
3
72
22
73
18
40
0
40
0
40
0
40
0
40
0.125
40
0.125
40
0.25
40
0.25
40
0.375
40
0.375
40
0.5
40
0.5
40
0.625
40
0.625
40
0.75
40
0.75
40
0.875
40
0.875
40
1
40
1
40
1
40
1
41
1
10
229.040515446526
20
12
30
0
41
1
10
229.115175519121
20
12
30
0
41
1
10
229.189835591716
20
11.9735644064994
30
0
41
1
10
229.339155736906
20
11.8609259712647
30
0
41
1
10
229.413815809501
20
11.7746939399588
30
0
41
1
10
229.563135954691
20
11.5373838794101
30
0
41
1
10
229.637796027286
20
11.3862796899351
30
0
41
1
10
229.787116172476
20
11.0168694696467
30
0
41
1
10
229.861776245071
20
10.7985461914562
30
0
41
1
10
230.011096390261
20
10.2957391052535
30
0
41
1
10
230.085756462856
20
10.0112521484753
30
0
41
1
10
230.235076608046
20
9.38088062430575
30
0
41
1
10
230.309736680641
20
9.03500958814405
30
0
41
1
10
230.459056825831
20
8.29020532897306
30
0
41
1
10
230.533716898426
20
7.89130098599583
30
0
41
1
10
230.683037043616
20
7.05169261415006
30
0
41
1
10
230.757697116211
20
6.61102762883408
30
0
41
1
10
230.832357188806
20
6.15603647648132
30
0
0
SPLINE
5
E5
100
AcDbEntity
8
1
62
256
6
ByLayer
370
13
48
1
60
0
100
AcDbSpline
70
4
71
3
72
87
73
83
40
0
40
0
40
0
40
0
40
0.0312499999999991
40
0.0312499999999991
40
0.0624999999999981
40
0.0624999999999981
40
0.0937499999999971
40
0.0937499999999971
40
0.124999999999996
40
0.124999999999996
40
0.132812499999996
40
0.132812499999996
40
0.136718749999996
40
0.136718749999996
40
0.140624999999996
40
0.140624999999996
40
0.156249999999996
40
0.156249999999996
40
0.187499999999995
40
0.187499999999995
40
0.218749999999994
40
0.218749999999994
40
0.249999999999993
40
0.249999999999993
40
0.281249999999992
40
0.281249999999992
40
0.312499999999991
40
0.312499999999991
40
0.34374999999999
40
0.34374999999999
40
0.374999999999989
40
0.374999999999989
40
0.406249999999988
40
0.406249999999988
40
0.421874999999987
40
0.421874999999987
40
0.425781249999987
40
0.425781249999987
40
0.429687499999987
40
0.437499999999987
40
0.437499999999987
40
0.468749999999988
40
0.468749999999988
40
0.499999999999988
40
0.499999999999988
40
0.531249999999989
40
0.531249999999989
40
0.56249999999999
40
0.56249999999999
40
0.59374999999999
40
0.59374999999999
40
0.624999999999991
40
0.624999999999991
40
0.656249999999992
40
0.656249999999992
40
0.687499999999993
40
0.687499999999993
40
0.703124999999993
40
0.703124999999993
40
0.710937499999994
40
0.710937499999994
40
0.714843749999994
40
0.714843749999994
40
0.718749999999993
40
0.718749999999993
40
0.749999999999994
40
0.749999999999994
40
0.781249999999995
40
0.781249999999995
40
0.812499999999996
40
0.812499999999996
40
0.843749999999996
40
0.843749999999996
40
0.874999999999997
40
0.874999999999997
40
0.906249999999998
40
0.906249999999998
40
0.937499999999999
40
0.937499999999999
40
0.968749999999999
40
0.968749999999999
40
1
40
1
40
1
40
1
41
1
10
219.8
20
8.0680259106247
30
0
41
1
10
219.899722177842
20
7.5361934945044
30
0
41
1
10
219.999444355683
20
6.96188763399255
30
0
41
1
10
220.198888711367
20
5.75830819609106
30
0
41
1
10
220.298610889209
20
5.12921116916428
30
0
41
1
10
220.498055244892
20
3.84900937403867
30
0
41
1
10
220.597777422734
20
3.19805434775066
30
0
41
1
10
220.797221778417
20
1.90468053025768
30
0
41
1
10
220.896943956259
20
1.26234925791073
30
0
41
1
10
221.021596678561
20
0.480057729279992
30
0
41
1
10
221.046527223022
20
0.324612915054701
30
0
41
1
10
221.083923039712
20
0.0931959661397457
30
0
41
1
10
221.096388311943
20
0.0165421726520663
30
0
41
1
10
221.121318856403
20
-0.137172444636178
30
0
41
1
10
221.133784128633
20
-0.214329800390033
30
0
41
1
10
221.196110489784
20
-0.601525590195251
30
0
41
1
10
221.245971578705
20
-0.915809758061187
30
0
41
1
10
221.395554845468
20
-1.86829006650203
30
0
41
1
10
221.495277023309
20
-2.51631488312856
30
0
41
1
10
221.694721378993
20
-3.81200592496029
30
0
41
1
10
221.794443556835
20
-4.45956307303984
30
0
41
1
10
221.993887912518
20
-5.72263588416919
30
0
41
1
10
222.09361009036
20
-6.33798814577406
30
0
41
1
10
222.293054446043
20
-7.50397485726211
30
0
41
1
10
222.392776623885
20
-8.05443559109045
30
0
41
1
10
222.592220979569
20
-9.06222137092885
30
0
41
1
10
222.69194315741
20
-9.5194193824284
30
0
41
1
10
222.891387513094
20
-10.321250222195
30
0
41
1
10
222.991109690936
20
-10.6658429614075
30
0
41
1
10
223.190554046619
20
-11.2346544941371
30
0
41
1
10
223.290276224461
20
-11.4589228734714
30
0
41
1
10
223.489720580144
20
-11.7907273322141
30
0
41
1
10
223.589442757986
20
-11.8983714148087
30
0
41
1
10
223.739026024749
20
-11.9817266882405
30
0
41
1
10
223.788887113669
20
-11.9965519431486
30
0
41
1
10
223.85121347482
20
-12.0001916558205
30
0
41
1
10
223.863678747051
20
-12.0001800977712
30
0
41
1
10
223.888609291511
20
-11.9986771558726
30
0
41
1
10
223.926005108202
20
-11.9941903356982
30
0
41
1
10
223.963400924893
20
-11.9828505341377
30
0
41
1
10
224.088053647195
20
-11.9291677418448
30
0
41
1
10
224.187775825036
20
-11.8351433114842
30
0
41
1
10
224.38722018072
20
-11.5317204781922
30
0
41
1
10
224.486942358561
20
-11.3222099075442
30
0
41
1
10
224.686386714245
20
-10.7827955814228
30
0
41
1
10
224.786108892087
20
-10.4528328789543
30
0
41
1
10
224.98555324777
20
-9.67867459262314
30
0
41
1
10
225.085275425612
20
-9.23450738860882
30
0
41
1
10
225.284719781296
20
-8.24984826701731
30
0
41
1
10
225.384441959137
20
-7.70947421416713
30
0
41
1
10
225.58388631482
20
-6.5598328307382
30
0
41
1
10
225.683608492662
20
-5.95073650297991
30
0
41
1
10
225.883052848346
20
-4.69609956224258
30
0
41
1
10
225.982775026188
20
-4.05072649962824
30
0
41
1
10
226.182219381871
20
-2.75570101581081
30
0
41
1
10
226.281941559713
20
-2.10616576337685
30
0
41
1
10
226.431524826475
20
-1.14924114627013
30
0
41
1
10
226.481385915396
20
-0.833114900120137
30
0
41
1
10
226.556177548777
20
-0.365263323661111
30
0
41
1
10
226.581108093238
20
-0.210365426738718
30
0
41
1
10
226.618503909929
20
0.020178029117119
30
0
41
1
10
226.630969182159
20
0.0968459067985918
30
0
41
1
10
226.655899726619
20
0.251142292712473
30
0
41
1
10
226.66836499885
20
0.328581673096693
30
0
41
1
10
226.780552448921
20
1.02798837828462
30
0
41
1
10
226.880274626763
20
1.66742536358615
30
0
41
1
10
227.079718982447
20
2.9583833223418
30
0
41
1
10
227.179441160288
20
3.60982534060275
30
0
41
1
10
227.378885515972
20
4.89496842590708
30
0
41
1
10
227.478607693813
20
5.52852610842695
30
0
41
1
10
227.678052049497
20
6.74504567687379
30
0
41
1
10
227.777774227339
20
7.32783149329799
30
0
41
1
10
227.977218583022
20
8.41186791227747
30
0
41
1
10
228.076940760864
20
8.91296437136108
30
0
41
1
10
228.276385116547
20
9.80977408160129
30
0
41
1
10
228.376107294389
20
10.2054063504259
30
0
41
1
10
228.575551650072
20
10.8782369915723
30
0
41
1
10
228.675273827914
20
11.1554478490893
30
0
41
1
10
228.874718183598
20
11.5902501415882
30
0
41
1
10
228.974440361439
20
11.7479291804098
30
0
41
1
10
229.173884717123
20
11.9527433333938
30
0
41
1
10
229.273606894965
20
12
30
0
41
1
10
229.373329072806
20
12
30
0
0
SPLINE
5
E6
100
AcDbEntity
8
1
62
256
6
ByLayer
370
13
48
1
60
0
100
AcDbSpline
70
4
71
3
72
22
73
18
40
0
40
0
40
0
40
0
40
0.125
40
0.125
40
0.25
40
0.25
40
0.375
40
0.375
40
0.5
40
0.5
40
0.625
40
0.625
40
0.75
40
0.75
40
0.875
40
0.875
40
1
40
1
40
1
40
1
41
1
10
228.55417255732
20
12
30
0
41
1
10
228.649096916965
20
12
30
0
41
1
10
228.744021276611
20
11.9572001720444
30
0
41
1
10
228.933869995901
20
11.7722729266998
30
0
41
1
10
229.028794355546
20
11.6300499591393
30
0
41
1
10
229.218643074837
20
11.2378699151204
30
0
41
1
10
229.313567434482
20
10.9878401476671
30
0
41
1
10
229.503416153772
20
10.3797827998504
30
0
41
1
10
229.598340513418
20
10.0217353950851
30
0
41
1
10
229.788189232708
20
9.20702030694429
30
0
41
1
10
229.883113592353
20
8.75040215386531
30
0
41
1
10
230.072962311644
20
7.75716135299567
30
0
41
1
10
230.167886671289
20
7.22064861505635
30
0
41
1
10
230.35773539058
20
6.09301928427126
30
0
41
1
10
230.452659750225
20
5.50204028806488
30
0
41
1
10
230.642508469515
20
4.29380798274138
30
0
41
1
10
230.73743282916
20
3.67667943325353
30
0
41
1
10
230.832357188806
20
3.05999811894151
30
0
0
SPLINE
5
E7
100
AcDbEntity
8
1
62
256
6
ByLayer
370
13
48
1
60
0
100
AcDbSpline
70
4
71
3
72
85
73
81
40
0
40
0
40
0
40
0
40
0.03125
40
0.03125
40
0.0624999999999999
40
0.0624999999999999
40
0.0781249999999999
40
0.0781249999999999
40
0.0859375000000001
40
0.0859375000000001
40
0.0937500000000004
40
0.0937500000000004
40
0.125
40
0.125
40
0.15625
40
0.15625
40
0.1875
40
0.1875
40
0.21875
40
0.21875
40
0.25
40
0.25
40
0.28125
40
0.28125
40
0.3125
40
0.3125
40
0.34375
40
0.34375
40
0.375
40
0.375
40
0.390625
40
0.390625
40
0.39453125
40
0.39453125
40
0.3984375
40
0.40625
40
0.40625
40
0.437499999999998
40
0.437499999999998
40
0.468749999999996
40
0.468749999999996
40
0.499999999999994
40
0.499999999999994
40
0.531249999999992
40
0.531249999999992
40
0.56249999999999
40
0.56249999999999
40
0.593749999999988
40
0.593749999999988
40
0.624999999999986
40
0.624999999999986
40
0.656249999999985
40
0.656249999999985
40
0.687499999999983
40
0.687499999999983
40
0.695312499999982
40
0.695312499999982
40
0.699218749999982
40
0.699218749999982
40
0.703124999999983
40
0.703124999999983
40
0.718749999999983
40
0.718749999999983
40
0.749999999999985
40
0.749999999999985
40
0.781249999999987
40
0.781249999999987
40
0.812499999999989
40
0.812499999999989
40
0.843749999999991
40
0.843749999999991
40
0.874999999999993
40
0.874999999999993
40
0.906249999999995
40
0.906249999999995
40
0.937499999999996
40
0.937499999999996
40
0.968749999999998
40
0.968749999999998
40
1
40
1
40
1
40
1
41
1
10
219.8
20
5.20247540048075
30
0
41
1
10
219.894656106079
20
4.60487966889536
30
0
41
1
10
219.989312212158
20
3.9919608577257
30
0
41
1
10
220.178624424317
20
2.76261509482018
30
0
41
1
10
220.273280530396
20
2.14627781992337
30
0
41
1
10
220.415264689515
20
1.23678366812734
30
0
41
1
10
220.462592742554
20
0.936082339302089
30
0
41
1
10
220.533584822114
20
0.490521532200262
30
0
41
1
10
220.557248848633
20
0.342913502947397
30
0
41
1
10
220.604576901673
20
0.0497850240383002
30
0
41
1
10
220.628240928193
20
-0.0953193090214768
30
0
41
1
10
220.746561060792
20
-0.829217898128263
30
0
41
1
10
220.841217166871
20
-1.43306585714035
30
0
41
1
10
221.030529379029
20
-2.65491982744356
30
0
41
1
10
221.125185485108
20
-3.27287247526257
30
0
41
1
10
221.314497697267
20
-4.49817963309729
30
0
41
1
10
221.409153803346
20
-5.10543185089506
30
0
41
1
10
221.598466015504
20
-6.28148369595189
30
0
41
1
10
221.693122121584
20
-6.85015009132744
30
0
41
1
10
221.882434333742
20
-7.92170126259975
30
0
41
1
10
221.977090439821
20
-8.42445746990654
30
0
41
1
10
222.166402651979
20
-9.34146156322794
30
0
41
1
10
222.261058758059
20
-9.75562434362641
30
0
41
1
10
222.450370970217
20
-10.480665796582
30
0
41
1
10
222.545027076296
20
-10.791525945023
30
0
41
1
10
222.734339288454
20
-11.3047585012455
30
0
41
1
10
222.828995394534
20
-11.5071761540158
30
0
41
1
10
223.018307606692
20
-11.807455813847
30
0
41
1
10
223.112963712771
20
-11.9054030133282
30
0
41
1
10
223.25494787189
20
-11.9821613331391
30
0
41
1
10
223.302275924929
20
-11.996100207696
30
0
41
1
10
223.361435991229
20
-12.0000844368568
30
0
41
1
10
223.373268004489
20
-12.000212738842
30
0
41
1
10
223.396932031009
20
-11.9991408332027
30
0
41
1
10
223.432428070788
20
-11.9955275009703
30
0
41
1
10
223.467924110568
20
-11.9857641438927
30
0
41
1
10
223.586244243167
20
-11.9389889954882
30
0
41
1
10
223.680900349246
20
-11.8558337101016
30
0
41
1
10
223.870212561405
20
-11.5864034344323
30
0
41
1
10
223.964868667484
20
-11.4000399318096
30
0
41
1
10
224.154180879642
20
-10.9189738137271
30
0
41
1
10
224.248836985721
20
-10.6242181353166
30
0
41
1
10
224.43814919788
20
-9.93000915709325
30
0
41
1
10
224.532805303959
20
-9.53056404240908
30
0
41
1
10
224.722117516117
20
-8.64023941295801
30
0
41
1
10
224.816773622196
20
-8.14943594228228
30
0
41
1
10
225.006085834355
20
-7.09801680184694
30
0
41
1
10
225.100741940434
20
-6.5375254931198
30
0
41
1
10
225.290054152592
20
-5.37360600346906
30
0
41
1
10
225.384710258671
20
-4.77031290968708
30
0
41
1
10
225.57402247083
20
-3.54887206419386
30
0
41
1
10
225.668678576909
20
-2.93083288448608
30
0
41
1
10
225.857990789067
20
-1.7053994722977
30
0
41
1
10
225.952646895146
20
-1.09806622158763
30
0
41
1
10
226.070967027745
20
-0.358247328553887
30
0
41
1
10
226.094631054265
20
-0.21123636743016
30
0
41
1
10
226.130127094045
20
0.0076590293077459
30
0
41
1
10
226.141959107305
20
0.0803942855500566
30
0
41
1
10
226.165623133825
20
0.226754310744525
30
0
41
1
10
226.177455147084
20
0.300198116394228
30
0
41
1
10
226.236615213384
20
0.668656558876563
30
0
41
1
10
226.283943266423
20
0.967404575247656
30
0
41
1
10
226.425927425542
20
1.87217176337236
30
0
41
1
10
226.520583531621
20
2.48687758023806
30
0
41
1
10
226.70989574378
20
3.71677007709076
30
0
41
1
10
226.804551849859
20
4.33187431861396
30
0
41
1
10
226.993864062017
20
5.53564596804728
30
0
41
1
10
227.088520168096
20
6.12418976913597
30
0
41
1
10
227.277832380255
20
7.24679090328499
30
0
41
1
10
227.372488486334
20
7.7807126848615
30
0
41
1
10
227.561800698492
20
8.76890629354969
30
0
41
1
10
227.656456804572
20
9.22307040429132
30
0
41
1
10
227.84576901673
20
10.0332761228808
30
0
41
1
10
227.940425122809
20
10.3892696694825
30
0
41
1
10
228.129737334967
20
10.993795330531
30
0
41
1
10
228.224393441047
20
11.2423475356145
30
0
41
1
10
228.413705653205
20
11.6322118108541
30
0
41
1
10
228.508361759284
20
11.773595774451
30
0
41
1
10
228.697673971442
20
11.9574427510837
30
0
41
1
10
228.792330077521
20
12
30
0
41
1
10
228.886986183601
20
12
30
0
0
SPLINE
5
E8
100
AcDbEntity
8
1
62
256
6
ByLayer
370
13
48
1
60
0
100
AcDbSpline
70
4
71
3
72
42
73
38
40
0
40
0
40
0
40
0
40
0.0625000000000002
40
0.0625000000000002
40
0.125
40
0.125
40
0.187500000000001
40
0.187500000000001
40
0.250000000000001
40
0.250000000000001
40
0.312500000000001
40
0.312500000000001
40
0.375000000000001
40
0.375000000000001
40
0.437500000000001
40
0.437500000000001
40
0.500000000000001
40
0.500000000000001
40
0.562500000000001
40
0.562500000000001
40
0.625000000000001
40
0.625000000000001
40
0.687500000000001
40
0.687500000000001
40
0.750000000000001
40
0.750000000000001
40
0.812500000000001
40
0.812500000000001
40
0.875000000000001
40
0.875000000000001
40
0.937500000000001
40
0.937500000000001
40
0.968750000000002
40
0.968750000000002
40
0.984375000000001
40
0.984375000000001
40
1
40
1
40
1
40
1
41
1
10
228.067829668114
20
12
30
0
41
1
10
228.125423991462
20
12
30
0
41
1
10
228.18301831481
20
11.9842831836448
30
0
41
1
10
228.298206961505
20
11.9181733027335
30
0
41
1
10
228.355801284853
20
11.8677722558161
30
0
41
1
10
228.470989931549
20
11.7296287025227
30
0
41
1
10
228.528584254896
20
11.6418784486651
30
0
41
1
10
228.643772901592
20
11.4272027064533
30
0
41
1
10
228.701367224939
20
11.3002706302281
30
0
41
1
10
228.816555871635
20
11.0064476690561
30
0
41
1
10
228.874150194983
20
10.8395523259967
30
0
41
1
10
228.989338841678
20
10.4662388997375
30
0
41
1
10
229.046933165026
20
10.2598193240688
30
0
41
1
10
229.162121811721
20
9.80920543812266
30
0
41
1
10
229.219716135069
20
9.56501311156501
30
0
41
1
10
229.334904781765
20
9.04190788635981
30
0
41
1
10
229.392499105112
20
8.76300048494767
30
0
41
1
10
229.507687751808
20
8.17471285226947
30
0
41
1
10
229.565282075156
20
7.86534114282824
30
0
41
1
10
229.680470721851
20
7.22135352117354
30
0
41
1
10
229.738065045199
20
6.88674820859711
30
0
41
1
10
229.853253691894
20
6.19821200135675
30
0
41
1
10
229.910848015242
20
5.84429255666819
30
0
41
1
10
230.026036661937
20
5.12340100163675
30
0
41
1
10
230.083630985285
20
4.75643991983068
30
0
41
1
10
230.198819631981
20
4.01575023261839
30
0
41
1
10
230.256413955328
20
3.64203114662394
30
0
41
1
10
230.371602602024
20
2.89381061814584
30
0
41
1
10
230.429196925372
20
2.51931644391416
30
0
41
1
10
230.544385572067
20
1.77497659153272
30
0
41
1
10
230.601979895415
20
1.4051355984285
30
0
41
1
10
230.688371380436
20
0.857382725445831
30
0
41
1
10
230.71716854211
20
0.675960376413428
30
0
41
1
10
230.760364284621
20
0.405951300421947
30
0
41
1
10
230.774762865458
20
0.316301935330074
30
0
41
1
10
230.803560027132
20
0.137769096468134
30
0
41
1
10
230.817958607969
20
0.0490737403116555
30
0
41
1
10
230.832357188806
20
-0.0396414757687751
30
0
0
SPLINE
5
E9
100
AcDbEntity
8
1
62
256
6
ByLayer
370
13
48
1
60
0
100
AcDbSpline
70
4
71
3
72
85
73
81
40
0
40
0
40
0
40
0
40
0.0312499999999985
40
0.0312499999999985
40
0.0351562499999987
40
0.0351562499999987
40
0.0390624999999989
40
0.0390624999999989
40
0.0468749999999992
40
0.0468749999999992
40
0.0625000000000004
40
0.0625000000000004
40
0.0937500000000028
40
0.0937500000000028
40
0.125000000000005
40
0.125000000000005
40
0.156250000000007
40
0.156250000000007
40
0.18750000000001
40
0.18750000000001
40
0.218750000000012
40
0.218750000000012
40
0.250000000000014
40
0.250000000000014
40
0.281250000000017
40
0.281250000000017
40
0.312500000000019
40
0.312500000000019
40
0.343750000000021
40
0.343750000000021
40
0.351562500000022
40
0.355468750000022
40
0.355468750000022
40
0.359375000000023
40
0.359375000000023
40
0.375000000000023
40
0.375000000000023
40
0.406250000000023
40
0.406250000000023
40
0.437500000000023
40
0.437500000000023
40
0.468750000000022
40
0.468750000000022
40
0.500000000000022
40
0.500000000000022
40
0.531250000000022
40
0.531250000000022
40
0.562500000000022
40
0.562500000000022
40
0.593750000000022
40
0.593750000000022
40
0.625000000000022
40
0.625000000000022
40
0.656250000000021
40
0.656250000000021
40
0.671875000000021
40
0.671875000000021
40
0.679687500000021
40
0.679687500000021
40
0.687500000000021
40
0.687500000000021
40
0.718750000000019
40
0.718750000000019
40
0.750000000000016
40
0.750000000000016
40
0.781250000000014
40
0.781250000000014
40
0.812500000000012
40
0.812500000000012
40
0.84375000000001
40
0.84375000000001
40
0.875000000000008
40
0.875000000000008
40
0.906250000000006
40
0.906250000000006
40
0.937500000000004
40
0.937500000000004
40
0.968750000000002
40
0.968750000000002
40
1
40
1
40
1
40
1
41
1
10
219.8
20
2.06478062508424
30
0
41
1
10
219.889590034317
20
1.48640564441126
30
0
41
1
10
219.979180068633
20
0.914235111207773
30
0
41
1
10
220.079968857239
20
0.286838372260746
30
0
41
1
10
220.091167611529
20
0.217350819795286
30
0
41
1
10
220.113565120108
20
0.0788490198247587
30
0
41
1
10
220.124763874398
20
0.0099952632151599
30
0
41
1
10
220.158360137266
20
-0.197140825956808
30
0
41
1
10
220.180757645846
20
-0.336201126397555
30
0
41
1
10
220.247950171583
20
-0.755966757804003
30
0
41
1
10
220.292745188741
20
-1.03926644486432
30
0
41
1
10
220.427130240216
20
-1.89658950624315
30
0
41
1
10
220.516720274533
20
-2.47816793762667
30
0
41
1
10
220.695900343166
20
-3.64222121637178
30
0
41
1
10
220.785490377483
20
-4.22463426158868
30
0
41
1
10
220.964670446116
20
-5.3676644085501
30
0
41
1
10
221.054260480433
20
-5.92818928951561
30
0
41
1
10
221.233440549066
20
-7.00361902236222
30
0
41
1
10
221.323030583382
20
-7.51842027749939
30
0
41
1
10
221.502210652016
20
-8.48046992732139
30
0
41
1
10
221.591800686332
20
-8.92763031096052
30
0
41
1
10
221.770980754966
20
-9.73733810701518
30
0
41
1
10
221.860570789282
20
-10.0998368810893
30
0
41
1
10
222.039750857915
20
-10.7301668934238
30
0
41
1
10
222.129340892232
20
-10.9979989585384
30
0
41
1
10
222.308520960865
20
-11.4366864760461
30
0
41
1
10
222.398110995182
20
-11.6075853925352
30
0
41
1
10
222.577291063815
20
-11.8571375750264
30
0
41
1
10
222.666881098132
20
-11.9358586030834
30
0
41
1
10
222.778868641027
20
-11.9828720647988
30
0
41
1
10
222.812464903896
20
-11.9931368697975
30
0
41
1
10
222.846061166765
20
-11.9978563127088
30
0
41
1
10
222.868458675344
20
-11.9997952621176
30
0
41
1
10
222.879657429633
20
-12.0001617518629
30
0
41
1
10
222.935651201081
20
-11.9990303463259
30
0
41
1
10
222.98044621824
20
-11.9885838371784
30
0
41
1
10
223.114831269715
20
-11.9263057449802
30
0
41
1
10
223.204421304031
20
-11.8433942706762
30
0
41
1
10
223.383601372664
20
-11.5850984812087
30
0
41
1
10
223.473191406981
20
-11.4096470778141
30
0
41
1
10
223.652371475615
20
-10.9617911139571
30
0
41
1
10
223.741961509931
20
-10.6893447577423
30
0
41
1
10
223.921141578564
20
-10.0500842334776
30
0
41
1
10
224.010731612881
20
-9.68327156100446
30
0
41
1
10
224.189911681514
20
-8.8655962241279
30
0
41
1
10
224.279501715831
20
-8.41478443505054
30
0
41
1
10
224.458681784464
20
-7.44638354178556
30
0
41
1
10
224.548271818781
20
-6.92888380157899
30
0
41
1
10
224.727451887414
20
-5.8491723414443
30
0
41
1
10
224.81704192173
20
-5.28706426257799
30
0
41
1
10
224.996221990364
20
-4.14199692672082
30
0
41
1
10
225.08581202468
20
-3.55912877877878
30
0
41
1
10
225.264992093313
20
-2.39517588063867
30
0
41
1
10
225.35458212763
20
-1.8141512337227
30
0
41
1
10
225.488967179105
20
-0.958261822430842
30
0
41
1
10
225.533762196263
20
-0.675540000221957
30
0
41
1
10
225.600954722001
20
-0.256769081874751
30
0
41
1
10
225.62335223058
20
-0.118235389592485
30
0
41
1
10
225.668147247738
20
0.157575605747724
30
0
41
1
10
225.690544756317
20
0.29646043583395
30
0
41
1
10
225.802532299213
20
0.995245960660696
30
0
41
1
10
225.89212233353
20
1.56841967484172
30
0
41
1
10
226.071302402163
20
2.72626952917335
30
0
41
1
10
226.16089243648
20
3.31090296243335
30
0
41
1
10
226.340072505113
20
4.47057172679746
30
0
41
1
10
226.42966253943
20
5.04552919981379
30
0
41
1
10
226.608842608063
20
6.16226710493268
30
0
41
1
10
226.698432642379
20
6.70394682598268
30
0
41
1
10
226.877612711013
20
7.73081181036204
30
0
41
1
10
226.967202745329
20
8.21589743945694
30
0
41
1
10
227.146382813962
20
9.10962465335859
30
0
41
1
10
227.235972848279
20
9.51819466532413
30
0
41
1
10
227.415152916912
20
10.2449786316601
30
0
41
1
10
227.504742951229
20
10.5631673192635
30
0
41
1
10
227.683923019862
20
11.1028239488338
30
0
41
1
10
227.773513054179
20
11.3243147853284
30
0
41
1
10
227.952693122812
20
11.6717844837346
30
0
41
1
10
228.042283157129
20
11.7978210185726
30
0
41
1
10
228.221463225762
20
11.9618928046226
30
0
41
1
10
228.311053260078
20
12
30
0
41
1
10
228.400643294395
20
12
30
0
0
SPLINE
5
EA
100
AcDbEntity
8
1
62
256
6
ByLayer
370
13
48
1
60
0
100
AcDbSpline
70
4
71
3
72
43
73
39
40
0
40
0
40
0
40
0
40
0.0624999999999989
40
0.0624999999999989
40
0.124999999999998
40
0.124999999999998
40
0.187499999999997
40
0.187499999999997
40
0.249999999999996
40
0.249999999999996
40
0.312499999999994
40
0.312499999999994
40
0.374999999999993
40
0.374999999999993
40
0.437499999999992
40
0.437499999999992
40
0.499999999999991
40
0.499999999999991
40
0.56249999999999
40
0.56249999999999
40
0.624999999999989
40
0.624999999999989
40
0.687499999999988
40
0.687499999999988
40
0.749999999999986
40
0.749999999999986
40
0.812499999999985
40
0.812499999999985
40
0.843749999999985
40
0.843749999999985
40
0.851562499999986
40
0.851562499999986
40
0.859374999999986
40
0.874999999999987
40
0.874999999999987
40
0.937499999999993
40
0.937499999999993
40
1
40
1
40
1
40
1
41
1
10
227.581486778909
20
12
30
0
41
1
10
227.649213245782
20
12
30
0
41
1
10
227.716939712654
20
11.978255618791
30
0
41
1
10
227.8523926464
20
11.886078398901
30
0
41
1
10
227.920119113273
20
11.8156276011691
30
0
41
1
10
228.055572047019
20
11.6220171040493
30
0
41
1
10
228.123298513892
20
11.4988406917285
30
0
41
1
10
228.258751447637
20
11.1975016397165
30
0
41
1
10
228.32647791451
20
11.0193264900855
30
0
41
1
10
228.461930848256
20
10.6079058804291
30
0
41
1
10
228.529657315129
20
10.3746549545367
30
0
41
1
10
228.665110248874
20
9.85547215557455
30
0
41
1
10
228.732836715747
20
9.56954377863298
30
0
41
1
10
228.868289649493
20
8.94990460149728
30
0
41
1
10
228.936016116366
20
8.61620655762286
30
0
41
1
10
229.071469050111
20
7.90819128543248
30
0
41
1
10
229.139195516984
20
7.53389447716594
30
0
41
1
10
229.27464845073
20
6.75360396972567
30
0
41
1
10
229.342374917603
20
6.34763518100397
30
0
41
1
10
229.477827851349
20
5.51398855068442
30
0
41
1
10
229.545554318221
20
5.08633618364428
30
0
41
1
10
229.681007251967
20
4.21960447396529
30
0
41
1
10
229.74873371884
20
3.78054750425739
30
0
41
1
10
229.884186652586
20
2.90085160984339
30
0
41
1
10
229.951913119459
20
2.46022937410803
30
0
41
1
10
230.087366053204
20
1.58621620372079
30
0
41
1
10
230.155092520077
20
1.15283515490592
30
0
41
1
10
230.256682220386
20
0.513721983173497
30
0
41
1
10
230.290545453823
20
0.302498582096803
30
0
41
1
10
230.332874495618
20
0.0412182321264822
30
0
41
1
10
230.341340303977
20
-0.0108110576746583
30
0
41
1
10
230.358271920696
20
-0.115216104089257
30
0
41
1
10
230.383669345773
20
-0.272238413569625
30
0
41
1
10
230.40906677085
20
-0.430454606784139
30
0
41
1
10
230.493724854441
20
-0.96025615971709
30
0
41
1
10
230.561451321314
20
-1.3918851165009
30
0
41
1
10
230.69690425506
20
-2.2635919439665
30
0
41
1
10
230.764630721933
20
-2.70366095191852
30
0
41
1
10
230.832357188806
20
-3.14365141373736
30
0
0
SPLINE
5
EB
100
AcDbEntity
8
1
62
256
6
ByLayer
370
13
48
1
60
0
100
AcDbSpline
70
4
71
3
72
78
73
74
40
0
40
0
40
0
40
0
40
0.0312499999999979
40
0.0312499999999979
40
0.0624999999999957
40
0.0624999999999957
40
0.0937499999999936
40
0.0937499999999936
40
0.124999999999992
40
0.124999999999992
40
0.156249999999989
40
0.156249999999989
40
0.187499999999987
40
0.187499999999987
40
0.218749999999985
40
0.218749999999985
40
0.249999999999983
40
0.249999999999983
40
0.281249999999981
40
0.281249999999981
40
0.312499999999979
40
0.312499999999979
40
0.320312499999979
40
0.320312499999979
40
0.328124999999979
40
0.328124999999979
40
0.343749999999979
40
0.343749999999979
40
0.374999999999979
40
0.374999999999979
40
0.406249999999979
40
0.406249999999979
40
0.437499999999979
40
0.437499999999979
40
0.468749999999979
40
0.468749999999979
40
0.499999999999979
40
0.499999999999979
40
0.531249999999978
40
0.531249999999978
40
0.562499999999978
40
0.562499999999978
40
0.593749999999978
40
0.593749999999978
40
0.624999999999978
40
0.624999999999978
40
0.656249999999978
40
0.656249999999978
40
0.664062499999978
40
0.664062499999978
40
0.671874999999979
40
0.671874999999979
40
0.68749999999998
40
0.68749999999998
40
0.718749999999982
40
0.718749999999982
40
0.749999999999984
40
0.749999999999984
40
0.781249999999986
40
0.781249999999986
40
0.812499999999988
40
0.812499999999988
40
0.84374999999999
40
0.84374999999999
40
0.874999999999992
40
0.874999999999992
40
0.906249999999994
40
0.906249999999994
40
0.937499999999996
40
0.937499999999996
40
0.968749999999998
40
0.968749999999998
40
1
40
1
40
1
40
1
41
1
10
219.8
20
-0.999551975325801
30
0
41
1
10
219.884523962554
20
-1.53495726636885
30
0
41
1
10
219.969047925108
20
-2.08067535309337
30
0
41
1
10
220.138095850216
20
-3.17744609566461
30
0
41
1
10
220.22261981277
20
-3.72845922166397
30
0
41
1
10
220.391667737878
20
-4.81740896124165
30
0
41
1
10
220.476191700432
20
-5.35528240746379
30
0
41
1
10
220.645239625541
20
-6.39800520092433
30
0
41
1
10
220.729763588095
20
-6.90277791019648
30
0
41
1
10
220.898811513203
20
-7.85996003811559
30
0
41
1
10
220.983335475757
20
-8.31229619827764
30
0
41
1
10
221.152383400865
20
-9.14819259924531
30
0
41
1
10
221.236907363419
20
-9.5317007811212
30
0
41
1
10
221.405955288527
20
-10.2184014097185
30
0
41
1
10
221.490479251081
20
-10.5215747381595
30
0
41
1
10
221.659527176189
20
-11.0420430837105
30
0
41
1
10
221.744051138743
20
-11.2593532139746
30
0
41
1
10
221.913099063851
20
-11.6085643812744
30
0
41
1
10
221.997623026405
20
-11.7405062830359
30
0
41
1
10
222.166670951514
20
-11.9246020440102
30
0
41
1
10
222.251194914068
20
-11.9768090018322
30
0
41
1
10
222.35684986726
20
-11.9980183307553
30
0
41
1
10
222.377980857899
20
-12.000064477665
30
0
41
1
10
222.420242839176
20
-11.9999324292674
30
0
41
1
10
222.441373829814
20
-11.9977516486125
30
0
41
1
10
222.50476680173
20
-11.9846143631386
30
0
41
1
10
222.547028783007
20
-11.9670579531011
30
0
41
1
10
222.673814726838
20
-11.8861420179317
30
0
41
1
10
222.758338689392
20
-11.7944155195425
30
0
41
1
10
222.9273866145
20
-11.5278558495346
30
0
41
1
10
223.011910577054
20
-11.3529740189736
30
0
41
1
10
223.180958502162
20
-10.9169039270783
30
0
41
1
10
223.265482464716
20
-10.6556863667946
30
0
41
1
10
223.434530389824
20
-10.0494190436796
30
0
41
1
10
223.519054352379
20
-9.70437102851218
30
0
41
1
10
223.688102277487
20
-8.93904450118654
30
0
41
1
10
223.772626240041
20
-8.51880269965912
30
0
41
1
10
223.941674165149
20
-7.61724617973434
30
0
41
1
10
224.026198127703
20
-7.13599628747056
30
0
41
1
10
224.195246052811
20
-6.13057695247053
30
0
41
1
10
224.279770015365
20
-5.60648481902385
30
0
41
1
10
224.448817940473
20
-4.53533154661403
30
0
41
1
10
224.533341903027
20
-3.98834198437319
30
0
41
1
10
224.702389828135
20
-2.89083870869419
30
0
41
1
10
224.786913790689
20
-2.3403768892955
30
0
41
1
10
224.955961715797
20
-1.25296862102502
30
0
41
1
10
225.040485678351
20
-0.716048554325823
30
0
41
1
10
225.146140631544
20
-0.0617489855227689
30
0
41
1
10
225.167271622182
20
0.0678547201410424
30
0
41
1
10
225.20953360346
20
0.329626499390884
30
0
41
1
10
225.230664594098
20
0.461343971465823
30
0
41
1
10
225.294057566014
20
0.858711394616165
30
0
41
1
10
225.336319547291
20
1.12658392998372
30
0
41
1
10
225.463105491122
20
1.93656886578762
30
0
41
1
10
225.547629453676
20
2.48515199930529
30
0
41
1
10
225.716677378784
20
3.58336132314801
30
0
41
1
10
225.801201341338
20
4.13294169193779
30
0
41
1
10
225.970249266446
20
5.21418435359888
30
0
41
1
10
226.054773229
20
5.74577889988157
30
0
41
1
10
226.223821154108
20
6.77103778816698
30
0
41
1
10
226.308345116662
20
7.2646246032688
30
0
41
1
10
226.47739304177
20
8.19503891387058
30
0
41
1
10
226.561917004324
20
8.63179683666266
30
0
41
1
10
226.730964929433
20
9.43318534024664
30
0
41
1
10
226.815488891987
20
9.79777124352276
30
0
41
1
10
226.984536817095
20
10.4446838528438
30
0
41
1
10
227.069060779649
20
10.7270001726995
30
0
41
1
10
227.238108704757
20
11.2053306342089
30
0
41
1
10
227.322632667311
20
11.401367306024
30
0
41
1
10
227.491680592419
20
11.7089867197459
30
0
41
1
10
227.576204554973
20
11.820614656578
30
0
41
1
10
227.745252480081
20
11.9660942970192
30
0
41
1
10
227.829776442635
20
12
30
0
41
1
10
227.914300405189
20
12
30
0
0
SPLINE
5
EC
100
AcDbEntity
8
1
62
256
6
ByLayer
370
13
48
1
60
0
100
AcDbSpline
70
4
71
3
72
44
73
40
40
0
40
0
40
0
40
0
40
0.062499999999998
40
0.062499999999998
40
0.124999999999996
40
0.124999999999996
40
0.187499999999994
40
0.187499999999994
40
0.249999999999992
40
0.249999999999992
40
0.31249999999999
40
0.31249999999999
40
0.374999999999988
40
0.374999999999988
40
0.437499999999986
40
0.437499999999986
40
0.499999999999984
40
0.499999999999984
40
0.562499999999982
40
0.562499999999982
40
0.62499999999998
40
0.62499999999998
40
0.687499999999978
40
0.687499999999978
40
0.718749999999977
40
0.718749999999977
40
0.734374999999977
40
0.734374999999977
40
0.742187499999976
40
0.742187499999976
40
0.749999999999976
40
0.749999999999976
40
0.812499999999982
40
0.812499999999982
40
0.874999999999988
40
0.874999999999988
40
0.937499999999994
40
0.937499999999994
40
1
40
1
40
1
40
1
41
1
10
227.095143889703
20
12
30
0
41
1
10
227.173002500101
20
12
30
0
41
1
10
227.250861110499
20
11.9712447212525
30
0
41
1
10
227.406578331295
20
11.8484400464722
30
0
41
1
10
227.484436941693
20
11.754354696743
30
0
41
1
10
227.640154162489
20
11.4952968854857
30
0
41
1
10
227.718012772887
20
11.3302928439587
30
0
41
1
10
227.873729993683
20
10.9271036554259
30
0
41
1
10
227.951588604081
20
10.6888991844045
30
0
41
1
10
228.107305824877
20
10.1411084711338
30
0
41
1
10
228.185164435275
20
9.83152177612808
30
0
41
1
10
228.340881656071
20
9.14717896046517
30
0
41
1
10
228.418740266469
20
8.77244388686248
30
0
41
1
10
228.574457487265
20
7.96812591978096
30
0
41
1
10
228.652316097662
20
7.5385826065118
30
0
41
1
10
228.808033318459
20
6.63815247821321
30
0
41
1
10
228.885891928856
20
6.16731579152841
30
0
41
1
10
229.041609149652
20
5.19960545403586
30
0
41
1
10
229.11946776005
20
4.70278214994025
30
0
41
1
10
229.275184980846
20
3.69865950331038
30
0
41
1
10
229.353043591244
20
3.19140150832445
30
0
41
1
10
229.50876081204
20
2.18081609863734
30
0
41
1
10
229.586619422438
20
1.67751550156555
30
0
41
1
10
229.703407338035
20
0.934671886023835
30
0
41
1
10
229.742336643234
20
0.689055648680551
30
0
41
1
10
229.800730601033
20
0.32457946249076
30
0
41
1
10
229.820195253632
20
0.203744048680477
30
0
41
1
10
229.849392232531
20
0.0235821686081863
30
0
41
1
10
229.859124558831
20
-0.0362116049167582
30
0
41
1
10
229.87858921143
20
-0.156370497744859
30
0
41
1
10
229.88832153773
20
-0.216631131490999
30
0
41
1
10
229.975912474428
20
-0.760529182834887
30
0
41
1
10
230.053771084826
20
-1.25514848350915
30
0
41
1
10
230.209488305622
20
-2.25618371153007
30
0
41
1
10
230.28734691602
20
-2.76258258122957
30
0
41
1
10
230.443064136816
20
-3.77406012927298
30
0
41
1
10
230.520922747214
20
-4.27910604785509
30
0
41
1
10
230.67663996801
20
-5.27290719565133
30
0
41
1
10
230.754498578408
20
-5.76161673133277
30
0
41
1
10
230.832357188806
20
-6.23436486714093
30
0
0
SPLINE
5
ED
100
AcDbEntity
8
1
62
256
6
ByLayer
370
13
48
1
60
0
100
AcDbSpline
70
4
71
3
72
79
73
75
40
0
40
0
40
0
40
0
40
0.0312500000000007
40
0.0312500000000007
40
0.0625000000000015
40
0.0625000000000015
40
0.0937500000000022
40
0.0937500000000022
40
0.125000000000003
40
0.125000000000003
40
0.156250000000004
40
0.156250000000004
40
0.187500000000004
40
0.187500000000004
40
0.218750000000005
40
0.218750000000005
40
0.250000000000006
40
0.250000000000006
40
0.265625000000006
40
0.265625000000006
40
0.273437500000006
40
0.273437500000006
40
0.281250000000006
40
0.281250000000006
40
0.312500000000007
40
0.312500000000007
40
0.343750000000008
40
0.343750000000008
40
0.375000000000009
40
0.375000000000009
40
0.40625000000001
40
0.40625000000001
40
0.437500000000011
40
0.437500000000011
40
0.468750000000011
40
0.468750000000011
40
0.500000000000012
40
0.500000000000012
40
0.531250000000013
40
0.531250000000013
40
0.562500000000014
40
0.562500000000014
40
0.593750000000015
40
0.593750000000015
40
0.625000000000016
40
0.625000000000016
40
0.632812500000016
40
0.636718750000016
40
0.636718750000016
40
0.640625000000017
40
0.640625000000017
40
0.656250000000016
40
0.656250000000016
40
0.687500000000015
40
0.687500000000015
40
0.718750000000013
40
0.718750000000013
40
0.750000000000012
40
0.750000000000012
40
0.78125000000001
40
0.78125000000001
40
0.812500000000009
40
0.812500000000009
40
0.843750000000007
40
0.843750000000007
40
0.875000000000006
40
0.875000000000006
40
0.906250000000004
40
0.906250000000004
40
0.937500000000003
40
0.937500000000003
40
0.968750000000001
40
0.968750000000001
40
1
40
1
40
1
40
1
41
1
10
219.8
20
-4.13881326646191
30
0
41
1
10
219.879457890792
20
-4.65161581282882
30
0
41
1
10
219.958915781583
20
-5.15928819131699
30
0
41
1
10
220.117831563166
20
-6.14795816832719
30
0
41
1
10
220.197289453958
20
-6.62890016540857
30
0
41
1
10
220.356205235541
20
-7.54782614760273
30
0
41
1
10
220.435663126332
20
-7.9857546633867
30
0
41
1
10
220.594578907915
20
-8.80430225397942
30
0
41
1
10
220.674036798707
20
-9.184877878598
30
0
41
1
10
220.832952580289
20
-9.87782933352128
30
0
41
1
10
220.912410471081
20
-10.1901828274829
30
0
41
1
10
221.071326252664
20
-10.7402782770268
30
0
41
1
10
221.150784143456
20
-10.9780221565011
30
0
41
1
10
221.309699925038
20
-11.3772771704535
30
0
41
1
10
221.38915781583
20
-11.5388111119183
30
0
41
1
10
221.548073597413
20
-11.7884259383606
30
0
41
1
10
221.627531488204
20
-11.8765426607046
30
0
41
1
10
221.746718324392
20
-11.9583287339877
30
0
41
1
10
221.786447269787
20
-11.9772162469417
30
0
41
1
10
221.846040687881
20
-11.9937416656174
30
0
41
1
10
221.865905160579
20
-11.9972835064996
30
0
41
1
10
221.905634105975
20
-12.0005704698202
30
0
41
1
10
221.925498578673
20
-12.0003352805102
30
0
41
1
10
222.024820942162
20
-11.9896995860581
30
0
41
1
10
222.104278832953
20
-11.9505994110387
30
0
41
1
10
222.263194614536
20
-11.8032396074105
30
0
41
1
10
222.342652505328
20
-11.6949404190537
30
0
41
1
10
222.501568286911
20
-11.4037723458113
30
0
41
1
10
222.581026177702
20
-11.2208703695953
30
0
41
1
10
222.739941959285
20
-10.7788517302077
30
0
41
1
10
222.819399850077
20
-10.5197174857357
30
0
41
1
10
222.97831563166
20
-9.92814936462264
30
0
41
1
10
223.057773522452
20
-9.5957203211
30
0
41
1
10
223.216689304035
20
-8.86525192213722
30
0
41
1
10
223.296147194826
20
-8.46724146398256
30
0
41
1
10
223.455062976409
20
-7.6175679579307
30
0
41
1
10
223.534520867201
20
-7.16595286312196
30
0
41
1
10
223.693436648783
20
-6.22411768070242
30
0
41
1
10
223.772894539575
20
-5.7339543193178
30
0
41
1
10
223.931810321158
20
-4.73154636954533
30
0
41
1
10
224.011268211949
20
-4.21935536495704
30
0
41
1
10
224.170183993532
20
-3.18919162112914
30
0
41
1
10
224.249641884324
20
-2.67125979098825
30
0
41
1
10
224.408557665907
20
-1.64423897755557
30
0
41
1
10
224.488015556698
20
-1.13517354502326
30
0
41
1
10
224.587337920188
20
-0.511849493860922
30
0
41
1
10
224.617134629235
20
-0.325817006442605
30
0
41
1
10
224.646931338281
20
-0.141407816156999
30
0
41
1
10
224.666795810979
20
-0.018847236722479
30
0
41
1
10
224.676728047328
20
0.0421761535450855
30
0
41
1
10
224.726389229073
20
0.348817706533737
30
0
41
1
10
224.766118174468
20
0.597152208454048
30
0
41
1
10
224.885305010656
20
1.34932979530129
30
0
41
1
10
224.964762901447
20
1.86043598531882
30
0
41
1
10
225.12367868303
20
2.88962682306217
30
0
41
1
10
225.203136573822
20
3.40768539008616
30
0
41
1
10
225.362052355405
20
4.4358829178619
30
0
41
1
10
225.441510246196
20
4.94597877667604
30
0
41
1
10
225.600426027779
20
5.94184638984666
30
0
41
1
10
225.679883918571
20
6.42756344931129
30
0
41
1
10
225.838799700154
20
7.35825588069739
30
0
41
1
10
225.918257590945
20
7.80317503273977
30
0
41
1
10
226.077173372528
20
8.6375474247281
30
0
41
1
10
226.15663126332
20
9.02695486353986
30
0
41
1
10
226.315547044903
20
9.73884957760768
30
0
41
1
10
226.395004935694
20
10.0613111946555
30
0
41
1
10
226.553920717277
20
10.6322355241755
30
0
41
1
10
226.633378608069
20
10.8806968087279
30
0
41
1
10
226.792294389652
20
11.3013330265982
30
0
41
1
10
226.871752280443
20
11.4735282304398
30
0
41
1
10
227.030668062026
20
11.7438378182667
30
0
41
1
10
227.110125952818
20
11.8419867591879
30
0
41
1
10
227.269041734401
20
11.9700479654288
30
0
41
1
10
227.348499625192
20
12
30
0
41
1
10
227.427957515984
20
12
30
0
0
SPLINE
5
EE
100
AcDbEntity
8
1
62
256
6
ByLayer
370
13
48
1
60
0
100
AcDbSpline
70
4
71
3
72
43
73
39
40
0
40
0
40
0
40
0
40
0.0625
40
0.0625
40
0.125
40
0.125
40
0.1875
40
0.1875
40
0.25
40
0.25
40
0.3125
40
0.3125
40
0.375
40
0.375
40
0.4375
40
0.4375
40
0.5
40
0.5
40
0.5625
40
0.5625
40
0.625
40
0.625
40
0.640625
40
0.6484375
40
0.6484375
40
0.65625
40
0.65625
40
0.6875
40
0.6875
40
0.75
40
0.75
40
0.8125
40
0.8125
40
0.875
40
0.875
40
0.9375
40
0.9375
40
1
40
1
40
1
40
1
41
1
10
226.608801000497
20
12
30
0
41
1
10
226.696791754421
20
12
30
0
41
1
10
226.784782508344
20
11.9632459625487
30
0
41
1
10
226.96076401619
20
11.8051707798006
30
0
41
1
10
227.048754770113
20
11.6837837938517
30
0
41
1
10
227.224736277959
20
11.3491689426591
30
0
41
1
10
227.312727031882
20
11.1358875391819
30
0
41
1
10
227.488708539728
20
10.61597788488
30
0
41
1
10
227.576699293651
20
10.3093265795107
30
0
41
1
10
227.752680801497
20
9.60815674939587
30
0
41
1
10
227.840671555421
20
9.21365803848286
30
0
41
1
10
228.016653063267
20
8.34934531172286
30
0
41
1
10
228.10464381719
20
7.87959343946636
30
0
41
1
10
228.280625325036
20
6.88315231726267
30
0
41
1
10
228.368616078959
20
6.35655254329427
30
0
41
1
10
228.544597586805
20
5.26827483452979
30
0
41
1
10
228.632588340728
20
4.70669020572132
30
0
41
1
10
228.808569848575
20
3.570947007238
30
0
41
1
10
228.896560602498
20
2.99686357606421
30
0
41
1
10
229.072542110344
20
1.85666611347491
30
0
41
1
10
229.160532864267
20
1.29059651068567
30
0
41
1
10
229.270521306671
20
0.598459869104829
30
0
41
1
10
229.303517839392
20
0.391961612998927
30
0
41
1
10
229.336514372113
20
0.187420715645772
30
0
41
1
10
229.358512060594
20
0.0515199671318953
30
0
41
1
10
229.369510904834
20
-0.0160512873934806
30
0
41
1
10
229.424505126036
20
-0.355399997210981
30
0
41
1
10
229.468500502998
20
-0.630605137910294
30
0
41
1
10
229.600486633882
20
-1.46482219342937
30
0
41
1
10
229.688477387805
20
-2.03256700547891
30
0
41
1
10
229.864458895652
20
-3.17415395890077
30
0
41
1
10
229.952449649575
20
-3.74794827147008
30
0
41
1
10
230.128431157421
20
-4.8808476659263
30
0
41
1
10
230.216421911344
20
-5.43987495483222
30
0
41
1
10
230.39240341919
20
-6.52070523107264
30
0
41
1
10
230.480394173113
20
-7.04241418355181
30
0
41
1
10
230.65637568096
20
-8.02696624832856
30
0
41
1
10
230.744366434882
20
-8.4897216854001
30
0
41
1
10
230.832357188806
20
-8.9140795226314
30
0
0
SPLINE
5
EF
100
AcDbEntity
8
1
62
256
6
ByLayer
370
13
48
1
60
0
100
AcDbSpline
70
4
71
3
72
79
73
75
40
0
40
0
40
0
40
0
40
0.0312500000000008
40
0.0312500000000008
40
0.0625000000000016
40
0.0625000000000016
40
0.0937500000000025
40
0.0937500000000025
40
0.125000000000003
40
0.125000000000003
40
0.156250000000004
40
0.156250000000004
40
0.187500000000005
40
0.187500000000005
40
0.218750000000006
40
0.218750000000006
40
0.226562500000006
40
0.226562500000006
40
0.230468750000006
40
0.230468750000006
40
0.234375000000006
40
0.250000000000007
40
0.250000000000007
40
0.281250000000008
40
0.281250000000008
40
0.312500000000008
40
0.312500000000008
40
0.343750000000009
40
0.343750000000009
40
0.37500000000001
40
0.37500000000001
40
0.406250000000011
40
0.406250000000011
40
0.437500000000012
40
0.437500000000012
40
0.468750000000013
40
0.468750000000013
40
0.500000000000014
40
0.500000000000014
40
0.531250000000015
40
0.531250000000015
40
0.562500000000016
40
0.562500000000016
40
0.593750000000016
40
0.593750000000016
40
0.609375000000017
40
0.609375000000017
40
0.617187500000017
40
0.617187500000017
40
0.625000000000017
40
0.625000000000017
40
0.656250000000015
40
0.656250000000015
40
0.687500000000014
40
0.687500000000014
40
0.718750000000013
40
0.718750000000013
40
0.750000000000011
40
0.750000000000011
40
0.78125000000001
40
0.78125000000001
40
0.812500000000008
40
0.812500000000008
40
0.843750000000007
40
0.843750000000007
40
0.875000000000006
40
0.875000000000006
40
0.906250000000004
40
0.906250000000004
40
0.937500000000003
40
0.937500000000003
40
0.968750000000001
40
0.968750000000001
40
1
40
1
40
1
40
1
41
1
10
219.8
20
-7.14374445696822
30
0
41
1
10
219.874391819029
20
-7.57228629619834
30
0
41
1
10
219.948783638058
20
-7.98169103465918
30
0
41
1
10
220.097567276116
20
-8.75055470202159
30
0
41
1
10
220.171959095145
20
-9.10998204303672
30
0
41
1
10
220.320742733203
20
-9.76977663682337
30
0
41
1
10
220.395134552232
20
-10.0701263195215
30
0
41
1
10
220.543918190289
20
-10.6060455793366
30
0
41
1
10
220.618310009318
20
-10.8416139654528
30
0
41
1
10
220.767093647376
20
-11.2459316558253
30
0
41
1
10
220.841485466405
20
-11.4146945720022
30
0
41
1
10
220.990269104463
20
-11.6868474590293
30
0
41
1
10
221.064660923492
20
-11.7902612994197
30
0
41
1
10
221.21344456155
20
-11.9360653666366
30
0
41
1
10
221.287836380579
20
-11.9784839857017
30
0
41
1
10
221.380826154365
20
-11.997396286676
30
0
41
1
10
221.399424109122
20
-11.9994771069731
30
0
41
1
10
221.427321041258
20
-12.0001311778709
30
0
41
1
10
221.436620018637
20
-11.9999401272567
30
0
41
1
10
221.455217973394
20
-11.9987304608969
30
0
41
1
10
221.501712860287
20
-11.9936344350415
30
0
41
1
10
221.54820774718
20
-11.9779921478613
30
0
41
1
10
221.659795475724
20
-11.9189100862958
30
0
41
1
10
221.734187294753
20
-11.8507350510366
30
0
41
1
10
221.882970932811
20
-11.6512220949348
30
0
41
1
10
221.957362751839
20
-11.5198570392278
30
0
41
1
10
222.106146389897
20
-11.1907694251746
30
0
41
1
10
222.180538208926
20
-10.9930267659909
30
0
41
1
10
222.329321846984
20
-10.5311717764499
30
0
41
1
10
222.403713666013
20
-10.2670518322118
30
0
41
1
10
222.552497304071
20
-9.67604843933165
30
0
41
1
10
222.6268891231
20
-9.34917331260061
30
0
41
1
10
222.775672761158
20
-8.63988397313005
30
0
41
1
10
222.850064580187
20
-8.25749392993748
30
0
41
1
10
222.998848218244
20
-7.44752579250027
30
0
41
1
10
223.073240037273
20
-7.01998370020553
30
0
41
1
10
223.222023675331
20
-6.13226739646603
30
0
41
1
10
223.29641549436
20
-5.67213417646579
30
0
41
1
10
223.445199132418
20
-4.7328131419471
30
0
41
1
10
223.519590951447
20
-4.25366378819166
30
0
41
1
10
223.668374589505
20
-3.28968906362763
30
0
41
1
10
223.742766408534
20
-2.80489363783042
30
0
41
1
10
223.891550046592
20
-1.84175931513991
30
0
41
1
10
223.96594186562
20
-1.36343874662407
30
0
41
1
10
224.077529594164
20
-0.658415266303308
30
0
41
1
10
224.114725503679
20
-0.425466561066372
30
0
41
1
10
224.17051936795
20
-0.079918648931681
30
0
41
1
10
224.189117322707
20
0.0342083225458509
30
0
41
1
10
224.226313232222
20
0.264228993470482
30
0
41
1
10
224.244911186979
20
0.379892065498922
30
0
41
1
10
224.337900960765
20
0.961158202732207
30
0
41
1
10
224.412292779794
20
1.43570393016591
30
0
41
1
10
224.561076417852
20
2.39438110778354
30
0
41
1
10
224.635468236881
20
2.87849765138975
30
0
41
1
10
224.784251874939
20
3.84470949194818
30
0
41
1
10
224.858643693968
20
4.32677795768979
30
0
41
1
10
225.007427332026
20
5.27579289918083
30
0
41
1
10
225.081819151055
20
5.74270282886496
30
0
41
1
10
225.230602789113
20
6.64776859028439
30
0
41
1
10
225.304994608141
20
7.0858834139548
30
0
41
1
10
225.453778246199
20
7.92038198722096
30
0
41
1
10
225.528170065228
20
8.31672755288969
30
0
41
1
10
225.676953703286
20
9.05658311630225
30
0
41
1
10
225.751345522315
20
9.40006503045294
30
0
41
1
10
225.900129160373
20
10.0259824186982
30
0
41
1
10
225.974520979402
20
10.3084048976321
30
0
41
1
10
226.12330461746
20
10.8075186054942
30
0
41
1
10
226.197696436489
20
11.0242131530755
30
0
41
1
10
226.346480074546
20
11.3908582902552
30
0
41
1
10
226.420871893576
20
11.5408259458655
30
0
41
1
10
226.569655531633
20
11.7763577890482
30
0
41
1
10
226.644047350662
20
11.8619477139741
30
0
41
1
10
226.79283098872
20
11.9737544836285
30
0
41
1
10
226.867222807749
20
12
30
0
41
1
10
226.941614626778
20
12
30
0
0
SPLINE
5
F0
100
AcDbEntity
8
1
62
256
6
ByLayer
370
13
48
1
60
0
100
AcDbSpline
70
4
71
3
72
42
73
38
40
0
40
0
40
0
40
0
40
0.0624999999999984
40
0.0624999999999984
40
0.124999999999997
40
0.124999999999997
40
0.187499999999995
40
0.187499999999995
40
0.249999999999994
40
0.249999999999994
40
0.312499999999992
40
0.312499999999992
40
0.374999999999991
40
0.374999999999991
40
0.437499999999989
40
0.437499999999989
40
0.499999999999987
40
0.499999999999987
40
0.562499999999986
40
0.562499999999986
40
0.578124999999986
40
0.578124999999986
40
0.593749999999986
40
0.593749999999986
40
0.624999999999988
40
0.624999999999988
40
0.68749999999999
40
0.68749999999999
40
0.749999999999992
40
0.749999999999992
40
0.812499999999994
40
0.812499999999994
40
0.874999999999996
40
0.874999999999996
40
0.937499999999998
40
0.937499999999998
40
1
40
1
40
1
40
1
41
1
10
226.122458111292
20
12
30
0
41
1
10
226.22058100874
20
12
30
0
41
1
10
226.318703906188
20
11.9542538530204
30
0
41
1
10
226.514949701085
20
11.7561879897483
30
0
41
1
10
226.613072598533
20
11.6037559299846
30
0
41
1
10
226.809318393429
20
11.1834143542052
30
0
41
1
10
226.907441290878
20
10.9154223320159
30
0
41
1
10
227.103687085774
20
10.2645184376431
30
0
41
1
10
227.201809983222
20
9.88159104608113
30
0
41
1
10
227.398055778118
20
9.01244092397687
30
0
41
1
10
227.496178675567
20
8.52628754867837
30
0
41
1
10
227.692424470463
20
7.47260932004366
30
0
41
1
10
227.790547367911
20
6.90522280008142
30
0
41
1
10
227.986793162808
20
5.71809019177542
30
0
41
1
10
228.084916060256
20
5.09850699749737
30
0
41
1
10
228.281161855152
20
3.83837290331593
30
0
41
1
10
228.3792847526
20
3.19795967378605
30
0
41
1
10
228.575530547497
20
1.92524448414611
30
0
41
1
10
228.673653444945
20
1.29302358986337
30
0
41
1
10
228.796307066755
20
0.522434626083083
30
0
41
1
10
228.820837791117
20
0.369284704779574
30
0
41
1
10
228.869899239841
20
0.0652154834727696
30
0
41
1
10
228.894429964203
20
-0.0851700988617381
30
0
41
1
10
228.96802213729
20
-0.541566913226831
30
0
41
1
10
229.017083586014
20
-0.850282009164857
30
0
41
1
10
229.164267932186
20
-1.78605688433783
30
0
41
1
10
229.262390829634
20
-2.42293772037732
30
0
41
1
10
229.458636624531
20
-3.69785958014873
30
0
41
1
10
229.556759521979
20
-4.33580328231665
30
0
41
1
10
229.753005316875
20
-5.58287460980034
30
0
41
1
10
229.851128214324
20
-6.19185390433404
30
0
41
1
10
230.04737400922
20
-7.3497715982798
30
0
41
1
10
230.145496906668
20
-7.89854844013678
30
0
41
1
10
230.341742701565
20
-8.9084054010944
30
0
41
1
10
230.439865599013
20
-9.3693617499037
30
0
41
1
10
230.636111393909
20
-10.1839690545278
30
0
41
1
10
230.734234291358
20
-10.5375727355557
30
0
41
1
10
230.832357188806
20
-10.8330883717448
30
0
0
SPLINE
5
F1
100
AcDbEntity
8
1
62
256
6
ByLayer
370
13
48
1
60
0
100
AcDbSpline
70
4
71
3
72
78
73
74
40
0
40
0
40
0
40
0
40
0.03125
40
0.03125
40
0.0625000000000001
40
0.0625000000000001
40
0.0937500000000001
40
0.0937500000000001
40
0.125
40
0.125
40
0.15625
40
0.15625
40
0.1640625
40
0.1640625
40
0.171875
40
0.171875
40
0.1875
40
0.1875
40
0.21875
40
0.21875
40
0.25
40
0.25
40
0.28125
40
0.28125
40
0.3125
40
0.3125
40
0.34375
40
0.34375
40
0.375
40
0.375
40
0.40625
40
0.40625
40
0.4375
40
0.4375
40
0.46875
40
0.46875
40
0.5
40
0.5
40
0.53125
40
0.53125
40
0.5625
40
0.5625
40
0.578125
40
0.578125
40
0.5859375
40
0.5859375
40
0.59375
40
0.59375
40
0.625
40
0.625
40
0.65625
40
0.65625
40
0.6875
40
0.6875
40
0.71875
40
0.71875
40
0.75
40
0.75
40
0.78125
40
0.78125
40
0.8125
40
0.8125
40
0.84375
40
0.84375
40
0.875
40
0.875
40
0.90625
40
0.90625
40
0.9375
40
0.9375
40
0.96875
40
0.96875
40
1
40
1
40
1
40
1
41
1
10
219.8
20
-9.61437430020158
30
0
41
1
10
219.869325747266
20
-9.91187839668854
30
0
41
1
10
219.938651494533
20
-10.1831821691577
30
0
41
1
10
220.077302989065
20
-10.6692115919576
30
0
41
1
10
220.146628736332
20
-10.8839376721019
30
0
41
1
10
220.285280230865
20
-11.2553905767946
30
0
41
1
10
220.354605978131
20
-11.4121273757372
30
0
41
1
10
220.493257472664
20
-11.6687948577686
30
0
41
1
10
220.56258321993
20
-11.7687422105274
30
0
41
1
10
220.701234714463
20
-11.9152263469849
30
0
41
1
10
220.770560461729
20
-11.961782980513
30
0
41
1
10
220.857217645812
20
-11.9897448643964
30
0
41
1
10
220.874549082629
20
-11.9938287031749
30
0
41
1
10
220.909211956262
20
-11.9990687777848
30
0
41
1
10
220.926543393079
20
-12.0002257559458
30
0
41
1
10
220.978537703528
20
-11.9994401731066
30
0
41
1
10
221.013200577162
20
-11.9932107493989
30
0
41
1
10
221.117189198061
20
-11.9563183724406
30
0
41
1
10
221.186514945328
20
-11.9074068962822
30
0
41
1
10
221.32516643986
20
-11.7560161934663
30
0
41
1
10
221.394492187127
20
-11.6535171869926
30
0
41
1
10
221.53314368166
20
-11.391638886649
30
0
41
1
10
221.602469428926
20
-11.2322431551588
30
0
41
1
10
221.741120923459
20
-10.855477310588
30
0
41
1
10
221.810446670725
20
-10.6380976086206
30
0
41
1
10
221.949098165258
20
-10.1468920281804
30
0
41
1
10
222.018423912524
20
-9.87306620375969
30
0
41
1
10
222.157075407057
20
-9.27327157760914
30
0
41
1
10
222.226401154323
20
-8.94731359759109
30
0
41
1
10
222.365052648856
20
-8.25017207156066
30
0
41
1
10
222.434378396122
20
-7.87900900334824
30
0
41
1
10
222.573029890655
20
-7.10051284816117
30
0
41
1
10
222.642355637922
20
-6.69320668057406
30
0
41
1
10
222.781007132454
20
-5.85289280193004
30
0
41
1
10
222.850332879721
20
-5.41991397778182
30
0
41
1
10
222.988984374253
20
-4.5392810272217
30
0
41
1
10
223.05831012152
20
-4.09165324754522
30
0
41
1
10
223.196961616052
20
-3.19246089205859
30
0
41
1
10
223.266287363319
20
-2.74091669889839
30
0
41
1
10
223.404938857852
20
-1.84362942841702
30
0
41
1
10
223.474264605118
20
-1.39789904940608
30
0
41
1
10
223.578253226018
20
-0.739831389069934
30
0
41
1
10
223.612916099651
20
-0.522217279300833
30
0
41
1
10
223.664910410101
20
-0.199056774376288
30
0
41
1
10
223.682241846917
20
-0.0919800050773176
30
0
41
1
10
223.716904720551
20
0.121409252483801
30
0
41
1
10
223.734236157367
20
0.228690823312917
30
0
41
1
10
223.82089334145
20
0.76778822928668
30
0
41
1
10
223.890219088716
20
1.20774180688082
30
0
41
1
10
224.028870583249
20
2.09760568796074
30
0
41
1
10
224.098196330515
20
2.5475070527749
30
0
41
1
10
224.236847825048
20
3.44821278677298
30
0
41
1
10
224.306173572315
20
3.89900033574412
30
0
41
1
10
224.444825066847
20
4.79115409766425
30
0
41
1
10
224.514150814114
20
5.23249647911621
30
0
41
1
10
224.652802308647
20
6.09477986066687
30
0
41
1
10
224.722128055913
20
6.51569266814604
30
0
41
1
10
224.860779550446
20
7.32627355974481
30
0
41
1
10
224.930105297712
20
7.71591319598275
30
0
41
1
10
225.068756792245
20
8.45410778407927
30
0
41
1
10
225.138082539511
20
8.80263868070816
30
0
41
1
10
225.276734034044
20
9.45058480320816
30
0
41
1
10
225.34605978131
20
9.74998432133987
30
0
41
1
10
225.484711275843
20
10.2940562528635
30
0
41
1
10
225.554037023109
20
10.5387234849802
30
0
41
1
10
225.692688517642
20
10.9704587111247
30
0
41
1
10
225.762014264908
20
11.1575319601553
30
0
41
1
10
225.900665759441
20
11.4739427673705
30
0
41
1
10
225.969991506708
20
11.6032939139784
30
0
41
1
10
226.10864300124
20
11.8065673240217
30
0
41
1
10
226.177968748507
20
11.8805082152511
30
0
41
1
10
226.31662024304
20
11.9772144645179
30
0
41
1
10
226.385945990306
20
12
30
0
41
1
10
226.455271737572
20
12
30
0
0
SPLINE
5
F2
100
AcDbEntity
8
1
62
256
6
ByLayer
370
13
48
1
60
0
100
AcDbSpline
70
4
71
3
72
70
73
66
40
0
40
0
40
0
40
0
40
0.0625000000000001
40
0.0625000000000001
40
0.0937500000000002
40
0.0937500000000002
40
0.125
40
0.125
40
0.15625
40
0.15625
40
0.1875
40
0.1875
40
0.21875
40
0.21875
40
0.250000000000001
40
0.250000000000001
40
0.281250000000001
40
0.281250000000001
40
0.312500000000001
40
0.312500000000001
40
0.343750000000001
40
0.343750000000001
40
0.375000000000001
40
0.375000000000001
40
0.406250000000001
40
0.406250000000001
40
0.437500000000001
40
0.437500000000001
40
0.468750000000001
40
0.468750000000001
40
0.500000000000001
40
0.500000000000001
40
0.515625
40
0.515625
40
0.53125
40
0.53125
40
0.5625
40
0.5625
40
0.59375
40
0.59375
40
0.625
40
0.625
40
0.65625
40
0.65625
40
0.6875
40
0.6875
40
0.71875
40
0.71875
40
0.75
40
0.75
40
0.78125
40
0.78125
40
0.8125
40
0.8125
40
0.84375
40
0.84375
40
0.875
40
0.875
40
0.90625
40
0.90625
40
0.9375
40
0.9375
40
0.96875
40
0.96875
40
1
40
1
40
1
40
1
41
1
10
225.636115222086
20
12
30
0
41
1
10
225.744370263059
20
12
30
0
41
1
10
225.852625304033
20
11.9442618620354
30
0
41
1
10
226.015007865493
20
11.7621261505333
30
0
41
1
10
226.069135385979
20
11.6850450065319
30
0
41
1
10
226.177390426953
20
11.4965184005167
30
0
41
1
10
226.231517947439
20
11.3850678978082
30
0
41
1
10
226.339772988413
20
11.1269560135789
30
0
41
1
10
226.393900508899
20
10.9802909218306
30
0
41
1
10
226.502155549873
20
10.6518277865118
30
0
41
1
10
226.556283070359
20
10.4700279389275
30
0
41
1
10
226.664538111333
20
10.0723825597531
30
0
41
1
10
226.718665631819
20
9.85653753815356
30
0
41
1
10
226.826920672793
20
9.39291920602997
30
0
41
1
10
226.881048193279
20
9.14514886306526
30
0
41
1
10
226.989303234253
20
8.62077551400066
30
0
41
1
10
227.043430754739
20
8.34417775911399
30
0
41
1
10
227.151685795713
20
7.76609916509042
30
0
41
1
10
227.205813316199
20
7.46462537870661
30
0
41
1
10
227.314068357172
20
6.84141153728723
30
0
41
1
10
227.368195877659
20
6.51967962049349
30
0
41
1
10
227.476450918633
20
5.86100273521708
30
0
41
1
10
227.530578439119
20
5.52406616269687
30
0
41
1
10
227.638833480093
20
4.84021829634523
30
0
41
1
10
227.692961000579
20
4.49331485576141
30
0
41
1
10
227.801216041552
20
3.79470992060374
30
0
41
1
10
227.855343562039
20
3.44301508504461
30
0
41
1
10
227.963598603013
20
2.73972232114045
30
0
41
1
10
228.017726123499
20
2.38812943313229
30
0
41
1
10
228.125981164473
20
1.68947690493303
30
0
41
1
10
228.180108684959
20
1.34242051321547
30
0
41
1
10
228.261299965689
20
0.828125568211362
30
0
41
1
10
228.288363725933
20
0.657737343267826
30
0
41
1
10
228.342491246419
20
0.319468083540386
30
0
41
1
10
228.369555006662
20
0.151750226363021
30
0
41
1
10
228.450746287392
20
-0.348076564029327
30
0
41
1
10
228.504873807879
20
-0.687044122240962
30
0
41
1
10
228.613128848853
20
-1.37326319468335
30
0
41
1
10
228.667256369339
20
-1.72051314955317
30
0
41
1
10
228.775511410312
20
-2.41942892605547
30
0
41
1
10
228.829638930799
20
-2.77109144569965
30
0
41
1
10
228.937893971772
20
-3.47438388528863
30
0
41
1
10
228.992021492259
20
-3.82600871304013
30
0
41
1
10
229.100276533232
20
-4.52432285518091
30
0
41
1
10
229.154404053719
20
-4.87100546768451
30
0
41
1
10
229.262659094693
20
-5.55425568070467
30
0
41
1
10
229.316786615179
20
-5.89081540145753
30
0
41
1
10
229.425041656153
20
-6.54858440515881
30
0
41
1
10
229.479169176639
20
-6.86978528779673
30
0
41
1
10
229.587424217612
20
-7.49179222420423
30
0
41
1
10
229.641551738099
20
-7.79259016028149
30
0
41
1
10
229.749806779072
20
-8.36918884453732
30
0
41
1
10
229.803934299559
20
-8.64498258409719
30
0
41
1
10
229.912189340532
20
-9.16764262759148
30
0
41
1
10
229.966316861019
20
-9.4145037426679
30
0
41
1
10
230.074571901992
20
-9.87622596315475
30
0
41
1
10
230.128699422479
20
-10.0910841731902
30
0
41
1
10
230.236954463452
20
-10.4867085242598
30
0
41
1
10
230.291081983939
20
-10.6674742276752
30
0
41
1
10
230.399337024912
20
-10.9938523461906
30
0
41
1
10
230.453464545399
20
-11.1394666289647
30
0
41
1
10
230.561719586372
20
-11.3954891952964
30
0
41
1
10
230.615847106859
20
-11.5059012375014
30
0
41
1
10
230.724102147832
20
-11.6923888992036
30
0
41
1
10
230.778229668319
20
-11.7684695892817
30
0
41
1
10
230.832357188806
20
-11.8282105977938
30
0
0
SPLINE
5
F3
100
AcDbEntity
8
1
62
256
6
ByLayer
370
13
48
1
60
0
100
AcDbSpline
70
4
71
3
72
78
73
74
40
0
40
0
40
0
40
0
40
0.0312499999999999
40
0.0312499999999999
40
0.0624999999999998
40
0.0624999999999998
40
0.0937499999999997
40
0.0937499999999997
40
0.1015625
40
0.1015625
40
0.109375
40
0.109375
40
0.125
40
0.125
40
0.15625
40
0.15625
40
0.1875
40
0.1875
40
0.218749999999999
40
0.218749999999999
40
0.249999999999999
40
0.249999999999999
40
0.281249999999999
40
0.281249999999999
40
0.312499999999999
40
0.312499999999999
40
0.343749999999999
40
0.343749999999999
40
0.374999999999999
40
0.374999999999999
40
0.406249999999999
40
0.406249999999999
40
0.437499999999999
40
0.437499999999999
40
0.468749999999999
40
0.468749999999999
40
0.499999999999999
40
0.499999999999999
40
0.531249999999999
40
0.531249999999999
40
0.546874999999999
40
0.546874999999999
40
0.554687499999999
40
0.554687499999999
40
0.562499999999999
40
0.562499999999999
40
0.593749999999999
40
0.593749999999999
40
0.624999999999999
40
0.624999999999999
40
0.656249999999999
40
0.656249999999999
40
0.687499999999999
40
0.687499999999999
40
0.718749999999999
40
0.718749999999999
40
0.749999999999999
40
0.749999999999999
40
0.781249999999999
40
0.781249999999999
40
0.812499999999999
40
0.812499999999999
40
0.843749999999999
40
0.843749999999999
40
0.874999999999999
40
0.874999999999999
40
0.90625
40
0.90625
40
0.9375
40
0.9375
40
0.96875
40
0.96875
40
1
40
1
40
1
40
1
41
1
10
219.8
20
-11.2483137815848
30
0
41
1
10
219.864259675504
20
-11.4023550603033
30
0
41
1
10
219.928519351008
20
-11.5315570772387
30
0
41
1
10
220.057038702015
20
-11.7417856926717
30
0
41
1
10
220.121298377519
20
-11.8228245286002
30
0
41
1
10
220.249817728527
20
-11.9397699510919
30
0
41
1
10
220.31407740403
20
-11.9756902836961
30
0
41
1
10
220.39440199841
20
-11.9949881124411
30
0
41
1
10
220.410466917286
20
-11.9975697146236
30
0
41
1
10
220.442596755038
20
-12.0002495168966
30
0
41
1
10
220.458661673914
20
-12.0003562136633
30
0
41
1
10
220.506856430542
20
-11.9969913598569
30
0
41
1
10
220.538986268294
20
-11.989792975916
30
0
41
1
10
220.63537578155
20
-11.9524755585743
30
0
41
1
10
220.699635457053
20
-11.9066014309343
30
0
41
1
10
220.828154808061
20
-11.7689402574729
30
0
41
1
10
220.892414483565
20
-11.6771396332711
30
0
41
1
10
221.020933834573
20
-11.4448922697077
30
0
41
1
10
221.085193510076
20
-11.3044339274957
30
0
41
1
10
221.213712861084
20
-10.973738789042
30
0
41
1
10
221.277972536588
20
-10.7834944467264
30
0
41
1
10
221.406491887596
20
-10.353991123438
30
0
41
1
10
221.470751563099
20
-10.1147304224735
30
0
41
1
10
221.599270914107
20
-9.58999967689948
30
0
41
1
10
221.663530589611
20
-9.30453469303035
30
0
41
1
10
221.792049940618
20
-8.69219474757213
30
0
41
1
10
221.856309616122
20
-8.36533140826546
30
0
41
1
10
221.98482896713
20
-7.67673585063767
30
0
41
1
10
222.049088642634
20
-7.31502036633768
30
0
41
1
10
222.177607993641
20
-6.56457124472797
30
0
41
1
10
222.241867669145
20
-6.17585707258098
30
0
41
1
10
222.370387020153
20
-5.38001800364509
30
0
41
1
10
222.434646695657
20
-4.97291255725207
30
0
41
1
10
222.563166046664
20
-4.14906059172017
30
0
41
1
10
222.627425722168
20
-3.73233102935487
30
0
41
1
10
222.755945073176
20
-2.89760745802005
30
0
41
1
10
222.82020474868
20
-2.47962618852071
30
0
41
1
10
222.948724099687
20
-1.64993150051544
30
0
41
1
10
223.012983775191
20
-1.23822585056573
30
0
41
1
10
223.109373288447
20
-0.630152009443577
30
0
41
1
10
223.141503126199
20
-0.429031791582901
30
0
41
1
10
223.189697882826
20
-0.130213674687923
30
0
41
1
10
223.205762801702
20
-0.0313875917201756
30
0
41
1
10
223.237892639454
20
0.166765211552814
30
0
41
1
10
223.25395755833
20
0.266339115169046
30
0
41
1
10
223.33428215271
20
0.766499079421664
30
0
41
1
10
223.398541828214
20
1.17400752428537
30
0
41
1
10
223.527061179222
20
1.99791473475776
30
0
41
1
10
223.591320854725
20
2.41430765259642
30
0
41
1
10
223.719840205733
20
3.24887859482709
30
0
41
1
10
223.784099881237
20
3.66704576277397
30
0
41
1
10
223.912619232245
20
4.49707750114751
30
0
41
1
10
223.976878907748
20
4.90892658998084
30
0
41
1
10
224.105398258756
20
5.71764947753164
30
0
41
1
10
224.16965793426
20
6.1145045277631
30
0
41
1
10
224.298177285268
20
6.88450137651836
30
0
41
1
10
224.362436960771
20
7.25762339149108
30
0
41
1
10
224.490956311779
20
7.97193834160413
30
0
41
1
10
224.555215987283
20
8.31311317214153
30
0
41
1
10
224.68373533829
20
8.95641916638277
30
0
41
1
10
224.747995013794
20
9.25853650173875
30
0
41
1
10
224.876514364802
20
9.81820285106727
30
0
41
1
10
224.940774040306
20
10.0757441756063
30
0
41
1
10
225.069293391313
20
10.5426528476957
30
0
41
1
10
225.133553066817
20
10.7520193520411
30
0
41
1
10
225.262072417824
20
11.1210212649331
30
0
41
1
10
225.326332093328
20
11.2806621461979
30
0
41
1
10
225.454851444336
20
11.550631615728
30
0
41
1
10
225.51911111984
20
11.6609704819188
30
0
41
1
10
225.647630470848
20
11.8344877703289
30
0
41
1
10
225.711890146351
20
11.8976792539387
30
0
41
1
10
225.840409497359
20
11.9804284626409
30
0
41
1
10
225.904669172863
20
12
30
0
41
1
10
225.968928848367
20
12
30
0
0
SPLINE
5
F4
100
AcDbEntity
8
1
62
256
6
ByLayer
370
13
48
1
60
0
100
AcDbSpline
70
4
71
3
72
77
73
73
40
0
40
0
40
0
40
0
40
0.0312500000000021
40
0.0312500000000021
40
0.0625000000000042
40
0.0625000000000042
40
0.0937500000000063
40
0.0937500000000063
40
0.125000000000008
40
0.125000000000008
40
0.15625000000001
40
0.15625000000001
40
0.187500000000013
40
0.187500000000013
40
0.218750000000015
40
0.218750000000015
40
0.250000000000017
40
0.250000000000017
40
0.281250000000019
40
0.281250000000019
40
0.312500000000021
40
0.312500000000021
40
0.343750000000024
40
0.343750000000024
40
0.375000000000026
40
0.375000000000026
40
0.406250000000028
40
0.406250000000028
40
0.437500000000031
40
0.437500000000031
40
0.468750000000033
40
0.468750000000033
40
0.484375000000034
40
0.484375000000034
40
0.492187500000034
40
0.492187500000034
40
0.500000000000034
40
0.500000000000034
40
0.531250000000031
40
0.531250000000031
40
0.562500000000029
40
0.562500000000029
40
0.593750000000027
40
0.593750000000027
40
0.625000000000025
40
0.625000000000025
40
0.656250000000022
40
0.656250000000022
40
0.68750000000002
40
0.68750000000002
40
0.718750000000018
40
0.718750000000018
40
0.750000000000016
40
0.750000000000016
40
0.781250000000014
40
0.781250000000014
40
0.812500000000012
40
0.812500000000012
40
0.843750000000009
40
0.843750000000009
40
0.875000000000007
40
0.875000000000007
40
0.906250000000005
40
0.906250000000005
40
0.937500000000003
40
0.937500000000003
40
0.968750000000001
40
0.968750000000001
40
0.976562500000001
40
0.976562500000001
40
0.984375000000001
40
1
40
1
40
1
40
1
41
1
10
225.14977233288
20
12
30
0
41
1
10
225.20896592513
20
12
30
0
41
1
10
225.268159517379
20
11.9833969831796
30
0
41
1
10
225.386546701877
20
11.9134721416733
30
0
41
1
10
225.445740294126
20
11.8601411601294
30
0
41
1
10
225.564127478625
20
11.7138988003363
30
0
41
1
10
225.623321070874
20
11.6209785851941
30
0
41
1
10
225.741708255372
20
11.3936382297811
30
0
41
1
10
225.800901847622
20
11.2592106994083
30
0
41
1
10
225.91928903212
20
10.9481261931221
30
0
41
1
10
225.978482624369
20
10.7714644427477
30
0
41
1
10
226.096869808868
20
10.3765589508891
30
0
41
1
10
226.156063401117
20
10.1583140286892
30
0
41
1
10
226.274450585616
20
9.68235945687721
30
0
41
1
10
226.333644177865
20
9.42465276655958
30
0
41
1
10
226.452031362363
20
8.87333665672963
30
0
41
1
10
226.511224954612
20
8.57973427586774
30
0
41
1
10
226.629612139111
20
7.96148267044092
30
0
41
1
10
226.68880573136
20
7.63684385353827
30
0
41
1
10
226.807192915858
20
6.96240407985752
30
0
41
1
10
226.866386508108
20
6.61261565689833
30
0
41
1
10
226.984773692606
20
5.89444080851689
30
0
41
1
10
227.043967284856
20
5.52606751709862
30
0
41
1
10
227.162354469354
20
4.7775754025653
30
0
41
1
10
227.221548061603
20
4.39746881159823
30
0
41
1
10
227.339935246102
20
3.63226471242876
30
0
41
1
10
227.399128838351
20
3.24717733040063
30
0
41
1
10
227.517516022849
20
2.47832871560314
30
0
41
1
10
227.576709615098
20
2.09457476733081
30
0
41
1
10
227.695096799597
20
1.33400898717423
30
0
41
1
10
227.754290391846
20
0.957201370956511
30
0
41
1
10
227.84308078022
20
0.4007529855771
30
0
41
1
10
227.872677576345
20
0.216723495981086
30
0
41
1
10
227.917072770531
20
-0.0567635253513856
30
0
41
1
10
227.931871168594
20
-0.147967569680475
30
0
41
1
10
227.961467964719
20
-0.331532447061392
30
0
41
1
10
227.976266362781
20
-0.423717973995707
30
0
41
1
10
228.050258353092
20
-0.88650152220842
30
0
41
1
10
228.109451945341
20
-1.26270379066688
30
0
41
1
10
228.22783912984
20
-2.02238396218411
30
0
41
1
10
228.287032722089
20
-2.40585783958571
30
0
41
1
10
228.405419906588
20
-3.17452227135809
30
0
41
1
10
228.464613498837
20
-3.55970573276085
30
0
41
1
10
228.583000683335
20
-4.32551526067198
30
0
41
1
10
228.642194275584
20
-4.70613136351139
30
0
41
1
10
228.760581460083
20
-5.45607408782695
30
0
41
1
10
228.819775052332
20
-5.82538857847234
30
0
41
1
10
228.938162236831
20
-6.54587265153495
30
0
41
1
10
228.99735582908
20
-6.89702911430015
30
0
41
1
10
229.115743013578
20
-7.57460213313081
30
0
41
1
10
229.174936605827
20
-7.90100607129369
30
0
41
1
10
229.293323790326
20
-8.52313154168888
30
0
41
1
10
229.352517382575
20
-8.8188424913929
30
0
41
1
10
229.470904567073
20
-9.37464586936508
30
0
41
1
10
229.530098159323
20
-9.63473101955447
30
0
41
1
10
229.648485343821
20
-10.1156255331368
30
0
41
1
10
229.70767893607
20
-10.3364316718485
30
0
41
1
10
229.826066120569
20
-10.7365496241214
30
0
41
1
10
229.885259712818
20
-10.915862368314
30
0
41
1
10
230.003646897317
20
-11.2322478992134
30
0
41
1
10
230.062840489566
20
-11.3693252597276
30
0
41
1
10
230.181227674064
20
-11.6018822096396
30
0
41
1
10
230.240421266313
20
-11.69736905828
30
0
41
1
10
230.358808450812
20
-11.8485934415816
30
0
41
1
10
230.418002043061
20
-11.9043397567842
30
0
41
1
10
230.53638922756
20
-11.9788925819299
30
0
41
1
10
230.595582819809
20
-11.9977082583978
30
0
41
1
10
230.66957481012
20
-12.0003261270991
30
0
41
1
10
230.684373208183
20
-11.9998141723393
30
0
41
1
10
230.713970004307
20
-11.9966795238485
30
0
41
1
10
230.758365198494
20
-11.9888036608327
30
0
41
1
10
230.802760392681
20
-11.9711479106765
30
0
41
1
10
230.832357188806
20
-11.9548173226843
30
0
0
SPLINE
5
F5
100
AcDbEntity
8
1
62
256
6
ByLayer
370
13
48
1
60
0
100
AcDbSpline
70
4
71
3
72
78
73
74
40
0
40
0
40
0
40
0
40
0.0156250000000011
40
0.0156250000000011
40
0.0234375000000016
40
0.0234375000000016
40
0.0312500000000022
40
0.0312500000000022
40
0.0625000000000036
40
0.0625000000000036
40
0.093750000000005
40
0.093750000000005
40
0.125000000000006
40
0.125000000000006
40
0.156250000000008
40
0.156250000000008
40
0.187500000000009
40
0.187500000000009
40
0.218750000000011
40
0.218750000000011
40
0.250000000000012
40
0.250000000000012
40
0.281250000000014
40
0.281250000000014
40
0.312500000000015
40
0.312500000000015
40
0.343750000000016
40
0.343750000000016
40
0.375000000000018
40
0.375000000000018
40
0.406250000000019
40
0.406250000000019
40
0.437500000000021
40
0.437500000000021
40
0.468750000000022
40
0.468750000000022
40
0.500000000000024
40
0.500000000000024
40
0.507812500000023
40
0.507812500000023
40
0.515625000000023
40
0.515625000000023
40
0.531250000000023
40
0.531250000000023
40
0.562500000000021
40
0.562500000000021
40
0.59375000000002
40
0.59375000000002
40
0.625000000000018
40
0.625000000000018
40
0.656250000000017
40
0.656250000000017
40
0.687500000000015
40
0.687500000000015
40
0.718750000000014
40
0.718750000000014
40
0.750000000000012
40
0.750000000000012
40
0.781250000000011
40
0.781250000000011
40
0.812500000000009
40
0.812500000000009
40
0.843750000000008
40
0.843750000000008
40
0.875000000000006
40
0.875000000000006
40
0.906250000000005
40
0.906250000000005
40
0.937500000000003
40
0.937500000000003
40
0.968750000000002
40
0.968750000000002
40
1
40
1
40
1
40
1
41
1
10
219.8
20
-11.9548167139512
30
0
41
1
10
219.829596801871
20
-11.971147418395
30
0
41
1
10
219.859193603741
20
-11.9829180306429
30
0
41
1
10
219.903588806547
20
-11.994053823441
30
0
41
1
10
219.918387207483
20
-11.9966793580804
30
0
41
1
10
219.947984009353
20
-11.9998141098895
30
0
41
1
10
219.962782410289
20
-12.0003261147594
30
0
41
1
10
220.036774414965
20
-11.9977084968137
30
0
41
1
10
220.095968018706
20
-11.9788930257302
30
0
41
1
10
220.214355226189
20
-11.9043406156339
30
0
41
1
10
220.27354882993
20
-11.8485945100881
30
0
41
1
10
220.391936037413
20
-11.69737054402
30
0
41
1
10
220.451129641154
20
-11.6018839029425
30
0
41
1
10
220.569516848637
20
-11.3693273589681
30
0
41
1
10
220.628710452378
20
-11.2322501968101
30
0
41
1
10
220.74709765986
20
-10.9158650460682
30
0
41
1
10
220.806291263601
20
-10.7365524836553
30
0
41
1
10
220.924678471084
20
-10.3364348713681
30
0
41
1
10
220.983872074825
20
-10.1156288908412
30
0
41
1
10
221.102259282308
20
-9.63473466403048
30
0
41
1
10
221.161452886049
20
-9.37464964241073
30
0
41
1
10
221.279840093531
20
-8.81884648754064
30
0
41
1
10
221.339033697273
20
-8.52313563235853
30
0
41
1
10
221.457420904755
20
-7.90101031454464
30
0
41
1
10
221.516614508497
20
-7.57460643443917
30
0
41
1
10
221.635001715979
20
-6.89703349504319
30
0
41
1
10
221.69419531972
20
-6.54587705366194
30
0
41
1
10
221.812582527203
20
-5.8253929886047
30
0
41
1
10
221.871776130944
20
-5.4560784845946
30
0
41
1
10
221.990163338427
20
-4.70613570252405
30
0
41
1
10
222.049356942168
20
-4.3255195553125
30
0
41
1
10
222.167744149651
20
-3.55970991269658
30
0
41
1
10
222.226937753392
20
-3.17452638098038
30
0
41
1
10
222.345324960874
20
-2.40586178843964
30
0
41
1
10
222.404518564616
20
-2.02238782060064
30
0
41
1
10
222.522905772098
20
-1.26270745407771
30
0
41
1
10
222.582099375839
20
-0.886505081064826
30
0
41
1
10
222.656091380516
20
-0.423721396905165
30
0
41
1
10
222.670889781451
20
-0.331535842517553
30
0
41
1
10
222.700486583322
20
-0.14797090978567
30
0
41
1
10
222.715284984257
20
-0.0567668247360871
30
0
41
1
10
222.759680187063
20
0.216720218956482
30
0
41
1
10
222.789276988934
20
0.400749725545211
30
0
41
1
10
222.878067394546
20
0.957198168255957
30
0
41
1
10
222.937260998287
20
1.33400583119567
30
0
41
1
10
223.055648205769
20
2.09457172164238
30
0
41
1
10
223.114841809511
20
2.478325733487
30
0
41
1
10
223.233229016993
20
3.24717449111168
30
0
41
1
10
223.292422620734
20
3.63226195239534
30
0
41
1
10
223.410809828217
20
4.39746622349895
30
0
41
1
10
223.470003431958
20
4.77757290714081
30
0
41
1
10
223.588390639441
20
5.52606521713719
30
0
41
1
10
223.647584243182
20
5.8944386113352
30
0
41
1
10
223.765971450664
20
6.61261367121503
30
0
41
1
10
223.825165054406
20
6.9624022028805
30
0
41
1
10
223.943552261888
20
7.63684219519027
30
0
41
1
10
224.002745865629
20
7.96148112200109
30
0
41
1
10
224.121133073112
20
8.57973294360173
30
0
41
1
10
224.180326676853
20
8.8733354307148
30
0
41
1
10
224.298713884336
20
9.42465174485343
30
0
41
1
10
224.357907488077
20
9.68235853321656
30
0
41
1
10
224.47629469556
20
10.1583132890888
30
0
41
1
10
224.535488299301
20
10.3765582972955
30
0
41
1
10
224.653875506783
20
10.7714639463174
30
0
41
1
10
224.713069110525
20
10.9481257678453
30
0
41
1
10
224.831456318007
20
11.2592103999454
30
0
41
1
10
224.890649921748
20
11.3936379849805
30
0
41
1
10
225.009037129231
20
11.6209784327652
30
0
41
1
10
225.068230732972
20
11.7138986856229
30
0
41
1
10
225.186617940455
20
11.860141104491
30
0
41
1
10
225.245811544196
20
11.9134721074028
30
0
41
1
10
225.364198751678
20
11.9833969767238
30
0
41
1
10
225.42339235542
20
12
30
0
41
1
10
225.482585959161
20
12
30
0
0
SPLINE
5
F6
100
AcDbEntity
8
1
62
256
6
ByLayer
370
13
48
1
60
0
100
AcDbSpline
70
4
71
3
72
78
73
74
40
0
40
0
40
0
40
0
40
0.0312500000000012
40
0.0312500000000012
40
0.0625000000000024
40
0.0625000000000024
40
0.0937500000000036
40
0.0937500000000036
40
0.125000000000005
40
0.125000000000005
40
0.156250000000006
40
0.156250000000006
40
0.187500000000007
40
0.187500000000007
40
0.218750000000008
40
0.218750000000008
40
0.250000000000009
40
0.250000000000009
40
0.28125000000001
40
0.28125000000001
40
0.312500000000012
40
0.312500000000012
40
0.343750000000013
40
0.343750000000013
40
0.375000000000014
40
0.375000000000014
40
0.406250000000015
40
0.406250000000015
40
0.437500000000016
40
0.437500000000016
40
0.445312500000016
40
0.445312500000016
40
0.453125000000016
40
0.453125000000016
40
0.468750000000015
40
0.468750000000015
40
0.500000000000014
40
0.500000000000014
40
0.531250000000012
40
0.531250000000012
40
0.562500000000011
40
0.562500000000011
40
0.593750000000009
40
0.593750000000009
40
0.625000000000008
40
0.625000000000008
40
0.656250000000006
40
0.656250000000006
40
0.687500000000004
40
0.687500000000004
40
0.718750000000003
40
0.718750000000003
40
0.750000000000001
40
0.750000000000001
40
0.78125
40
0.78125
40
0.812499999999998
40
0.812499999999998
40
0.843749999999997
40
0.843749999999997
40
0.874999999999995
40
0.874999999999995
40
0.890624999999995
40
0.890624999999995
40
0.898437499999995
40
0.898437499999995
40
0.906249999999995
40
0.906249999999995
40
0.937499999999996
40
0.937499999999996
40
0.968749999999998
40
0.968749999999998
40
1
40
1
40
1
40
1
41
1
10
224.663429443675
20
12
30
0
41
1
10
224.727689107687
20
12
30
0
41
1
10
224.791948771698
20
11.980428469653
30
0
41
1
10
224.920468099722
20
11.8976792913226
30
0
41
1
10
224.984727763734
20
11.8344878310847
30
0
41
1
10
225.113247091757
20
11.6609706073513
30
0
41
1
10
225.177506755769
20
11.5506317824764
30
0
41
1
10
225.306026083793
20
11.2806624139754
30
0
41
1
10
225.370285747804
20
11.1210215924311
30
0
41
1
10
225.498805075828
20
10.7520198164395
30
0
41
1
10
225.56306473984
20
10.5426533892749
30
0
41
1
10
225.691584067863
20
10.0757448865386
30
0
41
1
10
225.755843731875
20
9.81820365416516
30
0
41
1
10
225.884363059899
20
9.25853750024848
30
0
41
1
10
225.94862272391
20
8.95642026812473
30
0
41
1
10
226.077142051934
20
8.3131144863911
30
0
41
1
10
226.141401715946
20
7.97193976511005
30
0
41
1
10
226.269921043969
20
7.25762503389586
30
0
41
1
10
226.334180707981
20
6.88450312854522
30
0
41
1
10
226.462700036004
20
6.11450649375212
30
0
41
1
10
226.526959700016
20
5.71765154784268
30
0
41
1
10
226.65547902804
20
4.9089288585686
30
0
41
1
10
226.719738692052
20
4.49707986367736
30
0
41
1
10
226.848258020075
20
3.66704829879001
30
0
41
1
10
226.912517684087
20
3.2488812103816
30
0
41
1
10
227.041037012111
20
2.41431041013431
30
0
41
1
10
227.105296676122
20
1.99791755474158
30
0
41
1
10
227.233816004146
20
1.17401045077588
30
0
41
1
10
227.298075668158
20
0.766502049979096
30
0
41
1
10
227.378400248173
20
0.266342129318531
30
0
41
1
10
227.394465164175
20
0.166768233848956
30
0
41
1
10
227.426594996181
20
-0.0313845542636102
30
0
41
1
10
227.442659912184
20
-0.130210602866526
30
0
41
1
10
227.490854660193
20
-0.429028636687121
30
0
41
1
10
227.522984492199
20
-0.630148800121503
30
0
41
1
10
227.619373988216
20
-1.23822248203479
30
0
41
1
10
227.683633652228
20
-1.64992803125904
30
0
41
1
10
227.812152980252
20
-2.47962253551279
30
0
41
1
10
227.876412644263
20
-2.89760372200746
30
0
41
1
10
228.004931972287
20
-3.73232715209446
30
0
41
1
10
228.069191636299
20
-4.14905665624244
30
0
41
1
10
228.197710964323
20
-4.97290853660644
30
0
41
1
10
228.261970628334
20
-5.38001395607526
30
0
41
1
10
228.390489956358
20
-6.17585300757639
30
0
41
1
10
228.45474962037
20
-6.56456718923474
30
0
41
1
10
228.583268948393
20
-7.31501636932396
30
0
41
1
10
228.647528612405
20
-7.67673190260456
30
0
41
1
10
228.776047940429
20
-8.36532759805525
30
0
41
1
10
228.84030760444
20
-8.69219102620394
30
0
41
1
10
228.968826932464
20
-9.30453118678054
30
0
41
1
10
229.033086596476
20
-9.58999629691266
30
0
41
1
10
229.161605924499
20
-10.1147273273927
30
0
41
1
10
229.225865588511
20
-10.3539881869764
30
0
41
1
10
229.354384916535
20
-10.7834918527722
30
0
41
1
10
229.418644580546
20
-10.9737363789466
30
0
41
1
10
229.54716390857
20
-11.3044319020366
30
0
41
1
10
229.611423572582
20
-11.4448904449968
30
0
41
1
10
229.739942900605
20
-11.6771382182852
30
0
41
1
10
229.804202564617
20
-11.7689390514396
30
0
41
1
10
229.932721892641
20
-11.9066006428273
30
0
41
1
10
229.996981556653
20
-11.9524749794244
30
0
41
1
10
230.09337105267
20
-11.9897927048934
30
0
41
1
10
230.125500884676
20
-11.9969911906688
30
0
41
1
10
230.173695632685
20
-12.0003561953538
30
0
41
1
10
230.189760548688
20
-12.0002495482558
30
0
41
1
10
230.221890380694
20
-11.9975698486022
30
0
41
1
10
230.237955296697
20
-11.9949882989325
30
0
41
1
10
230.318279876711
20
-11.9756907387313
30
0
41
1
10
230.382539540723
20
-11.939770640208
30
0
41
1
10
230.511058868747
20
-11.8228257217604
30
0
41
1
10
230.575318532758
20
-11.7417871558045
30
0
41
1
10
230.703837860782
20
-11.5315591105998
30
0
41
1
10
230.768097524794
20
-11.4023573939167
30
0
41
1
10
230.832357188806
20
-11.2483164262245
30
0
0
SPLINE
5
F7
100
AcDbEntity
8
1
62
256
6
ByLayer
370
13
48
1
60
0
100
AcDbSpline
70
4
71
3
72
70
73
66
40
0
40
0
40
0
40
0
40
0.0312499999999999
40
0.0312499999999999
40
0.0624999999999999
40
0.0624999999999999
40
0.0937499999999998
40
0.0937499999999998
40
0.125
40
0.125
40
0.15625
40
0.15625
40
0.1875
40
0.1875
40
0.21875
40
0.21875
40
0.25
40
0.25
40
0.281249999999999
40
0.281249999999999
40
0.312499999999999
40
0.312499999999999
40
0.343749999999999
40
0.343749999999999
40
0.374999999999999
40
0.374999999999999
40
0.406249999999999
40
0.406249999999999
40
0.437499999999999
40
0.437499999999999
40
0.468749999999999
40
0.468749999999999
40
0.484374999999999
40
0.484374999999999
40
0.5
40
0.5
40
0.531249999999999
40
0.531249999999999
40
0.562499999999999
40
0.562499999999999
40
0.593749999999999
40
0.593749999999999
40
0.624999999999999
40
0.624999999999999
40
0.656249999999999
40
0.656249999999999
40
0.6875
40
0.6875
40
0.71875
40
0.71875
40
0.75
40
0.75
40
0.78125
40
0.78125
40
0.8125
40
0.8125
40
0.84375
40
0.84375
40
0.875
40
0.875
40
0.90625
40
0.90625
40
0.9375
40
0.9375
40
1
40
1
40
1
40
1
41
1
10
219.8
20
-11.8282118154422
30
0
41
1
10
219.854127531979
20
-11.7684710158809
30
0
41
1
10
219.908255063958
20
-11.6923905345878
30
0
41
1
10
220.016510127915
20
-11.5059032843519
30
0
41
1
10
220.070637659894
20
-11.3954914448161
30
0
41
1
10
220.178892723851
20
-11.13946927159
30
0
41
1
10
220.23302025583
20
-10.9938551792379
30
0
41
1
10
220.341275319787
20
-10.6674774232622
30
0
41
1
10
220.395402851766
20
-10.4867118919495
30
0
41
1
10
220.503657915723
20
-10.0910878612154
30
0
41
1
10
220.557785447702
20
-9.87622979939866
30
0
41
1
10
220.666040511659
20
-9.4145078468639
30
0
41
1
10
220.720168043638
20
-9.16764685150991
30
0
41
1
10
220.828423107595
20
-8.64498701568979
30
0
41
1
10
220.882550639574
20
-8.36919336407553
30
0
41
1
10
220.990805703531
20
-7.79259482224575
30
0
41
1
10
221.04493323551
20
-7.49179694064844
30
0
41
1
10
221.153188299468
20
-6.86979007973397
30
0
41
1
10
221.207315831446
20
-6.54858921811413
30
0
41
1
10
221.315570895404
20
-5.89082022460423
30
0
41
1
10
221.369698427382
20
-5.55426049303424
30
0
41
1
10
221.47795349134
20
-4.87101022955781
30
0
41
1
10
221.532081023318
20
-4.52432757742753
30
0
41
1
10
221.640336087276
20
-3.82601333129765
30
0
41
1
10
221.694463619254
20
-3.47438843919724
30
0
41
1
10
221.802718683212
20
-2.77109585092737
30
0
41
1
10
221.856846215191
20
-2.41943324696399
30
0
41
1
10
221.965101279148
20
-1.72051728685838
30
0
41
1
10
222.019228811127
20
-1.37326723271519
30
0
41
1
10
222.127483875084
20
-0.687047951686566
30
0
41
1
10
222.181611407063
20
-0.348080284170038
30
0
41
1
10
222.262802705031
20
0.151746674297669
30
0
41
1
10
222.28986647102
20
0.319464510115068
30
0
41
1
10
222.343994002999
20
0.657733806577767
30
0
41
1
10
222.371057768988
20
0.82812205182185
30
0
41
1
10
222.452249066956
20
1.34241706355383
30
0
41
1
10
222.506376598935
20
1.68947350754931
30
0
41
1
10
222.614631662892
20
2.38812615549426
30
0
41
1
10
222.668759194871
20
2.73971911097249
30
0
41
1
10
222.777014258829
20
3.44301202381428
30
0
41
1
10
222.831141790807
20
3.79470694084082
30
0
41
1
10
222.939396854765
20
4.49331205089933
30
0
41
1
10
222.993524386743
20
4.84021558491344
30
0
41
1
10
223.101779450701
20
5.52406364726755
30
0
41
1
10
223.155906982679
20
5.8610003223539
30
0
41
1
10
223.264162046637
20
6.51967741842441
30
0
41
1
10
223.318289578615
20
6.84140944343758
30
0
41
1
10
223.426544642573
20
7.46462350304245
30
0
41
1
10
223.480672174552
20
7.7660973993822
30
0
41
1
10
223.588927238509
20
8.34417621099675
30
0
41
1
10
223.643054770488
20
8.62077407350819
30
0
41
1
10
223.751309834445
20
9.14514763159229
30
0
41
1
10
223.805437366424
20
9.39291807594267
30
0
41
1
10
223.913692430381
20
9.85653660115329
30
0
41
1
10
223.96781996236
20
10.0723817144474
30
0
41
1
10
224.076075026317
20
10.4700272645696
30
0
41
1
10
224.130202558296
20
10.6518271914035
30
0
41
1
10
224.238457622253
20
10.9802904708782
30
0
41
1
10
224.292585154232
20
11.1269556275325
30
0
41
1
10
224.40084021819
20
11.3850676262448
30
0
41
1
10
224.454967750168
20
11.4965181785329
30
0
41
1
10
224.563222814126
20
11.6850448682739
30
0
41
1
10
224.617350346104
20
11.7621260464262
30
0
41
1
10
224.779732942041
20
11.9442618382296
30
0
41
1
10
224.887988005998
20
12
30
0
41
1
10
224.996243069955
20
12
30
0
0
SPLINE
5
F8
100
AcDbEntity
8
1
62
256
6
ByLayer
370
13
48
1
60
0
100
AcDbSpline
70
4
71
3
72
78
73
74
40
0
40
0
40
0
40
0
40
0.0312500000000015
40
0.0312500000000015
40
0.0625000000000031
40
0.0625000000000031
40
0.0937500000000046
40
0.0937500000000046
40
0.125000000000006
40
0.125000000000006
40
0.156250000000008
40
0.156250000000008
40
0.187500000000009
40
0.187500000000009
40
0.218750000000011
40
0.218750000000011
40
0.250000000000012
40
0.250000000000012
40
0.281250000000014
40
0.281250000000014
40
0.312500000000015
40
0.312500000000015
40
0.343750000000017
40
0.343750000000017
40
0.375000000000018
40
0.375000000000018
40
0.406250000000019
40
0.406250000000019
40
0.414062500000019
40
0.414062500000019
40
0.421875000000019
40
0.421875000000019
40
0.437500000000019
40
0.437500000000019
40
0.468750000000018
40
0.468750000000018
40
0.500000000000017
40
0.500000000000017
40
0.531250000000016
40
0.531250000000016
40
0.562500000000015
40
0.562500000000015
40
0.593750000000014
40
0.593750000000014
40
0.625000000000013
40
0.625000000000013
40
0.656250000000012
40
0.656250000000012
40
0.687500000000011
40
0.687500000000011
40
0.71875000000001
40
0.71875000000001
40
0.750000000000009
40
0.750000000000009
40
0.781250000000008
40
0.781250000000008
40
0.812500000000007
40
0.812500000000007
40
0.828125000000006
40
0.828125000000006
40
0.835937500000006
40
0.835937500000006
40
0.843750000000005
40
0.843750000000005
40
0.875000000000004
40
0.875000000000004
40
0.906250000000003
40
0.906250000000003
40
0.937500000000002
40
0.937500000000002
40
0.968750000000001
40
0.968750000000001
40
1
40
1
40
1
40
1
41
1
10
224.177086554469
20
12
30
0
41
1
10
224.246412290243
20
12
30
0
41
1
10
224.315738026018
20
11.9772144720874
30
0
41
1
10
224.454389497566
20
11.8805082557742
30
0
41
1
10
224.523715233341
20
11.8065673899454
30
0
41
1
10
224.66236670489
20
11.6032940502329
30
0
41
1
10
224.731692440664
20
11.4739429485693
30
0
41
1
10
224.870343912212
20
11.1575322510156
30
0
41
1
10
224.939669647987
20
10.9704590667101
30
0
41
1
10
225.078321119536
20
10.538723988213
30
0
41
1
10
225.14764685531
20
10.2940568390166
30
0
41
1
10
225.286298326858
20
9.74998508803805
30
0
41
1
10
225.355624062633
20
9.45058566751783
30
0
41
1
10
225.494275534181
20
8.80263974976364
30
0
41
1
10
225.563601269956
20
8.45410896024637
30
0
41
1
10
225.702252741505
20
7.7159145895761
30
0
41
1
10
225.771578477279
20
7.3262750636253
30
0
41
1
10
225.910229948828
20
6.51569438911986
30
0
41
1
10
225.979555684602
20
6.0947816884206
30
0
41
1
10
226.11820715615
20
5.23249851073126
30
0
41
1
10
226.187532891925
20
4.79115622634114
30
0
41
1
10
226.326184363474
20
3.89900264380208
30
0
41
1
10
226.395510099248
20
3.44821517714041
30
0
41
1
10
226.534161570796
20
2.54750958959832
30
0
41
1
10
226.603487306571
20
2.09760828893093
30
0
41
1
10
226.74213877812
20
1.20774451632744
30
0
41
1
10
226.811464513894
20
0.767790983070967
30
0
41
1
10
226.898121683612
20
0.228693620120481
30
0
41
1
10
226.915453117555
20
0.121412057279628
30
0
41
1
10
226.950115985443
20
-0.0919771855247404
30
0
41
1
10
226.967447419386
20
-0.19905390916702
30
0
41
1
10
227.019441721217
20
-0.522214331396754
30
0
41
1
10
227.054104589104
20
-0.739828387121634
30
0
41
1
10
227.158093192766
20
-1.39789588999355
30
0
41
1
10
227.22741892854
20
-1.84362617023987
30
0
41
1
10
227.366070400089
20
-2.74091326367932
30
0
41
1
10
227.435396135863
20
-3.19245737859251
30
0
41
1
10
227.574047607412
20
-4.09164960622999
30
0
41
1
10
227.643373343186
20
-4.53927733634015
30
0
41
1
10
227.782024814735
20
-5.4199102236129
30
0
41
1
10
227.851350550509
20
-5.85288903407459
30
0
41
1
10
227.990002022058
20
-6.69320292635118
30
0
41
1
10
228.059327757832
20
-7.10050912128241
30
0
41
1
10
228.197979229381
20
-7.87900537435934
30
0
41
1
10
228.267304965155
20
-8.2501685131262
30
0
41
1
10
228.405956436704
20
-8.94731022216965
30
0
41
1
10
228.475282172478
20
-9.27326831463549
30
0
41
1
10
228.613933644027
20
-9.87306320281962
30
0
41
1
10
228.683259379801
20
-10.1468891767981
30
0
41
1
10
228.82191085135
20
-10.6380950858512
30
0
41
1
10
228.891236587124
20
-10.8554749668351
30
0
41
1
10
229.029888058673
20
-11.2322411894464
30
0
41
1
10
229.099213794447
20
-11.3916371199201
30
0
41
1
10
229.237865265996
20
-11.6535158281107
30
0
41
1
10
229.30719100177
20
-11.7560150434138
30
0
41
1
10
229.445842473319
20
-11.907406164144
30
0
41
1
10
229.515168209093
20
-11.9563178493643
30
0
41
1
10
229.619156812755
20
-11.9932105339181
30
0
41
1
10
229.653819680642
20
-11.999440059171
30
0
41
1
10
229.705813982473
20
-12.0002257922058
30
0
41
1
10
229.723145416416
20
-11.9990688648437
30
0
41
1
10
229.757808284303
20
-11.9938288949468
30
0
41
1
10
229.775139718247
20
-11.9897451098201
30
0
41
1
10
229.861796887965
20
-11.9617835006173
30
0
41
1
10
229.931122623739
20
-11.9152271075237
30
0
41
1
10
230.069774095288
20
-11.7687434897138
30
0
41
1
10
230.139099831062
20
-11.6687964151779
30
0
41
1
10
230.277751302611
20
-11.4121295199507
30
0
41
1
10
230.347077038385
20
-11.2553930295795
30
0
41
1
10
230.485728509934
20
-10.8839407610864
30
0
41
1
10
230.555054245708
20
-10.669215008537
30
0
41
1
10
230.693705717257
20
-10.1831862454408
30
0
41
1
10
230.763031453031
20
-9.91188280502678
30
0
41
1
10
230.832357188806
20
-9.61437903461848
30
0
0
SPLINE
5
F9
100
AcDbEntity
8
1
62
256
6
ByLayer
370
13
48
1
60
0
100
AcDbSpline
70
4
71
3
72
42
73
38
40
0
40
0
40
0
40
0
40
0.0624999999999979
40
0.0624999999999979
40
0.124999999999996
40
0.124999999999996
40
0.187499999999994
40
0.187499999999994
40
0.249999999999992
40
0.249999999999992
40
0.31249999999999
40
0.31249999999999
40
0.374999999999987
40
0.374999999999987
40
0.406249999999987
40
0.406249999999987
40
0.421874999999987
40
0.421874999999987
40
0.437499999999987
40
0.437499999999987
40
0.499999999999989
40
0.499999999999989
40
0.56249999999999
40
0.56249999999999
40
0.624999999999991
40
0.624999999999991
40
0.687499999999993
40
0.687499999999993
40
0.749999999999994
40
0.749999999999994
40
0.812499999999996
40
0.812499999999996
40
0.874999999999997
40
0.874999999999997
40
0.937499999999999
40
0.937499999999999
40
1
40
1
40
1
40
1
41
1
10
219.8
20
-10.833091694345
30
0
41
1
10
219.898122920433
20
-10.5375764208768
30
0
41
1
10
219.996245840865
20
-10.1839730690783
30
0
41
1
10
220.192491681729
20
-9.36936632187596
30
0
41
1
10
220.290614602161
20
-8.90841020101254
30
0
41
1
10
220.486860443026
20
-7.89855357516984
30
0
41
1
10
220.584983363458
20
-7.34977684042471
30
0
41
1
10
220.781229204323
20
-6.19185924007647
30
0
41
1
10
220.879352124755
20
-5.58287993217979
30
0
41
1
10
221.07559796562
20
-4.33580847593473
30
0
41
1
10
221.173720886052
20
-3.6978646586426
30
0
41
1
10
221.369966726917
20
-2.42294249682868
30
0
41
1
10
221.468089647349
20
-1.78606147414232
30
0
41
1
10
221.615274027997
20
-0.850286290074251
30
0
41
1
10
221.664335488213
20
-0.541571086346892
30
0
41
1
10
221.737927678538
20
-0.0851741059052529
30
0
41
1
10
221.762458408646
20
0.0652115142150649
30
0
41
1
10
221.811519868862
20
0.369280768122621
30
0
41
1
10
221.83605059897
20
0.522430707465958
30
0
41
1
10
221.95870424951
20
1.29301977023022
30
0
41
1
10
222.056827169942
20
1.92524077216402
30
0
41
1
10
222.253073010807
20
3.1979562309406
30
0
41
1
10
222.351195931239
20
3.83836962197935
30
0
41
1
10
222.547441772104
20
5.09850408024587
30
0
41
1
10
222.645564692536
20
5.71808747701394
30
0
41
1
10
222.841810533401
20
6.90522050956179
30
0
41
1
10
222.939933453833
20
7.4726072510887
30
0
41
1
10
223.136179294698
20
8.52628591546627
30
0
41
1
10
223.23430221513
20
9.01243950472355
30
0
41
1
10
223.430548055995
20
9.88159002228198
30
0
41
1
10
223.528670976427
20
10.2645175951809
30
0
41
1
10
223.724916817291
20
10.9154218022821
30
0
41
1
10
223.823039737724
20
11.1834139558239
30
0
41
1
10
224.019285578588
20
11.6037557376069
30
0
41
1
10
224.11740849902
20
11.7561878720943
30
0
41
1
10
224.313654339885
20
11.954253831491
30
0
41
1
10
224.411777260317
20
12
30
0
41
1
10
224.50990018075
20
12
30
0
0
SPLINE
5
FA
100
AcDbEntity
8
1
62
256
6
ByLayer
370
13
48
1
60
0
100
AcDbSpline
70
4
71
3
72
80
73
76
40
0
40
0
40
0
40
0
40
0.0312500000000016
40
0.0312500000000016
40
0.0625000000000033
40
0.0625000000000033
40
0.0937500000000049
40
0.0937500000000049
40
0.125000000000007
40
0.125000000000007
40
0.156250000000008
40
0.156250000000008
40
0.18750000000001
40
0.18750000000001
40
0.218750000000011
40
0.218750000000011
40
0.250000000000013
40
0.250000000000013
40
0.281250000000015
40
0.281250000000015
40
0.312500000000016
40
0.312500000000016
40
0.343750000000018
40
0.343750000000018
40
0.375000000000019
40
0.375000000000019
40
0.38281250000002
40
0.38281250000002
40
0.39062500000002
40
0.39062500000002
40
0.406250000000021
40
0.406250000000021
40
0.437500000000022
40
0.437500000000022
40
0.468750000000023
40
0.468750000000023
40
0.500000000000024
40
0.500000000000024
40
0.531250000000025
40
0.531250000000025
40
0.562500000000026
40
0.562500000000026
40
0.593750000000027
40
0.593750000000027
40
0.625000000000028
40
0.625000000000028
40
0.656250000000029
40
0.656250000000029
40
0.68750000000003
40
0.68750000000003
40
0.718750000000031
40
0.718750000000031
40
0.750000000000031
40
0.750000000000031
40
0.765625000000032
40
0.765625000000032
40
0.769531250000032
40
0.769531250000032
40
0.773437500000032
40
0.773437500000032
40
0.781250000000031
40
0.781250000000031
40
0.812500000000026
40
0.812500000000026
40
0.843750000000022
40
0.843750000000022
40
0.875000000000018
40
0.875000000000018
40
0.906250000000013
40
0.906250000000013
40
0.937500000000009
40
0.937500000000009
40
0.968750000000004
40
0.968750000000004
40
1
40
1
40
1
40
1
41
1
10
223.690743665263
20
12
30
0
41
1
10
223.7651354728
20
12
30
0
41
1
10
223.839527280337
20
11.9737544917566
30
0
41
1
10
223.988310895411
20
11.8619477576616
30
0
41
1
10
224.062702702948
20
11.776357860189
30
0
41
1
10
224.211486318022
20
11.5408260930342
30
0
41
1
10
224.285878125559
20
11.3908584860165
30
0
41
1
10
224.434661740632
20
11.0242134670679
30
0
41
1
10
224.509053548169
20
10.8075189891329
30
0
41
1
10
224.657837163243
20
10.3084054392297
30
0
41
1
10
224.73222897078
20
10.0259830486014
30
0
41
1
10
224.881012585854
20
9.40006585092428
30
0
41
1
10
224.955404393391
20
9.05658403901361
30
0
41
1
10
225.104188008464
20
8.31672868744843
30
0
41
1
10
225.178579816001
20
7.92038323135327
30
0
41
1
10
225.327363431075
20
7.08588487700024
30
0
41
1
10
225.401755238612
20
6.64777016263278
30
0
41
1
10
225.550538853686
20
5.74270461206305
30
0
41
1
10
225.624930661223
20
5.27579478389529
30
0
41
1
10
225.773714276296
20
4.32678003127523
30
0
41
1
10
225.848106083833
20
3.84471165287059
30
0
41
1
10
225.996889698907
20
2.87849996827572
30
0
41
1
10
226.071281506444
20
2.39438349329299
30
0
41
1
10
226.220065121518
20
1.43570643183531
30
0
41
1
10
226.294456929055
20
0.961160751946977
30
0
41
1
10
226.387446688476
20
0.379894660776387
30
0
41
1
10
226.40604464036
20
0.2642315972966
30
0
41
1
10
226.443240544129
20
0.0342109421538055
30
0
41
1
10
226.461838496013
20
-0.0799160076684871
30
0
41
1
10
226.517632351665
20
-0.425463836563552
30
0
41
1
10
226.554828255434
20
-0.658412487388091
30
0
41
1
10
226.666415966739
20
-1.36343580932382
30
0
41
1
10
226.740807774276
20
-1.8417562787032
30
0
41
1
10
226.88959138935
20
-2.80489042530289
30
0
41
1
10
226.963983196887
20
-3.2896857741861
30
0
41
1
10
227.112766811961
20
-4.25366037647203
30
0
41
1
10
227.187158619498
20
-4.73280968491099
30
0
41
1
10
227.335942234571
20
-5.67213066840435
30
0
41
1
10
227.410334042108
20
-6.13226388273995
30
0
41
1
10
227.559117657182
20
-7.01998022008166
30
0
41
1
10
227.633509464719
20
-7.44752235167175
30
0
41
1
10
227.782293079793
20
-8.25749061408121
30
0
41
1
10
227.85668488733
20
-8.63988074295412
30
0
41
1
10
228.005468502403
20
-9.34917029723235
30
0
41
1
10
228.07986030994
20
-9.6760455530669
30
0
41
1
10
228.228643925014
20
-10.2670492405871
30
0
41
1
10
228.303035732551
20
-10.531169350317
30
0
41
1
10
228.451819347625
20
-10.9930246972419
30
0
41
1
10
228.526211155162
20
-11.190767548264
30
0
41
1
10
228.674994770235
20
-11.5198555608669
30
0
41
1
10
228.749386577773
20
-11.6512208232359
30
0
41
1
10
228.898170192846
20
-11.8507341961024
30
0
41
1
10
228.972562000383
20
-11.9189094414288
30
0
41
1
10
229.084149711688
20
-11.9779918131499
30
0
41
1
10
229.121345615457
20
-11.9905057454691
30
0
41
1
10
229.167840495167
20
-11.9977109843111
30
0
41
1
10
229.17713947111
20
-11.9987303805392
30
0
41
1
10
229.195737422994
20
-11.9999400971725
30
0
41
1
10
229.205036398936
20
-12.0001311726906
30
0
41
1
10
229.232933326762
20
-11.9994771773485
30
0
41
1
10
229.251531278646
20
-11.9973964088166
30
0
41
1
10
229.344521038068
20
-11.978484373604
30
0
41
1
10
229.418912845604
20
-11.9360659895136
30
0
41
1
10
229.567696460678
20
-11.7902624333957
30
0
41
1
10
229.642088268215
20
-11.6868488691446
30
0
41
1
10
229.790871883289
20
-11.414696567297
30
0
41
1
10
229.865263690826
20
-11.2459339601478
30
0
41
1
10
230.0140473059
20
-10.841616907678
30
0
41
1
10
230.088439113437
20
-10.6060488503916
30
0
41
1
10
230.23722272851
20
-10.0701302510829
30
0
41
1
10
230.311614536047
20
-9.76978089998784
30
0
41
1
10
230.460398151121
20
-9.10998695311699
30
0
41
1
10
230.534789958658
20
-8.75055992732754
30
0
41
1
10
230.683573573732
20
-7.98169685532807
30
0
41
1
10
230.757965381269
20
-7.57229239692487
30
0
41
1
10
230.832357188806
20
-7.14375081227126
30
0
0
SPLINE
5
FB
100
AcDbEntity
8
1
62
256
6
ByLayer
370
13
48
1
60
0
100
AcDbSpline
70
4
71
3
72
43
73
39
40
0
40
0
40
0
40
0
40
0.0624999999999986
40
0.0624999999999986
40
0.124999999999997
40
0.124999999999997
40
0.187499999999996
40
0.187499999999996
40
0.249999999999994
40
0.249999999999994
40
0.312499999999993
40
0.312499999999993
40
0.343749999999993
40
0.343749999999993
40
0.351562499999993
40
0.351562499999993
40
0.359374999999994
40
0.374999999999993
40
0.374999999999993
40
0.437499999999994
40
0.437499999999994
40
0.499999999999995
40
0.499999999999995
40
0.562499999999995
40
0.562499999999995
40
0.624999999999996
40
0.624999999999996
40
0.687499999999997
40
0.687499999999997
40
0.749999999999997
40
0.749999999999997
40
0.812499999999998
40
0.812499999999998
40
0.874999999999999
40
0.874999999999999
40
0.937499999999999
40
0.937499999999999
40
1
40
1
40
1
40
1
41
1
10
219.8
20
-8.91408484326476
30
0
41
1
10
219.887990776907
20
-8.48972721433478
30
0
41
1
10
219.975981553814
20
-8.02697193356457
30
0
41
1
10
220.151963107629
20
-7.04242007118734
30
0
41
1
10
220.239953884536
20
-6.52071116484703
30
0
41
1
10
220.41593543835
20
-5.43988087865711
30
0
41
1
10
220.503926215257
20
-4.88085353380652
30
0
41
1
10
220.679907769072
20
-3.7479539446569
30
0
41
1
10
220.767898545979
20
-3.17415949352508
30
0
41
1
10
220.943880099793
20
-2.03257220584194
30
0
41
1
10
221.0318708767
20
-1.46482719825909
30
0
41
1
10
221.163857042061
20
-0.630609826392345
30
0
41
1
10
221.207852430515
20
-0.355404576392317
30
0
41
1
10
221.262846666081
20
-0.0160557270019979
30
0
41
1
10
221.273845513195
20
0.0515155397723106
30
0
41
1
10
221.295843207422
20
0.187416303841246
30
0
41
1
10
221.328839748762
20
0.391957225692096
30
0
41
1
10
221.361836290102
20
0.598455509815665
30
0
41
1
10
221.471824761236
20
1.29059225267045
30
0
41
1
10
221.559815538143
20
1.85666196195433
30
0
41
1
10
221.735797091958
20
2.99685968614415
30
0
41
1
10
221.823787868865
20
3.5709432724434
30
0
41
1
10
221.999769422679
20
4.70668682049234
30
0
41
1
10
222.087760199586
20
5.26827164369831
30
0
41
1
10
222.263741753401
20
6.35654976447276
30
0
41
1
10
222.351732530308
20
6.88314975594739
30
0
41
1
10
222.527714084122
20
7.87959131573177
30
0
41
1
10
222.615704861029
20
8.34934340792105
30
0
41
1
10
222.791686414844
20
9.21365655577557
30
0
41
1
10
222.879677191751
20
9.60815546772122
30
0
41
1
10
223.055658745565
20
10.309325663353
30
0
41
1
10
223.143649522472
20
10.6159771331337
30
0
41
1
10
223.319631076286
20
11.135887068677
30
0
41
1
10
223.407621853194
20
11.3491685889838
30
0
41
1
10
223.583603407008
20
11.6837836230981
30
0
41
1
10
223.671594183915
20
11.8051706751971
30
0
41
1
10
223.84757573773
20
11.9632459432797
30
0
41
1
10
223.935566514637
20
12
30
0
41
1
10
224.023557291544
20
12
30
0
0
SPLINE
5
FC
100
AcDbEntity
8
1
62
256
6
ByLayer
370
13
48
1
60
0
100
AcDbSpline
70
4
71
3
72
79
73
75
40
0
40
0
40
0
40
0
40
0.0312500000000028
40
0.0312500000000028
40
0.0625000000000056
40
0.0625000000000056
40
0.0937500000000083
40
0.0937500000000083
40
0.125000000000011
40
0.125000000000011
40
0.156250000000014
40
0.156250000000014
40
0.187500000000017
40
0.187500000000017
40
0.218750000000019
40
0.218750000000019
40
0.250000000000022
40
0.250000000000022
40
0.281250000000025
40
0.281250000000025
40
0.312500000000028
40
0.312500000000028
40
0.343750000000031
40
0.343750000000031
40
0.359375000000032
40
0.359375000000032
40
0.363281250000032
40
0.363281250000032
40
0.367187500000032
40
0.375000000000032
40
0.375000000000032
40
0.40625000000003
40
0.40625000000003
40
0.437500000000029
40
0.437500000000029
40
0.468750000000027
40
0.468750000000027
40
0.500000000000026
40
0.500000000000026
40
0.531250000000024
40
0.531250000000024
40
0.562500000000023
40
0.562500000000023
40
0.593750000000021
40
0.593750000000021
40
0.62500000000002
40
0.62500000000002
40
0.656250000000018
40
0.656250000000018
40
0.687500000000016
40
0.687500000000016
40
0.718750000000015
40
0.718750000000015
40
0.726562500000015
40
0.726562500000015
40
0.734375000000014
40
0.734375000000014
40
0.750000000000013
40
0.750000000000013
40
0.781250000000012
40
0.781250000000012
40
0.81250000000001
40
0.81250000000001
40
0.843750000000008
40
0.843750000000008
40
0.875000000000007
40
0.875000000000007
40
0.906250000000005
40
0.906250000000005
40
0.937500000000003
40
0.937500000000003
40
0.968750000000002
40
0.968750000000002
40
1
40
1
40
1
40
1
41
1
10
223.204400776058
20
12
30
0
41
1
10
223.283858655357
20
12
30
0
41
1
10
223.363316534657
20
11.9700479741169
30
0
41
1
10
223.522232293256
20
11.8419868060646
30
0
41
1
10
223.601690172555
20
11.7438378946724
30
0
41
1
10
223.760605931154
20
11.4735283886042
30
0
41
1
10
223.840063810453
20
11.3013332370146
30
0
41
1
10
223.998979569052
20
10.8806971458431
30
0
41
1
10
224.078437448352
20
10.6322359357442
30
0
41
1
10
224.237353206951
20
10.0613117739639
30
0
41
1
10
224.31681108625
20
9.73885025018751
30
0
41
1
10
224.475726844849
20
9.0269557353858
30
0
41
1
10
224.555184724148
20
8.63754840253347
30
0
41
1
10
224.714100482747
20
7.80317622709757
30
0
41
1
10
224.793558362047
20
7.3582571856013
30
0
41
1
10
224.952474120646
20
6.42756497114502
30
0
41
1
10
225.031931999945
20
5.94184801801904
30
0
41
1
10
225.190847758544
20
4.9459806052927
30
0
41
1
10
225.270305637843
20
4.43588484055303
30
0
41
1
10
225.429221396443
20
3.40768748253191
30
0
41
1
10
225.508679275742
20
2.88962899117681
30
0
41
1
10
225.667595034341
20
1.86043828277741
30
0
41
1
10
225.74705291364
20
1.34933214644207
30
0
41
1
10
225.866239732589
20
0.597154622883124
30
0
41
1
10
225.905968672239
20
0.348820139205912
30
0
41
1
10
225.955629846801
20
0.0421786055090365
30
0
41
1
10
225.965562081714
20
-0.0188447779050307
30
0
41
1
10
225.985426551539
20
-0.141405329419456
30
0
41
1
10
226.015223256276
20
-0.325814478024966
30
0
41
1
10
226.045019961013
20
-0.511846924445166
30
0
41
1
10
226.144342310138
20
-1.13517084084168
30
0
41
1
10
226.223800189437
20
-1.64423617158533
30
0
41
1
10
226.382715948036
20
-2.67125680395373
30
0
41
1
10
226.462173827335
20
-3.18918855486973
30
0
41
1
10
226.621089585934
20
-4.21935217350406
30
0
41
1
10
226.700547465234
20
-4.73154313218541
30
0
41
1
10
226.859463223833
20
-5.73395103263076
30
0
41
1
10
226.938921103132
20
-6.22411439065246
30
0
41
1
10
227.097836861731
20
-7.16594961470048
30
0
41
1
10
227.17729474103
20
-7.61756475453512
30
0
41
1
10
227.336210499629
20
-8.46723840005103
30
0
41
1
10
227.415668378929
20
-8.86524895264262
30
0
41
1
10
227.574584137528
20
-9.59571758559869
30
0
41
1
10
227.654042016827
20
-9.92814676863958
30
0
41
1
10
227.812957775426
20
-10.5197152048642
30
0
41
1
10
227.892415654726
20
-10.7788496248662
30
0
41
1
10
228.051331413325
20
-11.2208686391709
30
0
41
1
10
228.130789292624
20
-11.4037708147048
30
0
41
1
10
228.289705051223
20
-11.6949392971148
30
0
41
1
10
228.369162930522
20
-11.8032386952641
30
0
41
1
10
228.528078689121
20
-11.9505989165428
30
0
41
1
10
228.607536568421
20
-11.9896992993852
30
0
41
1
10
228.706858917545
20
-12.0003352460381
30
0
41
1
10
228.72672338737
20
-12.0005704848376
30
0
41
1
10
228.76645232702
20
-11.9972836241155
30
0
41
1
10
228.786316796844
20
-11.9937418360205
30
0
41
1
10
228.845910206319
20
-11.977216580135
30
0
41
1
10
228.885639145969
20
-11.958329181623
30
0
41
1
10
229.004825964918
20
-11.8765434687725
30
0
41
1
10
229.084283844217
20
-11.7884270097118
30
0
41
1
10
229.243199602816
20
-11.5388127482089
30
0
41
1
10
229.322657482116
20
-11.3772791083953
30
0
41
1
10
229.481573240715
20
-10.978024722625
30
0
41
1
10
229.561031120014
20
-10.7402811696325
30
0
41
1
10
229.719946878613
20
-10.1901863792831
30
0
41
1
10
229.799404757913
20
-9.8778332179435
30
0
41
1
10
229.958320516512
20
-9.18488241281634
30
0
41
1
10
230.037778395811
20
-8.8043071052592
30
0
41
1
10
230.19669415441
20
-7.98576011177201
30
0
41
1
10
230.276152033709
20
-7.54783187592798
30
0
41
1
10
230.435067792308
20
-6.62890639851034
30
0
41
1
10
230.514525671608
20
-6.1479646261987
30
0
41
1
10
230.673441430207
20
-5.15929503168911
30
0
41
1
10
230.752899309506
20
-4.65162281091722
30
0
41
1
10
230.832357188806
20
-4.13882038648543
30
0
0
SPLINE
5
FD
100
AcDbEntity
8
1
62
256
6
ByLayer
370
13
48
1
60
0
100
AcDbSpline
70
4
71
3
72
44
73
40
40
0
40
0
40
0
40
0
40
0.0625000000000001
40
0.0625000000000001
40
0.125
40
0.125
40
0.1875
40
0.1875
40
0.25
40
0.25
40
0.257812500000001
40
0.257812500000001
40
0.265625000000001
40
0.265625000000001
40
0.281250000000001
40
0.281250000000001
40
0.312500000000001
40
0.312500000000001
40
0.375000000000001
40
0.375000000000001
40
0.437500000000001
40
0.437500000000001
40
0.500000000000001
40
0.500000000000001
40
0.562500000000001
40
0.562500000000001
40
0.625000000000001
40
0.625000000000001
40
0.687500000000001
40
0.687500000000001
40
0.750000000000001
40
0.750000000000001
40
0.8125
40
0.8125
40
0.875
40
0.875
40
0.9375
40
0.9375
40
1
40
1
40
1
40
1
41
1
10
219.8
20
-6.23437156585464
30
0
41
1
10
219.877858633382
20
-5.76162344118168
30
0
41
1
10
219.955717266764
20
-5.27291387065713
30
0
41
1
10
220.111434533528
20
-4.27911257462651
30
0
41
1
10
220.18929316691
20
-3.77406654276479
30
0
41
1
10
220.345010433674
20
-2.76258870855847
30
0
41
1
10
220.422869067056
20
-2.25618966608627
30
0
41
1
10
220.578586333821
20
-1.25515405377988
30
0
41
1
10
220.656444967202
20
-0.760534541678112
30
0
41
1
10
220.744035929757
20
-0.216636241803627
30
0
41
1
10
220.75376825893
20
-0.156375580293172
30
0
41
1
10
220.773232917276
20
-0.0362166316720618
30
0
41
1
10
220.782965246448
20
0.0235771616447948
30
0
41
1
10
220.812162233967
20
0.20373906463999
30
0
41
1
10
220.831626892312
20
0.32457449510585
30
0
41
1
10
220.890020867349
20
0.689050735427145
30
0
41
1
10
220.92895018404
20
0.934667014419261
30
0
41
1
10
221.045738134113
20
1.67751077166903
30
0
41
1
10
221.123596767495
20
2.18081148571312
30
0
41
1
10
221.279314034259
20
3.19139717142045
30
0
41
1
10
221.357172667641
20
3.6986553254614
30
0
41
1
10
221.512889934405
20
4.70277832445484
30
0
41
1
10
221.590748567787
20
5.19960182183144
30
0
41
1
10
221.746465834551
20
6.16731256763396
30
0
41
1
10
221.824324467933
20
6.6381494692852
30
0
41
1
10
221.980041734697
20
7.53858003344052
30
0
41
1
10
222.057900368079
20
7.96812356751502
30
0
41
1
10
222.213617634844
20
8.77244196526388
30
0
41
1
10
222.291476268226
20
9.14717724864343
30
0
41
1
10
222.44719353499
20
9.83152045765098
30
0
41
1
10
222.525052168372
20
10.1411073361625
30
0
41
1
10
222.680769435136
20
10.6888983788635
30
0
41
1
10
222.758628068518
20
10.9271029957851
30
0
41
1
10
222.914345335282
20
11.3302924323962
30
0
41
1
10
222.992203968664
20
11.4952965761153
30
0
41
1
10
223.147921235428
20
11.7543545472659
30
0
41
1
10
223.22577986881
20
11.8484399547377
30
0
41
1
10
223.381497135574
20
11.9712447042302
30
0
41
1
10
223.459355768956
20
12
30
0
41
1
10
223.537214402338
20
12
30
0
0
SPLINE
5
FE
100
AcDbEntity
8
1
62
256
6
ByLayer
370
13
48
1
60
0
100
AcDbSpline
70
4
71
3
72
78
73
74
40
0
40
0
40
0
40
0
40
0.0312500000000017
40
0.0312500000000017
40
0.0625000000000034
40
0.0625000000000034
40
0.0937500000000051
40
0.0937500000000051
40
0.125000000000007
40
0.125000000000007
40
0.156250000000008
40
0.156250000000008
40
0.18750000000001
40
0.18750000000001
40
0.218750000000012
40
0.218750000000012
40
0.250000000000013
40
0.250000000000013
40
0.281250000000015
40
0.281250000000015
40
0.312500000000017
40
0.312500000000017
40
0.328125000000017
40
0.328125000000017
40
0.335937500000017
40
0.335937500000017
40
0.343750000000017
40
0.343750000000017
40
0.375000000000017
40
0.375000000000017
40
0.406250000000016
40
0.406250000000016
40
0.437500000000016
40
0.437500000000016
40
0.468750000000016
40
0.468750000000016
40
0.500000000000016
40
0.500000000000016
40
0.531250000000015
40
0.531250000000015
40
0.562500000000015
40
0.562500000000015
40
0.593750000000015
40
0.593750000000015
40
0.625000000000014
40
0.625000000000014
40
0.656250000000014
40
0.656250000000014
40
0.671875000000014
40
0.671875000000014
40
0.679687500000014
40
0.679687500000014
40
0.687500000000013
40
0.687500000000013
40
0.718750000000012
40
0.718750000000012
40
0.750000000000011
40
0.750000000000011
40
0.781250000000009
40
0.781250000000009
40
0.812500000000008
40
0.812500000000008
40
0.843750000000007
40
0.843750000000007
40
0.875000000000006
40
0.875000000000006
40
0.906250000000004
40
0.906250000000004
40
0.937500000000003
40
0.937500000000003
40
0.968750000000002
40
0.968750000000002
40
1
40
1
40
1
40
1
41
1
10
222.718057886852
20
12
30
0
41
1
10
222.802581837914
20
12
30
0
41
1
10
222.887105788976
20
11.9660943062686
30
0
41
1
10
223.0561536911
20
11.8206147066676
30
0
41
1
10
223.140677642162
20
11.7089868014625
30
0
41
1
10
223.309725544286
20
11.4013674752546
30
0
41
1
10
223.394249495348
20
11.2053308593526
30
0
41
1
10
223.563297397472
20
10.7270005328683
30
0
41
1
10
223.647821348534
20
10.4446842921279
30
0
41
1
10
223.816869250658
20
9.79777185970414
30
0
41
1
10
223.90139320172
20
9.43318605418355
30
0
41
1
10
224.070441103844
20
8.63179775710023
30
0
41
1
10
224.154965054906
20
8.19503994300183
30
0
41
1
10
224.32401295703
20
7.26462585115362
30
0
41
1
10
224.408536908092
20
6.77103914605067
30
0
41
1
10
224.577584810216
20
5.74578046931688
30
0
41
1
10
224.662108761278
20
5.21418602453582
30
0
41
1
10
224.831156663403
20
4.13294354918818
30
0
41
1
10
224.915680614464
20
3.58336326518301
30
0
41
1
10
225.084728516588
20
2.4851540887652
30
0
41
1
10
225.16925246765
20
1.93657101788762
30
0
41
1
10
225.296038394244
20
1.12658615774654
30
0
41
1
10
225.338300369775
20
0.858713644575147
30
0
41
1
10
225.401693333071
20
0.461346250176746
30
0
41
1
10
225.422824320836
20
0.329628786930101
30
0
41
1
10
225.465086296368
20
0.0678570238395366
30
0
41
1
10
225.486217284133
20
-0.061746664734244
30
0
41
1
10
225.591872222961
20
-0.716046094785071
30
0
41
1
10
225.676396174023
20
-1.25296605533416
30
0
41
1
10
225.845444076147
20
-2.34037413252705
30
0
41
1
10
225.929968027209
20
-2.89083586705806
30
0
41
1
10
226.099015929333
20
-3.9883390064827
30
0
41
1
10
226.183539880395
20
-4.53532851741454
30
0
41
1
10
226.352587782518
20
-5.60648173150958
30
0
41
1
10
226.437111733581
20
-6.13057385802537
30
0
41
1
10
226.606159635705
20
-7.13599323047262
30
0
41
1
10
226.690683586767
20
-7.61724316716038
30
0
41
1
10
226.859731488891
20
-8.51879982851997
30
0
41
1
10
226.944255439953
20
-8.93904172705567
30
0
41
1
10
227.113303342077
20
-9.70436849582416
30
0
41
1
10
227.197827293139
20
-10.049416655374
30
0
41
1
10
227.366875195263
20
-10.6556843039188
30
0
41
1
10
227.451399146325
20
-10.9169020451663
30
0
41
1
10
227.620447048449
20
-11.3529725214156
30
0
41
1
10
227.704970999511
20
-11.5278545552799
30
0
41
1
10
227.874018901635
20
-11.7944146392778
30
0
41
1
10
227.958542852697
20
-11.8861413482874
30
0
41
1
10
228.08532877929
20
-11.9670575948283
30
0
41
1
10
228.127590754821
20
-11.9846141079151
30
0
41
1
10
228.190983718118
20
-11.9977515458069
30
0
41
1
10
228.212114705883
20
-11.99993237691
30
0
41
1
10
228.254376681414
20
-12.0000645253348
30
0
41
1
10
228.27550766918
20
-11.9980184298994
30
0
41
1
10
228.381162608007
20
-11.9768093665379
30
0
41
1
10
228.465686559069
20
-11.9246026466417
30
0
41
1
10
228.634734461193
20
-11.7405074074727
30
0
41
1
10
228.719258412255
20
-11.6085657896101
30
0
41
1
10
228.888306314379
20
-11.259355224154
30
0
41
1
10
228.972830265441
20
-11.0420454117993
30
0
41
1
10
229.141878167565
20
-10.5215777173577
30
0
41
1
10
229.226402118627
20
-10.2184047220207
30
0
41
1
10
229.395450020751
20
-9.53170475129562
30
0
41
1
10
229.479973971813
20
-9.14819689404979
30
0
41
1
10
229.649021873937
20
-8.31230110912554
30
0
41
1
10
229.733545824999
20
-7.85996524023665
30
0
41
1
10
229.902593727123
20
-6.90278363985843
30
0
41
1
10
229.987117678186
20
-6.39801116675599
30
0
41
1
10
230.15616558031
20
-5.3552887756704
30
0
41
1
10
230.240689531371
20
-4.81741549562455
30
0
41
1
10
230.409737433496
20
-3.72846601229134
30
0
41
1
10
230.494261384557
20
-3.17745297639883
30
0
41
1
10
230.663309286682
20
-2.08068234042966
30
0
41
1
10
230.747833237744
20
-1.53496427028239
30
0
41
1
10
230.832357188806
20
-0.999558963619592
30
0
0
SPLINE
5
FF
100
AcDbEntity
8
1
62
256
6
ByLayer
370
13
48
1
60
0
100
AcDbSpline
70
4
71
3
72
43
73
39
40
0
40
0
40
0
40
0
40
0.0624999999999999
40
0.0624999999999999
40
0.125
40
0.125
40
0.140625
40
0.1484375
40
0.1484375
40
0.156249999999999
40
0.156249999999999
40
0.1875
40
0.1875
40
0.25
40
0.25
40
0.3125
40
0.3125
40
0.375
40
0.375
40
0.4375
40
0.4375
40
0.5
40
0.5
40
0.5625
40
0.5625
40
0.625
40
0.625
40
0.6875
40
0.6875
40
0.75
40
0.75
40
0.8125
40
0.8125
40
0.875
40
0.875
40
0.9375
40
0.9375
40
1
40
1
40
1
40
1
41
1
10
219.8
20
-3.1436585809972
30
0
41
1
10
219.867726489857
20
-2.70366797129037
30
0
41
1
10
219.935452979714
20
-2.26359879035479
30
0
41
1
10
220.070905959428
20
-1.39189158236783
30
0
41
1
10
220.138632449285
20
-0.960262418095965
30
0
41
1
10
220.223290561606
20
-0.430460593654289
30
0
41
1
10
220.248687995302
20
-0.272244318070847
30
0
41
1
10
220.274085428999
20
-0.115221925092868
30
0
41
1
10
220.291017051463
20
-0.0108168227887688
30
0
41
1
10
220.299482862695
20
0.041212478649868
30
0
41
1
10
220.341811918856
20
0.302492867012489
30
0
41
1
10
220.375675163784
20
0.513716303588552
30
0
41
1
10
220.477264898569
20
1.15282959638861
30
0
41
1
10
220.544991388426
20
1.58621074543495
30
0
41
1
10
220.68044436814
20
2.4602241544136
30
0
41
1
10
220.748170857997
20
2.90084652852013
30
0
41
1
10
220.883623837711
20
3.7805427337903
30
0
41
1
10
220.951350327568
20
4.2195998759791
30
0
41
1
10
221.086803307282
20
5.08633195744531
30
0
41
1
10
221.154529797139
20
5.51398452376958
30
0
41
1
10
221.289982776852
20
6.34763156930683
30
0
41
1
10
221.357709266709
20
6.75360057392328
30
0
41
1
10
221.493162246423
20
7.5338915176653
30
0
41
1
10
221.56088873628
20
7.90818854628975
30
0
41
1
10
221.696341715994
20
8.61620425095867
30
0
41
1
10
221.764068205851
20
8.94990250690421
30
0
41
1
10
221.899521185565
20
9.5695420881022
30
0
41
1
10
221.967247675422
20
9.85547065699552
30
0
41
1
10
222.102700655135
20
10.3746538102184
30
0
41
1
10
222.170427144993
20
10.607904898398
30
0
41
1
10
222.305880124707
20
11.019325796649
30
0
41
1
10
222.373606614563
20
11.1975010725856
30
0
41
1
10
222.509059594277
20
11.4988403384805
30
0
41
1
10
222.576786084134
20
11.6220168383939
30
0
41
1
10
222.712239063848
20
11.8156274725952
30
0
41
1
10
222.779965553705
20
11.8860783198424
30
0
41
1
10
222.915418533419
20
11.9782556040041
30
0
41
1
10
222.983145023276
20
12
30
0
41
1
10
223.050871513133
20
12
30
0
0
SPLINE
5
100
100
AcDbEntity
8
1
62
256
6
ByLayer
370
13
48
1
60
0
100
AcDbSpline
70
4
71
3
72
85
73
81
40
0
40
0
40
0
40
0
40
0.0312500000000007
40
0.0312500000000007
40
0.0625000000000015
40
0.0625000000000015
40
0.0937500000000023
40
0.0937500000000023
40
0.125000000000003
40
0.125000000000003
40
0.156250000000004
40
0.156250000000004
40
0.187500000000005
40
0.187500000000005
40
0.218750000000005
40
0.218750000000005
40
0.250000000000006
40
0.250000000000006
40
0.281250000000007
40
0.281250000000007
40
0.312500000000008
40
0.312500000000008
40
0.320312500000008
40
0.320312500000008
40
0.328125000000008
40
0.328125000000008
40
0.343750000000008
40
0.343750000000008
40
0.375000000000009
40
0.375000000000009
40
0.406250000000009
40
0.406250000000009
40
0.437500000000009
40
0.437500000000009
40
0.46875000000001
40
0.46875000000001
40
0.50000000000001
40
0.50000000000001
40
0.531250000000011
40
0.531250000000011
40
0.562500000000011
40
0.562500000000011
40
0.593750000000011
40
0.593750000000011
40
0.625000000000011
40
0.625000000000011
40
0.640625000000011
40
0.640625000000011
40
0.644531250000012
40
0.644531250000012
40
0.648437500000012
40
0.656250000000012
40
0.656250000000012
40
0.687500000000011
40
0.687500000000011
40
0.718750000000011
40
0.718750000000011
40
0.75000000000001
40
0.75000000000001
40
0.781250000000009
40
0.781250000000009
40
0.812500000000009
40
0.812500000000009
40
0.843750000000008
40
0.843750000000008
40
0.875000000000008
40
0.875000000000008
40
0.906250000000007
40
0.906250000000007
40
0.937500000000006
40
0.937500000000006
40
0.953125000000006
40
0.953125000000006
40
0.960937500000006
40
0.960937500000006
40
0.964843750000005
40
0.964843750000005
40
0.968750000000005
40
0.968750000000005
40
1
40
1
40
1
40
1
41
1
10
222.231714997646
20
12
30
0
41
1
10
222.321305020471
20
12
30
0
41
1
10
222.410895043296
20
11.961892814435
30
0
41
1
10
222.590075088944
20
11.7978210718984
30
0
41
1
10
222.679665111769
20
11.6717845708067
30
0
41
1
10
222.858845157418
20
11.3243149656834
30
0
41
1
10
222.948435180243
20
11.1028241887556
30
0
41
1
10
223.127615225892
20
10.563167702355
30
0
41
1
10
223.217205248717
20
10.2449790983522
30
0
41
1
10
223.396385294366
20
9.51819531735853
30
0
41
1
10
223.48597531719
20
9.10962540709284
30
0
41
1
10
223.665155362839
20
8.21589840534702
30
0
41
1
10
223.754745385664
20
7.73081288663712
30
0
41
1
10
223.933925431313
20
6.70394812066203
30
0
41
1
10
224.023515454138
20
6.16226850755618
30
0
41
1
10
224.202695499787
20
5.04553080539867
30
0
41
1
10
224.292285522612
20
4.47057342734638
30
0
41
1
10
224.471465568261
20
3.31090483200242
30
0
41
1
10
224.561055591085
20
2.72627147278087
30
0
41
1
10
224.740235636734
20
1.56842174131745
30
0
41
1
10
224.829825659559
20
0.995248075981181
30
0
41
1
10
224.94181318809
20
0.296462596076509
30
0
41
1
10
224.964210693796
20
0.157577774176048
30
0
41
1
10
225.009005705208
20
-0.118233206369609
30
0
41
1
10
225.031403210914
20
-0.256766853159689
30
0
41
1
10
225.098595728033
20
-0.675537689277064
30
0
41
1
10
225.143390739445
20
-0.958259458148945
30
0
41
1
10
225.277775773682
20
-1.81414871627612
30
0
41
1
10
225.367365796507
20
-2.39517327020494
30
0
41
1
10
225.546545842155
20
-3.55912601425197
30
0
41
1
10
225.63613586498
20
-4.14199410118172
30
0
41
1
10
225.815315910629
20
-5.28706135972126
30
0
41
1
10
225.904905933454
20
-5.84916942238016
30
0
41
1
10
226.084085979103
20
-6.92888090370553
30
0
41
1
10
226.173676001928
20
-7.44638068137581
30
0
41
1
10
226.352856047577
20
-8.41478170554626
30
0
41
1
10
226.442446070401
20
-8.8655935880688
30
0
41
1
10
226.62162611605
20
-9.68326916252582
30
0
41
1
10
226.711216138875
20
-10.0500819790707
30
0
41
1
10
226.890396184524
20
-10.6893428301343
30
0
41
1
10
226.979986207349
20
-10.9617893689703
30
0
41
1
10
227.159166252998
20
-11.4096457206015
30
0
41
1
10
227.248756275823
20
-11.5850973290404
30
0
41
1
10
227.427936321472
20
-11.8433935342882
30
0
41
1
10
227.517526344296
20
-11.9263052192496
30
0
41
1
10
227.651911378533
20
-11.9885836207243
30
0
41
1
10
227.696706389945
20
-11.9990302318703
30
0
41
1
10
227.752700154211
20
-12.0001617626249
30
0
41
1
10
227.763898907064
20
-11.9997952979946
30
0
41
1
10
227.78629641277
20
-11.9978563999447
30
0
41
1
10
227.819892671329
20
-11.993137035329
30
0
41
1
10
227.853488929888
20
-11.9828723123867
30
0
41
1
10
227.965476458419
20
-11.9358591324355
30
0
41
1
10
228.055066481244
20
-11.8571383564843
30
0
41
1
10
228.234246526893
20
-11.6075867237987
30
0
41
1
10
228.323836549717
20
-11.4366881050143
30
0
41
1
10
228.503016595367
20
-10.9980012123383
30
0
41
1
10
228.592606618191
20
-10.7301694742762
30
0
41
1
10
228.77178666384
20
-10.0998401217738
30
0
41
1
10
228.861376686665
20
-9.73734168032971
30
0
41
1
10
229.040556732314
20
-8.92763452745507
30
0
41
1
10
229.130146755139
20
-8.48047445418314
30
0
41
1
10
229.309326800788
20
-7.51842537627198
30
0
41
1
10
229.398916823612
20
-7.00362438252549
30
0
41
1
10
229.578096869262
20
-5.92819510324176
30
0
41
1
10
229.667686892086
20
-5.36767041437688
30
0
41
1
10
229.846866937735
20
-4.22464057189333
30
0
41
1
10
229.93645696056
20
-3.64222763907711
30
0
41
1
10
230.115637006209
20
-2.47817450552955
30
0
41
1
10
230.205227029033
20
-1.89659610703575
30
0
41
1
10
230.33961206327
20
-1.03927304194315
30
0
41
1
10
230.384407074683
20
-0.755973344861957
30
0
41
1
10
230.451599591801
20
-0.336207686478844
30
0
41
1
10
230.473997097507
20
-0.197147375057284
30
0
41
1
10
230.507593356066
20
0.0099887333983872
30
0
41
1
10
230.51879210892
20
0.0788424613508028
30
0
41
1
10
230.541189614626
20
0.217344213569703
30
0
41
1
10
230.552388367479
20
0.286831742515204
30
0
41
1
10
230.653177143156
20
0.914228273207925
30
0
41
1
10
230.742767165981
20
1.48639864565101
30
0
41
1
10
230.832357188806
20
2.06477350281992
30
0
0
SPLINE
5
101
100
AcDbEntity
8
1
62
256
6
ByLayer
370
13
48
1
60
0
100
AcDbSpline
70
4
71
3
72
41
73
37
40
0
40
0
40
0
40
0
40
0.0156249999999993
40
0.0156249999999993
40
0.0312499999999986
40
0.0624999999999987
40
0.0624999999999987
40
0.124999999999999
40
0.124999999999999
40
0.187499999999999
40
0.187499999999999
40
0.249999999999999
40
0.249999999999999
40
0.312499999999999
40
0.312499999999999
40
0.375
40
0.375
40
0.4375
40
0.4375
40
0.5
40
0.5
40
0.5625
40
0.5625
40
0.625
40
0.625
40
0.6875
40
0.6875
40
0.75
40
0.75
40
0.8125
40
0.8125
40
0.875
40
0.875
40
0.9375
40
0.9375
40
1
40
1
40
1
40
1
41
1
10
219.8
20
-0.0396482732307391
30
0
41
1
10
219.814398586583
20
0.049066998805614
30
0
41
1
10
219.828797173166
20
0.13776234726916
30
0
41
1
10
219.857594346332
20
0.316295218880981
30
0
41
1
10
219.900790106081
20
0.585242537633889
30
0
41
1
10
219.94398586583
20
0.857376122624913
30
0
41
1
10
220.030377385327
20
1.40512913089182
30
0
41
1
10
220.087971731659
20
1.774970230777
30
0
41
1
10
220.203160424323
20
2.51931032888325
30
0
41
1
10
220.260754770654
20
2.89380464206408
30
0
41
1
10
220.375943463318
20
3.64202547764864
30
0
41
1
10
220.43353780965
20
4.01574473179875
30
0
41
1
10
220.548726502314
20
4.75643477955802
30
0
41
1
10
220.606320848646
20
5.12339605374575
30
0
41
1
10
220.721509541309
20
5.844288010951
30
0
41
1
10
220.779103887641
20
6.19820766541423
30
0
41
1
10
220.894292580304
20
6.88674430134645
30
0
41
1
10
220.951886926636
20
7.22134983281651
30
0
41
1
10
221.0670756193
20
7.86533789231549
30
0
41
1
10
221.124669965632
20
8.17470982068099
30
0
41
1
10
221.239858658295
20
8.76299788212646
30
0
41
1
10
221.297453004627
20
9.04190549335627
30
0
41
1
10
221.412641697291
20
9.56501112071712
30
0
41
1
10
221.470236043622
20
9.80920363959243
30
0
41
1
10
221.585424736286
20
10.2598178857342
30
0
41
1
10
221.643019082618
20
10.4662376292686
30
0
41
1
10
221.758207775282
20
10.8395513618009
30
0
41
1
10
221.815802121613
20
11.0064468432644
30
0
41
1
10
221.930990814277
20
11.3002700489539
30
0
41
1
10
221.988585160609
20
11.4272022312973
30
0
41
1
10
222.103773853272
20
11.6418781527881
30
0
41
1
10
222.161368199604
20
11.7296284798176
30
0
41
1
10
222.276556892268
20
11.8677721477488
30
0
41
1
10
222.3341512386
20
11.9181732361471
30
0
41
1
10
222.449339931263
20
11.9842831710841
30
0
41
1
10
222.506934277595
20
12
30
0
41
1
10
222.564528623927
20
12
30
0
0
SPLINE
5
102
100
AcDbEntity
8
1
62
256
6
ByLayer
370
13
48
1
60
0
100
AcDbSpline
70
4
71
3
72
85
73
81
40
0
40
0
40
0
40
0
40
0.0312500000000015
40
0.0312500000000015
40
0.0625000000000029
40
0.0625000000000029
40
0.0937500000000044
40
0.0937500000000044
40
0.125000000000006
40
0.125000000000006
40
0.156250000000007
40
0.156250000000007
40
0.187500000000009
40
0.187500000000009
40
0.21875000000001
40
0.21875000000001
40
0.250000000000011
40
0.250000000000011
40
0.281250000000013
40
0.281250000000013
40
0.296875000000013
40
0.296875000000013
40
0.300781250000013
40
0.300781250000013
40
0.304687500000013
40
0.304687500000013
40
0.312500000000014
40
0.312500000000014
40
0.343750000000015
40
0.343750000000015
40
0.375000000000017
40
0.375000000000017
40
0.406250000000018
40
0.406250000000018
40
0.43750000000002
40
0.43750000000002
40
0.468750000000021
40
0.468750000000021
40
0.500000000000023
40
0.500000000000023
40
0.531250000000024
40
0.531250000000024
40
0.562500000000025
40
0.562500000000025
40
0.593750000000027
40
0.593750000000027
40
0.601562500000027
40
0.605468750000027
40
0.605468750000027
40
0.609375000000027
40
0.609375000000027
40
0.625000000000026
40
0.625000000000026
40
0.656250000000024
40
0.656250000000024
40
0.687500000000021
40
0.687500000000021
40
0.718750000000019
40
0.718750000000019
40
0.750000000000017
40
0.750000000000017
40
0.781250000000015
40
0.781250000000015
40
0.812500000000012
40
0.812500000000012
40
0.84375000000001
40
0.84375000000001
40
0.875000000000008
40
0.875000000000008
40
0.906250000000006
40
0.906250000000006
40
0.914062500000005
40
0.914062500000005
40
0.921875000000005
40
0.921875000000005
40
0.937500000000004
40
0.937500000000004
40
0.968750000000002
40
0.968750000000002
40
1
40
1
40
1
40
1
41
1
10
221.745372108441
20
12
30
0
41
1
10
221.840028203028
20
12
30
0
41
1
10
221.934684297615
20
11.9574427614609
30
0
41
1
10
222.123996486789
20
11.7735958310356
30
0
41
1
10
222.218652581376
20
11.6322119033248
30
0
41
1
10
222.407964770551
20
11.2423477271404
30
0
41
1
10
222.502620865138
20
10.9937955852601
30
0
41
1
10
222.691933054312
20
10.3892700753034
30
0
41
1
10
222.786589148899
20
10.0332766165793
30
0
41
1
10
222.975901338073
20
9.22307109098128
30
0
41
1
10
223.07055743266
20
8.76890708529118
30
0
41
1
10
223.259869621835
20
7.78071369274377
30
0
41
1
10
223.354525716422
20
7.24679202216322
30
0
41
1
10
223.543837905596
20
6.12419110353372
30
0
41
1
10
223.638494000183
20
5.53564740688131
30
0
41
1
10
223.827806189357
20
4.33187594888557
30
0
41
1
10
223.922462283945
20
3.7167717943141
30
0
41
1
10
224.111774473119
20
2.48687944667501
30
0
41
1
10
224.206430567706
20
1.87217369206906
30
0
41
1
10
224.348414709587
20
0.967406576748459
30
0
41
1
10
224.39574275688
20
0.668658581249275
30
0
41
1
10
224.454902815997
20
0.300200160634546
30
0
41
1
10
224.466734827821
20
0.226756359147828
30
0
41
1
10
224.490398851467
20
0.0803963418608475
30
0
41
1
10
224.502230863291
20
0.0076610882432533
30
0
41
1
10
224.537726898761
20
-0.211234266582437
30
0
41
1
10
224.561390922408
20
-0.358245200078414
30
0
41
1
10
224.679711040642
20
-1.09806395706974
30
0
41
1
10
224.774367135229
20
-1.70539710558936
30
0
41
1
10
224.963679324403
20
-2.93083034152676
30
0
41
1
10
225.05833541899
20
-3.54886944727926
30
0
41
1
10
225.247647608165
20
-4.77031018805079
30
0
41
1
10
225.342303702752
20
-5.3736032511911
30
0
41
1
10
225.531615891926
20
-6.53752273432667
30
0
41
1
10
225.626271986513
20
-7.09801406727698
30
0
41
1
10
225.815584175687
20
-8.14943331550842
30
0
41
1
10
225.910240270275
20
-8.64023686977919
30
0
41
1
10
226.099552459449
20
-9.53056172141035
30
0
41
1
10
226.194208554036
20
-9.93000697461204
30
0
41
1
10
226.38352074321
20
-10.6242162722249
30
0
41
1
10
226.478176837797
20
-10.9189721313787
30
0
41
1
10
226.667489026972
20
-11.4000386354797
30
0
41
1
10
226.762145121559
20
-11.5864023432416
30
0
41
1
10
226.951457310733
20
-11.8558330348928
30
0
41
1
10
227.04611340532
20
-11.9389885310251
30
0
41
1
10
227.164433523554
20
-11.9857639363107
30
0
41
1
10
227.199929559024
20
-11.9955273699761
30
0
41
1
10
227.235425594494
20
-11.9991407778487
30
0
41
1
10
227.259089618141
20
-12.0002127336804
30
0
41
1
10
227.270921629965
20
-12.0000844566024
30
0
41
1
10
227.330081689082
20
-11.9961003550901
30
0
41
1
10
227.377409736375
20
-11.9821615897628
30
0
41
1
10
227.519393878256
20
-11.9054036183703
30
0
41
1
10
227.614049972843
20
-11.8074566791214
30
0
41
1
10
227.803362162017
20
-11.5071775854956
30
0
41
1
10
227.898018256604
20
-11.304760238687
30
0
41
1
10
228.087330445779
20
-10.7915283200854
30
0
41
1
10
228.181986540366
20
-10.4806685031857
30
0
41
1
10
228.37129872954
20
-9.75562771081863
30
0
41
1
10
228.465954824127
20
-9.3414652592617
30
0
41
1
10
228.655267013302
20
-8.42446178976908
30
0
41
1
10
228.749923107889
20
-7.92170587722632
30
0
41
1
10
228.939235297063
20
-6.85015523384095
30
0
41
1
10
229.03389139165
20
-6.28148907143444
30
0
41
1
10
229.223203580824
20
-5.10543761244452
30
0
41
1
10
229.317859675411
20
-4.49818554771224
30
0
41
1
10
229.507171864586
20
-3.27287861040816
30
0
41
1
10
229.601827959173
20
-2.65492603013496
30
0
41
1
10
229.791140148347
20
-1.43307211528116
30
0
41
1
10
229.885796242934
20
-0.829224144313343
30
0
41
1
10
230.004116361168
20
-0.0953254992971893
30
0
41
1
10
230.027780384815
20
0.0497788257222567
30
0
41
1
10
230.075108432108
20
0.342907209794049
30
0
41
1
10
230.098772455755
20
0.490515193156
30
0
41
1
10
230.169764526696
20
0.936075867837303
30
0
41
1
10
230.217092573989
20
1.23677711538548
30
0
41
1
10
230.35907671587
20
2.14627104978038
30
0
41
1
10
230.453732810457
20
2.76260821515075
30
0
41
1
10
230.643044999631
20
3.99195385688452
30
0
41
1
10
230.737701094218
20
4.60487265664247
30
0
41
1
10
230.832357188806
20
5.20246843538314
30
0
0
SPLINE
5
103
100
AcDbEntity
8
1
62
256
6
ByLayer
370
13
48
1
60
0
100
AcDbSpline
70
4
71
3
72
22
73
18
40
0
40
0
40
0
40
0
40
0.125
40
0.125
40
0.25
40
0.25
40
0.375
40
0.375
40
0.5
40
0.5
40
0.625
40
0.625
40
0.75
40
0.75
40
0.875
40
0.875
40
1
40
1
40
1
40
1
41
1
10
219.8
20
3.05999095171018
30
0
41
1
10
219.894924405613
20
3.6766725622378
30
0
41
1
10
219.989848811227
20
4.29380145769059
30
0
41
1
10
220.179697622454
20
5.50203452602221
30
0
41
1
10
220.274622028067
20
6.09301393907504
30
0
41
1
10
220.464470839294
20
7.2206441310492
30
0
41
1
10
220.559395244907
20
7.75715731297959
30
0
41
1
10
220.749244056134
20
8.75039897906495
30
0
41
1
10
220.844168461747
20
9.20701755299018
30
0
41
1
10
221.034017272974
20
10.0217334146223
30
0
41
1
10
221.128941678587
20
10.3797811717784
30
0
41
1
10
221.318790489814
20
10.9878391256129
30
0
41
1
10
221.413714895428
20
11.2378691466462
30
0
41
1
10
221.603563706654
20
11.6300495881084
30
0
41
1
10
221.698488112268
20
11.7722726996691
30
0
41
1
10
221.888336923494
20
11.957200130416
30
0
41
1
10
221.983261329108
20
12
30
0
41
1
10
222.078185734721
20
12
30
0
0
SPLINE
5
104
100
AcDbEntity
8
1
62
256
6
ByLayer
370
13
48
1
60
0
100
AcDbSpline
70
4
71
3
72
88
73
84
40
0
40
0
40
0
40
0
40
0.0312499999999977
40
0.0312499999999977
40
0.0624999999999953
40
0.0624999999999953
40
0.093749999999993
40
0.093749999999993
40
0.124999999999991
40
0.124999999999991
40
0.156249999999988
40
0.156249999999988
40
0.187499999999986
40
0.187499999999986
40
0.218749999999984
40
0.218749999999984
40
0.249999999999981
40
0.249999999999981
40
0.281249999999979
40
0.281249999999979
40
0.285156249999979
40
0.285156249999979
40
0.289062499999979
40
0.289062499999979
40
0.296874999999979
40
0.296874999999979
40
0.31249999999998
40
0.31249999999998
40
0.343749999999981
40
0.343749999999981
40
0.374999999999982
40
0.374999999999982
40
0.406249999999982
40
0.406249999999982
40
0.437499999999983
40
0.437499999999983
40
0.468749999999984
40
0.468749999999984
40
0.499999999999985
40
0.499999999999985
40
0.531249999999986
40
0.531249999999986
40
0.562499999999986
40
0.562499999999986
40
0.570312499999987
40
0.570312499999987
40
0.574218749999987
40
0.574218749999987
40
0.578124999999987
40
0.578124999999987
40
0.593749999999988
40
0.593749999999988
40
0.624999999999988
40
0.624999999999988
40
0.656249999999989
40
0.656249999999989
40
0.68749999999999
40
0.68749999999999
40
0.718749999999991
40
0.718749999999991
40
0.749999999999992
40
0.749999999999992
40
0.781249999999992
40
0.781249999999992
40
0.812499999999993
40
0.812499999999993
40
0.843749999999994
40
0.843749999999994
40
0.859374999999994
40
0.859374999999994
40
0.863281249999995
40
0.863281249999995
40
0.867187499999995
40
0.867187499999995
40
0.874999999999995
40
0.874999999999995
40
0.906249999999996
40
0.906249999999996
40
0.937499999999998
40
0.937499999999998
40
0.968749999999999
40
0.968749999999999
40
1
40
1
40
1
40
1
41
1
10
221.259029219235
20
12
30
0
41
1
10
221.358751385585
20
12
30
0
41
1
10
221.458473551934
20
11.9527433443376
30
0
41
1
10
221.657917884634
20
11.7479292402746
30
0
41
1
10
221.757640050983
20
11.5902502394986
30
0
41
1
10
221.957084383683
20
11.15544805182
30
0
41
1
10
222.056806550032
20
10.8782372611148
30
0
41
1
10
222.256250882732
20
10.2054067787197
30
0
41
1
10
222.355973049082
20
9.80977460181057
30
0
41
1
10
222.555417381781
20
8.91296509133787
30
0
41
1
10
222.655139548131
20
8.41186874001841
30
0
41
1
10
222.85458388083
20
7.32783253943126
30
0
41
1
10
222.95430604718
20
6.74504683351771
30
0
41
1
10
223.153750379879
20
5.52852747524585
30
0
41
1
10
223.253472546229
20
4.89496989229465
30
0
41
1
10
223.452916878928
20
3.60982698432767
30
0
41
1
10
223.552639045278
20
2.95838504379657
30
0
41
1
10
223.752083377977
20
1.66742721262833
30
0
41
1
10
223.851805544327
20
1.02799027720315
30
0
41
1
10
223.96399298147
20
0.328583611932316
30
0
41
1
10
223.976458252264
20
0.251144235761302
30
0
41
1
10
224.001388793852
20
0.0968478578327563
30
0
41
1
10
224.013854064645
20
0.0201799811687806
30
0
41
1
10
224.051249877026
20
-0.21036343275631
30
0
41
1
10
224.076180418614
20
-0.36526130205317
30
0
41
1
10
224.150972043376
20
-0.833112796972245
30
0
41
1
10
224.200833126551
20
-1.14923899053991
30
0
41
1
10
224.350416376075
20
-2.10616345824624
30
0
41
1
10
224.450138542425
20
-2.75569862222298
30
0
41
1
10
224.649582875125
20
-4.05072396831429
30
0
41
1
10
224.749305041474
20
-4.69609698180915
30
0
41
1
10
224.948749374174
20
-5.95073387835129
30
0
41
1
10
225.048471540523
20
-6.55983021117243
30
0
41
1
10
225.247915873223
20
-7.70947166680551
30
0
41
1
10
225.347638039572
20
-8.24984578685635
30
0
41
1
10
225.547082372272
20
-9.23450510291735
30
0
41
1
10
225.646804538621
20
-9.67867243414378
30
0
41
1
10
225.846248871321
20
-10.4528310227834
30
0
41
1
10
225.945971037671
20
-10.7827939002003
30
0
41
1
10
226.14541537037
20
-11.3222086049701
30
0
41
1
10
226.24513753672
20
-11.5317193791485
30
0
41
1
10
226.444581869419
20
-11.8351426272292
30
0
41
1
10
226.544304035769
20
-11.9291672687232
30
0
41
1
10
226.668956743706
20
-11.9828503183498
30
0
41
1
10
226.693887285293
20
-11.9904102372056
30
0
41
1
10
226.731283097674
20
-11.9971813702513
30
0
41
1
10
226.743748368468
20
-11.9986770925543
30
0
41
1
10
226.768678910056
20
-12.0001800847071
30
0
41
1
10
226.781144180849
20
-12.0001916676065
30
0
41
1
10
226.843470534818
20
-11.9965520822334
30
0
41
1
10
226.893331617993
20
-11.9817269366597
30
0
41
1
10
227.042914867517
20
-11.8983720130415
30
0
41
1
10
227.142637033867
20
-11.7907281931057
30
0
41
1
10
227.342081366566
20
-11.4589243068177
30
0
41
1
10
227.441803532916
20
-11.2346562372569
30
0
41
1
10
227.641247865615
20
-10.6658453479452
30
0
41
1
10
227.740970031965
20
-10.3212529422162
30
0
41
1
10
227.940414364664
20
-9.51942276103117
30
0
41
1
10
228.040136531014
20
-9.06222507436541
30
0
41
1
10
228.239580863714
20
-8.05443990115924
30
0
41
1
10
228.339303030063
20
-7.50397944886575
30
0
41
1
10
228.538747362763
20
-6.33799322873332
30
0
41
1
10
228.638469529112
20
-5.72264117679899
30
0
41
1
10
228.837913861812
20
-4.45956869719964
30
0
41
1
10
228.937636028161
20
-3.81201167099135
30
0
41
1
10
229.137080360861
20
-2.51632078375701
30
0
41
1
10
229.236802527211
20
-1.86829599999379
30
0
41
1
10
229.386385776735
20
-0.915815682228583
30
0
41
1
10
229.43624685991
20
-0.601531501565802
30
0
41
1
10
229.498573213878
20
-0.214335684956268
30
0
41
1
10
229.511038484672
20
-0.13717832330201
30
0
41
1
10
229.53596902626
20
0.0165363068306021
30
0
41
1
10
229.548434297053
20
0.0931900695068464
30
0
41
1
10
229.585830109434
20
0.324606947023653
30
0
41
1
10
229.610760651022
20
0.480051715245878
30
0
41
1
10
229.735413358959
20
1.26234302307651
30
0
41
1
10
229.835135525309
20
1.90467414832631
30
0
41
1
10
230.034579858008
20
3.19804776240974
30
0
41
1
10
230.134302024358
20
3.84900273266783
30
0
41
1
10
230.333746357057
20
5.12920453273003
30
0
41
1
10
230.433468523407
20
5.75830162088039
30
0
41
1
10
230.632912856106
20
6.96188130999363
30
0
41
1
10
230.732635022456
20
7.53618736059593
30
0
41
1
10
230.832357188806
20
8.0680200269116
30
0
0
SPLINE
5
105
100
AcDbEntity
8
1
62
256
6
ByLayer
370
13
48
1
60
0
100
AcDbSpline
70
4
71
3
72
22
73
18
40
0
40
0
40
0
40
0
40
0.125
40
0.125
40
0.250000000000001
40
0.250000000000001
40
0.375
40
0.375
40
0.5
40
0.5
40
0.625
40
0.625
40
0.75
40
0.75
40
0.875
40
0.875
40
1
40
1
40
1
40
1
41
1
10
219.8
20
6.15602975317466
30
0
41
1
10
219.874660118563
20
6.61102132632703
30
0
41
1
10
219.949320237126
20
7.05168674842304
30
0
41
1
10
220.098640474253
20
7.89129599584848
30
0
41
1
10
220.173300592816
20
8.29020077747717
30
0
41
1
10
220.322620829942
20
9.03500588527947
30
0
41
1
10
220.397280948505
20
9.3808773312833
30
0
41
1
10
220.546601185632
20
10.0112496197063
30
0
41
1
10
220.621261304195
20
10.295736930803
30
0
41
1
10
220.770581541321
20
10.7985446509699
30
0
41
1
10
220.845241659884
20
11.0168682087763
30
0
41
1
10
220.99456189701
20
11.3862789037942
30
0
41
1
10
221.069222015574
20
11.5373832884139
30
0
41
1
10
221.2185422527
20
11.774693654285
30
0
41
1
10
221.293202371263
20
11.8609257958415
30
0
41
1
10
221.442522608389
20
11.9735643738684
30
0
41
1
10
221.517182726953
20
12
30
0
41
1
10
221.591842845516
20
12
30
0
0
SPLINE
5
106
100
AcDbEntity
8
1
62
256
6
ByLayer
370
13
48
1
60
0
100
AcDbSpline
70
4
71
3
72
129
73
125
40
0
40
0
40
0
40
0
40
0.0312499999999955
40
0.0312499999999955
40
0.062499999999991
40
0.062499999999991
40
0.0781249999999887
40
0.0781249999999887
40
0.0937499999999864
40
0.0937499999999864
40
0.109374999999984
40
0.109374999999984
40
0.124999999999982
40
0.124999999999982
40
0.14062499999998
40
0.14062499999998
40
0.156249999999977
40
0.156249999999977
40
0.171874999999975
40
0.171874999999975
40
0.187499999999973
40
0.187499999999973
40
0.20312499999997
40
0.20312499999997
40
0.218749999999968
40
0.218749999999968
40
0.249999999999964
40
0.249999999999964
40
0.265624999999961
40
0.265624999999961
40
0.27343749999996
40
0.27343749999996
40
0.27734374999996
40
0.27734374999996
40
0.28124999999996
40
0.28124999999996
40
0.312499999999959
40
0.312499999999959
40
0.32812499999996
40
0.32812499999996
40
0.34374999999996
40
0.34374999999996
40
0.35937499999996
40
0.35937499999996
40
0.37499999999996
40
0.37499999999996
40
0.39062499999996
40
0.39062499999996
40
0.40624999999996
40
0.40624999999996
40
0.42187499999996
40
0.42187499999996
40
0.43749999999996
40
0.43749999999996
40
0.45312499999996
40
0.45312499999996
40
0.46874999999996
40
0.46874999999996
40
0.48437499999996
40
0.48437499999996
40
0.49999999999996
40
0.49999999999996
40
0.53124999999996
40
0.53124999999996
40
0.54687499999996
40
0.54687499999996
40
0.550781249999961
40
0.550781249999961
40
0.554687499999961
40
0.562499999999962
40
0.562499999999962
40
0.593749999999967
40
0.593749999999967
40
0.609374999999969
40
0.609374999999969
40
0.624999999999971
40
0.624999999999971
40
0.640624999999973
40
0.640624999999973
40
0.656249999999975
40
0.656249999999975
40
0.671874999999977
40
0.671874999999977
40
0.687499999999979
40
0.687499999999979
40
0.703124999999981
40
0.703124999999981
40
0.718749999999983
40
0.718749999999983
40
0.734374999999985
40
0.734374999999985
40
0.749999999999987
40
0.749999999999987
40
0.765624999999989
40
0.765624999999989
40
0.781249999999991
40
0.781249999999991
40
0.812499999999996
40
0.812499999999996
40
0.820312499999997
40
0.820312499999997
40
0.824218749999997
40
0.824218749999997
40
0.828124999999998
40
0.828124999999998
40
0.843749999999998
40
0.843749999999998
40
0.874999999999999
40
0.874999999999999
40
0.890624999999999
40
0.890624999999999
40
0.906249999999999
40
0.906249999999999
40
0.921874999999999
40
0.921874999999999
40
0.937499999999999
40
0.937499999999999
40
0.953124999999999
40
0.953124999999999
40
0.96875
40
0.96875
40
0.984375
40
0.984375
40
1
40
1
40
1
40
1
41
1
10
220.772686330029
20
12
30
0
41
1
10
220.877474568142
20
12
30
0
41
1
10
220.982262806254
20
11.947793691758
30
0
41
1
10
221.191839282478
20
11.7208118927426
30
0
41
1
10
221.296627520591
20
11.5458817905293
30
0
41
1
10
221.453809877759
20
11.184173309997
30
0
41
1
10
221.506203996815
20
11.0471343903826
30
0
41
1
10
221.610992234927
20
10.7400685962477
30
0
41
1
10
221.663386353983
20
10.5700399000025
30
0
41
1
10
221.768174592096
20
10.1978165248502
30
0
41
1
10
221.820568711152
20
9.99562188365246
30
0
41
1
10
221.925356949264
20
9.56079430593309
30
0
41
1
10
221.97775106832
20
9.32816342635567
30
0
41
1
10
222.082539306432
20
8.83506576073648
30
0
41
1
10
222.134933425489
20
8.57460297037017
30
0
41
1
10
222.239721663601
20
8.02922722490069
30
0
41
1
10
222.292115782657
20
7.74431987910941
30
0
41
1
10
222.396904020769
20
7.15407854779002
30
0
41
1
10
222.449298139825
20
6.84875125929111
30
0
41
1
10
222.554086377938
20
6.22214454093449
30
0
41
1
10
222.606480496993
20
5.90087225229425
30
0
41
1
10
222.711268735106
20
5.24709085139884
30
0
41
1
10
222.763662854162
20
4.91458866635057
30
0
41
1
10
222.868451092274
20
4.24309004621784
30
0
41
1
10
222.92084521133
20
3.90409974976211
30
0
41
1
10
223.078027568499
20
2.88424505852944
30
0
41
1
10
223.182815806611
20
2.20074441609381
30
0
41
1
10
223.33999816378
20
1.19408155651101
30
0
41
1
10
223.392392282836
20
0.861568605650234
30
0
41
1
10
223.47098346142
20
0.369772765291828
30
0
41
1
10
223.497180520948
20
0.206998620271491
30
0
41
1
10
223.53647611024
20
-0.0351654403575594
30
0
41
1
10
223.549574640004
20
-0.115792007479968
30
0
41
1
10
223.575771699532
20
-0.27804769950933
30
0
41
1
10
223.588870229296
20
-0.359495080033525
30
0
41
1
10
223.706756997173
20
-1.09520068760787
30
0
41
1
10
223.811545235285
20
-1.76858093346462
30
0
41
1
10
223.968727592453
20
-2.78714264433492
30
0
41
1
10
224.021121711509
20
-3.12800668870193
30
0
41
1
10
224.125909949621
20
-3.80823707175119
30
0
41
1
10
224.178304068677
20
-4.14759860713869
30
0
41
1
10
224.28309230679
20
-4.82028001396711
30
0
41
1
10
224.335486425846
20
-5.15359384539445
30
0
41
1
10
224.440274663958
20
-5.80944695674779
30
0
41
1
10
224.492668783014
20
-6.13197936119846
30
0
41
1
10
224.597457021126
20
-6.76154328432912
30
0
41
1
10
224.649851140183
20
-7.06856765449919
30
0
41
1
10
224.754639378295
20
-7.66260841703121
30
0
41
1
10
224.807033497351
20
-7.94961804210018
30
0
41
1
10
224.911821735463
20
-8.49955280507845
30
0
41
1
10
224.964215854519
20
-8.76247220632044
30
0
41
1
10
225.069004092632
20
-9.26077063701939
30
0
41
1
10
225.121398211688
20
-9.49614550145196
30
0
41
1
10
225.2261864498
20
-9.93667008727928
30
0
41
1
10
225.278580568856
20
-10.141817561876
30
0
41
1
10
225.383368806968
20
-10.5200710241619
30
0
41
1
10
225.435762926024
20
-10.693176787377
30
0
41
1
10
225.540551164137
20
-11.0064361457614
30
0
41
1
10
225.592945283193
20
-11.1465914001563
30
0
41
1
10
225.697733521305
20
-11.3939224424584
30
0
41
1
10
225.750127640361
20
-11.5011014359652
30
0
41
1
10
225.90730999753
20
-11.7743416711791
30
0
41
1
10
226.012098235642
20
-11.8918414024762
30
0
41
1
10
226.16928059281
20
-11.9816125773879
30
0
41
1
10
226.221674711867
20
-11.9971962549266
30
0
41
1
10
226.287167360687
20
-12.0002678959521
30
0
41
1
10
226.300265890451
20
-12.0000685609453
30
0
41
1
10
226.326462949979
20
-11.9980279322965
30
0
41
1
10
226.365758539271
20
-11.9924935953209
30
0
41
1
10
226.405054128563
20
-11.9793589957926
30
0
41
1
10
226.536039426203
20
-11.91793421232
30
0
41
1
10
226.640827664316
20
-11.8120207707253
30
0
41
1
10
226.798010021484
20
-11.5568679416642
30
0
41
1
10
226.85040414054
20
-11.4558324933703
30
0
41
1
10
226.955192378652
20
-11.2208773678897
30
0
41
1
10
227.007586497709
20
-11.0869542432974
30
0
41
1
10
227.112374735821
20
-10.7860887493656
30
0
41
1
10
227.164768854877
20
-10.6191443989834
30
0
41
1
10
227.269557092989
20
-10.252973738204
30
0
41
1
10
227.321951212045
20
-10.0537472802036
30
0
41
1
10
227.426739450157
20
-9.62465520589384
30
0
41
1
10
227.479133569214
20
-9.39479145596525
30
0
41
1
10
227.583921807326
20
-8.90694782673802
30
0
41
1
10
227.636315926382
20
-8.64897177085228
30
0
41
1
10
227.741104164494
20
-8.10822097222527
30
0
41
1
10
227.79349828355
20
-7.8254517067173
30
0
41
1
10
227.898286521662
20
-7.23908542201926
30
0
41
1
10
227.950680640719
20
-6.9354950238143
30
0
41
1
10
228.055468878831
20
-6.31192726377915
30
0
41
1
10
228.107862997887
20
-5.99195702996741
30
0
41
1
10
228.212651235999
20
-5.34033144739684
30
0
41
1
10
228.265045355055
20
-5.00868307243096
30
0
41
1
10
228.369833593168
20
-4.33845002948019
30
0
41
1
10
228.422227712224
20
-3.99987159500626
30
0
41
1
10
228.527015950336
20
-3.32037394065523
30
0
41
1
10
228.579410069392
20
-2.97945977880838
30
0
41
1
10
228.736592426561
20
-1.9596130450216
30
0
41
1
10
228.841380664673
20
-1.28385834681467
30
0
41
1
10
228.972365962313
20
-0.46205436670536
30
0
41
1
10
228.998563021841
20
-0.298816617606292
30
0
41
1
10
229.037858611133
20
-0.0559102331889392
30
0
41
1
10
229.050957140898
20
0.0245305779845637
30
0
41
1
10
229.077154200425
20
0.186299163742035
30
0
41
1
10
229.090252730189
20
0.26751091791607
30
0
41
1
10
229.155745379009
20
0.675099933564638
30
0
41
1
10
229.208139498066
20
1.00609064193674
30
0
41
1
10
229.365321855234
20
2.00916065750934
30
0
41
1
10
229.470110093346
20
2.69157485682237
30
0
41
1
10
229.627292450515
20
3.71229485310579
30
0
41
1
10
229.679686569571
20
4.05198723127893
30
0
41
1
10
229.784474807683
20
4.72576893455266
30
0
41
1
10
229.836868926739
20
5.05985232183318
30
0
41
1
10
229.941657164852
20
5.71769300766826
30
0
41
1
10
229.994051283908
20
6.04144348751464
30
0
41
1
10
230.09883952202
20
6.67388247815424
30
0
41
1
10
230.151233641076
20
6.98256383901526
30
0
41
1
10
230.256021879188
20
7.5803276819814
30
0
41
1
10
230.308415998244
20
7.86940333236248
30
0
41
1
10
230.413204236357
20
8.42383013373572
30
0
41
1
10
230.465598355413
20
8.68917542556432
30
0
41
1
10
230.570386593525
20
9.19262005325376
30
0
41
1
10
230.622780712581
20
9.43071505784854
30
0
41
1
10
230.727568950693
20
9.87689670232137
30
0
41
1
10
230.779963069749
20
10.0849809064698
30
0
41
1
10
230.832357188806
20
10.2771106120248
30
0
0
SPLINE
5
107
100
AcDbEntity
8
1
62
256
6
ByLayer
370
13
48
1
60
0
100
AcDbSpline
70
4
71
3
72
22
73
18
40
0
40
0
40
0
40
0
40
0.125
40
0.125
40
0.25
40
0.25
40
0.375
40
0.375
40
0.5
40
0.5
40
0.625
40
0.625
40
0.75
40
0.75
40
0.875
40
0.875
40
1
40
1
40
1
40
1
41
1
10
219.8
20
8.85170253454643
30
0
41
1
10
219.854395831513
20
9.11633210474326
30
0
41
1
10
219.908791663026
20
9.36647308552799
30
0
41
1
10
220.017583326052
20
9.83460730285225
30
0
41
1
10
220.071979157565
20
10.0525974114964
30
0
41
1
10
220.18077082059
20
10.4542425809967
30
0
41
1
10
220.235166652103
20
10.6378970446936
30
0
41
1
10
220.343958315129
20
10.9697341177832
30
0
41
1
10
220.398354146642
20
11.1179185214696
30
0
41
1
10
220.507145809668
20
11.3787103640209
30
0
41
1
10
220.561541641181
20
11.4913215723143
30
0
41
1
10
220.670333304207
20
11.6818083061346
30
0
41
1
10
220.72472913572
20
11.759688982685
30
0
41
1
10
220.833520798745
20
11.8823660887088
30
0
41
1
10
220.887916630258
20
11.9271683961629
30
0
41
1
10
220.996708293284
20
11.985982355119
30
0
41
1
10
221.051104124797
20
12
30
0
41
1
10
221.10549995631
20
12
30
0
0
SPLINE
5
108
100
AcDbEntity
8
1
62
256
6
ByLayer
370
13
48
1
60
0
100
AcDbSpline
70
4
71
3
72
8
73
4
40
0
40
0
40
0
40
0
40
1
40
1
40
1
40
1
41
1
10
230.832357188806
20
5.90460364938551
30
0
41
1
10
232.28823812587
20
3.95161173167412
30
0
41
1
10
233.744119062935
20
1.98339169388387
30
0
41
1
10
235.2
20
2.84E-14
30
0
0
SPLINE
5
109
100
AcDbEntity
8
1
62
256
6
ByLayer
370
13
48
1
60
0
100
AcDbSpline
70
4
71
3
72
8
73
4
40
0
40
0
40
0
40
0
40
1
40
1
40
1
40
1
41
1
10
230.832357188806
20
-5.07689622958563
30
0
41
1
10
232.28823812587
20
-3.40042748037627
30
0
41
1
10
233.744119062935
20
-1.70811254547462
30
0
41
1
10
235.2
20
2.558E-13
30
0
0
SPLINE
5
10A
100
AcDbEntity
8
1
62
256
6
ByLayer
370
13
48
1
60
0
100
AcDbSpline
70
4
71
3
72
8
73
4
40
0
40
0
40
0
40
0
40
1
40
1
40
1
40
1
41
1
10
230.832357188806
20
4.31659780311864
30
0
41
1
10
232.288238125871
20
2.86143074863171
30
0
41
1
10
233.744119062936
20
1.4225511419861
30
0
41
1
10
235.200000000001
20
-6.537E-13
30
0
0
SPLINE
5
10B
100
AcDbEntity
8
1
62
256
6
ByLayer
370
13
48
1
60
0
100
AcDbSpline
70
4
71
3
72
8
73
4
40
0
40
0
40
0
40
0
40
1
40
1
40
1
40
1
41
1
10
230.832357188806
20
9.52422339654487
30
0
41
1
10
232.28823812587
20
6.36011011230732
30
0
41
1
10
233.744119062935
20
3.18533866522083
30
0
41
1
10
235.2
20
2.84E-14
30
0
0
SPLINE
5
10C
100
AcDbEntity
8
1
62
256
6
ByLayer
370
13
48
1
60
0
100
AcDbSpline
70
4
71
3
72
8
73
4
40
0
40
0
40
0
40
0
40
1
40
1
40
1
40
1
41
1
10
230.832357188806
20
-10.0622098923268
30
0
41
1
10
232.28823812587
20
-6.6986206562961
30
0
41
1
10
233.744119062935
20
-3.34451873087474
30
0
41
1
10
235.2
20
-2.84E-14
30
0
0
SPLINE
5
10D
100
AcDbEntity
8
1
62
256
6
ByLayer
370
13
48
1
60
0
100
AcDbSpline
70
4
71
3
72
8
73
4
40
0
40
0
40
0
40
0
40
1
40
1
40
1
40
1
41
1
10
230.832357188806
20
-11.6879231345127
30
0
41
1
10
232.28823812587
20
-7.79590716055091
30
0
41
1
10
233.744119062935
20
-3.89989560945872
30
0
41
1
10
235.2
20
-6.537E-13
30
0
0
SPLINE
5
10E
100
AcDbEntity
8
1
62
256
6
ByLayer
370
13
48
1
60
0
100
AcDbSpline
70
4
71
3
72
8
73
4
40
0
40
0
40
0
40
0
40
1
40
1
40
1
40
1
41
1
10
230.832357188806
20
-7.14742750533958
30
0
41
1
10
232.288238125871
20
-4.77898520556465
30
0
41
1
10
233.744119062935
20
-2.3964866014532
30
0
41
1
10
235.2
20
3.411E-13
30
0
0
SPLINE
5
10F
100
AcDbEntity
8
1
62
256
6
ByLayer
370
13
48
1
60
0
100
AcDbSpline
70
4
71
3
72
8
73
4
40
0
40
0
40
0
40
0
40
1
40
1
40
1
40
1
41
1
10
230.832357188806
20
3.17028038120409
30
0
41
1
10
232.28823812587
20
2.09667040100047
30
0
41
1
10
233.744119062935
20
1.03990024798196
30
0
41
1
10
235.2
20
-1.421E-13
30
0
0
SPLINE
5
110
100
AcDbEntity
8
1
62
256
6
ByLayer
370
13
48
1
60
0
100
AcDbSpline
70
4
71
3
72
8
73
4
40
0
40
0
40
0
40
0
40
1
40
1
40
1
40
1
41
1
10
230.832357188806
20
-6.69782154155914
30
0
41
1
10
232.288238125871
20
-4.45071834919429
30
0
41
1
10
233.744119062935
20
-2.21808991985034
30
0
41
1
10
235.2
20
3.126E-13
30
0
0
SPLINE
5
111
100
AcDbEntity
8
1
62
256
6
ByLayer
370
13
48
1
60
0
100
AcDbSpline
70
4
71
3
72
8
73
4
40
0
40
0
40
0
40
0
40
1
40
1
40
1
40
1
41
1
10
230.832357188806
20
-9.35467243320423
30
0
41
1
10
232.28823812587
20
-6.22550590243358
30
0
41
1
10
233.744119062935
20
-3.10725205077404
30
0
41
1
10
235.2
20
-2.84E-14
30
0
0
SPLINE
5
112
100
AcDbEntity
8
1
62
256
6
ByLayer
370
13
48
1
60
0
100
AcDbSpline
70
4
71
3
72
8
73
4
40
0
40
0
40
0
40
0
40
1
40
1
40
1
40
1
41
1
10
230.832357188806
20
-11.9018908768364
30
0
41
1
10
232.28823812587
20
-7.9368233624983
30
0
41
1
10
233.744119062935
20
-3.96948855584409
30
0
41
1
10
235.2
20
-6.537E-13
30
0
0
SPLINE
5
113
100
AcDbEntity
8
1
62
256
6
ByLayer
370
13
48
1
60
0
100
AcDbSpline
70
4
71
3
72
8
73
4
40
0
40
0
40
0
40
0
40
1
40
1
40
1
40
1
41
1
10
230.832357188806
20
-8.07935998889985
30
0
41
1
10
232.28823812587
20
-5.39915751657728
30
0
41
1
10
233.744119062935
20
-2.70601179186093
30
0
41
1
10
235.2
20
-2.84E-14
30
0
0
SPLINE
5
114
100
AcDbEntity
8
1
62
256
6
ByLayer
370
13
48
1
60
0
100
AcDbSpline
70
4
71
3
72
8
73
4
40
0
40
0
40
0
40
0
40
1
40
1
40
1
40
1
41
1
10
230.832357188806
20
-9.68953623292037
30
0
41
1
10
232.28823812587
20
-6.46999706958994
30
0
41
1
10
233.744119062935
20
-3.24012081914211
30
0
41
1
10
235.2
20
-5.4E-13
30
0
0
SPLINE
5
115
100
AcDbEntity
8
1
62
256
6
ByLayer
370
13
48
1
60
0
100
AcDbSpline
70
4
71
3
72
8
73
4
40
0
40
0
40
0
40
0
40
1
40
1
40
1
40
1
41
1
10
230.832357188806
20
-5.66398585571611
30
0
41
1
10
232.28823812587
20
-3.76058852920869
30
0
41
1
10
233.744119062935
20
-1.87257528498182
30
0
41
1
10
235.2
20
-2.84E-14
30
0
0
SPLINE
5
116
100
AcDbEntity
8
1
62
256
6
ByLayer
370
13
48
1
60
0
100
AcDbSpline
70
4
71
3
72
8
73
4
40
0
40
0
40
0
40
0
40
1
40
1
40
1
40
1
41
1
10
230.832357188806
20
11.8635385729605
30
0
41
1
10
232.28823812587
20
7.91165294615783
30
0
41
1
10
233.744119062935
20
3.95710236146715
30
0
41
1
10
235.2
20
0
30
0
0
SPLINE
5
117
100
AcDbEntity
8
1
62
256
6
ByLayer
370
13
48
1
60
0
100
AcDbSpline
70
4
71
3
72
8
73
4
40
0
40
0
40
0
40
0
40
1
40
1
40
1
40
1
41
1
10
230.832357188806
20
-11.9955087488543
30
0
41
1
10
232.28823812587
20
-7.99748377381519
30
0
41
1
10
233.744119062935
20
-3.99894271774346
30
0
41
1
10
235.2
20
-2.84E-14
30
0
0
SPLINE
5
118
100
AcDbEntity
8
1
62
256
6
ByLayer
370
13
48
1
60
0
100
AcDbSpline
70
4
71
3
72
8
73
4
40
0
40
0
40
0
40
0
40
1
40
1
40
1
40
1
41
1
10
230.832357188806
20
2.53253308673993
30
0
41
1
10
232.28823812587
20
1.70543246348473
30
0
41
1
10
233.744119062935
20
0.861246661727961
30
0
41
1
10
235.2
20
0
30
0
0
SPLINE
5
119
100
AcDbEntity
8
1
62
256
6
ByLayer
370
13
48
1
60
0
100
AcDbSpline
70
4
71
3
72
8
73
4
40
0
40
0
40
0
40
0
40
1
40
1
40
1
40
1
41
1
10
230.832357188806
20
-1.06846324441648
30
0
41
1
10
232.28823812587
20
-0.69490764840333
30
0
41
1
10
233.744119062935
20
-0.338749891873334
30
0
41
1
10
235.2
20
-2.84E-14
30
0
0
SPLINE
5
11A
100
AcDbEntity
8
1
62
256
6
ByLayer
370
13
48
1
60
0
100
AcDbSpline
70
4
71
3
72
8
73
4
40
0
40
0
40
0
40
0
40
1
40
1
40
1
40
1
41
1
10
230.832357188806
20
-11.3557691268353
30
0
41
1
10
232.28823812587
20
-7.57616008833261
30
0
41
1
10
233.744119062935
20
-3.79086759047308
30
0
41
1
10
235.2
20
-2.84E-14
30
0
0
SPLINE
5
11B
100
AcDbEntity
8
1
62
256
6
ByLayer
370
13
48
1
60
0
100
AcDbSpline
70
4
71
3
72
8
73
4
40
0
40
0
40
0
40
0
40
1
40
1
40
1
40
1
41
1
10
230.832357188806
20
-10.3514981685729
30
0
41
1
10
232.288238125871
20
-6.90983616649424
30
0
41
1
10
233.744119062935
20
-3.45930383753748
30
0
41
1
10
235.2
20
5.116E-13
30
0
0
SPLINE
5
11C
100
AcDbEntity
8
1
62
256
6
ByLayer
370
13
48
1
60
0
100
AcDbSpline
70
4
71
3
72
8
73
4
40
0
40
0
40
0
40
0
40
1
40
1
40
1
40
1
41
1
10
230.832357188806
20
8.74293353347301
30
0
41
1
10
232.28823812587
20
5.84058905163772
30
0
41
1
10
233.744119062935
20
2.92625003866834
30
0
41
1
10
235.2
20
1.421E-13
30
0
0
SPLINE
5
11D
100
AcDbEntity
8
1
62
256
6
ByLayer
370
13
48
1
60
0
100
AcDbSpline
70
4
71
3
72
8
73
4
40
0
40
0
40
0
40
0
40
1
40
1
40
1
40
1
41
1
10
230.832357188806
20
-3.43552784177149
30
0
41
1
10
232.28823812587
20
-2.2736126095318
30
0
41
1
10
233.744119062935
20
-1.12842579265046
30
0
41
1
10
235.2
20
0
30
0
0
SPLINE
5
11E
100
AcDbEntity
8
1
62
256
6
ByLayer
370
13
48
1
60
0
100
AcDbSpline
70
4
71
3
72
8
73
4
40
0
40
0
40
0
40
0
40
1
40
1
40
1
40
1
41
1
10
230.832357188806
20
10.5388493730358
30
0
41
1
10
232.28823812587
20
7.01754472110883
30
0
41
1
10
233.744119062935
20
3.50456144966466
30
0
41
1
10
235.2
20
-5.116E-13
30
0
0
SPLINE
5
11F
100
AcDbEntity
8
1
62
256
6
ByLayer
370
13
48
1
60
0
100
AcDbSpline
70
4
71
3
72
8
73
4
40
0
40
0
40
0
40
0
40
1
40
1
40
1
40
1
41
1
10
230.832357188806
20
11.7682917968853
30
0
41
1
10
232.28823812587
20
7.84211125347466
30
0
41
1
10
233.744119062935
20
3.91930991618346
30
0
41
1
10
235.2
20
-5.684E-13
30
0
0
SPLINE
5
120
100
AcDbEntity
8
1
62
256
6
ByLayer
370
13
48
1
60
0
100
AcDbSpline
70
4
71
3
72
8
73
4
40
0
40
0
40
0
40
0
40
1
40
1
40
1
40
1
41
1
10
230.832357188806
20
-11.819134820289
30
0
41
1
10
232.288238125871
20
-7.87640140923907
30
0
41
1
10
233.744119062935
20
-3.93665223457549
30
0
41
1
10
235.2
20
5.684E-13
30
0
0
SPLINE
5
121
100
AcDbEntity
8
1
62
256
6
ByLayer
370
13
48
1
60
0
100
AcDbSpline
70
4
71
3
72
8
73
4
40
0
40
0
40
0
40
0
40
1
40
1
40
1
40
1
41
1
10
230.832357188806
20
11.0619055931143
30
0
41
1
10
232.28823812587
20
7.36783204405316
30
0
41
1
10
233.744119062935
20
3.68049503122205
30
0
41
1
10
235.2
20
-5.4E-13
30
0
0
SPLINE
5
122
100
AcDbEntity
8
1
62
256
6
ByLayer
370
13
48
1
60
0
100
AcDbSpline
70
4
71
3
72
8
73
4
40
0
40
0
40
0
40
0
40
1
40
1
40
1
40
1
41
1
10
230.832357188806
20
-4.57287692058833
30
0
41
1
10
232.28823812587
20
-3.03243228582124
30
0
41
1
10
233.744119062935
20
-1.50812549140443
30
0
41
1
10
235.2
20
1.137E-13
30
0
0
SPLINE
5
123
100
AcDbEntity
8
1
62
256
6
ByLayer
370
13
48
1
60
0
100
AcDbSpline
70
4
71
3
72
8
73
4
40
0
40
0
40
0
40
0
40
1
40
1
40
1
40
1
41
1
10
230.832357188806
20
6.92392691912383
30
0
41
1
10
232.28823812587
20
4.63022034137211
30
0
41
1
10
233.744119062935
20
2.32222264251024
30
0
41
1
10
235.2
20
2.84E-14
30
0
0
SPLINE
5
124
100
AcDbEntity
8
1
62
256
6
ByLayer
370
13
48
1
60
0
100
AcDbSpline
70
4
71
3
72
8
73
4
40
0
40
0
40
0
40
0
40
1
40
1
40
1
40
1
41
1
10
230.832357188806
20
-10.9087875379122
30
0
41
1
10
232.288238125871
20
-7.27980419038391
30
0
41
1
10
233.744119062935
20
-3.64350697143416
30
0
41
1
10
235.2
20
5.4E-13
30
0
0
SPLINE
5
125
100
AcDbEntity
8
1
62
256
6
ByLayer
370
13
48
1
60
0
100
AcDbSpline
70
4
71
3
72
8
73
4
40
0
40
0
40
0
40
0
40
1
40
1
40
1
40
1
41
1
10
230.832357188806
20
-2.26343929722873
30
0
41
1
10
232.28823812587
20
-1.49180255419128
30
0
41
1
10
233.744119062935
20
-0.737315646665792
30
0
41
1
10
235.2
20
0
30
0
0
SPLINE
5
126
100
AcDbEntity
8
1
62
256
6
ByLayer
370
13
48
1
60
0
100
AcDbSpline
70
4
71
3
72
8
73
4
40
0
40
0
40
0
40
0
40
1
40
1
40
1
40
1
41
1
10
230.832357188806
20
0.137316924667914
30
0
41
1
10
232.28823812587
20
0.109014043819258
30
0
41
1
10
233.744119062935
20
0.0632412434721346
30
0
41
1
10
235.2
20
0
30
0
0
SPLINE
5
127
100
AcDbEntity
8
1
62
256
6
ByLayer
370
13
48
1
60
0
100
AcDbSpline
70
4
71
3
72
8
73
4
40
0
40
0
40
0
40
0
40
1
40
1
40
1
40
1
41
1
10
230.832357188806
20
7.87323663258391
30
0
41
1
10
232.28823812587
20
5.26200896058816
30
0
41
1
10
233.744119062935
20
2.63757167580582
30
0
41
1
10
235.2
20
1.137E-13
30
0
0
SPLINE
5
128
100
AcDbEntity
8
1
62
256
6
ByLayer
370
13
48
1
60
0
100
AcDbSpline
70
4
71
3
72
8
73
4
40
0
40
0
40
0
40
0
40
1
40
1
40
1
40
1
41
1
10
230.832357188806
20
1.34170856866453
30
0
41
1
10
232.28823812587
20
0.91183340480967
30
0
41
1
10
233.744119062935
20
0.464592894257578
30
0
41
1
10
235.2
20
-2.84E-14
30
0
0
SPLINE
5
129
100
AcDbEntity
8
1
62
256
6
ByLayer
370
13
48
1
60
0
100
AcDbSpline
70
4
71
3
72
8
73
4
40
0
40
0
40
0
40
0
40
1
40
1
40
1
40
1
41
1
10
230.832357188806
20
0.793389072578435
30
0
41
1
10
232.28823812587
20
0.511493703455812
30
0
41
1
10
233.744119062935
20
0.247028212202565
30
0
41
1
10
235.2
20
-2.84E-14
30
0
0
SPLINE
5
12A
100
AcDbEntity
8
1
62
256
6
ByLayer
370
13
48
1
60
0
100
AcDbSpline
70
4
71
3
72
8
73
4
40
0
40
0
40
0
40
0
40
1
40
1
40
1
40
1
41
1
10
230.832357188806
20
11.4731057293788
30
0
41
1
10
232.28823812587
20
7.64361711856384
30
0
41
1
10
233.744119062935
20
3.81921208103233
30
0
41
1
10
235.2
20
-5.684E-13
30
0
0
SPLINE
5
12B
100
AcDbEntity
8
1
62
256
6
ByLayer
370
13
48
1
60
0
100
AcDbSpline
70
4
71
3
72
8
73
4
40
0
40
0
40
0
40
0
40
1
40
1
40
1
40
1
41
1
10
230.832357188806
20
-8.5525421378895
30
0
41
1
10
232.288238125871
20
-5.68943990530221
30
0
41
1
10
233.744119062935
20
-2.83856537319639
30
0
41
1
10
235.2
20
4.263E-13
30
0
0
SPLINE
5
12C
100
AcDbEntity
8
1
62
256
6
ByLayer
370
13
48
1
60
0
100
AcDbSpline
70
4
71
3
72
8
73
4
40
0
40
0
40
0
40
0
40
1
40
1
40
1
40
1
41
1
10
230.832357188806
20
1.99190563019289
30
0
41
1
10
232.288238125871
20
1.31070888345027
30
0
41
1
10
233.744119062936
20
0.646734061804835
30
0
41
1
10
235.200000000001
20
-2.842E-13
30
0
0
SPLINE
5
12D
100
AcDbEntity
8
1
62
256
6
ByLayer
370
13
48
1
60
0
100
AcDbSpline
70
4
71
3
72
8
73
4
40
0
40
0
40
0
40
0
40
1
40
1
40
1
40
1
41
1
10
230.832357188806
20
-8.92959537601729
30
0
41
1
10
232.288238125871
20
-5.96473447685045
30
0
41
1
10
233.744119062935
20
-2.98817425717121
30
0
41
1
10
235.2
20
4.263E-13
30
0
0
SPLINE
5
12E
100
AcDbEntity
8
1
62
256
6
ByLayer
370
13
48
1
60
0
100
AcDbSpline
70
4
71
3
72
8
73
4
40
0
40
0
40
0
40
0
40
1
40
1
40
1
40
1
41
1
10
230.832357188806
20
11.6223244212366
30
0
41
1
10
232.28823812587
20
7.75256485243304
30
0
41
1
10
233.744119062935
20
3.87841974642203
30
0
41
1
10
235.2
20
-2.84E-14
30
0
0
SPLINE
5
12F
100
AcDbEntity
8
1
62
256
6
ByLayer
370
13
48
1
60
0
100
AcDbSpline
70
4
71
3
72
8
73
4
40
0
40
0
40
0
40
0
40
1
40
1
40
1
40
1
41
1
10
230.832357188806
20
8.35675831269893
30
0
41
1
10
232.28823812587
20
5.55863432695875
30
0
41
1
10
233.744119062935
20
2.77302169328729
30
0
41
1
10
235.2
20
-3.979E-13
30
0
0
SPLINE
5
130
100
AcDbEntity
8
1
62
256
6
ByLayer
370
13
48
1
60
0
100
AcDbSpline
70
4
71
3
72
8
73
4
40
0
40
0
40
0
40
0
40
1
40
1
40
1
40
1
41
1
10
230.832357188806
20
11.9444789249685
30
0
41
1
10
232.28823812587
20
7.96130731028634
30
0
41
1
10
233.744119062935
20
3.97977636460942
30
0
41
1
10
235.2
20
-5.969E-13
30
0
0
SPLINE
5
131
100
AcDbEntity
8
1
62
256
6
ByLayer
370
13
48
1
60
0
100
AcDbSpline
70
4
71
3
72
8
73
4
40
0
40
0
40
0
40
0
40
1
40
1
40
1
40
1
41
1
10
230.832357188806
20
11.2635873270472
30
0
41
1
10
232.28823812587
20
7.51508415839103
30
0
41
1
10
233.744119062935
20
3.76051921900463
30
0
41
1
10
235.2
20
2.84E-14
30
0
0
SPLINE
5
132
100
AcDbEntity
8
1
62
256
6
ByLayer
370
13
48
1
60
0
100
AcDbSpline
70
4
71
3
72
8
73
4
40
0
40
0
40
0
40
0
40
1
40
1
40
1
40
1
41
1
10
230.832357188806
20
9.90922612353805
30
0
41
1
10
232.28823812587
20
6.59629719479935
30
0
41
1
10
233.744119062935
20
3.29319034643027
30
0
41
1
10
235.2
20
-4.832E-13
30
0
0
SPLINE
5
133
100
AcDbEntity
8
1
62
256
6
ByLayer
370
13
48
1
60
0
100
AcDbSpline
70
4
71
3
72
8
73
4
40
0
40
0
40
0
40
0
40
1
40
1
40
1
40
1
41
1
10
230.832357188806
20
4.82557404468213
30
0
41
1
10
232.28823812587
20
3.2330451048571
30
0
41
1
10
233.744119062935
20
1.62450503011152
30
0
41
1
10
235.2
20
2.84E-14
30
0
0
SPLINE
5
134
100
AcDbEntity
8
1
62
256
6
ByLayer
370
13
48
1
60
0
100
AcDbSpline
70
4
71
3
72
8
73
4
40
0
40
0
40
0
40
0
40
1
40
1
40
1
40
1
41
1
10
230.832357188806
20
9.17940248645994
30
0
41
1
10
232.28823812587
20
6.10834904754591
30
0
41
1
10
233.744119062935
20
3.04851906970353
30
0
41
1
10
235.2
20
-4.547E-13
30
0
0
SPLINE
5
135
100
AcDbEntity
8
1
62
256
6
ByLayer
370
13
48
1
60
0
100
AcDbSpline
70
4
71
3
72
8
73
4
40
0
40
0
40
0
40
0
40
1
40
1
40
1
40
1
41
1
10
230.832357188806
20
5.41926653163287
30
0
41
1
10
232.288238125871
20
3.59725680144803
30
0
41
1
10
233.744119062936
20
1.7908174438939
30
0
41
1
10
235.200000000001
20
-8.242E-13
30
0
0
SPLINE
5
136
100
AcDbEntity
8
1
62
256
6
ByLayer
370
13
48
1
60
0
100
AcDbSpline
70
4
71
3
72
8
73
4
40
0
40
0
40
0
40
0
40
1
40
1
40
1
40
1
41
1
10
230.832357188806
20
11.9847906662689
30
0
41
1
10
232.28823812587
20
7.99073976816643
30
0
41
1
10
233.744119062935
20
3.99577143909053
30
0
41
1
10
235.2
20
0
30
0
0
SPLINE
5
137
100
AcDbEntity
8
1
62
256
6
ByLayer
370
13
48
1
60
0
100
AcDbSpline
70
4
71
3
72
8
73
4
40
0
40
0
40
0
40
0
40
1
40
1
40
1
40
1
41
1
10
230.832357188806
20
-10.6680000183524
30
0
41
1
10
232.28823812587
20
-7.10400011199843
30
0
41
1
10
233.744119062935
20
-3.54796621370156
30
0
41
1
10
235.2
20
-2.84E-14
30
0
0
SPLINE
5
138
100
AcDbEntity
8
1
62
256
6
ByLayer
370
13
48
1
60
0
100
AcDbSpline
70
4
71
3
72
8
73
4
40
0
40
0
40
0
40
0
40
1
40
1
40
1
40
1
41
1
10
230.832357188806
20
10.2092059532905
30
0
41
1
10
232.28823812587
20
6.81531883512514
30
0
41
1
10
233.744119062935
20
3.41221769590274
30
0
41
1
10
235.2
20
2.84E-14
30
0
0
SPLINE
5
139
100
AcDbEntity
8
1
62
256
6
ByLayer
370
13
48
1
60
0
100
AcDbSpline
70
4
71
3
72
8
73
4
40
0
40
0
40
0
40
0
40
1
40
1
40
1
40
1
41
1
10
230.832357188806
20
-6.14322146607415
30
0
41
1
10
232.28823812587
20
-4.1104886193902
30
0
41
1
10
233.744119062935
20
-2.06272855135498
30
0
41
1
10
235.2
20
3.126E-13
30
0
0
SPLINE
5
13A
100
AcDbEntity
8
1
62
256
6
ByLayer
370
13
48
1
60
0
100
AcDbSpline
70
4
71
3
72
8
73
4
40
0
40
0
40
0
40
0
40
1
40
1
40
1
40
1
41
1
10
230.832357188806
20
10.7909547780924
30
0
41
1
10
232.28823812587
20
7.20161222790111
30
0
41
1
10
233.744119062935
20
3.60459296903835
30
0
41
1
10
235.2
20
2.84E-14
30
0
0
SPLINE
5
13B
100
AcDbEntity
8
1
62
256
6
ByLayer
370
13
48
1
60
0
100
AcDbSpline
70
4
71
3
72
8
73
4
40
0
40
0
40
0
40
0
40
1
40
1
40
1
40
1
41
1
10
230.832357188806
20
-7.66393000975253
30
0
41
1
10
232.28823812587
20
-5.09584327192172
30
0
41
1
10
233.744119062935
20
-2.54117561154186
30
0
41
1
10
235.2
20
-2.84E-14
30
0
0
SPLINE
5
13C
100
AcDbEntity
8
1
62
256
6
ByLayer
370
13
48
1
60
0
100
AcDbSpline
70
4
71
3
72
8
73
4
40
0
40
0
40
0
40
0
40
1
40
1
40
1
40
1
41
1
10
230.832357188806
20
-1.61551156728541
30
0
41
1
10
232.28823812587
20
-1.09431923921252
30
0
41
1
10
233.744119062935
20
-0.555810192087364
30
0
41
1
10
235.2
20
8.53E-14
30
0
0
SPLINE
5
13D
100
AcDbEntity
8
1
62
256
6
ByLayer
370
13
48
1
60
0
100
AcDbSpline
70
4
71
3
72
8
73
4
40
0
40
0
40
0
40
0
40
1
40
1
40
1
40
1
41
1
10
230.832357188806
20
-3.95923429297872
30
0
41
1
10
232.288238125871
20
-2.65598180444431
30
0
41
1
10
233.744119062936
20
-1.33622439977665
30
0
41
1
10
235.200000000001
20
6.253E-13
30
0
0
SPLINE
5
13E
100
AcDbEntity
8
1
62
256
6
ByLayer
370
13
48
1
60
0
100
AcDbSpline
70
4
71
3
72
8
73
4
40
0
40
0
40
0
40
0
40
1
40
1
40
1
40
1
41
1
10
230.832357188806
20
7.4496120384299
30
0
41
1
10
232.28823812587
20
4.95271165359759
30
0
41
1
10
233.744119062935
20
2.46948399919415
30
0
41
1
10
235.2
20
-3.695E-13
30
0
0
SPLINE
5
13F
100
AcDbEntity
8
1
62
256
6
ByLayer
370
13
48
1
60
0
100
AcDbSpline
70
4
71
3
72
8
73
4
40
0
40
0
40
0
40
0
40
1
40
1
40
1
40
1
41
1
10
230.832357188806
20
3.69774906650085
30
0
41
1
10
232.28823812587
20
2.48178648286984
30
0
41
1
10
233.744119062935
20
1.24919165131482
30
0
41
1
10
235.2
20
0
30
0
0
SPLINE
5
140
100
AcDbEntity
8
1
62
256
6
ByLayer
370
13
48
1
60
0
100
AcDbSpline
70
4
71
3
72
8
73
4
40
0
40
0
40
0
40
0
40
1
40
1
40
1
40
1
41
1
10
230.832357188806
20
6.46713657051168
30
0
41
1
10
232.28823812587
20
4.29670801315817
30
0
41
1
10
233.744119062935
20
2.14097530829886
30
0
41
1
10
235.2
20
-3.126E-13
30
0
0
SPLINE
5
141
100
AcDbEntity
8
1
62
256
6
ByLayer
370
13
48
1
60
0
100
AcDbSpline
70
4
71
3
72
8
73
4
40
0
40
0
40
0
40
0
40
1
40
1
40
1
40
1
41
1
10
230.832357188806
20
-2.80153726122592
30
0
41
1
10
232.28823812587
20
-1.88467929803022
30
0
41
1
10
233.744119062935
20
-0.950824583129076
30
0
41
1
10
235.2
20
1.421E-13
30
0
0
SPLINE
5
142
100
AcDbEntity
8
1
62
256
6
ByLayer
370
13
48
1
60
0
100
AcDbSpline
70
4
71
3
72
8
73
4
40
0
40
0
40
0
40
0
40
1
40
1
40
1
40
1
41
1
10
230.832357188806
20
-11.5509264824889
30
0
41
1
10
232.28823812587
20
-7.69588299735921
30
0
41
1
10
233.744119062935
20
-3.84553746014447
30
0
41
1
10
235.2
20
-6.253E-13
30
0
0
SPLINE
5
143
100
AcDbEntity
8
1
62
256
6
ByLayer
370
13
48
1
60
0
100
AcDbSpline
70
4
71
3
72
8
73
4
40
0
40
0
40
0
40
0
40
1
40
1
40
1
40
1
41
1
10
230.832357188806
20
-11.9678301027714
30
0
41
1
10
232.28823812587
20
-7.97727500687222
30
0
41
1
10
233.744119062935
20
-3.98796025974642
30
0
41
1
10
235.2
20
-2.84E-14
30
0
0
SPLINE
5
144
100
AcDbEntity
8
1
62
256
6
ByLayer
370
13
48
1
60
0
100
AcDbSpline
70
4
71
3
72
8
73
4
40
0
40
0
40
0
40
0
40
1
40
1
40
1
40
1
41
1
10
230.832357188806
20
-11.165917165881
30
0
41
1
10
232.28823812587
20
-7.43754514231591
30
0
41
1
10
233.744119062935
20
-3.71553727335436
30
0
41
1
10
235.2
20
-2.84E-14
30
0
0
SPLINE
5
145
100
AcDbEntity
8
1
62
256
6
ByLayer
370
13
48
1
60
0
100
AcDbSpline
70
4
71
3
72
8
73
4
40
0
40
0
40
0
40
0
40
1
40
1
40
1
40
1
41
1
10
230.832357188806
20
-0.413150098667359
30
0
41
1
10
232.28823812587
20
-0.292893612757268
30
0
41
1
10
233.744119062935
20
-0.155175544128099
30
0
41
1
10
235.2
20
2.84E-14
30
0
0
LINE
5
7D
100
AcDbEntity
8
80
62
256
6
ByLayer
370
18
48
1
60
0
100
AcDbLine
10
0
20
0
30
0
11
-5
21
0
31
0
39
0
210
0
220
0
230
1
0
LINE
5
7E
100
AcDbEntity
8
4
62
256
6
ByLayer
370
18
48
0.05
60
0
100
AcDbLine
10
-5
20
0
30
0
11
240.2
21
0
31
0
39
0
210
0
220
0
230
1
0
LINE
5
80
100
AcDbEntity
8
81
62
256
6
ByLayer
370
18
48
1
60
0
100
AcDbLine
10
235.2
20
0
30
0
11
240.2
21
0
31
0
39
0
210
0
220
0
230
1
0
LINE
5
81
100
AcDbEntity
8
SK4
62
256
6
ByLayer
370
18
48
0.05
60
0
100
AcDbLine
10
-65
20
0
30
0
11
240.2
21
0
31
0
39
0
210
0
220
0
230
1
0
LINE
5
83
100
AcDbEntity
8
1
62
256
6
ByLayer
370
18
48
1
60
0
100
AcDbLine
10
0
20
16
30
0
11
0
21
-16
31
0
39
0
210
0
220
0
230
1
0
LINE
5
84
100
AcDbEntity
8
1
62
256
6
ByLayer
370
18
48
1
60
0
100
AcDbLine
10
230.832357
20
12
30
0
11
230.832357
21
11.618944
31
0
39
0
210
0
220
0
230
1
0
LINE
5
85
100
AcDbEntity
8
1
62
256
6
ByLayer
370
18
48
1
60
0
100
AcDbLine
10
230.832357
20
-12
30
0
11
230.832357
21
-1.712552
31
0
39
0
210
0
220
0
230
1
0
LINE
5
86
100
AcDbEntity
8
1
62
256
6
ByLayer
370
18
48
1
60
0
100
AcDbLine
10
10
20
11.7
30
0
11
10
21
11.671369
31
0
39
0
210
0
220
0
230
1
0
LINE
5
87
100
AcDbEntity
8
1
62
256
6
ByLayer
370
18
48
1
60
0
100
AcDbLine
10
10
20
-11.7
30
0
11
10
21
3.43762
31
0
39
0
210
0
220
0
230
1
0
LINE
5
88
100
AcDbEntity
8
SK1
62
256
6
ByLayer
370
13
48
1
60
0
100
AcDbLine
10
-15.198909
20
-8.334638
30
0
11
-15.198909
21
8.334638
31
0
39
0
210
0
220
0
230
1
0
LINE
5
8A
100
AcDbEntity
8
SK1
62
256
6
ByLayer
370
13
48
1
60
0
100
AcDbLine
10
-55.486983
20
5.39045
30
0
11
-55.486983
21
-5.39045
31
0
39
0
210
0
220
0
230
1
0
LINE
5
8B
100
AcDbEntity
8
SK1
62
256
6
ByLayer
370
18
48
1
60
0
100
AcDbLine
10
-60
20
-15
30
0
11
-60
21
15
31
0
39
0
210
0
220
0
230
1
0
LINE
5
8C
100
AcDbEntity
8
SK1
62
256
6
ByLayer
370
13
48
1
60
0
100
AcDbLine
10
-14.051873
20
7.587342
30
0
11
-14.051873
21
-7.587342
31
0
39
0
210
0
220
0
230
1
0
LINE
5
8D
100
AcDbEntity
8
SK1
62
256
6
ByLayer
370
13
48
1
60
0
100
AcDbLine
10
-56.60131
20
-3.674042
30
0
11
-56.60131
21
3.674042
31
0
39
0
210
0
220
0
230
1
0
LINE
5
8E
100
AcDbEntity
8
SK1
62
256
6
ByLayer
370
18
48
1
60
0
100
AcDbLine
10
-59
20
-16
30
0
11
-59
21
16
31
0
39
0
210
0
220
0
230
1
0
LINE
5
8F
100
AcDbEntity
8
SK1
62
256
6
ByLayer
370
18
48
1
60
0
100
AcDbLine
10
0
20
16
30
0
11
0
21
-16
31
0
39
0
210
0
220
0
230
1
0
LINE
5
90
100
AcDbEntity
8
1
62
256
6
ByLayer
370
18
48
1
60
0
100
AcDbLine
10
70.432158
20
11.7
30
0
11
10
21
11.7
31
0
39
0
210
0
220
0
230
1
0
LINE
5
91
100
AcDbEntity
8
1
62
256
6
ByLayer
370
18
48
1
60
0
100
AcDbLine
10
119.23928
20
-11.7
30
0
11
174.010424
21
-11.7
31
0
39
0
210
0
220
0
230
1
0
LINE
5
92
100
AcDbEntity
8
1
62
256
6
ByLayer
370
18
48
1
60
0
100
AcDbLine
10
174.010424
20
11.7
30
0
11
119.23928
21
11.7
31
0
39
0
210
0
220
0
230
1
0
LINE
5
93
100
AcDbEntity
8
1
62
256
6
ByLayer
370
18
48
1
60
0
100
AcDbLine
10
10
20
-11.7
30
0
11
70.432158
21
-11.7
31
0
39
0
210
0
220
0
230
1
0
LINE
5
94
100
AcDbEntity
8
1
62
256
6
ByLayer
370
18
48
1
60
0
100
AcDbLine
10
235.2
20
0
30
0
11
230.832357
21
12
31
0
39
0
210
0
220
0
230
1
0
LINE
5
95
100
AcDbEntity
8
1
62
256
6
ByLayer
370
18
48
1
60
0
100
AcDbLine
10
230.832357
20
-12
30
0
11
235.2
21
0
31
0
39
0
210
0
220
0
230
1
0
LINE
5
96
100
AcDbEntity
8
1
62
256
6
ByLayer
370
18
48
1
60
0
100
AcDbLine
10
10
20
11.7
30
0
11
0
21
16
31
0
39
0
210
0
220
0
230
1
0
LINE
5
97
100
AcDbEntity
8
1
62
256
6
ByLayer
370
18
48
1
60
0
100
AcDbLine
10
0
20
-16
30
0
11
10
21
-11.7
31
0
39
0
210
0
220
0
230
1
0
LINE
5
98
100
AcDbEntity
8
1
62
256
6
ByLayer
370
18
48
1
60
0
100
AcDbLine
10
235.2
20
0
30
0
11
230.832357
21
12
31
0
39
0
210
0
220
0
230
1
0
LINE
5
99
100
AcDbEntity
8
1
62
256
6
ByLayer
370
18
48
1
60
0
100
AcDbLine
10
230.832357
20
-12
30
0
11
235.2
21
0
31
0
39
0
210
0
220
0
230
1
0
LINE
5
9A
100
AcDbEntity
8
1
62
256
6
ByLayer
370
18
48
1
60
0
100
AcDbLine
10
230.832357
20
12
30
0
11
219.8
21
12
31
0
39
0
210
0
220
0
230
1
0
LINE
5
9B
100
AcDbEntity
8
1
62
256
6
ByLayer
370
18
48
1
60
0
100
AcDbLine
10
219.8
20
-12
30
0
11
230.832357
21
-12
31
0
39
0
210
0
220
0
230
1
0
LINE
5
9C
100
AcDbEntity
8
SK1
62
256
6
ByLayer
370
18
48
1
60
0
100
AcDbLine
10
-60
20
-15
30
0
11
-59
21
-16
31
0
39
0
210
0
220
0
230
1
0
LINE
5
9D
100
AcDbEntity
8
SK1
62
256
6
ByLayer
370
18
48
1
60
0
100
AcDbLine
10
-59
20
16
30
0
11
-60
21
15
31
0
39
0
210
0
220
0
230
1
0
LINE
5
9E
100
AcDbEntity
8
SK1
62
256
6
ByLayer
370
18
48
1
60
0
100
AcDbLine
10
-59
20
-16
30
0
11
0
21
-16
31
0
39
0
210
0
220
0
230
1
0
LINE
5
9F
100
AcDbEntity
8
SK1
62
256
6
ByLayer
370
18
48
1
60
0
100
AcDbLine
10
0
20
16
30
0
11
-59
21
16
31
0
39
0
210
0
220
0
230
1
0
LINE
5
A0
100
AcDbEntity
8
1
62
256
6
ByLayer
370
18
48
1
60
0
100
AcDbLine
10
230.832357
20
12
30
0
11
230.832357
21
-12
31
0
39
0
210
0
220
0
230
1
0
LINE
5
A1
100
AcDbEntity
8
1
62
256
6
ByLayer
370
18
48
1
60
0
100
AcDbLine
10
230.832357
20
12
30
0
11
230.832357
21
-12
31
0
39
0
210
0
220
0
230
1
0
LINE
5
A2
100
AcDbEntity
8
1
62
256
6
ByLayer
370
18
48
1
60
0
100
AcDbLine
10
230.832357
20
12
30
0
11
230.832357
21
-12
31
0
39
0
210
0
220
0
230
1
0
LINE
5
A3
100
AcDbEntity
8
1
62
256
6
ByLayer
370
18
48
1
60
0
100
AcDbLine
10
219.8
20
12
30
0
11
219.8
21
-12
31
0
39
0
210
0
220
0
230
1
0
LINE
5
A4
100
AcDbEntity
8
1
62
256
6
ByLayer
370
18
48
1
60
0
100
AcDbLine
10
219.8
20
12
30
0
11
219.8
21
-12
31
0
39
0
210
0
220
0
230
1
0
LINE
5
A5
100
AcDbEntity
8
1
62
256
6
ByLayer
370
18
48
1
60
0
100
AcDbLine
10
230.832357
20
12
30
0
11
230.832357
21
-12
31
0
39
0
210
0
220
0
230
1
0
LINE
5
A6
100
AcDbEntity
8
1
62
256
6
ByLayer
370
18
48
1
60
0
100
AcDbLine
10
219.8
20
12
30
0
11
219.8
21
-12
31
0
39
0
210
0
220
0
230
1
0
LINE
5
A7
100
AcDbEntity
8
1
62
256
6
ByLayer
370
18
48
1
60
0
100
AcDbLine
10
230.832357
20
12
30
0
11
230.832357
21
-12
31
0
39
0
210
0
220
0
230
1
0
LINE
5
A8
100
AcDbEntity
8
SK2
62
256
6
ByLayer
370
13
48
1
60
0
100
AcDbLine
10
-66.5
20
-16
30
0
11
-66.5
21
45.024569
31
0
39
0
210
0
220
0
230
1
0
LINE
5
AA
100
AcDbEntity
8
SK2
62
256
6
ByLayer
370
13
48
1
60
0
100
AcDbLine
10
-61.5875
20
16
30
0
11
-68.5
21
16
31
0
39
0
210
0
220
0
230
1
0
LINE
5
AB
100
AcDbEntity
8
SK2
62
256
6
ByLayer
370
13
48
1
60
0
100
AcDbLine
10
-61.5875
20
-16
30
0
11
-68.5
21
-16
31
0
39
0
210
0
220
0
230
1
0
LINE
5
AC
100
AcDbEntity
8
1
62
256
6
ByLayer
370
18
48
1
60
1
100
AcDbLine
10
-66.5
20
16
30
0
11
-66.039216
21
12.500002
31
0
39
0
210
0
220
0
230
1
0
LINE
5
AD
100
AcDbEntity
8
1
62
256
6
ByLayer
370
18
48
1
60
1
100
AcDbLine
10
-66.039216
20
12.500002
30
0
11
-66.960784
21
12.499998
31
0
39
0
210
0
220
0
230
1
0
LINE
5
AE
100
AcDbEntity
8
1
62
256
6
ByLayer
370
18
48
1
60
1
100
AcDbLine
10
-66.960784
20
12.499998
30
0
11
-66.5
21
16
31
0
39
0
210
0
220
0
230
1
0
LINE
5
AF
100
AcDbEntity
8
1
62
256
6
ByLayer
370
18
48
1
60
1
100
AcDbLine
10
-66.5
20
-16
30
0
11
-66.960784
21
-12.500002
31
0
39
0
210
0
220
0
230
1
0
LINE
5
B0
100
AcDbEntity
8
1
62
256
6
ByLayer
370
18
48
1
60
1
100
AcDbLine
10
-66.960784
20
-12.500002
30
0
11
-66.039216
21
-12.499998
31
0
39
0
210
0
220
0
230
1
0
LINE
5
B1
100
AcDbEntity
8
1
62
256
6
ByLayer
370
18
48
1
60
1
100
AcDbLine
10
-66.039216
20
-12.499998
30
0
11
-66.5
21
-16
31
0
39
0
210
0
220
0
230
1
0
LINE
5
B2
100
AcDbEntity
8
2
62
256
6
ByLayer
370
13
48
1
60
0
100
AcDbLine
10
242.7
20
-12
30
0
11
242.7
21
41.340455
31
0
39
0
210
0
220
0
230
1
0
LINE
5
B4
100
AcDbEntity
8
2
62
256
6
ByLayer
370
13
48
1
60
0
100
AcDbLine
10
232.419857
20
12
30
0
11
244.7
21
12
31
0
39
0
210
0
220
0
230
1
0
LINE
5
B5
100
AcDbEntity
8
2
62
256
6
ByLayer
370
13
48
1
60
0
100
AcDbLine
10
232.419857
20
-12
30
0
11
244.7
21
-12
31
0
39
0
210
0
220
0
230
1
0
LINE
5
B6
100
AcDbEntity
8
1
62
256
6
ByLayer
370
18
48
1
60
1
100
AcDbLine
10
242.7
20
12
30
0
11
243.160784
21
8.500002
31
0
39
0
210
0
220
0
230
1
0
LINE
5
B7
100
AcDbEntity
8
1
62
256
6
ByLayer
370
18
48
1
60
1
100
AcDbLine
10
243.160784
20
8.500002
30
0
11
242.239216
21
8.499998
31
0
39
0
210
0
220
0
230
1
0
LINE
5
B8
100
AcDbEntity
8
1
62
256
6
ByLayer
370
18
48
1
60
1
100
AcDbLine
10
242.239216
20
8.499998
30
0
11
242.7
21
12
31
0
39
0
210
0
220
0
230
1
0
LINE
5
B9
100
AcDbEntity
8
1
62
256
6
ByLayer
370
18
48
1
60
1
100
AcDbLine
10
242.7
20
-12
30
0
11
242.239216
21
-8.500002
31
0
39
0
210
0
220
0
230
1
0
LINE
5
BA
100
AcDbEntity
8
1
62
256
6
ByLayer
370
18
48
1
60
1
100
AcDbLine
10
242.239216
20
-8.500002
30
0
11
243.160784
21
-8.499998
31
0
39
0
210
0
220
0
230
1
0
LINE
5
BB
100
AcDbEntity
8
1
62
256
6
ByLayer
370
18
48
1
60
1
100
AcDbLine
10
243.160784
20
-8.499998
30
0
11
242.7
21
-12
31
0
39
0
210
0
220
0
230
1
0
LINE
5
BC
100
AcDbEntity
8
SK2
62
256
6
ByLayer
370
13
48
1
60
0
100
AcDbLine
10
235.742957
20
-1.491762
30
0
11
242.382423
21
-19.733545
31
0
39
0
210
0
220
0
230
1
0
LINE
5
BD
100
AcDbEntity
8
SK2
62
256
6
ByLayer
370
13
48
1
60
0
100
AcDbLine
10
235.742957
20
1.491762
30
0
11
242.382423
21
19.733545
31
0
39
0
210
0
220
0
230
1
0
LINE
5
BE
100
AcDbEntity
8
1
62
256
6
ByLayer
370
18
48
1
60
1
100
AcDbLine
10
241.698383
20
-17.85416
30
0
11
244.751575
21
-16.082064
31
0
39
0
210
0
220
0
230
1
0
LINE
5
BF
100
AcDbEntity
8
1
62
256
6
ByLayer
370
18
48
1
60
1
100
AcDbLine
10
244.751575
20
-16.082064
30
0
11
245.106196
21
-16.93267
31
0
39
0
210
0
220
0
230
1
0
LINE
5
C0
100
AcDbEntity
8
1
62
256
6
ByLayer
370
18
48
1
60
1
100
AcDbLine
10
245.106196
20
-16.93267
30
0
11
241.698383
21
-17.85416
31
0
39
0
210
0
220
0
230
1
0
LINE
5
C1
100
AcDbEntity
8
1
62
256
6
ByLayer
370
18
48
1
60
1
100
AcDbLine
10
241.698383
20
17.85416
30
0
11
245.106193
21
16.932671
31
0
39
0
210
0
220
0
230
1
0
LINE
5
C2
100
AcDbEntity
8
1
62
256
6
ByLayer
370
18
48
1
60
1
100
AcDbLine
10
245.106193
20
16.932671
30
0
11
244.751579
21
16.082063
31
0
39
0
210
0
220
0
230
1
0
LINE
5
C3
100
AcDbEntity
8
1
62
256
6
ByLayer
370
18
48
1
60
1
100
AcDbLine
10
244.751579
20
16.082063
30
0
11
241.698383
21
17.85416
31
0
39
0
210
0
220
0
230
1
0
LINE
5
14A
100
AcDbEntity
8
1
62
256
6
ByLayer
370
18
48
1
60
1
100
AcDbLine
10
-66.5
20
16
30
0
11
-66.039216
21
12.500002
31
0
39
0
210
0
220
0
230
1
0
LINE
5
14B
100
AcDbEntity
8
1
62
256
6
ByLayer
370
18
48
1
60
1
100
AcDbLine
10
-66.039216
20
12.500002
30
0
11
-66.960784
21
12.499998
31
0
39
0
210
0
220
0
230
1
0
LINE
5
14C
100
AcDbEntity
8
1
62
256
6
ByLayer
370
18
48
1
60
1
100
AcDbLine
10
-66.960784
20
12.499998
30
0
11
-66.5
21
16
31
0
39
0
210
0
220
0
230
1
0
LINE
5
14E
100
AcDbEntity
8
1
62
256
6
ByLayer
370
18
48
1
60
1
100
AcDbLine
10
-66.5
20
-16
30
0
11
-66.960784
21
-12.500002
31
0
39
0
210
0
220
0
230
1
0
LINE
5
14F
100
AcDbEntity
8
1
62
256
6
ByLayer
370
18
48
1
60
1
100
AcDbLine
10
-66.960784
20
-12.500002
30
0
11
-66.039216
21
-12.499998
31
0
39
0
210
0
220
0
230
1
0
LINE
5
150
100
AcDbEntity
8
1
62
256
6
ByLayer
370
18
48
1
60
1
100
AcDbLine
10
-66.039216
20
-12.499998
30
0
11
-66.5
21
-16
31
0
39
0
210
0
220
0
230
1
0
LINE
5
154
100
AcDbEntity
8
1
62
256
6
ByLayer
370
18
48
1
60
1
100
AcDbLine
10
242.7
20
12
30
0
11
243.160784
21
8.500002
31
0
39
0
210
0
220
0
230
1
0
LINE
5
155
100
AcDbEntity
8
1
62
256
6
ByLayer
370
18
48
1
60
1
100
AcDbLine
10
243.160784
20
8.500002
30
0
11
242.239216
21
8.499998
31
0
39
0
210
0
220
0
230
1
0
LINE
5
156
100
AcDbEntity
8
1
62
256
6
ByLayer
370
18
48
1
60
1
100
AcDbLine
10
242.239216
20
8.499998
30
0
11
242.7
21
12
31
0
39
0
210
0
220
0
230
1
0
LINE
5
158
100
AcDbEntity
8
1
62
256
6
ByLayer
370
18
48
1
60
1
100
AcDbLine
10
242.7
20
-12
30
0
11
242.239216
21
-8.500002
31
0
39
0
210
0
220
0
230
1
0
LINE
5
159
100
AcDbEntity
8
1
62
256
6
ByLayer
370
18
48
1
60
1
100
AcDbLine
10
242.239216
20
-8.500002
30
0
11
243.160784
21
-8.499998
31
0
39
0
210
0
220
0
230
1
0
LINE
5
15A
100
AcDbEntity
8
1
62
256
6
ByLayer
370
18
48
1
60
1
100
AcDbLine
10
243.160784
20
-8.499998
30
0
11
242.7
21
-12
31
0
39
0
210
0
220
0
230
1
0
LINE
5
15D
100
AcDbEntity
8
1
62
256
6
ByLayer
370
18
48
1
60
1
100
AcDbLine
10
241.698383
20
-17.85416
30
0
11
244.751575
21
-16.082064
31
0
39
0
210
0
220
0
230
1
0
LINE
5
15E
100
AcDbEntity
8
1
62
256
6
ByLayer
370
18
48
1
60
1
100
AcDbLine
10
244.751575
20
-16.082064
30
0
11
245.106196
21
-16.93267
31
0
39
0
210
0
220
0
230
1
0
LINE
5
15F
100
AcDbEntity
8
1
62
256
6
ByLayer
370
18
48
1
60
1
100
AcDbLine
10
245.106196
20
-16.93267
30
0
11
241.698383
21
-17.85416
31
0
39
0
210
0
220
0
230
1
0
LINE
5
161
100
AcDbEntity
8
1
62
256
6
ByLayer
370
18
48
1
60
1
100
AcDbLine
10
241.698383
20
17.85416
30
0
11
245.106193
21
16.932671
31
0
39
0
210
0
220
0
230
1
0
LINE
5
162
100
AcDbEntity
8
1
62
256
6
ByLayer
370
18
48
1
60
1
100
AcDbLine
10
245.106193
20
16.932671
30
0
11
244.751579
21
16.082063
31
0
39
0
210
0
220
0
230
1
0
LINE
5
163
100
AcDbEntity
8
1
62
256
6
ByLayer
370
18
48
1
60
1
100
AcDbLine
10
244.751579
20
16.082063
30
0
11
241.698383
21
17.85416
31
0
39
0
210
0
220
0
230
1
0
MTEXT
5
146
100
AcDbEntity
8
SK2
62
256
6
ByLayer
370
18
48
1
60
0
100
AcDbMText
10
-67.841114
20
27.658438
30
0
210
0
220
0
230
1
1
%%c
40
3
41
0
44
1.084337
50
90
71
7
72
5
7
iso_b_vert
0
MTEXT
5
149
100
AcDbEntity
8
SK2
62
256
6
ByLayer
370
18
48
1
60
0
100
AcDbMText
10
-67.841114
20
33.635
30
0
210
0
220
0
230
1
1
\W0.7513;32.000
40
3
41
0
44
1.084337
50
90
71
7
72
5
7
iso_b_vert
0
MTEXT
5
152
100
AcDbEntity
8
2
62
256
6
ByLayer
370
18
48
1
60
0
100
AcDbMText
10
241.358886
20
23.658438
30
0
210
0
220
0
230
1
1
%%c
40
3
41
0
44
1.084337
50
90
71
7
72
5
7
iso_b_vert
0
MTEXT
5
153
100
AcDbEntity
8
2
62
256
6
ByLayer
370
18
48
1
60
0
100
AcDbMText
10
241.358886
20
29.635
30
0
210
0
220
0
230
1
1
\W0.7728;24.000
40
3
41
0
44
1.084337
50
90
71
7
72
5
7
iso_b_vert
0
MTEXT
5
15C
100
AcDbEntity
8
SK2
62
256
6
ByLayer
370
18
48
1
60
0
100
AcDbMText
10
255.109114
20
3.734657
30
0
210
0
220
0
230
1
1
\W0.7071;140%%d
40
3
41
0
44
1.084337
50
270
71
7
72
5
7
iso_b_vert
0
MTEXT
5
165
100
AcDbEntity
8
SK6
62
256
6
ByLayer
370
18
48
1
60
0
100
AcDbMText
10
62.996974
20
-67.114886
30
0
210
0
220
0
230
1
1
\W0.7811;H85824.0
40
3
41
0
44
1.084337
50
0
71
7
72
5
7
iso_b_vert
0
HATCH
5
14D
100
AcDbEntity
8
SK2
62
256
6
ByLayer
370
13
48
1
60
0
100
AcDbHatch
10
0
20
0
30
0
210
0
220
0
230
1
2
ANSI31
70
0
71
0
91
1
92
5
93
3
72
1
10
-66.5
20
16
11
-66.0392162584472
21
12.5000016925532
72
1
10
-66.0392162584472
20
12.5000016925532
11
-66.9607837415528
21
12.4999983074468
72
1
10
-66.9607837415528
20
12.4999983074468
11
-66.5
21
16
97
0
75
0
76
1
52
0
41
0.0062
77
0
78
1
53
45
43
0
44
0
45
-0.0139193969876572
46
0.0139193969876572
79
0
47
0
98
1
10
0
20
0
0
HATCH
5
151
100
AcDbEntity
8
SK2
62
256
6
ByLayer
370
13
48
1
60
0
100
AcDbHatch
10
0
20
0
30
0
210
0
220
0
230
1
2
ANSI31
70
0
71
0
91
1
92
5
93
3
72
1
10
-66.5
20
-16
11
-66.9607837415528
21
-12.5000016925532
72
1
10
-66.9607837415528
20
-12.5000016925532
11
-66.0392162584472
21
-12.4999983074468
72
1
10
-66.0392162584472
20
-12.4999983074468
11
-66.5
21
-16
97
0
75
0
76
1
52
0
41
0.0062
77
0
78
1
53
45
43
0
44
0
45
-0.0139193969876572
46
0.0139193969876572
79
0
47
0
98
1
10
0
20
0
0
HATCH
5
157
100
AcDbEntity
8
2
62
256
6
ByLayer
370
13
48
1
60
0
100
AcDbHatch
10
0
20
0
30
0
210
0
220
0
230
1
2
ANSI31
70
0
71
0
91
1
92
5
93
3
72
1
10
242.7
20
12
11
243.160783741553
21
8.50000169255318
72
1
10
243.160783741553
20
8.50000169255318
11
242.239216258447
21
8.49999830744682
72
1
10
242.239216258447
20
8.49999830744682
11
242.7
21
12
97
0
75
0
76
1
52
0
41
0.0062
77
0
78
1
53
45
43
0
44
0
45
-0.0139193969876572
46
0.0139193969876572
79
0
47
0
98
1
10
0
20
0
0
HATCH
5
15B
100
AcDbEntity
8
2
62
256
6
ByLayer
370
13
48
1
60
0
100
AcDbHatch
10
0
20
0
30
0
210
0
220
0
230
1
2
ANSI31
70
0
71
0
91
1
92
5
93
3
72
1
10
242.7
20
-12
11
242.239216258447
21
-8.50000169255318
72
1
10
242.239216258447
20
-8.50000169255318
11
243.160783741553
21
-8.49999830744682
72
1
10
243.160783741553
20
-8.49999830744682
11
242.7
21
-12
97
0
75
0
76
1
52
0
41
0.0062
77
0
78
1
53
45
43
0
44
0
45
-0.0139193969876572
46
0.0139193969876572
79
0
47
0
98
1
10
0
20
0
0
HATCH
5
160
100
AcDbEntity
8
SK2
62
256
6
ByLayer
370
13
48
1
60
0
100
AcDbHatch
10
0
20
0
30
0
210
0
220
0
230
1
2
ANSI31
70
0
71
0
91
1
92
5
93
3
72
1
10
241.698382723188
20
-17.8541597949322
11
244.751575425693
21
-16.0820638240608
72
1
10
244.751575425693
20
-16.0820638240608
11
245.106195833975
21
-16.9326700737196
72
1
10
245.106195833975
20
-16.9326700737196
11
241.698382723188
21
-17.8541597949322
97
0
75
0
76
1
52
0
41
0.0062
77
0
78
1
53
45
43
0
44
0
45
-0.0139193969876572
46
0.0139193969876572
79
0
47
0
98
1
10
0
20
0
0
HATCH
5
164
100
AcDbEntity
8
SK2
62
256
6
ByLayer
370
13
48
1
60
0
100
AcDbHatch
10
0
20
0
30
0
210
0
220
0
230
1
2
ANSI31
70
0
71
0
91
1
92
5
93
3
72
1
10
241.698382723188
20
17.8541597949322
11
245.106192709519
21
16.9326713763016
72
1
10
245.106192709519
20
16.9326713763016
11
244.751578550149
21
16.0820625214787
72
1
10
244.751578550149
20
16.0820625214787
11
241.698382723188
21
17.8541597949322
97
0
75
0
76
1
52
0
41
0.0062
77
0
78
1
53
45
43
0
44
0
45
-0.0139193969876572
46
0.0139193969876572
79
0
47
0
98
1
10
0
20
0
0
DIMENSION
5
168
100
AcDbEntity
8
SK2
62
256
6
ByLayer
370
18
48
1
60
0
100
AcDbDimension
2
_U0
10
235.2
20
-46.708423
30
0
11
87.6
21
-46.708423
31
0
70
32
71
1
72
1
41
1
210
0
220
0
230
1
3
Standard
100
AcDbAlignedDimension
13
-60
23
-16
33
0
14
235.2
24
0
34
0
50
0
100
AcDbRotatedDimension
1001
ACAD
1000
DSTYLE
1002
{
1070
   371
1070
    13
1070
   372
1070
    13
1070
     3
1000

1070
   170
1070
     0
1070
   144
1040
1.0
1070
   277
1070
     2
1070
   284
1070
     8
1070
   278
1070
    46
1070
   146
1040
1.166667
1070
   345
1005
16
1070
   347
1005
16
1070
   346
1005
16
1070
   344
1005
0
1070
   343
1005
0
1070
   172
1070
     1
1070
    76
1070
     0
1070
    75
1070
     0
1070
   282
1070
     0
1070
   281
1070
     0
1070
    71
1070
     0
1070
    74
1070
     0
1070
   279
1070
     0
1070
   173
1070
     1
1070
   340
1005
147
1070
   271
1070
     2
1070
   272
1070
     3
1070
    77
1070
     1
1070
    73
1070
     1
1070
   171
1070
     3
1070
   274
1070
     4
1070
   177
1070
     2
1070
   176
1070
     2
1070
   178
1070
     2
1070
    78
1070
     8
1070
    48
1040
-0.1
1070
    41
1040
3.5
1070
   147
1040
1.5
1070
    42
1040
1.5875
1070
    44
1040
2.0
1070
   140
1040
3.0
1002
}
1001
ACAD_DSTYLE_DIM_LINETYPE
1070
   380
1005
16
1001
ACAD_DSTYLE_DIM_EXT1_LINETYPE
1070
   381
1005
16
1001
ACAD_DSTYLE_DIM_EXT2_LINETYPE
1070
   382
1005
16
0
DIMENSION
5
181
100
AcDbEntity
8
SK2
62
256
6
ByLayer
370
18
48
1
60
0
100
AcDbDimension
2
_U1
10
3
20
-36.708423
30
0
11
119.1
21
-36.708423
31
0
70
32
71
1
72
1
41
1
210
0
220
0
230
1
3
Standard
100
AcDbAlignedDimension
13
235.2
23
0
33
0
14
3
24
-12
34
0
50
0
100
AcDbRotatedDimension
1001
ACAD
1000
DSTYLE
1002
{
1070
   371
1070
    13
1070
   372
1070
    13
1070
     3
1000

1070
   170
1070
     0
1070
   144
1040
1.0
1070
   277
1070
     2
1070
   284
1070
     8
1070
   278
1070
    46
1070
   146
1040
1.166667
1070
   345
1005
16
1070
   347
1005
16
1070
   346
1005
16
1070
   344
1005
0
1070
   343
1005
0
1070
   172
1070
     1
1070
    76
1070
     0
1070
    75
1070
     0
1070
   282
1070
     0
1070
   281
1070
     0
1070
    71
1070
     0
1070
    74
1070
     0
1070
   279
1070
     0
1070
   173
1070
     1
1070
   340
1005
147
1070
   271
1070
     2
1070
   272
1070
     3
1070
    77
1070
     1
1070
    73
1070
     1
1070
   171
1070
     3
1070
   274
1070
     4
1070
   177
1070
     2
1070
   176
1070
     2
1070
   178
1070
     2
1070
    78
1070
     8
1070
    48
1040
-0.1
1070
    41
1040
3.5
1070
   147
1040
1.5
1070
    42
1040
1.5875
1070
    44
1040
2.0
1070
   140
1040
3.0
1002
}
1001
ACAD_DSTYLE_DIM_LINETYPE
1070
   380
1005
16
1001
ACAD_DSTYLE_DIM_EXT1_LINETYPE
1070
   381
1005
16
1001
ACAD_DSTYLE_DIM_EXT2_LINETYPE
1070
   382
1005
16
0
DIMENSION
5
199
100
AcDbEntity
8
SK2
62
256
6
ByLayer
370
18
48
1
60
0
100
AcDbDimension
2
_U2
10
0
20
-36.708423
30
0
11
-30
21
-36.708423
31
0
70
32
71
1
72
1
41
1
210
0
220
0
230
1
3
Standard
100
AcDbAlignedDimension
13
-60
23
-16
33
0
14
0
24
-16
34
0
50
0
100
AcDbRotatedDimension
1001
ACAD
1000
DSTYLE
1002
{
1070
   371
1070
    13
1070
   372
1070
    13
1070
     3
1000

1070
   170
1070
     0
1070
   144
1040
1.0
1070
   277
1070
     2
1070
   284
1070
     8
1070
   278
1070
    46
1070
   146
1040
1.166667
1070
   345
1005
16
1070
   347
1005
16
1070
   346
1005
16
1070
   344
1005
0
1070
   343
1005
0
1070
   172
1070
     1
1070
    76
1070
     0
1070
    75
1070
     0
1070
   282
1070
     0
1070
   281
1070
     0
1070
    71
1070
     0
1070
    74
1070
     0
1070
   279
1070
     0
1070
   173
1070
     1
1070
   340
1005
147
1070
   271
1070
     2
1070
   272
1070
     3
1070
    77
1070
     1
1070
    73
1070
     1
1070
   171
1070
     3
1070
   274
1070
     4
1070
   177
1070
     2
1070
   176
1070
     2
1070
   178
1070
     2
1070
    78
1070
     8
1070
    48
1040
-0.1
1070
    41
1040
3.5
1070
   147
1040
1.5
1070
    42
1040
1.5875
1070
    44
1040
2.0
1070
   140
1040
3.0
1002
}
1001
ACAD_DSTYLE_DIM_LINETYPE
1070
   380
1005
16
1001
ACAD_DSTYLE_DIM_EXT1_LINETYPE
1070
   381
1005
16
1001
ACAD_DSTYLE_DIM_EXT2_LINETYPE
1070
   382
1005
16
0
DIMENSION
5
1B1
100
AcDbEntity
8
SK2
62
256
6
ByLayer
370
18
48
1
60
0
100
AcDbDimension
2
_U3
10
27
20
33.708423
30
0
11
131.1
21
33.708423
31
0
70
32
71
1
72
1
41
1
210
0
220
0
230
1
3
Standard
100
AcDbAlignedDimension
13
235.2
23
0
33
0
14
27
24
12
34
0
50
0
100
AcDbRotatedDimension
1001
ACAD
1000
DSTYLE
1002
{
1070
   371
1070
    13
1070
   372
1070
    13
1070
     3
1000

1070
   170
1070
     0
1070
   144
1040
1.0
1070
   277
1070
     2
1070
   284
1070
     8
1070
   278
1070
    46
1070
   146
1040
1.166667
1070
   345
1005
16
1070
   347
1005
16
1070
   346
1005
16
1070
   344
1005
0
1070
   343
1005
0
1070
   172
1070
     1
1070
    76
1070
     0
1070
    75
1070
     0
1070
   282
1070
     0
1070
   281
1070
     0
1070
    71
1070
     0
1070
    74
1070
     0
1070
   279
1070
     0
1070
   173
1070
     1
1070
   340
1005
147
1070
   271
1070
     2
1070
   272
1070
     3
1070
    77
1070
     1
1070
    73
1070
     1
1070
   171
1070
     3
1070
   274
1070
     4
1070
   177
1070
     2
1070
   176
1070
     2
1070
   178
1070
     2
1070
    78
1070
     8
1070
    48
1040
-0.1
1070
    41
1040
3.5
1070
   147
1040
1.5
1070
    42
1040
1.5875
1070
    44
1040
2.0
1070
   140
1040
3.0
1002
}
1001
ACAD_DSTYLE_DIM_LINETYPE
1070
   380
1005
16
1001
ACAD_DSTYLE_DIM_EXT1_LINETYPE
1070
   381
1005
16
1001
ACAD_DSTYLE_DIM_EXT2_LINETYPE
1070
   382
1005
16
0
ENDSEC
0
SECTION
2
OBJECTS
0
DICTIONARY
5
239
330
0
100
AcDbDictionary
280
0
281
1
3
ACAD_GROUP
350
23a
3
ACAD_MLINESTYLE
350
23b
0
DICTIONARY
5
23a
330
0
100
AcDbDictionary
280
0
281
1
0
DICTIONARY
5
23b
330
0
100
AcDbDictionary
280
0
281
1
3
Standard
350
18
0
MLINESTYLE
5
18
330
23b
100
AcDbMlineStyle
2
Standard
70
0
3

62
256
51
90
52
90
71
2
49
-0.5
62
256
6
ByLayer
49
0.5
62
256
6
ByLayer
0
RASTERVARIABLES
5
227
330

100
AcDbRasterVariables
90
0
70
1
71
1
72
1
0
ENDSEC
0
EOF
