0
SECTION
2
HEADER
9
$ACADVER
1
AC1015
9
$DWGCODEPAGE
3
ANSI_1252
9
$HANDSEED
5
241
9
$ANGBASE
50
0
9
$ANGDIR
70
0
9
$ATTMODE
70
1
9
$AUNITS
70
0
9
$AUPREC
70
0
9
$CECOLOR
62
256
9
$CELTSCALE
40
1
9
$CELTYPE
6
ByLayer
9
$CELWEIGHT
370
18
9
$CLAYER
8
0
9
$CMLJUST
70
0
9
$CMLSCALE
40
1
9
$CMLSTYLE
2
Standard
9
$DIMSTYLE
2
Standard
9
$TEXTSIZE
40
0.2
9
$TEXTSTYLE
7
Standard
9
$LUNITS
70
2
9
$LUPREC
70
4
9
$EXTNAMES
290
1
9
$INSUNITS
70
4
9
$LTSCALE
40
1
9
$LWDISPLAY
290
1
9
$PDMODE
70
0
9
$PDSIZE
40
0
9
$PLINEGEN
70
0
0
ENDSEC
0
SECTION
2
CLASSES
0
CLASS
1
RASTERVARIABLES
2
AcDbRasterVariables
3
ISM
90
0
280
0
281
0
0
ENDSEC
0
SECTION
2
TABLES
0
TABLE
2
VPORT
5
237
100
AcDbSymbolTable
0
VPORT
5
1
100
AcDbSymbolTableRecord
100
AcDbViewportTableRecord
2
*Active
70
0
10
0
20
0
11
1
21
1
12
-1
22
1
13
0
23
0
14
0.5
24
0.5
15
10
25
10
16
0
26
0
36
1
17
0
27
0
37
0
0
ENDTAB
0
TABLE
2
LTYPE
5
238
100
AcDbSymbolTable
0
LTYPE
5
14
100
AcDbSymbolTableRecord
100
AcDbLinetypeTableRecord
70
0
2
ByBlock
3

72
65
73
0
40
0
0
LTYPE
5
15
100
AcDbSymbolTableRecord
100
AcDbLinetypeTableRecord
70
0
2
ByLayer
3

72
65
73
0
40
0
0
LTYPE
5
16
100
AcDbSymbolTableRecord
100
AcDbLinetypeTableRecord
70
0
2
Continuous
3
Solid line
72
65
73
0
40
0
0
LTYPE
5
6E
100
AcDbSymbolTableRecord
100
AcDbLinetypeTableRecord
70
0
2
CENTER
3
____ _ ____ _ ____ _ ____
72
65
73
4
40
47.5
49
22
74
0
49
-8.5
74
0
49
8.5
74
0
49
-8.5
74
0
0
LTYPE
5
6F
100
AcDbSymbolTableRecord
100
AcDbLinetypeTableRecord
70
0
2
DASHED
3
__ __ __ __ __ __ __ __ __
72
65
73
2
40
25.72
49
12.86
74
0
49
-12.86
74
0
0
ENDTAB
0
TABLE
2
LAYER
5
239
100
AcDbSymbolTable
0
LAYER
5
10
100
AcDbSymbolTableRecord
100
AcDbLayerTableRecord
2
0
70
0
62
7
6
Continuous
290
1
370
-3
390
0
0
LAYER
5
71
100
AcDbSymbolTableRecord
100
AcDbLayerTableRecord
2
80
70
0
62
-6
6
Continuous
290
1
370
-3
390
0
0
LAYER
5
73
100
AcDbSymbolTableRecord
100
AcDbLayerTableRecord
2
81
70
0
62
-3
6
Continuous
290
1
370
-3
390
0
0
LAYER
5
75
100
AcDbSymbolTableRecord
100
AcDbLayerTableRecord
2
1
70
0
62
4
6
Continuous
290
1
370
-3
390
0
0
LAYER
5
7F
100
AcDbSymbolTableRecord
100
AcDbLayerTableRecord
2
4
70
0
62
-2
6
CENTER
290
1
370
-3
390
0
0
LAYER
5
B3
100
AcDbSymbolTableRecord
100
AcDbLayerTableRecord
2
2
70
0
62
7
6
Continuous
290
1
370
-3
390
0
0
LAYER
5
166
100
AcDbSymbolTableRecord
100
AcDbLayerTableRecord
2
Defpoints
70
0
62
7
6
Continuous
290
0
370
-3
390
0
0
LAYER
5
223
100
AcDbSymbolTableRecord
100
AcDbLayerTableRecord
2
SK4
70
0
62
2
6
CENTER
290
1
370
-3
390
0
0
LAYER
5
224
100
AcDbSymbolTableRecord
100
AcDbLayerTableRecord
2
SK1
70
0
62
4
6
Continuous
290
1
370
-3
390
0
0
LAYER
5
225
100
AcDbSymbolTableRecord
100
AcDbLayerTableRecord
2
SK2
70
0
62
7
6
Continuous
290
1
370
-3
390
0
0
LAYER
5
226
100
AcDbSymbolTableRecord
100
AcDbLayerTableRecord
2
SK6
70
0
62
5
6
Continuous
290
1
370
-3
390
0
0
ENDTAB
0
TABLE
2
STYLE
5
23a
100
AcDbSymbolTable
0
STYLE
5
11
100
AcDbSymbolTableRecord
100
AcDbTextStyleTableRecord
2
Standard
3
txt
70
0
71
0
40
0
41
1
42
0
50
0
0
STYLE
5
142
100
AcDbSymbolTableRecord
100
AcDbTextStyleTableRecord
2
iso_b_vert
3
simplex.shx
70
0
71
0
40
0
41
1
42
0
50
0
0
STYLE
5
143
100
AcDbSymbolTableRecord
100
AcDbTextStyleTableRecord
2
DWGDirectTextStyle
3
simplex
70
0
71
0
40
0
41
1
42
0
50
0
0
ENDTAB
0
TABLE
2
DIMSTYLE
5
23b
100
AcDbSymbolTable
100
AcDbDimStyleTable
0
DIMSTYLE
105
27
100
AcDbSymbolTableRecord
100
AcDbDimStyleTableRecord
2
Standard
70
0
3
<>
41
0.18
42
0.0625
44
0.18
140
0.18
147
0.09
73
0
74
0
77
1
271
2
275
0
278
52
280
0
340
11
0
ENDTAB
0
TABLE
2
VIEW
5
23c
100
AcDbSymbolTable
0
ENDTAB
0
TABLE
2
UCS
5
23d
100
AcDbSymbolTable
0
ENDTAB
0
TABLE
2
APPID
5
23e
100
AcDbSymbolTable
0
APPID
5
12
100
AcDbSymbolTableRecord
100
AcDbRegAppTableRecord
2
ACAD
70
0
0
APPID
5
162
100
AcDbSymbolTableRecord
100
AcDbRegAppTableRecord
2
ACAD_DSTYLE_DIMBREAK
70
0
0
APPID
5
1E2
100
AcDbSymbolTableRecord
100
AcDbRegAppTableRecord
2
ACAD_DSTYLE_DIM_LINETYPE
70
0
0
APPID
5
1E3
100
AcDbSymbolTableRecord
100
AcDbRegAppTableRecord
2
ACAD_DSTYLE_DIM_EXT1_LINETYPE
70
0
0
APPID
5
1E4
100
AcDbSymbolTableRecord
100
AcDbRegAppTableRecord
2
ACAD_DSTYLE_DIM_EXT2_LINETYPE
70
0
0
APPID
5
21F
100
AcDbSymbolTableRecord
100
AcDbRegAppTableRecord
2
ACAD_MLEADERVER
70
0
0
ENDTAB
0
TABLE
2
BLOCK_RECORD
5
23f
100
AcDbSymbolTable
0
BLOCK_RECORD
5
1F
100
AcDbSymbolTableRecord
100
AcDbBlockTableRecord
2
*Model_Space
340
0
70
0
0
BLOCK_RECORD
5
1B
100
AcDbSymbolTableRecord
100
AcDbBlockTableRecord
2
*Paper_Space
340
0
70
0
0
BLOCK_RECORD
5
23
100
AcDbSymbolTableRecord
100
AcDbBlockTableRecord
2
*Paper_Space0
340
0
70
0
0
BLOCK_RECORD
5
167
100
AcDbSymbolTableRecord
100
AcDbBlockTableRecord
2
*D1
340
0
70
0
0
BLOCK_RECORD
5
173
100
AcDbSymbolTableRecord
100
AcDbBlockTableRecord
2
_U0
340
0
70
0
0
BLOCK_RECORD
5
17F
100
AcDbSymbolTableRecord
100
AcDbBlockTableRecord
2
*D3
340
0
70
0
0
BLOCK_RECORD
5
18B
100
AcDbSymbolTableRecord
100
AcDbBlockTableRecord
2
_U1
340
0
70
0
0
BLOCK_RECORD
5
197
100
AcDbSymbolTableRecord
100
AcDbBlockTableRecord
2
*D5
340
0
70
0
0
BLOCK_RECORD
5
1A3
100
AcDbSymbolTableRecord
100
AcDbBlockTableRecord
2
_U2
340
0
70
0
0
BLOCK_RECORD
5
1AF
100
AcDbSymbolTableRecord
100
AcDbBlockTableRecord
2
*D7
340
0
70
0
0
BLOCK_RECORD
5
1BB
100
AcDbSymbolTableRecord
100
AcDbBlockTableRecord
2
_U3
340
0
70
0
0
ENDTAB
0
ENDSEC
0
SECTION
2
BLOCKS
0
BLOCK
5
20
100
AcDbEntity
8
0
100
AcDbBlockBegin
2
*Model_Space
70
0
10
0
20
0
30
0
3
*Model_Space
0
ENDBLK
5
21
100
AcDbEntity
8
0
100
AcDbBlockEnd
0
BLOCK
5
1C
100
AcDbEntity
8
0
100
AcDbBlockBegin
2
*Paper_Space
70
0
10
0
20
0
30
0
3
*Paper_Space
0
ENDBLK
5
1D
100
AcDbEntity
8
0
100
AcDbBlockEnd
0
BLOCK
5
24
100
AcDbEntity
8
0
100
AcDbBlockBegin
2
*Paper_Space0
70
0
10
0
20
0
30
0
3
*Paper_Space0
0
ENDBLK
5
25
100
AcDbEntity
8
0
100
AcDbBlockEnd
0
BLOCK
5
168
100
AcDbEntity
8
0
100
AcDbBlockBegin
2
*D1
70
1
10
0
20
0
30
0
3
*D1
0
LINE
5
16A
100
AcDbEntity
8
0
62
256
6
ByLayer
370
-2
48
1
60
0
100
AcDbLine
10
-56
20
-14.0875
30
0
11
-56
21
-48.70073
31
0
39
0
210
0
220
0
230
1
0
LINE
5
16B
100
AcDbEntity
8
0
62
256
6
ByLayer
370
-2
48
1
60
0
100
AcDbLine
10
215.1
20
-1.5875
30
0
11
215.1
21
-48.70073
31
0
39
0
210
0
220
0
230
1
0
LINE
5
16C
100
AcDbEntity
8
0
62
256
6
ByLayer
370
-2
48
1
60
0
100
AcDbLine
10
-52.5
20
-46.70073
30
0
11
211.6
21
-46.70073
31
0
39
0
210
0
220
0
230
1
0
SOLID
5
16D
100
AcDbEntity
8
0
62
256
6
ByLayer
370
-1
48
1
60
0
100
AcDbTrace
10
-52.5
20
-46.117397
30
0
11
-52.5
21
-47.284064
31
0
12
-56
22
-46.70073
32
0
13
-56
23
-46.70073
33
0
39
0
210
0
220
0
230
1
0
SOLID
5
16E
100
AcDbEntity
8
0
62
256
6
ByLayer
370
-1
48
1
60
0
100
AcDbTrace
10
211.6
20
-47.284064
30
0
11
211.6
21
-46.117397
31
0
12
215.1
22
-46.70073
32
0
13
215.1
23
-46.70073
33
0
39
0
210
0
220
0
230
1
0
MTEXT
5
16F
100
AcDbEntity
8
0
62
256
6
ByLayer
370
18
48
1
60
0
100
AcDbMText
10
79.55
20
-40.70073
30
0
210
0
220
0
230
1
1
\A1;271.1
40
3
41
0
44
1
50
0
71
5
72
5
7
iso_b_vert
0
POINT
5
170
100
AcDbEntity
8
Defpoints
62
0
6
ByLayer
370
-1
48
1
60
0
100
AcDbPoint
10
-56
20
-12.5
30
0
39
0
210
0
220
0
230
1
50
360
0
POINT
5
171
100
AcDbEntity
8
Defpoints
62
0
6
ByLayer
370
-1
48
1
60
0
100
AcDbPoint
10
215.1
20
0
30
0
39
0
210
0
220
0
230
1
50
360
0
POINT
5
172
100
AcDbEntity
8
Defpoints
62
0
6
ByLayer
370
-1
48
1
60
0
100
AcDbPoint
10
215.1
20
-46.70073
30
0
39
0
210
0
220
0
230
1
50
360
0
ENDBLK
5
169
100
AcDbEntity
8
0
100
AcDbBlockEnd
0
BLOCK
5
17A
100
AcDbEntity
8
0
100
AcDbBlockBegin
2
_U0
70
0
10
0
20
0
30
0
3
_U0
0
MTEXT
5
174
100
AcDbEntity
8
SK2
62
256
6
ByLayer
370
18
48
1
60
0
100
AcDbMText
10
74.696601
20
-45.815616
30
0
210
0
220
0
230
1
1
\W0.6532;271.10
40
3
41
0
44
1.084337
50
0
71
7
72
5
7
iso_b_vert
0
LINE
5
175
100
AcDbEntity
8
SK2
62
256
6
ByLayer
370
13
48
1
60
0
100
AcDbLine
10
-56
20
-14.0875
30
0
11
-56
21
-48.70073
31
0
39
0
210
0
220
0
230
1
0
LINE
5
176
100
AcDbEntity
8
SK2
62
256
6
ByLayer
370
13
48
1
60
0
100
AcDbLine
10
215.1
20
-1.5875
30
0
11
215.1
21
-48.70073
31
0
39
0
210
0
220
0
230
1
0
LINE
5
177
100
AcDbEntity
8
SK2
62
256
6
ByLayer
370
13
48
1
60
0
100
AcDbLine
10
-56
20
-46.70073
30
0
11
215.1
21
-46.70073
31
0
39
0
210
0
220
0
230
1
0
SOLID
5
178
100
AcDbEntity
8
SK2
62
256
6
ByLayer
370
18
48
1
60
0
100
AcDbTrace
10
-56
20
-46.70073
30
0
11
-52.500002
21
-46.239947
31
0
12
-52.499998
22
-47.161514
32
0
13
-52.499998
23
-47.161514
33
0
39
0
210
0
220
0
230
1
0
SOLID
5
179
100
AcDbEntity
8
SK2
62
256
6
ByLayer
370
18
48
1
60
0
100
AcDbTrace
10
215.1
20
-46.70073
30
0
11
211.600002
21
-47.161514
31
0
12
211.599998
22
-46.239947
32
0
13
211.599998
23
-46.239947
33
0
39
0
210
0
220
0
230
1
0
ENDBLK
5
17B
100
AcDbEntity
8
0
100
AcDbBlockEnd
0
BLOCK
5
180
100
AcDbEntity
8
0
100
AcDbBlockBegin
2
*D3
70
1
10
0
20
0
30
0
3
*D3
0
LINE
5
182
100
AcDbEntity
8
0
62
256
6
ByLayer
370
-2
48
1
60
0
100
AcDbLine
10
215.1
20
-1.5875
30
0
11
215.1
21
-38.70073
31
0
39
0
210
0
220
0
230
1
0
LINE
5
183
100
AcDbEntity
8
0
62
256
6
ByLayer
370
-2
48
1
60
0
100
AcDbLine
10
3
20
-12.5875
30
0
11
3
21
-38.70073
31
0
39
0
210
0
220
0
230
1
0
LINE
5
184
100
AcDbEntity
8
0
62
256
6
ByLayer
370
-2
48
1
60
0
100
AcDbLine
10
211.6
20
-36.70073
30
0
11
6.5
21
-36.70073
31
0
39
0
210
0
220
0
230
1
0
SOLID
5
185
100
AcDbEntity
8
0
62
256
6
ByLayer
370
-1
48
1
60
0
100
AcDbTrace
10
211.6
20
-37.284064
30
0
11
211.6
21
-36.117397
31
0
12
215.1
22
-36.70073
32
0
13
215.1
23
-36.70073
33
0
39
0
210
0
220
0
230
1
0
SOLID
5
186
100
AcDbEntity
8
0
62
256
6
ByLayer
370
-1
48
1
60
0
100
AcDbTrace
10
6.5
20
-36.117397
30
0
11
6.5
21
-37.284064
31
0
12
3
22
-36.70073
32
0
13
3
23
-36.70073
33
0
39
0
210
0
220
0
230
1
0
MTEXT
5
187
100
AcDbEntity
8
0
62
256
6
ByLayer
370
18
48
1
60
0
100
AcDbMText
10
109.05
20
-30.70073
30
0
210
0
220
0
230
1
1
\A1;212.1
40
3
41
0
44
1
50
0
71
5
72
5
7
iso_b_vert
0
POINT
5
188
100
AcDbEntity
8
Defpoints
62
0
6
ByLayer
370
-1
48
1
60
0
100
AcDbPoint
10
215.1
20
0
30
0
39
0
210
0
220
0
230
1
50
360
0
POINT
5
189
100
AcDbEntity
8
Defpoints
62
0
6
ByLayer
370
-1
48
1
60
0
100
AcDbPoint
10
3
20
-11
30
0
39
0
210
0
220
0
230
1
50
360
0
POINT
5
18A
100
AcDbEntity
8
Defpoints
62
0
6
ByLayer
370
-1
48
1
60
0
100
AcDbPoint
10
3
20
-36.70073
30
0
39
0
210
0
220
0
230
1
50
360
0
ENDBLK
5
181
100
AcDbEntity
8
0
100
AcDbBlockEnd
0
BLOCK
5
192
100
AcDbEntity
8
0
100
AcDbBlockBegin
2
_U1
70
0
10
0
20
0
30
0
3
_U1
0
MTEXT
5
18C
100
AcDbEntity
8
SK2
62
256
6
ByLayer
370
18
48
1
60
0
100
AcDbMText
10
104.196601
20
-35.815616
30
0
210
0
220
0
230
1
1
\W0.6532;212.10
40
3
41
0
44
1.084337
50
0
71
7
72
5
7
iso_b_vert
0
LINE
5
18D
100
AcDbEntity
8
SK2
62
256
6
ByLayer
370
13
48
1
60
0
100
AcDbLine
10
215.1
20
-1.5875
30
0
11
215.1
21
-38.70073
31
0
39
0
210
0
220
0
230
1
0
LINE
5
18E
100
AcDbEntity
8
SK2
62
256
6
ByLayer
370
13
48
1
60
0
100
AcDbLine
10
3
20
-12.5875
30
0
11
3
21
-38.70073
31
0
39
0
210
0
220
0
230
1
0
LINE
5
18F
100
AcDbEntity
8
SK2
62
256
6
ByLayer
370
13
48
1
60
0
100
AcDbLine
10
215.1
20
-36.70073
30
0
11
3
21
-36.70073
31
0
39
0
210
0
220
0
230
1
0
SOLID
5
190
100
AcDbEntity
8
SK2
62
256
6
ByLayer
370
18
48
1
60
0
100
AcDbTrace
10
215.1
20
-36.70073
30
0
11
211.600002
21
-37.161514
31
0
12
211.599998
22
-36.239947
32
0
13
211.599998
23
-36.239947
33
0
39
0
210
0
220
0
230
1
0
SOLID
5
191
100
AcDbEntity
8
SK2
62
256
6
ByLayer
370
18
48
1
60
0
100
AcDbTrace
10
3
20
-36.70073
30
0
11
6.499998
21
-36.239947
31
0
12
6.500002
22
-37.161514
32
0
13
6.500002
23
-37.161514
33
0
39
0
210
0
220
0
230
1
0
ENDBLK
5
193
100
AcDbEntity
8
0
100
AcDbBlockEnd
0
BLOCK
5
198
100
AcDbEntity
8
0
100
AcDbBlockBegin
2
*D5
70
1
10
0
20
0
30
0
3
*D5
0
LINE
5
19A
100
AcDbEntity
8
0
62
256
6
ByLayer
370
-2
48
1
60
0
100
AcDbLine
10
-56
20
-14.0875
30
0
11
-56
21
-38.70073
31
0
39
0
210
0
220
0
230
1
0
LINE
5
19B
100
AcDbEntity
8
0
62
256
6
ByLayer
370
-2
48
1
60
0
100
AcDbLine
10
0
20
-14.0875
30
0
11
0
21
-38.70073
31
0
39
0
210
0
220
0
230
1
0
LINE
5
19C
100
AcDbEntity
8
0
62
256
6
ByLayer
370
-2
48
1
60
0
100
AcDbLine
10
-52.5
20
-36.70073
30
0
11
-3.5
21
-36.70073
31
0
39
0
210
0
220
0
230
1
0
SOLID
5
19D
100
AcDbEntity
8
0
62
256
6
ByLayer
370
-1
48
1
60
0
100
AcDbTrace
10
-52.5
20
-36.117397
30
0
11
-52.5
21
-37.284064
31
0
12
-56
22
-36.70073
32
0
13
-56
23
-36.70073
33
0
39
0
210
0
220
0
230
1
0
SOLID
5
19E
100
AcDbEntity
8
0
62
256
6
ByLayer
370
-1
48
1
60
0
100
AcDbTrace
10
-3.5
20
-37.284064
30
0
11
-3.5
21
-36.117397
31
0
12
0
22
-36.70073
32
0
13
0
23
-36.70073
33
0
39
0
210
0
220
0
230
1
0
MTEXT
5
19F
100
AcDbEntity
8
0
62
256
6
ByLayer
370
18
48
1
60
0
100
AcDbMText
10
-28
20
-30.70073
30
0
210
0
220
0
230
1
1
\A1;56
40
3
41
0
44
1
50
0
71
5
72
5
7
iso_b_vert
0
POINT
5
1A0
100
AcDbEntity
8
Defpoints
62
0
6
ByLayer
370
-1
48
1
60
0
100
AcDbPoint
10
-56
20
-12.5
30
0
39
0
210
0
220
0
230
1
50
360
0
POINT
5
1A1
100
AcDbEntity
8
Defpoints
62
0
6
ByLayer
370
-1
48
1
60
0
100
AcDbPoint
10
0
20
-12.5
30
0
39
0
210
0
220
0
230
1
50
360
0
POINT
5
1A2
100
AcDbEntity
8
Defpoints
62
0
6
ByLayer
370
-1
48
1
60
0
100
AcDbPoint
10
0
20
-36.70073
30
0
39
0
210
0
220
0
230
1
50
360
0
ENDBLK
5
199
100
AcDbEntity
8
0
100
AcDbBlockEnd
0
BLOCK
5
1AA
100
AcDbEntity
8
0
100
AcDbBlockBegin
2
_U2
70
0
10
0
20
0
30
0
3
_U2
0
MTEXT
5
1A4
100
AcDbEntity
8
SK2
62
256
6
ByLayer
370
18
48
1
60
0
100
AcDbMText
10
-32.48237
20
-35.815616
30
0
210
0
220
0
230
1
1
\W0.7468;56.00
40
3
41
0
44
1.084337
50
0
71
7
72
5
7
iso_b_vert
0
LINE
5
1A5
100
AcDbEntity
8
SK2
62
256
6
ByLayer
370
13
48
1
60
0
100
AcDbLine
10
-56
20
-14.0875
30
0
11
-56
21
-38.70073
31
0
39
0
210
0
220
0
230
1
0
LINE
5
1A6
100
AcDbEntity
8
SK2
62
256
6
ByLayer
370
13
48
1
60
0
100
AcDbLine
10
0
20
-14.0875
30
0
11
0
21
-38.70073
31
0
39
0
210
0
220
0
230
1
0
LINE
5
1A7
100
AcDbEntity
8
SK2
62
256
6
ByLayer
370
13
48
1
60
0
100
AcDbLine
10
-56
20
-36.70073
30
0
11
0
21
-36.70073
31
0
39
0
210
0
220
0
230
1
0
SOLID
5
1A8
100
AcDbEntity
8
SK2
62
256
6
ByLayer
370
18
48
1
60
0
100
AcDbTrace
10
-56
20
-36.70073
30
0
11
-52.500002
21
-36.239947
31
0
12
-52.499998
22
-37.161514
32
0
13
-52.499998
23
-37.161514
33
0
39
0
210
0
220
0
230
1
0
SOLID
5
1A9
100
AcDbEntity
8
SK2
62
256
6
ByLayer
370
18
48
1
60
0
100
AcDbTrace
10
0
20
-36.70073
30
0
11
-3.499998
21
-37.161514
31
0
12
-3.500002
22
-36.239947
32
0
13
-3.500002
23
-36.239947
33
0
39
0
210
0
220
0
230
1
0
ENDBLK
5
1AB
100
AcDbEntity
8
0
100
AcDbBlockEnd
0
BLOCK
5
1B0
100
AcDbEntity
8
0
100
AcDbBlockBegin
2
*D7
70
1
10
0
20
0
30
0
3
*D7
0
LINE
5
1B2
100
AcDbEntity
8
0
62
256
6
ByLayer
370
-2
48
1
60
0
100
AcDbLine
10
215.1
20
1.5875
30
0
11
215.1
21
35.70073
31
0
39
0
210
0
220
0
230
1
0
LINE
5
1B3
100
AcDbEntity
8
0
62
256
6
ByLayer
370
-2
48
1
60
0
100
AcDbLine
10
23
20
12.5875
30
0
11
23
21
35.70073
31
0
39
0
210
0
220
0
230
1
0
LINE
5
1B4
100
AcDbEntity
8
0
62
256
6
ByLayer
370
-2
48
1
60
0
100
AcDbLine
10
211.6
20
33.70073
30
0
11
26.5
21
33.70073
31
0
39
0
210
0
220
0
230
1
0
SOLID
5
1B5
100
AcDbEntity
8
0
62
256
6
ByLayer
370
-1
48
1
60
0
100
AcDbTrace
10
211.6
20
33.117397
30
0
11
211.6
21
34.284064
31
0
12
215.1
22
33.70073
32
0
13
215.1
23
33.70073
33
0
39
0
210
0
220
0
230
1
0
SOLID
5
1B6
100
AcDbEntity
8
0
62
256
6
ByLayer
370
-1
48
1
60
0
100
AcDbTrace
10
26.5
20
34.284064
30
0
11
26.5
21
33.117397
31
0
12
23
22
33.70073
32
0
13
23
23
33.70073
33
0
39
0
210
0
220
0
230
1
0
MTEXT
5
1B7
100
AcDbEntity
8
0
62
256
6
ByLayer
370
18
48
1
60
0
100
AcDbMText
10
119.05
20
39.70073
30
0
210
0
220
0
230
1
1
\A1;192.1
40
3
41
0
44
1
50
0
71
5
72
5
7
iso_b_vert
0
POINT
5
1B8
100
AcDbEntity
8
Defpoints
62
0
6
ByLayer
370
-1
48
1
60
0
100
AcDbPoint
10
215.1
20
0
30
0
39
0
210
0
220
0
230
1
50
360
0
POINT
5
1B9
100
AcDbEntity
8
Defpoints
62
0
6
ByLayer
370
-1
48
1
60
0
100
AcDbPoint
10
23
20
11
30
0
39
0
210
0
220
0
230
1
50
360
0
POINT
5
1BA
100
AcDbEntity
8
Defpoints
62
0
6
ByLayer
370
-1
48
1
60
0
100
AcDbPoint
10
23
20
33.70073
30
0
39
0
210
0
220
0
230
1
50
360
0
ENDBLK
5
1B1
100
AcDbEntity
8
0
100
AcDbBlockEnd
0
BLOCK
5
1C2
100
AcDbEntity
8
0
100
AcDbBlockBegin
2
_U3
70
0
10
0
20
0
30
0
3
_U3
0
MTEXT
5
1BC
100
AcDbEntity
8
SK2
62
256
6
ByLayer
370
18
48
1
60
0
100
AcDbMText
10
114.196601
20
34.585845
30
0
210
0
220
0
230
1
1
\W0.6532;192.10
40
3
41
0
44
1.084337
50
0
71
7
72
5
7
iso_b_vert
0
LINE
5
1BD
100
AcDbEntity
8
SK2
62
256
6
ByLayer
370
13
48
1
60
0
100
AcDbLine
10
215.1
20
1.5875
30
0
11
215.1
21
35.70073
31
0
39
0
210
0
220
0
230
1
0
LINE
5
1BE
100
AcDbEntity
8
SK2
62
256
6
ByLayer
370
13
48
1
60
0
100
AcDbLine
10
23
20
12.5875
30
0
11
23
21
35.70073
31
0
39
0
210
0
220
0
230
1
0
LINE
5
1BF
100
AcDbEntity
8
SK2
62
256
6
ByLayer
370
13
48
1
60
0
100
AcDbLine
10
215.1
20
33.70073
30
0
11
23
21
33.70073
31
0
39
0
210
0
220
0
230
1
0
SOLID
5
1C0
100
AcDbEntity
8
SK2
62
256
6
ByLayer
370
18
48
1
60
0
100
AcDbTrace
10
215.1
20
33.70073
30
0
11
211.600002
21
33.239947
31
0
12
211.599998
22
34.161514
32
0
13
211.599998
23
34.161514
33
0
39
0
210
0
220
0
230
1
0
SOLID
5
1C1
100
AcDbEntity
8
SK2
62
256
6
ByLayer
370
18
48
1
60
0
100
AcDbTrace
10
23
20
33.70073
30
0
11
26.499998
21
34.161514
31
0
12
26.500002
22
33.239947
32
0
13
26.500002
23
33.239947
33
0
39
0
210
0
220
0
230
1
0
ENDBLK
5
1C3
100
AcDbEntity
8
0
100
AcDbBlockEnd
0
ENDSEC
0
SECTION
2
ENTITIES
0
ARC
5
C4
100
AcDbEntity
8
SK2
62
256
6
ByLayer
370
13
48
1
60
0
100
AcDbCircle
39
0
10
215.1
20
0
30
0
40
19
210
0
220
0
230
1
100
AcDbArc
50
290
51
70
0
ELLIPSE
5
C5
100
AcDbEntity
8
SK1
62
256
6
ByLayer
370
18
48
1
60
0
100
AcDbEllipse
10
-41.343561
20
0
30
0
11
-2.29613691341699E-15
21
-12.5000000000002
31
0
210
0
220
0
230
1
40
0.932515
41
-1.86465462472194
42
-1.27693802886786
0
ELLIPSE
5
C6
100
AcDbEntity
8
SK1
62
256
6
ByLayer
370
18
48
1
60
0
100
AcDbEllipse
10
276.680659
20
0
30
0
11
357.953166043254
21
-4.05596621644435E-13
31
0
210
0
220
0
230
1
40
0.034921
41
2.52406396812455
42
2.73005601344533
0
ELLIPSE
5
C7
100
AcDbEntity
8
SK1
62
256
6
ByLayer
370
18
48
1
60
0
100
AcDbEllipse
10
276.680659
20
0
30
0
11
357.953166032003
21
-4.05596621631686E-13
31
0
210
0
220
0
230
1
40
0.034921
41
-2.73005601344242
42
-2.52406396811705
0
ELLIPSE
5
C8
100
AcDbEntity
8
SK1
62
256
6
ByLayer
370
18
48
1
60
0
100
AcDbEllipse
10
-25.404609
20
0
30
0
11
13.4046088753088
21
-1.51887581674114E-14
31
0
210
0
220
0
230
1
40
0.932515
41
-0.555530755442636
42
0.555530755442635
0
POINT
5
70
100
AcDbEntity
8
80
62
256
6
ByLayer
370
18
48
1
60
0
100
AcDbPoint
10
0
20
0
30
0
39
0
210
0
220
0
230
1
50
360
0
POINT
5
72
100
AcDbEntity
8
81
62
256
6
ByLayer
370
18
48
1
60
0
100
AcDbPoint
10
215.1
20
0
30
0
39
0
210
0
220
0
230
1
50
360
0
POINT
5
74
100
AcDbEntity
8
1
62
256
6
ByLayer
370
18
48
1
60
1
100
AcDbPoint
10
-56
20
-12.5
30
0
39
0
210
0
220
0
230
1
50
360
0
POINT
5
76
100
AcDbEntity
8
1
62
256
6
ByLayer
370
18
48
1
60
1
100
AcDbPoint
10
215.1
20
0
30
0
39
0
210
0
220
0
230
1
50
360
0
POINT
5
77
100
AcDbEntity
8
1
62
256
6
ByLayer
370
18
48
1
60
1
100
AcDbPoint
10
215.1
20
0
30
0
39
0
210
0
220
0
230
1
50
360
0
POINT
5
78
100
AcDbEntity
8
1
62
256
6
ByLayer
370
18
48
1
60
1
100
AcDbPoint
10
3
20
-11
30
0
39
0
210
0
220
0
230
1
50
360
0
POINT
5
79
100
AcDbEntity
8
1
62
256
6
ByLayer
370
18
48
1
60
1
100
AcDbPoint
10
-56
20
-12.5
30
0
39
0
210
0
220
0
230
1
50
360
0
POINT
5
7A
100
AcDbEntity
8
1
62
256
6
ByLayer
370
18
48
1
60
1
100
AcDbPoint
10
0
20
-12.5
30
0
39
0
210
0
220
0
230
1
50
360
0
POINT
5
7B
100
AcDbEntity
8
1
62
256
6
ByLayer
370
18
48
1
60
1
100
AcDbPoint
10
215.1
20
0
30
0
39
0
210
0
220
0
230
1
50
360
0
POINT
5
7C
100
AcDbEntity
8
1
62
256
6
ByLayer
370
18
48
1
60
1
100
AcDbPoint
10
23
20
11
30
0
39
0
210
0
220
0
230
1
50
360
0
SPLINE
5
C9
100
AcDbEntity
8
1
62
256
6
ByLayer
370
18
48
1
60
0
100
AcDbSpline
70
4
71
3
72
14
73
10
40
0
40
0
40
0
40
0
40
0.204519907300437
40
0.204519907300437
40
0.409039814600874
40
0.409039814600874
40
0.818079629201705
40
0.818079629201705
40
1
40
1
40
1
40
1
41
1
10
200.1
20
-10.9300352644459
30
0
41
1
10
200.329308575421
20
-10.9393696789871
30
0
41
1
10
200.558570813893
20
-10.9477483766254
30
0
41
1
10
201.017094504153
20
-10.9625823648919
30
0
41
1
10
201.246341317156
20
-10.9690424550093
30
0
41
1
10
201.934008648842
20
-10.985575846374
30
0
41
1
10
202.392351458567
20
-10.9928060699322
30
0
41
1
10
203.054316466421
20
-10.9977971506244
30
0
41
1
10
203.258069454981
20
-10.9985870536853
30
0
41
1
10
203.461785987901
20
-10.9986270898835
30
0
0
SPLINE
5
CA
100
AcDbEntity
8
1
62
256
6
ByLayer
370
18
48
1
60
0
100
AcDbSpline
70
4
71
3
72
226
73
222
40
0
40
0
40
0
40
0
40
0.0006246090598983
40
0.0006246090598983
40
0.0131168014466516
40
0.0131168014466516
40
0.0193628976400282
40
0.0193628976400282
40
0.0256089938334049
40
0.0256089938334049
40
0.0318550900267816
40
0.0318550900267816
40
0.0381011862201582
40
0.0381011862201582
40
0.0505933786069115
40
0.0505933786069115
40
0.0630855709936648
40
0.0630855709936648
40
0.0693316671870415
40
0.0693316671870415
40
0.0755777633804181
40
0.0755777633804181
40
0.0880699557671715
40
0.0880699557671715
40
0.100562148153925
40
0.100562148153925
40
0.106808244347302
40
0.106808244347302
40
0.113054340540678
40
0.113054340540678
40
0.125546532927431
40
0.125546532927431
40
0.138038725314185
40
0.138038725314185
40
0.144284821507561
40
0.144284821507561
40
0.150530917700938
40
0.150530917700938
40
0.163023110087692
40
0.163023110087692
40
0.175515302474446
40
0.175515302474446
40
0.1880074948612
40
0.1880074948612
40
0.200499687247954
40
0.200499687247954
40
0.212991879634708
40
0.212991879634708
40
0.219237975828084
40
0.219237975828084
40
0.225484072021461
40
0.225484072021461
40
0.237976264408214
40
0.237976264408214
40
0.250468456794968
40
0.250468456794968
40
0.256714552988344
40
0.256714552988344
40
0.262960649181721
40
0.262960649181721
40
0.275452841568473
40
0.275452841568473
40
0.28169893776185
40
0.28169893776185
40
0.287945033955226
40
0.287945033955226
40
0.294191130148603
40
0.294191130148603
40
0.300437226341979
40
0.300437226341979
40
0.312929418728731
40
0.312929418728731
40
0.325421611115483
40
0.325421611115483
40
0.331667707308859
40
0.331667707308859
40
0.337913803502234
40
0.337913803502234
40
0.34415989969561
40
0.34415989969561
40
0.350405995888986
40
0.350405995888986
40
0.362898188275736
40
0.362898188275736
40
0.375390380662487
40
0.375390380662487
40
0.381636476855862
40
0.381636476855862
40
0.387882573049238
40
0.387882573049238
40
0.400374765435988
40
0.400374765435988
40
0.412866957822739
40
0.412866957822739
40
0.419113054016114
40
0.419113054016114
40
0.425359150209489
40
0.425359150209489
40
0.450343534982991
40
0.450343534982991
40
0.456589631176366
40
0.456589631176366
40
0.462835727369741
40
0.462835727369741
40
0.475327919756493
40
0.475327919756493
40
0.487820112143244
40
0.487820112143244
40
0.494066208336619
40
0.494066208336619
40
0.500312304529994
40
0.500312304529994
40
0.512804496916745
40
0.512804496916745
40
0.525296689303496
40
0.525296689303496
40
0.531542785496872
40
0.531542785496872
40
0.537788881690247
40
0.537788881690247
40
0.550281074076997
40
0.550281074076997
40
0.562773266463748
40
0.562773266463748
40
0.569019362657123
40
0.569019362657123
40
0.575265458850498
40
0.575265458850498
40
0.587757651237248
40
0.587757651237248
40
0.600249843623997
40
0.600249843623997
40
0.606495939817373
40
0.606495939817373
40
0.612742036010748
40
0.612742036010748
40
0.625234228397498
40
0.625234228397498
40
0.637726420784249
40
0.637726420784249
40
0.643972516977624
40
0.643972516977624
40
0.650218613170999
40
0.650218613170999
40
0.675202997944501
40
0.675202997944501
40
0.681449094137876
40
0.681449094137876
40
0.687695190331251
40
0.687695190331251
40
0.693941286524627
40
0.693941286524627
40
0.700187382718002
40
0.700187382718002
40
0.725171767491501
40
0.725171767491501
40
0.731417863684876
40
0.731417863684876
40
0.737663959878251
40
0.737663959878251
40
0.750156152265001
40
0.750156152265001
40
0.762648344651751
40
0.762648344651751
40
0.768894440845126
40
0.768894440845126
40
0.775140537038502
40
0.775140537038502
40
0.787632729425253
40
0.787632729425253
40
0.800124921812004
40
0.800124921812004
40
0.80637101800538
40
0.80637101800538
40
0.812617114198755
40
0.812617114198755
40
0.825109306585506
40
0.825109306585506
40
0.831355402778881
40
0.831355402778881
40
0.837601498972256
40
0.837601498972256
40
0.843847595165631
40
0.843847595165631
40
0.850093691359005
40
0.850093691359005
40
0.862585883745756
40
0.862585883745756
40
0.875078076132506
40
0.875078076132506
40
0.881324172325881
40
0.881324172325881
40
0.887570268519256
40
0.887570268519256
40
0.893816364712631
40
0.893816364712631
40
0.900062460906006
40
0.900062460906006
40
0.912554653292756
40
0.912554653292756
40
0.918800749486131
40
0.918800749486131
40
0.925046845679505
40
0.925046845679505
40
0.937539038066255
40
0.937539038066255
40
0.950031230453004
40
0.950031230453004
40
0.956277326646379
40
0.956277326646379
40
0.962523422839753
40
0.962523422839753
40
0.968769519033128
40
0.968769519033128
40
0.975015615226502
40
0.975015615226502
40
0.987507807613252
40
0.987507807613252
40
0.993753903806626
40
0.993753903806626
40
1
40
1
40
1
40
1
41
1
10
86.4464813373301
20
7.89794299126399
30
0
41
1
10
86.4701460340335
20
7.90358759902378
30
0
41
1
10
86.4938120555297
20
7.90922496680028
30
0
41
1
10
86.990826591867
20
8.02745812705624
30
0
41
1
10
87.4646895448779
20
8.1371958465013
30
0
41
1
10
88.1762017362767
20
8.29760238317232
30
0
41
1
10
88.4135154895474
20
8.35036298552794
30
0
41
1
10
88.8877768015411
20
8.45440801544544
30
0
41
1
10
89.1247764764009
20
8.50574049889542
30
0
41
1
10
89.5986378499785
20
8.60679551291267
30
0
41
1
10
89.8355083673061
20
8.6565025963944
30
0
41
1
10
90.3092528957774
20
8.75407835867131
30
0
41
1
10
90.5461066191744
20
8.80198321735608
30
0
41
1
10
91.2565324257829
20
8.94319828332755
30
0
41
1
10
91.7299911769539
20
9.03397414406729
30
0
41
1
10
92.6765059763087
20
9.20894024202309
30
0
41
1
10
93.1495547187645
20
9.29314107362532
30
0
41
1
10
93.8587623635927
20
9.41454483739702
30
0
41
1
10
94.0951247304357
20
9.45416552385589
30
0
41
1
10
94.5679307139507
20
9.53150249142774
30
0
41
1
10
94.8043551456786
20
9.56924593673546
30
0
41
1
10
95.5136620218809
20
9.67975734539507
30
0
41
1
10
95.9865741207661
20
9.74981452421815
30
0
41
1
10
96.9323530073903
20
9.88285849037081
30
0
41
1
10
97.4052459149939
20
9.94581788667432
30
0
41
1
10
98.1144126967909
20
10.0350419391246
30
0
41
1
10
98.3507898082155
20
10.0638937597176
30
0
41
1
10
98.8236748390147
20
10.1196665466465
30
0
41
1
10
99.060200016427
20
10.1465731294499
30
0
41
1
10
99.7699541628286
20
10.2244376330278
30
0
41
1
10
100.243331877572
20
10.2725681516712
30
0
41
1
10
101.19042442542
20
10.3613384475132
30
0
41
1
10
101.664136971782
20
10.4019804414833
30
0
41
1
10
102.374884513639
20
10.4573170129806
30
0
41
1
10
102.611813772339
20
10.4748327725478
30
0
41
1
10
103.085850043817
20
10.5079037061517
30
0
41
1
10
103.322981099742
20
10.5234467700116
30
0
41
1
10
104.034693798412
20
10.5671248124292
30
0
41
1
10
104.50904213894
20
10.592282422815
30
0
41
1
10
105.457124579926
20
10.6347923978345
30
0
41
1
10
105.930914958896
20
10.6521394301074
30
0
41
1
10
106.877825989639
20
10.679031937027
30
0
41
1
10
107.35085723604
20
10.6885692707319
30
0
41
1
10
108.29717068319
20
10.6996762838649
30
0
41
1
10
108.77031904008
20
10.7012875387503
30
0
41
1
10
109.716424407668
20
10.6966855885602
30
0
41
1
10
110.189396720583
20
10.6904713277459
30
0
41
1
10
110.898657217265
20
10.6752415793835
30
0
41
1
10
111.135041275706
20
10.6691786534057
30
0
41
1
10
111.607746450941
20
10.6550692370485
30
0
41
1
10
111.844090156047
20
10.6470266267842
30
0
41
1
10
112.553315524531
20
10.6200085979887
30
0
41
1
10
113.026314788606
20
10.5981312006386
30
0
41
1
10
113.972517710053
20
10.5466413089714
30
0
41
1
10
114.445717546184
20
10.5170249442858
30
0
41
1
10
115.155620014859
20
10.4667377443551
30
0
41
1
10
115.392258926911
20
10.4489904819178
30
0
41
1
10
115.865536911676
20
10.4115024595527
30
0
41
1
10
116.102192606595
20
10.3917705251719
30
0
41
1
10
116.812440560906
20
10.3297676769881
30
0
41
1
10
117.286356511658
20
10.2847362655135
30
0
41
1
10
117.997616333813
20
10.2115014226015
30
0
41
1
10
118.234774572068
20
10.1861459528142
30
0
41
1
10
118.709223921921
20
10.1335341039901
30
0
41
1
10
118.946535732312
20
10.106274518208
30
0
41
1
10
119.420876319598
20
10.04988207755
30
0
41
1
10
119.657953348283
20
10.0207440577405
30
0
41
1
10
120.131908619756
20
9.96056519416797
30
0
41
1
10
120.368769856743
20
9.92950479784571
30
0
41
1
10
121.079258146719
20
9.83368102183368
30
0
41
1
10
121.552860389584
20
9.7663641285948
30
0
41
1
10
122.499798124575
20
9.62477555430451
30
0
41
1
10
122.973126163936
20
9.55049327611673
30
0
41
1
10
123.682844733081
20
9.4337593256945
30
0
41
1
10
123.919378246247
20
9.39397102516821
30
0
41
1
10
124.392311116074
20
9.31255668350136
30
0
41
1
10
124.62869731573
20
9.27091048066544
30
0
41
1
10
125.10145357197
20
9.18593677556555
30
0
41
1
10
125.337833570865
20
9.14262409304737
30
0
41
1
10
125.810695212115
20
9.05450458064666
30
0
41
1
10
126.04715387336
20
9.00966454931771
30
0
41
1
10
126.756547474474
20
8.87271359220915
30
0
41
1
10
127.229519181508
20
8.77820301343777
30
0
41
1
10
128.175458910191
20
8.58261196478702
30
0
41
1
10
128.648413821639
20
8.48150851866126
30
0
41
1
10
129.357802856018
20
8.3247962097648
30
0
41
1
10
129.594289929816
20
8.2717699736024
30
0
41
1
10
130.067442918063
20
8.16438379999741
30
0
41
1
10
130.304090595444
20
8.10999174185946
30
0
41
1
10
131.014216044285
20
7.94467186068081
30
0
41
1
10
131.487871482379
20
7.83159420178558
30
0
41
1
10
132.435540318581
20
7.59946765030335
30
0
41
1
10
132.909570478989
20
7.48045408566716
30
0
41
1
10
133.620766276432
20
7.29713802032325
30
0
41
1
10
133.857927860424
20
7.23526429566027
30
0
41
1
10
134.332235044137
20
7.11040523019716
30
0
41
1
10
134.569371395616
20
7.04745679837106
30
0
41
1
10
135.754799889344
20
6.72977566877296
30
0
41
1
10
136.702340028017
20
6.4662691630717
30
0
41
1
10
137.885297589857
20
6.12410773866785
30
0
41
1
10
138.121798504454
20
6.05499317371226
30
0
41
1
10
138.594805644195
20
5.91583931037826
30
0
41
1
10
138.831321584558
20
5.84582423038384
30
0
41
1
10
139.540875603971
20
5.63440162260864
30
0
41
1
10
140.013918512649
20
5.49161531645677
30
0
41
1
10
140.959869797083
20
5.20202249960744
30
0
41
1
10
141.432804992704
20
5.05528288067325
30
0
41
1
10
142.141996361881
20
4.83185882862273
30
0
41
1
10
142.378340922857
20
4.75678624653207
30
0
41
1
10
142.851074930148
20
4.60582365738989
30
0
41
1
10
143.087475290698
20
4.52996203575233
30
0
41
1
10
143.796901041455
20
4.30156877156102
30
0
41
1
10
144.270039525472
20
4.14794267640116
30
0
41
1
10
145.216545270734
20
3.8375885815598
30
0
41
1
10
145.689922980543
20
3.68088795971949
30
0
41
1
10
146.400102199272
20
3.44332723150907
30
0
41
1
10
146.636841553949
20
3.3637054983036
30
0
41
1
10
147.110376335773
20
3.2036679665355
30
0
41
1
10
147.347201295993
20
3.12333324266299
30
0
41
1
10
148.05801608542
20
2.88185136979433
30
0
41
1
10
148.53227752936
20
2.72004070902995
30
0
41
1
10
149.481412269734
20
2.39434178290691
30
0
41
1
10
149.955741824155
20
2.23063792784657
30
0
41
1
10
150.666675761155
20
1.98370112901557
30
0
41
1
10
150.903550040544
20
1.90110278761131
30
0
41
1
10
151.377114502498
20
1.73540074143949
30
0
41
1
10
151.613819674437
20
1.65233991918191
30
0
41
1
10
152.323935747772
20
1.40319055697063
30
0
41
1
10
152.797352176134
20
1.23714916207683
30
0
41
1
10
153.743884051876
20
0.904288797497486
30
0
41
1
10
154.217032384021
20
0.737563852920459
30
0
41
1
10
154.92650307605
20
0.486819031702339
30
0
41
1
10
155.162951217828
20
0.403127519792747
30
0
41
1
10
155.635751306766
20
0.235490482396415
30
0
41
1
10
155.872087640796
20
0.151500397852033
30
0
41
1
10
156.581204452951
20
-0.100130995314174
30
0
41
1
10
157.054101451406
20
-0.267408726128139
30
0
41
1
10
158.000036814452
20
-0.60147877484232
30
0
41
1
10
158.473068418251
20
-0.768290363813549
30
0
41
1
10
159.182654306077
20
-1.01833616226304
30
0
41
1
10
159.419195188808
20
-1.10163950776104
30
0
41
1
10
159.892239030488
20
-1.26833357834713
30
0
41
1
10
160.128737179526
20
-1.35173799246817
30
0
41
1
10
161.311491269294
20
-1.76795705128802
30
0
41
1
10
162.259009725751
20
-2.09701694891419
30
0
41
1
10
163.44438182347
20
-2.5053576035136
30
0
41
1
10
163.681506996116
20
-2.58687062815778
30
0
41
1
10
164.155847522916
20
-2.74961857248516
30
0
41
1
10
164.39306916894
20
-2.83087979398076
30
0
41
1
10
164.867201085607
20
-2.99289581788111
30
0
41
1
10
165.104196273959
20
-3.07357687544936
30
0
41
1
10
165.57813595964
20
-3.23403615197591
30
0
41
1
10
165.815065797037
20
-3.31385630693614
30
0
41
1
10
166.999467090845
20
-3.71106161898942
30
0
41
1
10
167.94618775597
20
-4.02281799474133
30
0
41
1
10
169.127986009674
20
-4.40657302005323
30
0
41
1
10
169.36428997776
20
-4.48295920008999
30
0
41
1
10
169.83694107497
20
-4.63460165331631
30
0
41
1
10
170.073294017535
20
-4.70984415437979
30
0
41
1
10
170.782318541219
20
-4.93414831725605
30
0
41
1
10
171.254971329197
20
-5.0817467842077
30
0
41
1
10
172.200135482407
20
-5.37328205296294
30
0
41
1
10
172.67264400013
20
-5.51722616437806
30
0
41
1
10
173.381222892989
20
-5.73056001909333
30
0
41
1
10
173.617371683627
20
-5.80127209904646
30
0
41
1
10
174.089785973154
20
-5.94140270364949
30
0
41
1
10
174.326048439653
20
-6.01082979005378
30
0
41
1
10
175.034970230645
20
-6.21728131758857
30
0
41
1
10
175.507761995484
20
-6.35248264292619
30
0
41
1
10
176.45355532181
20
-6.61836389989622
30
0
41
1
10
176.92658786683
20
-6.74897389270456
30
0
41
1
10
177.636171125948
20
-6.94174140106927
30
0
41
1
10
177.872695651461
20
-7.00549077845554
30
0
41
1
10
178.345890591713
20
-7.13163603433981
30
0
41
1
10
178.582574295689
20
-7.1940034656833
30
0
41
1
10
179.292963655462
20
-7.37882846164857
30
0
41
1
10
179.766906785957
20
-7.49922883231815
30
0
41
1
10
180.478256024368
20
-7.67579897461479
30
0
41
1
10
180.715446579844
20
-7.73397988149031
30
0
41
1
10
181.189963767302
20
-7.84901095421287
30
0
41
1
10
181.427157416018
20
-7.90582877178178
30
0
41
1
10
181.901264004557
20
-8.01805555326823
30
0
41
1
10
182.138190457097
20
-8.07348671911126
30
0
41
1
10
182.611841242977
20
-8.18287581845175
30
0
41
1
10
182.848599190868
20
-8.23676836518757
30
0
41
1
10
183.558784404643
20
-8.39584672566698
30
0
41
1
10
184.032070617288
20
-8.4985395178922
30
0
41
1
10
184.97815314694
20
-8.6975485928223
30
0
41
1
10
185.450952653823
20
-8.79385773982432
30
0
41
1
10
186.159726607105
20
-8.93362074735134
30
0
41
1
10
186.39589153445
20
-8.97945952381576
30
0
41
1
10
186.86808503213
20
-9.06954821703431
30
0
41
1
10
187.10412637516
20
-9.11377719719724
30
0
41
1
10
187.57625177403
20
-9.20037896421815
30
0
41
1
10
187.81233838879
20
-9.24275030416109
30
0
41
1
10
188.284482326153
20
-9.32576032693527
30
0
41
1
10
188.520544079381
20
-9.36639196526752
30
0
41
1
10
189.22868440155
20
-9.48569314616856
30
0
41
1
10
189.700720162781
20
-9.56176912764764
30
0
41
1
10
190.40861188535
20
-9.67077582989177
30
0
41
1
10
190.644548746285
20
-9.7062595091206
30
0
41
1
10
191.116356699114
20
-9.77552646300182
30
0
41
1
10
191.35221578385
20
-9.80932178950562
30
0
41
1
10
192.059967639097
20
-9.90783460076244
30
0
41
1
10
192.532011083566
20
-9.96971903301252
30
0
41
1
10
193.476353755289
20
-10.0861448262952
30
0
41
1
10
193.948646369827
20
-10.1406910287042
30
0
41
1
10
194.657213886356
20
-10.2170392180363
30
0
41
1
10
194.893429634824
20
-10.2415721654646
30
0
41
1
10
195.365849572588
20
-10.2888463449361
30
0
41
1
10
195.602055143024
20
-10.311584188385
30
0
41
1
10
196.074608865355
20
-10.3551336223031
30
0
41
1
10
196.310970726529
20
-10.3759359086195
30
0
41
1
10
196.783912108136
20
-10.4155736880682
30
0
41
1
10
197.020470210984
20
-10.4344248443203
30
0
41
1
10
197.730364405214
20
-10.4881083288935
30
0
41
1
10
198.203932665209
20
-10.5200651863084
30
0
41
1
10
198.914678342067
20
-10.5622605986536
30
0
41
1
10
199.15165874715
20
-10.5753685376559
30
0
41
1
10
199.625739123736
20
-10.5996620701966
30
0
41
1
10
199.862830180485
20
-10.6108507924708
30
0
41
1
10
200.1
20
-10.6210624986566
30
0
0
SPLINE
5
CB
100
AcDbEntity
8
1
62
256
6
ByLayer
370
18
48
1
60
0
100
AcDbSpline
70
4
71
3
72
247
73
243
40
0
40
0
40
0
40
0
40
0.0019608301773423
40
0.0019608301773423
40
0.0143711655205122
40
0.0143711655205122
40
0.0267815008636822
40
0.0267815008636822
40
0.0391918362068521
40
0.0391918362068521
40
0.0516021715500221
40
0.0516021715500221
40
0.0578073392216073
40
0.0578073392216073
40
0.0640125068931926
40
0.0640125068931926
40
0.0764228422363638
40
0.0764228422363638
40
0.0826280099079494
40
0.0826280099079494
40
0.088833177579535
40
0.088833177579535
40
0.101243512922707
40
0.101243512922707
40
0.107448680594292
40
0.107448680594292
40
0.113653848265878
40
0.113653848265878
40
0.126064183609049
40
0.126064183609049
40
0.13847451895222
40
0.13847451895222
40
0.144679686623806
40
0.144679686623806
40
0.150884854295391
40
0.150884854295391
40
0.157090021966976
40
0.157090021966976
40
0.163295189638562
40
0.163295189638562
40
0.175705524981732
40
0.175705524981732
40
0.181910692653318
40
0.181910692653318
40
0.188115860324903
40
0.188115860324903
40
0.194321027996489
40
0.194321027996489
40
0.200526195668075
40
0.200526195668075
40
0.212936531011246
40
0.212936531011246
40
0.219141698682831
40
0.219141698682831
40
0.225346866354417
40
0.225346866354417
40
0.231552034026003
40
0.231552034026003
40
0.237757201697588
40
0.237757201697588
40
0.25016753704076
40
0.25016753704076
40
0.256372704712345
40
0.256372704712345
40
0.26257787238393
40
0.26257787238393
40
0.274988207727101
40
0.274988207727101
40
0.287398543070271
40
0.287398543070271
40
0.293603710741856
40
0.293603710741856
40
0.299808878413441
40
0.299808878413441
40
0.306014046085026
40
0.306014046085026
40
0.312219213756611
40
0.312219213756611
40
0.324629549099782
40
0.324629549099782
40
0.330834716771367
40
0.330834716771367
40
0.337039884442952
40
0.337039884442952
40
0.349450219786123
40
0.349450219786123
40
0.361860555129293
40
0.361860555129293
40
0.368065722800879
40
0.368065722800879
40
0.374270890472463
40
0.374270890472463
40
0.380476058144049
40
0.380476058144049
40
0.386681225815633
40
0.386681225815633
40
0.399091561158803
40
0.399091561158803
40
0.405296728830388
40
0.405296728830388
40
0.411501896501973
40
0.411501896501973
40
0.423912231845143
40
0.423912231845143
40
0.436322567188313
40
0.436322567188313
40
0.442527734859898
40
0.442527734859898
40
0.448732902531483
40
0.448732902531483
40
0.454938070203067
40
0.454938070203067
40
0.461143237874652
40
0.461143237874652
40
0.473553573217822
40
0.473553573217822
40
0.479758740889408
40
0.479758740889408
40
0.485963908560993
40
0.485963908560993
40
0.498374243904164
40
0.498374243904164
40
0.510784579247335
40
0.510784579247335
40
0.516989746918921
40
0.516989746918921
40
0.523194914590506
40
0.523194914590506
40
0.529400082262092
40
0.529400082262092
40
0.535605249933678
40
0.535605249933678
40
0.548015585276849
40
0.548015585276849
40
0.56042592062002
40
0.56042592062002
40
0.566631088291606
40
0.566631088291606
40
0.572836255963191
40
0.572836255963191
40
0.585246591306362
40
0.585246591306362
40
0.591451758977948
40
0.591451758977948
40
0.597656926649534
40
0.597656926649534
40
0.60386209432112
40
0.60386209432112
40
0.610067261992706
40
0.610067261992706
40
0.622477597335878
40
0.622477597335878
40
0.63488793267905
40
0.63488793267905
40
0.641093100350636
40
0.641093100350636
40
0.647298268022223
40
0.647298268022223
40
0.659708603365396
40
0.659708603365396
40
0.672118938708569
40
0.672118938708569
40
0.678324106380155
40
0.678324106380155
40
0.684529274051742
40
0.684529274051742
40
0.696939609394915
40
0.696939609394915
40
0.709349944738088
40
0.709349944738088
40
0.715555112409674
40
0.715555112409674
40
0.721760280081261
40
0.721760280081261
40
0.734170615424434
40
0.734170615424434
40
0.74037578309602
40
0.74037578309602
40
0.746580950767606
40
0.746580950767606
40
0.752786118439193
40
0.752786118439193
40
0.758991286110779
40
0.758991286110779
40
0.771401621453951
40
0.771401621453951
40
0.783811956797123
40
0.783811956797123
40
0.790017124468709
40
0.790017124468709
40
0.796222292140296
40
0.796222292140296
40
0.808632627483467
40
0.808632627483467
40
0.814837795155053
40
0.814837795155053
40
0.821042962826639
40
0.821042962826639
40
0.827248130498225
40
0.827248130498225
40
0.833453298169811
40
0.833453298169811
40
0.839658465841397
40
0.839658465841397
40
0.845863633512983
40
0.845863633512983
40
0.858273968856154
40
0.858273968856154
40
0.86447913652774
40
0.86447913652774
40
0.870684304199326
40
0.870684304199326
40
0.883094639542497
40
0.883094639542497
40
0.889299807214082
40
0.889299807214082
40
0.895504974885667
40
0.895504974885667
40
0.901710142557252
40
0.901710142557252
40
0.907915310228838
40
0.907915310228838
40
0.920325645572008
40
0.920325645572008
40
0.932735980915178
40
0.932735980915178
40
0.938941148586762
40
0.938941148586762
40
0.945146316258347
40
0.945146316258347
40
0.957556651601517
40
0.957556651601517
40
0.963761819273102
40
0.963761819273102
40
0.969966986944687
40
0.969966986944687
40
0.982377322287858
40
0.982377322287858
40
0.988582489959443
40
0.988582489959443
40
0.994787657631028
40
1
40
1
40
1
40
1
41
1
10
181.357639770984
20
-7.89905570993031
30
0
41
1
10
181.281106768689
20
-7.91735188983998
30
0
41
1
10
181.204583599633
20
-7.9355704963348
30
0
41
1
10
180.643802589265
20
-8.06851739397362
30
0
41
1
10
180.159787204488
20
-8.17993245317339
30
0
41
1
10
179.192369004636
20
-8.39627586893937
30
0
41
1
10
178.708973306151
20
-8.5012163651316
30
0
41
1
10
177.742864415602
20
-8.70472475460585
30
0
41
1
10
177.260197161746
20
-8.80335781748039
30
0
41
1
10
176.294942184399
20
-8.99321816436361
30
0
41
1
10
175.812417135118
20
-9.08456482657985
30
0
41
1
10
175.088821162329
20
-9.21630635553038
30
0
41
1
10
174.847655154231
20
-9.25934111394778
30
0
41
1
10
174.365412669484
20
-9.34368590092706
30
0
41
1
10
174.124346115382
20
-9.38500947577393
30
0
41
1
10
173.401225134361
20
-9.50630293347447
30
0
41
1
10
172.919166743232
20
-9.58348685236527
30
0
41
1
10
172.196184375748
20
-9.69383986530181
30
0
41
1
10
171.955185517696
20
-9.72969070547086
30
0
41
1
10
171.473113135835
20
-9.79945280541224
30
0
41
1
10
171.232050361203
20
-9.83337789809445
30
0
41
1
10
170.5088204698
20
-9.93233595432901
30
0
41
1
10
170.026614076896
20
-9.99455598365847
30
0
41
1
10
169.303265795425
20
-10.0822741262431
30
0
41
1
10
169.062146702009
20
-10.1105808038614
30
0
41
1
10
168.579886655289
20
-10.1653026551369
30
0
41
1
10
168.338726669169
20
-10.1916990100859
30
0
41
1
10
167.615011389352
20
-10.2678685184141
30
0
41
1
10
167.132269946852
20
-10.31467213526
30
0
41
1
10
166.166307789772
20
-10.4003920789652
30
0
41
1
10
165.683093668555
20
-10.4393150088561
30
0
41
1
10
164.958011825179
20
-10.4918041891693
30
0
41
1
10
164.716249710354
20
-10.5083012352327
30
0
41
1
10
164.232543315667
20
-10.5392680498783
30
0
41
1
10
163.990606783372
20
-10.5537428745062
30
0
41
1
10
163.506592889301
20
-10.5806820904317
30
0
41
1
10
163.264512051934
20
-10.5931432024737
30
0
41
1
10
162.78008899375
20
-10.6159985560691
30
0
41
1
10
162.537757838268
20
-10.6263989271936
30
0
41
1
10
161.810442024474
20
-10.654534664601
30
0
41
1
10
161.325143317565
20
-10.6692095207439
30
0
41
1
10
160.596603229497
20
-10.6850589050293
30
0
41
1
10
160.353657712024
20
-10.689314117514
30
0
41
1
10
159.867573141411
20
-10.6957531665711
30
0
41
1
10
159.624429863628
20
-10.6979347286706
30
0
41
1
10
159.137807082947
20
-10.7002075297326
30
0
41
1
10
158.894339570749
20
-10.7003010476439
30
0
41
1
10
158.407097217925
20
-10.6984045630166
30
0
41
1
10
158.163248296459
20
-10.6964134942873
30
0
41
1
10
157.43186967654
20
-10.687319030735
30
0
41
1
10
156.94457606106
20
-10.677104697342
30
0
41
1
10
156.214205487822
20
-10.6555250765407
30
0
41
1
10
155.970829255903
20
-10.6472899315252
30
0
41
1
10
155.484155202655
20
-10.6287620007627
30
0
41
1
10
155.240867639328
20
-10.6184672579629
30
0
41
1
10
154.754417459277
20
-10.5958084880185
30
0
41
1
10
154.51126409021
20
-10.5834391732187
30
0
41
1
10
154.024969231918
20
-10.5566797494055
30
0
41
1
10
153.781832554125
20
-10.542289253018
30
0
41
1
10
153.05249287623
20
-10.4960818014432
30
0
41
1
10
152.566371065404
20
-10.4612255715481
30
0
41
1
10
151.837401899775
20
-10.402825442569
30
0
41
1
10
151.594447122594
20
-10.382339089169
30
0
41
1
10
151.108615240212
20
-10.3393132103359
30
0
41
1
10
150.86574599067
20
-10.3167662194648
30
0
41
1
10
150.137037278231
20
-10.2462030919758
30
0
41
1
10
149.651124602758
20
-10.1952530381031
30
0
41
1
10
148.679132919907
20
-10.0855512744529
30
0
41
1
10
148.193045127623
20
-10.0268105485535
30
0
41
1
10
147.463911025726
20
-9.93270243191185
30
0
41
1
10
147.220865460888
20
-9.90033136156026
30
0
41
1
10
146.7346617843
20
-9.83370182685783
30
0
41
1
10
146.491513230699
20
-9.79943424109501
30
0
41
1
10
146.005146720489
20
-9.72896374988792
30
0
41
1
10
145.761942230244
20
-9.69274347245909
30
0
41
1
10
145.275382335699
20
-9.6184617628744
30
0
41
1
10
145.032017168786
20
-9.5804139998703
30
0
41
1
10
144.301702083596
20
-9.46351345105793
30
0
41
1
10
143.81454561996
20
-9.38188897153395
30
0
41
1
10
143.08345496411
20
-9.25379853673905
30
0
41
1
10
142.839649639401
20
-9.2101514463252
30
0
41
1
10
142.352162760342
20
-9.1209953166867
30
0
41
1
10
142.108538882944
20
-9.07547357213031
30
0
41
1
10
141.377813851701
20
-8.93640500953347
30
0
41
1
10
140.890832462393
20
-8.84040394312723
30
0
41
1
10
139.917246654268
20
-8.64182527419771
30
0
41
1
10
139.430632867462
20
-8.5392653409279
30
0
41
1
10
138.701107539331
20
-8.38029900334433
30
0
41
1
10
138.458007707915
20
-8.32643722628839
30
0
41
1
10
137.971842123058
20
-8.21717519056554
30
0
41
1
10
137.728780010631
20
-8.16176944666924
30
0
41
1
10
137.242719597671
20
-8.0493688220225
30
0
41
1
10
136.999734274934
20
-7.9923488848828
30
0
41
1
10
136.513776828589
20
-7.87681400494139
30
0
41
1
10
136.270784587395
20
-7.81833833122548
30
0
41
1
10
135.54178079035
20
-7.64077174754942
30
0
41
1
10
135.055764142398
20
-7.51950069338238
30
0
41
1
10
134.32679491809
20
-7.3330966133762
30
0
41
1
10
134.083812870094
20
-7.270214962464
30
0
41
1
10
133.597871674454
20
-7.14293585303798
30
0
41
1
10
133.354924869089
20
-7.07851142824319
30
0
41
1
10
132.626000135107
20
-6.88320803970961
30
0
41
1
10
132.139842723289
20
-6.75050960086395
30
0
41
1
10
131.167137444076
20
-6.4801050367291
30
0
41
1
10
130.680583735684
20
-6.34241426531966
30
0
41
1
10
129.950566113269
20
-6.13186259122318
30
0
41
1
10
129.70720873467
20
-6.06097702675632
30
0
41
1
10
129.220361999755
20
-5.9180237307107
30
0
41
1
10
128.976863739334
20
-5.84597840045171
30
0
41
1
10
128.489736771004
20
-5.70070241152519
30
0
41
1
10
128.246117791077
20
-5.62744734780321
30
0
41
1
10
127.758730323592
20
-5.47979362567784
30
0
41
1
10
127.514890504189
20
-5.40544287406118
30
0
41
1
10
126.783627968313
20
-5.18111890237577
30
0
41
1
10
126.296367174138
20
-5.02974591788785
30
0
41
1
10
125.565933151776
20
-4.79973696892719
30
0
41
1
10
125.322529373174
20
-4.72258052972774
30
0
41
1
10
124.835877957181
20
-4.56727278187174
30
0
41
1
10
124.592639704157
20
-4.48909675741561
30
0
41
1
10
123.863088397111
20
-4.25325858618399
30
0
41
1
10
123.376803317381
20
-4.09464346688839
30
0
41
1
10
122.40435744186
20
-3.77476487744031
30
0
41
1
10
121.918200618067
20
-3.61349195372867
30
0
41
1
10
121.189170027466
20
-3.3692990219094
30
0
41
1
10
120.946206843104
20
-3.28748531420072
30
0
41
1
10
120.460307702717
20
-3.12320504640559
30
0
41
1
10
120.217353818916
20
-3.04078755675624
30
0
41
1
10
119.731443012562
20
-2.87538335181273
30
0
41
1
10
119.488493635723
20
-2.79237590138936
30
0
41
1
10
119.002601709243
20
-2.62576356517061
30
0
41
1
10
118.759635057393
20
-2.54222510585811
30
0
41
1
10
118.030591829703
20
-2.29114149135938
30
0
41
1
10
117.544422416552
20
-2.12298986193883
30
0
41
1
10
116.571936944809
20
-1.78478448822639
30
0
41
1
10
116.0856253252
20
-1.61471716548849
30
0
41
1
10
115.356028655587
20
-1.35822520637546
30
0
41
1
10
115.112776920332
20
-1.2725852445906
30
0
41
1
10
114.626094236735
20
-1.10123256792042
30
0
41
1
10
114.382673845286
20
-1.01548972240781
30
0
41
1
10
113.652184462399
20
-0.758037846131316
30
0
41
1
10
113.164879258122
20
-0.58612994458008
30
0
41
1
10
112.433544018241
20
-0.327586173604146
30
0
41
1
10
112.189722627711
20
-0.241264397315376
30
0
41
1
10
111.702371794263
20
-0.0685838827744476
30
0
41
1
10
111.45876698343
20
0.0177297724098935
30
0
41
1
10
110.971679724647
20
0.190250112656031
30
0
41
1
10
110.728204057672
20
0.276476678261645
30
0
41
1
10
110.24140706322
20
0.448916102610468
30
0
41
1
10
109.998068467138
20
0.535078573513516
30
0
41
1
10
109.268100113412
20
0.793014928922389
30
0
41
1
10
108.781574791235
20
0.964404355708069
30
0
41
1
10
107.808912484644
20
1.30647902662349
30
0
41
1
10
107.322770604187
20
1.47714964483032
30
0
41
1
10
106.593859909178
20
1.73264824799784
30
0
41
1
10
106.350919824223
20
1.81767238317562
30
0
41
1
10
105.864987838692
20
1.98712210170495
30
0
41
1
10
105.622009577092
20
2.07158631574748
30
0
41
1
10
104.893046228038
20
2.32422299219303
30
0
41
1
10
104.407025566702
20
2.49162077638206
30
0
41
1
10
103.435004176304
20
2.82467039351712
30
0
41
1
10
102.949075442533
20
2.99051846777059
30
0
41
1
10
102.219953317357
20
3.23730104522062
30
0
41
1
10
101.976882306214
20
3.31925240043517
30
0
41
1
10
101.490707697328
20
3.48261162065853
30
0
41
1
10
101.24760027592
20
3.56400870581055
30
0
41
1
10
100.518036576686
20
3.80686217835586
30
0
41
1
10
100.031392619365
20
3.96712868323391
30
0
41
1
10
99.0577335878676
20
4.28483556108142
30
0
41
1
10
98.5707075728661
20
4.44224612034216
30
0
41
1
10
97.8399114104504
20
4.6762825505773
30
0
41
1
10
97.5962633400975
20
4.7539304092424
30
0
41
1
10
97.1087266383842
20
4.90812353100924
30
0
41
1
10
96.864977856243
20
4.98466402990505
30
0
41
1
10
96.1339552098364
20
5.21259743318782
30
0
41
1
10
95.6468310525365
20
5.36231168674502
30
0
41
1
10
94.9165506326726
20
5.58371712011746
30
0
41
1
10
94.6731955582327
20
5.6570009093812
30
0
41
1
10
94.1866457944774
20
5.80256984204726
30
0
41
1
10
93.9434360211166
20
5.87481743647004
30
0
41
1
10
93.4570673820305
20
6.01804908943839
30
0
41
1
10
93.2139187085136
20
6.08905835943406
30
0
41
1
10
92.7277190725973
20
6.22992669701318
30
0
41
1
10
92.4846763237109
20
6.29980382926993
30
0
41
1
10
91.755520484172
20
6.50730636718586
30
0
41
1
10
91.2694082917534
20
6.64287645858229
30
0
41
1
10
90.2973457062361
20
6.90891598878412
30
0
41
1
10
89.8113838313885
20
7.03935824133166
30
0
41
1
10
89.0825902738891
20
7.23122476855738
30
0
41
1
10
88.8396906872715
20
7.29455997511573
30
0
41
1
10
88.353794044636
20
7.41965265939129
30
0
41
1
10
88.1108052504086
20
7.48142853075501
30
0
41
1
10
87.3817252053876
20
7.66446927572173
30
0
41
1
10
86.8955163657491
20
7.78344160319634
30
0
41
1
10
86.1660315954867
20
7.95744436600836
30
0
41
1
10
85.9228439350354
20
8.01470712284959
30
0
41
1
10
85.436441885893
20
8.12779814083669
30
0
41
1
10
85.1932243700917
20
8.18361945725638
30
0
41
1
10
84.7066485214792
20
8.29360958215187
30
0
41
1
10
84.4633000743497
20
8.34779764980851
30
0
41
1
10
83.9765062726185
20
8.45460166494206
30
0
41
1
10
83.7330741391394
20
8.50724030645478
30
0
41
1
10
83.246027002766
20
8.61078935882657
30
0
41
1
10
83.0024043083322
20
8.66168738845431
30
0
41
1
10
82.5149855818626
20
8.76177737430038
30
0
41
1
10
82.2711268972305
20
8.81098408151391
30
0
41
1
10
81.5397813021331
20
8.95600318435251
30
0
41
1
10
81.0528497802384
20
9.04914365953616
30
0
41
1
10
80.3234387665929
20
9.18361922962711
30
0
41
1
10
80.0804779690907
20
9.22758929982425
30
0
41
1
10
79.5947769717159
20
9.31360400203323
30
0
41
1
10
79.3520328712363
20
9.35564426954264
30
0
41
1
10
78.624123280752
20
9.47889689734325
30
0
41
1
10
78.1392777930316
20
9.55724040166518
30
0
41
1
10
77.4126927316085
20
9.66913865214045
30
0
41
1
10
77.1706136713128
20
9.70550417388418
30
0
41
1
10
76.6867109294299
20
9.77639707532245
30
0
41
1
10
76.4448947081666
20
9.81093238135588
30
0
41
1
10
75.9614252875386
20
9.87804737142281
30
0
41
1
10
75.719775250739
20
9.91063255719632
30
0
41
1
10
75.2366646513426
20
9.97388788933304
30
0
41
1
10
74.9952159238229
20
10.0045703605622
30
0
41
1
10
74.2710874636822
20
10.0936734458721
30
0
41
1
10
73.7885365444233
20
10.1490644427086
30
0
41
1
10
72.8239815353803
20
10.2520471443527
30
0
41
1
10
72.34197686355
20
10.2996359225744
30
0
41
1
10
71.6194209465955
20
10.3651843793473
30
0
41
1
10
71.3786549052093
20
10.3860678699121
30
0
41
1
10
70.8972113432707
20
10.4258370340895
30
0
41
1
10
70.6565099357615
20
10.4447069732694
30
0
41
1
10
69.9344455762368
20
10.4982771618481
30
0
41
1
10
69.4531324732871
20
10.5299476715327
30
0
41
1
10
68.7312970815443
20
10.5714457754268
30
0
41
1
10
68.4907087800875
20
10.5842772659927
30
0
41
1
10
68.0096031920854
20
10.6079447261117
30
0
41
1
10
67.7690965036845
20
10.6187839454296
30
0
41
1
10
67.047609716149
20
10.6482683387736
30
0
41
1
10
66.5666017562242
20
10.6638665652772
30
0
41
1
10
65.8451320702263
20
10.6811913269824
30
0
41
1
10
65.6046227258484
20
10.6859473037558
30
0
41
1
10
65.1235146342811
20
10.69342133829
30
0
41
1
10
64.6808302382271
20
10.6984258891342
30
0
41
1
10
64.2380695554558
20
10.6999991956932
30
0
41
1
10
64.0359257191331
20
10.7000006004079
30
0
0
SPLINE
5
CC
100
AcDbEntity
8
1
62
256
6
ByLayer
370
18
48
1
60
0
100
AcDbSpline
70
4
71
3
72
28
73
24
40
0
40
0
40
0
40
0
40
0.125
40
0.125
40
0.1875
40
0.1875
40
0.25
40
0.25
40
0.375
40
0.375
40
0.5
40
0.5
40
0.625
40
0.625
40
0.687500000000007
40
0.687500000000007
40
0.750000000000013
40
0.750000000000013
40
0.875000000000013
40
0.875000000000013
40
0.937500000000007
40
0.937500000000007
40
1
40
1
40
1
40
1
41
1
10
211.096327423062
20
-1.56966651056081
30
0
41
1
10
210.637502661565
20
-1.40460472973052
30
0
41
1
10
210.178866696759
20
-1.23916862774118
30
0
41
1
10
209.49131810258
20
-0.990113793792318
30
0
41
1
10
209.26220645807
20
-0.906935328216917
30
0
41
1
10
208.804022699354
20
-0.740543659046352
30
0
41
1
10
208.574956055821
20
-0.657315230968351
30
0
41
1
10
207.887854010424
20
-0.407470536878805
30
0
41
1
10
207.42995209338
20
-0.240596562155673
30
0
41
1
10
206.513998085987
20
0.0924387368794726
30
0
41
1
10
206.056016065886
20
0.258794399870197
30
0
41
1
10
205.140153963058
20
0.591491484164891
30
0
41
1
10
204.682275016
20
0.757835950925312
30
0
41
1
10
203.995534783554
20
1.00734478038862
30
0
41
1
10
203.766612286644
20
1.09045205305145
30
0
41
1
10
203.308652035684
20
1.2562746170868
30
0
41
1
10
203.079626522134
20
1.33902366374079
30
0
41
1
10
202.39242257923
20
1.58680859086104
30
0
41
1
10
201.934112328856
20
1.75137022033917
30
0
41
1
10
201.24645149909
20
1.99745150576214
30
0
41
1
10
201.017200929563
20
2.07935798772897
30
0
41
1
10
200.558660710094
20
2.24298838231346
30
0
41
1
10
200.329365881305
20
2.32469803468297
30
0
41
1
10
200.1
20
2.4061749711488
30
0
0
SPLINE
5
CD
100
AcDbEntity
8
1
62
256
6
ByLayer
370
18
48
1
60
0
100
AcDbSpline
70
4
71
3
72
91
73
87
40
0
40
0
40
0
40
0
40
0.0312500000000039
40
0.0312500000000039
40
0.0625000000000078
40
0.0625000000000078
40
0.0937500000000117
40
0.0937500000000117
40
0.125000000000016
40
0.125000000000016
40
0.140625000000016
40
0.140625000000016
40
0.148437500000016
40
0.148437500000016
40
0.156250000000016
40
0.187500000000017
40
0.187500000000017
40
0.218750000000018
40
0.218750000000018
40
0.250000000000019
40
0.250000000000019
40
0.28125000000002
40
0.28125000000002
40
0.296875000000021
40
0.296875000000021
40
0.312500000000023
40
0.312500000000023
40
0.343750000000024
40
0.343750000000024
40
0.375000000000025
40
0.375000000000025
40
0.406250000000026
40
0.406250000000026
40
0.437500000000027
40
0.437500000000027
40
0.445312500000026
40
0.445312500000026
40
0.453125000000026
40
0.468750000000025
40
0.468750000000025
40
0.500000000000022
40
0.500000000000022
40
0.531250000000019
40
0.531250000000019
40
0.539062500000018
40
0.539062500000018
40
0.546875000000017
40
0.562500000000015
40
0.562500000000015
40
0.59375000000001
40
0.59375000000001
40
0.625000000000005
40
0.625000000000005
40
0.632812500000004
40
0.632812500000004
40
0.640625000000003
40
0.656250000000002
40
0.656250000000002
40
0.687499999999996
40
0.687499999999996
40
0.71874999999999
40
0.71874999999999
40
0.726562499999989
40
0.726562499999989
40
0.734374999999987
40
0.734374999999987
40
0.749999999999984
40
0.749999999999984
40
0.781249999999982
40
0.781249999999982
40
0.812499999999979
40
0.812499999999979
40
0.843749999999976
40
0.843749999999976
40
0.851562499999976
40
0.851562499999976
40
0.859374999999975
40
0.874999999999977
40
0.874999999999977
40
0.906249999999982
40
0.937499999999988
40
0.968749999999994
40
0.968749999999994
40
0.984374999999997
40
0.984374999999997
40
1
40
1
40
1
40
1
41
1
10
211.096327423072
20
10.6507179436259
30
0
41
1
10
211.165030303145
20
10.4803704028224
30
0
41
1
10
211.233840899411
20
10.3074646091728
30
0
41
1
10
211.371794590481
20
9.95693941936852
30
0
41
1
10
211.440937561594
20
9.77931915885176
30
0
41
1
10
211.5796380712
20
9.41965568096705
30
0
41
1
10
211.64919566145
20
9.23761195884723
30
0
41
1
10
211.788774127017
20
8.86930290564732
30
0
41
1
10
211.858795244673
20
8.68303736582098
30
0
41
1
10
211.964182684329
20
8.40056473912941
30
0
41
1
10
211.999370807737
20
8.30589421616759
30
0
41
1
10
212.052239179458
20
8.16312503291974
30
0
41
1
10
212.069888513642
20
8.1153749320697
30
0
41
1
10
212.105152752339
20
8.01978999260359
30
0
41
1
10
212.19318337096
20
7.78073289227243
30
0
41
1
10
212.280572616459
20
7.5412094062261
30
0
41
1
10
212.419517564338
20
7.15737121179171
30
0
41
1
10
212.488552154555
20
6.96515222711287
30
0
41
1
10
212.625588678575
20
6.58007102866208
30
0
41
1
10
212.693592088925
20
6.38720930644877
30
0
41
1
10
212.828275596491
20
6.00074715018533
30
0
41
1
10
212.894958415657
20
5.80714770564481
30
0
41
1
10
212.993624849277
20
5.51606732478677
30
0
41
1
10
213.026285547579
20
5.41892630533459
30
0
41
1
10
213.091062082193
20
5.22438419481867
30
0
41
1
10
213.123187998849
20
5.12694959255489
30
0
41
1
10
213.2181240393
20
4.83561470272304
30
0
41
1
10
213.279664248112
20
4.6422228215047
30
0
41
1
10
213.398118715162
20
4.2567851127838
30
0
41
1
10
213.455040723692
20
4.06474057637431
30
0
41
1
10
213.562529427224
20
3.68159940530592
30
0
41
1
10
213.613105209301
20
3.49050359308507
30
0
41
1
10
213.705296858037
20
3.10874326752145
30
0
41
1
10
213.746916909096
20
2.91807718585852
30
0
41
1
10
213.791022330086
20
2.67961817140775
30
0
41
1
10
213.799451386514
20
2.63187938606362
30
0
41
1
10
213.815412781437
20
2.53656323263576
30
0
41
1
10
213.837969398368
20
2.39408872338714
30
0
41
1
10
213.856126835131
20
2.25313248701286
30
0
41
1
10
213.885984573821
20
1.9733221967565
30
0
41
1
10
213.897216723199
20
1.7895752311324
30
0
41
1
10
213.900230483974
20
1.4283188400064
30
0
41
1
10
213.891994395987
20
1.25081240314378
30
0
41
1
10
213.869614798526
20
1.03340609492662
30
0
41
1
10
213.864533079134
20
0.990094336792083
30
0
41
1
10
213.853231032621
20
0.904190082744407
30
0
41
1
10
213.834613836564
20
0.776702391633847
30
0
41
1
10
213.811292374278
20
0.653270364741758
30
0
41
1
10
213.759159188118
20
0.411683299673541
30
0
41
1
10
213.717113422935
20
0.257651443423498
30
0
41
1
10
213.622229089096
20
-0.0369062059219232
30
0
41
1
10
213.569398532843
20
-0.177435978867209
30
0
41
1
10
213.498368188762
20
-0.344783578635969
30
0
41
1
10
213.483895687117
20
-0.377867708789836
30
0
41
1
10
213.454547850813
20
-0.443050947295347
30
0
41
1
10
213.40997632556
20
-0.539231018475704
30
0
41
1
10
213.363925992539
20
-0.630720393213437
30
0
41
1
10
213.270210929741
20
-0.807632057413514
30
0
41
1
10
213.205603008859
20
-0.91750057192678
30
0
41
1
10
213.073377176443
20
-1.12162862277185
30
0
41
1
10
213.005750345637
20
-1.21588524831969
30
0
41
1
10
212.919741975119
20
-1.32396381535241
30
0
41
1
10
212.90246546608
20
-1.34509127504955
30
0
41
1
10
212.867769193163
20
-1.38636560010454
30
0
41
1
10
212.850341099092
20
-1.40652052080012
30
0
41
1
10
212.798079300629
20
-1.46525520740829
30
0
41
1
10
212.763195949282
20
-1.50219496236767
30
0
41
1
10
212.65847399989
20
-1.60651277463398
30
0
41
1
10
212.588568705214
20
-1.66740277322856
30
0
41
1
10
212.448703760642
20
-1.77230659412447
30
0
41
1
10
212.378741934504
20
-1.81631869014143
30
0
41
1
10
212.238742263031
20
-1.88748559927035
30
0
41
1
10
212.168703423362
20
-1.91464044010851
30
0
41
1
10
212.081034035229
20
-1.93782023562812
30
0
41
1
10
212.063487484881
20
-1.94191694983451
30
0
41
1
10
212.028540356016
20
-1.94899545797219
30
0
41
1
10
211.976279229774
20
-1.95795788880238
30
0
41
1
10
211.924479728772
20
-1.96200928752472
30
0
41
1
10
211.821450930217
20
-1.96367462191287
30
0
41
1
10
211.685599338284
20
-1.9487510396273
30
0
41
1
10
211.485667851456
20
-1.87585097613493
30
0
41
1
10
211.354475031116
20
-1.79350506127571
30
0
41
1
10
211.25668890809
20
-1.71881016388022
30
0
41
1
10
211.224297619809
20
-1.69182931426539
30
0
41
1
10
211.15998989028
20
-1.63380889423374
30
0
41
1
10
211.128056867787
20
-1.60275671423892
30
0
41
1
10
211.096327423072
20
-1.5696665105645
30
0
0
SPLINE
5
CE
100
AcDbEntity
8
1
62
256
6
ByLayer
370
18
48
1
60
0
100
AcDbSpline
70
4
71
3
72
20
73
16
40
0
40
0
40
0
40
0
40
0.0999504988712661
40
0.0999504988712661
40
0.189955448984128
40
0.189955448984128
40
0.27996039909699
40
0.27996039909699
40
0.639980199548495
40
0.639980199548495
40
0.729985149661376
40
0.729985149661376
40
0.819990099774257
40
0.819990099774257
40
1
40
1
40
1
40
1
41
1
10
203.461786265797
20
10.9986270899381
30
0
41
1
10
203.716117150172
20
10.9986770724707
30
0
41
1
10
203.970391213342
20
10.9975582829636
30
0
41
1
10
204.453489024117
20
10.9931984959456
30
0
41
1
10
204.68234548214
20
10.9901777376744
30
0
41
1
10
205.140118121156
20
10.9822429873458
30
0
41
1
10
205.369051785209
20
10.9773332978083
30
0
41
1
10
206.513861617317
20
10.9480968722868
30
0
41
1
10
207.430001495661
20
10.9097253979343
30
0
41
1
10
208.575126453092
20
10.8427841500254
30
0
41
1
10
208.804137708305
20
10.8284376659062
30
0
41
1
10
209.26220724169
20
10.7978523177598
30
0
41
1
10
209.491299783374
20
10.7816311705754
30
0
41
1
10
210.178826594441
20
10.7302391646498
30
0
41
1
10
210.637468585094
20
10.6923227281685
30
0
41
1
10
211.096327423062
20
10.6507179436268
30
0
0
SPLINE
5
CF
100
AcDbEntity
8
1
62
256
6
ByLayer
370
18
48
1
60
0
100
AcDbSpline
70
4
71
3
72
172
73
168
40
0
40
0
40
0
40
0
40
0.0313932314476349
40
0.0313932314476349
40
0.0470898471714524
40
0.0470898471714524
40
0.0549381550333611
40
0.0549381550333611
40
0.0627864628952699
40
0.0627864628952699
40
0.0784830786190873
40
0.0784830786190873
40
0.0941796943429048
40
0.0941796943429048
40
0.102028002204813
40
0.102028002204813
40
0.109876310066722
40
0.109876310066722
40
0.125572925790539
40
0.125572925790539
40
0.141269541514356
40
0.141269541514356
40
0.149117849376265
40
0.149117849376265
40
0.156966157238173
40
0.156966157238173
40
0.172662772961991
40
0.172662772961991
40
0.188359388685808
40
0.188359388685808
40
0.204056004409626
40
0.204056004409626
40
0.219752620133443
40
0.219752620133443
40
0.235449235857261
40
0.235449235857261
40
0.243297543719169
40
0.243297543719169
40
0.251145851581078
40
0.251145851581078
40
0.266842467304895
40
0.266842467304895
40
0.282539083028712
40
0.282539083028712
40
0.290387390890621
40
0.290387390890621
40
0.298235698752529
40
0.298235698752529
40
0.306084006614438
40
0.306084006614438
40
0.313932314476347
40
0.313932314476347
40
0.329628930200164
40
0.329628930200164
40
0.337477238062073
40
0.337477238062073
40
0.345325545923982
40
0.345325545923982
40
0.361022161647799
40
0.361022161647799
40
0.376718777371617
40
0.376718777371617
40
0.384567085233526
40
0.384567085233526
40
0.392415393095435
40
0.392415393095435
40
0.400263700957344
40
0.400263700957344
40
0.408112008819253
40
0.408112008819253
40
0.42380862454307
40
0.42380862454307
40
0.439505240266888
40
0.439505240266888
40
0.447353548128797
40
0.447353548128797
40
0.455201855990706
40
0.455201855990706
40
0.463050163852615
40
0.463050163852615
40
0.470898471714524
40
0.470898471714524
40
0.486595087438342
40
0.486595087438342
40
0.494443395300252
40
0.494443395300252
40
0.502291703162161
40
0.502291703162161
40
0.533684934609798
40
0.533684934609798
40
0.541533242471708
40
0.541533242471708
40
0.549381550333617
40
0.549381550333617
40
0.565078166057436
40
0.565078166057436
40
0.580774781781255
40
0.580774781781255
40
0.596471397505074
40
0.596471397505074
40
0.612168013228892
40
0.612168013228892
40
0.627864628952711
40
0.627864628952711
40
0.63571293681462
40
0.63571293681462
40
0.643561244676529
40
0.643561244676529
40
0.659257860400348
40
0.659257860400348
40
0.674954476124167
40
0.674954476124167
40
0.682802783986076
40
0.682802783986076
40
0.690651091847985
40
0.690651091847985
40
0.706347707571803
40
0.706347707571803
40
0.722044323295621
40
0.722044323295621
40
0.72989263115753
40
0.72989263115753
40
0.737740939019438
40
0.737740939019438
40
0.753437554743255
40
0.753437554743255
40
0.769134170467072
40
0.769134170467072
40
0.776982478328981
40
0.776982478328981
40
0.784830786190889
40
0.784830786190889
40
0.792679094052798
40
0.792679094052798
40
0.800527401914706
40
0.800527401914706
40
0.816224017638523
40
0.816224017638523
40
0.83192063336234
40
0.83192063336234
40
0.839768941224249
40
0.839768941224249
40
0.847617249086157
40
0.847617249086157
40
0.863313864809973
40
0.863313864809973
40
0.87901048053379
40
0.87901048053379
40
0.886858788395698
40
0.886858788395698
40
0.894707096257607
40
0.894707096257607
40
0.910403711981424
40
0.910403711981424
40
0.926100327705241
40
0.926100327705241
40
0.933948635567149
40
0.933948635567149
40
0.941796943429058
40
0.941796943429058
40
0.957493559152874
40
0.957493559152874
40
0.97319017487669
40
0.97319017487669
40
0.988886790600506
40
0.988886790600506
40
1
40
1
40
1
40
1
41
1
10
18.4852995561674
20
10.5760879305448
30
0
41
1
10
19.4339003636109
20
10.5249400086249
30
0
41
1
10
20.3820990527725
20
10.4585139814156
30
0
41
1
10
21.8030607402705
20
10.3359545804783
30
0
41
1
10
22.2764901586172
20
10.2912646513817
30
0
41
1
10
22.9862453004805
20
10.2183852322541
30
0
41
1
10
23.2227863249279
20
10.1931328065711
30
0
41
1
10
23.6959413823137
20
10.1408562517951
30
0
41
1
10
23.9325362509844
20
10.1138169587866
30
0
41
1
10
24.6423421296635
20
10.0299848631656
30
0
41
1
10
25.115570463916
20
9.97047735434936
30
0
41
1
10
26.0619488663478
20
9.84410759815921
30
0
41
1
10
26.5351247979127
20
9.77727549599194
30
0
41
1
10
27.2446911053834
20
9.67129141013876
30
0
41
1
10
27.4811975879483
20
9.63502494264543
30
0
41
1
10
27.9543346723686
20
9.56080687187995
30
0
41
1
10
28.1909825215428
20
9.52287916946463
30
0
41
1
10
28.9010920462965
20
9.40656782458558
30
0
41
1
10
29.3746913358094
20
9.32561953332132
30
0
41
1
10
30.3221960878399
20
9.1568005036691
30
0
41
1
10
30.7960991935518
20
9.06892681655833
30
0
41
1
10
31.5071086134175
20
8.93175029412782
30
0
41
1
10
31.7441210073681
20
8.88510173876932
30
0
41
1
10
32.2183186043148
20
8.79019827377434
30
0
41
1
10
32.4555671647757
20
8.74197494149229
30
0
41
1
10
33.1671105534178
20
8.5951026811754
30
0
41
1
10
33.6413143624414
20
8.49422257036647
30
0
41
1
10
34.5892572278779
20
8.28631390840837
30
0
41
1
10
35.0630179641591
20
8.17932451314752
30
0
41
1
10
36.0099464144499
20
7.95893264618948
30
0
41
1
10
36.4830275750232
20
7.84534773239193
30
0
41
1
10
37.429526815578
20
7.61354799695786
30
0
41
1
10
37.9028079464108
20
7.49508165343767
30
0
41
1
10
38.8492599847157
20
7.25269961799862
30
0
41
1
10
39.3224458259716
20
7.12881371550972
30
0
41
1
10
40.0320868988095
20
6.93875672579799
30
0
41
1
10
40.2686075894585
20
6.87469167475251
30
0
41
1
10
40.7416076312715
20
6.74515190079615
30
0
41
1
10
40.9781105214913
20
6.67972796104434
30
0
41
1
10
41.6878438159294
20
6.48198246486558
30
0
41
1
10
42.1612224187688
20
6.34802348027171
30
0
41
1
10
43.1082648807131
20
6.07551406606001
30
0
41
1
10
43.5819252940329
20
5.93695414390186
30
0
41
1
10
44.2925795795764
20
5.72552470647702
30
0
41
1
10
44.5294783320471
20
5.65441727919836
30
0
41
1
10
45.0032992529996
20
5.51091680380256
30
0
41
1
10
45.2402379788955
20
5.43856343582274
30
0
41
1
10
45.7143258652042
20
5.29303436610661
30
0
41
1
10
45.951490136834
20
5.21989838179204
30
0
41
1
10
46.4259971849591
20
5.07273413243712
30
0
41
1
10
46.6632380958511
20
4.99872912372456
30
0
41
1
10
47.3747257293223
20
4.77546933361108
30
0
41
1
10
47.848817928876
20
4.62495327728345
30
0
41
1
10
48.5595330881756
20
4.39647202962652
30
0
41
1
10
48.7963674105823
20
4.31985965123542
30
0
41
1
10
49.2698823214221
20
4.16569621794656
30
0
41
1
10
49.5065458111837
20
4.08809943475958
30
0
41
1
10
50.2165185881407
20
3.85446299152409
30
0
41
1
10
50.6898712291635
20
3.69774313025093
30
0
41
1
10
51.6364918833214
20
3.3819782739732
30
0
41
1
10
52.1097527660753
20
3.22291357266917
30
0
41
1
10
52.8195079047887
20
2.98237318485846
30
0
41
1
10
53.0560765062899
20
2.90188618092691
30
0
41
1
10
53.5291239999231
20
2.74013976183423
30
0
41
1
10
53.765590823832
20
2.65884656554411
30
0
41
1
10
54.238557658594
20
2.49582294984771
30
0
41
1
10
54.4750679477159
20
2.41412112821723
30
0
41
1
10
54.9482353884855
20
2.25059987905084
30
0
41
1
10
55.1848693349868
20
2.16871623720965
30
0
41
1
10
55.8948581984441
20
1.9225213623757
30
0
41
1
10
56.3683186546509
20
1.75771853550324
30
0
41
1
10
57.3154197610982
20
1.42651159276622
30
0
41
1
10
57.7890457119944
20
1.26006533942129
30
0
41
1
10
58.4995868357254
20
1.00907964301848
30
0
41
1
10
58.7364844484963
20
0.925294268240407
30
0
41
1
10
59.2105030076726
20
0.757831129452228
30
0
41
1
10
59.4476062656361
20
0.674102621623064
30
0
41
1
10
59.9219799937875
20
0.506593613609624
30
0
41
1
10
60.1593178635765
20
0.422789260749255
30
0
41
1
10
60.6336904939322
20
0.25523257469672
30
0
41
1
10
60.8707436800539
20
0.171471240345824
30
0
41
1
10
61.5814937959713
20
-0.0797972984023829
30
0
41
1
10
62.054789077158
20
-0.247266382904939
30
0
41
1
10
62.7637937543923
20
-0.498808948696876
30
0
41
1
10
62.9999931861324
20
-0.582645488741491
30
0
41
1
10
63.4722643020991
20
-0.749851332093186
30
0
41
1
10
63.7083474930576
20
-0.833185800576075
30
0
41
1
10
64.8883404078385
20
-1.2490392806734
30
0
41
1
10
65.8310046857531
20
-1.57905114031817
30
0
41
1
10
67.0072413055478
20
-1.98954676763333
30
0
41
1
10
67.2423674870026
20
-2.07159122822495
30
0
41
1
10
67.7125513723998
20
-2.23505698900317
30
0
41
1
10
67.9476199001398
20
-2.31644741858145
30
0
41
1
10
68.6527271732251
20
-2.55968433142505
30
0
41
1
10
69.1226664735854
20
-2.7206013937606
30
0
41
1
10
70.0621411921306
20
-3.04037739073146
30
0
41
1
10
70.5317000123103
20
-3.19916986328917
30
0
41
1
10
71.4702820276877
20
-3.51504946194828
30
0
41
1
10
71.9392374659093
20
-3.67231450880794
30
0
41
1
10
72.8775234577454
20
-3.98261047753317
30
0
41
1
10
73.3467165368437
20
-4.13602938049439
30
0
41
1
10
74.2850434811877
20
-4.43986010332944
30
0
41
1
10
74.7541907396398
20
-4.59023540320669
30
0
41
1
10
75.4578138197387
20
-4.81366925294842
30
0
41
1
10
75.6923358462211
20
-4.88779902087606
30
0
41
1
10
76.1613491858837
20
-5.03533763972109
30
0
41
1
10
76.3958609294126
20
-5.10869272997809
30
0
41
1
10
77.0996297414352
20
-5.32695546108667
30
0
41
1
10
77.5690465526724
20
-5.47025524409227
30
0
41
1
10
78.5082019096963
20
-5.75284842042313
30
0
41
1
10
78.9779359061257
20
-5.89215235335388
30
0
41
1
10
79.6827309023641
20
-6.098205319258
30
0
41
1
10
79.9176863781131
20
-6.16642658248045
30
0
41
1
10
80.3876212445763
20
-6.30199327115511
30
0
41
1
10
80.6226163372926
20
-6.36929973759777
30
0
41
1
10
81.3279034240198
20
-6.5692590196482
30
0
41
1
10
81.7985568512785
20
-6.69981514713746
30
0
41
1
10
82.7404912682464
20
-6.95615326485083
30
0
41
1
10
83.2117975910449
20
-7.08187401219624
30
0
41
1
10
83.9192013075024
20
-7.26691364065374
30
0
41
1
10
84.1550764235939
20
-7.32800328795727
30
0
41
1
10
84.6269646625699
20
-7.44901742969481
30
0
41
1
10
84.8629629620819
20
-7.50897448450294
30
0
41
1
10
85.5713118752168
20
-7.68676024188056
30
0
41
1
10
86.0441321965615
20
-7.80225209791587
30
0
41
1
10
86.9908265918669
20
-8.02745812705621
30
0
41
1
10
87.4646895448778
20
-8.13719584650124
30
0
41
1
10
88.1762017362767
20
-8.29760238317229
30
0
41
1
10
88.4135154895473
20
-8.35036298552788
30
0
41
1
10
88.8877768015409
20
-8.45440801544538
30
0
41
1
10
89.1247764764008
20
-8.50574049889539
30
0
41
1
10
89.5986378499783
20
-8.60679551291261
30
0
41
1
10
89.8355083673061
20
-8.65650259639438
30
0
41
1
10
90.3092528957773
20
-8.75407835867125
30
0
41
1
10
90.5461066191743
20
-8.80198321735605
30
0
41
1
10
91.2565324257828
20
-8.94319828332752
30
0
41
1
10
91.7299911769539
20
-9.03397414406726
30
0
41
1
10
92.6765059763087
20
-9.20894024202306
30
0
41
1
10
93.1495547187645
20
-9.29314107362538
30
0
41
1
10
93.8587623635927
20
-9.41454483739696
30
0
41
1
10
94.0951247304357
20
-9.45416552385586
30
0
41
1
10
94.5679307139507
20
-9.53150249142772
30
0
41
1
10
94.8043551456785
20
-9.56924593673543
30
0
41
1
10
95.5136620218809
20
-9.67975734539505
30
0
41
1
10
95.986574120766
20
-9.74981452421815
30
0
41
1
10
96.9323530073902
20
-9.88285849037078
30
0
41
1
10
97.4052459149939
20
-9.94581788667426
30
0
41
1
10
98.1144126967909
20
-10.0350419391246
30
0
41
1
10
98.3507898082154
20
-10.0638937597175
30
0
41
1
10
98.8236748390146
20
-10.1196665466465
30
0
41
1
10
99.060200016427
20
-10.1465731294499
30
0
41
1
10
99.7699541628285
20
-10.2244376330278
30
0
41
1
10
100.243331877572
20
-10.2725681516712
30
0
41
1
10
101.19042442542
20
-10.3613384475132
30
0
41
1
10
101.664136971782
20
-10.4019804414833
30
0
41
1
10
102.374884513638
20
-10.4573170129806
30
0
41
1
10
102.611813772339
20
-10.4748327725478
30
0
41
1
10
103.085850043817
20
-10.5079037061518
30
0
41
1
10
103.322981099742
20
-10.5234467700116
30
0
41
1
10
104.034693798412
20
-10.5671248124292
30
0
41
1
10
104.509042138939
20
-10.592282422815
30
0
41
1
10
105.457124579926
20
-10.6347923978345
30
0
41
1
10
105.930914958896
20
-10.6521394301074
30
0
41
1
10
106.877825989639
20
-10.679031937027
30
0
41
1
10
107.35085723604
20
-10.6885692707319
30
0
41
1
10
108.159009084704
20
-10.6980546618817
30
0
41
1
10
108.49400001587
20
-10.7000104356741
30
0
41
1
10
108.828955768468
20
-10.7000007532402
30
0
0
SPLINE
5
D0
100
AcDbEntity
8
1
62
256
6
ByLayer
370
18
48
1
60
0
100
AcDbSpline
70
4
71
3
72
48
73
44
40
0
40
0
40
0
40
0
40
0.0163438293916217
40
0.0163438293916217
40
0.0541767590304084
40
0.0541767590304084
40
0.0920096886691939
40
0.0920096886691939
40
0.167675547946766
40
0.167675547946766
40
0.243341407224338
40
0.243341407224338
40
0.281174336863123
40
0.281174336863123
40
0.319007266501906
40
0.319007266501906
40
0.356840196140691
40
0.356840196140691
40
0.394673125779474
40
0.394673125779474
40
0.470338985057042
40
0.470338985057042
40
0.508171914695824
40
0.508171914695824
40
0.546004844334607
40
0.546004844334607
40
0.621670703612171
40
0.621670703612171
40
0.697336562889736
40
0.697336562889736
40
0.735169492528517
40
0.735169492528517
40
0.7730024221673
40
0.7730024221673
40
0.810835351806081
40
0.810835351806081
40
0.848668281444863
40
0.848668281444863
40
0.924334140722428
40
0.924334140722428
40
0.962167070361213
40
0.962167070361213
40
1
40
1
40
1
40
1
41
1
10
181.356917068786
20
7.88882534304227
30
0
41
1
10
181.459370423053
20
7.91332871867431
30
0
41
1
10
181.56180366343
20
7.93770117210605
30
0
41
1
10
181.901264004557
20
8.01805555326817
30
0
41
1
10
182.138190457097
20
8.07348671911129
30
0
41
1
10
182.611841242977
20
8.18287581845166
30
0
41
1
10
182.848599190868
20
8.23676836518754
30
0
41
1
10
183.558784404643
20
8.39584672566696
30
0
41
1
10
184.032070617288
20
8.49853951789217
30
0
41
1
10
184.978153146941
20
8.6975485928223
30
0
41
1
10
185.450952653822
20
8.79385773982429
30
0
41
1
10
186.159726607105
20
8.93362074735131
30
0
41
1
10
186.39589153445
20
8.97945952381573
30
0
41
1
10
186.86808503213
20
9.06954821703428
30
0
41
1
10
187.10412637516
20
9.11377719719721
30
0
41
1
10
187.57625177403
20
9.20037896421812
30
0
41
1
10
187.81233838879
20
9.24275030416106
30
0
41
1
10
188.284482326153
20
9.32576032693524
30
0
41
1
10
188.520544079381
20
9.36639196526752
30
0
41
1
10
189.22868440155
20
9.48569314616856
30
0
41
1
10
189.700720162781
20
9.56176912764761
30
0
41
1
10
190.40861188535
20
9.67077582989177
30
0
41
1
10
190.644548746285
20
9.70625950912057
30
0
41
1
10
191.116356699114
20
9.77552646300182
30
0
41
1
10
191.35221578385
20
9.80932178950562
30
0
41
1
10
192.059967639097
20
9.90783460076244
30
0
41
1
10
192.532011083567
20
9.96971903301252
30
0
41
1
10
193.476353755289
20
10.0861448262952
30
0
41
1
10
193.948646369827
20
10.1406910287042
30
0
41
1
10
194.657213886357
20
10.2170392180363
30
0
41
1
10
194.893429634824
20
10.2415721654646
30
0
41
1
10
195.365849572588
20
10.2888463449361
30
0
41
1
10
195.602055143024
20
10.311584188385
30
0
41
1
10
196.074608865355
20
10.3551336223031
30
0
41
1
10
196.310970726529
20
10.3759359086195
30
0
41
1
10
196.783912108136
20
10.4155736880682
30
0
41
1
10
197.020470210984
20
10.4344248443203
30
0
41
1
10
197.730364405214
20
10.4881083288934
30
0
41
1
10
198.203932665208
20
10.5200651863083
30
0
41
1
10
198.914678342067
20
10.5622605986536
30
0
41
1
10
199.151658747149
20
10.5753685376559
30
0
41
1
10
199.625739123736
20
10.5996620701966
30
0
41
1
10
199.862830180485
20
10.6108507924708
30
0
41
1
10
200.1
20
10.6210624986566
30
0
0
SPLINE
5
D1
100
AcDbEntity
8
1
62
256
6
ByLayer
370
18
48
1
60
0
100
AcDbSpline
70
4
71
3
72
90
73
86
40
0
40
0
40
0
40
0
40
0.0176840913471159
40
0.0176840913471159
40
0.0353681826942317
40
0.0353681826942317
40
0.0707363653884635
40
0.0707363653884635
40
0.106104548082695
40
0.106104548082695
40
0.123788639429813
40
0.123788639429813
40
0.141472730776931
40
0.141472730776931
40
0.17684091347117
40
0.17684091347117
40
0.194525004818288
40
0.194525004818288
40
0.212209096165407
40
0.212209096165407
40
0.229893187512525
40
0.229893187512525
40
0.247577278859644
40
0.247577278859644
40
0.282945461553881
40
0.282945461553881
40
0.318313644248118
40
0.318313644248118
40
0.335997735595237
40
0.335997735595237
40
0.353681826942357
40
0.353681826942357
40
0.389050009636598
40
0.389050009636598
40
0.406734100983717
40
0.406734100983717
40
0.424418192330836
40
0.424418192330836
40
0.442102283677956
40
0.442102283677956
40
0.459786375025075
40
0.459786375025075
40
0.495154557719314
40
0.495154557719314
40
0.530522740413553
40
0.530522740413553
40
0.565890923107792
40
0.565890923107792
40
0.601259105802031
40
0.601259105802031
40
0.618943197149151
40
0.618943197149151
40
0.636627288496272
40
0.636627288496272
40
0.671995471190512
40
0.671995471190512
40
0.689679562537632
40
0.689679562537632
40
0.707363653884751
40
0.707363653884751
40
0.742731836578992
40
0.742731836578992
40
0.760415927926111
40
0.760415927926111
40
0.778100019273231
40
0.778100019273231
40
0.81346820196747
40
0.81346820196747
40
0.848836384661708
40
0.848836384661708
40
0.866520476008828
40
0.866520476008828
40
0.884204567355949
40
0.884204567355949
40
0.901888658703069
40
0.901888658703069
40
0.919572750050189
40
0.919572750050189
40
0.95494093274443
40
0.95494093274443
40
0.972625024091549
40
0.972625024091549
40
0.990309115438669
40
0.990309115438669
40
1
40
1
40
1
40
1
41
1
10
200.1
20
2.23333624254204
30
0
41
1
10
199.85620019557
20
2.31780124087717
30
0
41
1
10
199.612466095368
20
2.40199712976738
30
0
41
1
10
199.125153708825
20
2.56992151244677
30
0
41
1
10
198.881588418879
20
2.65368606916425
30
0
41
1
10
198.150987476467
20
2.90388877580906
30
0
41
1
10
197.664029406345
20
3.06919247782759
30
0
41
1
10
196.690517216572
20
3.39734383045087
30
0
41
1
10
196.203952525006
20
3.56016121249382
30
0
41
1
10
195.474438171867
20
3.80261054858195
30
0
41
1
10
195.231334722807
20
3.88316343794128
30
0
41
1
10
194.74511105017
20
4.04333417436109
30
0
41
1
10
194.501989477881
20
4.12294922004369
30
0
41
1
10
193.772602637487
20
4.36040900159966
30
0
41
1
10
193.286312293123
20
4.5168620301489
30
0
41
1
10
192.556883085042
20
4.74891230759562
30
0
41
1
10
192.313743406356
20
4.82582994099684
30
0
41
1
10
191.827496623079
20
4.9788627741967
30
0
41
1
10
191.584395444897
20
5.05499228983274
30
0
41
1
10
191.098119390055
20
5.2061780814447
30
0
41
1
10
190.854950614221
20
5.28125033127162
30
0
41
1
10
190.36857462799
20
5.43041072846347
30
0
41
1
10
190.125380876644
20
5.50453165205434
30
0
41
1
10
189.395651734628
20
5.72519315941238
30
0
41
1
10
188.908892601194
20
5.86985118959771
30
0
41
1
10
187.935005748789
20
6.15470958566027
30
0
41
1
10
187.447872720562
20
6.29489613152236
30
0
41
1
10
186.716930050171
20
6.50188540798021
30
0
41
1
10
186.47325485049
20
6.57036241185605
30
0
41
1
10
185.985731809774
20
6.70600234592683
30
0
41
1
10
185.742077130595
20
6.77306748588092
30
0
41
1
10
185.011484149486
20
6.97200643054197
30
0
41
1
10
184.524893770135
20
7.10163339963512
30
0
41
1
10
183.795751595743
20
7.29172445799631
30
0
41
1
10
183.552829887742
20
7.35436688261956
30
0
41
1
10
183.067261185719
20
7.47826278642052
30
0
41
1
10
182.824624413419
20
7.53953792364669
30
0
41
1
10
182.339548721094
20
7.66052597663511
30
0
41
1
10
182.097105528754
20
7.72023095019844
30
0
41
1
10
181.612427622644
20
7.83811083539038
30
0
41
1
10
181.370203003638
20
7.89630635303433
30
0
41
1
10
180.643802589265
20
8.06851739397368
30
0
41
1
10
180.159787204487
20
8.17993245317342
30
0
41
1
10
179.192369004636
20
8.3962758689394
30
0
41
1
10
178.708973306151
20
8.50121636513157
30
0
41
1
10
177.742864415602
20
8.70472475460585
30
0
41
1
10
177.260197161746
20
8.80335781748039
30
0
41
1
10
176.2949421844
20
8.99321816436361
30
0
41
1
10
175.812417135118
20
9.08456482657988
30
0
41
1
10
175.088821162329
20
9.21630635553041
30
0
41
1
10
174.847655154231
20
9.25934111394776
30
0
41
1
10
174.365412669484
20
9.34368590092706
30
0
41
1
10
174.124346115382
20
9.38500947577393
30
0
41
1
10
173.401225134361
20
9.50630293347447
30
0
41
1
10
172.919166743232
20
9.58348685236527
30
0
41
1
10
172.196184375748
20
9.69383986530184
30
0
41
1
10
171.955185517696
20
9.72969070547086
30
0
41
1
10
171.473113135836
20
9.79945280541224
30
0
41
1
10
171.232050361203
20
9.83337789809445
30
0
41
1
10
170.5088204698
20
9.93233595432901
30
0
41
1
10
170.026614076896
20
9.99455598365847
30
0
41
1
10
169.303265795425
20
10.0822741262431
30
0
41
1
10
169.062146702009
20
10.1105808038614
30
0
41
1
10
168.579886655289
20
10.1653026551369
30
0
41
1
10
168.338726669169
20
10.1916990100859
30
0
41
1
10
167.615011389352
20
10.2678685184141
30
0
41
1
10
167.132269946852
20
10.31467213526
30
0
41
1
10
166.166307789772
20
10.4003920789652
30
0
41
1
10
165.683093668555
20
10.4393150088561
30
0
41
1
10
164.958011825179
20
10.4918041891693
30
0
41
1
10
164.716249710354
20
10.5083012352327
30
0
41
1
10
164.232543315667
20
10.5392680498782
30
0
41
1
10
163.990606783373
20
10.5537428745061
30
0
41
1
10
163.506592889301
20
10.5806820904317
30
0
41
1
10
163.264512051934
20
10.5931432024737
30
0
41
1
10
162.78008899375
20
10.6159985560691
30
0
41
1
10
162.537757838268
20
10.6263989271935
30
0
41
1
10
161.810442024474
20
10.654534664601
30
0
41
1
10
161.325143317565
20
10.6692095207439
30
0
41
1
10
160.596603229497
20
10.6850589050293
30
0
41
1
10
160.353657712024
20
10.689314117514
30
0
41
1
10
159.867573141411
20
10.6957531665711
30
0
41
1
10
159.624429863628
20
10.6979347286706
30
0
41
1
10
159.247783796941
20
10.6996938768534
30
0
41
1
10
159.114402236553
20
10.7000034425212
30
0
41
1
10
158.980974196567
20
10.7000000109138
30
0
0
SPLINE
5
D2
100
AcDbEntity
8
1
62
256
6
ByLayer
370
18
48
1
60
0
100
AcDbSpline
70
4
71
3
72
153
73
149
40
0
40
0
40
0
40
0
40
0.0005197231991267
40
0.0005197231991267
40
0.0105145259671353
40
0.0105145259671353
40
0.0205093287351442
40
0.0205093287351442
40
0.0305041315031528
40
0.0305041315031528
40
0.0404989342711617
40
0.0404989342711617
40
0.0504937370391703
40
0.0504937370391703
40
0.0604885398071792
40
0.0604885398071792
40
0.0804781453431972
40
0.0804781453431972
40
0.0904729481112064
40
0.0904729481112064
40
0.100467750879215
40
0.100467750879215
40
0.120457356415234
40
0.120457356415234
40
0.130452159183242
40
0.130452159183242
40
0.140446961951251
40
0.140446961951251
40
0.15044176471926
40
0.15044176471926
40
0.160436567487269
40
0.160436567487269
40
0.180426173023287
40
0.180426173023287
40
0.200415778559305
40
0.200415778559305
40
0.210410581327314
40
0.210410581327314
40
0.220405384095323
40
0.220405384095323
40
0.240394989631341
40
0.240394989631341
40
0.25038979239935
40
0.25038979239935
40
0.26038459516736
40
0.26038459516736
40
0.280374200703378
40
0.280374200703378
40
0.290369003471387
40
0.290369003471387
40
0.300363806239397
40
0.320353411775415
40
0.320353411775415
40
0.330348214543424
40
0.330348214543424
40
0.340343017311434
40
0.340343017311434
40
0.360332622847451
40
0.360332622847451
40
0.38032222838347
40
0.38032222838347
40
0.390317031151479
40
0.390317031151479
40
0.400311833919488
40
0.400311833919488
40
0.410306636687497
40
0.410306636687497
40
0.420301439455506
40
0.420301439455506
40
0.440291044991525
40
0.440291044991525
40
0.450285847759534
40
0.450285847759534
40
0.460280650527543
40
0.460280650527543
40
0.480270256063561
40
0.480270256063561
40
0.490265058831569
40
0.490265058831569
40
0.500259861599578
40
0.500259861599578
40
0.510254664367587
40
0.510254664367587
40
0.520249467135596
40
0.520249467135596
40
0.530244269903604
40
0.530244269903604
40
0.540239072671613
40
0.540239072671613
40
0.560228678207631
40
0.560228678207631
40
0.57022348097564
40
0.57022348097564
40
0.580218283743648
40
0.580218283743648
40
0.600207889279665
40
0.600207889279665
40
0.620197494815683
40
0.620197494815683
40
0.630192297583691
40
0.630192297583691
40
0.6401871003517
40
0.6401871003517
40
0.650181903119709
40
0.650181903119709
40
0.660176705887717
40
0.660176705887717
40
0.680166311423735
40
0.680166311423735
40
0.690161114191743
40
0.690161114191743
40
0.700155916959752
40
0.700155916959752
40
0.720145522495768
40
0.720145522495768
40
0.740135128031785
40
0.740135128031785
40
0.750129930799793
40
0.750129930799793
40
0.760124733567801
40
0.760124733567801
40
0.770119536335809
40
0.770119536335809
40
0.780114339103817
40
0.780114339103817
40
0.800103944639834
40
0.800103944639834
40
0.810098747407842
40
0.810098747407842
40
0.820093550175851
40
0.820093550175851
40
0.840083155711868
40
0.840083155711868
40
0.860072761247885
40
0.860072761247885
40
0.870067564015894
40
0.870067564015894
40
0.880062366783902
40
0.880062366783902
40
0.900051972319919
40
0.900051972319919
40
0.920041577855935
40
0.920041577855935
40
0.940031183391951
40
0.940031183391951
40
0.960020788927967
40
0.960020788927967
40
1
40
1
40
1
40
1
41
1
10
86.4471256833459
20
-7.89038938986994
30
0
41
1
10
86.4344815951962
20
-7.89340941725632
30
0
41
1
10
86.4218374290313
20
-7.89642743516254
30
0
41
1
10
86.1660315954867
20
-7.95744436600836
30
0
41
1
10
85.9228439350354
20
-8.01470712284961
30
0
41
1
10
85.436441885893
20
-8.12779814083672
30
0
41
1
10
85.1932243700917
20
-8.18361945725638
30
0
41
1
10
84.7066485214793
20
-8.29360958215187
30
0
41
1
10
84.4633000743497
20
-8.34779764980857
30
0
41
1
10
83.9765062726185
20
-8.45460166494203
30
0
41
1
10
83.7330741391394
20
-8.5072403064548
30
0
41
1
10
83.2460270027661
20
-8.61078935882659
30
0
41
1
10
83.0024043083323
20
-8.66168738845434
30
0
41
1
10
82.5149855818626
20
-8.76177737430038
30
0
41
1
10
82.2711268972303
20
-8.81098408151394
30
0
41
1
10
81.5397813021332
20
-8.95600318435251
30
0
41
1
10
81.0528497802383
20
-9.04914365953618
30
0
41
1
10
80.3234387665927
20
-9.18361922962714
30
0
41
1
10
80.0804779690907
20
-9.22758929982425
30
0
41
1
10
79.594776971716
20
-9.31360400203326
30
0
41
1
10
79.3520328712362
20
-9.35564426954264
30
0
41
1
10
78.624123280752
20
-9.47889689734325
30
0
41
1
10
78.1392777930315
20
-9.55724040166518
30
0
41
1
10
77.4126927316084
20
-9.66913865214048
30
0
41
1
10
77.1706136713128
20
-9.70550417388418
30
0
41
1
10
76.6867109294299
20
-9.77639707532245
30
0
41
1
10
76.4448947081666
20
-9.81093238135588
30
0
41
1
10
75.9614252875386
20
-9.87804737142284
30
0
41
1
10
75.719775250739
20
-9.91063255719632
30
0
41
1
10
75.2366646513426
20
-9.97388788933307
30
0
41
1
10
74.9952159238229
20
-10.0045703605622
30
0
41
1
10
74.2710874636822
20
-10.0936734458721
30
0
41
1
10
73.7885365444231
20
-10.1490644427086
30
0
41
1
10
72.8239815353802
20
-10.2520471443527
30
0
41
1
10
72.3419768635501
20
-10.2996359225744
30
0
41
1
10
71.6194209465955
20
-10.3651843793474
30
0
41
1
10
71.3786549052094
20
-10.386067869912
30
0
41
1
10
70.8972113432707
20
-10.4258370340896
30
0
41
1
10
70.6565099357615
20
-10.4447069732694
30
0
41
1
10
69.9344455762368
20
-10.4982771618481
30
0
41
1
10
69.4531324732872
20
-10.5299476715327
30
0
41
1
10
68.7312970815444
20
-10.5714457754268
30
0
41
1
10
68.4907087800875
20
-10.5842772659927
30
0
41
1
10
68.0096031920855
20
-10.6079447261117
30
0
41
1
10
67.7690965036845
20
-10.6187839454296
30
0
41
1
10
67.0476097161491
20
-10.6482683387736
30
0
41
1
10
66.566601756224
20
-10.6638665652772
30
0
41
1
10
65.8451320702263
20
-10.6811913269824
30
0
41
1
10
65.6046227258485
20
-10.6859473037558
30
0
41
1
10
65.1235146342812
20
-10.69342133829
30
0
41
1
10
64.4017466936309
20
-10.701580930968
30
0
41
1
10
63.6797759587124
20
-10.7006191890765
30
0
41
1
10
62.9577099492582
20
-10.693541511395
30
0
41
1
10
62.7170098659126
20
-10.6901615611175
30
0
41
1
10
62.2355631716958
20
-10.6813509865917
30
0
41
1
10
61.9947952543928
20
-10.6759229175269
30
0
41
1
10
61.2722335163888
20
-10.6566014996582
30
0
41
1
10
60.7902261920809
20
-10.6396678282713
30
0
41
1
10
59.8256621226631
20
-10.5977014274306
30
0
41
1
10
59.3431156343971
20
-10.5726663002301
30
0
41
1
10
58.6189728770161
20
-10.5289436806302
30
0
41
1
10
58.3775118874263
20
-10.5133532370323
30
0
41
1
10
57.894392977105
20
-10.4801580470041
30
0
41
1
10
57.6527420199959
20
-10.4625499402001
30
0
41
1
10
57.169281942641
20
-10.4252889004388
30
0
41
1
10
56.9274655994704
20
-10.4056391373265
30
0
41
1
10
56.4435555259435
20
-10.3643766439668
30
0
41
1
10
56.2014731613154
20
-10.3427570546031
30
0
41
1
10
55.4748799312245
20
-10.2749068598996
30
0
41
1
10
54.9900303895743
20
-10.2256808566305
30
0
41
1
10
54.2621121634809
20
-10.1457592917056
30
0
41
1
10
54.0193656231957
20
-10.1181039927694
30
0
41
1
10
53.5336603765016
20
-10.0607430595791
30
0
41
1
10
53.2906948800496
20
-10.0310428905427
30
0
41
1
10
52.5612705354258
20
-9.93909059665498
30
0
41
1
10
52.0743324160178
20
-9.87394055045206
30
0
41
1
10
51.3429737133585
20
-9.77039794728466
30
0
41
1
10
51.0991200308434
20
-9.73492731967931
30
0
41
1
10
50.6117142985818
20
-9.66210954454823
30
0
41
1
10
50.3681025655981
20
-9.62475083229012
30
0
41
1
10
49.8810766506955
20
-9.54810992997753
30
0
41
1
10
49.6376467319505
20
-9.50884732368235
30
0
41
1
10
49.1508770019721
20
-9.42854175163112
30
0
41
1
10
48.9075471786605
20
-9.38748620769528
30
0
41
1
10
48.4210239998906
20
-9.30353413898357
30
0
41
1
10
48.1778378435143
20
-9.26062600198151
30
0
41
1
10
47.6914844010888
20
-9.17313981474317
30
0
41
1
10
47.4483241443989
20
-9.12855290724812
30
0
41
1
10
46.7189308473265
20
-8.99221585243259
30
0
41
1
10
46.232795689261
20
-8.89787533924905
30
0
41
1
10
45.5038381748717
20
-8.75110023638044
30
0
41
1
10
45.2608926583581
20
-8.70129809550281
30
0
41
1
10
44.7750900889426
20
-8.5999197420818
30
0
41
1
10
44.5322384898466
20
-8.54833284489601
30
0
41
1
10
43.8035928289831
20
-8.39129041570254
30
0
41
1
10
43.3177437017588
20
-8.28349899248457
30
0
41
1
10
42.3459223257176
20
-8.06168290970095
30
0
41
1
10
41.8599415326373
20
-7.9476764531465
30
0
41
1
10
41.1310026638756
20
-7.77173419149887
30
0
41
1
10
40.8880247842941
20
-7.71226964971959
30
0
41
1
10
40.4019666133551
20
-7.59191367218378
30
0
41
1
10
40.1588963923845
20
-7.53100321260865
30
0
41
1
10
39.6726981535272
20
-7.40766583115033
30
0
41
1
10
39.4295832935933
20
-7.34521051970586
30
0
41
1
10
38.943206991406
20
-7.21896548771056
30
0
41
1
10
38.6999388668332
20
-7.15519118791883
30
0
41
1
10
37.9699325503409
20
-6.96183942652974
30
0
41
1
10
37.4830045428423
20
-6.83020887348695
30
0
41
1
10
36.7522886348809
20
-6.62850794061393
30
0
41
1
10
36.5086616121954
20
-6.56056686741746
30
0
41
1
10
36.0213041308591
20
-6.42324398798817
30
0
41
1
10
35.7775215093477
20
-6.35381278878262
30
0
41
1
10
35.0465072624011
20
-6.1439741129812
30
0
41
1
10
34.5595060724352
20
-6.00203300250666
30
0
41
1
10
33.5862201443228
20
-5.71400035664612
30
0
41
1
10
33.0999263701773
20
-5.56793254115465
30
0
41
1
10
32.3711322713613
20
-5.34544185743115
30
0
41
1
10
32.1283163511107
20
-5.27069288466726
30
0
41
1
10
31.6428020986169
20
-5.12031736414446
30
0
41
1
10
31.4001088603017
20
-5.04467803352136
30
0
41
1
10
30.914871914297
20
-4.89244072541925
30
0
41
1
10
30.6723411167603
20
-4.81580863398477
30
0
41
1
10
30.1873745213952
20
-4.66172901642599
30
0
41
1
10
29.9449205662451
20
-4.58432965343997
30
0
41
1
10
29.2176641408538
20
-4.35101205305332
30
0
41
1
10
28.7329863655532
20
-4.19392412219006
30
0
41
1
10
28.0062823718749
20
-3.95578535661215
30
0
41
1
10
27.7640983594119
20
-3.87599163607828
30
0
41
1
10
27.2798392264123
20
-3.71555365036858
30
0
41
1
10
27.0377763492091
20
-3.63487583177434
30
0
41
1
10
26.311631588094
20
-3.39188890057846
30
0
41
1
10
25.8275037150889
20
-3.22887364447078
30
0
41
1
10
24.859209752879
20
-2.90074724443863
30
0
41
1
10
24.3750374396575
20
-2.73565410399536
30
0
41
1
10
23.6488545153941
20
-2.48614984830323
30
0
41
1
10
23.406819106285
20
-2.4026339699185
30
0
41
1
10
22.9227075040867
20
-2.23516341107398
30
0
41
1
10
22.6806213536925
20
-2.15123719088558
30
0
41
1
10
21.9542992403372
20
-1.898808565948
30
0
41
1
10
21.4700575539661
20
-1.72948846460304
30
0
41
1
10
20.5009945094679
20
-1.39028728905853
30
0
41
1
10
20.0162400199736
20
-1.2202176783824
30
0
41
1
10
19.0464033728204
20
-0.878793352211517
30
0
41
1
10
18.5613346541124
20
-0.707398124746817
30
0
41
1
10
17.5908057185312
20
-0.363482962324923
30
0
41
1
10
17.1051694271232
20
-0.191483764472963
30
0
41
1
10
15.6470431648181
20
0.32432102587984
30
0
41
1
10
14.6734004561468
20
0.668109865606397
30
0
41
1
10
13.6984473050944
20
1.01266262252793
30
0
0
SPLINE
5
D3
100
AcDbEntity
8
1
62
256
6
ByLayer
370
18
48
1
60
0
100
AcDbSpline
70
4
71
3
72
99
73
95
40
0
40
0
40
0
40
0
40
0.0625000000000039
40
0.0625000000000039
40
0.0937500000000068
40
0.0937500000000068
40
0.12500000000001
40
0.12500000000001
40
0.156250000000012
40
0.156250000000012
40
0.171875000000014
40
0.171875000000014
40
0.179687500000015
40
0.179687500000015
40
0.187500000000015
40
0.218750000000017
40
0.218750000000017
40
0.250000000000018
40
0.250000000000018
40
0.281250000000019
40
0.281250000000019
40
0.28906250000002
40
0.28906250000002
40
0.29687500000002
40
0.312500000000021
40
0.312500000000021
40
0.343750000000022
40
0.343750000000022
40
0.375000000000024
40
0.375000000000024
40
0.382812500000024
40
0.382812500000024
40
0.390625000000024
40
0.406250000000024
40
0.406250000000024
40
0.437500000000024
40
0.437500000000024
40
0.445312500000024
40
0.445312500000024
40
0.449218750000024
40
0.449218750000024
40
0.453125000000024
40
0.468750000000024
40
0.468750000000024
40
0.500000000000024
40
0.500000000000024
40
0.515625000000024
40
0.515625000000024
40
0.523437500000024
40
0.523437500000024
40
0.531250000000025
40
0.531250000000025
40
0.562500000000024
40
0.562500000000024
40
0.578125000000024
40
0.578125000000024
40
0.582031250000025
40
0.582031250000025
40
0.585937500000025
40
0.585937500000025
40
0.593750000000024
40
0.593750000000024
40
0.625000000000024
40
0.625000000000024
40
0.656250000000023
40
0.656250000000023
40
0.671875000000023
40
0.671875000000023
40
0.679687500000023
40
0.679687500000023
40
0.687500000000022
40
0.687500000000022
40
0.718750000000022
40
0.718750000000022
40
0.750000000000021
40
0.750000000000021
40
0.78125000000002
40
0.78125000000002
40
0.79687500000002
40
0.804687500000019
40
0.804687500000019
40
0.812500000000019
40
0.812500000000019
40
0.843750000000016
40
0.843750000000016
40
0.875000000000013
40
0.875000000000013
40
0.906250000000009
40
0.906250000000009
40
0.937500000000006
40
0.937500000000006
40
0.968750000000003
40
0.968750000000003
40
1
40
1
40
1
40
1
41
1
10
10
20
10.6740516549417
30
0
41
1
10
9.56739369441158
20
10.7443720672877
30
0
41
1
10
9.14346855293144
20
10.8101086166595
30
0
41
1
10
8.52070856542832
20
10.898340176793
30
0
41
1
10
8.3153133195888
20
10.9260080042745
30
0
41
1
10
7.90897897255499
20
10.9770720013271
30
0
41
1
10
7.70803932029276
20
11.0004699030766
30
0
41
1
10
7.31074230775707
20
11.0420262354029
30
0
41
1
10
7.11438409509844
20
11.0601874852681
30
0
41
1
10
6.82343364144935
20
11.0825864095449
30
0
41
1
10
6.72704862313523
20
11.0892433516342
30
0
41
1
10
6.58339483637107
20
11.0978760574269
30
0
41
1
10
6.53572096296102
20
11.1005242047056
30
0
41
1
10
6.44102031709843
20
11.1053302792435
30
0
41
1
10
6.20572117296086
20
11.1161272203203
30
0
41
1
10
5.97770588155421
20
11.1206313575109
30
0
41
1
10
5.62255117777363
20
11.1184130509897
30
0
41
1
10
5.44980585317998
20
11.1125965107271
30
0
41
1
10
5.11457786597865
20
11.0897995375692
30
0
41
1
10
4.95209003525491
20
11.0728280349429
30
0
41
1
10
4.75599260075495
20
11.0431897434979
30
0
41
1
10
4.71708553882809
20
11.0368319800352
30
0
41
1
10
4.64018180897426
20
11.023259196276
30
0
41
1
10
4.52635848079439
20
11.0016461646278
30
0
41
1
10
4.41717215965829
20
10.9761591440246
30
0
41
1
10
4.20513784477276
20
10.9196764501893
30
0
41
1
10
4.07220831542534
20
10.8747004161517
30
0
41
1
10
3.8245353108247
20
10.7677983820198
30
0
41
1
10
3.70977675199688
20
10.7058892327078
30
0
41
1
10
3.57911242188163
20
10.6158798847314
30
0
41
1
10
3.55369806231232
20
10.5972931947699
30
0
41
1
10
3.50451577993573
20
10.55906733507
30
0
41
1
10
3.43312042950797
20
10.5000859624776
30
0
41
1
10
3.36890783455863
20
10.4360820645685
30
0
41
1
10
3.25028752173949
20
10.3010691968686
30
0
41
1
10
3.18423286855904
20
10.2017501764729
30
0
41
1
10
3.11932793547245
20
10.0645622251756
30
0
41
1
10
3.1072338466719
20
10.0364703585684
30
0
41
1
10
3.09046120768494
20
9.99331715030019
30
0
41
1
10
3.08509396349484
20
9.97874918389417
30
0
41
1
10
3.07486595906829
20
9.94939771458607
30
0
41
1
10
3.05053814584528
20
9.87542318900543
30
0
41
1
10
3.03238048784092
20
9.79847848575045
30
0
41
1
10
3.00049435988893
20
9.60813291722857
30
0
41
1
10
2.9947845010941
20
9.47367743583052
30
0
41
1
10
3.00970385341699
20
9.26052617042069
30
0
41
1
10
3.01860153317784
20
9.18756128295627
30
0
41
1
10
3.03795234357469
20
9.07519667116247
30
0
41
1
10
3.04541914974573
20
9.03720427763596
30
0
41
1
10
3.06221419176524
20
8.96093545849291
30
0
41
1
10
3.07155316707872
20
8.92258192936697
30
0
41
1
10
3.12283932585564
20
8.72975465294741
30
0
41
1
10
3.17850851966713
20
8.57210937622861
30
0
41
1
10
3.28243091194256
20
8.33115814375122
30
0
41
1
10
3.32048518051243
20
8.25009237200624
30
0
41
1
10
3.3722251444899
20
8.14787689229485
30
0
41
1
10
3.38278188799404
20
8.12738961417713
30
0
41
1
10
3.40431106486034
20
8.08632793656449
30
0
41
1
10
3.41529400270286
20
8.06573441751866
30
0
41
1
10
3.44876338176778
20
8.00400894259423
30
0
41
1
10
3.47177587564789
20
7.96291800377423
30
0
41
1
10
3.59020261892854
20
7.75776324095227
30
0
41
1
10
3.69566621935908
20
7.59459717965649
30
0
41
1
10
3.92541014002489
20
7.27029863992698
30
0
41
1
10
4.04970582072158
20
7.10916749510656
30
0
41
1
10
4.24892920184254
20
6.8691070134513
30
0
41
1
10
4.31747191856033
20
6.78935964717769
30
0
41
1
10
4.42335436559648
20
6.67016125989011
30
0
41
1
10
4.4590622898267
20
6.63060962667231
30
0
41
1
10
4.53115583431472
20
6.55198784443391
30
0
41
1
10
4.56756051088132
20
6.51289623204826
30
0
41
1
10
4.7513031762611
20
6.31849919909948
30
0
41
1
10
4.9037823901906
20
6.16636933650116
30
0
41
1
10
5.21821399142613
20
5.86811924120329
30
0
41
1
10
5.3801720989054
20
5.722002108525
30
0
41
1
10
5.71239278951577
20
5.43515166282367
30
0
41
1
10
5.88265854937774
20
5.2944200532497
30
0
41
1
10
6.14354496653272
20
5.08693654312421
30
0
41
1
10
6.27536184289394
20
4.98409875744247
30
0
41
1
10
6.40911236167398
20
4.88254006761997
30
0
41
1
10
6.49869568269881
20
4.81511010458564
30
0
41
1
10
6.54368804344619
20
4.78153898873771
30
0
41
1
10
6.76917257650274
20
4.61470603586355
30
0
41
1
10
6.95161534639178
20
4.48421458723075
30
0
41
1
10
7.31998008517689
20
4.22826801593021
30
0
41
1
10
7.50590245594998
20
4.10281337424595
30
0
41
1
10
7.88068786416747
20
3.85615476392829
30
0
41
1
10
8.06955074294206
20
3.73495045540963
30
0
41
1
10
8.44976604798296
20
3.49613059250166
30
0
41
1
10
8.64111796023346
20
3.37851417012891
30
0
41
1
10
9.02595850502075
20
3.14635114649022
30
0
41
1
10
9.21944647022212
20
3.03180344664585
30
0
41
1
10
9.60832311431525
20
2.80543261792184
30
0
41
1
10
9.80371118584702
20
2.69360848166715
30
0
41
1
10
10
20
2.58307727639834
30
0
0
SPLINE
5
D4
100
AcDbEntity
8
1
62
256
6
ByLayer
370
18
48
1
60
0
100
AcDbSpline
70
4
71
3
72
14
73
10
40
0
40
0
40
0
40
0
40
0.25
40
0.25
40
0.5
40
0.5
40
0.75
40
0.75
40
1
40
1
40
1
40
1
41
1
10
13.6984473050943
20
1.01266262252798
30
0
41
1
10
13.3827250735975
20
1.12777754702648
30
0
41
1
10
13.0693030036559
20
1.2479048306773
30
0
41
1
10
12.4461703427712
20
1.49596886556967
30
0
41
1
10
12.1364555289205
20
1.62389675439681
30
0
41
1
10
11.5202849710328
20
1.88637842109532
30
0
41
1
10
11.2138280353782
20
2.02093077099613
30
0
41
1
10
10.604255223162
20
2.29670098196203
30
0
41
1
10
10.3011411463912
20
2.43792447211504
30
0
41
1
10
10
20
2.58307727639834
30
0
0
SPLINE
5
D5
100
AcDbEntity
8
1
62
256
6
ByLayer
370
18
48
1
60
0
100
AcDbSpline
70
4
71
4
72
13
73
8
40
0
40
0
40
0
40
0
40
0
40
0.429241677743453
40
0.429241677743453
40
0.429241677743453
40
1
40
1
40
1
40
1
40
1
41
0.996907709499566
10
18.4852995561674
20
10.5760879305448
30
0
41
0.994739667456008
10
18.344832541123
20
9.39559876058433
30
0
41
0.99403439004852
10
18.0893004680739
20
8.0347002140313
30
0
41
1
10
17.7293669259853
20
6.65556845429902
30
0
41
1
10
16.8361180725438
20
3.8358915154308
30
0
41
0.989452352859954
10
16.1791115870563
20
2.19348644432629
30
0
41
0.998065359631318
10
15.5100846006637
20
1.09493654024137
30
0
41
0.999763433284761
10
14.9739525705072
20
0.559609731145587
30
0
0
SPLINE
5
D6
100
AcDbEntity
8
1
62
256
6
ByLayer
370
18
48
1
60
0
100
AcDbSpline
70
4
71
3
72
27
73
23
40
0
40
0
40
0
40
0
40
0.125000000000022
40
0.125000000000022
40
0.250000000000044
40
0.250000000000044
40
0.375000000000066
40
0.375000000000066
40
0.406250000000072
40
0.421875000000072
40
0.421875000000072
40
0.437500000000072
40
0.437500000000072
40
0.500000000000064
40
0.500000000000064
40
0.625000000000048
40
0.625000000000048
40
0.750000000000032
40
0.750000000000032
40
0.875000000000016
40
0.875000000000016
40
1
40
1
40
1
40
1
41
1
10
10
20
10.6740516549417
30
0
41
1
10
10.3548452283293
20
10.6797297645899
30
0
41
1
10
10.7109051120334
20
10.6832779805978
30
0
41
1
10
11.4252768395165
20
10.6881342927455
30
0
41
1
10
11.7835899491643
20
10.6894327273677
30
0
41
1
10
12.5023506334572
20
10.6906882655825
30
0
41
1
10
12.862799231814
20
10.6906398445922
30
0
41
1
10
13.3146350545644
20
10.6897566828019
30
0
41
1
10
13.4502814556738
20
10.6894271285318
30
0
41
1
10
13.5860696460734
20
10.6889928752843
30
0
41
1
10
13.6766264214637
20
10.688678917737
30
0
41
1
10
13.7219400165001
20
10.6885096389802
30
0
41
1
10
13.9481716695452
20
10.687600709447
30
0
41
1
10
14.1283095473378
20
10.6866740874174
30
0
41
1
10
14.6663341719839
20
10.6831616153698
30
0
41
1
10
15.0218312204903
20
10.6798517789835
30
0
41
1
10
15.7272605245278
20
10.6702829148003
30
0
41
1
10
16.0771916882443
20
10.6640156437767
30
0
41
1
10
16.7723276393464
20
10.6473248436823
30
0
41
1
10
17.1175337419835
20
10.6368948939872
30
0
41
1
10
17.8040939284661
20
10.6107213491249
30
0
41
1
10
18.1454519729449
20
10.5949758150757
30
0
41
1
10
18.4852995561673
20
10.5760879305448
30
0
0
SPLINE
5
D7
100
AcDbEntity
8
SK1
62
256
6
ByLayer
370
18
48
1
60
0
100
AcDbSpline
70
4
71
3
72
34
73
30
40
0
40
0
40
0
40
0
40
0.125000000000001
40
0.125000000000001
40
0.250000000000002
40
0.250000000000002
40
0.375000000000003
40
0.375000000000003
40
0.437500000000004
40
0.437500000000004
40
0.500000000000005
40
0.500000000000005
40
0.625000000000005
40
0.625000000000005
40
0.656250000000005
40
0.656250000000005
40
0.687500000000005
40
0.687500000000005
40
0.750000000000005
40
0.750000000000005
40
0.812500000000005
40
0.812500000000005
40
0.843750000000004
40
0.843750000000004
40
0.875000000000004
40
0.875000000000004
40
0.937500000000002
40
0.937500000000002
40
1
40
1
40
1
40
1
41
1
10
-52.5003287739481
20
-3.62059097355461
30
0
41
1
10
-52.4791023107682
20
-3.69580949914169
30
0
41
1
10
-52.456173666836
20
-3.7701328086529
30
0
41
1
10
-52.4062202513366
20
-3.91675156331095
30
0
41
1
10
-52.3792000011183
20
-3.98904864238443
30
0
41
1
10
-52.3201140822394
20
-4.13128549106548
30
0
41
1
10
-52.2880578558644
20
-4.20122868864783
30
0
41
1
10
-52.2351342019209
20
-4.30400502578081
30
0
41
1
10
-52.2166821098451
20
-4.33790583931534
30
0
41
1
10
-52.1779019271959
20
-4.40490146665846
30
0
41
1
10
-52.1575385793023
20
-4.43805147836142
30
0
41
1
10
-52.093380094742
20
-4.53574061166557
30
0
41
1
10
-52.0468993353633
20
-4.59806703723407
30
0
41
1
10
-51.9825062567773
20
-4.67139689881651
30
0
41
1
10
-51.9693089720826
20
-4.68583123022111
30
0
41
1
10
-51.9422155209833
20
-4.71419608571787
30
0
41
1
10
-51.9282893124733
20
-4.72815494045494
30
0
41
1
10
-51.8855899983215
20
-4.7689776324583
30
0
41
1
10
-51.8559681934236
20
-4.79473829352929
30
0
41
1
10
-51.7940523105194
20
-4.84293492664423
30
0
41
1
10
-51.7617609635258
20
-4.86537421079322
30
0
41
1
10
-51.710934585781
20
-4.89608972183805
30
0
41
1
10
-51.693592788252
20
-4.9058359097269
30
0
41
1
10
-51.6580214478988
20
-4.92423937407065
30
0
41
1
10
-51.6397301965266
20
-4.93292309713041
30
0
41
1
10
-51.583780125377
20
-4.9569645106269
30
0
41
1
10
-51.5455987975117
20
-4.97010157811332
30
0
41
1
10
-51.4673083175319
20
-4.99008231274206
30
0
41
1
10
-51.4272005227822
20
-4.99693051090844
30
0
41
1
10
-51.3860020460815
20
-5.00022676868039
30
0
0
SPLINE
5
D8
100
AcDbEntity
8
SK1
62
256
6
ByLayer
370
18
48
1
60
0
100
AcDbSpline
70
4
71
3
72
34
73
30
40
0
40
0
40
0
40
0
40
0.0625000000000001
40
0.0625000000000001
40
0.125
40
0.125
40
0.1875
40
0.1875
40
0.25
40
0.25
40
0.28125
40
0.28125
40
0.312499999999999
40
0.312499999999999
40
0.374999999999998
40
0.374999999999998
40
0.499999999999995
40
0.499999999999995
40
0.531249999999995
40
0.531249999999995
40
0.562499999999995
40
0.562499999999995
40
0.624999999999996
40
0.624999999999996
40
0.749999999999997
40
0.749999999999997
40
0.874999999999999
40
0.874999999999999
40
1
40
1
40
1
40
1
41
1
10
-51.3860020460815
20
5.00022676868039
30
0
41
1
10
-51.4271597094618
20
4.99693377635015
30
0
41
1
10
-51.4672462826171
20
4.9900941818546
30
0
41
1
10
-51.5455242136708
20
4.97012456894885
30
0
41
1
10
-51.5837142752675
20
4.95699014998107
30
0
41
1
10
-51.658355568598
20
4.92492253812571
30
0
41
1
10
-51.6938849422845
20
4.90639169663621
30
0
41
1
10
-51.7618166387264
20
4.86534206803361
30
0
41
1
10
-51.7942559781117
20
4.84279931421437
30
0
41
1
10
-51.8409760500773
20
4.80639681369991
30
0
41
1
10
-51.8562248159031
20
4.79382938651
30
0
41
1
10
-51.8861176712827
20
4.76788296468004
30
0
41
1
10
-51.9007110618413
20
4.75454548912128
30
0
41
1
10
-51.9432559764382
20
4.71379512925466
30
0
41
1
10
-51.9701014783725
20
4.68554212638855
30
0
41
1
10
-52.0468805903312
20
4.59805033156974
30
0
41
1
10
-52.0930959781036
20
4.5361050376323
30
0
41
1
10
-52.146279276313
20
4.45521167958731
30
0
41
1
10
-52.1566830990007
20
4.43885754119347
30
0
41
1
10
-52.1770537162702
20
4.4058167491863
30
0
41
1
10
-52.1870311208955
20
4.38911114781021
30
0
41
1
10
-52.2162315231511
20
4.33872068618709
30
0
41
1
10
-52.2347469485042
20
4.30473232112985
30
0
41
1
10
-52.2878314108395
20
4.20171722667834
30
0
41
1
10
-52.3199565384223
20
4.13164670884206
30
0
41
1
10
-52.3791390929746
20
3.98921323503123
30
0
41
1
10
-52.4061866509714
20
3.91684682729945
30
0
41
1
10
-52.4561716481468
20
3.77014208810513
30
0
41
1
10
-52.4791043925606
20
3.69580212206003
30
0
41
1
10
-52.5003287739482
20
3.62059097355464
30
0
0
SPLINE
5
D9
100
AcDbEntity
8
SK1
62
256
6
ByLayer
370
18
48
1
60
0
100
AcDbSpline
70
4
71
3
72
32
73
28
40
0
40
0
40
0
40
0
40
0.124999999999982
40
0.124999999999982
40
0.249999999999963
40
0.249999999999963
40
0.374999999999945
40
0.374999999999945
40
0.406249999999941
40
0.406249999999941
40
0.437499999999938
40
0.499999999999932
40
0.499999999999932
40
0.624999999999931
40
0.624999999999931
40
0.656249999999931
40
0.656249999999931
40
0.68749999999993
40
0.68749999999993
40
0.749999999999941
40
0.749999999999941
40
0.874999999999977
40
0.874999999999977
40
0.906249999999979
40
0.906249999999979
40
0.937499999999981
40
1
40
1
40
1
40
1
41
1
10
-14.0157764695459
20
6.59242894057729
30
0
41
1
10
-14.0458287908144
20
6.6375753796253
30
0
41
1
10
-14.0777095790597
20
6.68135165141678
30
0
41
1
10
-14.1456160664485
20
6.76590887596987
30
0
41
1
10
-14.1816386907667
20
6.80669170869109
30
0
41
1
10
-14.2584995514322
20
6.88489663469755
30
0
41
1
10
-14.2993317458756
20
6.92232243783545
30
0
41
1
10
-14.35399779722
20
6.96665617585003
30
0
41
1
10
-14.3651284778382
20
6.97541075031074
30
0
41
1
10
-14.3876400333972
20
6.9925614515505
30
0
41
1
10
-14.4218166346372
20
7.01777898878851
30
0
41
1
10
-14.4572545898122
20
7.04143848131534
30
0
41
1
10
-14.529923003083
20
7.08656817107874
30
0
41
1
10
-14.5807455844469
20
7.11375097789289
30
0
41
1
10
-14.6477689594914
20
7.14354340177493
30
0
41
1
10
-14.6613494138678
20
7.1492913738704
30
0
41
1
10
-14.6888796972728
20
7.1603468035685
30
0
41
1
10
-14.7028224503024
20
7.16564964334611
30
0
41
1
10
-14.7448319317882
20
7.18073146134719
30
0
41
1
10
-14.7732044950192
20
7.1897362156873
30
0
41
1
10
-14.8594560991353
20
7.21351895535656
30
0
41
1
10
-14.9184624466539
20
7.22508541231923
30
0
41
1
10
-14.9943023139084
20
7.23365556703433
30
0
41
1
10
-15.009604540326
20
7.23507501753883
30
0
41
1
10
-15.0401948935638
20
7.23728819114979
30
0
41
1
10
-15.0861089470591
20
7.23967813447453
30
0
41
1
10
-15.1321084232236
20
7.23928527151031
30
0
41
1
10
-15.1628130403699
20
7.23777548279986
30
0
0
SPLINE
5
DA
100
AcDbEntity
8
SK1
62
256
6
ByLayer
370
18
48
1
60
0
100
AcDbSpline
70
4
71
3
72
24
73
20
40
0
40
0
40
0
40
0
40
0.124999999999998
40
0.124999999999998
40
0.249999999999995
40
0.249999999999995
40
0.374999999999993
40
0.374999999999993
40
0.49999999999999
40
0.49999999999999
40
0.624999999999988
40
0.624999999999988
40
0.749999999999985
40
0.749999999999985
40
0.812499999999989
40
0.812499999999989
40
0.874999999999992
40
0.874999999999992
40
1
40
1
40
1
40
1
41
1
10
-15.1628130403699
20
-7.23777548279986
30
0
41
1
10
-15.1013368482927
20
-7.2407983526281
30
0
41
1
10
-15.0406973758297
20
-7.23880609117487
30
0
41
1
10
-14.920978556398
20
-7.22545942224767
30
0
41
1
10
-14.8618998887329
20
-7.21410077871741
30
0
41
1
10
-14.7452745335612
20
-7.18212437688828
30
0
41
1
10
-14.6895699451789
20
-7.16201960319464
30
0
41
1
10
-14.5827589175342
20
-7.11474711952985
30
0
41
1
10
-14.5316211412475
20
-7.08755690757022
30
0
41
1
10
-14.4334554488588
20
-7.02672282100497
30
0
41
1
10
-14.38751619038
20
-6.99376703919228
30
0
41
1
10
-14.3007925764322
20
-6.92357765523022
30
0
41
1
10
-14.2600161652162
20
-6.88633798514746
30
0
41
1
10
-14.2021759714483
20
-6.82763631844753
30
0
41
1
10
-14.1834523029509
20
-6.80759363972547
30
0
41
1
10
-14.1470479748901
20
-6.76660288333122
30
0
41
1
10
-14.1293429656042
20
-6.74562348347595
30
0
41
1
10
-14.0779142754528
20
-6.68164973874727
30
0
41
1
10
-14.0458764161971
20
-6.63764692539442
30
0
41
1
10
-14.0157764695459
20
-6.59242894057729
30
0
0
SPLINE
5
DB
100
AcDbEntity
8
1
62
256
6
ByLayer
370
13
48
1
60
0
100
AcDbSpline
70
4
71
3
72
79
73
75
40
0
40
0
40
0
40
0
40
0.0312499999999995
40
0.0312499999999995
40
0.062499999999999
40
0.062499999999999
40
0.0937499999999984
40
0.0937499999999984
40
0.124999999999998
40
0.124999999999998
40
0.156249999999997
40
0.156249999999997
40
0.187499999999997
40
0.187499999999997
40
0.218749999999997
40
0.218749999999997
40
0.249999999999996
40
0.249999999999996
40
0.281249999999995
40
0.281249999999995
40
0.312499999999995
40
0.312499999999995
40
0.343749999999994
40
0.343749999999994
40
0.359374999999994
40
0.359374999999994
40
0.367187499999995
40
0.367187499999995
40
0.374999999999995
40
0.374999999999995
40
0.406249999999996
40
0.406249999999996
40
0.437499999999997
40
0.437499999999997
40
0.468749999999998
40
0.468749999999998
40
0.499999999999998
40
0.499999999999998
40
0.531249999999999
40
0.531249999999999
40
0.5625
40
0.5625
40
0.593750000000001
40
0.593750000000001
40
0.625000000000002
40
0.625000000000002
40
0.656250000000003
40
0.656250000000003
40
0.687500000000003
40
0.687500000000003
40
0.718750000000004
40
0.718750000000004
40
0.726562500000004
40
0.726562500000004
40
0.730468750000004
40
0.730468750000004
40
0.734375000000004
40
0.750000000000004
40
0.750000000000004
40
0.781250000000004
40
0.781250000000004
40
0.812500000000003
40
0.812500000000003
40
0.843750000000003
40
0.843750000000003
40
0.875000000000002
40
0.875000000000002
40
0.906250000000002
40
0.906250000000002
40
0.937500000000001
40
0.937500000000001
40
0.968750000000001
40
0.968750000000001
40
1
40
1
40
1
40
1
41
1
10
203.542357292044
20
11
30
0
41
1
10
203.621044480909
20
11
30
0
41
1
10
203.699731669774
20
10.9728982374458
30
0
41
1
10
203.857106047503
20
10.8570656320282
30
0
41
1
10
203.935793236368
20
10.768299486041
30
0
41
1
10
204.093167614098
20
10.5238485704955
30
0
41
1
10
204.171854802963
20
10.3681330169327
30
0
41
1
10
204.329229180693
20
9.98771567470618
30
0
41
1
10
204.407916369557
20
9.76299557487698
30
0
41
1
10
204.565290747287
20
9.24649085005271
30
0
41
1
10
204.643977936152
20
8.95470694159133
30
0
41
1
10
204.801352313882
20
8.31027215368206
30
0
41
1
10
204.880039502747
20
7.95764337762137
30
0
41
1
10
205.037413880476
20
7.20165385889686
30
0
41
1
10
205.116101069341
20
6.79833321198316
30
0
41
1
10
205.273475447071
20
5.95408054498216
30
0
41
1
10
205.352162635936
20
5.51319823457612
30
0
41
1
10
205.509537013666
20
4.6085451134494
30
0
41
1
10
205.588224202531
20
4.14482316451841
30
0
41
1
10
205.74559858026
20
3.20929647225543
30
0
41
1
10
205.824285769125
20
2.73753075857636
30
0
41
1
10
205.981660146855
20
1.79945466916703
30
0
41
1
10
206.06034733572
20
1.33316846758572
30
0
41
1
10
206.178378119017
20
0.646311114845048
30
0
41
1
10
206.21772171345
20
0.419434382661194
30
0
41
1
10
206.276737105098
20
0.0831013300492884
30
0
41
1
10
206.296408902315
20
-0.0279107133322043
30
0
41
1
10
206.335752496747
20
-0.251692528366107
30
0
41
1
10
206.355424293963
20
-0.364256720231026
30
0
41
1
10
206.453783280044
20
-0.930100283879142
30
0
41
1
10
206.532470468909
20
-1.39255194742728
30
0
41
1
10
206.689844846639
20
-2.32650385679636
30
0
41
1
10
206.768532035504
20
-2.79798453672686
30
0
41
1
10
206.925906413233
20
-3.73705805116558
30
0
41
1
10
207.004593602098
20
-4.20461587067879
30
0
41
1
10
207.161967979828
20
-5.12130542859617
30
0
41
1
10
207.240655168693
20
-5.57039038610503
30
0
41
1
10
207.398029546423
20
-6.43524008746303
30
0
41
1
10
207.476716735287
20
-6.85095429026106
30
0
41
1
10
207.634091113017
20
-7.63530707350375
30
0
41
1
10
207.712778301882
20
-8.00390173290543
30
0
41
1
10
207.870152679612
20
-8.68285680705483
30
0
41
1
10
207.948839868477
20
-8.99318927004265
30
0
41
1
10
208.106214246206
20
-9.54816973594751
30
0
41
1
10
208.184901435071
20
-9.79281079353592
30
0
41
1
10
208.342275812801
20
-10.2132043872895
30
0
41
1
10
208.420963001666
20
-10.3889702317188
30
0
41
1
10
208.578337379396
20
-10.6725516813713
30
0
41
1
10
208.657024568261
20
-10.780395252753
30
0
41
1
10
208.81439894599
20
-10.9325684369696
30
0
41
1
10
208.893086134855
20
-10.9769328279359
30
0
41
1
10
208.991445120936
20
-10.9970432867442
30
0
41
1
10
209.011116918153
20
-10.9993027992324
30
0
41
1
10
209.040624613977
20
-11.0001413778861
30
0
41
1
10
209.050460512585
20
-10.9999981909259
30
0
41
1
10
209.070132309801
20
-10.9988586177598
30
0
41
1
10
209.119311802842
20
-10.9938718472075
30
0
41
1
10
209.168491295882
20
-10.9779903716217
30
0
41
1
10
209.28652207918
20
-10.9175477513525
30
0
41
1
10
209.365209268045
20
-10.8474039824564
30
0
41
1
10
209.522583645774
20
-10.6414483968706
30
0
41
1
10
209.601270834639
20
-10.5056036702734
30
0
41
1
10
209.758645212369
20
-10.1651451837664
30
0
41
1
10
209.837332401234
20
-9.96050868521596
30
0
41
1
10
209.994706778964
20
-9.48317181995986
30
0
41
1
10
210.073393967829
20
-9.21046615222446
30
0
41
1
10
210.230768345558
20
-8.60194909532092
30
0
41
1
10
210.309455534423
20
-8.26615366812536
30
0
41
1
10
210.466829912153
20
-7.54051845687667
30
0
41
1
10
210.545517101018
20
-7.15071421251108
30
0
41
1
10
210.702891478747
20
-6.32944105603752
30
0
41
1
10
210.781578667612
20
-5.89802011025739
30
0
41
1
10
210.938953045342
20
-5.00792671175773
30
0
41
1
10
211.017640234207
20
-4.54930442288412
30
0
41
1
10
211.096327423072
20
-4.08452321049251
30
0
0
SPLINE
5
DC
100
AcDbEntity
8
1
62
256
6
ByLayer
370
13
48
1
60
0
100
AcDbSpline
70
4
71
3
72
42
73
38
40
0
40
0
40
0
40
0
40
0.062500000000001
40
0.062500000000001
40
0.125000000000002
40
0.125000000000002
40
0.187500000000003
40
0.187500000000003
40
0.218750000000003
40
0.218750000000003
40
0.234375000000004
40
0.234375000000004
40
0.250000000000004
40
0.250000000000004
40
0.312500000000003
40
0.312500000000003
40
0.375000000000003
40
0.375000000000003
40
0.437500000000003
40
0.437500000000003
40
0.500000000000002
40
0.500000000000002
40
0.562500000000002
40
0.562500000000002
40
0.625000000000002
40
0.625000000000002
40
0.687500000000001
40
0.687500000000001
40
0.750000000000001
40
0.750000000000001
40
0.812500000000001
40
0.812500000000001
40
0.875000000000001
40
0.875000000000001
40
0.9375
40
0.9375
40
1
40
1
40
1
40
1
41
1
10
200.1
20
-5.1193151200363
30
0
41
1
10
200.175413525824
20
-4.68676366663922
30
0
41
1
10
200.250827051648
20
-4.24344610306426
30
0
41
1
10
200.401654103295
20
-3.3482618719236
30
0
41
1
10
200.477067629119
20
-2.89642766369843
30
0
41
1
10
200.627894680767
20
-1.99628824968872
30
0
41
1
10
200.70330820659
20
-1.54800420565738
30
0
41
1
10
200.816428495326
20
-0.885932418617244
30
0
41
1
10
200.854135258238
20
-0.666951539422286
30
0
41
1
10
200.910695402606
20
-0.341849864045088
30
0
41
1
10
200.929548784062
20
-0.23404312035683
30
0
41
1
10
200.967255546974
20
-0.0196710921446481
30
0
41
1
10
200.98610892843
20
0.0867497635585437
30
0
41
1
10
201.08037583571
20
0.623964559946018
30
0
41
1
10
201.155789361534
20
1.06356277107636
30
0
41
1
10
201.306616413181
20
1.9537078800079
30
0
41
1
10
201.382029939005
20
2.40424213817872
30
0
41
1
10
201.532856990653
20
3.30539757435392
30
0
41
1
10
201.608270516477
20
3.75599394931851
30
0
41
1
10
201.759097568124
20
4.64481701196675
30
0
41
1
10
201.834511093948
20
5.08300846873391
30
0
41
1
10
201.985338145596
20
5.93388076003905
30
0
41
1
10
202.060751671419
20
6.34652090547433
30
0
41
1
10
202.211578723067
20
7.13362647258333
30
0
41
1
10
202.286992248891
20
7.50805307616272
30
0
41
1
10
202.437819300539
20
8.20776687502425
30
0
41
1
10
202.513232826363
20
8.53302475026129
30
0
41
1
10
202.66405987801
20
9.12618661334244
30
0
41
1
10
202.739473403834
20
9.39407625166936
30
0
41
1
10
202.890300455482
20
9.86771055922549
30
0
41
1
10
202.965713981305
20
10.0734574679557
30
0
41
1
10
203.116541032953
20
10.4216225198116
30
0
41
1
10
203.191954558777
20
10.564057086092
30
0
41
1
10
203.342781610425
20
10.7877282550923
30
0
41
1
10
203.418195136248
20
10.868990323062
30
0
41
1
10
203.569022187896
20
10.9751119015146
30
0
41
1
10
203.64443571372
20
11
30
0
41
1
10
203.719849239544
20
11
30
0
0
SPLINE
5
DD
100
AcDbEntity
8
1
62
256
6
ByLayer
370
13
48
1
60
0
100
AcDbSpline
70
4
71
3
72
79
73
75
40
0
40
0
40
0
40
0
40
0.0312500000000039
40
0.0312500000000039
40
0.0625000000000077
40
0.0625000000000077
40
0.0937500000000116
40
0.0937500000000116
40
0.125000000000015
40
0.125000000000015
40
0.156250000000019
40
0.156250000000019
40
0.187500000000023
40
0.187500000000023
40
0.218750000000027
40
0.218750000000027
40
0.250000000000031
40
0.250000000000031
40
0.281250000000035
40
0.281250000000035
40
0.312500000000038
40
0.312500000000038
40
0.328125000000041
40
0.328125000000041
40
0.335937500000041
40
0.339843750000042
40
0.339843750000042
40
0.343750000000042
40
0.343750000000042
40
0.375000000000042
40
0.375000000000042
40
0.406250000000041
40
0.406250000000041
40
0.437500000000041
40
0.437500000000041
40
0.46875000000004
40
0.46875000000004
40
0.50000000000004
40
0.50000000000004
40
0.531250000000039
40
0.531250000000039
40
0.562500000000039
40
0.562500000000039
40
0.593750000000038
40
0.593750000000038
40
0.625000000000038
40
0.625000000000038
40
0.656250000000037
40
0.656250000000037
40
0.671875000000037
40
0.671875000000037
40
0.679687500000036
40
0.679687500000036
40
0.687500000000036
40
0.687500000000036
40
0.718750000000032
40
0.718750000000032
40
0.750000000000029
40
0.750000000000029
40
0.781250000000025
40
0.781250000000025
40
0.812500000000021
40
0.812500000000021
40
0.843750000000018
40
0.843750000000018
40
0.875000000000014
40
0.875000000000014
40
0.906250000000011
40
0.906250000000011
40
0.937500000000007
40
0.937500000000007
40
0.968750000000004
40
0.968750000000004
40
1
40
1
40
1
40
1
41
1
10
203.050592043154
20
11
30
0
41
1
10
203.134401786695
20
11
30
0
41
1
10
203.218211530236
20
10.9692432579624
30
0
41
1
10
203.385831017317
20
10.8373149715735
30
0
41
1
10
203.469640760858
20
10.7360951866661
30
0
41
1
10
203.63726024794
20
10.4571707164941
30
0
41
1
10
203.721069991481
20
10.2794255159509
30
0
41
1
10
203.888689478562
20
9.84567816728043
30
0
41
1
10
203.972499222103
20
9.58965549183483
30
0
41
1
10
204.140118709185
20
9.0028418976494
30
0
41
1
10
204.223928452725
20
8.67205959628296
30
0
41
1
10
204.391547939807
20
7.94468471574712
30
0
41
1
10
204.475357683348
20
7.54813131154773
30
0
41
1
10
204.642977170429
20
6.70292081103509
30
0
41
1
10
204.72678691397
20
6.25432536969993
30
0
41
1
10
204.894406401052
20
5.32193353019119
30
0
41
1
10
204.978216144593
20
4.83820641199122
30
0
41
1
10
205.145835631674
20
3.85362448973109
30
0
41
1
10
205.229645375215
20
3.35283082236043
30
0
41
1
10
205.397264862297
20
2.35134436333632
30
0
41
1
10
205.481074605838
20
1.8506935456717
30
0
41
1
10
205.606789221149
20
1.1108935482782
30
0
41
1
10
205.648694092919
20
0.866133420395613
30
0
41
1
10
205.711551400575
20
0.502905528880234
30
0
41
1
10
205.742980054403
20
0.322267123634191
30
0
41
1
10
205.774408708231
20
0.143284756207521
30
0
41
1
10
205.795361144116
20
0.0243509573627989
30
0
41
1
10
205.805837362058
20
-0.0348354748342103
30
0
41
1
10
205.900123323542
20
-0.570242813818567
30
0
41
1
10
205.983933067082
20
-1.05868182678205
30
0
41
1
10
206.151552554164
20
-2.04872628188511
30
0
41
1
10
206.235362297705
20
-2.55030958793245
30
0
41
1
10
206.402981784786
20
-3.55149772247518
30
0
41
1
10
206.486791528327
20
-4.05105766725785
30
0
41
1
10
206.654411015409
20
-5.03079136918478
30
0
41
1
10
206.73822075895
20
-5.51090213297485
30
0
41
1
10
206.905840246031
20
-6.4337107514659
30
0
41
1
10
206.989649989572
20
-6.87633938409331
30
0
41
1
10
207.157269476654
20
-7.7075736811469
30
0
41
1
10
207.241079220195
20
-8.09611990818806
30
0
41
1
10
207.408698707276
20
-8.80598945564756
30
0
41
1
10
207.492508450817
20
-9.12727737953622
30
0
41
1
10
207.660127937899
20
-9.69431348524915
30
0
41
1
10
207.743937681439
20
-9.94005719196318
30
0
41
1
10
207.911557168521
20
-10.3531869921843
30
0
41
1
10
207.995366912062
20
-10.5205969046764
30
0
41
1
10
208.162986399144
20
-10.7794312605706
30
0
41
1
10
208.246796142684
20
-10.8708979534671
30
0
41
1
10
208.372510757996
20
-10.956005019648
30
0
41
1
10
208.414415629766
20
-10.9757200645664
30
0
41
1
10
208.477272937422
20
-10.9931234925998
30
0
41
1
10
208.498225373307
20
-10.9968976380817
30
0
41
1
10
208.540130245077
20
-11.0005396513681
30
0
41
1
10
208.561082680962
20
-11.0004278781504
30
0
41
1
10
208.665844860388
20
-10.9901715821321
30
0
41
1
10
208.749654603929
20
-10.9505561825395
30
0
41
1
10
208.917274091011
20
-10.7999075532892
30
0
41
1
10
209.001083834552
20
-10.6888264189129
30
0
41
1
10
209.168703321633
20
-10.3896712138178
30
0
41
1
10
209.252513065174
20
-10.2015585839363
30
0
41
1
10
209.420132552256
20
-9.74722268387416
30
0
41
1
10
209.503942295796
20
-9.48098234574471
30
0
41
1
10
209.671561782878
20
-8.87461108179767
30
0
41
1
10
209.755371526419
20
-8.53449294323414
30
0
41
1
10
209.9229910135
20
-7.79001425031581
30
0
41
1
10
210.006800757041
20
-7.38569650368655
30
0
41
1
10
210.174420244123
20
-6.52705216782635
30
0
41
1
10
210.258229987664
20
-6.07278918177062
30
0
41
1
10
210.425849474745
20
-5.13143312768938
30
0
41
1
10
210.509659218286
20
-4.64440911256048
30
0
41
1
10
210.677278705368
20
-3.65560242533749
30
0
41
1
10
210.761088448909
20
-3.15387883637504
30
0
41
1
10
210.92870793599
20
-2.15265813151632
30
0
41
1
10
211.012517679531
20
-1.65320001764019
30
0
41
1
10
211.096327423072
20
-1.16205260836782
30
0
0
SPLINE
5
DE
100
AcDbEntity
8
1
62
256
6
ByLayer
370
13
48
1
60
0
100
AcDbSpline
70
4
71
3
72
42
73
38
40
0
40
0
40
0
40
0
40
0.0624999999999957
40
0.0624999999999957
40
0.0937499999999936
40
0.0937499999999936
40
0.109374999999993
40
0.109374999999993
40
0.124999999999993
40
0.124999999999993
40
0.187499999999994
40
0.187499999999994
40
0.249999999999994
40
0.249999999999994
40
0.312499999999995
40
0.312499999999995
40
0.374999999999995
40
0.374999999999995
40
0.437499999999996
40
0.437499999999996
40
0.499999999999996
40
0.499999999999996
40
0.562499999999997
40
0.562499999999997
40
0.624999999999997
40
0.624999999999997
40
0.687499999999998
40
0.687499999999998
40
0.749999999999998
40
0.749999999999998
40
0.812499999999999
40
0.812499999999999
40
0.874999999999999
40
0.874999999999999
40
0.937499999999999
40
0.937499999999999
40
1
40
1
40
1
40
1
41
1
10
200.1
20
-2.21209261443337
30
0
41
1
10
200.165168416472
20
-1.82382134532344
30
0
41
1
10
200.230336832944
20
-1.43758593838427
30
0
41
1
10
200.328089457652
20
-0.866134228550834
30
0
41
1
10
200.360673665888
20
-0.676958085629195
30
0
41
1
10
200.409549978242
20
-0.395674508612899
30
0
41
1
10
200.42584208236
20
-0.302326127771124
30
0
41
1
10
200.458426290596
20
-0.116533865046335
30
0
41
1
10
200.474718394714
20
-0.024387892396021
30
0
41
1
10
200.556178915304
20
0.437744821646533
30
0
41
1
10
200.621347331776
20
0.815043027742774
30
0
41
1
10
200.75168416472
20
1.57945334294953
30
0
41
1
10
200.816852581192
20
1.96656070556904
30
0
41
1
10
200.947189414136
20
2.74397313273195
30
0
41
1
10
201.012357830607
20
3.13426839445759
30
0
41
1
10
201.142694663551
20
3.91041150577573
30
0
41
1
10
201.207863080023
20
4.29624469580378
30
0
41
1
10
201.338199912967
20
5.05515829475016
30
0
41
1
10
201.403368329439
20
5.42822039772506
30
0
41
1
10
201.533705162383
20
6.15312643728873
30
0
41
1
10
201.598873578855
20
6.50495059253601
30
0
41
1
10
201.729210411799
20
7.17933593290533
30
0
41
1
10
201.794378828271
20
7.50187862585511
30
0
41
1
10
201.924715661215
20
8.1106620108049
30
0
41
1
10
201.989884077687
20
8.39688824165901
30
0
41
1
10
202.120220910631
20
8.92751007178575
30
0
41
1
10
202.185389327103
20
9.17189728839307
30
0
41
1
10
202.315726160047
20
9.61517254060152
30
0
41
1
10
202.380894576519
20
9.81405913921685
30
0
41
1
10
202.511231409463
20
10.1646741002799
30
0
41
1
10
202.576399825935
20
10.3164075295261
30
0
41
1
10
202.706736658878
20
10.5730092364047
30
0
41
1
10
202.77190507535
20
10.6778875802582
30
0
41
1
10
202.902241908294
20
10.8427906845607
30
0
41
1
10
202.967410324766
20
10.9028284354321
30
0
41
1
10
203.09774715771
20
10.981426190179
30
0
41
1
10
203.162915574182
20
11
30
0
41
1
10
203.228083990654
20
11
30
0
0
SPLINE
5
DF
100
AcDbEntity
8
1
62
256
6
ByLayer
370
13
48
1
60
0
100
AcDbSpline
70
4
71
3
72
84
73
80
40
0
40
0
40
0
40
0
40
0.0312499999999996
40
0.0312499999999996
40
0.0624999999999992
40
0.0624999999999992
40
0.0937499999999988
40
0.0937499999999988
40
0.124999999999998
40
0.124999999999998
40
0.156249999999998
40
0.156249999999998
40
0.187499999999998
40
0.187499999999998
40
0.218749999999997
40
0.218749999999997
40
0.249999999999997
40
0.249999999999997
40
0.281249999999996
40
0.281249999999996
40
0.312499999999996
40
0.312499999999996
40
0.320312499999996
40
0.320312499999996
40
0.324218749999996
40
0.324218749999996
40
0.328124999999996
40
0.343749999999996
40
0.343749999999996
40
0.374999999999995
40
0.374999999999995
40
0.406249999999995
40
0.406249999999995
40
0.437499999999994
40
0.437499999999994
40
0.468749999999994
40
0.468749999999994
40
0.499999999999994
40
0.499999999999994
40
0.531249999999993
40
0.531249999999993
40
0.562499999999993
40
0.562499999999993
40
0.593749999999992
40
0.593749999999992
40
0.624999999999992
40
0.624999999999992
40
0.640624999999992
40
0.640624999999992
40
0.648437499999992
40
0.648437499999992
40
0.656249999999992
40
0.656249999999992
40
0.687499999999993
40
0.687499999999993
40
0.718749999999994
40
0.718749999999994
40
0.749999999999994
40
0.749999999999994
40
0.781249999999995
40
0.781249999999995
40
0.812499999999996
40
0.812499999999996
40
0.843749999999996
40
0.843749999999996
40
0.874999999999997
40
0.874999999999997
40
0.906249999999998
40
0.906249999999998
40
0.937499999999999
40
0.937499999999999
40
0.953124999999999
40
0.953124999999999
40
0.960937499999999
40
0.964843749999999
40
0.964843749999999
40
0.968749999999999
40
0.968749999999999
40
1
40
1
40
1
40
1
41
1
10
202.558826794265
20
11
30
0
41
1
10
202.647759092481
20
11
30
0
41
1
10
202.736691390698
20
10.96535454546
30
0
41
1
10
202.914555987132
20
10.8162241128987
30
0
41
1
10
203.003488285348
20
10.7016745020312
30
0
41
1
10
203.181352881782
20
10.3858804062557
30
0
41
1
10
203.270285179999
20
10.1845839370236
30
0
41
1
10
203.448149776432
20
9.69407386813958
30
0
41
1
10
203.537082074649
20
9.40483922440023
30
0
41
1
10
203.714946671082
20
8.74402808951555
30
0
41
1
10
203.803878969299
20
8.37247355307153
30
0
41
1
10
203.981743565733
20
7.55941803447971
30
0
41
1
10
204.070675863949
20
7.11798060732087
30
0
41
1
10
204.248540460383
20
6.18307152302654
30
0
41
1
10
204.337472758599
20
5.68968901566365
30
0
41
1
10
204.515337355033
20
4.67195410807784
30
0
41
1
10
204.60426965325
20
4.14769247067733
30
0
41
1
10
204.782134249683
20
3.08962149743826
30
0
41
1
10
204.8710665479
20
2.55588300233299
30
0
41
1
10
205.048931144333
20
1.49813780490803
30
0
41
1
10
205.13786344255
20
0.974170671072102
30
0
41
1
10
205.249028815321
20
0.33494906191487
30
0
41
1
10
205.271261889875
20
0.207881017970891
30
0
41
1
10
205.304611501706
20
0.0185909970551847
30
0
41
1
10
205.315728038984
20
-0.0442118977109658
30
0
41
1
10
205.337961113538
20
-0.170523321171458
30
0
41
1
10
205.393543799923
20
-0.487383817779232
30
0
41
1
10
205.449126486309
20
-0.809381744155758
30
0
41
1
10
205.582524933634
20
-1.5894534497246
30
0
41
1
10
205.67145723185
20
-2.1193252972846
30
0
41
1
10
205.849321828284
20
-3.18173383512391
30
0
41
1
10
205.938254126501
20
-3.7142181312299
30
0
41
1
10
206.116118722934
20
-4.76153504552698
30
0
41
1
10
206.205051021151
20
-5.27628699567501
30
0
41
1
10
206.382915617584
20
-6.26655302814842
30
0
41
1
10
206.471847915801
20
-6.74197405008516
30
0
41
1
10
206.649712512234
20
-7.63340089003574
30
0
41
1
10
206.738644810451
20
-8.04932495197269
30
0
41
1
10
206.916509406885
20
-8.80570709603495
30
0
41
1
10
207.005441705102
20
-9.14611675780884
30
0
41
1
10
207.183306301535
20
-9.74157691672067
30
0
41
1
10
207.272238599752
20
-9.99662300054007
30
0
41
1
10
207.450103196185
20
-10.4184401146033
30
0
41
1
10
207.539035494402
20
-10.5852462930784
30
0
41
1
10
207.716900090836
20
-10.8341532028998
30
0
41
1
10
207.805832389052
20
-10.9163131108417
30
0
41
1
10
207.939230836378
20
-10.9824538848322
30
0
41
1
10
207.983696985486
20
-10.9950173787684
30
0
41
1
10
208.050396209148
20
-11.0006658751341
30
0
41
1
10
208.072629283703
20
-11.0003761870427
30
0
41
1
10
208.117095432811
20
-10.9954150865511
30
0
41
1
10
208.139328507365
20
-10.9907240948046
30
0
41
1
10
208.250493880136
20
-10.9557792398872
30
0
41
1
10
208.339426178353
20
-10.8909195734667
30
0
41
1
10
208.517290774786
20
-10.6781107459802
30
0
41
1
10
208.606223073003
20
-10.5300996943358
30
0
41
1
10
208.784087669437
20
-10.146147467055
30
0
41
1
10
208.873019967653
20
-9.91016440294948
30
0
41
1
10
209.050884564087
20
-9.35162586106341
30
0
41
1
10
209.139816862303
20
-9.02906538265356
30
0
41
1
10
209.317681458737
20
-8.30569150850533
30
0
41
1
10
209.406613756954
20
-7.90491740946953
30
0
41
1
10
209.584478353387
20
-7.03989872086365
30
0
41
1
10
209.673410651604
20
-6.57573028381699
30
0
41
1
10
209.851275248037
20
-5.60339269607084
30
0
41
1
10
209.940207546254
20
-5.09531628127218
30
0
41
1
10
210.118072142688
20
-4.05669912342788
30
0
41
1
10
210.207004440904
20
-3.52624344791306
30
0
41
1
10
210.384869037338
20
-2.46371121046551
30
0
41
1
10
210.473801335554
20
-1.93169390541979
30
0
41
1
10
210.607199782879
20
-1.14589584065254
30
0
41
1
10
210.651665931988
20
-0.885972844938152
30
0
41
1
10
210.718365155651
20
-0.500487118597334
30
0
41
1
10
210.751714767482
20
-0.308840741812333
30
0
41
1
10
210.785064379313
20
-0.119069040387501
30
0
41
1
10
210.807297453868
20
0.0070053668523258
30
0
41
1
10
210.818413991144
20
0.0698571616225365
30
0
41
1
10
210.918462826638
20
0.638785997632141
30
0
41
1
10
211.007395124855
20
1.15846442129603
30
0
41
1
10
211.096327423072
20
1.68489225196757
30
0
0
SPLINE
5
E0
100
AcDbEntity
8
1
62
256
6
ByLayer
370
13
48
1
60
0
100
AcDbSpline
70
4
71
3
72
36
73
32
40
0
40
0
40
0
40
0
40
0.0625000000000002
40
0.0625000000000002
40
0.125
40
0.125
40
0.187500000000001
40
0.187500000000001
40
0.250000000000001
40
0.250000000000001
40
0.312500000000001
40
0.312500000000001
40
0.375000000000001
40
0.375000000000001
40
0.437500000000001
40
0.437500000000001
40
0.500000000000001
40
0.500000000000001
40
0.562500000000001
40
0.562500000000001
40
0.625000000000001
40
0.625000000000001
40
0.687500000000001
40
0.687500000000001
40
0.750000000000001
40
0.750000000000001
40
0.8125
40
0.8125
40
0.875
40
0.875
40
1
40
1
40
1
40
1
41
1
10
200.1
20
0.645300739833743
30
0
41
1
10
200.15492330712
20
0.96288020923285
30
0
41
1
10
200.20984661424
20
1.28491507554941
30
0
41
1
10
200.31969322848
20
1.93434673160559
30
0
41
1
10
200.3746165356
20
2.26174074987156
30
0
41
1
10
200.484463149841
20
2.91774153052233
30
0
41
1
10
200.539386456961
20
3.2463436876447
30
0
41
1
10
200.649233071201
20
3.90012377033071
30
0
41
1
10
200.704156378321
20
4.22529537339514
30
0
41
1
10
200.814002992561
20
4.86725419857441
30
0
41
1
10
200.868926299681
20
5.18403376083339
30
0
41
1
10
200.978772913921
20
5.80413666569279
30
0
41
1
10
201.033696221042
20
6.10745164151069
30
0
41
1
10
201.143542835282
20
6.69568493042496
30
0
41
1
10
201.198466142402
20
6.9805949789442
30
0
41
1
10
201.308312756642
20
7.52746211992968
30
0
41
1
10
201.363236063762
20
7.78941191467385
30
0
41
1
10
201.473082678002
20
8.28642320035448
30
0
41
1
10
201.528005985122
20
8.52147913195822
30
0
41
1
10
201.637852599363
20
8.96158399728142
30
0
41
1
10
201.692775906483
20
9.16662965171216
30
0
41
1
10
201.802622520723
20
9.54454634250743
30
0
41
1
10
201.857545827843
20
9.71741660258843
30
0
41
1
10
201.967392442083
20
10.0298273356374
30
0
41
1
10
202.022315749203
20
10.1693694204774
30
0
41
1
10
202.132162363444
20
10.4149677939329
30
0
41
1
10
202.187085670564
20
10.5210276805527
30
0
41
1
10
202.296932284804
20
10.7004248587967
30
0
41
1
10
202.351855591924
20
10.7737671457713
30
0
41
1
10
202.516625513284
20
10.9470367495319
30
0
41
1
10
202.626472127524
20
11
30
0
41
1
10
202.736318741764
20
11
30
0
0
SPLINE
5
E1
100
AcDbEntity
8
1
62
256
6
ByLayer
370
13
48
1
60
0
100
AcDbSpline
70
4
71
3
72
84
73
80
40
0
40
0
40
0
40
0
40
0.0312499999999993
40
0.0312499999999993
40
0.0624999999999987
40
0.0624999999999987
40
0.093749999999998
40
0.093749999999998
40
0.124999999999997
40
0.124999999999997
40
0.156249999999997
40
0.156249999999997
40
0.187499999999996
40
0.187499999999996
40
0.218749999999995
40
0.218749999999995
40
0.249999999999995
40
0.249999999999995
40
0.281249999999994
40
0.281249999999994
40
0.296874999999994
40
0.296874999999994
40
0.304687499999994
40
0.304687499999994
40
0.312499999999994
40
0.312499999999994
40
0.343749999999994
40
0.343749999999994
40
0.374999999999994
40
0.374999999999994
40
0.406249999999993
40
0.406249999999993
40
0.437499999999993
40
0.437499999999993
40
0.468749999999993
40
0.468749999999993
40
0.499999999999993
40
0.499999999999993
40
0.531249999999993
40
0.531249999999993
40
0.562499999999993
40
0.562499999999993
40
0.593749999999993
40
0.593749999999993
40
0.601562499999993
40
0.601562499999993
40
0.609374999999993
40
0.609374999999993
40
0.624999999999993
40
0.624999999999993
40
0.656249999999993
40
0.656249999999993
40
0.687499999999994
40
0.687499999999994
40
0.718749999999994
40
0.718749999999994
40
0.749999999999995
40
0.749999999999995
40
0.781249999999995
40
0.781249999999995
40
0.812499999999996
40
0.812499999999996
40
0.843749999999996
40
0.843749999999996
40
0.874999999999996
40
0.874999999999996
40
0.906249999999997
40
0.906249999999997
40
0.910156249999997
40
0.910156249999997
40
0.914062499999997
40
0.914062499999997
40
0.921874999999998
40
0.921874999999998
40
0.937499999999998
40
0.937499999999998
40
0.968749999999999
40
0.968749999999999
40
1
40
1
40
1
40
1
41
1
10
202.067061545375
20
11
30
0
41
1
10
202.161116398268
20
11
30
0
41
1
10
202.25517125116
20
10.9612313993721
30
0
41
1
10
202.443280956946
20
10.7937833937248
30
0
41
1
10
202.537335809838
20
10.6650189073306
30
0
41
1
10
202.725445515624
20
10.3099550958711
30
0
41
1
10
202.819500368516
20
10.0835906628114
30
0
41
1
10
203.007610074302
20
9.53296903324076
30
0
41
1
10
203.101664927194
20
9.20869316768096
30
0
41
1
10
203.28977463298
20
8.4705113775168
30
0
41
1
10
203.383829485872
20
8.05664806750553
30
0
41
1
10
203.571939191658
20
7.15585464828857
30
0
41
1
10
203.66599404455
20
6.66902111265281
30
0
41
1
10
203.854103750336
20
5.64501117024003
30
0
41
1
10
203.948158603229
20
5.1079569845092
30
0
41
1
10
204.136268309014
20
4.0089836688532
30
0
41
1
10
204.230323161907
20
3.44717668160581
30
0
41
1
10
204.418432867692
20
2.32327754980949
30
0
41
1
10
204.512487720584
20
1.7612609112729
30
0
41
1
10
204.653569999923
20
0.933606208595847
30
0
41
1
10
204.70059742637
20
0.660246357648703
30
0
41
1
10
204.771138566039
20
0.255562477878215
30
0
41
1
10
204.794652279262
20
0.121667539391098
30
0
41
1
10
204.841679705709
20
-0.144563118373185
30
0
41
1
10
204.865193418932
20
-0.278676263422881
30
0
41
1
10
204.982761985048
20
-0.953657222157233
30
0
41
1
10
205.076816837941
20
-1.50798281882473
30
0
41
1
10
205.264926543726
20
-2.62715411053671
30
0
41
1
10
205.358981396619
20
-3.191946335766
30
0
41
1
10
205.547091102404
20
-4.30911508090074
30
0
41
1
10
205.641145955297
20
-4.86139497471169
30
0
41
1
10
205.829255661082
20
-5.92811788532711
30
0
41
1
10
205.923310513975
20
-6.44243934338613
30
0
41
1
10
206.11142021976
20
-7.40870081351179
30
0
41
1
10
206.205475072653
20
-7.86052738632054
30
0
41
1
10
206.393584778438
20
-8.68179328936131
30
0
41
1
10
206.487639631331
20
-9.05116138840248
30
0
41
1
10
206.675749337116
20
-9.69493747361838
30
0
41
1
10
206.769804190009
20
-9.96933499056195
30
0
41
1
10
206.957913895794
20
-10.4193061422747
30
0
41
1
10
207.051968748687
20
-10.5949252501764
30
0
41
1
10
207.240078454472
20
-10.851619663254
30
0
41
1
10
207.334133307365
20
-10.9327738200558
30
0
41
1
10
207.45170187348
20
-10.9816647928905
30
0
41
1
10
207.475215586704
20
-10.9888269233975
30
0
41
1
10
207.52224301315
20
-10.9981208531816
30
0
41
1
10
207.545756726373
20
-11.0002534094671
30
0
41
1
10
207.616297866043
20
-10.9994216674342
30
0
41
1
10
207.663325292489
20
-10.9891777008408
30
0
41
1
10
207.804407571828
20
-10.9269011633609
30
0
41
1
10
207.898462424721
20
-10.8431606855298
30
0
41
1
10
208.086572130506
20
-10.5810721025871
30
0
41
1
10
208.180626983399
20
-10.4026457155411
30
0
41
1
10
208.368736689184
20
-9.94704802657719
30
0
41
1
10
208.462791542077
20
-9.66983259727039
30
0
41
1
10
208.650901247862
20
-9.02065795818655
30
0
41
1
10
208.744956100755
20
-8.64871100302932
30
0
41
1
10
208.93306580654
20
-7.82276493173654
30
0
41
1
10
209.027120659433
20
-7.36883862089482
30
0
41
1
10
209.215230365218
20
-6.39903344170457
30
0
41
1
10
209.309285218111
20
-5.88326875727597
30
0
41
1
10
209.497394923896
20
-4.81439441239738
30
0
41
1
10
209.591449776789
20
-4.26140600953283
30
0
41
1
10
209.779559482574
20
-3.14352855131906
30
0
41
1
10
209.873614335467
20
-2.5787350485374
30
0
41
1
10
210.061724041252
20
-1.4601588921424
30
0
41
1
10
210.155778894145
20
-0.906428391013293
30
0
41
1
10
210.261590603649
20
-0.299863157223484
30
0
41
1
10
210.273347460261
20
-0.232691039747351
30
0
41
1
10
210.296861173484
20
-0.0988239138802101
30
0
41
1
10
210.308618030096
20
-0.032256546069334
30
0
41
1
10
210.343888599931
20
0.167587406979664
30
0
41
1
10
210.367402313153
20
0.301808245162505
30
0
41
1
10
210.437943452823
20
0.707099141532154
30
0
41
1
10
210.484970879269
20
0.980808424698722
30
0
41
1
10
210.626053158608
20
1.80931575449904
30
0
41
1
10
210.720108011501
20
2.37163836469438
30
0
41
1
10
210.908217717286
20
3.49548907199659
30
0
41
1
10
211.002272570179
20
4.05694040275571
30
0
41
1
10
211.096327423072
20
4.60570489713601
30
0
0
SPLINE
5
E2
100
AcDbEntity
8
1
62
256
6
ByLayer
370
13
48
1
60
0
100
AcDbSpline
70
4
71
3
72
22
73
18
40
0
40
0
40
0
40
0
40
0.125
40
0.125
40
0.25
40
0.25
40
0.375
40
0.375
40
0.5
40
0.5
40
0.625
40
0.625
40
0.75
40
0.75
40
0.875
40
0.875
40
1
40
1
40
1
40
1
41
1
10
200.1
20
3.55808817139757
30
0
41
1
10
200.189356395537
20
4.09000142516692
30
0
41
1
10
200.278712791073
20
4.61749354900886
30
0
41
1
10
200.457425582146
20
5.64212711597332
30
0
41
1
10
200.546781977683
20
6.13917598958281
30
0
41
1
10
200.725494768755
20
7.08149912840145
30
0
41
1
10
200.814851164292
20
7.52668170737923
30
0
41
1
10
200.993563955365
20
8.34693259211792
30
0
41
1
10
201.082920350901
20
8.7219349537931
30
0
41
1
10
201.261633141974
20
9.38902812954433
30
0
41
1
10
201.35098953751
20
9.68109558412147
30
0
41
1
10
201.529702328583
20
10.1764564254826
30
0
41
1
10
201.61905872412
20
10.3797707882478
30
0
41
1
10
201.797771515193
20
10.6987248819364
30
0
41
1
10
201.887127910729
20
10.8144176229667
30
0
41
1
10
202.065840701802
20
10.9650221003968
30
0
41
1
10
202.155197097338
20
11
30
0
41
1
10
202.244553492875
20
11
30
0
0
SPLINE
5
E3
100
AcDbEntity
8
1
62
256
6
ByLayer
370
13
48
1
60
0
100
AcDbSpline
70
4
71
3
72
86
73
82
40
0
40
0
40
0
40
0
40
0.0312499999999989
40
0.0312499999999989
40
0.0624999999999977
40
0.0624999999999977
40
0.0937499999999966
40
0.0937499999999966
40
0.124999999999995
40
0.124999999999995
40
0.156249999999994
40
0.156249999999994
40
0.187499999999993
40
0.187499999999993
40
0.218749999999992
40
0.218749999999992
40
0.249999999999991
40
0.249999999999991
40
0.28124999999999
40
0.28124999999999
40
0.28906249999999
40
0.28906249999999
40
0.29687499999999
40
0.29687499999999
40
0.31249999999999
40
0.31249999999999
40
0.343749999999991
40
0.343749999999991
40
0.374999999999993
40
0.374999999999993
40
0.406249999999994
40
0.406249999999994
40
0.437499999999995
40
0.437499999999995
40
0.468749999999997
40
0.468749999999997
40
0.499999999999998
40
0.499999999999998
40
0.531249999999999
40
0.531249999999999
40
0.562500000000001
40
0.562500000000001
40
0.570312500000001
40
0.570312500000001
40
0.574218750000001
40
0.574218750000001
40
0.578125000000001
40
0.578125000000001
40
0.593750000000001
40
0.593750000000001
40
0.625
40
0.625
40
0.656249999999999
40
0.656249999999999
40
0.687499999999998
40
0.687499999999998
40
0.718749999999998
40
0.718749999999998
40
0.749999999999997
40
0.749999999999997
40
0.781249999999996
40
0.781249999999996
40
0.812499999999996
40
0.812499999999996
40
0.843749999999995
40
0.843749999999995
40
0.859374999999995
40
0.859374999999995
40
0.863281249999995
40
0.863281249999995
40
0.867187499999995
40
0.867187499999995
40
0.874999999999995
40
0.874999999999995
40
0.906249999999996
40
0.906249999999996
40
0.937499999999997
40
0.937499999999997
40
0.968749999999999
40
0.968749999999999
40
1
40
1
40
1
40
1
41
1
10
201.575296296485
20
11
30
0
41
1
10
201.674473704054
20
11
30
0
41
1
10
201.773651111623
20
10.9568730553714
30
0
41
1
10
201.97200592676
20
10.7699834684565
30
0
41
1
10
202.071183334328
20
10.6261105939514
30
0
41
1
10
202.269538149466
20
10.2293774966014
30
0
41
1
10
202.368715557034
20
9.976437618598
30
0
41
1
10
202.567070372171
20
9.36245679645853
30
0
41
1
10
202.66624777974
20
9.00140398993426
30
0
41
1
10
202.864602594877
20
8.18282862823878
30
0
41
1
10
202.963780002446
20
7.72537877599595
30
0
41
1
10
203.162134817583
20
6.73550736440487
30
0
41
1
10
203.261312225152
20
6.20322505275317
30
0
41
1
10
203.459667040289
20
5.09176968000529
30
0
41
1
10
203.558844447858
20
4.51275634066292
30
0
41
1
10
203.757199262995
20
3.33782363824861
30
0
41
1
10
203.856376670563
20
2.74203502337812
30
0
41
1
10
204.054731485701
20
1.56090241849716
30
0
41
1
10
204.153908893269
20
0.975631124211588
30
0
41
1
10
204.27788065273
20
0.264056270191446
30
0
41
1
10
204.302675004622
20
0.122898990867924
30
0
41
1
10
204.352263708406
20
-0.157895158774778
30
0
41
1
10
204.377058060299
20
-0.299399973518945
30
0
41
1
10
204.451441115975
20
-0.726832291387808
30
0
41
1
10
204.501029819759
20
-1.01569104612921
30
0
41
1
10
204.649795931112
20
-1.89024601160773
30
0
41
1
10
204.748973338681
20
-2.48409623155422
30
0
41
1
10
204.947328153818
20
-3.66877152867315
30
0
41
1
10
205.046505561387
20
-4.25949180470843
30
0
41
1
10
205.244860376524
20
-5.40877595507197
30
0
41
1
10
205.344037784093
20
-5.96718867155468
30
0
41
1
10
205.54239259923
20
-7.0222618009181
30
0
41
1
10
205.641570006798
20
-7.51876652386784
30
0
41
1
10
205.839924821936
20
-8.42474837267642
30
0
41
1
10
205.939102229504
20
-8.83411649725397
30
0
41
1
10
206.137457044641
20
-9.54903465198498
30
0
41
1
10
206.23663445221
20
-9.85455610083326
30
0
41
1
10
206.434989267347
20
-10.3556405212921
30
0
41
1
10
206.534166674916
20
-10.5512545576685
30
0
41
1
10
206.732521490053
20
-10.8366595298078
30
0
41
1
10
206.831698897622
20
-10.9265510820115
30
0
41
1
10
206.955670657082
20
-10.9802765779751
30
0
41
1
10
206.980465008974
20
-10.988104311603
30
0
41
1
10
207.017656536813
20
-10.9956467246415
30
0
41
1
10
207.030053712759
20
-10.997461124946
30
0
41
1
10
207.054848064651
20
-10.99972131768
30
0
41
1
10
207.067245240597
20
-11.0001678485863
30
0
41
1
10
207.129231120327
20
-10.9990500743829
30
0
41
1
10
207.178819824112
20
-10.9873664821139
30
0
41
1
10
207.327585935465
20
-10.9170589606961
30
0
41
1
10
207.426763343033
20
-10.8229697144247
30
0
41
1
10
207.625118158171
20
-10.5288168497963
30
0
41
1
10
207.724295565739
20
-10.3286538819062
30
0
41
1
10
207.922650380876
20
-9.81850563102213
30
0
41
1
10
208.021827788445
20
-9.50847213731777
30
0
41
1
10
208.220182603582
20
-8.78501477448845
30
0
41
1
10
208.319360011151
20
-8.37162306587621
30
0
41
1
10
208.517714826288
20
-7.45849335215286
30
0
41
1
10
208.616892233857
20
-6.95886716633083
30
0
41
1
10
208.815247048994
20
-5.89872651110767
30
0
41
1
10
208.914424456562
20
-5.33836858801357
30
0
41
1
10
209.1127792717
20
-4.18644823178678
30
0
41
1
10
209.211956679268
20
-3.59503571340139
30
0
41
1
10
209.410311494405
20
-2.41011808078466
30
0
41
1
10
209.509488901974
20
-1.81671530405731
30
0
41
1
10
209.658255013327
20
-0.943505658130618
30
0
41
1
10
209.707843717111
20
-0.65520693564406
30
0
41
1
10
209.769829596842
20
-0.299830545142811
30
0
41
1
10
209.782226772788
20
-0.229004061592406
30
0
41
1
10
209.80702112468
20
-0.0878827515343232
30
0
41
1
10
209.819418300626
20
-0.0177614712675904
30
0
41
1
10
209.856609828464
20
0.193108733905774
30
0
41
1
10
209.881404180356
20
0.33478590555876
30
0
41
1
10
210.005375939817
20
1.04797563505372
30
0
41
1
10
210.104553347386
20
1.63415926766646
30
0
41
1
10
210.302908162523
20
2.81608468644274
30
0
41
1
10
210.402085570091
20
3.41175115771216
30
0
41
1
10
210.600440385229
20
4.58522197224249
30
0
41
1
10
210.699617792797
20
5.16289359135081
30
0
41
1
10
210.897972607934
20
6.27042699772383
30
0
41
1
10
210.997150015503
20
6.80012885625229
30
0
41
1
10
211.096327423072
20
7.29195516933518
30
0
0
SPLINE
5
E4
100
AcDbEntity
8
1
62
256
6
ByLayer
370
13
48
1
60
0
100
AcDbSpline
70
4
71
3
72
22
73
18
40
0
40
0
40
0
40
0
40
0.125
40
0.125
40
0.25
40
0.25
40
0.375
40
0.375
40
0.5
40
0.5
40
0.625
40
0.625
40
0.75
40
0.75
40
0.875
40
0.875
40
1
40
1
40
1
40
1
41
1
10
200.1
20
6.3742900925665
30
0
41
1
10
200.168866176833
20
6.74378006070467
30
0
41
1
10
200.237732353665
20
7.0988918596972
30
0
41
1
10
200.375464707331
20
7.77151459890496
30
0
41
1
10
200.444330884164
20
8.08900399815792
30
0
41
1
10
200.582063237829
20
8.67913774594237
30
0
41
1
10
200.650929414662
20
8.95176811559773
30
0
41
1
10
200.788661768327
20
9.44713644658529
30
0
41
1
10
200.85752794516
20
9.66986990321561
30
0
41
1
10
200.995260298826
20
10.06287672718
30
0
41
1
10
201.064126475658
20
10.2331549489072
30
0
41
1
10
201.201858829323
20
10.5211556791675
30
0
41
1
10
201.270725006156
20
10.6388904978883
30
0
41
1
10
201.408457359822
20
10.8239145744212
30
0
41
1
10
201.477323536654
20
10.8912206422771
30
0
41
1
10
201.61505589032
20
10.9792542617006
30
0
41
1
10
201.683922067153
20
11
30
0
41
1
10
201.752788243985
20
11
30
0
0
SPLINE
5
E5
100
AcDbEntity
8
1
62
256
6
ByLayer
370
13
48
1
60
0
100
AcDbSpline
70
4
71
3
72
117
73
113
40
0
40
0
40
0
40
0
40
0.0312500000000007
40
0.0312500000000007
40
0.0625000000000015
40
0.0625000000000015
40
0.0781250000000019
40
0.0781250000000019
40
0.0937500000000023
40
0.0937500000000023
40
0.109375000000003
40
0.109375000000003
40
0.125000000000003
40
0.125000000000003
40
0.140625000000003
40
0.140625000000003
40
0.156250000000004
40
0.156250000000004
40
0.171875000000004
40
0.171875000000004
40
0.187500000000005
40
0.187500000000005
40
0.218750000000006
40
0.218750000000006
40
0.250000000000007
40
0.250000000000007
40
0.265625000000008
40
0.265625000000008
40
0.273437500000008
40
0.273437500000008
40
0.277343750000008
40
0.277343750000008
40
0.281250000000008
40
0.281250000000008
40
0.312500000000006
40
0.312500000000006
40
0.343750000000004
40
0.343750000000004
40
0.359375000000003
40
0.359375000000003
40
0.375000000000003
40
0.375000000000003
40
0.390625000000002
40
0.390625000000002
40
0.406250000000001
40
0.406250000000001
40
0.421875000000001
40
0.421875000000001
40
0.4375
40
0.4375
40
0.453124999999999
40
0.453124999999999
40
0.468749999999998
40
0.468749999999998
40
0.499999999999997
40
0.499999999999997
40
0.531249999999996
40
0.531249999999996
40
0.546874999999996
40
0.546874999999996
40
0.550781249999996
40
0.550781249999996
40
0.554687499999995
40
0.562499999999995
40
0.562499999999995
40
0.593749999999995
40
0.593749999999995
40
0.624999999999995
40
0.624999999999995
40
0.640624999999994
40
0.640624999999994
40
0.656249999999994
40
0.656249999999994
40
0.671874999999994
40
0.671874999999994
40
0.687499999999994
40
0.687499999999994
40
0.703124999999993
40
0.703124999999993
40
0.718749999999993
40
0.718749999999993
40
0.734374999999993
40
0.734374999999993
40
0.749999999999992
40
0.749999999999992
40
0.781249999999992
40
0.781249999999992
40
0.812499999999992
40
0.812499999999992
40
0.820312499999992
40
0.820312499999992
40
0.824218749999992
40
0.824218749999992
40
0.828124999999992
40
0.828124999999992
40
0.843749999999993
40
0.843749999999993
40
0.874999999999994
40
0.874999999999994
40
0.906249999999995
40
0.906249999999995
40
0.921874999999996
40
0.921874999999996
40
0.937499999999997
40
0.937499999999997
40
0.953124999999998
40
0.953124999999998
40
0.968749999999999
40
0.968749999999999
40
0.984374999999999
40
0.984374999999999
40
1
40
1
40
1
40
1
41
1
10
201.083531047596
20
11
30
0
41
1
10
201.18783100984
20
11
30
0
41
1
10
201.292130972085
20
10.9522786829587
30
0
41
1
10
201.500730896574
20
10.7448153180496
30
0
41
1
10
201.605030858818
20
10.5849324997751
30
0
41
1
10
201.761480802185
20
10.2543349245477
30
0
41
1
10
201.813630783308
20
10.1290822484081
30
0
41
1
10
201.917930745552
20
9.84842025783948
30
0
41
1
10
201.970080726674
20
9.69300927422287
30
0
41
1
10
202.074380688919
20
9.35277467092448
30
0
41
1
10
202.126530670041
20
9.16795107045687
30
0
41
1
10
202.230830632286
20
8.77046084467634
30
0
41
1
10
202.282980613408
20
8.55779607374689
30
0
41
1
10
202.387280575653
20
8.10699099936872
30
0
41
1
10
202.439430556775
20
7.86885431462429
30
0
41
1
10
202.543730519019
20
7.37018819101928
30
0
41
1
10
202.595880500142
20
7.10966384241314
30
0
41
1
10
202.700180462386
20
6.56988847322927
30
0
41
1
10
202.752330443508
20
6.29064353891923
30
0
41
1
10
202.856630405753
20
5.71750673243554
30
0
41
1
10
202.908780386875
20
5.42362135922161
30
0
41
1
10
203.065230330242
20
4.52644823393763
30
0
41
1
10
203.169530292487
20
3.90773875640937
30
0
41
1
10
203.378130216976
20
2.66313531737711
30
0
41
1
10
203.48243017922
20
2.03738482245055
30
0
41
1
10
203.638880122587
20
1.11553250683363
30
0
41
1
10
203.691030103709
20
0.810992576216478
30
0
41
1
10
203.769255075393
20
0.360509331605584
30
0
41
1
10
203.795330065954
20
0.21139863128613
30
0
41
1
10
203.834442551795
20
-0.0104528771726393
30
0
41
1
10
203.847480047076
20
-0.0841629007707354
30
0
41
1
10
203.873555037637
20
-0.2325727865842
30
0
41
1
10
203.886592532918
20
-0.307071742450404
30
0
41
1
10
204.003929990443
20
-0.980029923687795
30
0
41
1
10
204.108229952687
20
-1.59609817693337
30
0
41
1
10
204.316829877177
20
-2.83898892236405
30
0
41
1
10
204.421129839421
20
-3.46571489031055
30
0
41
1
10
204.577579782788
20
-4.3898646000045
30
0
41
1
10
204.62972976391
20
-4.69521325217039
30
0
41
1
10
204.734029726155
20
-5.29620153197203
30
0
41
1
10
204.786179707277
20
-5.59183491810921
30
0
41
1
10
204.890479669522
20
-6.16907512467867
30
0
41
1
10
204.942629650644
20
-6.45067543684615
30
0
41
1
10
205.046929612888
20
-6.99572521912719
30
0
41
1
10
205.099079594011
20
-7.25916850665726
30
0
41
1
10
205.203379556255
20
-7.76416595135845
30
0
41
1
10
205.255529537377
20
-8.00571484291726
30
0
41
1
10
205.359829499622
20
-8.46374518232707
30
0
41
1
10
205.411979480744
20
-8.68022277777021
30
0
41
1
10
205.516279442989
20
-9.08563076206966
30
0
41
1
10
205.568429424111
20
-9.27455903405937
30
0
41
1
10
205.672729386356
20
-9.62317776206589
30
0
41
1
10
205.724879367478
20
-9.78286794016131
30
0
41
1
10
205.881329310845
20
-10.2167837284407
30
0
41
1
10
205.985629273089
20
-10.4454883380272
30
0
41
1
10
206.194229197578
20
-10.7842511565418
30
0
41
1
10
206.298529159823
20
-10.8944311163881
30
0
41
1
10
206.45497910319
20
-10.9803541242366
30
0
41
1
10
206.507129084312
20
-10.9958379707729
30
0
41
1
10
206.572316560715
20
-11.0001219757609
30
0
41
1
10
206.585354055995
20
-11.0002298436776
30
0
41
1
10
206.611429046557
20
-10.9989557298142
30
0
41
1
10
206.650541532398
20
-10.9947944648102
30
0
41
1
10
206.68965401824
20
-10.983717688505
30
0
41
1
10
206.820028971046
20
-10.9307348619873
30
0
41
1
10
206.92432893329
20
-10.8366715111418
30
0
41
1
10
207.132928857779
20
-10.5314560224319
30
0
41
1
10
207.237228820024
20
-10.3201756101386
30
0
41
1
10
207.393678763391
20
-9.91212645175875
30
0
41
1
10
207.445828744513
20
-9.76100992568092
30
0
41
1
10
207.550128706757
20
-9.42920701274755
30
0
41
1
10
207.60227868788
20
-9.24852038948785
30
0
41
1
10
207.706578650124
20
-8.85902900624498
30
0
41
1
10
207.758728631246
20
-8.65022583671615
30
0
41
1
10
207.863028593491
20
-8.20675834895465
30
0
41
1
10
207.915178574613
20
-7.97209740964524
30
0
41
1
10
208.019478536858
20
-7.47990172277392
30
0
41
1
10
208.07162851798
20
-7.22237188021668
30
0
41
1
10
208.175928480225
20
-6.68803058635945
30
0
41
1
10
208.228078461347
20
-6.4112251128756
30
0
41
1
10
208.332378423591
20
-5.84236444608663
30
0
41
1
10
208.384528404714
20
-5.5503157300061
30
0
41
1
10
208.488828366958
20
-4.95525101622033
30
0
41
1
10
208.540978348081
20
-4.65224139343977
30
0
41
1
10
208.697428291447
20
-3.73326841006227
30
0
41
1
10
208.801728253692
20
-3.10752110926717
30
0
41
1
10
209.010328178181
20
-1.86233563994028
30
0
41
1
10
209.114628140426
20
-1.24300613746277
30
0
41
1
10
209.245003093231
20
-0.489264349487513
30
0
41
1
10
209.271078083792
20
-0.339517622434272
30
0
41
1
10
209.310190569634
20
-0.116646174821966
30
0
41
1
10
209.323228064915
20
-0.0427831179118812
30
0
41
1
10
209.349303055476
20
0.104940411234793
30
0
41
1
10
209.362340550756
20
0.179107082613399
30
0
41
1
10
209.427528027159
20
0.551368806786883
30
0
41
1
10
209.479678008281
20
0.853769738955037
30
0
41
1
10
209.636127951648
20
1.7705522955259
30
0
41
1
10
209.740427913893
20
2.39473333421063
30
0
41
1
10
209.949027838382
20
3.64080809198609
30
0
41
1
10
210.053327800626
20
4.26256960851583
30
0
41
1
10
210.209777743993
20
5.16809443958289
30
0
41
1
10
210.261927725115
20
5.46538687334532
30
0
41
1
10
210.36622768736
20
6.0465565175333
30
0
41
1
10
210.418377668482
20
6.33042722270096
30
0
41
1
10
210.522677630727
20
6.88058940377061
30
0
41
1
10
210.574827611849
20
7.146874613074
30
0
41
1
10
210.679127574094
20
7.65806090019606
30
0
41
1
10
210.731277555216
20
7.90295654736778
30
0
41
1
10
210.835577517461
20
8.36809567124706
30
0
41
1
10
210.887727498583
20
8.58833506853784
30
0
41
1
10
210.992027460827
20
9.00157505888834
30
0
41
1
10
211.044177441949
20
9.19457327472361
30
0
41
1
10
211.096327423072
20
9.37304849018
30
0
0
SPLINE
5
E6
100
AcDbEntity
8
1
62
256
6
ByLayer
370
13
48
1
60
0
100
AcDbSpline
70
4
71
3
72
14
73
10
40
0
40
0
40
0
40
0
40
0.25
40
0.25
40
0.5
40
0.5
40
0.75
40
0.75
40
1
40
1
40
1
40
1
41
1
10
200.1
20
8.7108512256853
30
0
41
1
10
200.196751916258
20
9.10092938530536
30
0
41
1
10
200.293503832516
20
9.44435869426607
30
0
41
1
10
200.487007665032
20
10.0279417115818
30
0
41
1
10
200.58375958129
20
10.2681111700845
30
0
41
1
10
200.777263413806
20
10.6448152876015
30
0
41
1
10
200.874015330064
20
10.7814225580193
30
0
41
1
10
201.06751916258
20
10.9589660668547
30
0
41
1
10
201.164271078838
20
11
30
0
41
1
10
201.261022995096
20
11
30
0
0
SPLINE
5
E7
100
AcDbEntity
8
1
62
256
6
ByLayer
370
13
48
1
60
0
100
AcDbSpline
70
4
71
3
72
134
73
130
40
0
40
0
40
0
40
0
40
0.0312500000000009
40
0.0312500000000009
40
0.0468750000000013
40
0.0468750000000013
40
0.0625000000000017
40
0.0625000000000017
40
0.0781250000000022
40
0.0781250000000022
40
0.0937500000000026
40
0.0937500000000026
40
0.109375000000003
40
0.109375000000003
40
0.125000000000003
40
0.125000000000003
40
0.140625000000004
40
0.140625000000004
40
0.156250000000004
40
0.156250000000004
40
0.171875000000005
40
0.171875000000005
40
0.187500000000005
40
0.187500000000005
40
0.203125000000005
40
0.203125000000005
40
0.218750000000006
40
0.218750000000006
40
0.234375000000006
40
0.234375000000006
40
0.250000000000007
40
0.250000000000007
40
0.257812500000007
40
0.257812500000007
40
0.265625000000007
40
0.265625000000007
40
0.281250000000007
40
0.281250000000007
40
0.296875000000007
40
0.296875000000007
40
0.312500000000007
40
0.312500000000007
40
0.328125000000007
40
0.328125000000007
40
0.343750000000007
40
0.343750000000007
40
0.359375000000007
40
0.359375000000007
40
0.375000000000007
40
0.375000000000007
40
0.390625000000007
40
0.390625000000007
40
0.406250000000007
40
0.406250000000007
40
0.421875000000007
40
0.421875000000007
40
0.437500000000007
40
0.437500000000007
40
0.453125000000007
40
0.453125000000007
40
0.468750000000007
40
0.468750000000007
40
0.484375000000007
40
0.484375000000007
40
0.500000000000007
40
0.500000000000007
40
0.515625000000007
40
0.515625000000007
40
0.523437500000007
40
0.523437500000007
40
0.531250000000007
40
0.531250000000007
40
0.562500000000007
40
0.562500000000007
40
0.578125000000006
40
0.578125000000006
40
0.593750000000006
40
0.593750000000006
40
0.609375000000006
40
0.609375000000006
40
0.625000000000006
40
0.625000000000006
40
0.640625000000005
40
0.640625000000005
40
0.656250000000005
40
0.656250000000005
40
0.671875000000005
40
0.671875000000005
40
0.687500000000005
40
0.687500000000005
40
0.703125000000004
40
0.703125000000004
40
0.718750000000004
40
0.718750000000004
40
0.734375000000004
40
0.734375000000004
40
0.750000000000004
40
0.750000000000004
40
0.781250000000003
40
0.781250000000003
40
0.789062500000003
40
0.789062500000003
40
0.796875000000003
40
0.796875000000003
40
0.812500000000003
40
0.812500000000003
40
0.828125000000003
40
0.828125000000003
40
0.843750000000002
40
0.843750000000002
40
0.859375000000002
40
0.859375000000002
40
0.875000000000002
40
0.875000000000002
40
0.890625000000002
40
0.890625000000002
40
0.906250000000001
40
0.906250000000001
40
0.921875000000001
40
0.921875000000001
40
0.937500000000001
40
0.937500000000001
40
0.953125000000001
40
0.953125000000001
40
0.96875
40
0.96875
40
0.984375
40
0.984375
40
1
40
1
40
1
40
1
41
1
10
200.591765798706
20
11
30
0
41
1
10
200.701188315627
20
11
30
0
41
1
10
200.810610832547
20
10.9474473830871
30
0
41
1
10
200.974744607928
20
10.7755645406325
30
0
41
1
10
201.029455866388
20
10.702812111137
30
0
41
1
10
201.138878383308
20
10.5248608606911
30
0
41
1
10
201.193589641769
20
10.4196571277201
30
0
41
1
10
201.303012158689
20
10.1760347013616
30
0
41
1
10
201.357723417149
20
10.0376124527975
30
0
41
1
10
201.46714593407
20
9.72768670913536
30
0
41
1
10
201.52185719253
20
9.556181590785
30
0
41
1
10
201.63127970945
20
9.18120590786774
30
0
41
1
10
201.685990967911
20
8.97773604790277
30
0
41
1
10
201.795413484831
20
8.54094386540729
30
0
41
1
10
201.850124743292
20
8.30762469443633
30
0
41
1
10
201.959547260212
20
7.81418637385221
30
0
41
1
10
202.014258518672
20
7.55407261470106
30
0
41
1
10
202.123681035593
20
7.01090783589331
30
0
41
1
10
202.178392294053
20
6.72786392693106
30
0
41
1
10
202.287814810973
20
6.14332198641142
30
0
41
1
10
202.342526069434
20
5.84183204044263
30
0
41
1
10
202.451948586354
20
5.22527056675128
30
0
41
1
10
202.506659844814
20
4.91020725857754
30
0
41
1
10
202.616082361735
20
4.27151312002357
30
0
41
1
10
202.670793620195
20
3.94788985049337
30
0
41
1
10
202.780216137116
20
3.29699167443371
30
0
41
1
10
202.834927395576
20
2.96972304634824
30
0
41
1
10
202.944349912496
20
2.31614204111551
30
0
41
1
10
202.999061170957
20
1.9898342772579
30
0
41
1
10
203.108483687877
20
1.34231026284954
30
0
41
1
10
203.163194946337
20
1.02109683373629
30
0
41
1
10
203.245261834028
20
0.545758463887267
30
0
41
1
10
203.272617463258
20
0.388387818712232
30
0
41
1
10
203.327328721718
20
0.0761810674945309
30
0
41
1
10
203.354684350948
20
-0.0779846274610065
30
0
41
1
10
203.436751238639
20
-0.54632414803541
30
0
41
1
10
203.491462497099
20
-0.863636856566785
30
0
41
1
10
203.600885014019
20
-1.50520415968856
30
0
41
1
10
203.655596272479
20
-1.82945680116933
30
0
41
1
10
203.7650187894
20
-2.48105273328193
30
0
41
1
10
203.81973004786
20
-2.80839230237555
30
0
41
1
10
203.929152564781
20
-3.4617757499681
30
0
41
1
10
203.983863823241
20
-3.78781414780576
30
0
41
1
10
204.093286340161
20
-4.43381210290647
30
0
41
1
10
204.147997598621
20
-4.75376467410118
30
0
41
1
10
204.257420115542
20
-5.38259926486202
30
0
41
1
10
204.312131374002
20
-5.69147330207434
30
0
41
1
10
204.421553890923
20
-6.2931773096561
30
0
41
1
10
204.476265149383
20
-6.58599902235284
30
0
41
1
10
204.585687666303
20
-7.1508896477055
30
0
41
1
10
204.640398924764
20
-7.42295086156639
30
0
41
1
10
204.749821441684
20
-7.94211919282208
30
0
41
1
10
204.804532700144
20
-8.18921998132396
30
0
41
1
10
204.913955217065
20
-8.65498709247208
30
0
41
1
10
204.968666475525
20
-8.8736491018195
30
0
41
1
10
205.078088992445
20
-9.27994114607603
30
0
41
1
10
205.132800250906
20
-9.46756925256094
30
0
41
1
10
205.242222767826
20
-9.81017360967081
30
0
41
1
10
205.296934026286
20
-9.96515035820622
30
0
41
1
10
205.406356543207
20
-10.2418310486236
30
0
41
1
10
205.461067801667
20
-10.3635376468121
30
0
41
1
10
205.570490318588
20
-10.5740073907263
30
0
41
1
10
205.625201577048
20
-10.6627748512526
30
0
41
1
10
205.734624093968
20
-10.8085392889452
30
0
41
1
10
205.789335352429
20
-10.8655416179717
30
0
41
1
10
205.898757869349
20
-10.9496448890249
30
0
41
1
10
205.953469127809
20
-10.9767515898677
30
0
41
1
10
206.0355360155
20
-10.9967827061086
30
0
41
1
10
206.06289164473
20
-11.0000251601255
30
0
41
1
10
206.11760290319
20
-10.9999745459164
30
0
41
1
10
206.14495853242
20
-10.9966801587714
30
0
41
1
10
206.281736678571
20
-10.963029005922
30
0
41
1
10
206.391159195491
20
-10.8808197582083
30
0
41
1
10
206.555292970872
20
-10.6618047536983
30
0
41
1
10
206.610004229332
20
-10.5729115160934
30
0
41
1
10
206.719426746253
20
-10.3621872208761
30
0
41
1
10
206.774138004713
20
-10.240351853727
30
0
41
1
10
206.883560521634
20
-9.96341412997313
30
0
41
1
10
206.938271780094
20
-9.80830912457145
30
0
41
1
10
207.047694297014
20
-9.46545257152894
30
0
41
1
10
207.102405555474
20
-9.27770053503673
30
0
41
1
10
207.211828072395
20
-8.87116882158307
30
0
41
1
10
207.266539330855
20
-8.65239108257461
30
0
41
1
10
207.375961847776
20
-8.1864043524084
30
0
41
1
10
207.430673106236
20
-7.93919968326995
30
0
41
1
10
207.540095623156
20
-7.41983857820364
30
0
41
1
10
207.594806881617
20
-7.14768847786686
30
0
41
1
10
207.704229398537
20
-6.58263747603621
30
0
41
1
10
207.758940656997
20
-6.28974427712785
30
0
41
1
10
207.868363173918
20
-5.68791620410207
30
0
41
1
10
207.923074432378
20
-5.37898958816785
30
0
41
1
10
208.032496949298
20
-4.75006929351801
30
0
41
1
10
208.087208207759
20
-4.43008359457755
30
0
41
1
10
208.196630724679
20
-3.78403845246922
30
0
41
1
10
208.251341983139
20
-3.45798599036425
30
0
41
1
10
208.36076450006
20
-2.80459228271752
30
0
41
1
10
208.41547575852
20
-2.47725651134732
30
0
41
1
10
208.579609533901
20
-1.49989805106057
30
0
41
1
10
208.689032050821
20
-0.854845488054508
30
0
41
1
10
208.825810196972
20
-0.0743776268181477
30
0
41
1
10
208.853165826202
20
0.0797883066567522
30
0
41
1
10
208.907877084662
20
0.392034238642196
30
0
41
1
10
208.935232713892
20
0.5494230669768
30
0
41
1
10
209.017299601583
20
1.02481129317147
30
0
41
1
10
209.072010860043
20
1.34605169470453
30
0
41
1
10
209.181433376963
20
1.99361472834471
30
0
41
1
10
209.236144635424
20
2.31993453213542
30
0
41
1
10
209.345567152344
20
2.97352261091143
30
0
41
1
10
209.400278410804
20
3.30078626575559
30
0
41
1
10
209.509700927725
20
3.95165594435403
30
0
41
1
10
209.564412186185
20
4.27525568379318
30
0
41
1
10
209.673834703106
20
4.91388339728761
30
0
41
1
10
209.728545961566
20
5.22890380659999
30
0
41
1
10
209.837968478486
20
5.84536018485011
30
0
41
1
10
209.892679736947
20
6.146787933154
30
0
41
1
10
210.002102253867
20
6.73118720646912
30
0
41
1
10
210.056813512327
20
7.01415064805934
30
0
41
1
10
210.166236029248
20
7.55713818980576
30
0
41
1
10
210.220947287708
20
7.8171551845991
30
0
41
1
10
210.330369804628
20
8.31038647403099
30
0
41
1
10
210.385081063089
20
8.54359538605766
30
0
41
1
10
210.494503580009
20
8.98015697768378
30
0
41
1
10
210.549214838469
20
9.1835065150122
30
0
41
1
10
210.65863735539
20
9.55823527709265
30
0
41
1
10
210.71334861385
20
9.72961380668858
30
0
41
1
10
210.82277113077
20
10.0392839765834
30
0
41
1
10
210.877482389231
20
10.1775772485299
30
0
41
1
10
210.986904906151
20
10.4209430144513
30
0
41
1
10
211.041616164612
20
10.5260190700442
30
0
41
1
10
211.096327423072
20
10.6148693008381
30
0
0
SPLINE
5
E8
100
AcDbEntity
8
1
62
256
6
ByLayer
370
13
48
1
60
0
100
AcDbSpline
70
4
71
3
72
8
73
4
40
0
40
0
40
0
40
0
40
1
40
1
40
1
40
1
41
1
10
210.918836025388
20
11
30
0
41
1
10
210.977999824616
20
11
30
0
41
1
10
211.037163623844
20
10.9846959683824
30
0
41
1
10
211.096327423072
20
10.9524648183306
30
0
0
SPLINE
5
E9
100
AcDbEntity
8
1
62
256
6
ByLayer
370
13
48
1
60
0
100
AcDbSpline
70
4
71
3
72
14
73
10
40
0
40
0
40
0
40
0
40
0.25
40
0.25
40
0.5
40
0.5
40
0.75
40
0.75
40
1
40
1
40
1
40
1
41
1
10
200.1
20
10.2692209552281
30
0
41
1
10
200.155771478851
20
10.3960124877207
30
0
41
1
10
200.211542957701
20
10.5055331365777
30
0
41
1
10
200.323085915402
20
10.6907754255769
30
0
41
1
10
200.378857394252
20
10.7665024034917
30
0
41
1
10
200.490400351954
20
10.8857527634152
30
0
41
1
10
200.546171830804
20
10.9292823234134
30
0
41
1
10
200.657714788505
20
10.9864027765364
30
0
41
1
10
200.713486267355
20
11
30
0
41
1
10
200.769257746206
20
11
30
0
0
SPLINE
5
EA
100
AcDbEntity
8
1
62
256
6
ByLayer
370
13
48
1
60
0
100
AcDbSpline
70
4
71
3
72
134
73
130
40
0
40
0
40
0
40
0
40
0.015625
40
0.015625
40
0.03125
40
0.03125
40
0.0468749999999999
40
0.0468749999999999
40
0.0624999999999999
40
0.0624999999999999
40
0.0781249999999999
40
0.0781249999999999
40
0.0937499999999999
40
0.0937499999999999
40
0.109375
40
0.109375
40
0.125
40
0.125
40
0.140625
40
0.140625
40
0.15625
40
0.15625
40
0.171875
40
0.171875
40
0.1875
40
0.1875
40
0.203125
40
0.203125
40
0.21875
40
0.21875
40
0.234375
40
0.234375
40
0.25
40
0.25
40
0.265625
40
0.265625
40
0.281249999999999
40
0.281249999999999
40
0.296874999999999
40
0.296874999999999
40
0.312499999999999
40
0.312499999999999
40
0.328124999999999
40
0.328124999999999
40
0.343749999999999
40
0.343749999999999
40
0.359374999999999
40
0.359374999999999
40
0.374999999999999
40
0.374999999999999
40
0.390624999999999
40
0.390624999999999
40
0.406249999999999
40
0.406249999999999
40
0.421874999999999
40
0.421874999999999
40
0.437499999999999
40
0.437499999999999
40
0.453124999999999
40
0.453124999999999
40
0.46875
40
0.46875
40
0.484375
40
0.484375
40
0.5
40
0.5
40
0.515625
40
0.515625
40
0.53125
40
0.53125
40
0.546874999999999
40
0.546874999999999
40
0.562499999999999
40
0.562499999999999
40
0.578124999999999
40
0.578124999999999
40
0.593749999999999
40
0.593749999999999
40
0.609374999999999
40
0.609374999999999
40
0.624999999999999
40
0.624999999999999
40
0.640624999999999
40
0.640624999999999
40
0.656249999999999
40
0.656249999999999
40
0.671874999999999
40
0.671874999999999
40
0.687499999999999
40
0.687499999999999
40
0.703124999999999
40
0.703124999999999
40
0.718749999999999
40
0.718749999999999
40
0.734374999999999
40
0.734374999999999
40
0.749999999999999
40
0.749999999999999
40
0.765624999999999
40
0.765624999999999
40
0.781249999999999
40
0.781249999999999
40
0.796874999999999
40
0.796874999999999
40
0.812499999999999
40
0.812499999999999
40
0.828124999999999
40
0.828124999999999
40
0.84375
40
0.84375
40
0.859375
40
0.859375
40
0.875
40
0.875
40
0.890625
40
0.890625
40
0.90625
40
0.90625
40
0.921875
40
0.921875
40
0.9375
40
0.9375
40
0.953125
40
0.953125
40
0.96875
40
0.96875
40
0.984375
40
0.984375
40
1
40
1
40
1
40
1
41
1
10
200.100000549817
20
11
30
0
41
1
10
200.157273085615
20
11
30
0
41
1
10
200.214545621413
20
10.9856600340683
30
0
41
1
10
200.329090693009
20
10.9253479644618
30
0
41
1
10
200.386363228807
20
10.8793686286551
30
0
41
1
10
200.500908300404
20
10.7533495143153
30
0
41
1
10
200.558180836202
20
10.673302713203
30
0
41
1
10
200.672725907799
20
10.4774744550344
30
0
41
1
10
200.729998443597
20
10.3616870184628
30
0
41
1
10
200.844543515193
20
10.0936557657294
30
0
41
1
10
200.901816050991
20
9.94140788836106
30
0
41
1
10
201.016361122588
20
9.60084051731906
30
0
41
1
10
201.073633658386
20
9.41251963662202
30
0
41
1
10
201.188178729982
20
9.00138198021222
30
0
41
1
10
201.24545126578
20
8.77856695647657
30
0
41
1
10
201.359996337377
20
8.30120367140142
30
0
41
1
10
201.417268873175
20
8.04666034126825
30
0
41
1
10
201.531813944771
20
7.50968948920084
30
0
41
1
10
201.58908648057
20
7.22726964428318
30
0
41
1
10
201.703631552166
20
6.63928993027252
30
0
41
1
10
201.760904087964
20
6.33373963656311
30
0
41
1
10
201.875449159561
20
5.70487588120571
30
0
41
1
10
201.932721695359
20
5.38157278940955
30
0
41
1
10
202.047266766955
20
4.72290934461725
30
0
41
1
10
202.104539302754
20
4.38755900733298
30
0
41
1
10
202.21908437435
20
3.71052582168798
30
0
41
1
10
202.276356910148
20
3.36885164748955
30
0
41
1
10
202.390901981744
20
2.68463041334002
30
0
41
1
10
202.448174517543
20
2.34209000685081
30
0
41
1
10
202.562719589139
20
1.6610985762984
30
0
41
1
10
202.619992124938
20
1.32265187438105
30
0
41
1
10
202.734537196534
20
0.654147263503859
30
0
41
1
10
202.791809732332
20
0.324091379149138
30
0
41
1
10
202.906354803929
20
-0.324089823514242
30
0
41
1
10
202.963627339727
20
-0.654145672417997
30
0
41
1
10
203.078172411323
20
-1.32265025664478
30
0
41
1
10
203.135444947121
20
-1.66109694838144
30
0
41
1
10
203.249990018718
20
-2.34208836600888
30
0
41
1
10
203.307262554516
20
-2.68462876975758
30
0
41
1
10
203.421807626112
20
-3.36885000680999
30
0
41
1
10
203.479080161911
20
-3.71052418665539
30
0
41
1
10
203.593625233507
20
-4.38755739260617
30
0
41
1
10
203.650897769305
20
-4.72290774455203
30
0
41
1
10
203.765442840902
20
-5.38157122789005
30
0
41
1
10
203.8227153767
20
-5.70487434357176
30
0
41
1
10
203.937260448296
20
-6.33373815565082
30
0
41
1
10
203.994532984094
20
-6.63928848219606
30
0
41
1
10
204.109078055691
20
-7.22726827005678
30
0
41
1
10
204.166350591489
20
-7.50968815598657
30
0
41
1
10
204.280895663085
20
-8.04665909702217
30
0
41
1
10
204.338168198883
20
-8.30120247510771
30
0
41
1
10
204.45271327048
20
-8.77856586142624
30
0
41
1
10
204.509985806278
20
-9.00138093844805
30
0
41
1
10
204.624530877874
20
-9.41251870492513
30
0
41
1
10
204.681803413673
20
-9.60083964239809
30
0
41
1
10
204.796348485269
20
-9.94140712855832
30
0
41
1
10
204.853621021067
20
-10.0936550642643
30
0
41
1
10
204.968166092664
20
-10.3616864333776
30
0
41
1
10
205.025438628462
20
-10.4774739279879
30
0
41
1
10
205.139983700059
20
-10.6733023002735
30
0
41
1
10
205.197256235857
20
-10.7533491574617
30
0
41
1
10
205.311801307453
20
-10.8793683806167
30
0
41
1
10
205.369073843251
20
-10.9253477691615
30
0
41
1
10
205.483618914848
20
-10.9856599398704
30
0
41
1
10
205.540891450646
20
-10.9999999541665
30
0
41
1
10
205.655436522242
20
-11.0000000458332
30
0
41
1
10
205.712709058041
20
-10.985660128266
30
0
41
1
10
205.827254129637
20
-10.9253481597618
30
0
41
1
10
205.884526665435
20
-10.8793688766933
30
0
41
1
10
205.999071737032
20
-10.7533498711685
30
0
41
1
10
206.05634427283
20
-10.6733031261322
30
0
41
1
10
206.170889344426
20
-10.4774749820806
30
0
41
1
10
206.228161880224
20
-10.3616876035477
30
0
41
1
10
206.342706951821
20
-10.0936564671943
30
0
41
1
10
206.399979487619
20
-9.9414086481635
30
0
41
1
10
206.514524559215
20
-9.60084139223974
30
0
41
1
10
206.571797095014
20
-9.41252056831866
30
0
41
1
10
206.68634216661
20
-9.00138302197612
30
0
41
1
10
206.743614702408
20
-8.77856805152666
30
0
41
1
10
206.858159774005
20
-8.30120486769493
30
0
41
1
10
206.915432309803
20
-8.04666158551407
30
0
41
1
10
207.029977381399
20
-7.50969082241494
30
0
41
1
10
207.087249917197
20
-7.22727101850938
30
0
41
1
10
207.201794988794
20
-6.63929137834884
30
0
41
1
10
207.259067524592
20
-6.33374111747523
30
0
41
1
10
207.373612596189
20
-5.70487741883952
30
0
41
1
10
207.430885131987
20
-5.38157435092893
30
0
41
1
10
207.545430203583
20
-4.72291094468238
30
0
41
1
10
207.602702739381
20
-4.38756062205974
30
0
41
1
10
207.717247810978
20
-3.71052745672054
30
0
41
1
10
207.774520346776
20
-3.36885328816908
30
0
41
1
10
207.889065418372
20
-2.68463205692245
30
0
41
1
10
207.946337954171
20
-2.34209164769277
30
0
41
1
10
208.060883025767
20
-1.66110020421539
30
0
41
1
10
208.118155561565
20
-1.32265349211735
30
0
41
1
10
208.232700633162
20
-0.654148854589806
30
0
41
1
10
208.28997316896
20
-0.324092953768883
30
0
41
1
10
208.404518240556
20
0.324088286864054
30
0
41
1
10
208.461790776354
20
0.654144081332191
30
0
41
1
10
208.576335847951
20
1.32264863890856
30
0
41
1
10
208.633608383749
20
1.66109532046451
30
0
41
1
10
208.748153455345
20
2.34208672516695
30
0
41
1
10
208.805425991144
20
2.68462712617514
30
0
41
1
10
208.91997106274
20
3.36884836613041
30
0
41
1
10
208.977243598538
20
3.71052255162274
30
0
41
1
10
209.091788670135
20
4.3875557778793
30
0
41
1
10
209.149061205933
20
4.72290614448676
30
0
41
1
10
209.263606277529
20
5.38156966637047
30
0
41
1
10
209.320878813328
20
5.70487280593767
30
0
41
1
10
209.435423884924
20
6.33373667473842
30
0
41
1
10
209.492696420722
20
6.63928703411943
30
0
41
1
10
209.607241492319
20
7.22726689583021
30
0
41
1
10
209.664514028117
20
7.50968682277207
30
0
41
1
10
209.779059099713
20
8.04665785277589
30
0
41
1
10
209.836331635511
20
8.30120127881378
30
0
41
1
10
209.950876707108
20
8.77856476637567
30
0
41
1
10
210.008149242906
20
9.00137989668363
30
0
41
1
10
210.122694314503
20
9.41251777322799
30
0
41
1
10
210.179966850301
20
9.60083876747683
30
0
41
1
10
210.294511921897
20
9.94140636875534
30
0
41
1
10
210.351784457695
20
10.0936543627988
30
0
41
1
10
210.466329529291
20
10.3616858482922
30
0
41
1
10
210.52360206509
20
10.4774734009412
30
0
41
1
10
210.638147136686
20
10.6733018873438
30
0
41
1
10
210.695419672484
20
10.7533488006079
30
0
41
1
10
210.809964744081
20
10.8793681325779
30
0
41
1
10
210.867237279879
20
10.925347573861
30
0
41
1
10
210.981782351475
20
10.9856598456723
30
0
41
1
10
211.039054887273
20
10.9999999083329
30
0
41
1
10
211.096327423072
20
10.9999999999996
30
0
0
SPLINE
5
EB
100
AcDbEntity
8
1
62
256
6
ByLayer
370
13
48
1
60
0
100
AcDbSpline
70
4
71
3
72
14
73
10
40
0
40
0
40
0
40
0
40
0.25
40
0.25
40
0.5
40
0.5
40
0.75
40
0.75
40
1
40
1
40
1
40
1
41
1
10
210.427070776499
20
11
30
0
41
1
10
210.482842163713
20
11
30
0
41
1
10
210.538613550927
20
10.9864028212738
30
0
41
1
10
210.650156325356
20
10.9292825602333
30
0
41
1
10
210.705927712571
20
10.8857531476325
30
0
41
1
10
210.817470487
20
10.7665031948885
30
0
41
1
10
210.873241874214
20
10.690776476805
30
0
41
1
10
210.984784648643
20
10.5055348246301
30
0
41
1
10
211.040556035857
20
10.3960145528039
30
0
41
1
10
211.096327423072
20
10.2692234551438
30
0
0
SPLINE
5
EC
100
AcDbEntity
8
1
62
256
6
ByLayer
370
13
48
1
60
0
100
AcDbSpline
70
4
71
3
72
8
73
4
40
0
40
0
40
0
40
0
40
1
40
1
40
1
40
1
41
1
10
200.1
20
10.9524642192727
30
0
41
1
10
200.159164165772
20
10.9846957784841
30
0
41
1
10
200.218328331544
20
11
30
0
41
1
10
200.277492497316
20
11
30
0
0
SPLINE
5
ED
100
AcDbEntity
8
1
62
256
6
ByLayer
370
13
48
1
60
0
100
AcDbSpline
70
4
71
3
72
134
73
130
40
0
40
0
40
0
40
0
40
0.0156250000000002
40
0.0156250000000002
40
0.0312500000000004
40
0.0312500000000004
40
0.0468750000000007
40
0.0468750000000007
40
0.0625000000000009
40
0.0625000000000009
40
0.0781250000000011
40
0.0781250000000011
40
0.0937500000000013
40
0.0937500000000013
40
0.109375000000001
40
0.109375000000001
40
0.125000000000002
40
0.125000000000002
40
0.140625000000002
40
0.140625000000002
40
0.156250000000002
40
0.156250000000002
40
0.171875000000002
40
0.171875000000002
40
0.187500000000003
40
0.187500000000003
40
0.203125000000003
40
0.203125000000003
40
0.210937500000003
40
0.210937500000003
40
0.218750000000004
40
0.218750000000004
40
0.250000000000004
40
0.250000000000004
40
0.265625000000004
40
0.265625000000004
40
0.281250000000005
40
0.281250000000005
40
0.296875000000005
40
0.296875000000005
40
0.312500000000005
40
0.312500000000005
40
0.328125000000005
40
0.328125000000005
40
0.343750000000005
40
0.343750000000005
40
0.359375000000006
40
0.359375000000006
40
0.375000000000006
40
0.375000000000006
40
0.390625000000006
40
0.390625000000006
40
0.406250000000006
40
0.406250000000006
40
0.421875000000006
40
0.421875000000006
40
0.437500000000007
40
0.437500000000007
40
0.468750000000007
40
0.468750000000007
40
0.476562500000007
40
0.476562500000007
40
0.484375000000008
40
0.484375000000008
40
0.500000000000008
40
0.500000000000008
40
0.515625000000008
40
0.515625000000008
40
0.531250000000008
40
0.531250000000008
40
0.546875000000009
40
0.546875000000009
40
0.562500000000009
40
0.562500000000009
40
0.578125000000009
40
0.578125000000009
40
0.593750000000009
40
0.593750000000009
40
0.609375000000009
40
0.609375000000009
40
0.62500000000001
40
0.62500000000001
40
0.64062500000001
40
0.64062500000001
40
0.65625000000001
40
0.65625000000001
40
0.67187500000001
40
0.67187500000001
40
0.687500000000011
40
0.687500000000011
40
0.703125000000011
40
0.703125000000011
40
0.718750000000011
40
0.718750000000011
40
0.734375000000011
40
0.734375000000011
40
0.742187500000011
40
0.742187500000011
40
0.750000000000011
40
0.750000000000011
40
0.76562500000001
40
0.76562500000001
40
0.78125000000001
40
0.78125000000001
40
0.796875000000009
40
0.796875000000009
40
0.812500000000008
40
0.812500000000008
40
0.828125000000007
40
0.828125000000007
40
0.843750000000007
40
0.843750000000007
40
0.859375000000006
40
0.859375000000006
40
0.875000000000005
40
0.875000000000005
40
0.890625000000005
40
0.890625000000005
40
0.906250000000004
40
0.906250000000004
40
0.921875000000003
40
0.921875000000003
40
0.937500000000003
40
0.937500000000003
40
0.953125000000002
40
0.953125000000002
40
0.968750000000001
40
0.968750000000001
40
1
40
1
40
1
40
1
41
1
10
200.1
20
10.6148710866223
30
0
41
1
10
200.154711264188
20
10.5260210634782
30
0
41
1
10
200.209422528375
20
10.4209452160858
30
0
41
1
10
200.31884505675
20
10.1775798618326
30
0
41
1
10
200.373556320937
20
10.039286793341
30
0
41
1
10
200.482978849313
20
9.72961701943709
30
0
41
1
10
200.5376901135
20
9.55823868236223
30
0
41
1
10
200.647112641875
20
9.18351028830708
30
0
41
1
10
200.701823906062
20
8.98016092646762
30
0
41
1
10
200.811246434437
20
8.54359966325222
30
0
41
1
10
200.865957698625
20
8.3103909041339
30
0
41
1
10
200.975380227
20
7.81715989338647
30
0
41
1
10
201.030091491187
20
7.55714302435956
30
0
41
1
10
201.139514019563
20
7.01415570378865
30
0
41
1
10
201.19422528375
20
6.73119235760282
30
0
41
1
10
201.303647812125
20
6.14679324307369
30
0
41
1
10
201.358359076312
20
5.84536555815222
30
0
41
1
10
201.467781604687
20
5.22890927459628
30
0
41
1
10
201.522492868875
20
4.91388889660155
30
0
41
1
10
201.63191539725
20
4.27526121513657
30
0
41
1
10
201.686626661437
20
3.95166147641899
30
0
41
1
10
201.796049189812
20
3.3007917713951
30
0
41
1
10
201.850760454
20
2.97352808941582
30
0
41
1
10
201.960182982375
20
2.31993993218003
30
0
41
1
10
202.014894246562
20
1.99362007707691
30
0
41
1
10
202.124316774937
20
1.34605692087524
30
0
41
1
10
202.179028039125
20
1.02481644810425
30
0
41
1
10
202.261094935406
20
0.549428103453124
30
0
41
1
10
202.2884505675
20
0.392039233700416
30
0
41
1
10
202.343161831687
20
0.0797932155653314
30
0
41
1
10
202.370517463781
20
-0.0743727349592973
30
0
41
1
10
202.50729562425
20
-0.854840545340181
30
0
41
1
10
202.616718152625
20
-1.49989310264976
30
0
41
1
10
202.780851945187
20
-2.47725161913937
30
0
41
1
10
202.835563209375
20
-2.80458741997063
30
0
41
1
10
202.94498573775
20
-3.45798120896492
30
0
41
1
10
202.999697001937
20
-3.78403372296182
30
0
41
1
10
203.109119530312
20
-4.43007899129069
30
0
41
1
10
203.1638307945
20
-4.75006476456235
30
0
41
1
10
203.273253322875
20
-5.37898522922399
30
0
41
1
10
203.327964587062
20
-5.68791194083781
30
0
41
1
10
203.437387115437
20
-6.2897402243602
30
0
41
1
10
203.492098379625
20
-6.58263353808067
30
0
41
1
10
203.601520907999
20
-7.14768478542507
30
0
41
1
10
203.656232172187
20
-7.41983501645507
30
0
41
1
10
203.765654700562
20
-7.93919639471557
30
0
41
1
10
203.820365964749
20
-8.18640120634404
30
0
41
1
10
203.929788493125
20
-8.65238822867701
30
0
41
1
10
203.984499757312
20
-8.8711661173503
30
0
41
1
10
204.093922285687
20
-9.27769813250845
30
0
41
1
10
204.148633549874
20
-9.46545032102904
30
0
41
1
10
204.258056078249
20
-9.80830717585542
30
0
41
1
10
204.312767342437
20
-9.96341233100333
30
0
41
1
10
204.422189870812
20
-10.2403503478076
30
0
41
1
10
204.476901134999
20
-10.3621858582546
30
0
41
1
10
204.586323663374
20
-10.5729104301728
30
0
41
1
10
204.641034927562
20
-10.6618038011777
30
0
41
1
10
204.805168720124
20
-10.8808191871523
30
0
41
1
10
204.914591248499
20
-10.9630286637667
30
0
41
1
10
205.051369408968
20
-10.9966800646544
30
0
41
1
10
205.078725041062
20
-10.9999744995355
30
0
41
1
10
205.133436305249
20
-11.0000252054405
30
0
41
1
10
205.160791937343
20
-10.9967827977541
30
0
41
1
10
205.242858833625
20
-10.9767518217587
30
0
41
1
10
205.297570097812
20
-10.9496452160232
30
0
41
1
10
205.406992626187
20
-10.8655421361614
30
0
41
1
10
205.461703890374
20
-10.8085399032155
30
0
41
1
10
205.571126418749
20
-10.6627756560526
30
0
41
1
10
205.625837682937
20
-10.5740082899705
30
0
41
1
10
205.735260211312
20
-10.3635387304719
30
0
41
1
10
205.789971475499
20
-10.2418322222484
30
0
41
1
10
205.899394003874
20
-9.96515170439062
30
0
41
1
10
205.954105268062
20
-9.81017503844245
30
0
41
1
10
206.063527796437
20
-9.46757083639133
30
0
41
1
10
206.118239060624
20
-9.27994280237084
30
0
41
1
10
206.227661588999
20
-8.87365089055436
30
0
41
1
10
206.282372853187
20
-8.65498894117667
30
0
41
1
10
206.391795381562
20
-8.18922193567843
30
0
41
1
10
206.446506645749
20
-7.94212119285282
30
0
41
1
10
206.555929174124
20
-7.4229529375821
30
0
41
1
10
206.610640438312
20
-7.15089175402861
30
0
41
1
10
206.720062966686
20
-6.58600117364628
30
0
41
1
10
206.774774230874
20
-6.29317947561404
30
0
41
1
10
206.884196759249
20
-5.69147548223614
30
0
41
1
10
206.938908023437
20
-5.3826014445672
30
0
41
1
10
207.048330551812
20
-4.75376683899864
30
0
41
1
10
207.103041815999
20
-4.43381425345851
30
0
41
1
10
207.212464344374
20
-3.78781625756574
30
0
41
1
10
207.267175608561
20
-3.46177783328793
30
0
41
1
10
207.376598136937
20
-2.80839432288326
30
0
41
1
10
207.431309401124
20
-2.48105471742406
30
0
41
1
10
207.540731929499
20
-1.82945870499759
30
0
41
1
10
207.595443193686
20
-1.5052060195741
30
0
41
1
10
207.704865722061
20
-0.863638623331838
30
0
41
1
10
207.759576986249
20
-0.546325865626955
30
0
41
1
10
207.84164388253
20
-0.0779862690147297
30
0
41
1
10
207.868999514624
20
0.0761794421256639
30
0
41
1
10
207.923710778812
20
0.388386208537952
30
0
41
1
10
207.951066410905
20
0.545756862203405
30
0
41
1
10
208.033133307186
20
1.02109526022963
30
0
41
1
10
208.087844571374
20
1.34230871174674
30
0
41
1
10
208.197267099749
20
1.98983277809191
30
0
41
1
10
208.251978363936
20
2.31614057148377
30
0
41
1
10
208.361400892311
20
2.96972164243212
30
0
41
1
10
208.416112156499
20
3.29699030669914
30
0
41
1
10
208.525534684874
20
3.94788856088633
30
0
41
1
10
208.580245949061
20
4.27151187236129
30
0
41
1
10
208.689668477436
20
4.91020609930041
30
0
41
1
10
208.744379741624
20
5.22526945391186
30
0
41
1
10
208.853802269999
20
5.84183102337792
30
0
41
1
10
208.908513534186
20
6.14332101867976
30
0
41
1
10
209.017936062561
20
6.72786305894175
30
0
41
1
10
209.072647326749
20
7.0109070183085
30
0
41
1
10
209.182069855124
20
7.55407189708538
30
0
41
1
10
209.236781119311
20
7.81418570579612
30
0
41
1
10
209.346203647686
20
8.30762412280023
30
0
41
1
10
209.400914911874
20
8.54094334062708
30
0
41
1
10
209.510337440249
20
8.97773561247811
30
0
41
1
10
209.565048704436
20
9.18120551493936
30
0
41
1
10
209.674471232811
20
9.55618127715937
30
0
41
1
10
209.729182496999
20
9.7276864323143
30
0
41
1
10
209.838605025374
20
10.0376122429664
30
0
41
1
10
209.893316289561
20
10.1760345217156
30
0
41
1
10
210.002738817936
20
10.419657001333
30
0
41
1
10
210.057450082123
20
10.5248607573791
30
0
41
1
10
210.166872610499
20
10.7028120467952
30
0
41
1
10
210.221583874686
20
10.7755644921881
30
0
41
1
10
210.385717667249
20
10.9474473720182
30
0
41
1
10
210.495140195623
20
11
30
0
41
1
10
210.604562723998
20
11
30
0
0
SPLINE
5
EE
100
AcDbEntity
8
1
62
256
6
ByLayer
370
13
48
1
60
0
100
AcDbSpline
70
4
71
3
72
14
73
10
40
0
40
0
40
0
40
0
40
0.25
40
0.25
40
0.5
40
0.5
40
0.75
40
0.75
40
1
40
1
40
1
40
1
41
1
10
209.935305527609
20
11
30
0
41
1
10
210.032057352231
20
11
30
0
41
1
10
210.128809176853
20
10.958966144931
30
0
41
1
10
210.322312826096
20
10.7814229844098
30
0
41
1
10
210.419064650718
20
10.6448159846817
30
0
41
1
10
210.612568299962
20
10.2681126137163
30
0
41
1
10
210.709320124584
20
10.0279436313367
30
0
41
1
10
210.902823773828
20
9.44436174903788
30
0
41
1
10
210.99957559845
20
9.10093309884806
30
0
41
1
10
211.096327423072
20
8.71085565911187
30
0
0
SPLINE
5
EF
100
AcDbEntity
8
1
62
256
6
ByLayer
370
13
48
1
60
0
100
AcDbSpline
70
4
71
3
72
118
73
114
40
0
40
0
40
0
40
0
40
0.0156250000000001
40
0.0156250000000001
40
0.0312500000000002
40
0.0312500000000002
40
0.0468750000000003
40
0.0468750000000003
40
0.0625000000000004
40
0.0625000000000004
40
0.0781250000000006
40
0.0781250000000006
40
0.0937500000000007
40
0.0937500000000007
40
0.125000000000001
40
0.125000000000001
40
0.15625
40
0.15625
40
0.171875
40
0.171875
40
0.17578125
40
0.17578125
40
0.1796875
40
0.1796875
40
0.1875
40
0.1875
40
0.218750000000002
40
0.218750000000002
40
0.250000000000004
40
0.250000000000004
40
0.265625000000005
40
0.265625000000005
40
0.281250000000006
40
0.281250000000006
40
0.296875000000007
40
0.296875000000007
40
0.312500000000008
40
0.312500000000008
40
0.328125000000008
40
0.328125000000008
40
0.343750000000009
40
0.343750000000009
40
0.35937500000001
40
0.35937500000001
40
0.375000000000011
40
0.375000000000011
40
0.406250000000014
40
0.406250000000014
40
0.437500000000016
40
0.437500000000016
40
0.445312500000016
40
0.445312500000016
40
0.449218750000016
40
0.449218750000016
40
0.453125000000016
40
0.453125000000016
40
0.468750000000016
40
0.468750000000016
40
0.500000000000016
40
0.500000000000016
40
0.531250000000015
40
0.531250000000015
40
0.546875000000015
40
0.546875000000015
40
0.562500000000014
40
0.562500000000014
40
0.578125000000014
40
0.578125000000014
40
0.593750000000014
40
0.593750000000014
40
0.609375000000013
40
0.609375000000013
40
0.625000000000013
40
0.625000000000013
40
0.640625000000013
40
0.640625000000013
40
0.656250000000012
40
0.656250000000012
40
0.687500000000011
40
0.687500000000011
40
0.71875000000001
40
0.71875000000001
40
0.72265625000001
40
0.72265625000001
40
0.72656250000001
40
0.72656250000001
40
0.73437500000001
40
0.73437500000001
40
0.75000000000001
40
0.75000000000001
40
0.781250000000009
40
0.781250000000009
40
0.812500000000008
40
0.812500000000008
40
0.828125000000007
40
0.828125000000007
40
0.843750000000006
40
0.843750000000006
40
0.859375000000006
40
0.859375000000006
40
0.875000000000005
40
0.875000000000005
40
0.890625000000005
40
0.890625000000005
40
0.906250000000004
40
0.906250000000004
40
0.921875000000004
40
0.921875000000004
40
0.937500000000003
40
0.937500000000003
40
0.968750000000002
40
0.968750000000002
40
1
40
1
40
1
40
1
41
1
10
200.1
20
9.37305225350013
30
0
41
1
10
200.15214998685
20
9.19457722212218
30
0
41
1
10
200.204299973699
20
9.00157918225455
30
0
41
1
10
200.308599947398
20
8.5883395225826
30
0
41
1
10
200.360749934248
20
8.36810027999155
30
0
41
1
10
200.465049907947
20
7.90296144003042
30
0
41
1
10
200.517199894796
20
7.6580659220688
30
0
41
1
10
200.621499868495
20
7.14687986479609
30
0
41
1
10
200.673649855345
20
6.88059475612749
30
0
41
1
10
200.777949829044
20
6.33043274599893
30
0
41
1
10
200.830099815893
20
6.04656211113746
30
0
41
1
10
200.934399789593
20
5.46539257687812
30
0
41
1
10
200.986549776442
20
5.16810018274217
30
0
41
1
10
201.142999736991
20
4.26257542601141
30
0
41
1
10
201.24729971069
20
3.64081389921213
30
0
41
1
10
201.455899658088
20
2.39473902216128
30
0
41
1
10
201.560199631787
20
1.77055787478977
30
0
41
1
10
201.716649592335
20
0.853775104692886
30
0
41
1
10
201.768799579185
20
0.551374092978961
30
0
41
1
10
201.833987062747
20
0.179112261431499
30
0
41
1
10
201.847024559459
20
0.104945568180767
30
0
41
1
10
201.873099552884
20
-0.04277800544304
30
0
41
1
10
201.886137049596
20
-0.116641040056265
30
0
41
1
10
201.925249539734
20
-0.339512471864794
30
0
41
1
10
201.951324533158
20
-0.489259190434382
30
0
41
1
10
202.081699500282
20
-1.24300094694516
30
0
41
1
10
202.185999473981
20
-1.86233045963723
30
0
41
1
10
202.394599421379
20
-3.10751603334444
30
0
41
1
10
202.498899395078
20
-3.73326342847705
30
0
41
1
10
202.655349355627
20
-4.6522366176946
30
0
41
1
10
202.707499342476
20
-4.95524631970127
30
0
41
1
10
202.811799316175
20
-5.55031121194352
30
0
41
1
10
202.863949303025
20
-5.84236002725291
30
0
41
1
10
202.968249276724
20
-6.41122091031869
30
0
41
1
10
203.020399263573
20
-6.68802650084598
30
0
41
1
10
203.124699237272
20
-7.22236804354748
30
0
41
1
10
203.176849224122
20
-7.47989801789831
30
0
41
1
10
203.281149197821
20
-7.9720939793545
30
0
41
1
10
203.333299184671
20
-8.20675506144607
30
0
41
1
10
203.43759915837
20
-8.65022284155998
30
0
41
1
10
203.489749145219
20
-8.85902616064922
30
0
41
1
10
203.594049118918
20
-9.24851784543048
30
0
41
1
10
203.646199105768
20
-9.42920462065882
30
0
41
1
10
203.750499079467
20
-9.7610078357088
30
0
41
1
10
203.802649066316
20
-9.91212451192675
30
0
41
1
10
203.959099026865
20
-10.3201741122309
30
0
41
1
10
204.063399000564
20
-10.5314548074316
30
0
41
1
10
204.271998947962
20
-10.8366708155234
30
0
41
1
10
204.376298921661
20
-10.9307344028267
30
0
41
1
10
204.506673888785
20
-10.9837174890836
30
0
41
1
10
204.53274888221
20
-10.9911020568058
30
0
41
1
10
204.571861372347
20
-10.9975684639428
30
0
41
1
10
204.584898869059
20
-10.9989556769189
30
0
41
1
10
204.610973862484
20
-11.0002298373829
30
0
41
1
10
204.624011359196
20
-11.0001219922269
30
0
41
1
10
204.689198842758
20
-10.9958381025085
30
0
41
1
10
204.741348829608
20
-10.9803543500588
30
0
41
1
10
204.897798790156
20
-10.8944316272444
30
0
41
1
10
205.002098763855
20
-10.7842518612415
30
0
41
1
10
205.210698711253
20
-10.4454894191118
30
0
41
1
10
205.314998684952
20
-10.2167849919132
30
0
41
1
10
205.471448645501
20
-9.78286945284623
30
0
41
1
10
205.523598632351
20
-9.62317935375938
30
0
41
1
10
205.62789860605
20
-9.27456077326991
30
0
41
1
10
205.680048592899
20
-9.08563256978309
30
0
41
1
10
205.784348566598
20
-8.68022470998929
30
0
41
1
10
205.836498553448
20
-8.46374717054448
30
0
41
1
10
205.940798527147
20
-8.00571692917302
30
0
41
1
10
205.992948513996
20
-7.76416807965162
30
0
41
1
10
206.097248487696
20
-7.25917070425933
30
0
41
1
10
206.149398474545
20
-6.99572744400032
30
0
41
1
10
206.253698448244
20
-6.45067770138712
30
0
41
1
10
206.305848435094
20
-6.16907740161813
30
0
41
1
10
206.410148408793
20
-5.59183720554472
30
0
41
1
10
206.462298395642
20
-5.29620381750857
30
0
41
1
10
206.566598369341
20
-4.69521552078399
30
0
41
1
10
206.618748356191
20
-4.38986685359887
30
0
41
1
10
206.775198316739
20
-3.46571708163674
30
0
41
1
10
206.879498290438
20
-2.83899104916784
30
0
41
1
10
207.088098237836
20
-1.59610014505958
30
0
41
1
10
207.192398211536
20
-0.980031797805253
30
0
41
1
10
207.309735681947
20
-0.30707350365077
30
0
41
1
10
207.322773178659
20
-0.232574535137445
30
0
41
1
10
207.348848172084
20
-0.0841646238577596
30
0
41
1
10
207.361885668796
20
-0.0104545861534575
30
0
41
1
10
207.400998158934
20
0.21139693273642
30
0
41
1
10
207.427073152358
20
0.360507640855929
30
0
41
1
10
207.505298132633
20
0.81099091143895
30
0
41
1
10
207.557448119482
20
1.11553086280958
30
0
41
1
10
207.713898080031
20
2.03738325096217
30
0
41
1
10
207.81819805373
20
2.66313380812213
30
0
41
1
10
208.026798001128
20
3.90773739526341
30
0
41
1
10
208.131097974827
20
4.52644695864788
30
0
41
1
10
208.287547935376
20
5.42362022332628
30
0
41
1
10
208.339697922225
20
5.71750564473271
30
0
41
1
10
208.443997895924
20
6.29064254948801
30
0
41
1
10
208.496147882774
20
6.56988753387341
30
0
41
1
10
208.600447856473
20
7.10966300338063
30
0
41
1
10
208.652597843322
20
7.37018740223056
30
0
41
1
10
208.756897817021
20
7.86885362476119
30
0
41
1
10
208.809047803871
20
8.1069903581834
30
0
41
1
10
208.91334777757
20
8.55779552672459
30
0
41
1
10
208.965497764419
20
8.77046034313577
30
0
41
1
10
209.069797738118
20
9.16795065527458
30
0
41
1
10
209.121947724968
20
9.35277429661625
30
0
41
1
10
209.226247698667
20
9.69300897595215
30
0
41
1
10
209.278397685516
20
9.84841999473096
30
0
41
1
10
209.382697659215
20
10.1290820491705
30
0
41
1
10
209.434847646065
20
10.2543347540189
30
0
41
1
10
209.591297606614
20
10.5849324051471
30
0
41
1
10
209.695597580313
20
10.744815260235
30
0
41
1
10
209.904197527711
20
10.9522786724207
30
0
41
1
10
210.00849750141
20
11
30
0
41
1
10
210.112797475109
20
11
30
0
0
SPLINE
5
F0
100
AcDbEntity
8
1
62
256
6
ByLayer
370
13
48
1
60
0
100
AcDbSpline
70
4
71
3
72
22
73
18
40
0
40
0
40
0
40
0
40
0.125
40
0.125
40
0.25
40
0.25
40
0.375
40
0.375
40
0.5
40
0.5
40
0.625
40
0.625
40
0.75
40
0.75
40
0.875
40
0.875
40
1
40
1
40
1
40
1
41
1
10
209.443540278719
20
11
30
0
41
1
10
209.512406409734
20
11
30
0
41
1
10
209.581272540749
20
10.9792542893611
30
0
41
1
10
209.719004802778
20
10.8912207903281
30
0
41
1
10
209.787870933793
20
10.8239148152625
30
0
41
1
10
209.925603195822
20
10.6388909956478
30
0
41
1
10
209.994469326837
20
10.5211563411065
30
0
41
1
10
210.132201588866
20
10.2331560114808
30
0
41
1
10
210.201067719881
20
10.0628780262374
30
0
41
1
10
210.33879998191
20
9.66987174185974
30
0
41
1
10
210.407666112925
20
9.44713858832546
30
0
41
1
10
210.545398374954
20
8.95177091753121
30
0
41
1
10
210.614264505969
20
8.67914090492573
30
0
41
1
10
210.751996767998
20
8.08900790647033
30
0
41
1
10
210.820862899013
20
7.77151889941496
30
0
41
1
10
210.958595161042
20
7.09889695687838
30
0
41
1
10
211.027461292057
20
6.74378556226006
30
0
41
1
10
211.096327423072
20
6.37429599246096
30
0
0
SPLINE
5
F1
100
AcDbEntity
8
1
62
256
6
ByLayer
370
13
48
1
60
0
100
AcDbSpline
70
4
71
3
72
85
73
81
40
0
40
0
40
0
40
0
40
0.0312500000000008
40
0.0312500000000008
40
0.0625000000000017
40
0.0625000000000017
40
0.0937500000000025
40
0.0937500000000025
40
0.125000000000003
40
0.125000000000003
40
0.132812500000003
40
0.132812500000003
40
0.136718750000004
40
0.136718750000004
40
0.140625000000004
40
0.140625000000004
40
0.156250000000004
40
0.156250000000004
40
0.187500000000005
40
0.187500000000005
40
0.218750000000006
40
0.218750000000006
40
0.250000000000007
40
0.250000000000007
40
0.281250000000007
40
0.281250000000007
40
0.312500000000008
40
0.312500000000008
40
0.343750000000009
40
0.343750000000009
40
0.37500000000001
40
0.37500000000001
40
0.406250000000011
40
0.406250000000011
40
0.421875000000011
40
0.421875000000011
40
0.425781250000011
40
0.425781250000011
40
0.429687500000011
40
0.437500000000011
40
0.437500000000011
40
0.468750000000011
40
0.468750000000011
40
0.50000000000001
40
0.50000000000001
40
0.53125000000001
40
0.53125000000001
40
0.562500000000009
40
0.562500000000009
40
0.593750000000008
40
0.593750000000008
40
0.625000000000008
40
0.625000000000008
40
0.656250000000007
40
0.656250000000007
40
0.687500000000007
40
0.687500000000007
40
0.703125000000006
40
0.703125000000006
40
0.710937500000006
40
0.710937500000006
40
0.718750000000006
40
0.718750000000006
40
0.750000000000005
40
0.750000000000005
40
0.781250000000005
40
0.781250000000005
40
0.812500000000004
40
0.812500000000004
40
0.843750000000003
40
0.843750000000003
40
0.875000000000002
40
0.875000000000002
40
0.906250000000002
40
0.906250000000002
40
0.937500000000001
40
0.937500000000001
40
0.968750000000001
40
0.968750000000001
40
1
40
1
40
1
40
1
41
1
10
200.1
20
7.29196062247379
30
0
41
1
10
200.199177419023
20
6.80013453103498
30
0
41
1
10
200.298354838046
20
6.27043283858188
30
0
41
1
10
200.496709676093
20
5.16289964655937
30
0
41
1
10
200.595887095116
20
4.58522807583191
30
0
41
1
10
200.794241933162
20
3.4117572518368
30
0
41
1
10
200.893419352185
20
2.81609072296052
30
0
41
1
10
201.091774190231
20
1.63416510722573
30
0
41
1
10
201.190951609254
20
1.04798133551577
30
0
41
1
10
201.314923383033
20
0.334791399518821
30
0
41
1
10
201.339717737789
20
0.193114184935951
30
0
41
1
10
201.376909269923
20
-0.0177560867394959
30
0
41
1
10
201.3893064473
20
-0.0878773538918551
30
0
41
1
10
201.414100802056
20
-0.22899865311561
30
0
41
1
10
201.426497979434
20
-0.299825131734025
30
0
41
1
10
201.488483866324
20
-0.655201500081688
30
0
41
1
10
201.538072575835
20
-0.943500212878291
30
0
41
1
10
201.68683870437
20
-1.81670985662626
30
0
41
1
10
201.786016123393
20
-2.41011266806015
30
0
41
1
10
201.984370961439
20
-3.59503045165303
30
0
41
1
10
202.083548380462
20
-4.18644308642797
30
0
41
1
10
202.281903218509
20
-5.3383637552823
30
0
41
1
10
202.381080637532
20
-5.89872187461722
30
0
41
1
10
202.579435475578
20
-6.95886298706196
30
0
41
1
10
202.678612894601
20
-7.45848943372093
30
0
41
1
10
202.876967732647
20
-8.37161970742594
30
0
41
1
10
202.97614515167
20
-8.78501171494059
30
0
41
1
10
203.174499989717
20
-9.5084696821807
30
0
41
1
10
203.27367740874
20
-9.818503481156
30
0
41
1
10
203.472032246786
20
-10.3286523198332
30
0
41
1
10
203.571209665809
20
-10.5288155701049
30
0
41
1
10
203.769564503855
20
-10.822968955721
30
0
41
1
10
203.868741922879
20
-10.9170584405833
30
0
41
1
10
204.017508051413
20
-10.9873662793192
30
0
41
1
10
204.067096760925
20
-10.9990499706834
30
0
41
1
10
204.129082647814
20
-11.0001678601806
30
0
41
1
10
204.141479825192
20
-10.9997213521347
30
0
41
1
10
204.166274179948
20
-10.9974612056092
30
0
41
1
10
204.203465712082
20
-10.9920183287151
30
0
41
1
10
204.240657244215
20
-10.9802767987647
30
0
41
1
10
204.364629017994
20
-10.9265515391375
30
0
41
1
10
204.463806437017
20
-10.8366601805307
30
0
41
1
10
204.662161275064
20
-10.5512555880515
30
0
41
1
10
204.761338694087
20
-10.3556417376224
30
0
41
1
10
204.959693532133
20
-9.85455766239673
30
0
41
1
10
205.058870951156
20
-9.54903637267952
30
0
41
1
10
205.257225789202
20
-8.83411849218894
30
0
41
1
10
205.356403208225
20
-8.42475048258808
30
0
41
1
10
205.554758046272
20
-7.51876880868812
30
0
41
1
10
205.653935465295
20
-7.02226414562207
30
0
41
1
10
205.852290303341
20
-5.96719107922678
30
0
41
1
10
205.951467722364
20
-5.40877836588524
30
0
41
1
10
206.14982256041
20
-4.25949417241696
30
0
41
1
10
206.248999979433
20
-3.66877385026282
30
0
41
1
10
206.447354817479
20
-2.48409842516401
30
0
41
1
10
206.546532236502
20
-1.89024812349177
30
0
41
1
10
206.695298365037
20
-1.01569302039243
30
0
41
1
10
206.744887074549
20
-0.726834217274615
30
0
41
1
10
206.819270138816
20
-0.299401824457647
30
0
41
1
10
206.844064493572
20
-0.157896984332439
30
0
41
1
10
206.893653203083
20
0.122897216655872
30
0
41
1
10
206.918447557839
20
0.264054486768941
30
0
41
1
10
207.042419331618
20
0.975629382091455
30
0
41
1
10
207.141596750641
20
1.56090072259585
30
0
41
1
10
207.339951588688
20
2.74203344531793
30
0
41
1
10
207.439129007711
20
3.33782213182704
30
0
41
1
10
207.637483845757
20
4.51275499740538
30
0
41
1
10
207.73666126478
20
5.09176842823695
30
0
41
1
10
207.935016102826
20
6.20322399390312
30
0
41
1
10
208.034193521849
20
6.7355064068964
30
0
41
1
10
208.232548359896
20
7.72537801862438
30
0
41
1
10
208.331725778919
20
8.18282796955583
30
0
41
1
10
208.530080616965
20
9.00140351411952
30
0
41
1
10
208.629258035988
20
9.36245640474397
30
0
41
1
10
208.827612874034
20
9.97643737210635
30
0
41
1
10
208.926790293058
20
10.229377311211
30
0
41
1
10
209.125145131104
20
10.6261105044173
30
0
41
1
10
209.224322550126
20
10.7699834137112
30
0
41
1
10
209.422677388173
20
10.9568730453622
30
0
41
1
10
209.521854807196
20
11
30
0
41
1
10
209.621032226219
20
11
30
0
0
SPLINE
5
F2
100
AcDbEntity
8
1
62
256
6
ByLayer
370
13
48
1
60
0
100
AcDbSpline
70
4
71
3
72
22
73
18
40
0
40
0
40
0
40
0
40
0.125
40
0.125
40
0.25
40
0.25
40
0.375
40
0.375
40
0.5
40
0.5
40
0.625
40
0.625
40
0.75
40
0.75
40
0.875
40
0.875
40
1
40
1
40
1
40
1
41
1
10
208.95177502983
20
11
30
0
41
1
10
209.041131379548
20
11
30
0
41
1
10
209.130487729267
20
10.9650221363999
30
0
41
1
10
209.309200428703
20
10.8144178186336
30
0
41
1
10
209.398556778422
20
10.6987252014311
30
0
41
1
10
209.577269477858
20
10.3797714500267
30
0
41
1
10
209.666625827577
20
10.1764573058293
30
0
41
1
10
209.845338527014
20
9.68109698976747
30
0
41
1
10
209.934694876732
20
9.38902984191341
30
0
41
1
10
210.113407576169
20
8.72193734609547
30
0
41
1
10
210.202763925888
20
8.34693535747601
30
0
41
1
10
210.381476625324
20
7.52668525084849
30
0
41
1
10
210.470832975043
20
7.0815030766648
30
0
41
1
10
210.64954567448
20
6.13918073859159
30
0
41
1
10
210.738902024198
20
5.64213226065738
30
0
41
1
10
210.917614723635
20
4.61749943745133
30
0
41
1
10
211.006971073353
20
4.09000766149745
30
0
41
1
10
211.096327423072
20
3.55809471719874
30
0
0
SPLINE
5
F3
100
AcDbEntity
8
1
62
256
6
ByLayer
370
13
48
1
60
0
100
AcDbSpline
70
4
71
3
72
84
73
80
40
0
40
0
40
0
40
0
40
0.031250000000002
40
0.031250000000002
40
0.0625000000000039
40
0.0625000000000039
40
0.0781250000000052
40
0.0781250000000052
40
0.0859375000000055
40
0.0859375000000055
40
0.0898437500000057
40
0.0898437500000057
40
0.0937500000000059
40
0.0937500000000059
40
0.125000000000008
40
0.125000000000008
40
0.156250000000011
40
0.156250000000011
40
0.187500000000013
40
0.187500000000013
40
0.218750000000016
40
0.218750000000016
40
0.250000000000018
40
0.250000000000018
40
0.281250000000021
40
0.281250000000021
40
0.312500000000023
40
0.312500000000023
40
0.343750000000026
40
0.343750000000026
40
0.375000000000028
40
0.375000000000028
40
0.390625000000029
40
0.390625000000029
40
0.398437500000029
40
0.398437500000029
40
0.40625000000003
40
0.40625000000003
40
0.437500000000029
40
0.437500000000029
40
0.468750000000028
40
0.468750000000028
40
0.500000000000028
40
0.500000000000028
40
0.531250000000027
40
0.531250000000027
40
0.562500000000026
40
0.562500000000026
40
0.593750000000026
40
0.593750000000026
40
0.625000000000025
40
0.625000000000025
40
0.656250000000024
40
0.656250000000024
40
0.687500000000023
40
0.687500000000023
40
0.695312500000023
40
0.695312500000023
40
0.703125000000023
40
0.703125000000023
40
0.718750000000021
40
0.718750000000021
40
0.750000000000019
40
0.750000000000019
40
0.781250000000016
40
0.781250000000016
40
0.812500000000014
40
0.812500000000014
40
0.843750000000012
40
0.843750000000012
40
0.875000000000009
40
0.875000000000009
40
0.906250000000007
40
0.906250000000007
40
0.937500000000005
40
0.937500000000005
40
0.968750000000002
40
0.968750000000002
40
1
40
1
40
1
40
1
41
1
10
200.1
20
4.60571131295956
30
0
41
1
10
200.194054864347
20
4.05694685131803
30
0
41
1
10
200.288109728695
20
3.49549550039302
30
0
41
1
10
200.476219457389
20
2.37164466507804
30
0
41
1
10
200.570274321736
20
1.80932194724787
30
0
41
1
10
200.711356618257
20
0.980814409333306
30
0
41
1
10
200.75838405043
20
0.707105049051592
30
0
41
1
10
200.828925198691
20
0.301814027860274
30
0
41
1
10
200.852438914778
20
0.167593146545244
30
0
41
1
10
200.887709488908
20
-0.0322508731869107
30
0
41
1
10
200.899466346951
20
-0.0988182213446294
30
0
41
1
10
200.922980063038
20
-0.232685336444518
30
0
41
1
10
200.934736921081
20
-0.29985744899767
30
0
41
1
10
201.040548643472
20
-0.906422642756695
30
0
41
1
10
201.134603507819
20
-1.46015313892616
30
0
41
1
10
201.322713236513
20
-2.57872935874983
30
0
41
1
10
201.416768100861
20
-3.14352293004475
30
0
41
1
10
201.604877829555
20
-4.26140060337372
30
0
41
1
10
201.698932693902
20
-4.81438915290622
30
0
41
1
10
201.887042422597
20
-5.88326386324974
30
0
41
1
10
201.981097286944
20
-6.39902876643671
30
0
41
1
10
202.169207015638
20
-7.36883443805289
30
0
41
1
10
202.263261879985
20
-7.82276102241553
30
0
41
1
10
202.45137160868
20
-8.64870767000002
30
0
41
1
10
202.545426473027
20
-9.02065492772431
30
0
41
1
10
202.733536201721
20
-9.66983017259105
30
0
41
1
10
202.827591066068
20
-9.9470459049316
30
0
41
1
10
203.015700794763
20
-10.402644175165
30
0
41
1
10
203.10975565911
20
-10.5810708403466
30
0
41
1
10
203.297865387804
20
-10.843159936899
30
0
41
1
10
203.391920252151
20
-10.9269006501996
30
0
41
1
10
203.533002548672
20
-10.9891775023579
30
0
41
1
10
203.580029980846
20
-10.999421567494
30
0
41
1
10
203.650571129106
20
-11.0002534475848
30
0
41
1
10
203.674084845193
20
-10.9981209373153
30
0
41
1
10
203.721112277367
20
-10.9888271007233
30
0
41
1
10
203.744625993454
20
-10.9816650171756
30
0
41
1
10
203.862194573888
20
-10.9327742804712
30
0
41
1
10
203.956249438234
20
-10.8516203169814
30
0
41
1
10
204.144359166929
20
-10.5949262845757
30
0
41
1
10
204.238414031276
20
-10.4193073639435
30
0
41
1
10
204.426523759971
20
-9.96933656368759
30
0
41
1
10
204.520578624318
20
-9.69493921080752
30
0
41
1
10
204.708688353012
20
-9.05116341453351
30
0
41
1
10
204.802743217359
20
-8.68179544025597
30
0
41
1
10
204.990852946054
20
-7.86052973624379
30
0
41
1
10
205.084907810401
20
-7.40870323764227
30
0
41
1
10
205.273017539095
20
-6.44244186166958
30
0
41
1
10
205.367072403442
20
-5.92812042357977
30
0
41
1
10
205.555182132137
20
-4.86139750299836
30
0
41
1
10
205.649236996484
20
-4.30911757934174
30
0
41
1
10
205.837346725178
20
-3.19194873529912
30
0
41
1
10
205.931401589525
20
-2.62715644112058
30
0
41
1
10
206.11951131822
20
-1.50798498609865
30
0
41
1
10
206.213566182567
20
-0.953659295164641
30
0
41
1
10
206.331134763001
20
-0.278678211255823
30
0
41
1
10
206.354648479088
20
-0.144565040800302
30
0
41
1
10
206.401675911261
20
0.121665668326329
30
0
41
1
10
206.425189627348
20
0.255560596864086
30
0
41
1
10
206.495730775609
20
0.660244501234217
30
0
41
1
10
206.542758207782
20
0.93360437167172
30
0
41
1
10
206.683840504303
20
1.76125914212346
30
0
41
1
10
206.77789536865
20
2.32327583837494
30
0
41
1
10
206.966005097344
20
3.44717510805236
30
0
41
1
10
207.060059961692
20
4.00898217546307
30
0
41
1
10
207.248169690386
20
5.10795566728237
30
0
41
1
10
207.342224554733
20
5.64500994896741
30
0
41
1
10
207.530334283427
20
6.66902008915514
30
0
41
1
10
207.624389147775
20
7.15585372653209
30
0
41
1
10
207.812498876469
20
8.05664734370967
30
0
41
1
10
207.906553740816
20
8.470510749856
30
0
41
1
10
208.094663469511
20
9.20869271654453
30
0
41
1
10
208.188718333858
20
9.53296866243772
30
0
41
1
10
208.376828062552
20
10.0835904300953
30
0
41
1
10
208.470882926899
20
10.309954920899
30
0
41
1
10
208.658992655594
20
10.6650188228531
30
0
41
1
10
208.753047519941
20
10.793783342029
30
0
41
1
10
208.941157248635
20
10.9612313898897
30
0
41
1
10
209.035212112982
20
11
30
0
41
1
10
209.12926697733
20
11
30
0
0
SPLINE
5
F4
100
AcDbEntity
8
1
62
256
6
ByLayer
370
13
48
1
60
0
100
AcDbSpline
70
4
71
3
72
36
73
32
40
0
40
0
40
0
40
0
40
0.125
40
0.125
40
0.1875
40
0.1875
40
0.25
40
0.25
40
0.3125
40
0.3125
40
0.375
40
0.375
40
0.437499999999999
40
0.437499999999999
40
0.499999999999999
40
0.499999999999999
40
0.562499999999999
40
0.562499999999999
40
0.624999999999999
40
0.624999999999999
40
0.6875
40
0.6875
40
0.75
40
0.75
40
0.8125
40
0.8125
40
0.875
40
0.875
40
0.9375
40
0.9375
40
1
40
1
40
1
40
1
41
1
10
208.46000978094
20
11
30
0
41
1
10
208.569856349362
20
11
30
0
41
1
10
208.679702917785
20
10.9470367939834
30
0
41
1
10
208.844472770418
20
10.7737673403624
30
0
41
1
10
208.899396054629
20
10.7004251172508
30
0
41
1
10
209.009242623051
20
10.5210280955523
30
0
41
1
10
209.064165907262
20
10.4149683016242
30
0
41
1
10
209.174012475684
20
10.1693701420818
30
0
41
1
10
209.228935759895
20
10.0298281784679
30
0
41
1
10
209.338782328317
20
9.71741771439827
30
0
41
1
10
209.393705612528
20
9.54454760206923
30
0
41
1
10
209.503552180951
20
9.16663122953506
30
0
41
1
10
209.558475465162
20
8.96158574560559
30
0
41
1
10
209.668322033584
20
8.52148123864055
30
0
41
1
10
209.723245317795
20
8.28642549487978
30
0
41
1
10
209.833091886217
20
7.7894145955388
30
0
41
1
10
209.888015170428
20
7.52746499927292
30
0
41
1
10
209.99786173885
20
6.98059825838908
30
0
41
1
10
210.052785023061
20
6.69568841147284
30
0
41
1
10
210.162631591483
20
6.10745552118684
30
0
41
1
10
210.217554875695
20
5.80414074237476
30
0
41
1
10
210.327401444117
20
5.18403821962065
30
0
41
1
10
210.382324728328
20
4.86725884244524
30
0
41
1
10
210.49217129675
20
4.22530036913255
30
0
41
1
10
210.547094580961
20
3.90012893284052
30
0
41
1
10
210.656941149383
20
3.24634916034364
30
0
41
1
10
210.711864433594
20
2.91774714663336
30
0
41
1
10
210.821711002017
20
2.2617466259662
30
0
41
1
10
210.876634286228
20
1.93435272427271
30
0
41
1
10
210.98648085465
20
1.28492127265838
30
0
41
1
10
211.041404138861
20
0.962886494216718
30
0
41
1
10
211.096327423072
20
0.645307098169184
30
0
0
SPLINE
5
F5
100
AcDbEntity
8
1
62
256
6
ByLayer
370
13
48
1
60
0
100
AcDbSpline
70
4
71
3
72
85
73
81
40
0
40
0
40
0
40
0
40
0.0312500000000014
40
0.0312500000000014
40
0.0351562500000014
40
0.0351562500000014
40
0.0390625000000013
40
0.0468750000000018
40
0.0468750000000018
40
0.0625000000000022
40
0.0625000000000022
40
0.0937500000000036
40
0.0937500000000036
40
0.125000000000005
40
0.125000000000005
40
0.156250000000006
40
0.156250000000006
40
0.187500000000008
40
0.187500000000008
40
0.218750000000009
40
0.218750000000009
40
0.25000000000001
40
0.25000000000001
40
0.281250000000012
40
0.281250000000012
40
0.312500000000013
40
0.312500000000013
40
0.343750000000014
40
0.343750000000014
40
0.351562500000015
40
0.351562500000015
40
0.359375000000015
40
0.359375000000015
40
0.375000000000016
40
0.375000000000016
40
0.406250000000017
40
0.406250000000017
40
0.437500000000018
40
0.437500000000018
40
0.46875000000002
40
0.46875000000002
40
0.500000000000021
40
0.500000000000021
40
0.531250000000022
40
0.531250000000022
40
0.562500000000024
40
0.562500000000024
40
0.593750000000025
40
0.593750000000025
40
0.625000000000026
40
0.625000000000026
40
0.656250000000028
40
0.656250000000028
40
0.671875000000028
40
0.671875000000028
40
0.675781250000028
40
0.675781250000028
40
0.679687500000029
40
0.679687500000029
40
0.687500000000028
40
0.687500000000028
40
0.718750000000025
40
0.718750000000025
40
0.750000000000022
40
0.750000000000022
40
0.78125000000002
40
0.78125000000002
40
0.812500000000017
40
0.812500000000017
40
0.843750000000014
40
0.843750000000014
40
0.875000000000011
40
0.875000000000011
40
0.906250000000009
40
0.906250000000009
40
0.937500000000006
40
0.937500000000006
40
0.968750000000003
40
0.968750000000003
40
1
40
1
40
1
40
1
41
1
10
200.1
20
1.68489876115834
30
0
41
1
10
200.188932309671
20
1.1584708085436
30
0
41
1
10
200.277864619342
20
0.638792230460837
30
0
41
1
10
200.377913467723
20
0.0698631973932038
30
0
41
1
10
200.389030006432
20
0.0070113773035985
30
0
41
1
10
200.411263083849
20
-0.11906301816893
30
0
41
1
10
200.444612699976
20
-0.308834703226495
30
0
41
1
10
200.477962316103
20
-0.500481067614516
30
0
41
1
10
200.544661548356
20
-0.885966774756298
30
0
41
1
10
200.589127703192
20
-1.14588976514034
30
0
41
1
10
200.722526167699
20
-1.93168783845923
30
0
41
1
10
200.81145847737
20
-2.46370518215278
30
0
41
1
10
200.989323096712
20
-3.52623756988589
30
0
41
1
10
201.078255406384
20
-4.05669335711679
30
0
41
1
10
201.256120025726
20
-5.09531081054868
30
0
41
1
10
201.345052335397
20
-5.60338740923083
30
0
41
1
10
201.52291695474
20
-6.57572542642748
30
0
41
1
10
201.611849264411
20
-7.03989410896713
30
0
41
1
10
201.789713883754
20
-7.90491333101932
30
0
41
1
10
201.878646193425
20
-8.30568771786491
30
0
41
1
10
202.056510812768
20
-9.02906218548316
30
0
41
1
10
202.145443122439
20
-9.35162296938904
30
0
41
1
10
202.323307741781
20
-9.91016211494596
30
0
41
1
10
202.412240051452
20
-10.1461454770971
30
0
41
1
10
202.590104670795
20
-10.5300982720229
30
0
41
1
10
202.679036980466
20
-10.6781095932066
30
0
41
1
10
202.856901599809
20
-10.8909189171887
30
0
41
1
10
202.94583390948
20
-10.9557788105754
30
0
41
1
10
203.056999296569
20
-10.9907239185743
30
0
41
1
10
203.079232373987
20
-10.9954149594234
30
0
41
1
10
203.123698528823
20
-11.00037615506
30
0
41
1
10
203.14593160624
20
-11.0006658886075
30
0
41
1
10
203.212630838494
20
-10.9950175307912
30
0
41
1
10
203.257096993329
20
-10.9824541307832
30
0
41
1
10
203.390495457836
20
-10.9163136412116
30
0
41
1
10
203.479427767508
20
-10.8341539264791
30
0
41
1
10
203.65729238685
20
-10.5852473968769
30
0
41
1
10
203.746224696521
20
-10.4184414053378
30
0
41
1
10
203.924089315864
20
-9.99662464363357
30
0
41
1
10
204.013021625535
20
-9.74157872513823
30
0
41
1
10
204.190886244878
20
-9.14611886085814
30
0
41
1
10
204.279818554549
20
-8.80570932829812
30
0
41
1
10
204.457683173891
20
-8.04932739597675
30
0
41
1
10
204.546615483563
20
-7.63340341651312
30
0
41
1
10
204.724480102905
20
-6.74197669032949
30
0
41
1
10
204.813412412576
20
-6.26655569969338
30
0
41
1
10
204.991277031919
20
-5.27628968108564
30
0
41
1
10
205.08020934159
20
-4.76153771356448
30
0
41
1
10
205.258073960933
20
-3.71422072408723
30
0
41
1
10
205.347006270604
20
-3.18173637026317
30
0
41
1
10
205.524870889946
20
-2.11932768833307
30
0
41
1
10
205.613803199618
20
-1.58945575448388
30
0
41
1
10
205.747201664124
20
-0.809383907400957
30
0
41
1
10
205.79166781896
20
-0.551785517112847
30
0
41
1
10
205.847250512504
20
-0.233898021054898
30
0
41
1
10
205.858367051213
20
-0.170525359427643
30
0
41
1
10
205.880600128631
20
-0.0442139104235935
30
0
41
1
10
205.89171666734
20
0.0185889943332995
30
0
41
1
10
205.925066283467
20
0.207879025784052
30
0
41
1
10
205.947299360885
20
0.334947077473117
30
0
41
1
10
206.058464747974
20
0.974168729006522
30
0
41
1
10
206.147397057645
20
1.49813590854345
30
0
41
1
10
206.325261676988
20
2.5558812202741
30
0
41
1
10
206.414193986659
20
3.08961978399674
30
0
41
1
10
206.592058606001
20
4.14769091340199
30
0
41
1
10
206.680990915673
20
4.67195263833426
30
0
41
1
10
206.858855535015
20
5.68968773263114
30
0
41
1
10
206.947787844686
20
6.18307033912453
30
0
41
1
10
207.125652464029
20
7.11797962372438
30
0
41
1
10
207.2145847737
20
7.55941715199023
30
0
41
1
10
207.392449393043
20
8.37247286473388
30
0
41
1
10
207.481381702714
20
8.74402749415898
30
0
41
1
10
207.659246322056
20
9.4048387984046
30
0
41
1
10
207.748178631728
20
9.69407351848656
30
0
41
1
10
207.92604325107
20
10.184583718076
30
0
41
1
10
208.014975560741
20
10.3858802416692
30
0
41
1
10
208.192840180084
20
10.7016744225714
30
0
41
1
10
208.281772489755
20
10.816224064232
30
0
41
1
10
208.459637109097
20
10.9653545365026
30
0
41
1
10
208.548569418769
20
11
30
0
41
1
10
208.63750172844
20
11
30
0
0
SPLINE
5
F6
100
AcDbEntity
8
1
62
256
6
ByLayer
370
13
48
1
60
0
100
AcDbSpline
70
4
71
3
72
41
73
37
40
0
40
0
40
0
40
0
40
0.0625000000000007
40
0.0625000000000007
40
0.125000000000001
40
0.125000000000001
40
0.187500000000002
40
0.187500000000002
40
0.250000000000003
40
0.250000000000003
40
0.312500000000004
40
0.312500000000004
40
0.375000000000004
40
0.375000000000004
40
0.437500000000005
40
0.437500000000005
40
0.500000000000006
40
0.500000000000006
40
0.562500000000006
40
0.562500000000006
40
0.625000000000007
40
0.625000000000007
40
0.687500000000008
40
0.687500000000008
40
0.750000000000008
40
0.750000000000008
40
0.812500000000009
40
0.812500000000009
40
0.87500000000001
40
0.87500000000001
40
0.890625000000009
40
0.890625000000009
40
0.906250000000009
40
0.937500000000006
40
0.937500000000006
40
1
40
1
40
1
40
1
41
1
10
207.968244532051
20
11
30
0
41
1
10
208.033412925613
20
11
30
0
41
1
10
208.098581319176
20
10.9814262032608
30
0
41
1
10
208.228918106302
20
10.90282850524
30
0
41
1
10
208.294086499865
20
10.8427907980373
30
0
41
1
10
208.424423286991
20
10.6778878145974
30
0
41
1
10
208.489591680554
20
10.5730095479592
30
0
41
1
10
208.61992846768
20
10.316408029813
30
0
41
1
10
208.685096861243
20
10.1646747120972
30
0
41
1
10
208.815433648369
20
9.81406000644276
30
0
41
1
10
208.880602041932
20
9.61517355170628
30
0
41
1
10
209.010938829058
20
9.17189861469305
30
0
41
1
10
209.07610722262
20
8.92751156938741
30
0
41
1
10
209.206444009746
20
8.39689010164065
30
0
41
1
10
209.271612403309
20
8.11066406183593
30
0
41
1
10
209.401949190435
20
7.50188106901248
30
0
41
1
10
209.467117583998
20
7.1793385771015
30
0
41
1
10
209.597454371124
20
6.50495363802924
30
0
41
1
10
209.662622764687
20
6.1531296830002
30
0
41
1
10
209.792959551813
20
5.42822403242948
30
0
41
1
10
209.858127945376
20
5.05516211819509
30
0
41
1
10
209.988464732502
20
4.2962488759116
30
0
41
1
10
210.053633126065
20
3.91041585378332
30
0
41
1
10
210.183969913191
20
3.13427305023231
30
0
41
1
10
210.249138306754
20
2.74397792836535
30
0
41
1
10
210.379475093879
20
1.96656574830754
30
0
41
1
10
210.444643487442
20
1.57945849293878
30
0
41
1
10
210.574980274568
20
0.815048357732735
30
0
41
1
10
210.640148668131
20
0.437750224400361
30
0
41
1
10
210.721609160085
20
-0.0243824199285427
30
0
41
1
10
210.737901258476
20
-0.116528331592519
30
0
41
1
10
210.770485455257
20
-0.302320492773987
30
0
41
1
10
210.819361750429
20
-0.582364228196866
30
0
41
1
10
210.868238045601
20
-0.866128296458385
30
0
41
1
10
210.965990635946
20
-1.43757972286733
30
0
41
1
10
211.031159029509
20
-1.8238149525981
30
0
41
1
10
211.096327423072
20
-2.21208606285819
30
0
0
SPLINE
5
F7
100
AcDbEntity
8
1
62
256
6
ByLayer
370
13
48
1
60
0
100
AcDbSpline
70
4
71
3
72
79
73
75
40
0
40
0
40
0
40
0
40
0.0312500000000017
40
0.0312500000000017
40
0.0625000000000034
40
0.0625000000000034
40
0.0937500000000051
40
0.0937500000000051
40
0.125000000000007
40
0.125000000000007
40
0.156250000000009
40
0.156250000000009
40
0.18750000000001
40
0.18750000000001
40
0.218750000000012
40
0.218750000000012
40
0.250000000000014
40
0.250000000000014
40
0.281250000000015
40
0.281250000000015
40
0.312500000000017
40
0.312500000000017
40
0.320312500000017
40
0.320312500000017
40
0.328125000000018
40
0.328125000000018
40
0.343750000000019
40
0.343750000000019
40
0.37500000000002
40
0.37500000000002
40
0.406250000000022
40
0.406250000000022
40
0.437500000000024
40
0.437500000000024
40
0.468750000000026
40
0.468750000000026
40
0.500000000000027
40
0.500000000000027
40
0.531250000000029
40
0.531250000000029
40
0.562500000000031
40
0.562500000000031
40
0.593750000000032
40
0.593750000000032
40
0.625000000000034
40
0.625000000000034
40
0.656250000000036
40
0.656250000000036
40
0.660156250000036
40
0.660156250000036
40
0.664062500000035
40
0.671875000000035
40
0.671875000000035
40
0.687500000000033
40
0.687500000000033
40
0.71875000000003
40
0.71875000000003
40
0.750000000000026
40
0.750000000000026
40
0.781250000000023
40
0.781250000000023
40
0.81250000000002
40
0.81250000000002
40
0.843750000000017
40
0.843750000000017
40
0.875000000000013
40
0.875000000000013
40
0.90625000000001
40
0.90625000000001
40
0.937500000000007
40
0.937500000000007
40
0.968750000000003
40
0.968750000000003
40
1
40
1
40
1
40
1
41
1
10
200.1
20
-1.1620461642278
30
0
41
1
10
200.183809754995
20
-1.6531935690841
30
0
41
1
10
200.267619509991
20
-2.15265170876245
30
0
41
1
10
200.435239019981
20
-3.15387253304812
30
0
41
1
10
200.519048774977
20
-3.6555962157046
30
0
41
1
10
200.686668284967
20
-4.64440315932964
30
0
41
1
10
200.770478039963
20
-5.13142733719283
30
0
41
1
10
200.938097549953
20
-6.07278377904453
30
0
41
1
10
201.021907304949
20
-6.52704699010042
30
0
41
1
10
201.189526814939
20
-7.38569182373507
30
0
41
1
10
201.273336569934
20
-7.79000984304304
30
0
41
1
10
201.440956079925
20
-8.53448910875875
30
0
41
1
10
201.52476583492
20
-8.87460754731276
30
0
41
1
10
201.692385344911
20
-9.48097941602177
30
0
41
1
10
201.776195099906
20
-9.74722005880187
30
0
41
1
10
201.943814609897
20
-10.2015565518558
30
0
41
1
10
202.027624364892
20
-10.3896694699988
30
0
41
1
10
202.195243874883
20
-10.6888252189114
30
0
41
1
10
202.279053629878
20
-10.7999066088187
30
0
41
1
10
202.446673139869
20
-10.9505557063281
30
0
41
1
10
202.530482894864
20
-10.9901713186712
30
0
41
1
10
202.635245088608
20
-11.0004278514987
30
0
41
1
10
202.656197527357
20
-11.0005396701336
30
0
41
1
10
202.698102404855
20
-10.9968977492309
30
0
41
1
10
202.719054843604
20
-10.9931236503063
30
0
41
1
10
202.78191215985
20
-10.975720362823
30
0
41
1
10
202.823817037348
20
-10.9560054127817
30
0
41
1
10
202.949531669841
20
-10.8708986328059
30
0
41
1
10
203.033341424836
20
-10.7794321328737
30
0
41
1
10
203.200960934827
20
-10.5205981549077
30
0
41
1
10
203.284770689822
20
-10.3531884273172
30
0
41
1
10
203.452390199813
20
-9.94005897525292
30
0
41
1
10
203.536199954808
20
-9.6943154317151
30
0
41
1
10
203.703819464799
20
-9.12727961798146
30
0
41
1
10
203.787629219794
20
-8.80599182282234
30
0
41
1
10
203.955248729785
20
-8.09612248902292
30
0
41
1
10
204.03905848478
20
-7.70757634686888
30
0
41
1
10
204.206677994771
20
-6.87634217150998
30
0
41
1
10
204.290487749766
20
-6.43371357569177
30
0
41
1
10
204.458107259757
20
-5.51090498427382
30
0
41
1
10
204.541917014752
20
-5.03079421079158
30
0
41
1
10
204.709536524743
20
-4.0510604495723
30
0
41
1
10
204.793346279738
20
-3.55150045525764
30
0
41
1
10
204.960965789728
20
-2.55031219171997
30
0
41
1
10
205.044775544724
20
-2.04872880627886
30
0
41
1
10
205.212395054714
20
-1.05868417362367
30
0
41
1
10
205.29620480971
20
-0.570245062554136
30
0
41
1
10
205.390490784079
20
-0.0348376085368045
30
0
41
1
10
205.400967003454
20
0.0243488325685064
30
0
41
1
10
205.421919442203
20
0.143282638444731
30
0
41
1
10
205.453348100326
20
0.322265016928412
30
0
41
1
10
205.484776758449
20
0.502903434771525
30
0
41
1
10
205.547634074696
20
0.866131353550884
30
0
41
1
10
205.589538952193
20
1.11089150237416
30
0
41
1
10
205.715253584686
20
1.85069157085019
30
0
41
1
10
205.799063339681
20
2.3513424470068
30
0
41
1
10
205.966682849672
20
3.35282904304063
30
0
41
1
10
206.050492604668
20
3.85362278892779
30
0
41
1
10
206.218112114658
20
4.83820488322218
30
0
41
1
10
206.301921869653
20
5.32193209491444
30
0
41
1
10
206.469541379644
20
6.25432412889302
30
0
41
1
10
206.553351134639
20
6.70291967115915
30
0
41
1
10
206.72097064463
20
7.54813037211326
30
0
41
1
10
206.804780399625
20
7.94468387576825
30
0
41
1
10
206.972399909616
20
8.67205894507691
30
0
41
1
10
207.056209664611
20
9.00284133571478
30
0
41
1
10
207.223829174602
20
9.58965509135231
30
0
41
1
10
207.307638929597
20
9.84567783895554
30
0
41
1
10
207.475258439588
20
10.2794253107428
30
0
41
1
10
207.559068194583
20
10.4571705622486
30
0
41
1
10
207.726687704574
20
10.7360951121834
30
0
41
1
10
207.810497459569
20
10.8373149259144
30
0
41
1
10
207.97811696956
20
10.9692432495285
30
0
41
1
10
208.061926724555
20
11
30
0
41
1
10
208.14573647955
20
11
30
0
0
SPLINE
5
F8
100
AcDbEntity
8
1
62
256
6
ByLayer
370
13
48
1
60
0
100
AcDbSpline
70
4
71
3
72
42
73
38
40
0
40
0
40
0
40
0
40
0.0625000000000012
40
0.0625000000000012
40
0.125000000000002
40
0.125000000000002
40
0.187500000000003
40
0.187500000000003
40
0.250000000000005
40
0.250000000000005
40
0.312500000000006
40
0.312500000000006
40
0.375000000000007
40
0.375000000000007
40
0.437500000000008
40
0.437500000000008
40
0.500000000000009
40
0.500000000000009
40
0.56250000000001
40
0.56250000000001
40
0.625000000000011
40
0.625000000000011
40
0.687500000000012
40
0.687500000000012
40
0.750000000000013
40
0.750000000000013
40
0.765625000000012
40
0.765625000000012
40
0.781250000000011
40
0.781250000000011
40
0.812500000000009
40
0.812500000000009
40
0.875000000000006
40
0.875000000000006
40
0.937500000000003
40
0.937500000000003
40
1
40
1
40
1
40
1
41
1
10
207.476479283161
20
11
30
0
41
1
10
207.551892786076
20
11
30
0
41
1
10
207.62730628899
20
10.975111916673
30
0
41
1
10
207.77813329482
20
10.8689904046159
30
0
41
1
10
207.853546797735
20
10.7877283879265
30
0
41
1
10
208.004373803565
20
10.5640573609369
30
0
41
1
10
208.079787306479
20
10.4216228854217
30
0
41
1
10
208.230614312309
20
10.0734580542312
30
0
41
1
10
208.306027815224
20
9.86771127541493
30
0
41
1
10
208.456854821053
20
9.39407726203922
30
0
41
1
10
208.532268323968
20
9.12618778796261
30
0
41
1
10
208.683095329798
20
8.53302627848888
30
0
41
1
10
208.758508832713
20
8.2077685925621
30
0
41
1
10
208.909335838542
20
7.50805518466973
30
0
41
1
10
208.984749341457
20
7.13362878268157
30
0
41
1
10
209.135576347287
20
6.34652361659789
30
0
41
1
10
209.210989850201
20
5.93388367052555
30
0
41
1
10
209.361816856031
20
5.0830117616899
30
0
41
1
10
209.437230358946
20
4.64482048797271
30
0
41
1
10
209.588057364775
20
3.75599776345868
30
0
41
1
10
209.66347086769
20
3.30540154354813
30
0
41
1
10
209.81429787352
20
2.40424638153649
30
0
41
1
10
209.889711376435
20
1.95371224247359
30
0
41
1
10
210.040538382264
20
1.06356733204311
30
0
41
1
10
210.115951885179
20
0.623969200326798
30
0
41
1
10
210.210218763823
20
0.0867544784607048
30
0
41
1
10
210.229072139551
20
-0.0196663567336657
30
0
41
1
10
210.266778891009
20
-0.234038282888434
30
0
41
1
10
210.285632266738
20
-0.341844976033172
30
0
41
1
10
210.342192393924
20
-0.666946501607669
30
0
41
1
10
210.379899145381
20
-0.88592728336738
30
0
41
1
10
210.493019399753
20
-1.54799878854544
30
0
41
1
10
210.568432902668
20
-1.996282658578
30
0
41
1
10
210.719259908498
20
-2.89642177019962
30
0
41
1
10
210.794673411413
20
-3.3482558501195
30
0
41
1
10
210.945500417242
20
-4.2434398876664
30
0
41
1
10
211.020913920157
20
-4.68675738604688
30
0
41
1
10
211.096327423072
20
-5.11930881284161
30
0
0
SPLINE
5
F9
100
AcDbEntity
8
1
62
256
6
ByLayer
370
13
48
1
60
0
100
AcDbSpline
70
4
71
3
72
80
73
76
40
0
40
0
40
0
40
0
40
0.0312500000000034
40
0.0312500000000034
40
0.0625000000000069
40
0.0625000000000069
40
0.0937500000000103
40
0.0937500000000103
40
0.125000000000014
40
0.125000000000014
40
0.156250000000017
40
0.156250000000017
40
0.18750000000002
40
0.18750000000002
40
0.218750000000024
40
0.218750000000024
40
0.250000000000027
40
0.250000000000027
40
0.265625000000029
40
0.265625000000029
40
0.269531250000029
40
0.269531250000029
40
0.273437500000029
40
0.273437500000029
40
0.281250000000029
40
0.281250000000029
40
0.312500000000028
40
0.312500000000028
40
0.343750000000028
40
0.343750000000028
40
0.375000000000027
40
0.375000000000027
40
0.406250000000027
40
0.406250000000027
40
0.437500000000026
40
0.437500000000026
40
0.468750000000025
40
0.468750000000025
40
0.500000000000025
40
0.500000000000025
40
0.531250000000024
40
0.531250000000024
40
0.562500000000023
40
0.562500000000023
40
0.593750000000023
40
0.593750000000023
40
0.625000000000022
40
0.625000000000022
40
0.632812500000022
40
0.632812500000022
40
0.640625000000021
40
0.640625000000021
40
0.656250000000021
40
0.656250000000021
40
0.687500000000019
40
0.687500000000019
40
0.718750000000017
40
0.718750000000017
40
0.750000000000015
40
0.750000000000015
40
0.781250000000013
40
0.781250000000013
40
0.812500000000011
40
0.812500000000011
40
0.843750000000009
40
0.843750000000009
40
0.875000000000008
40
0.875000000000008
40
0.906250000000006
40
0.906250000000006
40
0.937500000000004
40
0.937500000000004
40
0.968750000000002
40
0.968750000000002
40
1
40
1
40
1
40
1
41
1
10
200.1
20
-4.08451671529716
30
0
41
1
10
200.17868720032
20
-4.54929805286972
30
0
41
1
10
200.257374400639
20
-5.0079204993622
30
0
41
1
10
200.414748801278
20
-5.8980142725438
30
0
41
1
10
200.493436001597
20
-6.32943543536442
30
0
41
1
10
200.650810402236
20
-7.15070907342317
30
0
41
1
10
200.729497602555
20
-7.54051358226582
30
0
41
1
10
200.886872003194
20
-8.26614935285011
30
0
41
1
10
200.965559203513
20
-8.60194507480762
30
0
41
1
10
201.122933604152
20
-9.21046273185235
30
0
41
1
10
201.201620804471
20
-9.48316870486818
30
0
41
1
10
201.35899520511
20
-9.96050617193777
30
0
41
1
10
201.43768240543
20
-10.165142966946
30
0
41
1
10
201.595056806068
20
-10.5056020213641
30
0
41
1
10
201.673744006388
20
-10.6414470193775
30
0
41
1
10
201.831118407026
20
-10.8474031113726
30
0
41
1
10
201.909805607346
20
-10.9175471152633
30
0
41
1
10
202.027836407825
20
-10.9779900561624
30
0
41
1
10
202.067180007985
20
-10.9906953382386
30
0
41
1
10
202.116359508184
20
-10.997860975077
30
0
41
1
10
202.126195408224
20
-10.9988585478563
30
0
41
1
10
202.145867208304
20
-10.9999981677644
30
0
41
1
10
202.155703108344
20
-11.0001413776133
30
0
41
1
10
202.185210808464
20
-10.9993028678915
30
0
41
1
10
202.204882608544
20
-10.9970434017212
30
0
41
1
10
202.303241608943
20
-10.9769331760085
30
0
41
1
10
202.381928809262
20
-10.9325689764313
30
0
41
1
10
202.539303209901
20
-10.7803961753132
30
0
41
1
10
202.61799041022
20
-10.6725527956066
30
0
41
1
10
202.775364810859
20
-10.3889717181846
30
0
41
1
10
202.854052011179
20
-10.2132060542572
30
0
41
1
10
203.011426411817
20
-9.79281279837249
30
0
41
1
10
203.090113612137
20
-9.54817189808867
30
0
41
1
10
203.247488012775
20
-8.99319171285026
30
0
41
1
10
203.326175213095
20
-8.68285937316958
30
0
41
1
10
203.483549613733
20
-8.00390450391222
30
0
41
1
10
203.562236814053
20
-7.63530992606479
30
0
41
1
10
203.719611214692
20
-6.85095726079592
30
0
41
1
10
203.798298415011
20
-6.43524309442014
30
0
41
1
10
203.95567281565
20
-5.57039342217067
30
0
41
1
10
204.034360015969
20
-5.12130845738167
30
0
41
1
10
204.191734416608
20
-4.20461884681256
30
0
41
1
10
204.270421616927
20
-3.73706098197994
30
0
41
1
10
204.427796017566
20
-2.79798734735832
30
0
41
1
10
204.506483217885
20
-2.32650659261901
30
0
41
1
10
204.663857618524
20
-1.39255451387072
30
0
41
1
10
204.742544818844
20
-0.93010275579627
30
0
41
1
10
204.840903819243
20
-0.364259067569833
30
0
41
1
10
204.860575619323
20
-0.251694850465867
30
0
41
1
10
204.899919219482
20
-0.0279129844425654
30
0
41
1
10
204.919591019562
20
0.0830990704305918
30
0
41
1
10
204.978606419802
20
0.419432145410553
30
0
41
1
10
205.017950019961
20
0.64630889507481
30
0
41
1
10
205.13598082044
20
1.33316630805419
30
0
41
1
10
205.21466802076
20
1.79945256026212
30
0
41
1
10
205.372042421399
20
2.7375287708044
30
0
41
1
10
205.450729621718
20
3.20929455499527
30
0
41
1
10
205.608104022357
20
4.14482140478944
30
0
41
1
10
205.686791222676
20
4.6085434407286
30
0
41
1
10
205.844165623315
20
5.51319674672459
30
0
41
1
10
205.922852823634
20
5.9540791549631
30
0
41
1
10
206.080227224273
20
6.79833202114401
30
0
41
1
10
206.158914424592
20
7.20165276936459
30
0
41
1
10
206.316288825231
20
7.95764248626207
30
0
41
1
10
206.394976025551
20
8.31027135914712
30
0
41
1
10
206.552350426189
20
8.95470632896894
30
0
41
1
10
206.631037626509
20
9.24649032248738
30
0
41
1
10
206.788412027147
20
9.76299520019006
30
0
41
1
10
206.867099227467
20
9.98771536782772
30
0
41
1
10
207.024473628106
20
10.3681328254144
30
0
41
1
10
207.103160828425
20
10.5238484265349
30
0
41
1
10
207.260535229064
20
10.768299416493
30
0
41
1
10
207.339222429383
20
10.8570655893549
30
0
41
1
10
207.496596830022
20
10.9728982295337
30
0
41
1
10
207.575284030341
20
11
30
0
41
1
10
207.653971230661
20
11
30
0
0
SPLINE
5
FA
100
AcDbEntity
8
1
62
256
6
ByLayer
370
13
48
1
60
0
100
AcDbSpline
70
4
71
3
72
44
73
40
40
0
40
0
40
0
40
0
40
0.0624999999999976
40
0.0624999999999976
40
0.124999999999995
40
0.124999999999995
40
0.187499999999993
40
0.187499999999993
40
0.24999999999999
40
0.24999999999999
40
0.312499999999988
40
0.312499999999988
40
0.374999999999986
40
0.374999999999986
40
0.437499999999983
40
0.437499999999983
40
0.499999999999981
40
0.499999999999981
40
0.562499999999978
40
0.562499999999978
40
0.624999999999976
40
0.624999999999976
40
0.656249999999974
40
0.656249999999974
40
0.664062499999974
40
0.664062499999974
40
0.671874999999974
40
0.671874999999974
40
0.687499999999975
40
0.687499999999975
40
0.74999999999998
40
0.74999999999998
40
0.812499999999985
40
0.812499999999985
40
0.87499999999999
40
0.87499999999999
40
0.937499999999995
40
0.937499999999995
40
1
40
1
40
1
40
1
41
1
10
206.984714034271
20
11
30
0
41
1
10
207.070372646538
20
11
30
0
41
1
10
207.156031258805
20
10.9678667078883
30
0
41
1
10
207.327348483338
20
10.8298577858331
30
0
41
1
10
207.413007095605
20
10.7239284278093
30
0
41
1
10
207.584324320138
2045219364
30
0
41
1
10
209.768618932938
20
-0.197504929277727
30
0
41
1
10
209.790033586005
20
-0.319840327374607
30
0
41
1
10
209.897106851338
20
-0.935142664337036
30
0
41
1
10
209.982765463605
20
-1.43913207531057
30
0
41
1
10
210.154082688138
20
-2.45699196666021
30
0
41
1
10
210.239741300405
20
-2.97083100424797
30
0
41
1
10
210.411058524938
20
-3.99141536264329
30
0
41
1
10
210.496717137205
20
-4.49810394472033
30
0
41
1
10
210.668034361738
20
-5.48539333780838
30
0
41
1
10
210.753692974005
20
-5.96592004670319
30
0
41
1
10
210.925010198539
20
-6.88187485649004
30
0
41
1
10
211.010668810805
20
-7.31722737596235
30
0
41
1
10
211.096327423072
20
-7.72167326843578
30
0
0
SPLINE
5
FB
100
AcDbEntity
8
1
62
256
6
ByLayer
370
13
48
1
60
0
100
AcDbSpline
70
4
71
3
72
79
73
75
40
0
40
0
40
0
40
0
40
0.0312499999999979
40
0.0312499999999979
40
0.0624999999999958
40
0.0624999999999958
40
0.0937499999999938
40
0.0937499999999938
40
0.124999999999992
40
0.124999999999992
40
0.15624999999999
40
0.15624999999999
40
0.187499999999988
40
0.1874999999990
-0.0152209545219364
30
0
41
1
10
209.768618932938
20
-0.197504929277727
30
0
41
1
10
209.790033586005
20
-0.319840327374607
30
0
41
1
10
209.897106851338
20
-0.935142664337036
30
0
41
1
10
209.982765463605
20
-1.43913207531057
30
0
41
1
10
210.154082688138
20
-2.45699196666021
30
0
41
1
10
210.239741300405
20
-2.97083100424797
30
0
41
1
10
210.411058524938
20
-3.99141536264329
30
0
41
1
10
210.496717137205
20
-4.49810394472033
30
0
41
1
10
210.668034361738
20
-5.48539333780838
30
0
41
1
10
210.753692974005
20
-5.96592004670319
30
0
41
1
10
210.925010198539
20
-6.88187485649004
30
0
41
1
10
211.010668810805
20
-7.31722737596235
30
0
41
1
10
211.096327423072
20
-7.72167326843578
30
0
0
SPLINE
5
FB
100
AcDbEntity
8
1
62
256
6
ByLayer
370
13
48
1
60
0
100
AcDbSpline
70
4
71
3
72
79
73
75
40
0
40
0
40
0
40
0
40
0.0312499999999979
40
0.0312499999999979
40
0.0624999999999958
40
0.0624999999999958
40
0.0937499999999938
40
0.0937499999999938
40
0.124999999999992
40
0.124999999999992
40
0.15624999999999
40
0.15624999999999
40
0.187499999999988
40
0.187499999999988
40
0.218749999999985
40
0.218749999999985
40
0.226562499999985
40
0.226562499999985
40
0.234374999999985
40
0.234374999999985
40
0.249999999999986
40
0.249999999999986
40
0.281249999999986
40
0.281249999999986
40
0.312499999999987
40
0.312499999999987
40
0.343749999999988
40
0.343749999999988
40
0.374999999999988
40
0.374999999999988
40
0.406249999999989
40
0.406249999999989
40
0.43749999999999
40
0.43749999999999
40
0.46874999999999
40
0.46874999999999
40
0.499999999999991
40
0.499999999999991
40
0.531249999999992
40
0.531249999999992
40
0.562499999999992
40
0.562499999999992
40
0.593749999999993
40
0.593749999999993
40
0.609374999999993
40
0.609374999999993
40
0.613281249999993
40
0.613281249999993
40
0.617187499999992
40
0.624999999999992
40
0.624999999999992
40
0.656249999999993
40
0.656249999999993
40
0.687499999999993
40
0.687499999999993
40
0.718749999999994
40
0.718749999999994
40
0.749999999999995
40
0.749999999999995
40
0.781249999999995
40
0.781249999999995
40
0.812499999999996
40
0.812499999999996
40
0.843749999999997
40
0.843749999999997
40
0.874999999999997
40
0.874999999999997
40
0.906249999999998
40
0.906249999999998
40
0.937499999999999
40
0.937499999999999
40
0.968749999999999
40
0.968749999999999
40
1
40
1
40
1
40
1
41
1
10
200.1
20
-6.84214184029804
30
0
41
1
10
200.173564645643
20
-7.22277810029826
30
0
41
1
10
200.247129291287
20
-7.58472668241996
30
0
41
1
10
200.394258582574
20
-8.26130073696163
30
0
41
1
10
200.467823228217
20
-8.57590101315986
30
0
41
1
10
200.614952519504
20
-9.15030328147202
30
0
41
1
10
200.688517165148
20
-9.41009314735723
30
0
41
1
10
200.835646456435
20
-9.87051410058649
30
0
41
1
10
200.909211102078
20
-10.0711473584847
30
0
41
1
10
201.056340393365
20
-10.4121600529696
30
0
41
1
10
201.129905039008
20
-10.5525538880168
30
0
41
1
10
201.277034330295
20
-10.7749987874534
30
0
41
1
10
201.350598975939
20
-10.8570721627407
30
0
41
1
10
201.497728267226
20
-10.9672244640374
30
0
41
1
10
201.571292912869
20
-10.9953286241842
30
0
41
1
10
201.663248719923
20
-11.0004954798974
30
0
41
1
10
201.681639881334
20
-11.0000491894357
30
0
41
1
10
201.718422204156
20
-10.9961517102759
30
0
41
1
10
201.736813365567
20
-10.9926922822778
30
0
41
1
10
201.7919868498
20
-10.9776323769288
30
0
41
1
10
201.828769172621
20
-10.9613475165601
30
0
41
1
10
201.939116141086
20
-10.8926492673888
30
0
41
1
10
202.01268078673
20
-10.8203289903305
30
0
41
1
10
202.159810078017
20
-10.6179923093805
30
0
41
1
10
202.23337472366
20
-10.4879527330797
30
0
41
1
10
202.380504014947
20
-10.1677811414173
30
0
41
1
10
202.45406866059
20
-9.97763300228019
30
0
41
1
10
202.601197951877
20
-9.53776450507729
30
0
41
1
10
202.674762597521
20
-9.28803962044626
30
0
41
1
10
202.821891888808
20
-8.73278064894035
30
0
41
1
10
202.895456534451
20
-8.42725619190742
30
0
41
1
10
203.042585825738
20
-7.76733460271598
30
0
41
1
10
203.116150471382
20
-7.41296063361048
30
0
41
1
10
203.263279762668
20
-6.66495232909813
30
0
41
1
10
203.336844408312
20
-6.27135074752118
30
0
41
1
10
203.483973699599
20
-5.45631834117936
30
0
41
1
10
203.557538345242
20
-5.03492371376356
30
0
41
1
10
203.704667636529
20
-4.17649570424399
30
0
41
1
10
203.778232282172
20
-3.73949551365419
30
0
41
1
10
203.925361573459
20
-2.861740983158
30
0
41
1
10
203.998926219103
20
-2.42101190823681
30
0
41
1
10
204.14605551039
20
-1.54648443734331
30
0
41
1
10
204.219620156033
20
-1.11270101349555
30
0
41
1
10
204.329967124498
20
-0.473880008334248
30
0
41
1
10
204.36674944732
20
-0.262899887072876
30
0
41
1
10
204.412727350847
20
-0.0021948799731319
30
0
41
1
10
204.421922931553
20
0.0497868552031377
30
0
41
1
10
204.440314092964
20
0.154251173121082
30
0
41
1
10
204.46790083508
20
0.31139349715113
30
0
41
1
10
204.495487577196
20
0.469812959641416
30
0
41
1
10
204.58744338425
20
1.0004279466973
30
0
41
1
10
204.661008029894
20
1.43315969343695
30
0
41
1
10
204.808137321181
20
2.30643166921712
30
0
41
1
10
204.881701966824
20
2.74695784465061
30
0
41
1
10
205.028831258111
20
3.62529225987316
30
0
41
1
10
205.102395903755
20
4.06307607499451
30
0
41
1
10
205.249525195042
20
4.92413000096556
30
0
41
1
10
205.323089840685
20
5.34736744674754
30
0
41
1
10
205.470219131972
20
6.16713087640869
30
0
41
1
10
205.543783777615
20
6.56362067920713
30
0
41
1
10
205.690913068902
20
7.31834245121013
30
0
41
1
10
205.764477714546
20
7.67654110477304
30
0
41
1
10
205.911607005833
20
8.34485372659657
30
0
41
1
10
205.985171651476
20
8.65494349896937
30
0
41
1
10
206.132300942763
20
9.21981690925548
30
0
41
1
10
206.205865588406
20
9.47458966565443
30
0
41
1
10
206.352994879693
20
9.92475271241892
30
0
41
1
10
206.426559525337
20
10.1201463604853
30
0
41
1
10
206.573688816624
20
10.4507330975592
30
0
41
1
10
206.647253462267
20
10.5859414649803
30
0
41
1
10
206.794382753554
20
10.7983065475561
30
0
41
1
10
206.867947399197
20
10.8754860235988
30
0
41
1
10
207.015076690484
20
10.9763201157634
30
0
41
1
10
207.088641336128
20
11
30
0
41
1
10
207.162205981771
20
11
30
0
0
SPLINE
5
FC
100
AcDbEntity
8
1
62
256
6
ByLayer
370
13
48
1
60
0
100
AcDbSpline
70
4
71
3
72
43
73
39
40
0
40
0
40
0
40
0
40
0.062500000000001
40
0.062500000000001
40
0.125000000000002
40
0.125000000000002
40
0.187500000000003
40
0.187500000000003
40
0.250000000000004
40
0.250000000000004
40
0.312500000000005
40
0.312500000000005
40
0.375000000000006
40
0.375000000000006
40
0.437500000000007
40
0.437500000000007
40
0.500000000000008
40
0.500000000000008
40
0.562500000000009
40
0.562500000000009
40
0.593750000000009
40
0.593750000000009
40
0.601562500000008
40
0.601562500000008
40
0.609375000000007
40
0.625000000000007
40
0.625000000000007
40
0.687500000000006
40
0.687500000000006
40
0.750000000000005
40
0.750000000000005
40
0.812500000000004
40
0.812500000000004
40
0.875000000000003
40
0.875000000000003
40
0.937500000000001
40
0.937500000000001
40
1
40
1
40
1
40
1
41
1
10
206.492948785381
20
11
30
0
41
1
10
206.588852507
20
11
30
0
41
1
10
206.684756228619
20
10.9596855222101
30
0
41
1
10
206.876563671856
20
10.7853505914125
30
0
41
1
10
206.972467393474
20
10.6512365567958
30
0
41
1
10
207.164274836711
20
10.2814097422724
30
0
41
1
10
207.26017855833
20
10.0456267506323
30
0
41
1
10
207.451986001567
20
9.47250579064527
30
0
41
1
10
207.547889723186
20
9.13515100692089
30
0
41
1
10
207.739697166423
20
8.36828230074875
30
0
41
1
10
207.835600888041
20
7.93882064992658
30
0
41
1
10
208.027408331278
20
7.00599280645423
30
0
41
1
10
208.123312052897
20
6.5027374366328
30
0
41
1
10
208.315119496134
20
5.446920898043
30
0
41
1
10
208.411023217753
20
4.89449506103298
30
0
41
1
10
208.60283066099
20
3.7674405068058
30
0
41
1
10
208.698734382608
20
3.19293112363297
30
0
41
1
10
208.890541825845
20
2.04734401930276
30
0
41
1
10
208.986445547464
20
1.47634177092544
30
0
41
1
10
209.130301129892
20
0.638278076245598
30
0
41
1
10
209.178252990701
20
0.361954914249765
30
0
41
1
10
209.238192816712
20
0.0216410800441906
30
0
41
1
10
209.250180781915
20
-0.0460749769050892
30
0
41
1
10
209.274156712319
20
-0.182321674162523
30
0
41
1
10
209.310120607926
20
-0.387446730725003
30
0
41
1
10
209.346084503533
20
-0.594702393770547
30
0
41
1
10
209.465964155556
20
-1.28963561233442
30
0
41
1
10
209.561867877175
20
-1.85886228007033
30
0
41
1
10
209.753675320412
20
-3.00347446401682
30
0
41
1
10
209.849579042031
20
-3.57879011925456
30
0
41
1
10
210.041386485268
20
-4.71040744331074
30
0
41
1
10
210.137290206886
20
-5.26659360225847
30
0
41
1
10
210.329097650123
20
-6.33286552372405
30
0
41
1
10
210.425001371742
20
-6.84281581872727
30
0
41
1
10
210.616808814979
20
-7.79150048539142
30
0
41
1
10
210.712712536598
20
-8.23011937369432
30
0
41
1
10
210.904519979835
20
-9.0169214506804
30
0
41
1
10
211.000423701453
20
-9.36504489775152
30
0
41
1
10
211.096327423072
20
-9.6626645893335
30
0
0
SPLINE
5
FD
100
AcDbEntity
8
1
62
256
6
ByLayer
370
13
48
1
60
0
100
AcDbSpline
70
4
71
3
72
77
73
73
40
0
40
0
40
0
40
0
40
0.0312500000000012
40
0.0312500000000012
40
0.0625000000000024
40
0.0625000000000024
40
0.0937500000000036
40
0.0937500000000036
40
0.125000000000005
40
0.125000000000005
40
0.156250000000006
40
0.156250000000006
40
0.164062500000006
40
0.164062500000006
40
0.171875000000006
40
0.187500000000006
40
0.187500000000006
40
0.218750000000006
40
0.218750000000006
40
0.250000000000005
40
0.250000000000005
40
0.281250000000005
40
0.281250000000005
40
0.312500000000005
40
0.312500000000005
40
0.343750000000005
40
0.343750000000005
40
0.375000000000004
40
0.375000000000004
40
0.406250000000004
40
0.406250000000004
40
0.437500000000004
40
0.437500000000004
40
0.468750000000004
40
0.468750000000004
40
0.500000000000003
40
0.500000000000003
40
0.531250000000003
40
0.531250000000003
40
0.562500000000003
40
0.562500000000003
40
0.578125000000003
40
0.578125000000003
40
0.585937500000003
40
0.585937500000003
40
0.593750000000003
40
0.593750000000003
40
0.625000000000003
40
0.625000000000003
40
0.656250000000003
40
0.656250000000003
40
0.687500000000003
40
0.687500000000003
40
0.718750000000003
40
0.718750000000003
40
0.750000000000002
40
0.750000000000002
40
0.781250000000002
40
0.781250000000002
40
0.812500000000002
40
0.812500000000002
40
0.843750000000002
40
0.843750000000002
40
0.875000000000001
40
0.875000000000001
40
0.906250000000001
40
0.906250000000001
40
0.937500000000001
40
0.937500000000001
40
0.96875
40
0.96875
40
1
40
1
40
1
40
1
41
1
10
200.1
20
-9.05548051550045
30
0
41
1
10
200.168442090967
20
-9.31095894604249
30
0
41
1
10
200.236884181935
20
-9.54217442431116
30
0
41
1
10
200.37376836387
20
-9.95309297090364
30
0
41
1
10
200.442210454838
20
-10.1327990645712
30
0
41
1
10
200.579094636773
20
-10.4401348064372
30
0
41
1
10
200.64753672774
20
-10.5677751394562
30
0
41
1
10
200.784420909675
20
-10.7726370413455
30
0
41
1
10
200.852863000643
20
-10.849874257321
30
0
41
1
10
200.989747182578
20
-10.9574031311035
30
0
41
1
10
201.058189273545
20
-10.98771237423
30
0
41
1
10
201.143741887255
20
-10.9992445382296
30
0
41
1
10
201.160852409996
20
-11.0002366122552
30
0
41
1
10
201.19507345548
20
-10.9996691612742
30
0
41
1
10
201.246405023706
20
-10.9949694647332
30
0
41
1
10
201.297736591932
20
-10.9783477042869
30
0
41
1
10
201.400399728383
20
-10.9282802759171
30
0
41
1
10
201.46884181935
20
-10.8724268492715
30
0
41
1
10
201.605726001285
20
-10.7116840395736
30
0
41
1
10
201.674168092253
20
-10.6067777841411
30
0
41
1
10
201.811052274188
20
-10.3453987227012
30
0
41
1
10
201.879494365155
20
-10.1889126536708
30
0
41
1
10
202.016378547091
20
-9.82389737419089
30
0
41
1
10
202.084820638058
20
-9.61536145581582
30
0
41
1
10
202.221704819993
20
-9.14813456905
30
0
41
1
10
202.29014691096
20
-8.88944559632807
30
0
41
1
10
202.427031092896
20
-8.32624322088637
30
0
41
1
10
202.495473183863
20
-8.02174110435786
30
0
41
1
10
202.632357365798
20
-7.37348683640897
30
0
41
1
10
202.700799456766
20
-7.02975391747714
30
0
41
1
10
202.837683638701
20
-6.31139132141126
30
0
41
1
10
202.906125729668
20
-5.93678578851632
30
0
41
1
10
203.043009911603
20
-5.16614632928665
30
0
41
1
10
203.111452002571
20
-4.77013753436583
30
0
41
1
10
203.248336184506
20
-3.9665202257855
30
0
41
1
10
203.316778275473
20
-3.55893406353567
30
0
41
1
10
203.453662457408
20
-2.74162471849326
30
0
41
1
10
203.522104548376
20
-2.3319183846194
30
0
41
1
10
203.658988730311
20
-1.51886808553712
30
0
41
1
10
203.727430821278
20
-1.11553422719936
30
0
41
1
10
203.83009395773
20
-0.520651474845238
30
0
41
1
10
203.864315003213
20
-0.324031950462995
30
0
41
1
10
203.915646571439
20
-0.0321723027718974
30
0
41
1
10
203.932757094181
20
0.0644072627205219
30
0
41
1
10
203.966978139665
20
0.25920551369822
30
0
41
1
10
203.984088662406
20
0.357110647159999
30
0
41
1
10
204.069641276116
20
0.848940097362373
30
0
41
1
10
204.138083367083
20
1.24983609161407
30
0
41
1
10
204.274967549018
20
2.05972113082873
30
0
41
1
10
204.343409639986
20
2.46870158677592
30
0
41
1
10
204.480293821921
20
3.28654661432825
30
0
41
1
10
204.548735912888
20
3.69539578280197
30
0
41
1
10
204.685620094823
20
4.50369592517478
30
0
41
1
10
204.754062185791
20
4.90312558463194
30
0
41
1
10
204.890946367726
20
5.68278680988121
30
0
41
1
10
204.959388458694
20
6.06299356204522
30
0
41
1
10
205.096272640629
20
6.79459423822075
30
0
41
1
10
205.164714731596
20
7.14596344827152
30
0
41
1
10
205.301598913531
20
7.81121725017482
30
0
41
1
10
205.370041004499
20
8.12508120840408
30
0
41
1
10
205.506925186434
20
8.70829125262716
30
0
41
1
10
205.575367277401
20
8.97762410189239
30
0
41
1
10
205.712251459336
20
9.46689704514841
30
0
41
1
10
205.780693550304
20
9.68683306273766
30
0
41
1
10
205.917577732239
20
10.0748606127837
30
0
41
1
10
205.986019823206
20
10.242957059273
30
0
41
1
10
206.122904005141
20
10.5272618380855
30
0
41
1
10
206.191346096109
20
10.6434822163007
30
0
41
1
10
206.328230278044
20
10.8261363770299
30
0
41
1
10
206.396672369011
20
10.8925864944993
30
0
41
1
10
206.533556550947
20
10.9795094886065
30
0
41
1
10
206.601998641914
20
11
30
0
41
1
10
206.670440732882
20
11
30
0
0
SPLINE
5
FE
100
AcDbEntity
8
1
62
256
6
ByLayer
370
13
48
1
60
0
100
AcDbSpline
70
4
71
3
72
64
73
60
40
0
40
0
40
0
40
0
40
0.0624999999999997
40
0.0624999999999997
40
0.124999999999999
40
0.124999999999999
40
0.15625
40
0.15625
40
0.1875
40
0.1875
40
0.21875
40
0.21875
40
0.25
40
0.25
40
0.281250000000001
40
0.281250000000001
40
0.312500000000001
40
0.312500000000001
40
0.343750000000001
40
0.343750000000001
40
0.375000000000001
40
0.375000000000001
40
0.406250000000001
40
0.406250000000001
40
0.437500000000002
40
0.437500000000002
40
0.500000000000001
40
0.500000000000001
40
0.531250000000002
40
0.531250000000002
40
0.546875000000002
40
0.546875000000002
40
0.562500000000003
40
0.562500000000003
40
0.625000000000002
40
0.625000000000002
40
0.656250000000002
40
0.656250000000002
40
0.687500000000002
40
0.687500000000002
40
0.718750000000002
40
0.718750000000002
40
0.750000000000002
40
0.750000000000002
40
0.781250000000002
40
0.781250000000002
40
0.812500000000001
40
0.812500000000001
40
0.843750000000001
40
0.843750000000001
40
0.875000000000001
40
0.875000000000001
40
0.906250000000001
40
0.906250000000001
40
0.9375
40
0.9375
40
0.96875
40
0.96875
40
1
40
1
40
1
40
1
41
1
10
206.001183536492
20
11
30
0
41
1
10
206.107332367462
20
11
30
0
41
1
10
206.213481198433
20
10.9505623098751
30
0
41
1
10
206.425778860373
20
10.735393729141
30
0
41
1
10
206.531927691344
20
10.5695095852368
30
0
41
1
10
206.6911509378
20
10.2265444722934
30
0
41
1
10
206.744225353285
20
10.0966147297953
30
0
41
1
10
206.850374184255
20
9.80555170872097
30
0
41
1
10
206.90344859974
20
9.64441675980953
30
0
41
1
10
207.009597430711
20
9.29181199425892
30
0
41
1
10
207.062671846196
20
9.10034240823353
30
0
41
1
10
207.168820677167
20
8.68882239904275
30
0
41
1
10
207.221895092652
20
8.46877424868322
30
0
41
1
10
207.328043923622
20
8.00269927196635
30
0
41
1
10
207.381118339107
20
7.75667664860595
30
0
41
1
10
207.487267170078
20
7.24200518760625
30
0
41
1
10
207.540341585563
20
6.97336211920984
30
0
41
1
10
207.646490416533
20
6.41740129732858
30
0
41
1
10
207.699564832019
20
6.13009031604068
30
0
41
1
10
207.805713662989
20
5.54115378919892
30
0
41
1
10
207.858788078474
20
5.23953534881429
30
0
41
1
10
207.964936909445
20
4.62654178699168
30
0
41
1
10
208.01801132493
20
4.31517343695009
30
0
41
1
10
208.1241601559
20
3.68722500181806
30
0
41
1
10
208.177234571385
20
3.37065079144753
30
0
41
1
10
208.336457817841
20
2.41962094034631
30
0
41
1
10
208.442606648811
20
1.78411138347971
30
0
41
1
10
208.601829895267
20
0.851020804259235
30
0
41
1
10
208.654904310752
20
0.543294252589021
30
0
41
1
10
208.73451593398
20
0.0888683627585749
30
0
41
1
10
208.761053141723
20
-0.0607093720924468
30
0
41
1
10
208.814127557208
20
-0.363362504967853
30
0
41
1
10
208.84066476495
20
-0.51588892884746
30
0
41
1
10
208.973350803663
20
-1.28365029155972
30
0
41
1
10
209.079499634634
20
-1.91460362184486
30
0
41
1
10
209.23872288109
20
-2.86532676588686
30
0
41
1
10
209.291797296575
20
-3.18288183882828
30
0
41
1
10
209.397946127545
20
-3.81513254329661
30
0
41
1
10
209.45102054303
20
-4.12982294739462
30
0
41
1
10
209.557169374001
20
-4.75188832416109
30
0
41
1
10
209.610243789486
20
-5.05925694149545
30
0
41
1
10
209.716392620456
20
-5.66210360551781
30
0
41
1
10
209.769467035941
20
-5.95757464583946
30
0
41
1
10
209.875615866912
20
-6.5321343317585
30
0
41
1
10
209.928690282397
20
-6.81121594249922
30
0
41
1
10
210.034839113368
20
-7.34880141826406
30
0
41
1
10
210.087913528853
20
-7.60729890189995
30
0
41
1
10
210.194062359823
20
-8.10002116175735
30
0
41
1
10
210.247136775308
20
-8.33424084327646
30
0
41
1
10
210.353285606279
20
-8.77538744151215
30
0
41
1
10
210.406360021764
20
-8.98231102956618
30
0
41
1
10
210.512508852734
20
-9.3666483194641
30
0
41
1
10
210.56558326822
20
-9.54406070802457
30
0
41
1
10
210.67173209919
20
-9.86803177337723
30
0
41
1
10
210.724806514675
20
-10.0145911425377
30
0
41
1
10
210.830955345646
20
-10.2763946699433
30
0
41
1
10
210.884029761131
20
-10.3916412798034
30
0
41
1
10
210.990178592102
20
-10.5911917928648
30
0
41
1
10
211.043253007586
20
-10.6754994876561
30
0
41
1
10
211.096327423072
20
-10.7448913770932
30
0
0
SPLINE
5
FF
100
AcDbEntity
8
1
62
256
6
ByLayer
370
13
48
1
60
0
100
AcDbSpline
70
4
71
3
72
77
73
73
40
0
40
0
40
0
40
0
40
0.03125
40
0.03125
40
0.0624999999999999
40
0.0624999999999999
40
0.0937499999999999
40
0.0937499999999999
40
0.1015625
40
0.1015625
40
0.109375
40
0.125
40
0.125
40
0.15625
40
0.15625
40
0.1875
40
0.1875
40
0.21875
40
0.21875
40
0.25
40
0.25
40
0.28125
40
0.28125
40
0.3125
40
0.3125
40
0.34375
40
0.34375
40
0.375
40
0.375
40
0.40625
40
0.40625
40
0.4375
40
0.4375
40
0.46875
40
0.46875
40
0.5
40
0.5
40
0.53125
40
0.53125
40
0.546875
40
0.546875
40
0.5546875
40
0.5546875
40
0.5625
40
0.5625
40
0.59375
40
0.59375
40
0.625
40
0.625
40
0.65625
40
0.65625
40
0.6875
40
0.6875
40
0.71875
40
0.71875
40
0.75
40
0.75
40
0.78125
40
0.78125
40
0.8125
40
0.8125
40
0.84375
40
0.84375
40
0.875
40
0.875
40
0.90625
40
0.90625
40
0.9375
40
0.9375
40
0.96875
40
0.96875
40
1
40
1
40
1
40
1
41
1
10
200.1
20
-10.4564626936646
30
0
41
1
10
200.163319536292
20
-10.5797302386537
30
0
41
1
10
200.226639072583
20
-10.6809067067536
30
0
41
1
10
200.353278145166
20
-10.8409280715796
30
0
41
1
10
200.416597681458
20
-10.8997842262835
30
0
41
1
10
200.543236754041
20
-10.9782481342773
30
0
41
1
10
200.606556290333
20
-10.997867849731
30
0
41
1
10
200.685705710697
20
-11.0003267556523
30
0
41
1
10
200.70153559477
20
-10.9997258066322
30
0
41
1
10
200.733195362916
20
-10.9962895674501
30
0
41
1
10
200.780685015135
20
-10.9877766339299
30
0
41
1
10
200.828174667353
20
-10.968896095335
30
0
41
1
10
200.923153971791
20
-10.9165931625189
30
0
41
1
10
200.986473508082
20
-10.8623030843738
30
0
41
1
10
201.113112580665
20
-10.7117053741802
30
0
41
1
10
201.176432116957
20
-10.6153863227575
30
0
41
1
10
201.30307118954
20
-10.3787052712827
30
0
41
1
10
201.366390725832
20
-10.2383340826778
30
0
41
1
10
201.493029798415
20
-9.91301247479709
30
0
41
1
10
201.556349334706
20
-9.72805682669093
30
0
41
1
10
201.68298840729
20
-9.3147419668758
30
0
41
1
10
201.746307943581
20
-9.08638282865138
30
0
41
1
10
201.872947016164
20
-8.58923057850353
30
0
41
1
10
201.936266552456
20
-8.32044340036771
30
0
41
1
10
202.062905625039
20
-7.74710972150515
30
0
41
1
10
202.126225161331
20
-7.4425745485664
30
0
41
1
10
202.252864233914
20
-6.80386281310868
30
0
41
1
10
202.316183770205
20
-6.46970151251941
30
0
41
1
10
202.442822842789
20
-5.77889334381905
30
0
41
1
10
202.50614237908
20
-5.42226353345916
30
0
41
1
10
202.632781451663
20
-4.69421849172778
30
0
41
1
10
202.696100987955
20
-4.32281979565269
30
0
41
1
10
202.822740060538
20
-3.57296860224363
30
0
41
1
10
202.88605959683
20
-3.19453012993617
30
0
41
1
10
203.012698669413
20
-2.43789683920835
30
0
41
1
10
203.076018205704
20
-2.05971223892979
30
0
41
1
10
203.202657278287
20
-1.31008202879136
30
0
41
1
10
203.265976814579
20
-0.938642352070872
30
0
41
1
10
203.360956119017
20
-0.390624456928691
30
0
41
1
10
203.392615887162
20
-0.209466735449837
30
0
41
1
10
203.440105539381
20
0.0595682949603429
30
0
41
1
10
203.455935423454
20
0.149331842032098
30
0
41
1
10
203.4875951916
20
0.330042795258379
30
0
41
1
10
203.503425075673
20
0.420821289617607
30
0
41
1
10
203.582574496037
20
0.876646863173988
30
0
41
1
10
203.645894032329
20
1.24753738935294
30
0
41
1
10
203.772533104912
20
1.99640323227482
30
0
41
1
10
203.835852641203
20
2.37437285428169
30
0
41
1
10
203.962491713787
20
3.13096345003265
30
0
41
1
10
204.025811250078
20
3.50957444044053
30
0
41
1
10
204.152450322661
20
4.26019429971819
30
0
41
1
10
204.215769858953
20
4.63218932994135
30
0
41
1
10
204.342408931536
20
5.36186357976376
30
0
41
1
10
204.405728467828
20
5.71952635728158
30
0
41
1
10
204.532367540411
20
6.41282209068575
30
0
41
1
10
204.595687076702
20
6.74843795772475
30
0
41
1
10
204.722326149285
20
7.39043669454747
30
0
41
1
10
204.785645685577
20
7.69680414122115
30
0
41
1
10
204.91228475816
20
8.2741105120503
30
0
41
1
10
204.975604294452
20
8.54503784134982
30
0
41
1
10
205.102243367035
20
9.04668939848898
30
0
41
1
10
205.165562903327
20
9.2774073682574
30
0
41
1
10
205.29220197591
20
9.695559417825
30
0
41
1
10
205.355521512201
20
9.88299310188793
30
0
41
1
10
205.482160584785
20
10.2132904228546
30
0
41
1
10
205.545480121076
20
10.3561590215312
30
0
41
1
10
205.672119193659
20
10.5977632749205
30
0
41
1
10
205.735438729951
20
10.6965079405351
30
0
41
1
10
205.862077802534
20
10.851809409736
30
0
41
1
10
205.925397338825
20
10.9083775547303
30
0
41
1
10
206.052036411409
20
10.9824668720813
30
0
41
1
10
206.1153559477
20
11
30
0
41
1
10
206.178675483992
20
11
30
0
0
SPLINE
5
100
100
AcDbEntity
8
1
62
256
6
ByLayer
370
13
48
1
60
0
100
AcDbSpline
70
4
71
3
72
74
73
70
40
0
40
0
40
0
40
0
40
0.031250000000001
40
0.031250000000001
40
0.0625000000000021
40
0.0625000000000021
40
0.0937500000000031
40
0.0937500000000031
40
0.125000000000004
40
0.125000000000004
40
0.156250000000005
40
0.156250000000005
40
0.187500000000006
40
0.187500000000006
40
0.218750000000007
40
0.218750000000007
40
0.250000000000008
40
0.250000000000008
40
0.281250000000009
40
0.281250000000009
40
0.31250000000001
40
0.31250000000001
40
0.34375000000001
40
0.34375000000001
40
0.375000000000011
40
0.375000000000011
40
0.406250000000012
40
0.406250000000012
40
0.437500000000013
40
0.437500000000013
40
0.468750000000014
40
0.468750000000014
40
0.484375000000014
40
0.484375000000014
40
0.500000000000014
40
0.500000000000014
40
0.531250000000013
40
0.531250000000013
40
0.562500000000012
40
0.562500000000012
40
0.593750000000011
40
0.593750000000011
40
0.62500000000001
40
0.62500000000001
40
0.656250000000009
40
0.656250000000009
40
0.687500000000008
40
0.687500000000008
40
0.718750000000007
40
0.718750000000007
40
0.750000000000006
40
0.750000000000006
40
0.781250000000005
40
0.781250000000005
40
0.812500000000004
40
0.812500000000004
40
0.843750000000004
40
0.843750000000004
40
0.875000000000003
40
0.875000000000003
40
0.906250000000002
40
0.906250000000002
40
0.937500000000001
40
0.937500000000001
40
0.96875
40
0.96875
40
0.984375
40
0.984375
40
1
40
1
40
1
40
1
41
1
10
205.509418287602
20
11
30
0
41
1
10
205.567615257763
20
11
30
0
41
1
10
205.625812227925
20
10.9851927421736
30
0
41
1
10
205.742206168247
20
10.9228700647421
30
0
41
1
10
205.800403138408
20
10.8753468086107
30
0
41
1
10
205.91679707873
20
10.7450605280865
30
0
41
1
10
205.974994048891
20
10.6622899189211
30
0
41
1
10
206.091387989214
20
10.4597885327957
30
0
41
1
10
206.149584959375
20
10.3400513584909
30
0
41
1
10
206.265978899697
20
10.0629211566356
30
0
41
1
10
206.324175869858
20
9.90552389540156
30
0
41
1
10
206.440569810181
20
9.55356578042361
30
0
41
1
10
206.498766780342
20
9.35900368596887
30
0
41
1
10
206.615160720664
20
8.93448122049787
30
0
41
1
10
206.673357690825
20
8.70452308729992
30
0
41
1
10
206.789751631148
20
8.21223343044679
30
0
41
1
10
206.847948601309
20
7.94990761718122
30
0
41
1
10
206.964342541631
20
7.39704728614899
30
0
41
1
10
207.022539511792
20
7.1065214088996
30
0
41
1
10
207.138933452114
20
6.50234755107564
30
0
41
1
10
207.197130422275
20
6.18871014516347
30
0
41
1
10
207.313524362598
20
5.54402927035625
30
0
41
1
10
207.371721332759
20
5.21299705391661
30
0
41
1
10
207.488115273081
20
4.53953959148288
30
0
41
1
10
207.546312243242
20
4.19712500650689
30
0
41
1
10
207.662706183564
20
3.50687928218193
30
0
41
1
10
207.720903153726
20
3.15905716031651
30
0
41
1
10
207.837297094048
20
2.4636372884558
30
0
41
1
10
207.895494064209
20
2.11604623065753
30
0
41
1
10
208.011888004531
20
1.42615594668936
30
0
41
1
10
208.070084974692
20
1.08386082560099
30
0
41
1
10
208.157380429934
20
0.577635565614088
30
0
41
1
10
208.186478915015
20
0.410090598563897
30
0
41
1
10
208.244675885176
20
0.0778586768124399
30
0
41
1
10
208.273774370256
20
-0.0860900259415871
30
0
41
1
10
208.361069825498
20
-0.58457992494948
30
0
41
1
10
208.419266795659
20
-0.922633628687834
30
0
41
1
10
208.535660735982
20
-1.60626734553847
30
0
41
1
10
208.593857706143
20
-1.95184450379287
30
0
41
1
10
208.710251646465
20
-2.64580930289645
30
0
41
1
10
208.768448616626
20
-2.99419151616374
30
0
41
1
10
208.884842556949
20
-3.68838724603847
30
0
41
1
10
208.94303952711
20
-4.034192829456
30
0
41
1
10
209.059433467432
20
-4.7173938194515
30
0
41
1
10
209.117630437593
20
-5.05477926224782
30
0
41
1
10
209.234024377915
20
-5.71510692173996
30
0
41
1
10
209.292221348077
20
-6.03803802695285
30
0
41
1
10
209.408615288399
20
-6.66355234036254
30
0
41
1
10
209.46681225856
20
-6.96612447688477
30
0
41
1
10
209.583206198882
20
-7.54548216054965
30
0
41
1
10
209.641403169043
20
-7.82225797002079
30
0
41
1
10
209.757797109365
20
-8.34536746553465
30
0
41
1
10
209.815994079527
20
-8.59169390106425
30
0
41
1
10
209.932388019849
20
-9.05029134060476
30
0
41
1
10
209.99058499001
20
-9.26255836485606
30
0
41
1
10
210.106978930332
20
-9.65063696883598
30
0
41
1
10
210.165175900494
20
-9.82644811151457
30
0
41
1
10
210.281569840816
20
-10.1404950275512
30
0
41
1
10
210.339766810977
20
-10.2787336495778
30
0
41
1
10
210.456160751299
20
-10.5177580376767
30
0
41
1
10
210.51435772146
20
-10.6185492548635
30
0
41
1
10
210.630751661783
20
-10.7839162938899
30
0
41
1
10
210.688948631944
20
-10.8484992400293
30
0
41
1
10
210.805342572266
20
-10.9436097487417
30
0
41
1
10
210.863539542427
20
-10.9741451322964
30
0
41
1
10
210.950834997669
20
-10.9965476288409
30
0
41
1
10
210.979933482749
20
-11.0001198179172
30
0
41
1
10
211.038130452911
20
-10.9998740600068
30
0
41
1
10
211.067228937991
20
-10.9960494751343
30
0
41
1
10
211.096327423072
20
-10.9883230236013
30
0
0
SPLINE
5
101
100
AcDbEntity
8
1
62
256
6
ByLayer
370
13
48
1
60
0
100
AcDbSpline
70
4
71
3
72
74
73
70
40
0
40
0
40
0
40
0
40
0.015625
40
0.015625
40
0.0312500000000001
40
0.0312500000000001
40
0.0624999999999993
40
0.0624999999999993
40
0.0937499999999985
40
0.0937499999999985
40
0.124999999999998
40
0.124999999999998
40
0.156249999999997
40
0.156249999999997
40
0.187499999999996
40
0.187499999999996
40
0.218749999999995
40
0.218749999999995
40
0.249999999999995
40
0.249999999999995
40
0.281249999999994
40
0.281249999999994
40
0.312499999999993
40
0.312499999999993
40
0.343749999999992
40
0.343749999999992
40
0.374999999999991
40
0.374999999999991
40
0.406249999999991
40
0.406249999999991
40
0.43749999999999
40
0.43749999999999
40
0.468749999999989
40
0.468749999999989
40
0.499999999999988
40
0.499999999999988
40
0.515624999999988
40
0.515624999999988
40
0.531249999999988
40
0.531249999999988
40
0.562499999999989
40
0.562499999999989
40
0.59374999999999
40
0.59374999999999
40
0.624999999999991
40
0.624999999999991
40
0.656249999999991
40
0.656249999999991
40
0.687499999999992
40
0.687499999999992
40
0.718749999999993
40
0.718749999999993
40
0.749999999999994
40
0.749999999999994
40
0.781249999999995
40
0.781249999999995
40
0.812499999999995
40
0.812499999999995
40
0.843749999999996
40
0.843749999999996
40
0.874999999999997
40
0.874999999999997
40
0.906249999999998
40
0.906249999999998
40
0.937499999999998
40
0.937499999999998
40
0.968749999999999
40
0.968749999999999
40
1
40
1
40
1
40
1
41
1
10
200.1
20
-10.9883227316165
30
0
41
1
10
200.129098490808
20
-10.9960492829442
30
0
41
1
10
200.158196981616
20
-10.999873963634
30
0
41
1
10
200.216393963231
20
-11.0001199051445
30
0
41
1
10
200.245492454039
20
-10.9965478086417
30
0
41
1
10
200.332787926463
20
-10.9741455928248
30
0
41
1
10
200.390984908078
20
-10.943610399798
30
0
41
1
10
200.507378871309
20
-10.8485002737645
30
0
41
1
10
200.565575852925
20
-10.783917519767
30
0
41
1
10
200.681969816157
20
-10.6185508606634
30
0
41
1
10
200.740166797772
20
-10.5177598312438
30
0
41
1
10
200.856560761004
20
-10.2787358078309
30
0
41
1
10
200.914757742619
20
-10.1404973627059
30
0
41
1
10
201.03115170585
20
-9.82645078310318
30
0
41
1
10
201.089348687466
20
-9.65063979993832
30
0
41
1
10
201.205742650697
20
-9.26256149161162
30
0
41
1
10
201.263939632313
20
-9.05029460348234
30
0
41
1
10
201.380333595544
20
-8.59169740787655
30
0
41
1
10
201.43853057716
20
-8.34537108014632
30
0
41
1
10
201.554924540391
20
-7.82226176852905
30
0
41
1
10
201.613121522007
20
-7.5454860351482
30
0
41
1
10
201.729515485238
20
-6.96612847042152
30
0
41
1
10
201.787712466854
20
-6.66355637674784
30
0
41
1
10
201.904106430085
20
-6.03804211619996
30
0
41
1
10
201.962303411701
20
-5.71511102100823
30
0
41
1
10
202.078697374932
20
-5.05478335094585
30
0
41
1
10
202.136894356548
20
-4.71739788757148
30
0
41
1
10
202.253288319779
20
-4.03419682951943
30
0
41
1
10
202.311485301395
20
-3.68839119863964
30
0
41
1
10
202.427879264626
20
-2.99419535168613
30
0
41
1
10
202.486076246242
20
-2.64581306881888
30
0
41
1
10
202.602470209473
20
-1.95184811363859
30
0
41
1
10
202.660667191088
20
-1.606270868922
30
0
41
1
10
202.77706115432
20
-0.922636967604461
30
0
41
1
10
202.835258135935
20
-0.584583165872573
30
0
41
1
10
202.922553608359
20
-0.086093114967781
30
0
41
1
10
202.951652099167
20
0.0778556208514374
30
0
41
1
10
203.009849080782
20
0.410087573170273
30
0
41
1
10
203.03894757159
20
0.577632557405167
30
0
41
1
10
203.126243044014
20
1.08385787470542
30
0
41
1
10
203.184440025629
20
1.42615304170903
30
0
41
1
10
203.300833988861
20
2.1160434326118
30
0
41
1
10
203.359030970477
20
2.46363455143253
30
0
41
1
10
203.475424933708
20
3.15905455922695
30
0
41
1
10
203.533621915323
20
3.50687675600349
30
0
41
1
10
203.650015878555
20
4.19712264185858
30
0
41
1
10
203.70821286017
20
4.53953731344956
30
0
41
1
10
203.824606823401
20
5.21299495773448
30
0
41
1
10
203.882803805017
20
5.54402726940236
30
0
41
1
10
203.999197768249
20
6.18870833947469
30
0
41
1
10
204.057394749864
20
6.50234584541261
30
0
41
1
10
204.173788713095
20
7.10651990384753
30
0
41
1
10
204.231985694711
20
7.39704588166938
30
0
41
1
10
204.348379657942
20
7.94990641008434
30
0
41
1
10
204.406576639558
20
8.21223232014776
30
0
41
1
10
204.522970602789
20
8.70452216282538
30
0
41
1
10
204.581167584405
20
8.93448038503985
30
0
41
1
10
204.697561547636
20
9.35900301742191
30
0
41
1
10
204.755758529252
20
9.55356518976484
30
0
41
1
10
204.872152492483
20
9.90552344695797
30
0
41
1
10
204.930349474099
20
10.062920772517
30
0
41
1
10
205.04674343733
20
10.340051088062
30
0
41
1
10
205.104940418946
20
10.4597883117336
30
0
41
1
10
205.221334382177
20
10.6622897812707
30
0
41
1
10
205.279531363793
20
10.7450604244863
30
0
41
1
10
205.395925327024
20
10.8753467583507
30
0
41
1
10
205.45412230864
20
10.9228700337792
30
0
41
1
10
205.570516271871
20
10.9851927363369
30
0
41
1
10
205.628713253486
20
11
30
0
41
1
10
205.686910235102
20
11
30
0
0
SPLINE
5
102
100
AcDbEntity
8
1
62
256
6
ByLayer
370
13
48
1
60
0
100
AcDbSpline
70
4
71
3
72
78
73
74
40
0
40
0
40
0
40
0
40
0.03125
40
0.03125
40
0.0625
40
0.0625
40
0.09375
40
0.09375
40
0.125
40
0.125
40
0.15625
40
0.15625
40
0.1875
40
0.1875
40
0.21875
40
0.21875
40
0.25
40
0.25
40
0.281250000000001
40
0.281250000000001
40
0.312500000000001
40
0.312500000000001
40
0.343750000000001
40
0.343750000000001
40
0.375000000000001
40
0.375000000000001
40
0.406250000000001
40
0.406250000000001
40
0.437500000000001
40
0.437500000000001
40
0.445312500000002
40
0.445312500000002
40
0.453125000000002
40
0.453125000000002
40
0.468750000000002
40
0.468750000000002
40
0.500000000000002
40
0.500000000000002
40
0.531250000000003
40
0.531250000000003
40
0.562500000000003
40
0.562500000000003
40
0.593750000000003
40
0.593750000000003
40
0.625000000000003
40
0.625000000000003
40
0.656250000000003
40
0.656250000000003
40
0.687500000000003
40
0.687500000000003
40
0.718750000000003
40
0.718750000000003
40
0.750000000000003
40
0.750000000000003
40
0.781250000000003
40
0.781250000000003
40
0.812500000000003
40
0.812500000000003
40
0.843750000000003
40
0.843750000000003
40
0.875000000000004
40
0.875000000000004
40
0.890625000000003
40
0.890625000000003
40
0.898437500000003
40
0.898437500000003
40
0.906250000000002
40
0.906250000000002
40
0.937500000000001
40
0.937500000000001
40
0.968750000000001
40
0.968750000000001
40
1
40
1
40
1
40
1
41
1
10
205.017653038713
20
11
30
0
41
1
10
205.08097256355
20
11
30
0
41
1
10
205.144292088387
20
10.9824668784353
30
0
41
1
10
205.270931138061
20
10.9083775885846
30
0
41
1
10
205.334250662898
20
10.8518094647475
30
0
41
1
10
205.460889712572
20
10.6965080540878
30
0
41
1
10
205.524209237409
20
10.597763425867
30
0
41
1
10
205.650848287084
20
10.3561592639407
30
0
41
1
10
205.714167811921
20
10.2132907193396
30
0
41
1
10
205.840806861595
20
9.88299352241245
30
0
41
1
10
205.904126386432
20
9.69555990831435
30
0
41
1
10
206.030765436106
20
9.27740801242385
30
0
41
1
10
206.094084960943
20
9.04669012636211
30
0
41
1
10
206.220724010617
20
8.54503874695482
30
0
41
1
10
206.284043535454
20
8.27411151166856
30
0
41
1
10
206.410682585128
20
7.69680533473255
30
0
41
1
10
206.474002109966
20
7.3904379879223
30
0
41
1
10
206.60064115964
20
6.74843945165227
30
0
41
1
10
206.663960684477
20
6.41282368528454
30
0
41
1
10
206.790599734151
20
5.71952814894794
30
0
41
1
10
206.853919258988
20
5.36186546781025
30
0
41
1
10
206.980558308662
20
4.63219140183807
30
0
41
1
10
207.043877833499
20
4.26019645907331
30
0
41
1
10
207.170516883173
20
3.50957676206204
30
0
41
1
10
207.23383640801
20
3.13096584645629
30
0
41
1
10
207.360475457684
20
2.3743753850801
30
0
41
1
10
207.423794982521
20
1.99640582264601
30
0
41
1
10
207.550434032196
20
1.24754008230681
30
0
41
1
10
207.613753557033
20
0.876649599142581
30
0
41
1
10
207.692902963079
20
0.420824068898185
30
0
41
1
10
207.708732844288
20
0.330045582681095
30
0
41
1
10
207.740392606707
20
0.149334644705874
30
0
41
1
10
207.756222487916
20
0.0595710920751458
30
0
41
1
10
207.803712131544
20
-0.209463861369358
30
0
41
1
10
207.835371893962
20
-0.39062153229014
30
0
41
1
10
207.930351181218
20
-0.93863927906645
30
0
41
1
10
207.993670706055
20
-1.3100788612735
30
0
41
1
10
208.120309755729
20
-2.05970889725685
30
0
41
1
10
208.183629280566
20
-2.43789341791151
30
0
41
1
10
208.31026833024
20
-3.19452657060788
30
0
41
1
10
208.373587855077
20
-3.57296498452988
30
0
41
1
10
208.500226904752
20
-4.32281608836769
30
0
41
1
10
208.563546429589
20
-4.69421475328036
30
0
41
1
10
208.690185479263
20
-5.42225976481299
30
0
41
1
10
208.7535050041
20
-5.77888957615701
30
0
41
1
10
208.880144053774
20
-6.46969778214648
30
0
41
1
10
208.943463578611
20
-6.80385911905393
30
0
41
1
10
209.070102628285
20
-7.4425709634117
30
0
41
1
10
209.133422153122
20
-7.74710620893492
30
0
41
1
10
209.260061202796
20
-8.3204400676741
30
0
41
1
10
209.323380727634
20
-8.58922735309312
30
0
41
1
10
209.450019777308
20
-9.08637984855378
30
0
41
1
10
209.513339302145
20
-9.31473912478896
30
0
41
1
10
209.639978351819
20
-9.72805428543035
30
0
41
1
10
209.703297876656
20
-9.91301009632713
30
0
41
1
10
209.82993692633
20
-10.2383320473428
30
0
41
1
10
209.893256451167
20
-10.3787034162658
30
0
41
1
10
210.019895500842
20
-10.6153848381534
30
0
41
1
10
210.083215025678
20
-10.7117040796477
30
0
41
1
10
210.209854075353
20
-10.8623021722094
30
0
41
1
10
210.27317360019
20
-10.9165924426343
30
0
41
1
10
210.368152887445
20
-10.9688956605003
30
0
41
1
10
210.399812649864
20
-10.9814827806934
30
0
41
1
10
210.447302293492
20
-10.9934514800875
30
0
41
1
10
210.463132174701
20
-10.9962894139445
30
0
41
1
10
210.49479193712
20
-10.9997257456774
30
0
41
1
10
210.510621818329
20
-11.0003267402879
30
0
41
1
10
210.589771224375
20
-10.9978680659774
30
0
41
1
10
210.653090749212
20
-10.9782485533664
30
0
41
1
10
210.779729798886
20
-10.8997850846622
30
0
41
1
10
210.843049323724
20
-10.8409291664165
30
0
41
1
10
210.969688373398
20
-10.6809083040649
30
0
41
1
10
211.033007898235
20
-10.5797321019829
30
0
41
1
10
211.096327423072
20
-10.4564648343765
30
0
0
SPLINE
5
103
100
AcDbEntity
8
1
62
256
6
ByLayer
370
13
48
1
60
0
100
AcDbSpline
70
4
71
3
72
64
73
60
40
0
40
0
40
0
40
0
40
0.0312500000000006
40
0.0312500000000006
40
0.0625000000000012
40
0.0625000000000012
40
0.0937500000000018
40
0.0937500000000018
40
0.125000000000002
40
0.125000000000002
40
0.156250000000003
40
0.156250000000003
40
0.187500000000004
40
0.187500000000004
40
0.218750000000004
40
0.218750000000004
40
0.250000000000005
40
0.250000000000005
40
0.281250000000005
40
0.281250000000005
40
0.312500000000006
40
0.312500000000006
40
0.343750000000006
40
0.343750000000006
40
0.375000000000007
40
0.375000000000007
40
0.437500000000007
40
0.437500000000007
40
0.453125000000007
40
0.453125000000007
40
0.468750000000007
40
0.468750000000007
40
0.500000000000006
40
0.500000000000006
40
0.562500000000006
40
0.562500000000006
40
0.593750000000005
40
0.593750000000005
40
0.625000000000005
40
0.625000000000005
40
0.656250000000005
40
0.656250000000005
40
0.687500000000004
40
0.687500000000004
40
0.718750000000004
40
0.718750000000004
40
0.750000000000003
40
0.750000000000003
40
0.781250000000003
40
0.781250000000003
40
0.812500000000002
40
0.812500000000002
40
0.843750000000002
40
0.843750000000002
40
0.875000000000002
40
0.875000000000002
40
0.937500000000001
40
0.937500000000001
40
1
40
1
40
1
40
1
41
1
10
200.1
20
-10.7448928148006
30
0
41
1
10
200.15307442694
20
-10.6755011160295
30
0
41
1
10
200.20614885388
20
-10.5911936104246
30
0
41
1
10
200.312297707759
20
-10.3916434674652
30
0
41
1
10
200.365372134699
20
-10.2763970385092
30
0
41
1
10
200.471520988578
20
-10.0145938591815
30
0
41
1
10
200.524595415518
20
-9.86803465718211
30
0
41
1
10
200.630744269397
20
-9.54406390720013
30
0
41
1
10
200.683818696337
20
-9.3666516668365
30
0
41
1
10
200.789967550216
20
-8.98231464978736
30
0
41
1
10
200.843041977156
20
-8.77539118637418
30
0
41
1
10
200.949190831036
20
-8.33424481027197
30
0
41
1
10
201.002265257975
20
-8.10002522623776
30
0
41
1
10
201.108414111855
20
-7.60730313187474
30
0
41
1
10
201.161488538794
20
-7.34880571624507
30
0
41
1
10
201.267637392674
20
-6.81122034613395
30
0
41
1
10
201.320711819614
20
-6.53213877304236
30
0
41
1
10
201.426860673493
20
-5.95757913265021
30
0
41
1
10
201.479935100433
20
-5.66210810021235
30
0
41
1
10
201.586083954312
20
-5.05926142412926
30
0
41
1
10
201.639158381252
20
-4.75189278685977
30
0
41
1
10
201.745307235131
20
-4.12982734545937
30
0
41
1
10
201.798381662071
20
-3.81513689667384
30
0
41
1
10
201.90453051595
20
-3.18288608193907
30
0
41
1
10
201.95760494289
20
-2.86533094343037
30
0
41
1
10
202.116828223709
20
-1.91460757784827
30
0
41
1
10
202.222977077589
20
-1.28365406686638
30
0
41
1
10
202.355663144938
20
-0.515892458868962
30
0
41
1
10
202.382200358408
20
-0.363365984953958
30
0
41
1
10
202.435274785348
20
-0.0607127505519998
30
0
41
1
10
202.461811998817
20
0.0888650129838595
30
0
41
1
10
202.541423639227
20
0.543290948582325
30
0
41
1
10
202.594498066167
20
0.851017537715762
30
0
41
1
10
202.753721346986
20
1.78410825035669
30
0
41
1
10
202.859870200865
20
2.41961792457849
30
0
41
1
10
203.019093481684
20
3.37064798905973
30
0
41
1
10
203.072167908624
20
3.68722227669141
30
0
41
1
10
203.178316762504
20
4.31517087665313
30
0
41
1
10
203.231391189443
20
4.62653931426016
30
0
41
1
10
203.337540043322
20
5.23953305888523
30
0
41
1
10
203.390614470262
20
5.54115159450129
30
0
41
1
10
203.496763324142
20
6.13008831630148
30
0
41
1
10
203.549837751081
20
6.4173993973088
30
0
41
1
10
203.655986604961
20
6.97336041960946
30
0
41
1
10
203.7090610319
20
7.24200358869714
30
0
41
1
10
203.81520988578
20
7.75667524845551
30
0
41
1
10
203.86828431272
20
8.00269796987459
30
0
41
1
10
203.974433166599
20
8.46877313665823
30
0
41
1
10
204.027507593539
20
8.68882137901829
30
0
41
1
10
204.133656447418
20
9.1003415631607
30
0
41
1
10
204.186730874358
20
9.29181123213164
30
0
41
1
10
204.292879728237
20
9.6444161521533
30
0
41
1
10
204.345954155177
20
9.80555117258731
30
0
41
1
10
204.452103009056
20
10.0966143236715
30
0
41
1
10
204.505177435996
20
10.226544124657
30
0
41
1
10
204.664400716815
20
10.569509392286
30
0
41
1
10
204.770549570695
20
10.7353936112868
30
0
41
1
10
204.982847278454
20
10.9505622884164
30
0
41
1
10
205.088996132333
20
11
30
0
41
1
10
205.195144986213
20
11
30
0
0
SPLINE
5
104
100
AcDbEntity
8
1
62
256
6
ByLayer
370
13
48
1
60
0
100
AcDbSpline
70
4
71
3
72
78
73
74
40
0
40
0
40
0
40
0
40
0.0312500000000009
40
0.0312500000000009
40
0.0625000000000018
40
0.0625000000000018
40
0.0937500000000027
40
0.0937500000000027
40
0.125000000000004
40
0.125000000000004
40
0.156250000000004
40
0.156250000000004
40
0.187500000000005
40
0.187500000000005
40
0.218750000000006
40
0.218750000000006
40
0.250000000000007
40
0.250000000000007
40
0.281250000000008
40
0.281250000000008
40
0.312500000000009
40
0.312500000000009
40
0.34375000000001
40
0.34375000000001
40
0.375000000000011
40
0.375000000000011
40
0.406250000000011
40
0.406250000000011
40
0.414062500000011
40
0.414062500000011
40
0.421875000000011
40
0.421875000000011
40
0.437500000000011
40
0.437500000000011
40
0.468750000000011
40
0.468750000000011
40
0.50000000000001
40
0.50000000000001
40
0.53125000000001
40
0.53125000000001
40
0.562500000000009
40
0.562500000000009
40
0.593750000000009
40
0.593750000000009
40
0.625000000000008
40
0.625000000000008
40
0.656250000000008
40
0.656250000000008
40
0.687500000000007
40
0.687500000000007
40
0.718750000000006
40
0.718750000000006
40
0.750000000000006
40
0.750000000000006
40
0.781250000000005
40
0.781250000000005
40
0.812500000000004
40
0.812500000000004
40
0.828125000000004
40
0.828125000000004
40
0.835937500000003
40
0.835937500000003
40
0.843750000000003
40
0.843750000000003
40
0.875000000000002
40
0.875000000000002
40
0.906250000000002
40
0.906250000000002
40
0.937500000000001
40
0.937500000000001
40
0.968750000000001
40
0.968750000000001
40
1
40
1
40
1
40
1
41
1
10
204.525887789823
20
11
30
0
41
1
10
204.594329869336
20
11
30
0
41
1
10
204.662771948849
20
10.9795094954787
30
0
41
1
10
204.799656107875
20
10.8925865312696
30
0
41
1
10
204.868098187388
20
10.8261364368408
30
0
41
1
10
205.004982346414
20
10.6434823399044
30
0
41
1
10
205.073424425927
20
10.527262002454
30
0
41
1
10
205.210308584953
20
10.2429573231372
30
0
41
1
10
205.278750664466
20
10.0748609353858
30
0
41
1
10
205.415634823492
20
9.6868335194217
30
0
41
1
10
205.484076903005
20
9.46689757717502
30
0
41
1
10
205.620961062031
20
8.97762479814071
30
0
41
1
10
205.689403141544
20
8.70829203774338
30
0
41
1
10
205.82628730057
20
8.12508218020238
30
0
41
1
10
205.894729380083
20
7.81121831976762
30
0
41
1
10
206.031613539109
20
7.14596471676097
30
0
41
1
10
206.100055618622
20
6.79459560778821
30
0
41
1
10
206.236939777648
20
6.06299513106418
30
0
41
1
10
206.305381857161
20
5.6827884772502
30
0
41
1
10
206.442266016187
20
4.9031274403456
30
0
41
1
10
206.5107080957
20
4.50369787086515
30
0
41
1
10
206.647592254726
20
3.69539789543873
30
0
41
1
10
206.716034334239
20
3.28654880392517
30
0
41
1
10
206.852918493265
20
2.4687039140544
30
0
41
1
10
206.921360572778
20
2.05972351882792
30
0
41
1
10
207.058244731805
20
1.24983858315664
30
0
41
1
10
207.126686811317
20
0.848942631734019
30
0
41
1
10
207.212239410708
20
0.357113223768692
30
0
41
1
10
207.229349930587
20
0.259208098192602
30
0
41
1
10
207.263570970343
20
0.0644098618723206
30
0
41
1
10
207.280681490222
20
-0.0321696906093791
30
0
41
1
10
207.332013049856
20
-0.324029261769226
30
0
41
1
10
207.366234089613
20
-0.520648736011339
30
0
41
1
10
207.468897208883
20
-1.11553134183436
30
0
41
1
10
207.537339288395
20
-1.51886510765579
30
0
41
1
10
207.674223447421
20
-2.33191523923551
30
0
41
1
10
207.742665526934
20
-2.7416214981489
30
0
41
1
10
207.87954968596
20
-3.55893071818272
30
0
41
1
10
207.947991765473
20
-3.96651683041554
30
0
41
1
10
208.0848759245
20
-4.77013407054901
30
0
41
1
10
208.153318004013
20
-5.166142847071
30
0
41
1
10
208.290202163038
20
-5.93678230609973
30
0
41
1
10
208.358644242551
20
-6.31138785721654
30
0
41
1
10
208.495528401577
20
-7.02975052881317
30
0
41
1
10
208.563970481091
20
-7.37348350506443
30
0
41
1
10
208.700854640117
20
-8.02173792616878
30
0
41
1
10
208.76929671963
20
-8.32624013852706
30
0
41
1
10
208.906180878656
20
-8.88944274043976
30
0
41
1
10
208.974622958168
20
-9.14813184378093
30
0
41
1
10
209.111507117194
20
-9.61535902018915
30
0
41
1
10
209.179949196708
20
-9.82389509755481
30
0
41
1
10
209.316833355734
20
-10.1889107151521
30
0
41
1
10
209.385275435247
20
-10.3453969632736
30
0
41
1
10
209.522159594273
20
-10.6067763939586
30
0
41
1
10
209.590601673786
20
-10.7116828395135
30
0
41
1
10
209.727485832812
20
-10.8724260316783
30
0
41
1
10
209.795927912325
20
-10.9282796506458
30
0
41
1
10
209.898591031594
20
-10.9783473633342
30
0
41
1
10
209.932812071351
20
-10.9894286310544
30
0
41
1
10
209.984143630985
20
-10.9981021759758
30
0
41
1
10
210.001254150864
20
-10.9996691001259
30
0
41
1
10
210.03547519062
20
-11.000236642916
30
0
41
1
10
210.052585710499
20
-10.9992446153655
30
0
41
1
10
210.13813830989
20
-10.9877126910095
30
0
41
1
10
210.206580389403
20
-10.957403658539
30
0
41
1
10
210.343464548429
20
-10.8498752415544
30
0
41
1
10
210.411906627942
20
-10.772638271733
30
0
41
1
10
210.548790786968
20
-10.5677768919302
30
0
41
1
10
210.617232866481
20
-10.4401368348401
30
0
41
1
10
210.754117025507
20
-10.1328016653942
30
0
41
1
10
210.82255910502
20
-9.95309586819462
30
0
41
1
10
210.959443264046
20
-9.5421779227714
30
0
41
1
10
211.027885343559
20
-9.31096274916143
30
0
41
1
10
211.096327423072
20
-9.05548462017191
30
0
0
SPLINE
5
105
100
AcDbEntity
8
1
62
256
6
ByLayer
370
13
48
1
60
0
100
AcDbSpline
70
4
71
3
72
43
73
39
40
0
40
0
40
0
40
0
40
0.0624999999999988
40
0.0624999999999988
40
0.124999999999998
40
0.124999999999998
40
0.187499999999996
40
0.187499999999996
40
0.249999999999995
40
0.249999999999995
40
0.312499999999994
40
0.312499999999994
40
0.374999999999993
40
0.374999999999993
40
0.390624999999993
40
0.398437499999993
40
0.398437499999993
40
0.406249999999993
40
0.406249999999993
40
0.437499999999993
40
0.437499999999993
40
0.499999999999993
40
0.499999999999993
40
0.562499999999994
40
0.562499999999994
40
0.624999999999995
40
0.624999999999995
40
0.687499999999996
40
0.687499999999996
40
0.749999999999997
40
0.749999999999997
40
0.812499999999997
40
0.812499999999997
40
0.874999999999998
40
0.874999999999998
40
0.937499999999999
40
0.937499999999999
40
1
40
1
40
1
40
1
41
1
10
200.1
20
-9.66266800184073
30
0
41
1
10
200.195903744527
20
-9.3650486222424
30
0
41
1
10
200.291807489055
20
-9.01692545174211
30
0
41
1
10
200.48361497811
20
-8.23012383026472
30
0
41
1
10
200.579518722638
20
-7.79150512072996
30
0
41
1
10
200.771326211693
20
-6.84282070130809
30
0
41
1
10
200.867229956221
20
-6.33287047478123
30
0
41
1
10
201.059037445276
20
-5.26659858472837
30
0
41
1
10
201.154941189803
20
-4.71041238888117
30
0
41
1
10
201.346748678858
20
-3.57879490503259
30
0
41
1
10
201.442652423386
20
-3.00347912714321
30
0
41
1
10
201.634459912441
20
-1.85886663978417
30
0
41
1
10
201.730363656969
20
-1.28963979150544
30
0
41
1
10
201.850243337628
20
-0.594706329046204
30
0
41
1
10
201.886207241826
20
-0.387450591457139
30
0
41
1
10
201.922171146024
20
-0.182325458753269
30
0
41
1
10
201.946147082156
20
-0.0460787104291001
30
0
41
1
10
201.958135050222
20
0.0216373660518343
30
0
41
1
10
202.018074890551
20
0.361951235526959
30
0
41
1
10
202.066026762815
20
0.638274431980392
30
0
41
1
10
202.209882379606
20
1.47633824905682
30
0
41
1
10
202.305786124134
20
2.04734060466009
30
0
41
1
10
202.497593613189
20
3.19292797062093
30
0
41
1
10
202.593497357717
20
3.76743750820529
30
0
41
1
10
202.785304846772
20
4.89449240590164
30
0
41
1
10
202.881208591299
20
5.44691843188298
30
0
41
1
10
203.073016080355
20
6.50273536304269
30
0
41
1
10
203.168919824882
20
7.00599093629694
30
0
41
1
10
203.360727313937
20
7.93881917764281
30
0
41
1
10
203.456631058465
20
8.36828102272116
30
0
41
1
10
203.64843854752
20
9.13515008671777
30
0
41
1
10
203.744342292047
20
9.4725050338827
30
0
41
1
10
203.936149781102
20
10.0456262752555
30
0
41
1
10
204.03205352563
20
10.2814093848141
30
0
41
1
10
204.223861014685
20
10.6512363841995
30
0
41
1
10
204.319764759213
20
10.7853504858243
30
0
41
1
10
204.511572248268
20
10.9596855028654
30
0
41
1
10
204.607475992795
20
11
30
0
41
1
10
204.703379737323
20
11
30
0
0
SPLINE
5
106
100
AcDbEntity
8
1
62
256
6
ByLayer
370
13
48
1
60
0
100
AcDbSpline
70
4
71
3
72
79
73
75
40
0
40
0
40
0
40
0
40
0.0312500000000034
40
0.0312500000000034
40
0.0625000000000069
40
0.0625000000000069
40
0.0937500000000103
40
0.0937500000000103
40
0.125000000000014
40
0.125000000000014
40
0.156250000000017
40
0.156250000000017
40
0.187500000000021
40
0.187500000000021
40
0.218750000000024
40
0.218750000000024
40
0.250000000000028
40
0.250000000000028
40
0.281250000000031
40
0.281250000000031
40
0.312500000000034
40
0.312500000000034
40
0.343750000000038
40
0.343750000000038
40
0.375000000000041
40
0.375000000000041
40
0.382812500000042
40
0.386718750000042
40
0.386718750000042
40
0.390625000000043
40
0.390625000000043
40
0.406250000000041
40
0.406250000000041
40
0.437500000000039
40
0.437500000000039
40
0.468750000000037
40
0.468750000000037
40
0.500000000000035
40
0.500000000000035
40
0.531250000000033
40
0.531250000000033
40
0.56250000000003
40
0.56250000000003
40
0.593750000000028
40
0.593750000000028
40
0.625000000000026
40
0.625000000000026
40
0.656250000000024
40
0.656250000000024
40
0.687500000000021
40
0.687500000000021
40
0.718750000000019
40
0.718750000000019
40
0.750000000000017
40
0.750000000000017
40
0.765625000000016
40
0.765625000000016
40
0.773437500000015
40
0.773437500000015
40
0.781250000000015
40
0.781250000000015
40
0.812500000000013
40
0.812500000000013
40
0.843750000000011
40
0.843750000000011
40
0.875000000000008
40
0.875000000000008
40
0.906250000000006
40
0.906250000000006
40
0.937500000000004
40
0.937500000000004
40
0.968750000000002
40
0.968750000000002
40
1
40
1
40
1
40
1
41
1
10
204.034122540933
20
11
30
0
41
1
10
204.107687175122
20
11
30
0
41
1
10
204.181251809311
20
10.9763201231549
30
0
41
1
10
204.328381077689
20
10.8754860633089
30
0
41
1
10
204.401945711878
20
10.7983066122129
30
0
41
1
10
204.549074980256
20
10.5859415987234
30
0
41
1
10
204.622639614445
20
10.4507332754579
30
0
41
1
10
204.769768882823
20
10.1201466458576
30
0
41
1
10
204.843333517012
20
9.9247530611166
30
0
41
1
10
204.99046278539
20
9.47459015807746
30
0
41
1
10
205.064027419579
20
9.21981748207267
30
0
41
1
10
205.211156687957
20
8.65494424547063
30
0
41
1
10
205.284721322145
20
8.34485456636813
30
0
41
1
10
205.431850590523
20
7.67654213809482
30
0
41
1
10
205.505415224712
20
7.31834358478216
30
0
41
1
10
205.65254449309
20
6.56362201345482
30
0
41
1
10
205.726109127279
20
6.16713231104922
30
0
41
1
10
205.873238395657
20
5.34736907553051
30
0
41
1
10
205.946803029846
20
4.92413172347065
30
0
41
1
10
206.093932298224
20
4.06307797242945
30
0
41
1
10
206.167496932413
20
3.62529423849924
30
0
41
1
10
206.314626200791
20
2.74695996890082
30
0
41
1
10
206.388190834979
20
2.30643385789657
30
0
41
1
10
206.535320103357
20
1.43316199190914
30
0
41
1
10
206.608884737546
20
1.00043029054012
30
0
41
1
10
206.700840530283
20
0.469815348011736
30
0
41
1
10
206.728427268103
20
0.311395897972005
30
0
41
1
10
206.756014005924
20
0.154253585041033
30
0
41
1
10
206.774405164471
20
0.0497892742239685
30
0
41
1
10
206.783600743745
20
-0.002192457172896
30
0
41
1
10
206.829578640113
20
-0.262897400220311
30
0
41
1
10
206.866360957208
20
-0.473877471130834
30
0
41
1
10
206.976707908491
20
-1.11269832934374
30
0
41
1
10
207.05027254268
20
-1.54648166068057
30
0
41
1
10
207.197401811058
20
-2.42100896576898
30
0
41
1
10
207.270966445247
20
-2.86173796743069
30
0
41
1
10
207.418095713625
20
-3.73949237913004
30
0
41
1
10
207.491660347814
20
-4.17649252422447
30
0
41
1
10
207.638789616192
20
-5.03492047795953
30
0
41
1
10
207.712354250381
20
-5.45631509512654
30
0
41
1
10
207.859483518758
20
-6.27134752136749
30
0
41
1
10
207.933048152947
20
-6.66494913312016
30
0
41
1
10
208.080177421325
20
-7.41295754021306
30
0
41
1
10
208.153742055514
20
-7.76733158172991
30
0
41
1
10
208.300871323892
20
-8.42725335590242
30
0
41
1
10
208.374435958081
20
-8.73277792548737
30
0
41
1
10
208.521565226459
20
-9.2880371564454
30
0
41
1
10
208.595129860648
20
-9.53776218793908
30
0
41
1
10
208.742259129026
20
-9.97763100451701
30
0
41
1
10
208.815823763215
20
-10.1677793161194
30
0
41
1
10
208.962953031592
20
-10.4879512680868
30
0
41
1
10
209.036517665781
20
-10.617991032182
30
0
41
1
10
209.183646934159
20
-10.8203280936697
30
0
41
1
10
209.257211568348
20
-10.892648563437
30
0
41
1
10
209.367558519632
20
-10.9613470983664
30
0
41
1
10
209.404340836726
20
-10.9776320534484
30
0
41
1
10
209.459514312368
20
-10.992692099312
30
0
41
1
10
209.477905470915
20
-10.99615157389
30
0
41
1
10
209.51468778801
20
-11.000049145581
30
0
41
1
10
209.533078946557
20
-11.0004954814523
30
0
41
1
10
209.625034739293
20
-10.9953288593135
30
0
41
1
10
209.698599373482
20
-10.9672249064524
30
0
41
1
10
209.84572864186
20
-10.8570730581362
30
0
41
1
10
209.919293276049
20
-10.7749999285608
30
0
41
1
10
210.066422544427
20
-10.5525555524352
30
0
41
1
10
210.139987178616
20
-10.4121619949816
30
0
41
1
10
210.287116446994
20
-10.0711498766977
30
0
41
1
10
210.360681081182
20
-9.87051691737298
30
0
41
1
10
210.50781034956
20
-9.41009656765129
30
0
41
1
10
210.581374983749
20
-9.15030700663976
30
0
41
1
10
210.728504252127
20
-8.5759053374334
30
0
41
1
10
210.802068886316
20
-8.26130535539124
30
0
41
1
10
210.949198154694
20
-7.58473186126798
30
0
41
1
10
211.022762788883
20
-7.22278354533455
30
0
41
1
10
211.096327423072
20
-6.84214752998744
30
0
0
SPLINE
5
107
100
AcDbEntity
8
1
62
256
6
ByLayer
370
13
48
1
60
0
100
AcDbSpline
70
4
71
3
72
43
73
39
40
0
40
0
40
0
40
0
40
0.0625
40
0.0625
40
0.125
40
0.125
40
0.1875
40
0.1875
40
0.25
40
0.25
40
0.3125
40
0.3125
40
0.328125
40
0.328125
40
0.335937499999999
40
0.335937499999999
40
0.343749999999999
40
0.375
40
0.375
40
0.4375
40
0.4375
40
0.5
40
0.5
40
0.5625
40
0.5625
40
0.625
40
0.625
40
0.6875
40
0.6875
40
0.75
40
0.75
40
0.8125
40
0.8125
40
0.875
40
0.875
40
0.9375
40
0.9375
40
1
40
1
40
1
40
1
41
1
10
200.1
20
-7.72167846046239
30
0
41
1
10
200.185658635176
20
-7.31723272303921
30
0
41
1
10
200.271317270351
20
-6.88188031029512
30
0
41
1
10
200.442634540703
20
-5.96592561645781
30
0
41
1
10
200.528293175879
20
-5.48539891685269
30
0
41
1
10
200.69961044623
20
-4.49810945561359
30
0
41
1
10
200.785269081406
20
-3.99142079623366
30
0
41
1
10
200.956586351757
20
-2.97083621573657
30
0
41
1
10
201.042244986933
20
-2.4569970335051
30
0
41
1
10
201.213562257284
20
-1.43913680846165
30
0
41
1
10
201.29922089246
20
-0.935147208564416
30
0
41
1
10
201.406294186429
20
-0.319844621794005
30
0
41
1
10
201.427708845223
20
-0.197509173046825
30
0
41
1
10
201.459830833414
20
-0.0152251215218371
30
0
41
1
10
201.470538162811
20
0.0452722347040719
30
0
41
1
10
201.491952821605
20
0.166928451835162
30
0
41
1
10
201.54548946859
20
0.47207327775746
30
0
41
1
10
201.599026115575
20
0.781995577152628
30
0
41
1
10
201.727514068338
20
1.53268092798311
30
0
41
1
10
201.813172703514
20
2.04240642231565
30
0
41
1
10
201.984489973865
20
3.06536630321557
30
0
41
1
10
202.070148609041
20
3.57855887379321
30
0
41
1
10
202.241465879392
20
4.59047780439894
30
0
41
1
10
202.327124514568
20
5.08913910302596
30
0
41
1
10
202.498441784919
20
6.05272735827478
30
0
41
1
10
202.584100420095
20
6.51757741191039
30
0
41
1
10
202.755417690447
20
7.39516421840483
30
0
41
1
10
202.841076325622
20
7.80783007372352
30
0
41
1
10
203.012393595973
20
8.56584862144797
30
0
41
1
10
203.098052231149
20
8.91115425635735
30
0
41
1
10
203.269369501501
20
9.52426621909328
30
0
41
1
10
203.355028136676
20
9.79205983585373
30
0
41
1
10
203.526345407028
20
10.2459027630259
30
0
41
1
10
203.612004042203
20
10.4319730385959
30
0
41
1
10
203.783321312555
20
10.7239282752606
30
0
41
1
10
203.868979947731
20
10.8298576923488
30
0
41
1
10
204.040297218082
20
10.9678666906429
30
0
41
1
10
204.125955853258
20
11
30
0
41
1
10
204.211614488433
20
11
30
0
0
SPLINE
5
108
100
AcDbEntity
8
1
62
256
6
ByLayer
370
13
48
1
60
0
100
AcDbSpline
70
4
71
3
72
8
73
4
40
0
40
0
40
0
40
0
40
1
40
1
40
1
40
1
41
1
10
211.096327423072
20
2.39728602606419
30
0
41
1
10
212.430884948714
20
1.61251795436712
30
0
41
1
10
213.765442474357
20
0.813416169571013
30
0
41
1
10
215.1
20
5.68E-14
30
0
0
SPLINE
5
109
100
AcDbEntity
8
1
62
256
6
ByLayer
370
13
48
1
60
0
100
AcDbSpline
70
4
71
3
72
8
73
4
40
0
40
0
40
0
40
0
40
1
40
1
40
1
40
1
41
1
10
211.096327423072
20
-9.78622318325029
30
0
41
1
10
212.430884948714
20
-6.51744539846976
30
0
41
1
10
213.765442474357
20
-3.25534487745841
30
0
41
1
10
215.1
20
0
30
0
0
SPLINE
5
10A
100
AcDbEntity
8
1
62
256
6
ByLayer
370
13
48
1
60
0
100
AcDbSpline
70
4
71
3
72
8
73
4
40
0
40
0
40
0
40
0
40
1
40
1
40
1
40
1
41
1
10
211.096327423072
20
8.72927503638297
30
0
41
1
10
212.430884948715
20
5.81058414763544
30
0
41
1
10
213.765442474357
20
2.90080250523798
30
0
41
1
10
215.1
20
4.832E-13
30
0
0
SPLINE
5
10B
100
AcDbEntity
8
1
62
256
6
ByLayer
370
13
48
1
60
0
100
AcDbSpline
70
4
71
3
72
8
73
4
40
0
40
0
40
0
40
0
40
1
40
1
40
1
40
1
41
1
10
211.096327423072
20
-10.9696913321612
30
0
41
1
10
212.430884948714
20
-7.31421656686194
30
0
41
1
10
213.765442474357
20
-3.65762348035372
30
0
41
1
10
215.1
20
2.84E-14
30
0
0
SPLINE
5
10C
100
AcDbEntity
8
1
62
256
6
ByLayer
370
13
48
1
60
0
100
AcDbSpline
70
4
71
3
72
8
73
4
40
0
40
0
40
0
40
0
40
1
40
1
40
1
40
1
41
1
10
211.096327423072
20
0.0034802673641252
30
0
41
1
10
212.430884948714
20
0.017000310290058
30
0
41
1
10
213.765442474357
20
0.0158401726520481
30
0
41
1
10
215.1
20
0
30
0
0
SPLINE
5
10D
100
AcDbEntity
8
1
62
256
6
ByLayer
370
13
48
1
60
0
100
AcDbSpline
70
4
71
3
72
8
73
4
40
0
40
0
40
0
40
0
40
1
40
1
40
1
40
1
41
1
10
211.096327423072
20
3.95930374284492
30
0
41
1
10
212.430884948715
20
2.62583960635936
30
0
41
1
10
213.765442474357
20
1.30606115114225
30
0
41
1
10
215.1
20
2.274E-13
30
0
0
SPLINE
5
10E
100
AcDbEntity
8
1
62
256
6
ByLayer
370
13
48
1
60
0
100
AcDbSpline
70
4
71
3
72
8
73
4
40
0
40
0
40
0
40
0
40
1
40
1
40
1
40
1
41
1
10
211.096327423072
20
-10.5291864138874
30
0
41
1
10
212.430884948714
20
-7.02370650036693
30
0
41
1
10
213.765442474357
20
-3.51394955501107
30
0
41
1
10
215.1
20
0
30
0
0
SPLINE
5
10F
100
AcDbEntity
8
1
62
256
6
ByLayer
370
13
48
1
60
0
100
AcDbSpline
70
4
71
3
72
8
73
4
40
0
40
0
40
0
40
0
40
1
40
1
40
1
40
1
41
1
10
211.096327423072
20
7.9440933548502
30
0
41
1
10
212.430884948715
20
5.28590807071393
30
0
41
1
10
213.765442474357
20
2.63785575641933
30
0
41
1
10
215.1
20
4.263E-13
30
0
0
SPLINE
5
110
100
AcDbEntity
8
1
62
256
6
ByLayer
370
13
48
1
60
0
100
AcDbSpline
70
4
71
3
72
8
73
4
40
0
40
0
40
0
40
0
40
1
40
1
40
1
40
1
41
1
10
211.096327423072
20
6.09785080994945
30
0
41
1
10
212.430884948715
20
4.053015839495
30
0
41
1
10
213.765442474357
20
2.02038264469934
30
0
41
1
10
215.1
20
3.411E-13
30
0
0
SPLINE
5
111
100
AcDbEntity
8
1
62
256
6
ByLayer
370
13
48
1
60
0
100
AcDbSpline
70
4
71
3
72
8
73
4
40
0
40
0
40
0
40
0
40
1
40
1
40
1
40
1
41
1
10
211.096327423072
20
5.73802927492946
30
0
41
1
10
212.430884948715
20
3.83787744445459
30
0
41
1
10
213.765442474357
20
1.92518565651619
30
0
41
1
10
215.1
20
-8.53E-14
30
0
0
SPLINE
5
112
100
AcDbEntity
8
1
62
256
6
ByLayer
370
13
48
1
60
0
100
AcDbSpline
70
4
71
3
72
8
73
4
40
0
40
0
40
0
40
0
40
1
40
1
40
1
40
1
41
1
10
211.096327423072
20
3.55811549608771
30
0
41
1
10
212.430884948714
20
2.38596792799638
30
0
41
1
10
213.765442474357
20
1.19991988646339
30
0
41
1
10
215.1
20
0
30
0
0
SPLINE
5
113
100
AcDbEntity
8
1
62
256
6
ByLayer
370
13
48
1
60
0
100
AcDbSpline
70
4
71
3
72
8
73
4
40
0
40
0
40
0
40
0
40
1
40
1
40
1
40
1
41
1
10
211.096327423072
20
-10.6447905193453
30
0
41
1
10
212.430884948714
20
-7.09282654818998
30
0
41
1
10
213.765442474357
20
-3.5445346134087
30
0
41
1
10
215.1
20
-5.969E-13
30
0
0
SPLINE
5
114
100
AcDbEntity
8
1
62
256
6
ByLayer
370
13
48
1
60
0
100
AcDbSpline
70
4
71
3
72
8
73
4
40
0
40
0
40
0
40
0
40
1
40
1
40
1
40
1
41
1
10
211.096327423072
20
-10.9930927630835
30
0
41
1
10
212.430884948714
20
-7.32820835390157
30
0
41
1
10
213.765442474357
20
-3.66381473219985
30
0
41
1
10
215.1
20
2.84E-14
30
0
0
SPLINE
5
115
100
AcDbEntity
8
1
62
256
6
ByLayer
370
13
48
1
60
0
100
AcDbSpline
70
4
71
3
72
8
73
4
40
0
40
0
40
0
40
0
40
1
40
1
40
1
40
1
41
1
10
211.096327423072
20
8.46299491406037
30
0
41
1
10
212.430884948714
20
5.65137444901501
30
0
41
1
10
213.765442474357
20
2.83035350985807
30
0
41
1
10
215.1
20
-1.421E-13
30
0
0
SPLINE
5
116
100
AcDbEntity
8
1
62
256
6
ByLayer
370
13
48
1
60
0
100
AcDbSpline
70
4
71
3
72
8
73
4
40
0
40
0
40
0
40
0
40
1
40
1
40
1
40
1
41
1
10
211.096327423072
20
2.81203466316197
30
0
41
1
10
212.430884948715
20
1.86049743154157
30
0
41
1
10
213.765442474357
20
0.923145069211444
30
0
41
1
10
215.1
20
1.421E-13
30
0
0
SPLINE
5
117
100
AcDbEntity
8
1
62
256
6
ByLayer
370
13
48
1
60
0
100
AcDbSpline
70
4
71
3
72
8
73
4
40
0
40
0
40
0
40
0
40
1
40
1
40
1
40
1
41
1
10
211.096327423072
20
-9.17754216034891
30
0
41
1
10
212.430884948714
20
-6.11026861474437
30
0
41
1
10
213.765442474357
20
-3.05106339787463
30
0
41
1
10
215.1
20
0
30
0
0
SPLINE
5
118
100
AcDbEntity
8
1
62
256
6
ByLayer
370
13
48
1
60
0
100
AcDbSpline
70
4
71
3
72
8
73
4
40
0
40
0
40
0
40
0
40
1
40
1
40
1
40
1
41
1
10
211.096327423072
20
6.73091094143601
30
0
41
1
10
212.430884948714
20
4.49888498248509
30
0
41
1
10
213.765442474357
20
2.25522998894019
30
0
41
1
10
215.1
20
8.53E-14
30
0
0
SPLINE
5
119
100
AcDbEntity
8
1
62
256
6
ByLayer
370
13
48
1
60
0
100
AcDbSpline
70
4
71
3
72
8
73
4
40
0
40
0
40
0
40
0
40
1
40
1
40
1
40
1
41
1
10
211.096327423072
20
-3.14489900472756
30
0
41
1
10
212.430884948715
20
-2.11066671297334
30
0
41
1
10
213.765442474357
20
-1.06235860535594
30
0
41
1
10
215.1
20
-1.705E-13
30
0
0
SPLINE
5
11A
100
AcDbEntity
8
1
62
256
6
ByLayer
370
13
48
1
60
0
100
AcDbSpline
70
4
71
3
72
8
73
4
40
0
40
0
40
0
40
0
40
1
40
1
40
1
40
1
41
1
10
211.096327423072
20
-10.2772734502274
30
0
41
1
10
212.430884948714
20
-6.84628225323996
30
0
41
1
10
213.765442474357
20
-3.42049699410461
30
0
41
1
10
215.1
20
-5.684E-13
30
0
0
SPLINE
5
11B
100
AcDbEntity
8
1
62
256
6
ByLayer
370
13
48
1
60
0
100
AcDbSpline
70
4
71
3
72
8
73
4
40
0
40
0
40
0
40
0
40
1
40
1
40
1
40
1
41
1
10
211.096327423072
20
10.2797527819021
30
0
41
1
10
212.430884948714
20
6.85839322155701
30
0
41
1
10
213.765442474357
20
3.43178148396674
30
0
41
1
10
215.1
20
0
30
0
0
SPLINE
5
11C
100
AcDbEntity
8
1
62
256
6
ByLayer
370
13
48
1
60
0
100
AcDbSpline
70
4
71
3
72
8
73
4
40
0
40
0
40
0
40
0
40
1
40
1
40
1
40
1
41
1
10
211.096327423072
20
10.9933371918532
30
0
41
1
10
212.430884948714
20
7.32940233255158
30
0
41
1
10
213.765442474357
20
3.66492723118586
30
0
41
1
10
215.1
20
0
30
0
0
SPLINE
5
11D
100
AcDbEntity
8
1
62
256
6
ByLayer
370
13
48
1
60
0
100
AcDbSpline
70
4
71
3
72
8
73
4
40
0
40
0
40
0
40
0
40
1
40
1
40
1
40
1
41
1
10
211.096327423072
20
-6.72540426803681
30
0
41
1
10
212.430884948714
20
-4.47198614206349
30
0
41
1
10
213.765442474357
20
-2.23016678308403
30
0
41
1
10
215.1
20
0
30
0
0
SPLINE
5
11E
100
AcDbEntity
8
1
62
256
6
ByLayer
370
13
48
1
60
0
100
AcDbSpline
70
4
71
3
72
8
73
4
40
0
40
0
40
0
40
0
40
1
40
1
40
1
40
1
41
1
10
211.096327423072
20
-0.775555472639155
30
0
41
1
10
212.430884948714
20
-0.531680581900019
30
0
41
1
10
213.765442474357
20
-0.273159979954414
30
0
41
1
10
215.099999999999
20
-1.421E-13
30
0
0
SPLINE
5
11F
100
AcDbEntity
8
1
62
256
6
ByLayer
370
13
48
1
60
0
100
AcDbSpline
70
4
71
3
72
8
73
4
40
0
40
0
40
0
40
0
40
1
40
1
40
1
40
1
41
1
10
211.096327423072
20
-6.3825933571288
30
0
41
1
10
212.430884948715
20
-4.2670184511469
30
0
41
1
10
213.765442474358
20
-2.13947024866744
30
0
41
1
10
215.1
20
3.695E-13
30
0
0
SPLINE
5
120
100
AcDbEntity
8
1
62
256
6
ByLayer
370
13
48
1
60
0
100
AcDbSpline
70
4
71
3
72
8
73
4
40
0
40
0
40
0
40
0
40
1
40
1
40
1
40
1
41
1
10
211.096327423072
20
9.18137750830289
30
0
41
1
10
212.430884948714
20
6.12900341252455
30
0
41
1
10
213.765442474357
20
3.06851969287015
30
0
41
1
10
215.1
20
0
30
0
0
SPLINE
5
121
100
AcDbEntity
8
1
62
256
6
ByLayer
370
13
48
1
60
0
100
AcDbSpline
70
4
71
3
72
8
73
4
40
0
40
0
40
0
40
0
40
1
40
1
40
1
40
1
41
1
10
211.096327423072
20
10.4239155938825
30
0
41
1
10
212.430884948715
20
6.94458860725646
30
0
41
1
10
213.765442474357
20
3.46992224034997
30
0
41
1
10
215.1
20
5.684E-13
30
0
0
SPLINE
5
122
100
AcDbEntity
8
1
62
256
6
ByLayer
370
13
48
1
60
0
100
AcDbSpline
70
4
71
3
72
8
73
4
40
0
40
0
40
0
40
0
40
1
40
1
40
1
40
1
41
1
10
211.096327423072
20
-8.45854674939059
30
0
41
1
10
212.430884948714
20
-5.62964618170221
30
0
41
1
10
213.765442474357
20
-2.81010802611155
30
0
41
1
10
215.1
20
0
30
0
0
SPLINE
5
123
100
AcDbEntity
8
1
62
256
6
ByLayer
370
13
48
1
60
0
100
AcDbSpline
70
4
71
3
72
8
73
4
40
0
40
0
40
0
40
0
40
1
40
1
40
1
40
1
41
1
10
211.096327423072
20
-3.55152844685702
30
0
41
1
10
212.430884948714
20
-2.3537916986721
30
0
41
1
10
213.765442474357
20
-1.16993943204278
30
0
41
1
10
215.1
20
0
30
0
0
SPLINE
5
124
100
AcDbEntity
8
1
62
256
6
ByLayer
370
13
48
1
60
0
100
AcDbSpline
70
4
71
3
72
8
73
4
40
0
40
0
40
0
40
0
40
1
40
1
40
1
40
1
41
1
10
211.096327423072
20
-4.27991673799082
30
0
41
1
10
212.430884948715
20
-2.86680120121233
30
0
41
1
10
213.765442474357
20
-1.44015081835684
30
0
41
1
10
215.1
20
-2.274E-13
30
0
0
SPLINE
5
125
100
AcDbEntity
8
1
62
256
6
ByLayer
370
13
48
1
60
0
100
AcDbSpline
70
4
71
3
72
8
73
4
40
0
40
0
40
0
40
0
40
1
40
1
40
1
40
1
41
1
10
211.096327423072
20
10.6465429508212
30
0
41
1
10
212.430884948714
20
7.10138677524594
30
0
41
1
10
213.765442474357
20
3.55251067220939
30
0
41
1
10
215.1
20
0
30
0
0
SPLINE
5
126
100
AcDbEntity
8
1
62
256
6
ByLayer
370
13
48
1
60
0
100
AcDbSpline
70
4
71
3
72
8
73
4
40
0
40
0
40
0
40
0
40
1
40
1
40
1
40
1
41
1
10
211.096327423072
20
10.9386233645574
30
0
41
1
10
212.430884948715
20
7.29086696115064
30
0
41
1
10
213.765442474357
20
3.6446299538905
30
0
41
1
10
215.1
20
5.969E-13
30
0
0
SPLINE
5
127
100
AcDbEntity
8
1
62
256
6
ByLayer
370
13
48
1
60
0
100
AcDbSpline
70
4
71
3
72
8
73
4
40
0
40
0
40
0
40
0
40
1
40
1
40
1
40
1
41
1
10
211.096327423072
20
0.430290731402124
30
0
41
1
10
212.430884948715
20
0.272191590640858
30
0
41
1
10
213.765442474357
20
0.128760236480645
30
0
41
1
10
215.1
20
2.84E-14
30
0
0
SPLINE
5
128
100
AcDbEntity
8
1
62
256
6
ByLayer
370
13
48
1
60
0
100
AcDbSpline
70
4
71
3
72
8
73
4
40
0
40
0
40
0
40
0
40
1
40
1
40
1
40
1
41
1
10
211.096327423072
20
-5.73208963282997
30
0
41
1
10
212.430884948714
20
-3.80886365093241
30
0
41
1
10
213.765442474357
20
-1.89815182649542
30
0
41
1
10
215.1
20
0
30
0
0
SPLINE
5
129
100
AcDbEntity
8
1
62
256
6
ByLayer
370
13
48
1
60
0
100
AcDbSpline
70
4
71
3
72
8
73
4
40
0
40
0
40
0
40
0
40
1
40
1
40
1
40
1
41
1
10
211.096327423072
20
-1.97207947190341
30
0
41
1
10
212.430884948715
20
-1.32916193465388
30
0
41
1
10
213.765442474357
20
-0.671796803569833
30
0
41
1
10
215.1
20
-1.137E-13
30
0
0
SPLINE
5
12A
100
AcDbEntity
8
1
62
256
6
ByLayer
370
13
48
1
60
0
100
AcDbSpline
70
4
71
3
72
8
73
4
40
0
40
0
40
0
40
0
40
1
40
1
40
1
40
1
41
1
10
211.096327423072
20
-7.3249779941398
30
0
41
1
10
212.430884948714
20
-4.89427055095416
30
0
41
1
10
213.765442474357
20
-2.452591621182
30
0
41
1
10
215.1
20
-3.979E-13
30
0
0
SPLINE
5
12B
100
AcDbEntity
8
1
62
256
6
ByLayer
370
13
48
1
60
0
100
AcDbSpline
70
4
71
3
72
8
73
4
40
0
40
0
40
0
40
0
40
1
40
1
40
1
40
1
41
1
10
211.096327423072
20
-10.814433815444
30
0
41
1
10
212.430884948715
20
-7.21230763266092
30
0
41
1
10
213.765442474357
20
-3.60746746224098
30
0
41
1
10
215.1
20
6.253E-13
30
0
0
SPLINE
5
12C
100
AcDbEntity
8
1
62
256
6
ByLayer
370
13
48
1
60
0
100
AcDbSpline
70
4
71
3
72
8
73
4
40
0
40
0
40
0
40
0
40
1
40
1
40
1
40
1
41
1
10
211.096327423072
20
9.97668310088113
30
0
41
1
10
212.430884948714
20
6.64493890304669
30
0
41
1
10
213.765442474357
20
3.31935123261067
30
0
41
1
10
215.099999999999
20
2.8137E-12
30
0
0
SPLINE
5
12D
100
AcDbEntity
8
1
62
256
6
ByLayer
370
13
48
1
60
0
100
AcDbSpline
70
4
71
3
72
8
73
4
40
0
40
0
40
0
40
0
40
1
40
1
40
1
40
1
41
1
10
211.096327423072
20
-7.63787930116925
30
0
41
1
10
212.430884948714
20
-5.08135519833786
30
0
41
1
10
213.765442474357
20
-2.53537505443575
30
0
41
1
10
215.1
20
0
30
0
0
SPLINE
5
12E
100
AcDbEntity
8
1
62
256
6
ByLayer
370
13
48
1
60
0
100
AcDbSpline
70
4
71
3
72
8
73
4
40
0
40
0
40
0
40
0
40
1
40
1
40
1
40
1
41
1
10
211.096327423072
20
-2.39049232025991
30
0
41
1
10
212.430884948714
20
-1.57933225493403
30
0
41
1
10
213.765442474357
20
-0.782495133446986
30
0
41
1
10
215.1
20
-5.68E-14
30
0
0
SPLINE
5
12F
100
AcDbEntity
8
1
62
256
6
ByLayer
370
13
48
1
60
0
100
AcDbSpline
70
4
71
3
72
8
73
4
40
0
40
0
40
0
40
0
40
1
40
1
40
1
40
1
41
1
10
211.096327423072
20
-5.3634897175676
30
0
41
1
10
212.430884948715
20
-3.5884766355274
30
0
41
1
10
213.765442474357
20
-1.80063236653473
30
0
41
1
10
215.1
20
-3.126E-13
30
0
0
SPLINE
5
130
100
AcDbEntity
8
1
62
256
6
ByLayer
370
13
48
1
60
0
100
AcDbSpline
70
4
71
3
72
8
73
4
40
0
40
0
40
0
40
0
40
1
40
1
40
1
40
1
41
1
10
211.096327423072
20
-9.58395796271188
30
0
41
1
10
212.430884948714
20
-6.39651040519144
30
0
41
1
10
213.765442474357
20
-3.20183212756643
30
0
41
1
10
215.1
20
-5.4E-13
30
0
0
SPLINE
5
131
100
AcDbEntity
8
1
62
256
6
ByLayer
370
13
48
1
60
0
100
AcDbSpline
70
4
71
3
72
8
73
4
40
0
40
0
40
0
40
0
40
1
40
1
40
1
40
1
41
1
10
211.096327423072
20
10.7458522451645
30
0
41
1
10
212.430884948715
20
7.16076410572305
30
0
41
1
10
213.765442474357
20
3.57878465750505
30
0
41
1
10
215.1
20
5.969E-13
30
0
0
SPLINE
5
132
100
AcDbEntity
8
1
62
256
6
ByLayer
370
13
48
1
60
0
100
AcDbSpline
70
4
71
3
72
8
73
4
40
0
40
0
40
0
40
0
40
1
40
1
40
1
40
1
41
1
10
211.096327423072
20
9.78939961346757
30
0
41
1
10
212.430884948714
20
6.53296153377167
30
0
41
1
10
213.765442474357
20
3.26980215840689
30
0
41
1
10
215.1
20
0
30
0
0
SPLINE
5
133
100
AcDbEntity
8
1
62
256
6
ByLayer
370
13
48
1
60
0
100
AcDbSpline
70
4
71
3
72
8
73
4
40
0
40
0
40
0
40
0
40
1
40
1
40
1
40
1
41
1
10
211.096327423072
20
-4.66987507332038
30
0
41
1
10
212.430884948714
20
-3.09995848122534
30
0
41
1
10
213.765442474357
20
-1.54332101643314
30
0
41
1
10
215.1
20
0
30
0
0
SPLINE
5
134
100
AcDbEntity
8
1
62
256
6
ByLayer
370
13
48
1
60
0
100
AcDbSpline
70
4
71
3
72
8
73
4
40
0
40
0
40
0
40
0
40
1
40
1
40
1
40
1
41
1
10
211.096327423072
20
1.20764109147052
30
0
41
1
10
212.430884948714
20
0.819685456717906
30
0
41
1
10
213.765442474357
20
0.417135160957684
30
0
41
1
10
215.1
20
0
30
0
0
SPLINE
5
135
100
AcDbEntity
8
1
62
256
6
ByLayer
370
13
48
1
60
0
100
AcDbSpline
70
4
71
3
72
8
73
4
40
0
40
0
40
0
40
0
40
1
40
1
40
1
40
1
41
1
10
211.096327423072
20
-8.17931613124495
30
0
41
1
10
212.430884948715
20
-5.46269334206551
30
0
41
1
10
213.765442474357
20
-2.73623275387541
30
0
41
1
10
215.1
20
4.832E-13
30
0
0
SPLINE
5
136
100
AcDbEntity
8
1
62
256
6
ByLayer
370
13
48
1
60
0
100
AcDbSpline
70
4
71
3
72
8
73
4
40
0
40
0
40
0
40
0
40
1
40
1
40
1
40
1
41
1
10
211.096327423072
20
5.05898184861655
30
0
41
1
10
212.430884948715
20
3.35961909432157
30
0
41
1
10
213.765442474357
20
1.67327833089033
30
0
41
1
10
215.1
20
2.842E-13
30
0
0
SPLINE
5
137
100
AcDbEntity
8
1
62
256
6
ByLayer
370
13
48
1
60
0
100
AcDbSpline
70
4
71
3
72
8
73
4
40
0
40
0
40
0
40
0
40
1
40
1
40
1
40
1
41
1
10
211.096327423072
20
9.40953051687035
30
0
41
1
10
212.430884948715
20
6.26541679335276
30
0
41
1
10
213.765442474357
20
3.12888150323096
30
0
41
1
10
215.1
20
5.116E-13
30
0
0
SPLINE
5
138
100
AcDbEntity
8
1
62
256
6
ByLayer
370
13
48
1
60
0
100
AcDbSpline
70
4
71
3
72
8
73
4
40
0
40
0
40
0
40
0
40
1
40
1
40
1
40
1
41
1
10
211.096327423072
20
4.67617628940792
30
0
41
1
10
212.430884948714
20
3.13073848100279
30
0
41
1
10
213.765442474357
20
1.57200052300601
30
0
41
1
10
215.1
20
0
30
0
0
SPLINE
5
139
100
AcDbEntity
8
1
62
256
6
ByLayer
370
13
48
1
60
0
100
AcDbSpline
70
4
71
3
72
8
73
4
40
0
40
0
40
0
40
0
40
1
40
1
40
1
40
1
41
1
10
211.096327423072
20
-1.20072238968163
30
0
41
1
10
212.430884948714
20
-0.785889180481121
30
0
41
1
10
213.765442474357
20
-0.385645215100681
30
0
41
1
10
215.1
20
2.84E-14
30
0
0
SPLINE
5
13A
100
AcDbEntity
8
1
62
256
6
ByLayer
370
13
48
1
60
0
100
AcDbSpline
70
4
71
3
72
8
73
4
40
0
40
0
40
0
40
0
40
1
40
1
40
1
40
1
41
1
10
211.096327423072
20
10.8853612891541
30
0
41
1
10
212.430884948714
20
7.25902140355166
30
0
41
1
10
213.765442474357
20
3.63053855393409
30
0
41
1
10
215.1
20
-2.84E-14
30
0
0
SPLINE
5
13B
100
AcDbEntity
8
1
62
256
6
ByLayer
370
13
48
1
60
0
100
AcDbSpline
70
4
71
3
72
8
73
4
40
0
40
0
40
0
40
0
40
1
40
1
40
1
40
1
41
1
10
211.096327423072
20
-10.1173778115549
30
0
41
1
10
212.430884948715
20
-6.75068016239743
30
0
41
1
10
213.765442474357
20
-3.37819384728314
30
0
41
1
10
215.1
20
5.969E-13
30
0
0
SPLINE
5
13C
100
AcDbEntity
8
1
62
256
6
ByLayer
370
13
48
1
60
0
100
AcDbSpline
70
4
71
3
72
8
73
4
40
0
40
0
40
0
40
0
40
1
40
1
40
1
40
1
41
1
10
211.096327423072
20
-10.8843568221666
30
0
41
1
10
212.430884948715
20
-7.25411481199453
30
0
41
1
10
213.765442474357
20
-3.6259667987087
30
0
41
1
10
215.1
20
6.253E-13
30
0
0
SPLINE
5
13D
100
AcDbEntity
8
1
62
256
6
ByLayer
370
13
48
1
60
0
100
AcDbSpline
70
4
71
3
72
8
73
4
40
0
40
0
40
0
40
0
40
1
40
1
40
1
40
1
41
1
10
211.096327423072
20
7.06342338442744
30
0
41
1
10
212.430884948715
20
4.69769518797253
30
0
41
1
10
213.765442474357
20
2.34320188618759
30
0
41
1
10
215.1
20
3.979E-13
30
0
0
SPLINE
5
13E
100
AcDbEntity
8
1
62
256
6
ByLayer
370
13
48
1
60
0
100
AcDbSpline
70
4
71
3
72
8
73
4
40
0
40
0
40
0
40
0
40
1
40
1
40
1
40
1
41
1
10
211.096327423072
20
1.63096482531938
30
0
41
1
10
212.430884948715
20
1.0727920104367
30
0
41
1
10
213.765442474357
20
0.529132750225187
30
0
41
1
10
215.1
20
8.53E-14
30
0
0
SPLINE
5
13F
100
AcDbEntity
8
1
62
256
6
ByLayer
370
13
48
1
60
0
100
AcDbSpline
70
4
71
3
72
8
73
4
40
0
40
0
40
0
40
0
40
1
40
1
40
1
40
1
41
1
10
211.096327423072
20
-8.93533859319678
30
0
41
1
10
212.430884948714
20
-5.96545436201436
30
0
41
1
10
213.765442474357
20
-2.98698427009637
30
0
41
1
10
215.1
20
-4.832E-13
30
0
0
SPLINE
5
140
100
AcDbEntity
8
1
62
256
6
ByLayer
370
13
48
1
60
0
100
AcDbSpline
70
4
71
3
72
8
73
4
40
0
40
0
40
0
40
0
40
1
40
1
40
1
40
1
41
1
10
211.096327423072
20
7.64288681545497
30
0
41
1
10
212.430884948714
20
5.10581576062594
30
0
41
1
10
213.765442474357
20
2.55816637548804
30
0
41
1
10
215.1
20
8.53E-14
30
0
0
LINE
5
7D
100
AcDbEntity
8
80
62
256
6
ByLayer
370
18
48
1
60
0
100
AcDbLine
10
0
20
0
30
0
11
-5
21
0
31
0
39
0
210
0
220
0
230
1
0
LINE
5
7E
100
AcDbEntity
8
4
62
256
6
ByLayer
370
18
48
0.05
60
0
100
AcDbLine
10
-5
20
0
30
0
11
220.1
21
0
31
0
39
0
210
0
220
0
230
1
0
LINE
5
80
100
AcDbEntity
8
81
62
256
6
ByLayer
370
18
48
1
60
0
100
AcDbLine
10
215.1
20
0
30
0
11
220.1
21
0
31
0
39
0
210
0
220
0
230
1
0
LINE
5
81
100
AcDbEntity
8
SK4
62
256
6
ByLayer
370
18
48
0.05
60
0
100
AcDbLine
10
-61
20
0
30
0
11
220.1
21
0
31
0
39
0
210
0
220
0
230
1
0
LINE
5
83
100
AcDbEntity
8
1
62
256
6
ByLayer
370
18
48
1
60
0
100
AcDbLine
10
64.034709
20
10.7
30
0
11
10
21
10.7
31
0
39
0
210
0
220
0
230
1
0
LINE
5
84
100
AcDbEntity
8
1
62
256
6
ByLayer
370
18
48
1
60
0
100
AcDbLine
10
108.826863
20
-10.7
30
0
11
158.982065
21
-10.7
31
0
39
0
210
0
220
0
230
1
0
LINE
5
85
100
AcDbEntity
8
1
62
256
6
ByLayer
370
18
48
1
60
0
100
AcDbLine
10
158.982065
20
10.7
30
0
11
108.826863
21
10.7
31
0
39
0
210
0
220
0
230
1
0
LINE
5
86
100
AcDbEntity
8
1
62
256
6
ByLayer
370
18
48
1
60
0
100
AcDbLine
10
10
20
-10.7
30
0
11
64.034709
21
-10.7
31
0
39
0
210
0
220
0
230
1
0
LINE
5
87
100
AcDbEntity
8
1
62
256
6
ByLayer
370
18
48
1
60
0
100
AcDbLine
10
215.1
20
0
30
0
11
211.096327
21
11
31
0
39
0
210
0
220
0
230
1
0
LINE
5
88
100
AcDbEntity
8
1
62
256
6
ByLayer
370
18
48
1
60
0
100
AcDbLine
10
211.096327
20
-11
30
0
11
215.1
21
0
31
0
39
0
210
0
220
0
230
1
0
LINE
5
89
100
AcDbEntity
8
1
62
256
6
ByLayer
370
18
48
1
60
0
100
AcDbLine
10
10
20
10.7
30
0
11
0
21
12.5
31
0
39
0
210
0
220
0
230
1
0
LINE
5
8A
100
AcDbEntity
8
1
62
256
6
ByLayer
370
18
48
1
60
0
100
AcDbLine
10
0
20
-12.5
30
0
11
10
21
-10.7
31
0
39
0
210
0
220
0
230
1
0
LINE
5
8B
100
AcDbEntity
8
1
62
256
6
ByLayer
370
18
48
1
60
0
100
AcDbLine
10
215.1
20
0
30
0
11
211.096327
21
11
31
0
39
0
210
0
220
0
230
1
0
LINE
5
8C
100
AcDbEntity
8
1
62
256
6
ByLayer
370
18
48
1
60
0
100
AcDbLine
10
211.096327
20
-11
30
0
11
215.1
21
0
31
0
39
0
210
0
220
0
230
1
0
LINE
5
8D
100
AcDbEntity
8
1
62
256
6
ByLayer
370
18
48
1
60
0
100
AcDbLine
10
211.096327
20
11
30
0
11
200.1
21
11
31
0
39
0
210
0
220
0
230
1
0
LINE
5
8E
100
AcDbEntity
8
1
62
256
6
ByLayer
370
18
48
1
60
0
100
AcDbLine
10
200.1
20
-11
30
0
11
211.096327
21
-11
31
0
39
0
210
0
220
0
230
1
0
LINE
5
8F
100
AcDbEntity
8
SK1
62
256
6
ByLayer
370
18
48
1
60
0
100
AcDbLine
10
-56
20
-11.5
30
0
11
-55
21
-12.5
31
0
39
0
210
0
220
0
230
1
0
LINE
5
91
100
AcDbEntity
8
SK1
62
256
6
ByLayer
370
18
48
1
60
0
100
AcDbLine
10
-55
20
12.5
30
0
11
-56
21
11.5
31
0
39
0
210
0
220
0
230
1
0
LINE
5
92
100
AcDbEntity
8
SK1
62
256
6
ByLayer
370
18
48
1
60
0
100
AcDbLine
10
-55
20
-12.5
30
0
11
0
21
-12.5
31
0
39
0
210
0
220
0
230
1
0
LINE
5
93
100
AcDbEntity
8
SK1
62
256
6
ByLayer
370
18
48
1
60
0
100
AcDbLine
10
0
20
12.5
30
0
11
-55
21
12.5
31
0
39
0
210
0
220
0
230
1
0
LINE
5
94
100
AcDbEntity
8
1
62
256
6
ByLayer
370
18
48
1
60
0
100
AcDbLine
10
0
20
12.5
30
0
11
0
21
-12.5
31
0
39
0
210
0
220
0
230
1
0
LINE
5
95
100
AcDbEntity
8
1
62
256
6
ByLayer
370
18
48
1
60
0
100
AcDbLine
10
211.096327
20
11
30
0
11
211.096327
21
10.650718
31
0
39
0
210
0
220
0
230
1
0
LINE
5
96
100
AcDbEntity
8
1
62
256
6
ByLayer
370
18
48
1
60
0
100
AcDbLine
10
211.096327
20
-11
30
0
11
211.096327
21
-1.569667
31
0
39
0
210
0
220
0
230
1
0
LINE
5
97
100
AcDbEntity
8
1
62
256
6
ByLayer
370
18
48
1
60
0
100
AcDbLine
10
10
20
10.7
30
0
11
10
21
10.674052
31
0
39
0
210
0
220
0
230
1
0
LINE
5
98
100
AcDbEntity
8
1
62
256
6
ByLayer
370
18
48
1
60
0
100
AcDbLine
10
10
20
-10.7
30
0
11
10
21
2.583077
31
0
39
0
210
0
220
0
230
1
0
LINE
5
99
100
AcDbEntity
8
SK1
62
256
6
ByLayer
370
13
48
1
60
0
100
AcDbLine
10
-15.162813
20
-7.237775
30
0
11
-15.162813
21
7.237775
31
0
39
0
210
0
220
0
230
1
0
LINE
5
9A
100
AcDbEntity
8
SK1
62
256
6
ByLayer
370
13
48
1
60
0
100
AcDbLine
10
-51.386002
20
5.000227
30
0
11
-51.386002
21
-5.000227
31
0
39
0
210
0
220
0
230
1
0
LINE
5
9B
100
AcDbEntity
8
SK1
62
256
6
ByLayer
370
18
48
1
60
0
100
AcDbLine
10
-56
20
-11.5
30
0
11
-56
21
11.5
31
0
39
0
210
0
220
0
230
1
0
LINE
5
9C
100
AcDbEntity
8
SK1
62
256
6
ByLayer
370
13
48
1
60
0
100
AcDbLine
10
-52.500329
20
-3.620591
30
0
11
-52.500329
21
3.620591
31
0
39
0
210
0
220
0
230
1
0
LINE
5
9D
100
AcDbEntity
8
SK1
62
256
6
ByLayer
370
18
48
1
60
0
100
AcDbLine
10
-55
20
-12.5
30
0
11
-55
21
12.5
31
0
39
0
210
0
220
0
230
1
0
LINE
5
9E
100
AcDbEntity
8
SK1
62
256
6
ByLayer
370
18
48
1
60
0
100
AcDbLine
10
0
20
12.5
30
0
11
0
21
-12.5
31
0
39
0
210
0
220
0
230
1
0
LINE
5
9F
100
AcDbEntity
8
SK1
62
256
6
ByLayer
370
13
48
1
60
0
100
AcDbLine
10
-14.015776
20
6.592429
30
0
11
-14.015776
21
-6.592429
31
0
39
0
210
0
220
0
230
1
0
LINE
5
A0
100
AcDbEntity
8
1
62
256
6
ByLayer
370
18
48
1
60
0
100
AcDbLine
10
211.096327
20
11
30
0
11
211.096327
21
-11
31
0
39
0
210
0
220
0
230
1
0
LINE
5
A1
100
AcDbEntity
8
1
62
256
6
ByLayer
370
18
48
1
60
0
100
AcDbLine
10
211.096327
20
11
30
0
11
211.096327
21
-11
31
0
39
0
210
0
220
0
230
1
0
LINE
5
A2
100
AcDbEntity
8
1
62
256
6
ByLayer
370
18
48
1
60
0
100
AcDbLine
10
211.096327
20
11
30
0
11
211.096327
21
-11
31
0
39
0
210
0
220
0
230
1
0
LINE
5
A3
100
AcDbEntity
8
1
62
256
6
ByLayer
370
18
48
1
60
0
100
AcDbLine
10
200.1
20
11
30
0
11
200.1
21
-11
31
0
39
0
210
0
220
0
230
1
0
LINE
5
A4
100
AcDbEntity
8
1
62
256
6
ByLayer
370
18
48
1
60
0
100
AcDbLine
10
200.1
20
11
30
0
11
200.1
21
-11
31
0
39
0
210
0
220
0
230
1
0
LINE
5
A5
100
AcDbEntity
8
1
62
256
6
ByLayer
370
18
48
1
60
0
100
AcDbLine
10
211.096327
20
11
30
0
11
211.096327
21
-11
31
0
39
0
210
0
220
0
230
1
0
LINE
5
A6
100
AcDbEntity
8
1
62
256
6
ByLayer
370
18
48
1
60
0
100
AcDbLine
10
200.1
20
11
30
0
11
200.1
21
-11
31
0
39
0
210
0
220
0
230
1
0
LINE
5
A7
100
AcDbEntity
8
1
62
256
6
ByLayer
370
18
48
1
60
0
100
AcDbLine
10
211.096327
20
11
30
0
11
211.096327
21
-11
31
0
39
0
210
0
220
0
230
1
0
LINE
5
A8
100
AcDbEntity
8
SK2
62
256
6
ByLayer
370
13
48
1
60
0
100
AcDbLine
10
-62.5
20
-12.5
30
0
11
-62.5
21
41.524569
31
0
39
0
210
0
220
0
230
1
0
LINE
5
AA
100
AcDbEntity
8
SK2
62
256
6
ByLayer
370
13
48
1
60
0
100
AcDbLine
10
-57.5875
20
12.5
30
0
11
-64.5
21
12.5
31
0
39
0
210
0
220
0
230
1
0
LINE
5
AB
100
AcDbEntity
8
SK2
62
256
6
ByLayer
370
13
48
1
60
0
100
AcDbLine
10
-57.5875
20
-12.5
30
0
11
-64.5
21
-12.5
31
0
39
0
210
0
220
0
230
1
0
LINE
5
AC
100
AcDbEntity
8
1
62
256
6
ByLayer
370
18
48
1
60
1
100
AcDbLine
10
-62.5
20
12.5
30
0
11
-62.039216
21
9.000002
31
0
39
0
210
0
220
0
230
1
0
LINE
5
AD
100
AcDbEntity
8
1
62
256
6
ByLayer
370
18
48
1
60
1
100
AcDbLine
10
-62.039216
20
9.000002
30
0
11
-62.960784
21
8.999998
31
0
39
0
210
0
220
0
230
1
0
LINE
5
AE
100
AcDbEntity
8
1
62
256
6
ByLayer
370
18
48
1
60
1
100
AcDbLine
10
-62.960784
20
8.999998
30
0
11
-62.5
21
12.5
31
0
39
0
210
0
220
0
230
1
0
LINE
5
AF
100
AcDbEntity
8
1
62
256
6
ByLayer
370
18
48
1
60
1
100
AcDbLine
10
-62.5
20
-12.5
30
0
11
-62.960784
21
-9.000002
31
0
39
0
210
0
220
0
230
1
0
LINE
5
B0
100
AcDbEntity
8
1
62
256
6
ByLayer
370
18
48
1
60
1
100
AcDbLine
10
-62.960784
20
-9.000002
30
0
11
-62.039216
21
-8.999998
31
0
39
0
210
0
220
0
230
1
0
LINE
5
B1
100
AcDbEntity
8
1
62
256
6
ByLayer
370
18
48
1
60
1
100
AcDbLine
10
-62.039216
20
-8.999998
30
0
11
-62.5
21
-12.5
31
0
39
0
210
0
220
0
230
1
0
LINE
5
B2
100
AcDbEntity
8
2
62
256
6
ByLayer
370
13
48
1
60
0
100
AcDbLine
10
222.6
20
-11
30
0
11
222.6
21
40.024569
31
0
39
0
210
0
220
0
230
1
0
LINE
5
B4
100
AcDbEntity
8
2
62
256
6
ByLayer
370
13
48
1
60
0
100
AcDbLine
10
212.683827
20
11
30
0
11
224.6
21
11
31
0
39
0
210
0
220
0
230
1
0
LINE
5
B5
100
AcDbEntity
8
2
62
256
6
ByLayer
370
13
48
1
60
0
100
AcDbLine
10
212.683827
20
-11
30
0
11
224.6
21
-11
31
0
39
0
210
0
220
0
230
1
0
LINE
5
B6
100
AcDbEntity
8
1
62
256
6
ByLayer
370
18
48
1
60
1
100
AcDbLine
10
222.6
20
11
30
0
11
223.060784
21
7.500002
31
0
39
0
210
0
220
0
230
1
0
LINE
5
B7
100
AcDbEntity
8
1
62
256
6
ByLayer
370
18
48
1
60
1
100
AcDbLine
10
223.060784
20
7.500002
30
0
11
222.139216
21
7.499998
31
0
39
0
210
0
220
0
230
1
0
LINE
5
B8
100
AcDbEntity
8
1
62
256
6
ByLayer
370
18
48
1
60
1
100
AcDbLine
10
222.139216
20
7.499998
30
0
11
222.6
21
11
31
0
39
0
210
0
220
0
230
1
0
LINE
5
B9
100
AcDbEntity
8
1
62
256
6
ByLayer
370
18
48
1
60
1
100
AcDbLine
10
222.6
20
-11
30
0
11
222.139216
21
-7.500002
31
0
39
0
210
0
220
0
230
1
0
LINE
5
BA
100
AcDbEntity
8
1
62
256
6
ByLayer
370
18
48
1
60
1
100
AcDbLine
10
222.139216
20
-7.500002
30
0
11
223.060784
21
-7.499998
31
0
39
0
210
0
220
0
230
1
0
LINE
5
BB
100
AcDbEntity
8
1
62
256
6
ByLayer
370
18
48
1
60
1
100
AcDbLine
10
223.060784
20
-7.499998
30
0
11
222.6
21
-11
31
0
39
0
210
0
220
0
230
1
0
LINE
5
BC
100
AcDbEntity
8
SK2
62
256
6
ByLayer
370
13
48
1
60
0
100
AcDbLine
10
215.642957
20
-1.491762
30
0
11
222.282423
21
-19.733545
31
0
39
0
210
0
220
0
230
1
0
LINE
5
BD
100
AcDbEntity
8
SK2
62
256
6
ByLayer
370
13
48
1
60
0
100
AcDbLine
10
215.642957
20
1.491762
30
0
11
222.282423
21
19.733545
31
0
39
0
210
0
220
0
230
1
0
LINE
5
BE
100
AcDbEntity
8
1
62
256
6
ByLayer
370
18
48
1
60
1
100
AcDbLine
10
221.598383
20
-17.85416
30
0
11
224.651575
21
-16.082064
31
0
39
0
210
0
220
0
230
1
0
LINE
5
BF
100
AcDbEntity
8
1
62
256
6
ByLayer
370
18
48
1
60
1
100
AcDbLine
10
224.651575
20
-16.082064
30
0
11
225.006196
21
-16.93267
31
0
39
0
210
0
220
0
230
1
0
LINE
5
C0
100
AcDbEntity
8
1
62
256
6
ByLayer
370
18
48
1
60
1
100
AcDbLine
10
225.006196
20
-16.93267
30
0
11
221.598383
21
-17.85416
31
0
39
0
210
0
220
0
230
1
0
LINE
5
C1
100
AcDbEntity
8
1
62
256
6
ByLayer
370
18
48
1
60
1
100
AcDbLine
10
221.598383
20
17.85416
30
0
11
225.006193
21
16.932671
31
0
39
0
210
0
220
0
230
1
0
LINE
5
C2
100
AcDbEntity
8
1
62
256
6
ByLayer
370
18
48
1
60
1
100
AcDbLine
10
225.006193
20
16.932671
30
0
11
224.651579
21
16.082063
31
0
39
0
210
0
220
0
230
1
0
LINE
5
C3
100
AcDbEntity
8
1
62
256
6
ByLayer
370
18
48
1
60
1
100
AcDbLine
10
224.651579
20
16.082063
30
0
11
221.598383
21
17.85416
31
0
39
0
210
0
220
0
230
1
0
LINE
5
145
100
AcDbEntity
8
1
62
256
6
ByLayer
370
18
48
1
60
1
100
AcDbLine
10
-62.5
20
12.5
30
0
11
-62.039216
21
9.000002
31
0
39
0
210
0
220
0
230
1
0
LINE
5
146
100
AcDbEntity
8
1
62
256
6
ByLayer
370
18
48
1
60
1
100
AcDbLine
10
-62.039216
20
9.000002
30
0
11
-62.960784
21
8.999998
31
0
39
0
210
0
220
0
230
1
0
LINE
5
147
100
AcDbEntity
8
1
62
256
6
ByLayer
370
18
48
1
60
1
100
AcDbLine
10
-62.960784
20
8.999998
30
0
11
-62.5
21
12.5
31
0
39
0
210
0
220
0
230
1
0
LINE
5
149
100
AcDbEntity
8
1
62
256
6
ByLayer
370
18
48
1
60
1
100
AcDbLine
10
-62.5
20
-12.5
30
0
11
-62.960784
21
-9.000002
31
0
39
0
210
0
220
0
230
1
0
LINE
5
14A
100
AcDbEntity
8
1
62
256
6
ByLayer
370
18
48
1
60
1
100
AcDbLine
10
-62.960784
20
-9.000002
30
0
11
-62.039216
21
-8.999998
31
0
39
0
210
0
220
0
230
1
0
LINE
5
14B
100
AcDbEntity
8
1
62
256
6
ByLayer
370
18
48
1
60
1
100
AcDbLine
10
-62.039216
20
-8.999998
30
0
11
-62.5
21
-12.5
31
0
39
0
210
0
220
0
230
1
0
LINE
5
14F
100
AcDbEntity
8
1
62
256
6
ByLayer
370
18
48
1
60
1
100
AcDbLine
10
222.6
20
11
30
0
11
223.060784
21
7.500002
31
0
39
0
210
0
220
0
230
1
0
LINE
5
150
100
AcDbEntity
8
1
62
256
6
ByLayer
370
18
48
1
60
1
100
AcDbLine
10
223.060784
20
7.500002
30
0
11
222.139216
21
7.499998
31
0
39
0
210
0
220
0
230
1
0
LINE
5
151
100
AcDbEntity
8
1
62
256
6
ByLayer
370
18
48
1
60
1
100
AcDbLine
10
222.139216
20
7.499998
30
0
11
222.6
21
11
31
0
39
0
210
0
220
0
230
1
0
LINE
5
153
100
AcDbEntity
8
1
62
256
6
ByLayer
370
18
48
1
60
1
100
AcDbLine
10
222.6
20
-11
30
0
11
222.139216
21
-7.500002
31
0
39
0
210
0
220
0
230
1
0
LINE
5
154
100
AcDbEntity
8
1
62
256
6
ByLayer
370
18
48
1
60
1
100
AcDbLine
10
222.139216
20
-7.500002
30
0
11
223.060784
21
-7.499998
31
0
39
0
210
0
220
0
230
1
0
LINE
5
155
100
AcDbEntity
8
1
62
256
6
ByLayer
370
18
48
1
60
1
100
AcDbLine
10
223.060784
20
-7.499998
30
0
11
222.6
21
-11
31
0
39
0
210
0
220
0
230
1
0
LINE
5
158
100
AcDbEntity
8
1
62
256
6
ByLayer
370
18
48
1
60
1
100
AcDbLine
10
221.598383
20
-17.85416
30
0
11
224.651575
21
-16.082064
31
0
39
0
210
0
220
0
230
1
0
LINE
5
159
100
AcDbEntity
8
1
62
256
6
ByLayer
370
18
48
1
60
1
100
AcDbLine
10
224.651575
20
-16.082064
30
0
11
225.006196
21
-16.93267
31
0
39
0
210
0
220
0
230
1
0
LINE
5
15A
100
AcDbEntity
8
1
62
256
6
ByLayer
370
18
48
1
60
1
100
AcDbLine
10
225.006196
20
-16.93267
30
0
11
221.598383
21
-17.85416
31
0
39
0
210
0
220
0
230
1
0
LINE
5
15C
100
AcDbEntity
8
1
62
256
6
ByLayer
370
18
48
1
60
1
100
AcDbLine
10
221.598383
20
17.85416
30
0
11
225.006193
21
16.932671
31
0
39
0
210
0
220
0
230
1
0
LINE
5
15D
100
AcDbEntity
8
1
62
256
6
ByLayer
370
18
48
1
60
1
100
AcDbLine
10
225.006193
20
16.932671
30
0
11
224.651579
21
16.082063
31
0
39
0
210
0
220
0
230
1
0
LINE
5
15E
100
AcDbEntity
8
1
62
256
6
ByLayer
370
18
48
1
60
1
100
AcDbLine
10
224.651579
20
16.082063
30
0
11
221.598383
21
17.85416
31
0
39
0
210
0
220
0
230
1
0
MTEXT
5
141
100
AcDbEntity
8
SK2
62
256
6
ByLayer
370
18
48
1
60
0
100
AcDbMText
10
-63.841114
20
24.158438
30
0
210
0
220
0
230
1
1
%%c
40
3
41
0
44
1.084337
50
90
71
7
72
5
7
iso_b_vert
0
MTEXT
5
144
100
AcDbEntity
8
SK2
62
256
6
ByLayer
370
18
48
1
60
0
100
AcDbMText
10
-63.841114
20
30.135
30
0
210
0
220
0
230
1
1
\W0.7513;25.000
40
3
41
0
44
1.084337
50
90
71
7
72
5
7
iso_b_vert
0
MTEXT
5
14D
100
AcDbEntity
8
2
62
256
6
ByLayer
370
18
48
1
60
0
100
AcDbMText
10
221.258886
20
22.658438
30
0
210
0
220
0
230
1
1
%%c
40
3
41
0
44
1.084337
50
90
71
7
72
5
7
iso_b_vert
0
MTEXT
5
14E
100
AcDbEntity
8
2
62
256
6
ByLayer
370
18
48
1
60
0
100
AcDbMText
10
221.258886
20
28.635
30
0
210
0
220
0
230
1
1
\W0.7513;22.000
40
3
41
0
44
1.084337
50
90
71
7
72
5
7
iso_b_vert
0
MTEXT
5
157
100
AcDbEntity
8
SK2
62
256
6
ByLayer
370
18
48
1
60
0
100
AcDbMText
10
235.009114
20
3.734657
30
0
210
0
220
0
230
1
1
\W0.7071;140%%d
40
3
41
0
44
1.084337
50
270
71
7
72
5
7
iso_b_vert
0
MTEXT
5
160
100
AcDbEntity
8
SK6
62
256
6
ByLayer
370
18
48
1
60
0
100
AcDbMText
10
55.26286
20
-67.114886
30
0
210
0
220
0
230
1
1
\W0.7680;H85822.0
40
3
41
0
44
1.084337
50
0
71
7
72
5
7
iso_b_vert
0
HATCH
5
148
100
AcDbEntity
8
SK2
62
256
6
ByLayer
370
13
48
1
60
0
100
AcDbHatch
10
0
20
0
30
0
210
0
220
0
230
1
2
ANSI31
70
0
71
0
91
1
92
5
93
3
72
1
10
-62.5
20
12.5
11
-62.0392162584472
21
9.00000169255318
72
1
10
-62.0392162584472
20
9.00000169255318
11
-62.9607837415528
21
8.99999830744682
72
1
10
-62.9607837415528
20
8.99999830744682
11
-62.5
21
12.5
97
0
75
0
76
1
52
0
41
0.0062
77
0
78
1
53
45
43
0
44
0
45
-0.0139193969876572
46
0.0139193969876572
79
0
47
0
98
1
10
0
20
0
0
HATCH
5
14C
100
AcDbEntity
8
SK2
62
256
6
ByLayer
370
13
48
1
60
0
100
AcDbHatch
10
0
20
0
30
0
210
0
220
0
230
1
2
ANSI31
70
0
71
0
91
1
92
5
93
3
72
1
10
-62.5
20
-12.5
11
-62.9607837415528
21
-9.00000169255318
72
1
10
-62.9607837415528
20
-9.00000169255318
11
-62.0392162584472
21
-8.99999830744682
72
1
10
-62.0392162584472
20
-8.99999830744682
11
-62.5
21
-12.5
97
0
75
0
76
1
52
0
41
0.0062
77
0
78
1
53
45
43
0
44
0
45
-0.0139193969876572
46
0.0139193969876572
79
0
47
0
98
1
10
0
20
0
0
HATCH
5
152
100
AcDbEntity
8
2
62
256
6
ByLayer
370
13
48
1
60
0
100
AcDbHatch
10
0
20
0
30
0
210
0
220
0
230
1
2
ANSI31
70
0
71
0
91
1
92
5
93
3
72
1
10
222.6
20
11
11
223.060783741553
21
7.50000169255318
72
1
10
223.060783741553
20
7.50000169255318
11
222.139216258447
21
7.49999830744682
72
1
10
222.139216258447
20
7.49999830744682
11
222.6
21
11
97
0
75
0
76
1
52
0
41
0.0062
77
0
78
1
53
45
43
0
44
0
45
-0.0139193969876572
46
0.0139193969876572
79
0
47
0
98
1
10
0
20
0
0
HATCH
5
156
100
AcDbEntity
8
2
62
256
6
ByLayer
370
13
48
1
60
0
100
AcDbHatch
10
0
20
0
30
0
210
0
220
0
230
1
2
ANSI31
70
0
71
0
91
1
92
5
93
3
72
1
10
222.6
20
-11
11
222.139216258447
21
-7.50000169255318
72
1
10
222.139216258447
20
-7.50000169255318
11
223.060783741553
21
-7.49999830744682
72
1
10
223.060783741553
20
-7.49999830744682
11
222.6
21
-11
97
0
75
0
76
1
52
0
41
0.0062
77
0
78
1
53
45
43
0
44
0
45
-0.0139193969876572
46
0.0139193969876572
79
0
47
0
98
1
10
0
20
0
0
HATCH
5
15B
100
AcDbEntity
8
SK2
62
256
6
ByLayer
370
13
48
1
60
0
100
AcDbHatch
10
0
20
0
30
0
210
0
220
0
230
1
2
ANSI31
70
0
71
0
91
1
92
5
93
3
72
1
10
221.598382723188
20
-17.8541597949323
11
224.651575425693
21
-16.0820638240607
72
1
10
224.651575425693
20
-16.0820638240607
11
225.006195833975
21
-16.9326700737196
72
1
10
225.006195833975
20
-16.9326700737196
11
221.598382723188
21
-17.8541597949323
97
0
75
0
76
1
52
0
41
0.0062
77
0
78
1
53
45
43
0
44
0
45
-0.0139193969876572
46
0.0139193969876572
79
0
47
0
98
1
10
0
20
0
0
HATCH
5
15F
100
AcDbEntity
8
SK2
62
256
6
ByLayer
370
13
48
1
60
0
100
AcDbHatch
10
0
20
0
30
0
210
0
220
0
230
1
2
ANSI31
70
0
71
0
91
1
92
5
93
3
72
1
10
221.598382723188
20
17.8541597949323
11
225.006192709519
21
16.9326713763016
72
1
10
225.006192709519
20
16.9326713763016
11
224.651578550149
21
16.0820625214787
72
1
10
224.651578550149
20
16.0820625214787
11
221.598382723188
21
17.8541597949323
97
0
75
0
76
1
52
0
41
0.0062
77
0
78
1
53
45
43
0
44
0
45
-0.0139193969876572
46
0.0139193969876572
79
0
47
0
98
1
10
0
20
0
0
DIMENSION
5
163
100
AcDbEntity
8
SK2
62
256
6
ByLayer
370
18
48
1
60
0
100
AcDbDimension
2
_U0
10
215.1
20
-46.70073
30
0
11
79.55
21
-46.70073
31
0
70
32
71
1
72
1
41
1
210
0
220
0
230
1
3
Standard
100
AcDbAlignedDimension
13
-56
23
-12.5
33
0
14
215.1
24
0
34
0
50
0
100
AcDbRotatedDimension
1001
ACAD
1000
DSTYLE
1002
{
1070
   371
1070
    13
1070
   372
1070
    13
1070
     3
1000

1070
   170
1070
     0
1070
   144
1040
1.0
1070
   277
1070
     2
1070
   284
1070
     8
1070
   278
1070
    46
1070
   146
1040
1.166667
1070
   345
1005
16
1070
   347
1005
16
1070
   346
1005
16
1070
   344
1005
0
1070
   343
1005
0
1070
   172
1070
     1
1070
    76
1070
     0
1070
    75
1070
     0
1070
   282
1070
     0
1070
   281
1070
     0
1070
    71
1070
     0
1070
    74
1070
     0
1070
   279
1070
     0
1070
   173
1070
     1
1070
   340
1005
142
1070
   271
1070
     2
1070
   272
1070
     3
1070
    77
1070
     1
1070
    73
1070
     1
1070
   171
1070
     3
1070
   274
1070
     4
1070
   177
1070
     2
1070
   176
1070
     2
1070
   178
1070
     2
1070
    78
1070
     8
1070
    48
1040
-0.1
1070
    41
1040
3.5
1070
   147
1040
1.5
1070
    42
1040
1.5875
1070
    44
1040
2.0
1070
   140
1040
3.0
1002
}
1001
ACAD_DSTYLE_DIM_LINETYPE
1070
   380
1005
16
1001
ACAD_DSTYLE_DIM_EXT1_LINETYPE
1070
   381
1005
16
1001
ACAD_DSTYLE_DIM_EXT2_LINETYPE
1070
   382
1005
16
0
DIMENSION
5
17C
100
AcDbEntity
8
SK2
62
256
6
ByLayer
370
18
48
1
60
0
100
AcDbDimension
2
_U1
10
3
20
-36.70073
30
0
11
109.05
21
-36.70073
31
0
70
32
71
1
72
1
41
1
210
0
220
0
230
1
3
Standard
100
AcDbAlignedDimension
13
215.1
23
0
33
0
14
3
24
-11
34
0
50
0
100
AcDbRotatedDimension
1001
ACAD
1000
DSTYLE
1002
{
1070
   371
1070
    13
1070
   372
1070
    13
1070
     3
1000

1070
   170
1070
     0
1070
   144
1040
1.0
1070
   277
1070
     2
1070
   284
1070
     8
1070
   278
1070
    46
1070
   146
1040
1.166667
1070
   345
1005
16
1070
   347
1005
16
1070
   346
1005
16
1070
   344
1005
0
1070
   343
1005
0
1070
   172
1070
     1
1070
    76
1070
     0
1070
    75
1070
     0
1070
   282
1070
     0
1070
   281
1070
     0
1070
    71
1070
     0
1070
    74
1070
     0
1070
   279
1070
     0
1070
   173
1070
     1
1070
   340
1005
142
1070
   271
1070
     2
1070
   272
1070
     3
1070
    77
1070
     1
1070
    73
1070
     1
1070
   171
1070
     3
1070
   274
1070
     4
1070
   177
1070
     2
1070
   176
1070
     2
1070
   178
1070
     2
1070
    78
1070
     8
1070
    48
1040
-0.1
1070
    41
1040
3.5
1070
   147
1040
1.5
1070
    42
1040
1.5875
1070
    44
1040
2.0
1070
   140
1040
3.0
1002
}
1001
ACAD_DSTYLE_DIM_LINETYPE
1070
   380
1005
16
1001
ACAD_DSTYLE_DIM_EXT1_LINETYPE
1070
   381
1005
16
1001
ACAD_DSTYLE_DIM_EXT2_LINETYPE
1070
   382
1005
16
0
DIMENSION
5
194
100
AcDbEntity
8
SK2
62
256
6
ByLayer
370
18
48
1
60
0
100
AcDbDimension
2
_U2
10
0
20
-36.70073
30
0
11
-28
21
-36.70073
31
0
70
32
71
1
72
1
41
1
210
0
220
0
230
1
3
Standard
100
AcDbAlignedDimension
13
-56
23
-12.5
33
0
14
0
24
-12.5
34
0
50
0
100
AcDbRotatedDimension
1001
ACAD
1000
DSTYLE
1002
{
1070
   371
1070
    13
1070
   372
1070
    13
1070
     3
1000

1070
   170
1070
     0
1070
   144
1040
1.0
1070
   277
1070
     2
1070
   284
1070
     8
1070
   278
1070
    46
1070
   146
1040
1.166667
1070
   345
1005
16
1070
   347
1005
16
1070
   346
1005
16
1070
   344
1005
0
1070
   343
1005
0
1070
   172
1070
     1
1070
    76
1070
     0
1070
    75
1070
     0
1070
   282
1070
     0
1070
   281
1070
     0
1070
    71
1070
     0
1070
    74
1070
     0
1070
   279
1070
     0
1070
   173
1070
     1
1070
   340
1005
142
1070
   271
1070
     2
1070
   272
1070
     3
1070
    77
1070
     1
1070
    73
1070
     1
1070
   171
1070
     3
1070
   274
1070
     4
1070
   177
1070
     2
1070
   176
1070
     2
1070
   178
1070
     2
1070
    78
1070
     8
1070
    48
1040
-0.1
1070
    41
1040
3.5
1070
   147
1040
1.5
1070
    42
1040
1.5875
1070
    44
1040
2.0
1070
   140
1040
3.0
1002
}
1001
ACAD_DSTYLE_DIM_LINETYPE
1070
   380
1005
16
1001
ACAD_DSTYLE_DIM_EXT1_LINETYPE
1070
   381
1005
16
1001
ACAD_DSTYLE_DIM_EXT2_LINETYPE
1070
   382
1005
16
0
DIMENSION
5
1AC
100
AcDbEntity
8
SK2
62
256
6
ByLayer
370
18
48
1
60
0
100
AcDbDimension
2
_U3
10
23
20
33.70073
30
0
11
119.05
21
33.70073
31
0
70
32
71
1
72
1
41
1
210
0
220
0
230
1
3
Standard
100
AcDbAlignedDimension
13
215.1
23
0
33
0
14
23
24
11
34
0
50
0
100
AcDbRotatedDimension
1001
ACAD
1000
DSTYLE
1002
{
1070
   371
1070
    13
1070
   372
1070
    13
1070
     3
1000

1070
   170
1070
     0
1070
   144
1040
1.0
1070
   277
1070
     2
1070
   284
1070
     8
1070
   278
1070
    46
1070
   146
1040
1.166667
1070
   345
1005
16
1070
   347
1005
16
1070
   346
1005
16
1070
   344
1005
0
1070
   343
1005
0
1070
   172
1070
     1
1070
    76
1070
     0
1070
    75
1070
     0
1070
   282
1070
     0
1070
   281
1070
     0
1070
    71
1070
     0
1070
    74
1070
     0
1070
   279
1070
     0
1070
   173
1070
     1
1070
   340
1005
142
1070
   271
1070
     2
1070
   272
1070
     3
1070
    77
1070
     1
1070
    73
1070
     1
1070
   171
1070
     3
1070
   274
1070
     4
1070
   177
1070
     2
1070
   176
1070
     2
1070
   178
1070
     2
1070
    78
1070
     8
1070
    48
1040
-0.1
1070
    41
1040
3.5
1070
   147
1040
1.5
1070
    42
1040
1.5875
1070
    44
1040
2.0
1070
   140
1040
3.0
1002
}
1001
ACAD_DSTYLE_DIM_LINETYPE
1070
   380
1005
16
1001
ACAD_DSTYLE_DIM_EXT1_LINETYPE
1070
   381
1005
16
1001
ACAD_DSTYLE_DIM_EXT2_LINETYPE
1070
   382
1005
16
0
ENDSEC
0
SECTION
2
OBJECTS
0
DICTIONARY
5
234
330
0
100
AcDbDictionary
280
0
281
1
3
ACAD_GROUP
350
235
3
ACAD_MLINESTYLE
350
236
0
DICTIONARY
5
235
330
0
100
AcDbDictionary
280
0
281
1
0
DICTIONARY
5
236
330
0
100
AcDbDictionary
280
0
281
1
3
Standard
350
18
0
MLINESTYLE
5
18
330
236
100
AcDbMlineStyle
2
Standard
70
0
3

62
256
51
90
52
90
71
2
49
-0.5
62
256
6
ByLayer
49
0.5
62
256
6
ByLayer
0
RASTERVARIABLES
5
222
330

100
AcDbRasterVariables
90
0
70
1
71
1
72
1
0
ENDSEC
0
EOF
