0
SECTION
2
HEADER
9
$ACADVER
1
AC1015
9
$DWGCODEPAGE
3
ANSI_1252
9
$HANDSEED
5
23e
9
$ANGBASE
50
0
9
$ANGDIR
70
0
9
$ATTMODE
70
1
9
$AUNITS
70
0
9
$AUPREC
70
0
9
$CECOLOR
62
256
9
$CELTSCALE
40
1
9
$CELTYPE
6
ByLayer
9
$CELWEIGHT
370
18
9
$CLAYER
8
0
9
$CMLJUST
70
0
9
$CMLSCALE
40
1
9
$CMLSTYLE
2
Standard
9
$DIMSTYLE
2
Standard
9
$TEXTSIZE
40
0.2
9
$TEXTSTYLE
7
Standard
9
$LUNITS
70
2
9
$LUPREC
70
4
9
$EXTNAMES
290
1
9
$INSUNITS
70
4
9
$LTSCALE
40
1
9
$LWDISPLAY
290
1
9
$PDMODE
70
0
9
$PDSIZE
40
0
9
$PLINEGEN
70
0
0
ENDSEC
0
SECTION
2
CLASSES
0
CLASS
1
RASTERVARIABLES
2
AcDbRasterVariables
3
ISM
90
0
280
0
281
0
0
ENDSEC
0
SECTION
2
TABLES
0
TABLE
2
VPORT
5
234
100
AcDbSymbolTable
0
VPORT
5
1
100
AcDbSymbolTableRecord
100
AcDbViewportTableRecord
2
*Active
70
0
10
0
20
0
11
1
21
1
12
-1
22
1
13
0
23
0
14
0.5
24
0.5
15
10
25
10
16
0
26
0
36
1
17
0
27
0
37
0
0
ENDTAB
0
TABLE
2
LTYPE
5
235
100
AcDbSymbolTable
0
LTYPE
5
14
100
AcDbSymbolTableRecord
100
AcDbLinetypeTableRecord
70
0
2
ByBlock
3

72
65
73
0
40
0
0
LTYPE
5
15
100
AcDbSymbolTableRecord
100
AcDbLinetypeTableRecord
70
0
2
ByLayer
3

72
65
73
0
40
0
0
LTYPE
5
16
100
AcDbSymbolTableRecord
100
AcDbLinetypeTableRecord
70
0
2
Continuous
3
Solid line
72
65
73
0
40
0
0
LTYPE
5
6E
100
AcDbSymbolTableRecord
100
AcDbLinetypeTableRecord
70
0
2
CENTER
3
____ _ ____ _ ____ _ ____
72
65
73
4
40
47.5
49
22
74
0
49
-8.5
74
0
49
8.5
74
0
49
-8.5
74
0
0
LTYPE
5
6F
100
AcDbSymbolTableRecord
100
AcDbLinetypeTableRecord
70
0
2
DASHED
3
__ __ __ __ __ __ __ __ __
72
65
73
2
40
25.72
49
12.86
74
0
49
-12.86
74
0
0
ENDTAB
0
TABLE
2
LAYER
5
236
100
AcDbSymbolTable
0
LAYER
5
10
100
AcDbSymbolTableRecord
100
AcDbLayerTableRecord
2
0
70
0
62
7
6
Continuous
290
1
370
-3
390
0
0
LAYER
5
71
100
AcDbSymbolTableRecord
100
AcDbLayerTableRecord
2
80
70
0
62
-6
6
Continuous
290
1
370
-3
390
0
0
LAYER
5
73
100
AcDbSymbolTableRecord
100
AcDbLayerTableRecord
2
81
70
0
62
-3
6
Continuous
290
1
370
-3
390
0
0
LAYER
5
75
100
AcDbSymbolTableRecord
100
AcDbLayerTableRecord
2
1
70
0
62
4
6
Continuous
290
1
370
-3
390
0
0
LAYER
5
7F
100
AcDbSymbolTableRecord
100
AcDbLayerTableRecord
2
4
70
0
62
-2
6
CENTER
290
1
370
-3
390
0
0
LAYER
5
B1
100
AcDbSymbolTableRecord
100
AcDbLayerTableRecord
2
2
70
0
62
7
6
Continuous
290
1
370
-3
390
0
0
LAYER
5
163
100
AcDbSymbolTableRecord
100
AcDbLayerTableRecord
2
Defpoints
70
0
62
7
6
Continuous
290
0
370
-3
390
0
0
LAYER
5
220
100
AcDbSymbolTableRecord
100
AcDbLayerTableRecord
2
SK4
70
0
62
2
6
CENTER
290
1
370
-3
390
0
0
LAYER
5
221
100
AcDbSymbolTableRecord
100
AcDbLayerTableRecord
2
SK1
70
0
62
4
6
Continuous
290
1
370
-3
390
0
0
LAYER
5
222
100
AcDbSymbolTableRecord
100
AcDbLayerTableRecord
2
SK2
70
0
62
7
6
Continuous
290
1
370
-3
390
0
0
LAYER
5
223
100
AcDbSymbolTableRecord
100
AcDbLayerTableRecord
2
SK6
70
0
62
5
6
Continuous
290
1
370
-3
390
0
0
ENDTAB
0
TABLE
2
STYLE
5
237
100
AcDbSymbolTable
0
STYLE
5
11
100
AcDbSymbolTableRecord
100
AcDbTextStyleTableRecord
2
Standard
3
txt
70
0
71
0
40
0
41
1
42
0
50
0
0
STYLE
5
13F
100
AcDbSymbolTableRecord
100
AcDbTextStyleTableRecord
2
iso_b_vert
3
simplex.shx
70
0
71
0
40
0
41
1
42
0
50
0
0
STYLE
5
140
100
AcDbSymbolTableRecord
100
AcDbTextStyleTableRecord
2
DWGDirectTextStyle
3
simplex
70
0
71
0
40
0
41
1
42
0
50
0
0
ENDTAB
0
TABLE
2
DIMSTYLE
5
238
100
AcDbSymbolTable
100
AcDbDimStyleTable
0
DIMSTYLE
105
27
100
AcDbSymbolTableRecord
100
AcDbDimStyleTableRecord
2
Standard
70
0
3
<>
41
0.18
42
0.0625
44
0.18
140
0.18
147
0.09
73
0
74
0
77
1
271
2
275
0
278
52
280
0
340
11
0
ENDTAB
0
TABLE
2
VIEW
5
239
100
AcDbSymbolTable
0
ENDTAB
0
TABLE
2
UCS
5
23a
100
AcDbSymbolTable
0
ENDTAB
0
TABLE
2
APPID
5
23b
100
AcDbSymbolTable
0
APPID
5
12
100
AcDbSymbolTableRecord
100
AcDbRegAppTableRecord
2
ACAD
70
0
0
APPID
5
15F
100
AcDbSymbolTableRecord
100
AcDbRegAppTableRecord
2
ACAD_DSTYLE_DIMBREAK
70
0
0
APPID
5
1DF
100
AcDbSymbolTableRecord
100
AcDbRegAppTableRecord
2
ACAD_DSTYLE_DIM_LINETYPE
70
0
0
APPID
5
1E0
100
AcDbSymbolTableRecord
100
AcDbRegAppTableRecord
2
ACAD_DSTYLE_DIM_EXT1_LINETYPE
70
0
0
APPID
5
1E1
100
AcDbSymbolTableRecord
100
AcDbRegAppTableRecord
2
ACAD_DSTYLE_DIM_EXT2_LINETYPE
70
0
0
APPID
5
21C
100
AcDbSymbolTableRecord
100
AcDbRegAppTableRecord
2
ACAD_MLEADERVER
70
0
0
ENDTAB
0
TABLE
2
BLOCK_RECORD
5
23c
100
AcDbSymbolTable
0
BLOCK_RECORD
5
1F
100
AcDbSymbolTableRecord
100
AcDbBlockTableRecord
2
*Model_Space
340
0
70
0
0
BLOCK_RECORD
5
1B
100
AcDbSymbolTableRecord
100
AcDbBlockTableRecord
2
*Paper_Space
340
0
70
0
0
BLOCK_RECORD
5
23
100
AcDbSymbolTableRecord
100
AcDbBlockTableRecord
2
*Paper_Space0
340
0
70
0
0
BLOCK_RECORD
5
164
100
AcDbSymbolTableRecord
100
AcDbBlockTableRecord
2
*D1
340
0
70
0
0
BLOCK_RECORD
5
170
100
AcDbSymbolTableRecord
100
AcDbBlockTableRecord
2
_U0
340
0
70
0
0
BLOCK_RECORD
5
17C
100
AcDbSymbolTableRecord
100
AcDbBlockTableRecord
2
*D3
340
0
70
0
0
BLOCK_RECORD
5
188
100
AcDbSymbolTableRecord
100
AcDbBlockTableRecord
2
_U1
340
0
70
0
0
BLOCK_RECORD
5
194
100
AcDbSymbolTableRecord
100
AcDbBlockTableRecord
2
*D5
340
0
70
0
0
BLOCK_RECORD
5
1A0
100
AcDbSymbolTableRecord
100
AcDbBlockTableRecord
2
_U2
340
0
70
0
0
BLOCK_RECORD
5
1AC
100
AcDbSymbolTableRecord
100
AcDbBlockTableRecord
2
*D7
340
0
70
0
0
BLOCK_RECORD
5
1B8
100
AcDbSymbolTableRecord
100
AcDbBlockTableRecord
2
_U3
340
0
70
0
0
ENDTAB
0
ENDSEC
0
SECTION
2
BLOCKS
0
BLOCK
5
20
100
AcDbEntity
8
0
100
AcDbBlockBegin
2
*Model_Space
70
0
10
0
20
0
30
0
3
*Model_Space
0
ENDBLK
5
21
100
AcDbEntity
8
0
100
AcDbBlockEnd
0
BLOCK
5
1C
100
AcDbEntity
8
0
100
AcDbBlockBegin
2
*Paper_Space
70
0
10
0
20
0
30
0
3
*Paper_Space
0
ENDBLK
5
1D
100
AcDbEntity
8
0
100
AcDbBlockEnd
0
BLOCK
5
24
100
AcDbEntity
8
0
100
AcDbBlockBegin
2
*Paper_Space0
70
0
10
0
20
0
30
0
3
*Paper_Space0
0
ENDBLK
5
25
100
AcDbEntity
8
0
100
AcDbBlockEnd
0
BLOCK
5
165
100
AcDbEntity
8
0
100
AcDbBlockBegin
2
*D1
70
1
10
0
20
0
30
0
3
*D1
0
LINE
5
167
100
AcDbEntity
8
0
62
256
6
ByLayer
370
-2
48
1
60
0
100
AcDbLine
10
-56
20
-14.0875
30
0
11
-56
21
-48.558453
31
0
39
0
210
0
220
0
230
1
0
LINE
5
168
100
AcDbEntity
8
0
62
256
6
ByLayer
370
-2
48
1
60
0
100
AcDbLine
10
210.5
20
-1.5875
30
0
11
210.5
21
-48.558453
31
0
39
0
210
0
220
0
230
1
0
LINE
5
169
100
AcDbEntity
8
0
62
256
6
ByLayer
370
-2
48
1
60
0
100
AcDbLine
10
-52.5
20
-46.558453
30
0
11
207
21
-46.558453
31
0
39
0
210
0
220
0
230
1
0
SOLID
5
16A
100
AcDbEntity
8
0
62
256
6
ByLayer
370
-1
48
1
60
0
100
AcDbTrace
10
-52.5
20
-45.97512
30
0
11
-52.5
21
-47.141786
31
0
12
-56
22
-46.558453
32
0
13
-56
23
-46.558453
33
0
39
0
210
0
220
0
230
1
0
SOLID
5
16B
100
AcDbEntity
8
0
62
256
6
ByLayer
370
-1
48
1
60
0
100
AcDbTrace
10
207
20
-47.141786
30
0
11
207
21
-45.97512
31
0
12
210.5
22
-46.558453
32
0
13
210.5
23
-46.558453
33
0
39
0
210
0
220
0
230
1
0
MTEXT
5
16C
100
AcDbEntity
8
0
62
256
6
ByLayer
370
18
48
1
60
0
100
AcDbMText
10
77.25
20
-40.558453
30
0
210
0
220
0
230
1
1
\A1;266.5
40
3
41
0
44
1
50
0
71
5
72
5
7
iso_b_vert
0
POINT
5
16D
100
AcDbEntity
8
Defpoints
62
0
6
ByLayer
370
-1
48
1
60
0
100
AcDbPoint
10
-56
20
-12.5
30
0
39
0
210
0
220
0
230
1
50
360
0
POINT
5
16E
100
AcDbEntity
8
Defpoints
62
0
6
ByLayer
370
-1
48
1
60
0
100
AcDbPoint
10
210.5
20
0
30
0
39
0
210
0
220
0
230
1
50
360
0
POINT
5
16F
100
AcDbEntity
8
Defpoints
62
0
6
ByLayer
370
-1
48
1
60
0
100
AcDbPoint
10
210.5
20
-46.558453
30
0
39
0
210
0
220
0
230
1
50
360
0
ENDBLK
5
166
100
AcDbEntity
8
0
100
AcDbBlockEnd
0
BLOCK
5
177
100
AcDbEntity
8
0
100
AcDbBlockBegin
2
_U0
70
0
10
0
20
0
30
0
3
_U0
0
MTEXT
5
171
100
AcDbEntity
8
SK2
62
256
6
ByLayer
370
18
48
1
60
0
100
AcDbMText
10
71.646716
20
-45.673339
30
0
210
0
220
0
230
1
1
\W0.7513;266.50
40
3
41
0
44
1.084337
50
0
71
7
72
5
7
iso_b_vert
0
LINE
5
172
100
AcDbEntity
8
SK2
62
256
6
ByLayer
370
13
48
1
60
0
100
AcDbLine
10
-56
20
-14.0875
30
0
11
-56
21
-48.558453
31
0
39
0
210
0
220
0
230
1
0
LINE
5
173
100
AcDbEntity
8
SK2
62
256
6
ByLayer
370
13
48
1
60
0
100
AcDbLine
10
210.5
20
-1.5875
30
0
11
210.5
21
-48.558453
31
0
39
0
210
0
220
0
230
1
0
LINE
5
174
100
AcDbEntity
8
SK2
62
256
6
ByLayer
370
13
48
1
60
0
100
AcDbLine
10
-56
20
-46.558453
30
0
11
210.5
21
-46.558453
31
0
39
0
210
0
220
0
230
1
0
SOLID
5
175
100
AcDbEntity
8
SK2
62
256
6
ByLayer
370
18
48
1
60
0
100
AcDbTrace
10
-56
20
-46.558453
30
0
11
-52.500002
21
-46.097669
31
0
12
-52.499998
22
-47.019237
32
0
13
-52.499998
23
-47.019237
33
0
39
0
210
0
220
0
230
1
0
SOLID
5
176
100
AcDbEntity
8
SK2
62
256
6
ByLayer
370
18
48
1
60
0
100
AcDbTrace
10
210.5
20
-46.558453
30
0
11
207.000002
21
-47.019237
31
0
12
206.999998
22
-46.097669
32
0
13
206.999998
23
-46.097669
33
0
39
0
210
0
220
0
230
1
0
ENDBLK
5
178
100
AcDbEntity
8
0
100
AcDbBlockEnd
0
BLOCK
5
17D
100
AcDbEntity
8
0
100
AcDbBlockBegin
2
*D3
70
1
10
0
20
0
30
0
3
*D3
0
LINE
5
17F
100
AcDbEntity
8
0
62
256
6
ByLayer
370
-2
48
1
60
0
100
AcDbLine
10
210.5
20
-1.5875
30
0
11
210.5
21
-38.558453
31
0
39
0
210
0
220
0
230
1
0
LINE
5
180
100
AcDbEntity
8
0
62
256
6
ByLayer
370
-2
48
1
60
0
100
AcDbLine
10
3
20
-12.0875
30
0
11
3
21
-38.558453
31
0
39
0
210
0
220
0
230
1
0
LINE
5
181
100
AcDbEntity
8
0
62
256
6
ByLayer
370
-2
48
1
60
0
100
AcDbLine
10
207
20
-36.558453
30
0
11
6.5
21
-36.558453
31
0
39
0
210
0
220
0
230
1
0
SOLID
5
182
100
AcDbEntity
8
0
62
256
6
ByLayer
370
-1
48
1
60
0
100
AcDbTrace
10
207
20
-37.141786
30
0
11
207
21
-35.97512
31
0
12
210.5
22
-36.558453
32
0
13
210.5
23
-36.558453
33
0
39
0
210
0
220
0
230
1
0
SOLID
5
183
100
AcDbEntity
8
0
62
256
6
ByLayer
370
-1
48
1
60
0
100
AcDbTrace
10
6.5
20
-35.97512
30
0
11
6.5
21
-37.141786
31
0
12
3
22
-36.558453
32
0
13
3
23
-36.558453
33
0
39
0
210
0
220
0
230
1
0
MTEXT
5
184
100
AcDbEntity
8
0
62
256
6
ByLayer
370
18
48
1
60
0
100
AcDbMText
10
106.75
20
-30.558453
30
0
210
0
220
0
230
1
1
\A1;207.5
40
3
41
0
44
1
50
0
71
5
72
5
7
iso_b_vert
0
POINT
5
185
100
AcDbEntity
8
Defpoints
62
0
6
ByLayer
370
-1
48
1
60
0
100
AcDbPoint
10
210.5
20
0
30
0
39
0
210
0
220
0
230
1
50
360
0
POINT
5
186
100
AcDbEntity
8
Defpoints
62
0
6
ByLayer
370
-1
48
1
60
0
100
AcDbPoint
10
3
20
-10.5
30
0
39
0
210
0
220
0
230
1
50
360
0
POINT
5
187
100
AcDbEntity
8
Defpoints
62
0
6
ByLayer
370
-1
48
1
60
0
100
AcDbPoint
10
3
20
-36.558453
30
0
39
0
210
0
220
0
230
1
50
360
0
ENDBLK
5
17E
100
AcDbEntity
8
0
100
AcDbBlockEnd
0
BLOCK
5
18F
100
AcDbEntity
8
0
100
AcDbBlockBegin
2
_U1
70
0
10
0
20
0
30
0
3
_U1
0
MTEXT
5
189
100
AcDbEntity
8
SK2
62
256
6
ByLayer
370
18
48
1
60
0
100
AcDbMText
10
101.146716
20
-35.673339
30
0
210
0
220
0
230
1
1
\W0.7513;207.50
40
3
41
0
44
1.084337
50
0
71
7
72
5
7
iso_b_vert
0
LINE
5
18A
100
AcDbEntity
8
SK2
62
256
6
ByLayer
370
13
48
1
60
0
100
AcDbLine
10
210.5
20
-1.5875
30
0
11
210.5
21
-38.558453
31
0
39
0
210
0
220
0
230
1
0
LINE
5
18B
100
AcDbEntity
8
SK2
62
256
6
ByLayer
370
13
48
1
60
0
100
AcDbLine
10
3
20
-12.0875
30
0
11
3
21
-38.558453
31
0
39
0
210
0
220
0
230
1
0
LINE
5
18C
100
AcDbEntity
8
SK2
62
256
6
ByLayer
370
13
48
1
60
0
100
AcDbLine
10
210.5
20
-36.558453
30
0
11
3
21
-36.558453
31
0
39
0
210
0
220
0
230
1
0
SOLID
5
18D
100
AcDbEntity
8
SK2
62
256
6
ByLayer
370
18
48
1
60
0
100
AcDbTrace
10
210.5
20
-36.558453
30
0
11
207.000002
21
-37.019237
31
0
12
206.999998
22
-36.097669
32
0
13
206.999998
23
-36.097669
33
0
39
0
210
0
220
0
230
1
0
SOLID
5
18E
100
AcDbEntity
8
SK2
62
256
6
ByLayer
370
18
48
1
60
0
100
AcDbTrace
10
3
20
-36.558453
30
0
11
6.499998
21
-36.097669
31
0
12
6.500002
22
-37.019237
32
0
13
6.500002
23
-37.019237
33
0
39
0
210
0
220
0
230
1
0
ENDBLK
5
190
100
AcDbEntity
8
0
100
AcDbBlockEnd
0
BLOCK
5
195
100
AcDbEntity
8
0
100
AcDbBlockBegin
2
*D5
70
1
10
0
20
0
30
0
3
*D5
0
LINE
5
197
100
AcDbEntity
8
0
62
256
6
ByLayer
370
-2
48
1
60
0
100
AcDbLine
10
-56
20
-14.0875
30
0
11
-56
21
-38.558453
31
0
39
0
210
0
220
0
230
1
0
LINE
5
198
100
AcDbEntity
8
0
62
256
6
ByLayer
370
-2
48
1
60
0
100
AcDbLine
10
0
20
-14.0875
30
0
11
0
21
-38.558453
31
0
39
0
210
0
220
0
230
1
0
LINE
5
199
100
AcDbEntity
8
0
62
256
6
ByLayer
370
-2
48
1
60
0
100
AcDbLine
10
-52.5
20
-36.558453
30
0
11
-3.5
21
-36.558453
31
0
39
0
210
0
220
0
230
1
0
SOLID
5
19A
100
AcDbEntity
8
0
62
256
6
ByLayer
370
-1
48
1
60
0
100
AcDbTrace
10
-52.5
20
-35.97512
30
0
11
-52.5
21
-37.141786
31
0
12
-56
22
-36.558453
32
0
13
-56
23
-36.558453
33
0
39
0
210
0
220
0
230
1
0
SOLID
5
19B
100
AcDbEntity
8
0
62
256
6
ByLayer
370
-1
48
1
60
0
100
AcDbTrace
10
-3.5
20
-37.141786
30
0
11
-3.5
21
-35.97512
31
0
12
0
22
-36.558453
32
0
13
0
23
-36.558453
33
0
39
0
210
0
220
0
230
1
0
MTEXT
5
19C
100
AcDbEntity
8
0
62
256
6
ByLayer
370
18
48
1
60
0
100
AcDbMText
10
-28
20
-30.558453
30
0
210
0
220
0
230
1
1
\A1;56
40
3
41
0
44
1
50
0
71
5
72
5
7
iso_b_vert
0
POINT
5
19D
100
AcDbEntity
8
Defpoints
62
0
6
ByLayer
370
-1
48
1
60
0
100
AcDbPoint
10
-56
20
-12.5
30
0
39
0
210
0
220
0
230
1
50
360
0
POINT
5
19E
100
AcDbEntity
8
Defpoints
62
0
6
ByLayer
370
-1
48
1
60
0
100
AcDbPoint
10
0
20
-12.5
30
0
39
0
210
0
220
0
230
1
50
360
0
POINT
5
19F
100
AcDbEntity
8
Defpoints
62
0
6
ByLayer
370
-1
48
1
60
0
100
AcDbPoint
10
0
20
-36.558453
30
0
39
0
210
0
220
0
230
1
50
360
0
ENDBLK
5
196
100
AcDbEntity
8
0
100
AcDbBlockEnd
0
BLOCK
5
1A7
100
AcDbEntity
8
0
100
AcDbBlockBegin
2
_U2
70
0
10
0
20
0
30
0
3
_U2
0
MTEXT
5
1A1
100
AcDbEntity
8
SK2
62
256
6
ByLayer
370
18
48
1
60
0
100
AcDbMText
10
-32.48237
20
-35.673339
30
0
210
0
220
0
230
1
1
\W0.7468;56.00
40
3
41
0
44
1.084337
50
0
71
7
72
5
7
iso_b_vert
0
LINE
5
1A2
100
AcDbEntity
8
SK2
62
256
6
ByLayer
370
13
48
1
60
0
100
AcDbLine
10
-56
20
-14.0875
30
0
11
-56
21
-38.558453
31
0
39
0
210
0
220
0
230
1
0
LINE
5
1A3
100
AcDbEntity
8
SK2
62
256
6
ByLayer
370
13
48
1
60
0
100
AcDbLine
10
0
20
-14.0875
30
0
11
0
21
-38.558453
31
0
39
0
210
0
220
0
230
1
0
LINE
5
1A4
100
AcDbEntity
8
SK2
62
256
6
ByLayer
370
13
48
1
60
0
100
AcDbLine
10
-56
20
-36.558453
30
0
11
0
21
-36.558453
31
0
39
0
210
0
220
0
230
1
0
SOLID
5
1A5
100
AcDbEntity
8
SK2
62
256
6
ByLayer
370
18
48
1
60
0
100
AcDbTrace
10
-56
20
-36.558453
30
0
11
-52.500002
21
-36.097669
31
0
12
-52.499998
22
-37.019237
32
0
13
-52.499998
23
-37.019237
33
0
39
0
210
0
220
0
230
1
0
SOLID
5
1A6
100
AcDbEntity
8
SK2
62
256
6
ByLayer
370
18
48
1
60
0
100
AcDbTrace
10
0
20
-36.558453
30
0
11
-3.499998
21
-37.019237
31
0
12
-3.500002
22
-36.097669
32
0
13
-3.500002
23
-36.097669
33
0
39
0
210
0
220
0
230
1
0
ENDBLK
5
1A8
100
AcDbEntity
8
0
100
AcDbBlockEnd
0
BLOCK
5
1AD
100
AcDbEntity
8
0
100
AcDbBlockBegin
2
*D7
70
1
10
0
20
0
30
0
3
*D7
0
LINE
5
1AF
100
AcDbEntity
8
0
62
256
6
ByLayer
370
-2
48
1
60
0
100
AcDbLine
10
210.5
20
1.5875
30
0
11
210.5
21
35.558453
31
0
39
0
210
0
220
0
230
1
0
LINE
5
1B0
100
AcDbEntity
8
0
62
256
6
ByLayer
370
-2
48
1
60
0
100
AcDbLine
10
26
20
12.0875
30
0
11
26
21
35.558453
31
0
39
0
210
0
220
0
230
1
0
LINE
5
1B1
100
AcDbEntity
8
0
62
256
6
ByLayer
370
-2
48
1
60
0
100
AcDbLine
10
207
20
33.558453
30
0
11
29.5
21
33.558453
31
0
39
0
210
0
220
0
230
1
0
SOLID
5
1B2
100
AcDbEntity
8
0
62
256
6
ByLayer
370
-1
48
1
60
0
100
AcDbTrace
10
207
20
32.97512
30
0
11
207
21
34.141786
31
0
12
210.5
22
33.558453
32
0
13
210.5
23
33.558453
33
0
39
0
210
0
220
0
230
1
0
SOLID
5
1B3
100
AcDbEntity
8
0
62
256
6
ByLayer
370
-1
48
1
60
0
100
AcDbTrace
10
29.5
20
34.141786
30
0
11
29.5
21
32.97512
31
0
12
26
22
33.558453
32
0
13
26
23
33.558453
33
0
39
0
210
0
220
0
230
1
0
MTEXT
5
1B4
100
AcDbEntity
8
0
62
256
6
ByLayer
370
18
48
1
60
0
100
AcDbMText
10
118.25
20
39.558453
30
0
210
0
220
0
230
1
1
\A1;184.5
40
3
41
0
44
1
50
0
71
5
72
5
7
iso_b_vert
0
POINT
5
1B5
100
AcDbEntity
8
Defpoints
62
0
6
ByLayer
370
-1
48
1
60
0
100
AcDbPoint
10
210.5
20
0
30
0
39
0
210
0
220
0
230
1
50
360
0
POINT
5
1B6
100
AcDbEntity
8
Defpoints
62
0
6
ByLayer
370
-1
48
1
60
0
100
AcDbPoint
10
26
20
10.5
30
0
39
0
210
0
220
0
230
1
50
360
0
POINT
5
1B7
100
AcDbEntity
8
Defpoints
62
0
6
ByLayer
370
-1
48
1
60
0
100
AcDbPoint
10
26
20
33.558453
30
0
39
0
210
0
220
0
230
1
50
360
0
ENDBLK
5
1AE
100
AcDbEntity
8
0
100
AcDbBlockEnd
0
BLOCK
5
1BF
100
AcDbEntity
8
0
100
AcDbBlockBegin
2
_U3
70
0
10
0
20
0
30
0
3
_U3
0
MTEXT
5
1B9
100
AcDbEntity
8
SK2
62
256
6
ByLayer
370
18
48
1
60
0
100
AcDbMText
10
112.863715
20
34.443567
30
0
210
0
220
0
230
1
1
\W0.7237;184.50
40
3
41
0
44
1.084337
50
0
71
7
72
5
7
iso_b_vert
0
LINE
5
1BA
100
AcDbEntity
8
SK2
62
256
6
ByLayer
370
13
48
1
60
0
100
AcDbLine
10
210.5
20
1.5875
30
0
11
210.5
21
35.558453
31
0
39
0
210
0
220
0
230
1
0
LINE
5
1BB
100
AcDbEntity
8
SK2
62
256
6
ByLayer
370
13
48
1
60
0
100
AcDbLine
10
26
20
12.0875
30
0
11
26
21
35.558453
31
0
39
0
210
0
220
0
230
1
0
LINE
5
1BC
100
AcDbEntity
8
SK2
62
256
6
ByLayer
370
13
48
1
60
0
100
AcDbLine
10
210.5
20
33.558453
30
0
11
26
21
33.558453
31
0
39
0
210
0
220
0
230
1
0
SOLID
5
1BD
100
AcDbEntity
8
SK2
62
256
6
ByLayer
370
18
48
1
60
0
100
AcDbTrace
10
210.5
20
33.558453
30
0
11
207.000002
21
33.097669
31
0
12
206.999998
22
34.019237
32
0
13
206.999998
23
34.019237
33
0
39
0
210
0
220
0
230
1
0
SOLID
5
1BE
100
AcDbEntity
8
SK2
62
256
6
ByLayer
370
18
48
1
60
0
100
AcDbTrace
10
26
20
33.558453
30
0
11
29.499998
21
34.019237
31
0
12
29.500002
22
33.097669
32
0
13
29.500002
23
33.097669
33
0
39
0
210
0
220
0
230
1
0
ENDBLK
5
1C0
100
AcDbEntity
8
0
100
AcDbBlockEnd
0
ENDSEC
0
SECTION
2
ENTITIES
0
ARC
5
C2
100
AcDbEntity
8
SK2
62
256
6
ByLayer
370
13
48
1
60
0
100
AcDbCircle
39
0
10
210.5
20
0
30
0
40
18.9999999999999
210
0
220
0
230
1
100
AcDbArc
50
290
51
70
0
ELLIPSE
5
C3
100
AcDbEntity
8
SK1
62
256
6
ByLayer
370
18
48
1
60
0
100
AcDbEllipse
10
-41.343561
20
0
30
0
11
-2.29613691341699E-15
21
-12.5000000000002
31
0
210
0
220
0
230
1
40
0.932515
41
-1.86465462472194
42
-1.27693802886786
0
ELLIPSE
5
C4
100
AcDbEntity
8
SK1
62
256
6
ByLayer
370
18
48
1
60
0
100
AcDbEllipse
10
276.680659
20
0
30
0
11
357.953166043254
21
-4.05596621644435E-13
31
0
210
0
220
0
230
1
40
0.034921
41
2.52406396812455
42
2.73005601344533
0
ELLIPSE
5
C5
100
AcDbEntity
8
SK1
62
256
6
ByLayer
370
18
48
1
60
0
100
AcDbEllipse
10
276.680659
20
0
30
0
11
357.953166032003
21
-4.05596621631686E-13
31
0
210
0
220
0
230
1
40
0.034921
41
-2.73005601344242
42
-2.52406396811705
0
ELLIPSE
5
C6
100
AcDbEntity
8
SK1
62
256
6
ByLayer
370
18
48
1
60
0
100
AcDbEllipse
10
-25.404609
20
0
30
0
11
13.4046088753088
21
-1.51887581674114E-14
31
0
210
0
220
0
230
1
40
0.932515
41
-0.555530755442636
42
0.555530755442635
0
POINT
5
70
100
AcDbEntity
8
80
62
256
6
ByLayer
370
18
48
1
60
0
100
AcDbPoint
10
0
20
0
30
0
39
0
210
0
220
0
230
1
50
360
0
POINT
5
72
100
AcDbEntity
8
81
62
256
6
ByLayer
370
18
48
1
60
0
100
AcDbPoint
10
210.5
20
0
30
0
39
0
210
0
220
0
230
1
50
360
0
POINT
5
74
100
AcDbEntity
8
1
62
256
6
ByLayer
370
18
48
1
60
1
100
AcDbPoint
10
-56
20
-12.5
30
0
39
0
210
0
220
0
230
1
50
360
0
POINT
5
76
100
AcDbEntity
8
1
62
256
6
ByLayer
370
18
48
1
60
1
100
AcDbPoint
10
210.5
20
0
30
0
39
0
210
0
220
0
230
1
50
360
0
POINT
5
77
100
AcDbEntity
8
1
62
256
6
ByLayer
370
18
48
1
60
1
100
AcDbPoint
10
210.5
20
0
30
0
39
0
210
0
220
0
230
1
50
360
0
POINT
5
78
100
AcDbEntity
8
1
62
256
6
ByLayer
370
18
48
1
60
1
100
AcDbPoint
10
3
20
-10.5
30
0
39
0
210
0
220
0
230
1
50
360
0
POINT
5
79
100
AcDbEntity
8
1
62
256
6
ByLayer
370
18
48
1
60
1
100
AcDbPoint
10
-56
20
-12.5
30
0
39
0
210
0
220
0
230
1
50
360
0
POINT
5
7A
100
AcDbEntity
8
1
62
256
6
ByLayer
370
18
48
1
60
1
100
AcDbPoint
10
0
20
-12.5
30
0
39
0
210
0
220
0
230
1
50
360
0
POINT
5
7B
100
AcDbEntity
8
1
62
256
6
ByLayer
370
18
48
1
60
1
100
AcDbPoint
10
210.5
20
0
30
0
39
0
210
0
220
0
230
1
50
360
0
POINT
5
7C
100
AcDbEntity
8
1
62
256
6
ByLayer
370
18
48
1
60
1
100
AcDbPoint
10
26
20
10.5
30
0
39
0
210
0
220
0
230
1
50
360
0
SPLINE
5
C7
100
AcDbEntity
8
1
62
256
6
ByLayer
370
18
48
1
60
0
100
AcDbSpline
70
4
71
3
72
26
73
22
40
0
40
0
40
0
40
0
40
0.125000000000002
40
0.125000000000002
40
0.250000000000005
40
0.250000000000005
40
0.375000000000007
40
0.375000000000007
40
0.406250000000009
40
0.406250000000009
40
0.437500000000011
40
0.437500000000011
40
0.50000000000001
40
0.50000000000001
40
0.625000000000007
40
0.625000000000007
40
0.750000000000005
40
0.750000000000005
40
0.875000000000002
40
0.875000000000002
40
1
40
1
40
1
40
1
41
1
10
10
20
-10.1579115029048
30
0
41
1
10
10.3494594368371
20
-10.1507828719563
30
0
41
1
10
10.7001158777541
20
-10.1444039477431
30
0
41
1
10
11.4036442700406
20
-10.1347123344044
30
0
41
1
10
11.7565175305829
20
-10.1313928552901
30
0
41
1
10
12.4643616463142
20
-10.1284024390743
30
0
41
1
10
12.8193335485029
20
-10.128728326342
30
0
41
1
10
13.264299964338
20
-10.1312667247101
30
0
41
1
10
13.3533558385266
20
-10.1318790524737
30
0
41
1
10
13.5315912445183
20
-10.1333019032713
30
0
41
1
10
13.6207733874755
20
-10.1341126889679
30
0
41
1
10
13.8874352788798
20
-10.1368091775169
30
0
41
1
10
14.0643927003354
20
-10.1389625117215
30
0
41
1
10
14.5929620190897
20
-10.1462476618264
30
0
41
1
10
14.9422701721565
20
-10.1522134038094
30
0
41
1
10
15.6355292756312
20
-10.1647889414671
30
0
41
1
10
15.9794792008222
20
-10.1713911164331
30
0
41
1
10
16.6628414081313
20
-10.183461418228
30
0
41
1
10
17.0022549817778
20
-10.1889221839577
30
0
41
1
10
17.6774017393047
20
-10.1969710434308
30
0
41
1
10
18.0131387171684
20
-10.1995545559166
30
0
41
1
10
18.3474447241729
20
-10.1999473677377
30
0
0
SPLINE
5
C8
100
AcDbEntity
8
1
62
256
6
ByLayer
370
18
48
1
60
0
100
AcDbSpline
70
4
71
3
72
28
73
24
40
0
40
0
40
0
40
0
40
0.125000000000027
40
0.125000000000027
40
0.250000000000054
40
0.250000000000054
40
0.31250000000006
40
0.31250000000006
40
0.375000000000067
40
0.375000000000067
40
0.500000000000067
40
0.500000000000067
40
0.625000000000067
40
0.625000000000067
40
0.687500000000061
40
0.687500000000061
40
0.750000000000054
40
0.750000000000054
40
0.875000000000027
40
0.875000000000027
40
0.937500000000014
40
0.937500000000014
40
1
40
1
40
1
40
1
41
1
10
206.67831254021
20
-1.4985779476819
30
0
41
1
10
206.220208863006
20
-1.33371079070957
30
0
41
1
10
205.762285845192
20
-1.16853143378191
30
0
41
1
10
204.846921694345
20
-0.837211618197188
30
0
41
1
10
204.389541875937
20
-0.670901264948554
30
0
41
1
10
203.703574689904
20
-0.421435115388931
30
0
41
1
10
203.474945654168
20
-0.33825286849833
30
0
41
1
10
203.017764434883
20
-0.17176962452811
30
0
41
1
10
202.789207821047
20
-0.0884809783893559
30
0
41
1
10
202.10346831641
20
0.161051004456908
30
0
41
1
10
201.646263689792
20
0.327093559202922
30
0
41
1
10
200.73192874368
20
0.659010008258889
30
0
41
1
10
200.27478755927
20
0.824853781904153
30
0
41
1
10
199.589158904821
20
1.07356620775826
30
0
41
1
10
199.360639205369
20
1.15648707724225
30
0
41
1
10
198.903488056215
20
1.32192664907006
30
0
41
1
10
198.674860546897
20
1.40445628400985
30
0
41
1
10
197.988830191116
20
1.6514972710338
30
0
41
1
10
197.53127729921
20
1.81545474966487
30
0
41
1
10
196.844701361267
20
2.06043042001227
30
0
41
1
10
196.615803635652
20
2.14193440277796
30
0
41
1
10
196.157953981914
20
2.30469848267404
30
0
41
1
10
195.929011605199
20
2.3859846840225
30
0
41
1
10
195.7
20
2.4670333256341
30
0
0
SPLINE
5
C9
100
AcDbEntity
8
1
62
256
6
ByLayer
370
18
48
1
60
0
100
AcDbSpline
70
4
71
3
72
89
73
85
40
0
40
0
40
0
40
0
40
0.031250000000023
40
0.031250000000023
40
0.0625000000000459
40
0.0625000000000459
40
0.125000000000089
40
0.125000000000089
40
0.140625000000099
40
0.140625000000099
40
0.148437500000102
40
0.148437500000102
40
0.156250000000106
40
0.187500000000111
40
0.187500000000111
40
0.218750000000115
40
0.218750000000115
40
0.25000000000012
40
0.25000000000012
40
0.281250000000125
40
0.281250000000125
40
0.296875000000126
40
0.296875000000126
40
0.312500000000127
40
0.312500000000127
40
0.343750000000129
40
0.343750000000129
40
0.375000000000131
40
0.375000000000131
40
0.406250000000133
40
0.406250000000133
40
0.437500000000135
40
0.437500000000135
40
0.445312500000135
40
0.445312500000135
40
0.453125000000134
40
0.468750000000133
40
0.468750000000133
40
0.50000000000013
40
0.50000000000013
40
0.531250000000128
40
0.531250000000128
40
0.539062500000127
40
0.539062500000127
40
0.546875000000127
40
0.562500000000126
40
0.562500000000126
40
0.593750000000122
40
0.593750000000122
40
0.625000000000119
40
0.625000000000119
40
0.632812500000118
40
0.632812500000118
40
0.640625000000118
40
0.656250000000118
40
0.656250000000118
40
0.687500000000117
40
0.687500000000117
40
0.718750000000116
40
0.718750000000116
40
0.726562500000114
40
0.726562500000114
40
0.734375000000113
40
0.734375000000113
40
0.750000000000106
40
0.750000000000106
40
0.781250000000093
40
0.781250000000093
40
0.81250000000008
40
0.81250000000008
40
0.843750000000067
40
0.843750000000067
40
0.851562500000064
40
0.851562500000064
40
0.85937500000006
40
0.875000000000054
40
0.875000000000054
40
0.906250000000041
40
0.937500000000028
40
0.968750000000016
40
0.968750000000016
40
0.984375000000008
40
0.984375000000008
40
1
40
1
40
1
40
1
41
1
10
206.678312540205
20
10.1665653362531
30
0
41
1
10
206.743891478864
20
10.003963924419
30
0
41
1
10
206.809572977993
20
9.83892028547024
30
0
41
1
10
206.94125299699
20
9.50433270070889
30
0
41
1
10
207.007251402056
20
9.33478789842223
30
0
41
1
10
207.205839874416
20
8.81981798615217
30
0
41
1
10
207.33904142201
20
8.46809319562234
30
0
41
1
10
207.50669813494
20
8.01869222554009
30
0
41
1
10
207.540285755182
20
7.9283218930577
30
0
41
1
10
207.590749311643
20
7.79203776216261
30
0
41
1
10
207.607595758156
20
7.74645680457331
30
0
41
1
10
207.641256052649
20
7.65521336610735
30
0
41
1
10
207.725282881784
20
7.42701402744032
30
0
41
1
10
207.808698949372
20
7.19836856376668
30
0
41
1
10
207.941329778191
20
6.8319623221648
30
0
41
1
10
208.007228541957
20
6.6484727044469
30
0
41
1
10
208.138043109278
20
6.28087903010956
30
0
41
1
10
208.202960542293
20
6.09677559162864
30
0
41
1
10
208.331534765056
20
5.7278627715063
30
0
41
1
10
208.395193919644
20
5.54305416404696
30
0
41
1
10
208.489386310382
20
5.26518891776854
30
0
41
1
10
208.520566021204
20
5.17245781362308
30
0
41
1
10
208.582405360454
20
4.98674673269315
30
0
41
1
10
208.613072826689
20
4.89374014983881
30
0
41
1
10
208.703698376016
20
4.61564676757175
30
0
41
1
10
208.762444628679
20
4.43104342938369
30
0
41
1
10
208.875521448439
20
4.06311857570518
30
0
41
1
10
208.929859447644
20
3.87979826483047
30
0
41
1
10
209.032468819301
20
3.51405835689266
30
0
41
1
10
209.080748915703
20
3.33163952472012
30
0
41
1
10
209.168755294256
20
2.96720816806507
30
0
41
1
10
209.208485549505
20
2.78519417904994
30
0
41
1
10
209.250586600175
20
2.55755149073019
30
0
41
1
10
209.258633397548
20
2.51197229039676
30
0
41
1
10
209.273865390023
20
2.42100045393983
30
0
41
1
10
209.295391209988
20
2.28501834260919
30
0
41
1
10
209.312718730515
20
2.15048120884697
30
0
41
1
10
209.341210990753
20
1.88340739571123
30
0
41
1
10
209.351928239364
20
1.70801615637296
30
0
41
1
10
209.354795116929
20
1.36316963868998
30
0
41
1
10
209.34692778621
20
1.19371719100602
30
0
41
1
10
209.325554731776
20
0.986164049201392
30
0
41
1
10
209.320700779669
20
0.944808425388288
30
0
41
1
10
209.309911022417
20
0.862821882353359
30
0
41
1
10
209.292138352573
20
0.741146468144109
30
0
41
1
10
209.269876166136
20
0.623336546232821
30
0
41
1
10
209.220111339458
20
0.392747128966732
30
0
41
1
10
209.179976124525
20
0.245718765855258
30
0
41
1
10
209.089400472308
20
-0.0354584662937043
30
0
41
1
10
209.038967715638
20
-0.169611138979434
30
0
41
1
10
208.971158528532
20
-0.329370565390008
30
0
41
1
10
208.957341099252
20
-0.360957260552453
30
0
41
1
10
208.929329409686
20
-0.423173386723761
30
0
41
1
10
208.886786887967
20
-0.514976482645153
30
0
41
1
10
208.842832030172
20
-0.602305334063686
30
0
41
1
10
208.75338006564
20
-0.771175192960072
30
0
41
1
10
208.691709426651
20
-0.876054038711374
30
0
41
1
10
208.565490930571
20
-1.07091768431812
30
0
41
1
10
208.500934573109
20
-1.16089972532518
30
0
41
1
10
208.418828516242
20
-1.26407924291163
30
0
41
1
10
208.402335730835
20
-1.28424915408044
30
0
41
1
10
208.369213127707
20
-1.32365303927958
30
0
41
1
10
208.352578499714
20
-1.34289101961872
30
0
41
1
10
208.302697887696
20
-1.39895194663907
30
0
41
1
10
208.269403367717
20
-1.43421095920362
30
0
41
1
10
208.169449556934
20
-1.53378430853613
30
0
41
1
10
208.102724979408
20
-1.591907728097
30
0
41
1
10
207.96921964643
20
-1.6920478609025
30
0
41
1
10
207.902436816534
20
-1.73406294021706
30
0
41
1
10
207.76879425625
20
-1.80200116415665
30
0
41
1
10
207.701933578638
20
-1.8279243473857
30
0
41
1
10
207.618239553124
20
-1.85005117771396
30
0
41
1
10
207.601492454634
20
-1.85396070349108
30
0
41
1
10
207.568138336242
20
-1.86071568161893
30
0
41
1
10
207.518259019424
20
-1.86926841691942
30
0
41
1
10
207.468819023555
20
-1.8731341703114
30
0
41
1
10
207.370481638829
20
-1.87472130960896
30
0
41
1
10
207.240811705058
20
-1.86047400490895
30
0
41
1
10
207.049965396779
20
-1.79087949557786
30
0
41
1
10
206.924726061407
20
-1.71226229952742
30
0
41
1
10
206.831374332616
20
-1.64094637568238
30
0
41
1
10
206.8004614206
20
-1.6151939098477
30
0
41
1
10
206.739079422131
20
-1.55980790520724
30
0
41
1
10
206.708598953011
20
-1.53016568254066
30
0
41
1
10
206.678312540205
20
-1.49857794768008
30
0
0
SPLINE
5
CA
100
AcDbEntity
8
1
62
256
6
ByLayer
370
18
48
1
60
0
100
AcDbSpline
70
4
71
3
72
20
73
16
40
0
40
0
40
0
40
0
40
0.0587791811682016
40
0.0587791811682016
40
0.152901263051375
40
0.152901263051375
40
0.247023344934549
40
0.247023344934549
40
0.623511672467264
40
0.623511672467264
40
0.717633754350443
40
0.717633754350443
40
0.811755836233622
40
0.811755836233622
40
1
40
1
40
1
40
1
41
1
10
199.389679503658
20
10.4986878035461
30
0
41
1
10
199.532402287843
20
10.4987146782464
30
0
41
1
10
199.675102311575
20
10.4983543253148
30
0
41
1
10
200.04629199184
20
10.4964065266756
30
0
41
1
10
200.274782783936
20
10.4942121712104
30
0
41
1
10
200.73187812895
20
10.487857303831
30
0
41
1
10
200.960459489072
20
10.4836962496621
30
0
41
1
10
202.103394964613
20
10.4579768709876
30
0
41
1
10
203.017932261206
20
10.4217468910399
30
0
41
1
10
204.160911433733
20
10.3565098376603
30
0
41
1
10
204.389515963457
20
10.342466967232
30
0
41
1
10
204.846917642464
20
10.3124781061705
30
0
41
1
10
205.075695045726
20
10.2965243778846
30
0
41
1
10
205.76222488979
20
10.2457828268737
30
0
41
1
10
206.220170841643
20
10.2081159092754
30
0
41
1
10
206.67831254021
20
10.1665653362527
30
0
0
SPLINE
5
CB
100
AcDbEntity
8
1
62
256
6
ByLayer
370
18
48
1
60
0
100
AcDbSpline
70
4
71
3
72
188
73
184
40
0
40
0
40
0
40
0
40
0.0305548766645146
40
0.0305548766645146
40
0.0458323149967721
40
0.0458323149967721
40
0.0534710341629007
40
0.0534710341629007
40
0.0611097533290292
40
0.0611097533290292
40
0.0763871916612863
40
0.0763871916612863
40
0.0916646299935434
40
0.0916646299935434
40
0.0993033491596718
40
0.0993033491596718
40
0.1069420683258
40
0.1069420683258
40
0.122219506658057
40
0.122219506658057
40
0.137496944990314
40
0.137496944990314
40
0.145135664156442
40
0.145135664156442
40
0.15277438332257
40
0.15277438332257
40
0.168051821654827
40
0.168051821654827
40
0.183329259987083
40
0.183329259987083
40
0.190967979153211
40
0.190967979153211
40
0.198606698319339
40
0.198606698319339
40
0.213884136651595
40
0.213884136651595
40
0.229161574983851
40
0.229161574983851
40
0.236800294149979
40
0.236800294149979
40
0.244439013316108
40
0.244439013316108
40
0.259716451648363
40
0.259716451648363
40
0.27499388998062
40
0.27499388998062
40
0.282632609146747
40
0.282632609146747
40
0.290271328312875
40
0.290271328312875
40
0.297910047479003
40
0.297910047479003
40
0.305548766645131
40
0.305548766645131
40
0.320826204977388
40
0.320826204977388
40
0.328464924143516
40
0.328464924143516
40
0.336103643309644
40
0.336103643309644
40
0.351381081641901
40
0.351381081641901
40
0.366658519974158
40
0.366658519974158
40
0.374297239140287
40
0.374297239140287
40
0.381935958306415
40
0.381935958306415
40
0.389574677472544
40
0.389574677472544
40
0.397213396638673
40
0.397213396638673
40
0.412490834970929
40
0.412490834970929
40
0.420129554137057
40
0.420129554137057
40
0.427768273303186
40
0.427768273303186
40
0.435406992469314
40
0.435406992469314
40
0.443045711635442
40
0.443045711635442
40
0.458323149967698
40
0.458323149967698
40
0.465961869133826
40
0.465961869133826
40
0.473600588299955
40
0.473600588299955
40
0.481239307466083
40
0.481239307466083
40
0.488878026632212
40
0.488878026632212
40
0.519432903296724
40
0.519432903296724
40
0.527071622462852
40
0.527071622462852
40
0.53471034162898
40
0.53471034162898
40
0.549987779961236
40
0.549987779961236
40
0.565265218293493
40
0.565265218293493
40
0.572903937459621
40
0.572903937459621
40
0.580542656625749
40
0.580542656625749
40
0.611097533290265
40
0.611097533290265
40
0.618736252456394
40
0.618736252456394
40
0.626374971622523
40
0.626374971622523
40
0.641652409954782
40
0.641652409954782
40
0.65692984828704
40
0.65692984828704
40
0.66456856745317
40
0.66456856745317
40
0.672207286619299
40
0.672207286619299
40
0.679846005785428
40
0.679846005785428
40
0.687484724951558
40
0.687484724951558
40
0.702762163283816
40
0.702762163283816
40
0.710400882449945
40
0.710400882449945
40
0.718039601616075
40
0.718039601616075
40
0.733317039948333
40
0.733317039948333
40
0.740955759114462
40
0.740955759114462
40
0.748594478280591
40
0.748594478280591
40
0.75623319744672
40
0.75623319744672
40
0.763871916612849
40
0.763871916612849
40
0.771510635778978
40
0.771510635778978
40
0.779149354945106
40
0.779149354945106
40
0.794426793277364
40
0.794426793277364
40
0.802065512443493
40
0.802065512443493
40
0.809704231609622
40
0.809704231609622
40
0.817342950775751
40
0.817342950775751
40
0.82498166994188
40
0.82498166994188
40
0.855536546606398
40
0.855536546606398
40
0.863175265772527
40
0.863175265772527
40
0.870813984938657
40
0.870813984938657
40
0.886091423270917
40
0.886091423270917
40
0.893730142437048
40
0.893730142437048
40
0.901368861603178
40
0.901368861603178
40
0.909007580769309
40
0.909007580769309
40
0.916646299935439
40
0.916646299935439
40
0.9319237382677
40
0.9319237382677
40
0.94720117659996
40
0.94720117659996
40
0.95483989576609
40
0.95483989576609
40
0.96247861493222
40
0.96247861493222
40
0.977756053264479
40
0.977756053264479
40
0.993033491596739
40
0.993033491596739
40
1
40
1
40
1
40
1
41
1
10
18.347444724173
20
10.1999473677377
30
0
41
1
10
19.274544724862
20
10.2010043679195
30
0
41
1
10
20.2012554131133
20
10.1862175780358
30
0
41
1
10
21.5899952796448
20
10.1406265731058
30
0
41
1
10
22.052685071662
20
10.1215100265538
30
0
41
1
10
22.7463356314203
20
10.08688513164
30
0
41
1
10
22.9775110676385
20
10.0743583685002
30
0
41
1
10
23.4399387147119
20
10.0474139138538
30
0
41
1
10
23.6711714001911
20
10.0329890581329
30
0
41
1
10
24.3648947941281
20
9.98685928970292
30
0
41
1
10
24.8274066867831
20
9.95230048562138
30
0
41
1
10
25.7523625252437
20
9.87550739815998
30
0
41
1
10
26.2148299463744
20
9.8332911634983
30
0
41
1
10
26.9083443366548
20
9.76404136897054
30
0
41
1
10
27.1395038844406
20
9.73998252021943
30
0
41
1
10
27.6019567833765
20
9.69004701658002
30
0
41
1
10
27.8332667282596
20
9.66418724098014
30
0
41
1
10
28.5273621073343
20
9.58387708507112
30
0
41
1
10
28.990293796648
20
9.52667868171591
30
0
41
1
10
29.916480212372
20
9.40488589223654
30
0
41
1
10
30.3797323082203
20
9.34028918747651
30
0
41
1
10
31.0747778729184
20
9.23769321184278
30
0
41
1
10
31.3064706647517
20
9.2025207959864
30
0
41
1
10
31.7700490996839
20
9.13043330976848
30
0
41
1
10
32.0018568378396
20
9.09355830357887
30
0
41
1
10
32.6971089597433
20
8.98045776789266
30
0
41
1
10
33.160464341163
20
8.90174350161521
30
0
41
1
10
34.0867346176098
20
8.73752512080486
30
0
41
1
10
34.5496745250308
20
8.65205798820426
30
0
41
1
10
35.2436469171702
20
8.51857472001723
30
0
41
1
10
35.4748784161417
20
8.47316657862771
30
0
41
1
10
35.9373051585615
20
8.38075251989733
30
0
41
1
10
36.1685110210096
20
8.33376425268509
30
0
41
1
10
36.8622450551951
20
8.19070376681296
30
0
41
1
10
37.324775329222
20
8.09235258237766
30
0
41
1
10
38.2497630260302
20
7.88946481667804
30
0
41
1
10
38.71223215982
20
7.78494808652053
30
0
41
1
10
39.4058213388606
20
7.62339231208782
30
0
41
1
10
39.6369930909071
20
7.56873214242086
30
0
41
1
10
40.0993145158844
20
7.45783649881074
30
0
41
1
10
40.3304935149037
20
7.40165687455169
30
0
41
1
10
41.0242655644836
20
7.23128746214186
30
0
41
1
10
41.4870218163985
20
7.1151328999741
30
0
41
1
10
42.4128551424725
20
6.87737920947268
30
0
41
1
10
42.8759316174409
20
6.75577725024078
30
0
41
1
10
43.5707342843332
20
6.56914230912301
30
0
41
1
10
43.8023480640781
20
6.50618385563888
30
0
41
1
10
44.2656255208305
20
6.3788117690379
30
0
41
1
10
44.497304676326
20
6.31443184037266
30
0
41
1
10
44.9608997060171
20
6.18464235589866
30
0
41
1
10
45.1927686294655
20
6.11927295086232
30
0
41
1
10
45.65633355138
20
5.98748598073513
30
0
41
1
10
45.8880677276734
20
5.92106310558322
30
0
41
1
10
46.5831112975477
20
5.72017752656328
30
0
41
1
10
47.0462642142715
20
5.58410526938226
30
0
41
1
10
47.7406036228515
20
5.3765883345759
30
0
41
1
10
47.9719849667304
20
5.30684724830363
30
0
41
1
10
48.4346052155788
20
5.16619335550948
30
0
41
1
10
48.6658290286071
20
5.09524231110768
30
0
41
1
10
49.3595510854372
20
4.88128428736007
30
0
41
1
10
49.8220967385
20
4.73717066093297
30
0
41
1
10
50.7471522409091
20
4.44561767578114
30
0
41
1
10
51.2096553282641
20
4.29816020985743
30
0
41
1
10
51.9033156198912
20
4.07429958316408
30
0
41
1
10
52.1345255483659
20
3.99924807257958
30
0
41
1
10
52.5968590285162
20
3.84810373353227
30
0
41
1
10
52.8279820701403
20
3.77200850645073
30
0
41
1
10
53.2902974681742
20
3.61918379580317
30
0
41
1
10
53.5215036645769
20
3.54249166139005
30
0
41
1
10
53.9840666902786
20
3.38869809429258
30
0
41
1
10
54.2154010762215
20
3.31153664278281
30
0
41
1
10
54.9095178392258
20
3.07914008815135
30
0
41
1
10
55.3724270656962
20
2.92302983849402
30
0
41
1
10
56.0669694303364
20
2.68689875195648
30
0
41
1
10
56.2985128893743
20
2.607859273581
30
0
41
1
10
56.7616467744259
20
2.44908420189984
30
0
41
1
10
56.9932278859003
20
2.36932212296588
30
0
41
1
10
57.4564762291454
20
2.20920557551415
30
0
41
1
10
57.6881790327572
20
2.12895193052162
30
0
41
1
10
58.1518140422564
20
1.96826384935434
30
0
41
1
10
58.3836975802208
20
1.88780462969024
30
0
41
1
10
59.0787994921248
20
1.64624552334811
30
0
41
1
10
59.5417297352321
20
1.48485592998776
30
0
41
1
10
60.2353490701613
20
1.24201429318131
30
0
41
1
10
60.4664300409706
20
1.16095329379442
30
0
41
1
10
60.9283187814391
20
0.998534396084722
30
0
41
1
10
61.1591072093843
20
0.917116173076124
30
0
41
1
10
61.6204288988876
20
0.75404224847972
30
0
41
1
10
61.850973272732
20
0.672421437163678
30
0
41
1
10
62.3119759114451
20
0.50946357759517
30
0
41
1
10
62.542432784303
20
0.428121469789744
30
0
41
1
10
63.6943189441217
20
0.0215402101950701
30
0
41
1
10
64.6146457675612
20
-0.303042938512192
30
0
41
1
10
65.7631325574047
20
-0.709258625589285
30
0
41
1
10
65.9927240778532
20
-0.790553468667923
30
0
41
1
10
66.4518972483044
20
-0.952645955451317
30
0
41
1
10
66.6814701811999
20
-1.03347021815668
30
0
41
1
10
67.370118948225
20
-1.27536970953355
30
0
41
1
10
67.8291228291181
20
-1.43587836757095
30
0
41
1
10
68.7468042316752
20
-1.75578961571358
30
0
41
1
10
69.2055132629487
20
-1.91510095769243
30
0
41
1
10
69.8932027681894
20
-2.15360016674211
30
0
41
1
10
70.1223648608654
20
-2.23303654295989
30
0
41
1
10
70.5807024179006
20
-2.3913541540721
30
0
41
1
10
70.8098916640568
20
-2.47019631352666
30
0
41
1
10
71.9560538745481
20
-2.86251152937604
30
0
41
1
10
72.8732777244205
20
-3.17144612989531
30
0
41
1
10
74.0196875046168
20
-3.55281560006043
30
0
41
1
10
74.2489558174472
20
-3.62886939293327
30
0
41
1
10
74.7075118796717
20
-3.78040437741004
30
0
41
1
10
74.9368320683014
20
-3.85579633367416
30
0
41
1
10
75.6250460108927
20
-4.08050246858537
30
0
41
1
10
76.0841354819489
20
-4.22850668824174
30
0
41
1
10
77.0027214835101
20
-4.52134066925672
30
0
41
1
10
77.462219358805
20
-4.66616632742344
30
0
41
1
10
78.1517211306828
20
-4.88114495811558
30
0
41
1
10
78.3815781947775
20
-4.95247883351675
30
0
41
1
10
78.841373614034
20
-5.09439740904156
30
0
41
1
10
79.0713257496585
20
-5.16494546057868
30
0
41
1
10
79.5314861897862
20
-5.30483356912342
30
0
41
1
10
79.7617015458282
20
-5.37415594649892
30
0
41
1
10
80.2223283601427
20
-5.51175323820797
30
0
41
1
10
80.4527427860168
20
-5.58002024500595
30
0
41
1
10
81.1442755199713
20
-5.78326122099827
30
0
41
1
10
81.6056850886863
20
-5.9166715088021
30
0
41
1
10
82.2983163401346
20
-6.11381125172173
30
0
41
1
10
82.5292795783683
20
-6.17902829302341
30
0
41
1
10
82.9913694145268
20
-6.30848733698951
30
0
41
1
10
83.2224827216456
20
-6.37276193520987
30
0
41
1
10
83.916311240095
20
-6.56351016149804
30
0
41
1
10
84.3795084829879
20
-6.68792893955955
30
0
41
1
10
85.075157467659
20
-6.87072578907103
30
0
41
1
10
85.3070439416006
20
-6.93098285499988
30
0
41
1
10
85.7705919144031
20
-7.05012485494265
30
0
41
1
10
86.0022885630715
20
-7.10901694483147
30
0
41
1
10
86.4655210955055
20
-7.22545492991088
30
0
41
1
10
86.6970613994716
20
-7.28299222648067
30
0
41
1
10
87.1599238567127
20
-7.39683021192366
30
0
41
1
10
87.3912467881399
20
-7.45312714206725
30
0
41
1
10
87.8538306497134
20
-7.56416557197423
30
0
41
1
10
88.0851058042133
20
-7.61888023602214
30
0
41
1
10
88.5476720468737
20
-7.72662138296036
30
0
41
1
10
88.7789412382876
20
-7.77969026005323
30
0
41
1
10
89.4726649531413
20
-7.93658200069768
30
0
41
1
10
89.9350483216124
20
-8.03806865353144
30
0
41
1
10
90.6284053340571
20
-8.1857603508841
30
0
41
1
10
90.8594875392715
20
-8.23423464905682
30
0
41
1
10
91.3215659247828
20
-8.32968429583175
30
0
41
1
10
91.5525524774816
20
-8.37667504142567
30
0
41
1
10
92.0144796105457
20
-8.46908136279077
30
0
41
1
10
92.2454562266856
20
-8.51443869878591
30
0
41
1
10
92.7075068608911
20
-8.60335995295733
30
0
41
1
10
92.9385679592664
20
-8.64694484705399
30
0
41
1
10
94.0940006011866
20
-8.8605902794317
30
0
41
1
10
95.0187282716566
20
-9.01791101724632
30
0
41
1
10
96.1745656199964
20
-9.19808912545136
30
0
41
1
10
96.4057584140757
20
-9.23325894904249
30
0
41
1
10
96.8683511633583
20
-9.30167904520033
30
0
41
1
10
97.0997490248063
20
-9.33493413556846
30
0
41
1
10
97.7941314326463
20
-9.43198473816528
30
0
41
1
10
98.2573259841714
20
-9.49304129887062
30
0
41
1
10
98.9524663261434
20
-9.57921588785482
30
0
41
1
10
99.1842373021212
20
-9.60703896740847
30
0
41
1
10
99.6478825097384
20
-9.66088387510788
30
0
41
1
10
99.8797435082298
20
-9.68690366566256
30
0
41
1
10
100.343146173116
20
-9.73709458577557
30
0
41
1
10
100.574732516396
20
-9.76127452025099
30
0
41
1
10
101.037883853778
20
-9.80762945800629
30
0
41
1
10
101.269436238554
20
-9.82981762542039
30
0
41
1
10
101.963993426345
20
-9.89346340515371
30
0
41
1
10
102.426895854375
20
-9.9320081309493
30
0
41
1
10
103.352291273221
20
-10.0014633555851
30
0
41
1
10
103.814818087813
20
-10.0323558081577
30
0
41
1
10
104.508156735863
20
-10.072997913877
30
0
41
1
10
104.739197293194
20
-10.0855907439583
30
0
41
1
10
105.201289871452
20
-10.1087959060953
30
0
41
1
10
105.43235909823
20
-10.1194029222982
30
0
41
1
10
106.125653922883
20
-10.1482579269328
30
0
41
1
10
106.587887332854
20
-10.1635710624245
30
0
41
1
10
107.512329595028
20
-10.1864062847194
30
0
41
1
10
107.974540016434
20
-10.1939281398213
30
0
41
1
10
108.647429228963
20
-10.199170732311
30
0
41
1
10
108.858145842216
20
-10.1999962497698
30
0
41
1
10
109.06887392701
20
-10.19999997054
30
0
0
SPLINE
5
CC
100
AcDbEntity
8
1
62
256
6
ByLayer
370
18
48
1
60
0
100
AcDbSpline
70
4
71
3
72
40
73
36
40
0
40
0
40
0
40
0
40
0.0027126004746012
40
0.0027126004746012
40
0.0426040964556182
40
0.0426040964556182
40
0.202170080379673
40
0.202170080379673
40
0.281953072341701
40
0.281953072341701
40
0.321844568322714
40
0.321844568322714
40
0.361736064303726
40
0.361736064303726
40
0.441519056265756
40
0.441519056265756
40
0.48141055224677
40
0.48141055224677
40
0.521302048227785
40
0.521302048227785
40
0.601085040189814
40
0.601085040189814
40
0.680868032151843
40
0.680868032151843
40
0.72075952813286
40
0.72075952813286
40
0.760651024113877
40
0.760651024113877
40
0.840434016075915
40
0.840434016075915
40
0.920217008037953
40
0.920217008037953
40
0.960108504018976
40
0.960108504018976
40
1
40
1
40
1
40
1
41
1
10
178.289618574803
20
7.51741876827182
30
0
41
1
10
178.305344776726
20
7.52118817956293
30
0
41
1
10
178.321071027851
20
7.52495413451393
30
0
41
1
10
178.568068617708
20
7.58404722377213
30
0
41
1
10
178.799384230735
20
7.63856659017381
30
0
41
1
10
179.956166529808
20
7.90716778817566
30
0
41
1
10
180.88218568063
20
8.10943415782276
30
0
41
1
10
182.271333554149
20
8.39519051112637
30
0
41
1
10
182.734299752266
20
8.48764077838302
30
0
41
1
10
183.429466506877
20
8.62074750271012
30
0
41
1
10
183.661281767571
20
8.66423482975321
30
0
41
1
10
184.125046869625
20
8.74953046081254
30
0
41
1
10
184.356914531711
20
8.79131476696989
30
0
41
1
10
185.052297584986
20
8.91407512019657
30
0
41
1
10
185.51566236899
20
8.99247400518411
30
0
41
1
10
186.210295327629
20
9.10499881567577
30
0
41
1
10
186.441767279021
20
9.14166479493477
30
0
41
1
10
186.904576680581
20
9.21328808415436
30
0
41
1
10
187.135937511858
20
9.24821466505836
30
0
41
1
10
187.830110752029
20
9.35008428145858
30
0
41
1
10
188.292936039934
20
9.41422103669774
30
0
41
1
10
189.218511407205
20
9.53519042401015
30
0
41
1
10
189.681258232187
20
9.59202435791516
30
0
41
1
10
190.375268654322
20
9.67182453180789
30
0
41
1
10
190.6065729287
20
9.69752859344223
30
0
41
1
10
191.069114759154
20
9.74713032857764
30
0
41
1
10
191.30036916763
20
9.77101174767449
30
0
41
1
10
191.994320097234
20
9.83970478528755
30
0
41
1
10
192.457238632492
20
9.88155336491639
30
0
41
1
10
193.383316534848
20
9.95766562519498
30
0
41
1
10
193.846508180213
20
9.99190288141889
30
0
41
1
10
194.541450891402
20
10.0375436427566
30
0
41
1
10
194.773124213629
20
10.0518039508747
30
0
41
1
10
195.236511118402
20
10.0784097375242
30
0
41
1
10
195.468207617465
20
10.0907610258748
30
0
41
1
10
195.7
20
10.1021168617533
30
0
0
SPLINE
5
CD
100
AcDbEntity
8
1
62
256
6
ByLayer
370
18
48
1
60
0
100
AcDbSpline
70
4
71
3
72
86
73
82
40
0
40
0
40
0
40
0
40
0.0182962527020757
40
0.0182962527020757
40
0.0365925054041515
40
0.0365925054041515
40
0.0731850108083029
40
0.0731850108083029
40
0.109777516212454
40
0.109777516212454
40
0.128073768914531
40
0.128073768914531
40
0.146370021616608
40
0.146370021616608
40
0.182962527020761
40
0.182962527020761
40
0.201258779722838
40
0.201258779722838
40
0.219555032424915
40
0.219555032424915
40
0.256147537829068
40
0.256147537829068
40
0.292740043233221
40
0.292740043233221
40
0.329332548637374
40
0.329332548637374
40
0.347628801339452
40
0.347628801339452
40
0.36592505404153
40
0.36592505404153
40
0.402517559445687
40
0.402517559445687
40
0.420813812147766
40
0.420813812147766
40
0.439110064849846
40
0.439110064849846
40
0.475702570254007
40
0.475702570254007
40
0.493998822956088
40
0.493998822956088
40
0.51229507565817
40
0.51229507565817
40
0.54888758106233
40
0.54888758106233
40
0.567183833764411
40
0.567183833764411
40
0.585480086466492
40
0.585480086466492
40
0.622072591870654
40
0.622072591870654
40
0.658665097274817
40
0.658665097274817
40
0.676961349976899
40
0.676961349976899
40
0.69525760267898
40
0.69525760267898
40
0.713553855381062
40
0.713553855381062
40
0.731850108083143
40
0.731850108083143
40
0.768442613487308
40
0.768442613487308
40
0.786738866189389
40
0.786738866189389
40
0.805035118891471
40
0.805035118891471
40
0.841627624295634
40
0.841627624295634
40
0.878220129699797
40
0.878220129699797
40
0.896516382401877
40
0.896516382401877
40
0.914812635103957
40
0.914812635103957
40
0.933108887806038
40
0.933108887806038
40
0.951405140508118
40
0.951405140508118
40
0.987997645912281
40
0.987997645912281
40
1
40
1
40
1
40
1
41
1
10
195.7
20
2.29011572904767
30
0
41
1
10
195.462096293527
20
2.37214730701618
30
0
41
1
10
195.224253744012
20
2.45388231984506
30
0
41
1
10
194.748714229948
20
2.61682757211378
30
0
41
1
10
194.511029846905
20
2.69807284060056
30
0
41
1
10
193.798133107251
20
2.94084701109381
30
0
41
1
10
193.322972065411
20
3.10112487508772
30
0
41
1
10
192.373002252551
20
3.41897099725196
30
0
41
1
10
191.898194479065
20
3.57654099209995
30
0
41
1
10
191.186292130315
20
3.81097322627986
30
0
41
1
10
190.949054589289
20
3.88882714868788
30
0
41
1
10
190.474613303017
20
4.04370638780162
30
0
41
1
10
190.237384563584
20
4.12066632346239
30
0
41
1
10
189.525658273305
20
4.35007328482013
30
0
41
1
10
189.051128153429
20
4.50106861373195
30
0
41
1
10
188.339306287001
20
4.72476800970244
30
0
41
1
10
188.102029460421
20
4.79887266121705
30
0
41
1
10
187.627495939114
20
4.94622099171659
30
0
41
1
10
187.390251075923
20
5.01949374055741
30
0
41
1
10
186.67844277929
20
5.23775502366141
30
0
41
1
10
186.203776110601
20
5.3811168971807
30
0
41
1
10
185.254254206013
20
5.66370528506147
30
0
41
1
10
184.779226121072
20
5.80251449908334
30
0
41
1
10
183.828720249436
20
6.07538059311693
30
0
41
1
10
183.353257447925
20
6.2094724542074
30
0
41
1
10
182.639787969253
20
6.4071674960669
30
0
41
1
10
182.401857423756
20
6.47252918646981
30
0
41
1
10
181.926349694498
20
6.60187329359243
30
0
41
1
10
181.68872142621
20
6.66579892486786
30
0
41
1
10
180.976157307147
20
6.85522435514542
30
0
41
1
10
180.501563528084
20
6.97842960009001
30
0
41
1
10
179.790373262071
20
7.15875225503663
30
0
41
1
10
179.553427332661
20
7.21811351271597
30
0
41
1
10
179.079793785012
20
7.33539690728284
30
0
41
1
10
178.84311614887
20
7.39333990452701
30
0
41
1
10
178.133413048013
20
7.56487991533811
30
0
41
1
10
177.660639874233
20
7.67603090325093
30
0
41
1
10
176.952096086747
20
7.83811692918252
30
0
41
1
10
176.715993365475
20
7.89132286102247
30
0
41
1
10
176.243885234686
20
7.99598605154827
30
0
41
1
10
176.007889936817
20
8.04746352377856
30
0
41
1
10
175.300116530176
20
8.19941363536776
30
0
41
1
10
174.828551761407
20
8.29740731119563
30
0
41
1
10
174.121670767524
20
8.43950306308383
30
0
41
1
10
173.886125660694
20
8.4860586753241
30
0
41
1
10
173.415178676271
20
8.5775095391117
30
0
41
1
10
173.179756165321
20
8.62237044913678
30
0
41
1
10
172.473508475455
20
8.75416096009963
30
0
41
1
10
172.002749309707
20
8.83837705644945
30
0
41
1
10
171.06142020751
20
8.99964200163706
30
0
41
1
10
170.590860799617
20
9.07670720612381
30
0
41
1
10
169.885260184609
20
9.18703672306017
30
0
41
1
10
169.65007216067
20
9.22289801562223
30
0
41
1
10
169.179682477384
20
9.29274453028009
30
0
41
1
10
168.944488173806
20
9.32673953425333
30
0
41
1
10
168.474129155077
20
9.39290428057387
30
0
41
1
10
168.23895723015
20
9.42506407304745
30
0
41
1
10
167.76851557074
20
9.48741539162413
30
0
41
1
10
167.53325774621
20
9.51762152282623
30
0
41
1
10
166.827410378988
20
9.60537923980206
30
0
41
1
10
166.356754793412
20
9.66008017226611
30
0
41
1
10
165.650679583512
20
9.73644332840388
30
0
41
1
10
165.41530589744
20
9.76094900821377
30
0
41
1
10
164.944533132184
20
9.80805618385602
30
0
41
1
10
164.709130074238
20
9.8306527124106
30
0
41
1
10
164.002658918586
20
9.89540177541721
30
0
41
1
10
163.53137823189
20
9.93456073735234
30
0
41
1
10
162.588260758226
20
10.0049243459166
30
0
41
1
10
162.116418138483
20
10.0361283431789
30
0
41
1
10
161.408354476563
20
10.0769898355184
30
0
41
1
10
161.172271455609
20
10.0896112761799
30
0
41
1
10
160.699896149792
20
10.1128125886474
30
0
41
1
10
160.463614044893
20
10.1233980926384
30
0
41
1
10
159.990886220012
20
10.1425429343418
30
0
41
1
10
159.754451000397
20
10.1511041726737
30
0
41
1
10
159.281315122669
20
10.1661621408923
30
0
41
1
10
159.044616129462
20
10.1726611177438
30
0
41
1
10
158.33416138401
20
10.1890814683014
30
0
41
1
10
157.860058556977
20
10.1959309257879
30
0
41
1
10
157.229872474521
20
10.1995481850261
30
0
41
1
10
157.074176866001
20
10.199997377817
30
0
41
1
10
156.918434826163
20
10.2000000268602
30
0
0
SPLINE
5
CE
100
AcDbEntity
8
1
62
256
6
ByLayer
370
18
48
1
60
0
100
AcDbSpline
70
4
71
3
72
156
73
152
40
0
40
0
40
0
40
0
40
0.0004613276217423
40
0.0004613276217423
40
0.0100722763946109
40
0.0100722763946109
40
0.0196832251674798
40
0.0196832251674798
40
0.0389051227132163
40
0.0389051227132163
40
0.0485160714860852
40
0.0485160714860852
40
0.0581270202589538
40
0.0581270202589538
40
0.0677379690318227
40
0.0677379690318227
40
0.0773489178046913
40
0.0773489178046913
40
0.096570815350428
40
0.096570815350428
40
0.115792712896164
40
0.115792712896164
40
0.135014610441901
40
0.135014610441901
40
0.154236507987637
40
0.154236507987637
40
0.163847456760506
40
0.163847456760506
40
0.173458405533374
40
0.173458405533374
40
0.192680303079112
40
0.192680303079112
40
0.20229125185198
40
0.20229125185198
40
0.211902200624848
40
0.211902200624848
40
0.231124098170584
40
0.231124098170584
40
0.240735046943451
40
0.240735046943451
40
0.250345995716319
40
0.250345995716319
40
0.259956944489187
40
0.259956944489187
40
0.269567893262055
40
0.269567893262055
40
0.28878979080779
40
0.28878979080779
40
0.308011688353525
40
0.308011688353525
40
0.317622637126393
40
0.317622637126393
40
0.32723358589926
40
0.32723358589926
40
0.346455483444996
40
0.346455483444996
40
0.356066432217864
40
0.356066432217864
40
0.365677380990732
40
0.365677380990732
40
0.384899278536468
40
0.384899278536468
40
0.404121176082205
40
0.404121176082205
40
0.413732124855073
40
0.413732124855073
40
0.423343073627941
40
0.423343073627941
40
0.43295402240081
40
0.43295402240081
40
0.442564971173678
40
0.442564971173678
40
0.461786868719414
40
0.461786868719414
40
0.471397817492282
40
0.471397817492282
40
0.48100876626515
40
0.48100876626515
40
0.500230663810886
40
0.500230663810886
40
0.519452561356622
40
0.519452561356622
40
0.529063510129489
40
0.529063510129489
40
0.538674458902357
40
0.538674458902357
40
0.548285407675225
40
0.548285407675225
40
0.557896356448092
40
0.557896356448092
40
0.577118253993828
40
0.577118253993828
40
0.586729202766695
40
0.586729202766695
40
0.596340151539563
40
0.596340151539563
40
0.615562049085298
40
0.615562049085298
40
0.634783946631033
40
0.634783946631033
40
0.644394895403901
40
0.644394895403901
40
0.654005844176768
40
0.654005844176768
40
0.663616792949636
40
0.663616792949636
40
0.673227741722503
40
0.673227741722503
40
0.692449639268238
40
0.692449639268238
40
0.702060588041106
40
0.702060588041106
40
0.711671536813974
40
0.711671536813974
40
0.73089343435971
40
0.73089343435971
40
0.750115331905445
40
0.750115331905445
40
0.759726280678313
40
0.759726280678313
40
0.769337229451181
40
0.769337229451181
40
0.778948178224049
40
0.778948178224049
40
0.788559126996916
40
0.788559126996916
40
0.807781024542652
40
0.807781024542652
40
0.817391973315519
40
0.817391973315519
40
0.827002922088387
40
0.827002922088387
40
0.846224819634123
40
0.846224819634123
40
0.865446717179859
40
0.865446717179859
40
0.875057665952726
40
0.875057665952726
40
0.884668614725594
40
0.884668614725594
40
0.903890512271328
40
0.903890512271328
40
0.923112409817063
40
0.923112409817063
40
0.942334307362797
40
0.942334307362797
40
0.951945256135665
40
0.951945256135665
40
0.961556204908532
40
0.961556204908532
40
1
40
1
40
1
40
1
41
1
10
87.6780569436166
20
-7.52205067130129
30
0
41
1
10
87.6667753969643
20
-7.52474745814973
30
0
41
1
10
87.6554940267329
20
-7.5274426059664
30
0
41
1
10
87.4091890301882
20
-7.58625064178108
30
0
41
1
10
87.1742546710518
20
-7.6416777245409
30
0
41
1
10
86.7044352023316
20
-7.75089762150617
30
0
41
1
10
86.4695409867361
20
-7.80467398687432
30
0
41
1
10
85.7649100301276
20
-7.96352792569436
30
0
41
1
10
85.2952227612888
20
-8.066128727619
30
0
41
1
10
84.5908360239389
20
-8.21518375619291
30
0
41
1
10
84.3560665048335
20
-8.26406423828089
30
0
41
1
10
83.8866041173555
20
-8.36025429933633
30
0
41
1
10
83.651921243632
20
-8.40757968100999
30
0
41
1
10
83.1825454927638
20
-8.5005077959097
30
0
41
1
10
82.9478508445846
20
-8.54610890301257
30
0
41
1
10
82.4784700944043
20
-8.63562252967114
30
0
41
1
10
82.2437948900289
20
-8.67955166452282
30
0
41
1
10
81.5397381112394
20
-8.80873188182767
30
0
41
1
10
81.0702118462375
20
-8.89120784958325
30
0
41
1
10
80.1309680045725
20
-9.04908476219444
30
0
41
1
10
79.6612568132342
20
-9.1244934191698
30
0
41
1
10
78.7217078347881
20
-9.26827492493209
30
0
41
1
10
78.2519167683873
20
-9.3366926284655
30
0
41
1
10
77.3116109110438
20
-9.46572223624088
30
0
41
1
10
76.8411575712656
20
-9.52642097818332
30
0
41
1
10
76.1350631527612
20
-9.61179376396498
30
0
41
1
10
75.8996299025584
20
-9.63930573186551
30
0
41
1
10
75.4286497808374
20
-9.69245489923301
30
0
41
1
10
75.1931125434404
20
-9.71810062765496
30
0
41
1
10
74.4862755540632
20
-9.7921560979654
30
0
41
1
10
74.0146678934517
20
-9.83761532574539
30
0
41
1
10
73.3067550206273
20
-9.89997047650394
30
0
41
1
10
73.0706785103289
20
-9.91976450704132
30
0
41
1
10
72.5982513403492
20
-9.9573268500238
30
0
41
1
10
72.3619111155428
20
-9.97510353456724
30
0
41
1
10
71.6525461376371
20
-10.0254433386251
30
0
41
1
10
71.1791790755408
20
-10.0550192927151
30
0
41
1
10
70.4684736755941
20
-10.0933667550594
30
0
41
1
10
70.2314663066965
20
-10.1051472966899
30
0
41
1
10
69.7572204367301
20
-10.1266791474276
30
0
41
1
10
69.5199629230389
20
-10.1364216417957
30
0
41
1
10
69.0450949064614
20
-10.1538279379042
30
0
41
1
10
68.8074956051767
20
-10.1614967114265
30
0
41
1
10
68.3319708915881
20
-10.1747674763539
30
0
41
1
10
68.0939719398612
20
-10.1803705409316
30
0
41
1
10
67.3803102851674
20
-10.1940615153775
30
0
41
1
10
66.9048536673922
20
-10.1990438653958
30
0
41
1
10
65.9546693297604
20
-10.2007066978677
30
0
41
1
10
65.4797857560078
20
-10.197384464345
30
0
41
1
10
64.7678272459121
20
-10.1861812494391
30
0
41
1
10
64.530560923778
20
-10.1814090970135
30
0
41
1
10
64.0560305535942
20
-10.1698154391506
30
0
41
1
10
63.8187792380874
20
-10.1629929186598
30
0
41
1
10
63.1071053795579
20
-10.1394514515024
30
0
41
1
10
62.6327691429225
20
-10.1196589386625
30
0
41
1
10
61.9214789753011
20
-10.0837934764442
30
0
41
1
10
61.6844193746919
20
-10.0708074655162
30
0
41
1
10
61.21037254156
20
-10.0427647125113
30
0
41
1
10
60.9733729171552
20
-10.0277124271248
30
0
41
1
10
60.2622526454803
20
-9.97956935040196
30
0
41
1
10
59.788066581635
20
-9.94347057289997
30
0
41
1
10
58.8395293809444
20
-9.86328481174706
30
0
41
1
10
58.365179526583
20
-9.81919946554967
30
0
41
1
10
57.6536478931913
20
-9.74695491731862
30
0
41
1
10
57.4164467159624
20
-9.72187071075007
30
0
41
1
10
56.9419342689682
20
-9.66974993887254
30
0
41
1
10
56.7046325143005
20
-9.6427059324935
30
0
41
1
10
56.2299671429877
20
-9.5866187815642
30
0
41
1
10
55.9926050708118
20
-9.55757225205011
30
0
41
1
10
55.5176916616987
20
-9.49760549466822
30
0
41
1
10
55.2801509992253
20
-9.46667605491618
30
0
41
1
10
54.5673155687514
20
-9.37101512110843
30
0
41
1
10
54.0918168164395
20
-9.30340280964586
30
0
41
1
10
53.3782023938472
20
-9.19613167806216
30
0
41
1
10
53.1402701747454
20
-9.15939834679443
30
0
41
1
10
52.6647249634561
20
-9.08402886288792
30
0
41
1
10
52.4270565406846
20
-9.04538460619503
30
0
41
1
10
51.7141372950665
20
-8.92688471809186
30
0
41
1
10
51.239019943786
20
-8.84440492069871
30
0
41
1
10
50.2891493896557
20
-8.67249230601814
30
0
41
1
10
49.8143897682337
20
-8.58307150127064
30
0
41
1
10
49.1026507761559
20
-8.44352007937616
30
0
41
1
10
48.8654584656643
20
-8.39611783182457
30
0
41
1
10
48.3910921918217
20
-8.29968984992786
30
0
41
1
10
48.1539289784085
20
-8.25064746254353
30
0
41
1
10
47.6796702353919
20
-8.15085920476068
30
0
41
1
10
47.4425855836158
20
-8.10009335820189
30
0
41
1
10
46.9683723929961
20
-7.9970509321447
30
0
41
1
10
46.731246758496
20
-7.94477068115268
30
0
41
1
10
46.0198507175286
20
-7.78559554549429
30
0
41
1
10
45.5455723468102
20
-7.67634792780169
30
0
41
1
10
44.8341899321191
20
-7.50766363919959
30
0
41
1
10
44.5970675816924
20
-7.45063417932653
30
0
41
1
10
44.1228404716275
20
-7.33495016694297
30
0
41
1
10
43.8857454434624
20
-7.27627490092877
30
0
41
1
10
43.1742760417094
20
-7.09822645420687
30
0
41
1
10
42.6997369118791
20
-6.97679899279851
30
0
41
1
10
41.750250003662
20
-6.72843186741966
30
0
41
1
10
41.2752931125439
20
-6.60151423803271
30
0
41
1
10
40.5626711783759
20
-6.40671277115337
30
0
41
1
10
40.3251001962426
20
-6.34103746200799
30
0
41
1
10
39.8497838200288
20
-6.20845842987185
30
0
41
1
10
39.6120479077042
20
-6.14153417258177
30
0
41
1
10
39.1364459463315
20
-6.00635413560909
30
0
41
1
10
38.8985279356671
20
-5.93804547904787
30
0
41
1
10
38.4228809628549
20
-5.80039897143467
30
0
41
1
10
38.1851393642387
20
-5.73108742699529
30
0
41
1
10
37.4721908131854
20
-5.52161671897133
30
0
41
1
10
36.9972723669838
20
-5.37989103603215
30
0
41
1
10
36.2855256134653
20
-5.1640365186629
30
0
41
1
10
36.0483808294445
20
-5.0915430755993
30
0
41
1
10
35.5743069624213
20
-4.94545181034997
30
0
41
1
10
35.3373909223715
20
-4.87181956608686
30
0
41
1
10
34.6268034491734
20
-4.64969106512501
30
0
41
1
10
34.1532586266913
20
-4.50005480338839
30
0
41
1
10
33.2065630749315
20
-4.19761607379712
30
0
41
1
10
32.7334028121418
20
-4.04483973255347
30
0
41
1
10
32.0240669345582
20
-3.81300902101728
30
0
41
1
10
31.7876994381341
20
-3.73525903080517
30
0
41
1
10
31.3150051770685
20
-3.57912323008492
30
0
41
1
10
31.0786804457624
20
-3.50073231764011
30
0
41
1
10
30.6060991506414
20
-3.34324149469194
30
0
41
1
10
30.3698551906092
20
-3.26410683882554
30
0
41
1
10
29.8973920470267
20
-3.1052468816253
30
0
41
1
10
29.6611512182133
20
-3.02558138141248
30
0
41
1
10
28.9524054390743
20
-2.78587015357485
30
0
41
1
10
28.4799016033001
20
-2.62504311313748
30
0
41
1
10
27.7712124419676
20
-2.38205942363439
30
0
41
1
10
27.534992153976
20
-2.30077876752733
30
0
41
1
10
27.0625776111901
20
-2.13762292631839
30
0
41
1
10
26.8263943480801
20
-2.05571640978494
30
0
41
1
10
26.1177867023848
20
-1.8093759041449
30
0
41
1
10
25.6451915373299
20
-1.64464351886323
30
0
41
1
10
24.6996234530968
20
-1.31417582536307
30
0
41
1
10
24.2266473356582
20
-1.14845060898625
30
0
41
1
10
23.5170034630034
20
-0.898805743075485
30
0
41
1
10
23.280438753737
20
-0.815375530889639
30
0
41
1
10
22.8071920999309
20
-0.648326924983337
30
0
41
1
10
22.5704967601979
20
-0.564748147037193
30
0
41
1
10
21.8602184256123
20
-0.313778272826909
30
0
41
1
10
21.3865091832708
20
-0.14595547359454
30
0
41
1
10
20.4381823820407
20
0.18914295122238
30
0
41
1
10
19.9636258671373
20
0.356597042819374
30
0
41
1
10
19.0138424511098
20
0.691671953760874
30
0
41
1
10
18.5386254713047
20
0.85932404400819
30
0
41
1
10
17.8252543841126
20
1.11082079461471
30
0
41
1
10
17.5873399035371
20
1.1945504448818
30
0
41
1
10
17.1115757136606
20
1.36152836177016
30
0
41
1
10
16.8736879150491
20
1.44481547948476
30
0
41
1
10
15.6842325585649
20
1.86027965142375
30
0
41
1
10
14.73260290354
20
2.18951753206204
30
0
41
1
10
13.7811994964714
20
2.51640099020725
30
0
0
SPLINE
5
CF
100
AcDbEntity
8
1
62
256
6
ByLayer
370
18
48
1
60
0
100
AcDbSpline
70
4
71
3
72
14
73
10
40
0
40
0
40
0
40
0
40
0.372058364996123
40
0.372058364996123
40
0.744116729992246
40
0.744116729992246
40
0.930145912490308
40
0.930145912490308
40
1
40
1
40
1
40
1
41
1
10
195.7
20
-10.412298114703
30
0
41
1
10
196.157928146443
20
-10.4336933857045
30
0
41
1
10
196.615796719141
20
-10.4510602525552
30
0
41
1
10
197.531259217396
20
-10.4778955392896
30
0
41
1
10
197.988845010522
20
-10.4873638761042
30
0
41
1
10
198.674946105896
20
-10.4956543245847
30
0
41
1
10
198.903607261034
20
-10.4974315905044
30
0
41
1
10
199.218037828295
20
-10.498515486431
30
0
41
1
10
199.303862804228
20
-10.4986716443134
30
0
41
1
10
199.389679551326
20
-10.4986878035551
30
0
0
SPLINE
5
D0
100
AcDbEntity
8
1
62
256
6
ByLayer
370
18
48
1
60
0
100
AcDbSpline
70
4
71
3
72
8
73
4
40
0
40
0
40
0
40
0
40
1
40
1
40
1
40
1
41
1
10
18.347444724173
20
-10.1999473677377
30
0
41
1
10
18.3789661740014
20
-10.1999833058006
30
0
41
1
10
18.4104871737833
20
-10.2000009283844
30
0
41
1
10
18.4420077040709
20
-10.2000002447874
30
0
0
SPLINE
5
D1
100
AcDbEntity
8
1
62
256
6
ByLayer
370
18
48
1
60
0
100
AcDbSpline
70
4
71
3
72
216
73
212
40
0
40
0
40
0
40
0
40
0.0059004637572056
40
0.0059004637572056
40
0.0123140091523196
40
0.0123140091523196
40
0.0251410999425477
40
0.0251410999425477
40
0.0315546453376617
40
0.0315546453376617
40
0.0379681907327757
40
0.0379681907327757
40
0.0443817361278897
40
0.0443817361278897
40
0.0507952815230037
40
0.0507952815230037
40
0.0764494631034591
40
0.0764494631034591
40
0.0828630084985732
40
0.0828630084985732
40
0.0892765538936872
40
0.0892765538936872
40
0.102103644683916
40
0.102103644683916
40
0.108517190079031
40
0.108517190079031
40
0.114930735474145
40
0.114930735474145
40
0.12134428086926
40
0.12134428086926
40
0.127757826264375
40
0.127757826264375
40
0.140584917054604
40
0.140584917054604
40
0.153412007844832
40
0.153412007844832
40
0.159825553239947
40
0.159825553239947
40
0.166239098635061
40
0.166239098635061
40
0.17906618942529
40
0.17906618942529
40
0.191893280215519
40
0.191893280215519
40
0.198306825610633
40
0.198306825610633
40
0.204720371005747
40
0.204720371005747
40
0.230374552586204
40
0.230374552586204
40
0.243201643376432
40
0.243201643376432
40
0.249615188771547
40
0.249615188771547
40
0.256028734166661
40
0.256028734166661
40
0.26885582495689
40
0.26885582495689
40
0.275269370352005
40
0.275269370352005
40
0.28168291574712
40
0.28168291574712
40
0.294510006537349
40
0.294510006537349
40
0.307337097327578
40
0.307337097327578
40
0.313750642722693
40
0.313750642722693
40
0.320164188117808
40
0.320164188117808
40
0.332991278908038
40
0.332991278908038
40
0.345818369698268
40
0.345818369698268
40
0.352231915093382
40
0.352231915093382
40
0.358645460488497
40
0.358645460488497
40
0.371472551278727
40
0.371472551278727
40
0.384299642068957
40
0.384299642068957
40
0.390713187464072
40
0.390713187464072
40
0.397126732859186
40
0.397126732859186
40
0.403540278254301
40
0.403540278254301
40
0.409953823649415
40
0.409953823649415
40
0.435608005229873
40
0.435608005229873
40
0.442021550624988
40
0.442021550624988
40
0.448435096020103
40
0.448435096020103
40
0.461262186810332
40
0.461262186810332
40
0.474089277600561
40
0.474089277600561
40
0.480502822995675
40
0.480502822995675
40
0.486916368390789
40
0.486916368390789
40
0.499743459181018
40
0.499743459181018
40
0.506157004576133
40
0.506157004576133
40
0.512570549971247
40
0.512570549971247
40
0.518984095366362
40
0.518984095366362
40
0.525397640761476
40
0.525397640761476
40
0.538224731551705
40
0.538224731551705
40
0.551051822341935
40
0.551051822341935
40
0.563878913132164
40
0.563878913132164
40
0.576706003922393
40
0.576706003922393
40
0.589533094712622
40
0.589533094712622
40
0.595946640107737
40
0.595946640107737
40
0.602360185502852
40
0.602360185502852
40
0.615187276293082
40
0.615187276293082
40
0.628014367083313
40
0.628014367083313
40
0.634427912478428
40
0.634427912478428
40
0.640841457873543
40
0.640841457873543
40
0.653668548663773
40
0.653668548663773
40
0.666495639454003
40
0.666495639454003
40
0.672909184849117
40
0.672909184849117
40
0.679322730244232
40
0.679322730244232
40
0.692149821034462
40
0.692149821034462
40
0.704976911824692
40
0.704976911824692
40
0.711390457219807
40
0.711390457219807
40
0.717804002614922
40
0.717804002614922
40
0.724217548010037
40
0.724217548010037
40
0.730631093405153
40
0.730631093405153
40
0.743458184195383
40
0.743458184195383
40
0.756285274985613
40
0.756285274985613
40
0.762698820380729
40
0.762698820380729
40
0.769112365775844
40
0.769112365775844
40
0.781939456566075
40
0.781939456566075
40
0.78835300196119
40
0.78835300196119
40
0.794766547356305
40
0.794766547356305
40
0.80118009275142
40
0.80118009275142
40
0.807593638146536
40
0.807593638146536
40
0.820420728936766
40
0.820420728936766
40
0.833247819726997
40
0.833247819726997
40
0.839661365122112
40
0.839661365122112
40
0.846074910517227
40
0.846074910517227
40
0.871729092097688
40
0.871729092097688
40
0.884556182887918
40
0.884556182887918
40
0.890969728283033
40
0.890969728283033
40
0.897383273678149
40
0.897383273678149
40
0.91021036446838
40
0.91021036446838
40
0.916623909863496
40
0.916623909863496
40
0.923037455258612
40
0.923037455258612
40
0.935864546048843
40
0.935864546048843
40
0.948691636839075
40
0.948691636839075
40
0.95510518223419
40
0.95510518223419
40
0.961518727629306
40
0.961518727629306
40
0.974345818419537
40
0.974345818419537
40
0.987172909209768
40
0.987172909209768
40
0.993586454604884
40
0.993586454604884
40
1
40
1
40
1
40
1
41
1
10
87.678048257185
20
7.52195544933244
30
0
41
1
10
87.8908345816334
20
7.57291448206726
30
0
41
1
10
88.1036083820237
20
7.62318986515365
30
0
41
1
10
88.5476720468737
20
7.72662138296039
30
0
41
1
10
88.7789412382877
20
7.77969026005329
30
0
41
1
10
89.4726649531414
20
7.93658200069774
30
0
41
1
10
89.9350483216125
20
8.03806865353147
30
0
41
1
10
90.6284053340571
20
8.18576035088412
30
0
41
1
10
90.8594875392716
20
8.23423464905684
30
0
41
1
10
91.3215659247828
20
8.32968429583178
30
0
41
1
10
91.5525524774818
20
8.3766750414257
30
0
41
1
10
92.0144796105458
20
8.4690813627908
30
0
41
1
10
92.2454562266857
20
8.51443869878594
30
0
41
1
10
92.7075068608911
20
8.60335995295736
30
0
41
1
10
92.9385679592665
20
8.64694484705402
30
0
41
1
10
94.0940006011867
20
8.86059027943173
30
0
41
1
10
95.0187282716567
20
9.01791101724635
30
0
41
1
10
96.1745656199965
20
9.19808912545139
30
0
41
1
10
96.4057584140757
20
9.23325894904252
30
0
41
1
10
96.8683511633585
20
9.30167904520036
30
0
41
1
10
97.0997490248064
20
9.33493413556846
30
0
41
1
10
97.7941314326464
20
9.43198473816528
30
0
41
1
10
98.2573259841714
20
9.49304129887065
30
0
41
1
10
98.9524663261435
20
9.57921588785484
30
0
41
1
10
99.1842373021213
20
9.60703896740847
30
0
41
1
10
99.6478825097384
20
9.66088387510791
30
0
41
1
10
99.87974350823
20
9.68690366566258
30
0
41
1
10
100.343146173116
20
9.73709458577559
30
0
41
1
10
100.574732516396
20
9.76127452025102
30
0
41
1
10
101.037883853778
20
9.80762945800629
30
0
41
1
10
101.269436238554
20
9.82981762542042
30
0
41
1
10
101.963993426345
20
9.89346340515371
30
0
41
1
10
102.426895854375
20
9.93200813094933
30
0
41
1
10
103.352291273221
20
10.0014633555851
30
0
41
1
10
103.814818087813
20
10.0323558081577
30
0
41
1
10
104.508156735863
20
10.072997913877
30
0
41
1
10
104.739197293194
20
10.0855907439583
30
0
41
1
10
105.201289871452
20
10.1087959060953
30
0
41
1
10
105.43235909823
20
10.1194029222982
30
0
41
1
10
106.125653922883
20
10.1482579269328
30
0
41
1
10
106.587887332854
20
10.1635710624245
30
0
41
1
10
107.512329595028
20
10.1864062847194
30
0
41
1
10
107.974540016434
20
10.1939281398213
30
0
41
1
10
108.667763901414
20
10.1993291631479
30
0
41
1
10
108.89881046504
20
10.2001479599017
30
0
41
1
10
109.360939254315
20
10.1998082167803
30
0
41
1
10
109.592058451822
20
10.1986505677286
30
0
41
1
10
110.748010244902
20
10.1879596581984
30
0
41
1
10
111.673743244017
20
10.1637908250368
30
0
41
1
10
113.063083206704
20
10.1038400771147
30
0
41
1
10
113.526185293306
20
10.0798147552273
30
0
41
1
10
114.221637202464
20
10.038033049638
30
0
41
1
10
114.453508429818
20
10.0231543480495
30
0
41
1
10
114.917052279773
20
9.99148823719673
30
0
41
1
10
115.148766977376
20
9.97470115841148
30
0
41
1
10
115.84372581269
20
9.92147864532717
30
0
41
1
10
116.30678628866
20
9.8821863226629
30
0
41
1
10
117.000931639432
20
9.81746534988113
30
0
41
1
10
117.232238851601
20
9.79492684071218
30
0
41
1
10
117.694694278462
20
9.74790200732238
30
0
41
1
10
117.925850199678
20
9.72341992767844
30
0
41
1
10
118.619389626184
20
9.64732177154806
30
0
41
1
10
119.081771764849
20
9.59300181947131
30
0
41
1
10
120.006420029414
20
9.47710856044671
30
0
41
1
10
120.46868016229
20
9.41552701930928
30
0
41
1
10
121.161927297729
20
9.31763607727402
30
0
41
1
10
121.39298199177
20
9.28408136541714
30
0
41
1
10
121.854990877806
20
9.21505581004388
30
0
41
1
10
122.085960501209
20
9.17960145060871
30
0
41
1
10
122.778999927062
20
9.07070237408232
30
0
41
1
10
123.241281162248
20
8.99483848053418
30
0
41
1
10
124.166057173848
20
8.83626362265079
30
0
41
1
10
124.628573829125
20
8.75357899683019
30
0
41
1
10
125.322470011628
20
8.62432868829814
30
0
41
1
10
125.553788683204
20
8.58037352978468
30
0
41
1
10
126.016454396715
20
8.49068973624512
30
0
41
1
10
126.247785752265
20
8.44493475521318
30
0
41
1
10
126.941968041827
20
8.3052265513183
30
0
41
1
10
127.405147939583
20
8.20907169406618
30
0
41
1
10
128.332170165749
20
8.01058845910018
30
0
41
1
10
128.796156759763
20
7.90819648507738
30
0
41
1
10
129.491406685922
20
7.75005430516313
30
0
41
1
10
129.723077854125
20
7.6965848794851
30
0
41
1
10
130.186217316012
20
7.58804452232675
30
0
41
1
10
130.417666520361
20
7.53293546928055
30
0
41
1
10
130.880449204258
20
7.42127851164148
30
0
41
1
10
131.111791717476
20
7.36474846256382
30
0
41
1
10
131.574505770678
20
7.25054851668463
30
0
41
1
10
131.805856788731
20
7.19283847414263
30
0
41
1
10
132.962445931294
20
6.90097929960163
30
0
41
1
10
133.887273827178
20
6.65711771232051
30
0
41
1
10
135.042310738893
20
6.33826839166375
30
0
41
1
10
135.273290956219
20
6.27384441314288
30
0
41
1
10
135.735359711628
20
6.14405903989532
30
0
41
1
10
135.966428648245
20
6.07865445401907
30
0
41
1
10
136.65970766991
20
5.88084370141252
30
0
41
1
10
137.121985847773
20
5.74683321660908
30
0
41
1
10
138.046598850557
20
5.47424337796133
30
0
41
1
10
138.50895798197
20
5.33572362263322
30
0
41
1
10
139.202403734441
20
5.12414293169928
30
0
41
1
10
139.433555304125
20
5.053026088568
30
0
41
1
10
139.896020828108
20
4.91000292103965
30
0
41
1
10
140.127351551978
20
4.83814026767865
30
0
41
1
10
140.821557346558
20
4.62130855251729
30
0
41
1
10
141.284623595628
20
4.47503896789513
30
0
41
1
10
141.979557400025
20
4.25290589007665
30
0
41
1
10
142.211257279324
20
4.17840507910114
30
0
41
1
10
142.674755386078
20
4.02845225162693
30
0
41
1
10
142.906597132665
20
3.9529859337776
30
0
41
1
10
143.370174960541
20
3.80112670780937
30
0
41
1
10
143.601771362745
20
3.72472697286369
30
0
41
1
10
144.064726943155
20
3.57144786254892
30
0
41
1
10
144.296103696731
20
3.49462290358042
30
0
41
1
10
144.989911138495
20
3.26352621686092
30
0
41
1
10
145.452016513439
20
3.10862437453966
30
0
41
1
10
146.375235950573
20
2.7967468960374
30
0
41
1
10
146.83637140126
20
2.63983711433192
30
0
41
1
10
147.7575272698
20
2.3235660252154
30
0
41
1
10
148.217478434408
20
2.16399621190609
30
0
41
1
10
149.137144026071
20
1.84508621267827
30
0
41
1
10
149.596726820481
20
1.68534168734419
30
0
41
1
10
150.515244870239
20
1.36481631487325
30
0
41
1
10
150.974192843682
20
1.20407414899935
30
0
41
1
10
151.662075708556
20
0.9620244649754
30
0
41
1
10
151.891276918966
20
0.881175578556054
30
0
41
1
10
152.349503311482
20
0.719178120596695
30
0
41
1
10
152.578550156305
20
0.638094747718924
30
0
41
1
10
153.265700817775
20
0.395215526629357
30
0
41
1
10
153.723742309708
20
0.233572335824931
30
0
41
1
10
154.639559006187
20
-0.089613768413642
30
0
41
1
10
155.097330093387
20
-0.25116867090486
30
0
41
1
10
155.783737611888
20
-0.493570390645743
30
0
41
1
10
156.012488601961
20
-0.574412056311303
30
0
41
1
10
156.469868775726
20
-0.736231327615741
30
0
41
1
10
156.698513853738
20
-0.817161789778055
30
0
41
1
10
157.384535812464
20
-1.059362348679
30
0
41
1
10
157.842055795331
20
-1.21987747373643
30
0
41
1
10
158.757137479364
20
-1.5399012074302
30
0
41
1
10
159.214726037776
20
-1.699330623723
30
0
41
1
10
159.901111439657
20
-1.93780019652303
30
0
41
1
10
160.129906785385
20
-2.01717816244775
30
0
41
1
10
160.587486802674
20
-2.1757411805678
30
0
41
1
10
160.816256194518
20
-2.2549703980047
30
0
41
1
10
161.502696231422
20
-2.49193799240277
30
0
41
1
10
161.960624446521
20
-2.64859363672977
30
0
41
1
10
162.87696273102
20
-2.95961824299783
30
0
41
1
10
163.335360664289
20
-3.11402205463264
30
0
41
1
10
164.023235828318
20
-3.34414873675075
30
0
41
1
10
164.252579437217
20
-3.42059530334285
30
0
41
1
10
164.711332192391
20
-3.57307150418927
30
0
41
1
10
164.940722399863
20
-3.64915495643211
30
0
41
1
10
165.399639624574
20
-3.80069962004018
30
0
41
1
10
165.629174664244
20
-3.87613798242356
30
0
41
1
10
166.08852560431
20
-4.02598434633899
30
0
41
1
10
166.318324967212
20
-4.10043951047658
30
0
41
1
10
167.008008842654
20
-4.3226452605565
30
0
41
1
10
167.468200594028
20
-4.46917557246806
30
0
41
1
10
168.389314249319
20
-4.75922882012711
30
0
41
1
10
168.850232183233
20
-4.90276292603869
30
0
41
1
10
169.542101096524
20
-5.11595204485721
30
0
41
1
10
169.772816666001
20
-5.18663313115218
30
0
41
1
10
170.234599629812
20
-5.32676746100819
30
0
41
1
10
170.465649989372
20
-5.39626835663131
30
0
41
1
10
171.159248680593
20
-5.60315393843655
30
0
41
1
10
171.622241024635
20
-5.73893198453888
30
0
41
1
10
172.317536008559
20
-5.93960669704924
30
0
41
1
10
172.549478539173
20
-6.00600598286778
30
0
41
1
10
173.013088334578
20
-6.13765101757505
30
0
41
1
10
173.244810342824
20
-6.20292946124209
30
0
41
1
10
173.708050230675
20
-6.33247649119775
30
0
41
1
10
173.93958417213
20
-6.39670684263763
30
0
41
1
10
174.402637106933
20
-6.52372955572457
30
0
41
1
10
174.634174399759
20
-6.58648285162093
30
0
41
1
10
175.328769496846
20
-6.77259824540258
30
0
41
1
10
175.791767433092
20
-6.89391098878033
30
0
41
1
10
176.717550583518
20
-7.13120539815699
30
0
41
1
10
177.180333952922
20
-7.24719119103125
30
0
41
1
10
177.874270348512
20
-7.41729812262187
30
0
41
1
10
178.105526083875
20
-7.47338595273197
30
0
41
1
10
178.568068617708
20
-7.5840472237721
30
0
41
1
10
178.799384230735
20
-7.63856659017387
30
0
41
1
10
179.956166529808
20
-7.90716778817568
30
0
41
1
10
180.88218568063
20
-8.10943415782268
30
0
41
1
10
182.271333554149
20
-8.39519051112643
30
0
41
1
10
182.734299752266
20
-8.487640778383
30
0
41
1
10
183.429466506877
20
-8.62074750271017
30
0
41
1
10
183.66128176757
20
-8.66423482975324
30
0
41
1
10
184.125046869625
20
-8.74953046081254
30
0
41
1
10
184.356914531711
20
-8.79131476696992
30
0
41
1
10
185.052297584986
20
-8.91407512019663
30
0
41
1
10
185.51566236899
20
-8.99247400518414
30
0
41
1
10
186.210295327629
20
-9.1049988156758
30
0
41
1
10
186.441767279021
20
-9.1416647949348
30
0
41
1
10
186.904576680581
20
-9.21328808415436
30
0
41
1
10
187.135937511858
20
-9.24821466505838
30
0
41
1
10
187.830110752029
20
-9.35008428145858
30
0
41
1
10
188.292936039934
20
-9.41422103669777
30
0
41
1
10
189.218511407205
20
-9.53519042401015
30
0
41
1
10
189.681258232187
20
-9.59202435791519
30
0
41
1
10
190.375268654322
20
-9.67182453180791
30
0
41
1
10
190.6065729287
20
-9.69752859344226
30
0
41
1
10
191.069114759154
20
-9.74713032857767
30
0
41
1
10
191.30036916763
20
-9.77101174767449
30
0
41
1
10
191.994320097234
20
-9.83970478528752
30
0
41
1
10
192.457238632492
20
-9.88155336491641
30
0
41
1
10
193.383316534848
20
-9.95766562519498
30
0
41
1
10
193.846508180213
20
-9.99190288141889
30
0
41
1
10
194.541450891402
20
-10.0375436427566
30
0
41
1
10
194.773124213629
20
-10.0518039508747
30
0
41
1
10
195.236511118402
20
-10.0784097375242
30
0
41
1
10
195.468207617465
20
-10.0907610258748
30
0
41
1
10
195.7
20
-10.1021168617533
30
0
0
SPLINE
5
D2
100
AcDbEntity
8
1
62
256
6
ByLayer
370
18
48
1
60
0
100
AcDbSpline
70
4
71
3
72
242
73
238
40
0
40
0
40
0
40
0
40
0.009863587152019
40
0.009863587152019
40
0.0162026510097615
40
0.0162026510097615
40
0.0225417148675041
40
0.0225417148675041
40
0.0352198425829892
40
0.0352198425829892
40
0.0415589064407317
40
0.0415589064407317
40
0.0478979702984743
40
0.0478979702984743
40
0.0605760980139593
40
0.0605760980139593
40
0.0732542257294444
40
0.0732542257294444
40
0.0795932895871866
40
0.0795932895871866
40
0.0859323534449289
40
0.0859323534449289
40
0.0922714173026711
40
0.0922714173026711
40
0.0986104811604133
40
0.0986104811604133
40
0.111288608875897
40
0.111288608875897
40
0.117627672733639
40
0.117627672733639
40
0.12396673659138
40
0.12396673659138
40
0.136644864306863
40
0.136644864306863
40
0.149322992022345
40
0.149322992022345
40
0.155662055880086
40
0.155662055880086
40
0.162001119737827
40
0.162001119737827
40
0.168340183595568
40
0.168340183595568
40
0.174679247453309
40
0.174679247453309
40
0.187357375168791
40
0.187357375168791
40
0.193696439026532
40
0.193696439026532
40
0.200035502884273
40
0.200035502884273
40
0.206374566742014
40
0.206374566742014
40
0.212713630599755
40
0.212713630599755
40
0.225391758315237
40
0.225391758315237
40
0.231730822172978
40
0.231730822172978
40
0.238069886030719
40
0.238069886030719
40
0.244408949888461
40
0.244408949888461
40
0.250748013746202
40
0.250748013746202
40
0.263426141461685
40
0.263426141461685
40
0.269765205319427
40
0.269765205319427
40
0.276104269177169
40
0.276104269177169
40
0.288782396892652
40
0.288782396892652
40
0.301460524608135
40
0.301460524608135
40
0.307799588465876
40
0.307799588465876
40
0.314138652323618
40
0.314138652323618
40
0.32047771618136
40
0.32047771618136
40
0.326816780039101
40
0.326816780039101
40
0.333155843896842
40
0.333155843896842
40
0.339494907754584
40
0.339494907754584
40
0.345833971612325
40
0.345833971612325
40
0.352173035470067
40
0.352173035470067
40
0.36485116318555
40
0.36485116318555
40
0.377529290901033
40
0.377529290901033
40
0.383868354758775
40
0.383868354758775
40
0.390207418616517
40
0.390207418616517
40
0.402885546332001
40
0.402885546332001
40
0.415563674047484
40
0.415563674047484
40
0.421902737905226
40
0.421902737905226
40
0.428241801762967
40
0.428241801762967
40
0.44091992947845
40
0.44091992947845
40
0.453598057193932
40
0.453598057193932
40
0.459937121051673
40
0.459937121051673
40
0.466276184909414
40
0.466276184909414
40
0.472615248767155
40
0.472615248767155
40
0.478954312624896
40
0.478954312624896
40
0.491632440340378
40
0.491632440340378
40
0.504310568055859
40
0.504310568055859
40
0.5106496319136
40
0.5106496319136
40
0.516988695771341
40
0.516988695771341
40
0.529666823486821
40
0.529666823486821
40
0.542344951202301
40
0.542344951202301
40
0.548684015060042
40
0.548684015060042
40
0.555023078917783
40
0.555023078917783
40
0.567701206633263
40
0.567701206633263
40
0.580379334348744
40
0.580379334348744
40
0.586718398206484
40
0.586718398206484
40
0.593057462064224
40
0.593057462064224
40
0.605735589779703
40
0.605735589779703
40
0.618413717495183
40
0.618413717495183
40
0.624752781352923
40
0.624752781352923
40
0.631091845210663
40
0.631091845210663
40
0.643769972926142
40
0.643769972926142
40
0.656448100641621
40
0.656448100641621
40
0.662787164499361
40
0.662787164499361
40
0.6691262283571
40
0.6691262283571
40
0.681804356072579
40
0.681804356072579
40
0.688143419930319
40
0.688143419930319
40
0.694482483788058
40
0.694482483788058
40
0.700821547645798
40
0.700821547645798
40
0.707160611503537
40
0.707160611503537
40
0.719838739219016
40
0.719838739219016
40
0.726177803076755
40
0.726177803076755
40
0.732516866934494
40
0.732516866934494
40
0.738855930792234
40
0.738855930792234
40
0.745194994649973
40
0.745194994649973
40
0.75787312236545
40
0.75787312236545
40
0.764212186223189
40
0.764212186223189
40
0.770551250080928
40
0.770551250080928
40
0.776890313938667
40
0.776890313938667
40
0.783229377796406
40
0.783229377796406
40
0.795907505511884
40
0.795907505511884
40
0.808585633227362
40
0.808585633227362
40
0.814924697085101
40
0.814924697085101
40
0.82126376094284
40
0.82126376094284
40
0.833941888658318
40
0.833941888658318
40
0.840280952516058
40
0.840280952516058
40
0.846620016373797
40
0.846620016373797
40
0.852959080231537
40
0.852959080231537
40
0.859298144089277
40
0.859298144089277
40
0.871976271804756
40
0.871976271804756
40
0.884654399520235
40
0.884654399520235
40
0.897332527235714
40
0.897332527235714
40
0.910010654951193
40
0.910010654951193
40
0.916349718808933
40
0.916349718808933
40
0.922688782666673
40
0.922688782666673
40
0.935366910382153
40
0.935366910382153
40
0.941705974239893
40
0.941705974239893
40
0.948045038097633
40
0.948045038097633
40
0.960723165813115
40
0.960723165813115
40
0.967062229670856
40
0.967062229670856
40
0.973401293528597
40
0.973401293528597
40
0.979740357386338
40
0.979740357386338
40
0.986079421244079
40
0.986079421244079
40
0.99875754895956
40
0.99875754895956
40
1
40
1
40
1
40
1
41
1
10
178.291494781647
20
-7.52621037413923
30
0
41
1
10
177.92352227983
20
-7.61407842111768
30
0
41
1
10
177.55577553487
20
-7.70001960279149
30
0
41
1
10
176.952096086747
20
-7.83811692918243
30
0
41
1
10
176.715993365475
20
-7.89132286102245
30
0
41
1
10
176.243885234686
20
-7.99598605154821
30
0
41
1
10
176.007889936817
20
-8.04746352377848
30
0
41
1
10
175.300116530176
20
-8.19941363536771
30
0
41
1
10
174.828551761407
20
-8.29740731119557
30
0
41
1
10
174.121670767524
20
-8.43950306308378
30
0
41
1
10
173.886125660695
20
-8.48605867532407
30
0
41
1
10
173.415178676271
20
-8.57750953911165
30
0
41
1
10
173.179756165321
20
-8.62237044913675
30
0
41
1
10
172.473508475455
20
-8.75416096009957
30
0
41
1
10
172.002749309707
20
-8.83837705644936
30
0
41
1
10
171.06142020751
20
-8.99964200163697
30
0
41
1
10
170.590860799618
20
-9.07670720612384
30
0
41
1
10
169.885260184609
20
-9.18703672306012
30
0
41
1
10
169.65007216067
20
-9.22289801562221
30
0
41
1
10
169.179682477385
20
-9.29274453028006
30
0
41
1
10
168.944488173806
20
-9.32673953425331
30
0
41
1
10
168.474129155078
20
-9.39290428057384
30
0
41
1
10
168.23895723015
20
-9.42506407304742
30
0
41
1
10
167.76851557074
20
-9.4874153916241
30
0
41
1
10
167.53325774621
20
-9.5176215228262
30
0
41
1
10
166.827410378988
20
-9.60537923980203
30
0
41
1
10
166.356754793412
20
-9.66008017226608
30
0
41
1
10
165.650679583512
20
-9.73644332840388
30
0
41
1
10
165.415305897441
20
-9.76094900821377
30
0
41
1
10
164.944533132184
20
-9.808056183856
30
0
41
1
10
164.709130074238
20
-9.8306527124106
30
0
41
1
10
164.002658918586
20
-9.89540177541721
30
0
41
1
10
163.53137823189
20
-9.93456073735231
30
0
41
1
10
162.588260758226
20
-10.0049243459165
30
0
41
1
10
162.116418138483
20
-10.0361283431789
30
0
41
1
10
161.408354476563
20
-10.0769898355184
30
0
41
1
10
161.172271455609
20
-10.0896112761799
30
0
41
1
10
160.699896149792
20
-10.1128125886474
30
0
41
1
10
160.463614044893
20
-10.1233980926384
30
0
41
1
10
159.990886220012
20
-10.1425429343418
30
0
41
1
10
159.754451000397
20
-10.1511041726737
30
0
41
1
10
159.281315122669
20
-10.1661621408923
30
0
41
1
10
159.044616129462
20
-10.1726611177438
30
0
41
1
10
158.33416138401
20
-10.1890814683014
30
0
41
1
10
157.860058556977
20
-10.1959309257879
30
0
41
1
10
157.148252168328
20
-10.2000166844342
30
0
41
1
10
156.910873879993
20
-10.2003463258603
30
0
41
1
10
156.435903187494
20
-10.1989246416469
30
0
41
1
10
156.198320125943
20
-10.1971710494768
30
0
41
1
10
155.722814560861
20
-10.1915793793576
30
0
41
1
10
155.484851783676
20
-10.18774141638
30
0
41
1
10
155.009174864667
20
-10.1780004222282
30
0
41
1
10
154.771395772747
20
-10.1720970466494
30
0
41
1
10
154.058244856749
20
-10.1513003871489
30
0
41
1
10
153.583048912786
20
-10.1333288486746
30
0
41
1
10
152.870746351716
20
-10.1001647609883
30
0
41
1
10
152.6333959078
20
-10.0880720716341
30
0
41
1
10
152.158747546079
20
-10.0618589315169
30
0
41
1
10
151.921458763668
20
-10.0477359773508
30
0
41
1
10
151.44697755334
20
-10.0174470287947
30
0
41
1
10
151.209799230939
20
-10.0012722066636
30
0
41
1
10
150.735461098436
20
-9.9669215257893
30
0
41
1
10
150.498289190957
20
-9.94875423229814
30
0
41
1
10
149.786797754562
20
-9.89127225422641
30
0
41
1
10
149.312516329127
20
-9.84897120216732
30
0
41
1
10
148.601230039582
20
-9.77949859996937
30
0
41
1
10
148.364156058643
20
-9.75533764204744
30
0
41
1
10
147.890058450239
20
-9.70499428217951
30
0
41
1
10
147.653048286083
20
-9.67879873441905
30
0
41
1
10
146.941931807305
20
-9.59731350250334
30
0
41
1
10
146.46769450692
20
-9.53917563753842
30
0
41
1
10
145.518941665732
20
-9.41528703706607
30
0
41
1
10
145.04441651344
20
-9.34954937598735
30
0
41
1
10
144.33253020241
20
-9.24508581966177
30
0
41
1
10
144.09522914294
20
-9.20927278617953
30
0
41
1
10
143.620499284674
20
-9.13579969932451
30
0
41
1
10
143.38307206083
20
-9.09813926256342
30
0
41
1
10
142.908116728714
20
-9.02093828379753
30
0
41
1
10
142.670601340586
20
-8.98137967543744
30
0
41
1
10
142.195425192195
20
-8.90043626243147
30
0
41
1
10
141.95774273639
20
-8.85908280077899
30
0
41
1
10
141.482193427128
20
-8.77461271651885
30
0
41
1
10
141.244330267024
20
-8.73149086795743
30
0
41
1
10
140.768449590116
20
-8.64343781976032
30
0
41
1
10
140.530541845868
20
-8.59852906406593
30
0
41
1
10
140.054947931999
20
-8.50696452458669
30
0
41
1
10
139.817237971095
20
-8.46030433743456
30
0
41
1
10
139.34199959054
20
-8.36521248462216
30
0
41
1
10
139.104483042276
20
-8.31676034252033
30
0
41
1
10
138.392096321523
20
-8.16892403290825
30
0
41
1
10
137.917286527065
20
-8.06723933114353
30
0
41
1
10
136.967907475981
20
-7.85765951097937
30
0
41
1
10
136.493332436264
20
-7.74977707340892
30
0
41
1
10
135.781757309197
20
-7.58309972313666
30
0
41
1
10
135.544627073079
20
-7.52670412395344
30
0
41
1
10
135.070393063261
20
-7.4124219085912
30
0
41
1
10
134.833279480642
20
-7.35455537504055
30
0
41
1
10
134.121980321827
20
-7.17872076229159
30
0
41
1
10
133.647895468799
20
-7.05839121248096
30
0
41
1
10
132.699408095563
20
-6.81265698071218
30
0
41
1
10
132.225076175262
20
-6.68711512382708
30
0
41
1
10
131.513533981544
20
-6.49459994714147
30
0
41
1
10
131.276343774122
20
-6.42973166520076
30
0
41
1
10
130.801951534748
20
-6.29857991271177
30
0
41
1
10
130.564758091099
20
-6.23227662943447
30
0
41
1
10
129.853096384852
20
-6.0313758638018
30
0
41
1
10
129.378405125614
20
-5.89511452657501
30
0
41
1
10
128.428469588922
20
-5.61809544597864
30
0
41
1
10
127.953231128824
20
-5.47732702979465
30
0
41
1
10
127.240069422565
20
-5.26251916860056
30
0
41
1
10
127.002310990821
20
-5.1902739178814
30
0
41
1
10
126.526652108779
20
-5.04465656639073
30
0
41
1
10
126.288707882269
20
-4.97132351621175
30
0
41
1
10
125.813069667661
20
-4.82374074914361
30
0
41
1
10
125.575333583278
20
-4.74945580077255
30
0
41
1
10
125.100023092188
20
-4.59990997305721
30
0
41
1
10
124.862424280606
20
-4.52471234359683
30
0
41
1
10
124.149714344631
20
-4.29806633377626
30
0
41
1
10
123.674739563704
20
-4.14543639063456
30
0
41
1
10
122.72524968789
20
-3.83677868611318
30
0
41
1
10
122.250739288212
20
-3.68073742787817
30
0
41
1
10
121.539301954618
20
-3.4441593155579
30
0
41
1
10
121.302179360965
20
-3.36496516131842
30
0
41
1
10
120.827906461417
20
-3.20610999302525
30
0
41
1
10
120.590766693717
20
-3.1264206526416
30
0
41
1
10
119.87934514918
20
-2.88654981053674
30
0
41
1
10
119.405052350002
20
-2.72559064708608
30
0
41
1
10
118.456568209731
20
-2.40123862826064
30
0
41
1
10
117.982433440786
20
-2.23768553749448
30
0
41
1
10
117.271028359875
20
-1.99129756881388
30
0
41
1
10
117.033874455549
20
-1.90895065115373
30
0
41
1
10
116.559549126585
20
-1.74376336746943
30
0
41
1
10
116.322359824659
20
-1.66097310242083
30
0
41
1
10
115.610576342985
20
-1.41239890086626
30
0
41
1
10
115.135825225329
20
-1.24624754218493
30
0
41
1
10
114.186012264511
20
-0.912654383075903
30
0
41
1
10
113.710945323112
20
-0.74522648549069
30
0
41
1
10
112.998116993351
20
-0.493082140054327
30
0
41
1
10
112.760450014634
20
-0.408923420091213
30
0
41
1
10
112.28488939846
20
-0.240711915533012
30
0
41
1
10
112.046959298847
20
-0.156601648220146
30
0
41
1
10
111.333267106541
20
0.0955731921107201
30
0
41
1
10
110.857721332001
20
0.263416038819798
30
0
41
1
10
109.907234375412
20
0.598874987908829
30
0
41
1
10
109.432364459089
20
0.766695214581574
30
0
41
1
10
108.72026404965
20
1.01753041321859
30
0
41
1
10
108.48294023776
20
1.10101924767613
30
0
41
1
10
108.008408508578
20
1.26783670783104
30
0
41
1
10
107.771193982207
20
1.35114601351884
30
0
41
1
10
107.059526086189
20
1.60026979294656
30
0
41
1
10
106.585104197418
20
1.76544145112774
30
0
41
1
10
105.636467351738
20
2.0944239129872
30
0
41
1
10
105.162242053815
20
2.2582050529991
30
0
41
1
10
104.45108290059
20
2.50290989521878
30
0
41
1
10
104.214052172889
20
2.58429569522463
30
0
41
1
10
103.739892824217
20
2.74630852267083
30
0
41
1
10
103.502777986009
20
2.82697400096888
30
0
41
1
10
102.791335266998
20
3.06797064950405
30
0
41
1
10
102.316903276683
20
3.22728675267072
30
0
41
1
10
101.605121718942
20
3.46443440191456
30
0
41
1
10
101.367843408465
20
3.54319111572317
30
0
41
1
10
100.893265863771
20
3.70015645138375
30
0
41
1
10
100.655950162046
20
3.77832046096989
30
0
41
1
10
100.181187921848
20
3.93380411809397
30
0
41
1
10
99.9437517814471
20
4.0111518938223
30
0
41
1
10
99.4687977273384
20
4.16513365508916
30
0
41
1
10
99.2312868769145
20
4.24178595838242
30
0
41
1
10
98.5184515040111
20
4.47019336976103
30
0
41
1
10
98.0428588138194
20
4.62049353654749
30
0
41
1
10
97.3290450224586
20
4.84332548937365
30
0
41
1
10
97.0911962879328
20
4.91710758969424
30
0
41
1
10
96.6158939700683
20
5.06363493266994
30
0
41
1
10
96.378406781279
20
5.13639069543342
30
0
41
1
10
95.9037671719048
20
5.28090354185471
30
0
41
1
10
95.666619230702
20
5.3526714558954
30
0
41
1
10
95.1925244374708
20
5.49483849953694
30
0
41
1
10
94.9555860738215
20
5.56526288884362
30
0
41
1
10
94.2451012293272
20
5.77459005956507
30
0
41
1
10
93.771880572878
20
5.91153826373605
30
0
41
1
10
93.0627534341685
20
6.11323313026674
30
0
41
1
10
92.8264975753294
20
6.17984940168088
30
0
41
1
10
92.3542493332774
20
6.31190815900132
30
0
41
1
10
92.1182519027927
20
6.37733677793687
30
0
41
1
10
91.6464129368617
20
6.50675807866475
30
0
41
1
10
91.4105808673468
20
6.57077491879599
30
0
41
1
10
90.9391155559063
20
6.69748175495536
30
0
41
1
10
90.7034949783841
20
6.76019992745898
30
0
41
1
10
89.9968052663608
20
6.9460755789853
30
0
41
1
10
89.5258827749954
20
7.06690660082606
30
0
41
1
10
88.5846149915578
20
7.30283358854197
30
0
41
1
10
88.1142604395349
20
7.41790706258274
30
0
41
1
10
87.4091890301882
20
7.58625064178105
30
0
41
1
10
87.1742546710519
20
7.64167772454087
30
0
41
1
10
86.7044352023317
20
7.75089762150614
30
0
41
1
10
86.469540986736
20
7.80467398687426
30
0
41
1
10
85.7649100301276
20
7.96352792569434
30
0
41
1
10
85.2952227612888
20
8.06612872761895
30
0
41
1
10
84.5908360239389
20
8.21518375619286
30
0
41
1
10
84.3560665048336
20
8.26406423828087
30
0
41
1
10
83.8866041173555
20
8.3602542993363
30
0
41
1
10
83.651921243632
20
8.40757968100996
30
0
41
1
10
83.182545492764
20
8.50050779590964
30
0
41
1
10
82.9478508445847
20
8.54610890301254
30
0
41
1
10
82.4784700944045
20
8.63562252967111
30
0
41
1
10
82.243794890029
20
8.67955166452279
30
0
41
1
10
81.5397381112395
20
8.80873188182764
30
0
41
1
10
81.0702118462375
20
8.8912078495832
30
0
41
1
10
80.1309680045725
20
9.04908476219444
30
0
41
1
10
79.6612568132343
20
9.12449341916977
30
0
41
1
10
78.7217078347882
20
9.26827492493206
30
0
41
1
10
78.2519167683874
20
9.33669262846547
30
0
41
1
10
77.3116109110439
20
9.46572223624085
30
0
41
1
10
76.8411575712657
20
9.5264209781833
30
0
41
1
10
76.1350631527612
20
9.61179376396495
30
0
41
1
10
75.8996299025584
20
9.63930573186548
30
0
41
1
10
75.4286497808374
20
9.69245489923298
30
0
41
1
10
75.1931125434405
20
9.71810062765496
30
0
41
1
10
74.4862755540632
20
9.79215609796537
30
0
41
1
10
74.0146678934518
20
9.83761532574536
30
0
41
1
10
73.3067550206274
20
9.89997047650394
30
0
41
1
10
73.070678510329
20
9.91976450704132
30
0
41
1
10
72.5982513403493
20
9.95732685002378
30
0
41
1
10
72.3619111155429
20
9.97510353456721
30
0
41
1
10
71.6525461376372
20
10.0254433386251
30
0
41
1
10
71.179179075541
20
10.0550192927151
30
0
41
1
10
70.4684736755943
20
10.0933667550594
30
0
41
1
10
70.2314663066968
20
10.1051472966899
30
0
41
1
10
69.7572204367302
20
10.1266791474276
30
0
41
1
10
69.5199629230391
20
10.1364216417957
30
0
41
1
10
69.0450949064616
20
10.1538279379042
30
0
41
1
10
68.8074956051769
20
10.1614967114265
30
0
41
1
10
68.3319708915883
20
10.1747674763539
30
0
41
1
10
68.0939719398613
20
10.1803705409316
30
0
41
1
10
67.3803102851676
20
10.1940615153775
30
0
41
1
10
66.9048536673922
20
10.1990438653958
30
0
41
1
10
66.3832026712245
20
10.1999567600638
30
0
41
1
10
66.336645847202
20
10.1999983471952
30
0
41
1
10
66.2900910603648
20
10.2000000496831
30
0
0
SPLINE
5
D3
100
AcDbEntity
8
1
62
256
6
ByLayer
370
18
48
1
60
0
100
AcDbSpline
70
4
71
3
72
14
73
10
40
0
40
0
40
0
40
0
40
0.25
40
0.25
40
0.5
40
0.5
40
0.75
40
0.75
40
1
40
1
40
1
40
1
41
1
10
13.7811994964714
20
2.51640099020725
30
0
41
1
10
13.458446721132
20
2.6308031607696
30
0
41
1
10
13.1380711636306
20
2.74991308183215
30
0
41
1
10
12.5010885724043
20
2.99499307099236
30
0
41
1
10
12.1844766478174
20
3.12095423715959
30
0
41
1
10
11.5545252925763
20
3.37833688575603
30
0
41
1
10
11.2411845278902
20
3.50975845671758
30
0
41
1
10
10.6178821111881
20
3.77798977835502
30
0
41
1
10
10.3079225057898
20
3.91480754991994
30
0
41
1
10
10
20
4.05488132543982
30
0
0
SPLINE
5
D4
100
AcDbEntity
8
1
62
256
6
ByLayer
370
18
48
1
60
0
100
AcDbSpline
70
4
71
4
72
13
73
8
40
0
40
0
40
0
40
0
40
0
40
0.513471498192758
40
0.513471498192758
40
0.513471498192758
40
1
40
1
40
1
40
1
40
1
41
0.996883372174069
10
18.347444724173
20
10.1999473677377
30
0
41
0.994733870810464
10
18.2128135182197
20
8.98749336169303
30
0
41
0.994067922513311
10
17.969011358653
20
7.6462705825521
30
0
41
1
10
17.6263540216237
20
6.34689313514295
30
0
41
1
10
16.9155815426328
20
4.202411185865
30
0
41
0.994674128225881
10
16.5007141988652
20
3.1889687035826
30
0
41
0.994681728888714
10
16.0574021917394
20
2.39184633364073
30
0
41
0.996459545802988
10
15.6388429607478
20
1.86225083142399
30
0
0
SPLINE
5
D5
100
AcDbEntity
8
1
62
256
6
ByLayer
370
18
48
1
60
0
100
AcDbSpline
70
4
71
3
72
26
73
22
40
0
40
0
40
0
40
0
40
0.125000000000002
40
0.125000000000002
40
0.250000000000005
40
0.250000000000005
40
0.375000000000007
40
0.375000000000007
40
0.406250000000009
40
0.406250000000009
40
0.437500000000011
40
0.437500000000011
40
0.50000000000001
40
0.50000000000001
40
0.625000000000007
40
0.625000000000007
40
0.750000000000005
40
0.750000000000005
40
0.875000000000002
40
0.875000000000002
40
1
40
1
40
1
40
1
41
1
10
10
20
10.1579115029048
30
0
41
1
10
10.3494594368371
20
10.1507828719563
30
0
41
1
10
10.7001158777541
20
10.1444039477431
30
0
41
1
10
11.4036442700406
20
10.1347123344044
30
0
41
1
10
11.7565175305829
20
10.1313928552902
30
0
41
1
10
12.4643616463143
20
10.1284024390743
30
0
41
1
10
12.8193335485029
20
10.1287283263419
30
0
41
1
10
13.264299964338
20
10.1312667247101
30
0
41
1
10
13.3533558385266
20
10.1318790524738
30
0
41
1
10
13.5315912445183
20
10.1333019032714
30
0
41
1
10
13.6207733874755
20
10.1341126889679
30
0
41
1
10
13.8874352788797
20
10.1368091775169
30
0
41
1
10
14.0643927003354
20
10.1389625117214
30
0
41
1
10
14.5929620190897
20
10.1462476618263
30
0
41
1
10
14.9422701721565
20
10.1522134038094
30
0
41
1
10
15.6355292756312
20
10.1647889414671
30
0
41
1
10
15.9794792008223
20
10.1713911164331
30
0
41
1
10
16.6628414081313
20
10.183461418228
30
0
41
1
10
17.0022549817778
20
10.1889221839577
30
0
41
1
10
17.6774017393047
20
10.1969710434308
30
0
41
1
10
18.0131387171684
20
10.1995545559165
30
0
41
1
10
18.3474447241729
20
10.1999473677377
30
0
0
SPLINE
5
D6
100
AcDbEntity
8
1
62
256
6
ByLayer
370
18
48
1
60
0
100
AcDbSpline
70
4
71
3
72
95
73
91
40
0
40
0
40
0
40
0
40
0.0625000000000034
40
0.0625000000000034
40
0.0937500000000041
40
0.0937500000000041
40
0.125000000000005
40
0.125000000000005
40
0.156250000000006
40
0.156250000000006
40
0.164062500000005
40
0.164062500000005
40
0.171875000000005
40
0.171875000000005
40
0.187500000000005
40
0.187500000000005
40
0.218750000000004
40
0.218750000000004
40
0.250000000000003
40
0.250000000000003
40
0.281250000000002
40
0.281250000000002
40
0.312500000000001
40
0.312500000000001
40
0.34375
40
0.34375
40
0.359374999999999
40
0.359374999999999
40
0.367187499999999
40
0.367187499999999
40
0.371093749999999
40
0.371093749999999
40
0.374999999999999
40
0.406249999999999
40
0.406249999999999
40
0.4375
40
0.4375
40
0.4453125
40
0.4453125
40
0.453125
40
0.46875
40
0.46875
40
0.500000000000001
40
0.500000000000001
40
0.507812500000001
40
0.507812500000001
40
0.515625000000001
40
0.515625000000001
40
0.531250000000001
40
0.531250000000001
40
0.562500000000001
40
0.562500000000001
40
0.566406250000001
40
0.566406250000001
40
0.570312500000001
40
0.570312500000001
40
0.578125000000001
40
0.593750000000002
40
0.593750000000002
40
0.625000000000004
40
0.625000000000004
40
0.640625000000005
40
0.640625000000005
40
0.648437500000005
40
0.648437500000005
40
0.656250000000005
40
0.656250000000005
40
0.687500000000005
40
0.687500000000005
40
0.718750000000004
40
0.718750000000004
40
0.750000000000003
40
0.750000000000003
40
0.765625000000003
40
0.765625000000003
40
0.781250000000003
40
0.781250000000003
40
0.812500000000003
40
0.812500000000003
40
0.843750000000002
40
0.843750000000002
40
0.875000000000002
40
0.875000000000002
40
0.906250000000001
40
0.906250000000001
40
0.937500000000001
40
0.937500000000001
40
0.96875
40
0.96875
40
1
40
1
40
1
40
1
41
1
10
10
20
10.1579115029048
30
0
41
1
10
9.57473263987288
20
10.2646006818434
30
0
41
1
10
9.15717371992014
20
10.3699592271252
30
0
41
1
10
8.54248315276641
20
10.5229529385862
30
0
41
1
10
8.33953019691401
20
10.5730990773177
30
0
41
1
10
7.93756960006112
20
10.6710160210603
30
0
41
1
10
7.73856148332129
20
10.7187882648978
30
0
41
1
10
7.34459054229666
20
10.8111384798859
30
0
41
1
10
7.14962698150447
20
10.8557188120467
30
0
41
1
10
6.90855131114671
20
10.9088083429607
30
0
41
1
10
6.8604677991558
20
10.9192938441415
30
0
41
1
10
6.76456735104114
20
10.9399813213076
30
0
41
1
10
6.71676906294414
20
10.9501790273921
30
0
41
1
10
6.57426641513734
20
10.980216336284
30
0
41
1
10
6.48029639304505
20
10.9995347116471
30
0
41
1
10
6.20152355470816
20
11.0551636779996
30
0
41
1
10
6.01985163278908
20
11.0891573615061
30
0
41
1
10
5.66521821677279
20
11.1496687422511
30
0
41
1
10
5.49225374312437
20
11.1761915145116
30
0
41
1
10
5.15562556249697
20
11.2201216700294
30
0
41
1
10
4.99195637712802
20
11.2375381898769
30
0
41
1
10
4.67486668194184
20
11.2610587936741
30
0
41
1
10
4.52381597123969
20
11.2669758765024
30
0
41
1
10
4.23758494424609
20
11.2652710190867
30
0
41
1
10
4.10239037129759
20
11.2576605161192
30
0
41
1
10
3.91263283511898
20
11.2342148784314
30
0
41
1
10
3.85155879523126
20
11.2243885467622
30
0
41
1
10
3.76343045754578
20
11.20632241691
30
0
41
1
10
3.73463537896362
20
11.1997453268223
30
0
41
1
10
3.69234718975781
20
11.1890020439483
30
0
41
1
10
3.6783921869295
20
11.1852716357615
30
0
41
1
10
3.65088360989057
20
11.1775374272014
30
0
41
1
10
3.52882218110744
20
11.1414797569371
30
0
41
1
10
3.42225554461709
20
11.0940847672312
30
0
41
1
10
3.25885236186986
20
10.989821871
30
0
41
1
10
3.19015275668687
20
10.9277059782579
30
0
41
1
10
3.12249404315057
20
10.8355984765536
30
0
41
1
10
3.10995895874902
20
10.816556920622
30
0
41
1
10
3.08693340956091
20
10.7773232295044
30
0
41
1
10
3.05543169533939
20
10.7167031045785
30
0
41
1
10
3.03299252650515
20
10.6507705014503
30
0
41
1
10
3.0002114353245
20
10.5117580785779
30
0
41
1
10
2.99443414675829
20
10.4095752464365
30
0
41
1
10
3.00812179638871
20
10.2694418169456
30
0
41
1
10
3.01191355261662
20
10.2407658322994
30
0
41
1
10
3.02161458829374
20
10.1822651806069
30
0
41
1
10
3.02749329503368
20
10.1526133826059
30
0
41
1
10
3.04813509020505
20
10.0624887635768
30
0
41
1
10
3.06590046783489
20
10.0008476631678
30
0
41
1
10
3.13071421007581
20
9.81149349366598
30
0
41
1
10
3.18924128921083
20
9.67935997110038
30
0
41
1
10
3.27147269586465
20
9.52462850909498
30
0
41
1
10
3.28083795346737
20
9.50735144332083
30
0
41
1
10
3.30002374005053
20
9.47262951637518
30
0
41
1
10
3.30985449338169
20
9.45516715041086
30
0
41
1
10
3.33991834468105
20
9.40271931377094
30
0
41
1
10
3.40237767546327
20
9.29749123121769
30
0
41
1
10
3.47154089010272
20
9.19133953187711
30
0
41
1
10
3.61817747077154
20
8.97797630210607
30
0
41
1
10
3.72698730920669
20
8.83432645401959
30
0
41
1
10
3.90496016446855
20
8.61730368064636
30
0
41
1
10
3.96675214015991
20
8.54470327308303
30
0
41
1
10
4.06297119651828
20
8.43547239271439
30
0
41
1
10
4.09565957467771
20
8.39897790122424
30
0
41
1
10
4.16207280109694
20
8.32601509776813
30
0
41
1
10
4.19570685310251
20
8.28964543040115
30
0
41
1
10
4.36591983912925
20
8.10834367470704
30
0
41
1
10
4.50860102183961
20
7.96504887366382
30
0
41
1
10
4.80504172907064
20
7.68169313720171
30
0
41
1
10
4.95881061795336
20
7.54163393591699
30
0
41
1
10
5.27598632702842
20
7.26452335354028
30
0
41
1
10
5.43939818058848
20
7.12747292197676
30
0
41
1
10
5.69086309659789
20
6.92397528877416
30
0
41
1
10
5.77576111055848
20
6.85647573106672
30
0
41
1
10
5.94747546603696
20
6.7221900511116
30
0
41
1
10
6.0339354579107
20
6.65568162303555
30
0
41
1
10
6.29497006980418
20
6.45790229928085
30
0
41
1
10
6.47119561370596
20
6.32837431732798
30
0
41
1
10
6.82733944341197
20
6.07321865773997
30
0
41
1
10
7.00725865715341
20
5.94759162055291
30
0
41
1
10
7.37018921246002
20
5.69958145742487
30
0
41
1
10
7.55320072919801
20
5.57719816902832
30
0
41
1
10
7.92180758060928
20
5.33510272624042
30
0
41
1
10
8.10740260320043
20
5.21538985446099
30
0
41
1
10
8.48076347183451
20
4.97816019688204
30
0
41
1
10
8.66852872762374
20
4.86064235868278
30
0
41
1
10
9.04592672892051
20
4.6274528768912
30
0
41
1
10
9.23555881195426
20
4.51178009039077
30
0
41
1
10
9.61651639925091
20
4.28208989596686
30
0
41
1
10
9.80784137129064
20
4.16807151614199
30
0
41
1
10
10
20
4.05488132543982
30
0
0
SPLINE
5
D7
100
AcDbEntity
8
1
62
256
6
ByLayer
370
18
48
1
60
0
100
AcDbSpline
70
4
71
3
72
14
73
10
40
0
40
0
40
0
40
0
40
0.461573886425985
40
0.461573886425985
40
0.692360829638977
40
0.692360829638977
40
0.92314777285197
40
0.92314777285197
40
1
40
1
40
1
40
1
41
1
10
10
20
-10.1579115029048
30
0
41
1
10
9.57473263987282
20
-10.2646006818434
30
0
41
1
10
9.15717371992014
20
-10.3699592271252
30
0
41
1
10
8.54248315276638
20
-10.5229529385862
30
0
41
1
10
8.33953019691401
20
-10.5730990773177
30
0
41
1
10
7.93756960006107
20
-10.6710160210603
30
0
41
1
10
7.73856148332132
20
-10.7187882648978
30
0
41
1
10
7.47597970170958
20
-10.7803397182124
30
0
41
1
10
7.41060759917858
20
-10.7955392201855
30
0
41
1
10
7.34546270048403
20
-10.8105429007056
30
0
0
SPLINE
5
D8
100
AcDbEntity
8
SK1
62
256
6
ByLayer
370
18
48
1
60
0
100
AcDbSpline
70
4
71
3
72
34
73
30
40
0
40
0
40
0
40
0
40
0.125000000000001
40
0.125000000000001
40
0.250000000000002
40
0.250000000000002
40
0.375000000000003
40
0.375000000000003
40
0.437500000000004
40
0.437500000000004
40
0.500000000000005
40
0.500000000000005
40
0.625000000000005
40
0.625000000000005
40
0.656250000000005
40
0.656250000000005
40
0.687500000000005
40
0.687500000000005
40
0.750000000000005
40
0.750000000000005
40
0.812500000000005
40
0.812500000000005
40
0.843750000000004
40
0.843750000000004
40
0.875000000000004
40
0.875000000000004
40
0.937500000000002
40
0.937500000000002
40
1
40
1
40
1
40
1
41
1
10
-52.5003287739481
20
-3.62059097355461
30
0
41
1
10
-52.4791023107682
20
-3.69580949914169
30
0
41
1
10
-52.456173666836
20
-3.7701328086529
30
0
41
1
10
-52.4062202513366
20
-3.91675156331095
30
0
41
1
10
-52.3792000011183
20
-3.98904864238443
30
0
41
1
10
-52.3201140822394
20
-4.13128549106548
30
0
41
1
10
-52.2880578558644
20
-4.20122868864783
30
0
41
1
10
-52.2351342019209
20
-4.30400502578081
30
0
41
1
10
-52.2166821098451
20
-4.33790583931534
30
0
41
1
10
-52.1779019271959
20
-4.40490146665846
30
0
41
1
10
-52.1575385793023
20
-4.43805147836142
30
0
41
1
10
-52.093380094742
20
-4.53574061166557
30
0
41
1
10
-52.0468993353633
20
-4.59806703723407
30
0
41
1
10
-51.9825062567773
20
-4.67139689881651
30
0
41
1
10
-51.9693089720826
20
-4.68583123022111
30
0
41
1
10
-51.9422155209833
20
-4.71419608571787
30
0
41
1
10
-51.9282893124733
20
-4.72815494045494
30
0
41
1
10
-51.8855899983215
20
-4.7689776324583
30
0
41
1
10
-51.8559681934236
20
-4.79473829352929
30
0
41
1
10
-51.7940523105194
20
-4.84293492664423
30
0
41
1
10
-51.7617609635258
20
-4.86537421079322
30
0
41
1
10
-51.710934585781
20
-4.89608972183805
30
0
41
1
10
-51.693592788252
20
-4.9058359097269
30
0
41
1
10
-51.6580214478988
20
-4.92423937407065
30
0
41
1
10
-51.6397301965266
20
-4.93292309713041
30
0
41
1
10
-51.583780125377
20
-4.9569645106269
30
0
41
1
10
-51.5455987975117
20
-4.97010157811332
30
0
41
1
10
-51.4673083175319
20
-4.99008231274206
30
0
41
1
10
-51.4272005227822
20
-4.99693051090844
30
0
41
1
10
-51.3860020460815
20
-5.00022676868039
30
0
0
SPLINE
5
D9
100
AcDbEntity
8
SK1
62
256
6
ByLayer
370
18
48
1
60
0
100
AcDbSpline
70
4
71
3
72
34
73
30
40
0
40
0
40
0
40
0
40
0.0625000000000001
40
0.0625000000000001
40
0.125
40
0.125
40
0.1875
40
0.1875
40
0.25
40
0.25
40
0.28125
40
0.28125
40
0.312499999999999
40
0.312499999999999
40
0.374999999999998
40
0.374999999999998
40
0.499999999999995
40
0.499999999999995
40
0.531249999999995
40
0.531249999999995
40
0.562499999999995
40
0.562499999999995
40
0.624999999999996
40
0.624999999999996
40
0.749999999999997
40
0.749999999999997
40
0.874999999999999
40
0.874999999999999
40
1
40
1
40
1
40
1
41
1
10
-51.3860020460815
20
5.00022676868039
30
0
41
1
10
-51.4271597094618
20
4.99693377635015
30
0
41
1
10
-51.4672462826171
20
4.9900941818546
30
0
41
1
10
-51.5455242136708
20
4.97012456894885
30
0
41
1
10
-51.5837142752675
20
4.95699014998107
30
0
41
1
10
-51.658355568598
20
4.92492253812571
30
0
41
1
10
-51.6938849422845
20
4.90639169663621
30
0
41
1
10
-51.7618166387264
20
4.86534206803361
30
0
41
1
10
-51.7942559781117
20
4.84279931421437
30
0
41
1
10
-51.8409760500773
20
4.80639681369991
30
0
41
1
10
-51.8562248159031
20
4.79382938651
30
0
41
1
10
-51.8861176712827
20
4.76788296468004
30
0
41
1
10
-51.9007110618413
20
4.75454548912128
30
0
41
1
10
-51.9432559764382
20
4.71379512925466
30
0
41
1
10
-51.9701014783725
20
4.68554212638855
30
0
41
1
10
-52.0468805903312
20
4.59805033156974
30
0
41
1
10
-52.0930959781036
20
4.5361050376323
30
0
41
1
10
-52.146279276313
20
4.45521167958731
30
0
41
1
10
-52.1566830990007
20
4.43885754119347
30
0
41
1
10
-52.1770537162702
20
4.4058167491863
30
0
41
1
10
-52.1870311208955
20
4.38911114781021
30
0
41
1
10
-52.2162315231511
20
4.33872068618709
30
0
41
1
10
-52.2347469485042
20
4.30473232112985
30
0
41
1
10
-52.2878314108395
20
4.20171722667834
30
0
41
1
10
-52.3199565384223
20
4.13164670884206
30
0
41
1
10
-52.3791390929746
20
3.98921323503123
30
0
41
1
10
-52.4061866509714
20
3.91684682729945
30
0
41
1
10
-52.4561716481468
20
3.77014208810513
30
0
41
1
10
-52.4791043925606
20
3.69580212206003
30
0
41
1
10
-52.5003287739482
20
3.62059097355464
30
0
0
SPLINE
5
DA
100
AcDbEntity
8
SK1
62
256
6
ByLayer
370
18
48
1
60
0
100
AcDbSpline
70
4
71
3
72
32
73
28
40
0
40
0
40
0
40
0
40
0.124999999999982
40
0.124999999999982
40
0.249999999999963
40
0.249999999999963
40
0.374999999999945
40
0.374999999999945
40
0.406249999999941
40
0.406249999999941
40
0.437499999999938
40
0.499999999999932
40
0.499999999999932
40
0.624999999999931
40
0.624999999999931
40
0.656249999999931
40
0.656249999999931
40
0.68749999999993
40
0.68749999999993
40
0.749999999999941
40
0.749999999999941
40
0.874999999999977
40
0.874999999999977
40
0.906249999999979
40
0.906249999999979
40
0.937499999999981
40
1
40
1
40
1
40
1
41
1
10
-14.0157764695459
20
6.59242894057729
30
0
41
1
10
-14.0458287908144
20
6.6375753796253
30
0
41
1
10
-14.0777095790597
20
6.68135165141678
30
0
41
1
10
-14.1456160664485
20
6.76590887596987
30
0
41
1
10
-14.1816386907667
20
6.80669170869109
30
0
41
1
10
-14.2584995514322
20
6.88489663469755
30
0
41
1
10
-14.2993317458756
20
6.92232243783545
30
0
41
1
10
-14.35399779722
20
6.96665617585003
30
0
41
1
10
-14.3651284778382
20
6.97541075031074
30
0
41
1
10
-14.3876400333972
20
6.9925614515505
30
0
41
1
10
-14.4218166346372
20
7.01777898878851
30
0
41
1
10
-14.4572545898122
20
7.04143848131534
30
0
41
1
10
-14.529923003083
20
7.08656817107874
30
0
41
1
10
-14.5807455844469
20
7.11375097789289
30
0
41
1
10
-14.6477689594914
20
7.14354340177493
30
0
41
1
10
-14.6613494138678
20
7.1492913738704
30
0
41
1
10
-14.6888796972728
20
7.1603468035685
30
0
41
1
10
-14.7028224503024
20
7.16564964334611
30
0
41
1
10
-14.7448319317882
20
7.18073146134719
30
0
41
1
10
-14.7732044950192
20
7.1897362156873
30
0
41
1
10
-14.8594560991353
20
7.21351895535656
30
0
41
1
10
-14.9184624466539
20
7.22508541231923
30
0
41
1
10
-14.9943023139084
20
7.23365556703433
30
0
41
1
10
-15.009604540326
20
7.23507501753883
30
0
41
1
10
-15.0401948935638
20
7.23728819114979
30
0
41
1
10
-15.0861089470591
20
7.23967813447453
30
0
41
1
10
-15.1321084232236
20
7.23928527151031
30
0
41
1
10
-15.1628130403699
20
7.23777548279986
30
0
0
SPLINE
5
DB
100
AcDbEntity
8
SK1
62
256
6
ByLayer
370
18
48
1
60
0
100
AcDbSpline
70
4
71
3
72
24
73
20
40
0
40
0
40
0
40
0
40
0.124999999999998
40
0.124999999999998
40
0.249999999999995
40
0.249999999999995
40
0.374999999999993
40
0.374999999999993
40
0.49999999999999
40
0.49999999999999
40
0.624999999999988
40
0.624999999999988
40
0.749999999999985
40
0.749999999999985
40
0.812499999999989
40
0.812499999999989
40
0.874999999999992
40
0.874999999999992
40
1
40
1
40
1
40
1
41
1
10
-15.1628130403699
20
-7.23777548279986
30
0
41
1
10
-15.1013368482927
20
-7.2407983526281
30
0
41
1
10
-15.0406973758297
20
-7.23880609117487
30
0
41
1
10
-14.920978556398
20
-7.22545942224767
30
0
41
1
10
-14.8618998887329
20
-7.21410077871741
30
0
41
1
10
-14.7452745335612
20
-7.18212437688828
30
0
41
1
10
-14.6895699451789
20
-7.16201960319464
30
0
41
1
10
-14.5827589175342
20
-7.11474711952985
30
0
41
1
10
-14.5316211412475
20
-7.08755690757022
30
0
41
1
10
-14.4334554488588
20
-7.02672282100497
30
0
41
1
10
-14.38751619038
20
-6.99376703919228
30
0
41
1
10
-14.3007925764322
20
-6.92357765523022
30
0
41
1
10
-14.2600161652162
20
-6.88633798514746
30
0
41
1
10
-14.2021759714483
20
-6.82763631844753
30
0
41
1
10
-14.1834523029509
20
-6.80759363972547
30
0
41
1
10
-14.1470479748901
20
-6.76660288333122
30
0
41
1
10
-14.1293429656042
20
-6.74562348347595
30
0
41
1
10
-14.0779142754528
20
-6.68164973874727
30
0
41
1
10
-14.0458764161971
20
-6.63764692539442
30
0
41
1
10
-14.0157764695459
20
-6.59242894057729
30
0
0
SPLINE
5
DC
100
AcDbEntity
8
1
62
256
6
ByLayer
370
13
48
1
60
0
100
AcDbSpline
70
4
71
3
72
42
73
38
40
0
40
0
40
0
40
0
40
0.0625000000000002
40
0.0625000000000002
40
0.0937500000000011
40
0.0937500000000011
40
0.109375000000001
40
0.109375000000001
40
0.125
40
0.125
40
0.1875
40
0.1875
40
0.25
40
0.25
40
0.3125
40
0.3125
40
0.375
40
0.375
40
0.4375
40
0.4375
40
0.5
40
0.5
40
0.5625
40
0.5625
40
0.625
40
0.625
40
0.6875
40
0.6875
40
0.75
40
0.75
40
0.8125
40
0.8125
40
0.875
40
0.875
40
0.9375
40
0.9375
40
1
40
1
40
1
40
1
41
1
10
195.7
20
-1.75639741360052
30
0
41
1
10
195.763760275977
20
-1.39470949957214
30
0
41
1
10
195.827520551955
20
-1.03589423855507
30
0
41
1
10
195.923160965921
20
-0.506083426409617
30
0
41
1
10
195.95504110391
20
-0.330873386342688
30
0
41
1
10
196.002861310893
20
-0.0705826574761375
30
0
41
1
10
196.018801379887
20
0.0154770355807443
30
0
41
1
10
196.050681517876
20
0.188643960318871
30
0
41
1
10
196.066621586871
20
0.275654740184308
30
0
41
1
10
196.146321931842
20
0.712672434327374
30
0
41
1
10
196.21008220782
20
1.06861475688484
30
0
41
1
10
196.337602759775
20
1.7880194564159
30
0
41
1
10
196.401363035752
20
2.15147663110631
30
0
41
1
10
196.528883587707
20
2.87971236659547
30
0
41
1
10
196.592643863685
20
3.24448141583895
30
0
41
1
10
196.72016441564
20
3.96830226466764
30
0
41
1
10
196.783924691617
20
4.3273405999787
30
0
41
1
10
196.911445243572
20
5.03216824989551
30
0
41
1
10
196.97520551955
20
5.37794133869266
30
0
41
1
10
197.102726071505
20
6.04866441381412
30
0
41
1
10
197.166486347482
20
6.37359734455336
30
0
41
1
10
197.294006899437
20
6.99553106998806
30
0
41
1
10
197.357767175414
20
7.29251631128008
30
0
41
1
10
197.485287727369
20
7.85240906040406
30
0
41
1
10
197.549048003347
20
8.11530473565287
30
0
41
1
10
197.676568555302
20
8.60225525229953
30
0
41
1
10
197.740328831279
20
8.82630356209108
30
0
41
1
10
197.867849383234
20
9.23245953821902
30
0
41
1
10
197.931609659212
20
9.41456656177948
30
0
41
1
10
198.059130211167
20
9.73551231914186
30
0
41
1
10
198.122890487144
20
9.87435582978628
30
0
41
1
10
198.250411039099
20
10.1091542962545
30
0
41
1
10
198.314171315077
20
10.2051181452701
30
0
41
1
10
198.441691867032
20
10.3560336567148
30
0
41
1
10
198.505452143009
20
10.4109965929192
30
0
41
1
10
198.632972694964
20
10.4829738084307
30
0
41
1
10
198.696732970942
20
10.5
30
0
41
1
10
198.760493246919
20
10.5
30
0
0
SPLINE
5
DD
100
AcDbEntity
8
1
62
256
6
ByLayer
370
13
48
1
60
0
100
AcDbSpline
70
4
71
3
72
85
73
81
40
0
40
0
40
0
40
0
40
0.031250000000007
40
0.031250000000007
40
0.062500000000014
40
0.062500000000014
40
0.0937500000000211
40
0.0937500000000211
40
0.125000000000028
40
0.125000000000028
40
0.156250000000035
40
0.156250000000035
40
0.187500000000042
40
0.187500000000042
40
0.218750000000049
40
0.218750000000049
40
0.250000000000056
40
0.250000000000056
40
0.281250000000063
40
0.281250000000063
40
0.31250000000007
40
0.31250000000007
40
0.320312500000072
40
0.320312500000072
40
0.324218750000072
40
0.324218750000072
40
0.328125000000073
40
0.343750000000072
40
0.343750000000072
40
0.375000000000071
40
0.375000000000071
40
0.40625000000007
40
0.40625000000007
40
0.437500000000069
40
0.437500000000069
40
0.468750000000067
40
0.468750000000067
40
0.500000000000066
40
0.500000000000066
40
0.531250000000065
40
0.531250000000065
40
0.562500000000064
40
0.562500000000064
40
0.593750000000063
40
0.593750000000063
40
0.625000000000062
40
0.625000000000062
40
0.640625000000061
40
0.640625000000061
40
0.644531250000061
40
0.644531250000061
40
0.64843750000006
40
0.64843750000006
40
0.656250000000059
40
0.656250000000059
40
0.687500000000053
40
0.687500000000053
40
0.718750000000048
40
0.718750000000048
40
0.750000000000042
40
0.750000000000042
40
0.781250000000036
40
0.781250000000036
40
0.812500000000031
40
0.812500000000031
40
0.843750000000025
40
0.843750000000025
40
0.87500000000002
40
0.87500000000002
40
0.906250000000014
40
0.906250000000014
40
0.937500000000008
40
0.937500000000008
40
0.953125000000005
40
0.953125000000005
40
0.960937500000004
40
0.960937500000004
40
0.968750000000003
40
0.968750000000003
40
1
40
1
40
1
40
1
41
1
10
198.174319249604
20
10.5
30
0
41
1
10
198.262902513047
20
10.5
30
0
41
1
10
198.351485776491
20
10.4670811941285
30
0
41
1
10
198.528652303379
20
10.3254025593875
30
0
41
1
10
198.617235566822
20
10.2165817276337
30
0
41
1
10
198.79440209371
20
9.91658494234935
30
0
41
1
10
198.882985357154
20
9.72535983378936
30
0
41
1
10
199.060151884041
20
9.25936159488433
30
0
41
1
10
199.148735147485
20
8.984568352483
30
0
41
1
10
199.325901674372
20
8.35666607980716
30
0
41
1
10
199.414484937816
20
8.00357737935443
30
0
41
1
10
199.591651464704
20
7.23077268418433
30
0
41
1
10
199.680234728147
20
6.81111628056613
30
0
41
1
10
199.857401255035
20
5.92210326662581
30
0
41
1
10
199.945984518479
20
5.45283060414096
30
0
41
1
10
200.123151045366
20
4.48452849223256
30
0
41
1
10
200.21173430881
20
3.98558485163051
30
0
41
1
10
200.388900835698
20
2.97826439118398
30
0
41
1
10
200.477484099142
20
2.46995489961077
30
0
41
1
10
200.654650626029
20
1.46223704304572
30
0
41
1
10
200.743233889473
20
0.962866657136829
30
0
41
1
10
200.853962968777
20
0.353425496575824
30
0
41
1
10
200.876108784638
20
0.232265873984318
30
0
41
1
10
200.90932750843
20
0.0517604802754192
30
0
41
1
10
200.92040041636
20
-0.0080634803019564
30
0
41
1
10
200.942546232221
20
-0.128199476893343
30
0
41
1
10
200.997910771874
20
-0.429578135889642
30
0
41
1
10
201.053275311526
20
-0.735894541419981
30
0
41
1
10
201.186150206692
20
-1.47810138999478
30
0
41
1
10
201.274733470135
20
-1.98241869363898
30
0
41
1
10
201.451899997023
20
-2.9940770539792
30
0
41
1
10
201.540483260466
20
-3.50136950559238
30
0
41
1
10
201.717649787354
20
-4.49978488882635
30
0
41
1
10
201.806233050798
20
-4.9908323240181
30
0
41
1
10
201.983399577685
20
-5.93629540644983
30
0
41
1
10
202.071982841129
20
-6.39062327837362
30
0
41
1
10
202.249149368017
20
-7.24343215299879
30
0
41
1
10
202.337732631461
20
-7.64183525106679
30
0
41
1
10
202.514899158348
20
-8.36740142544059
30
0
41
1
10
202.603482421792
20
-8.69451739090357
30
0
41
1
10
202.780648948679
20
-9.2678881649399
30
0
41
1
10
202.869232212123
20
-9.51413718252408
30
0
41
1
10
203.046398739011
20
-9.922746121481
30
0
41
1
10
203.134982002454
20
-10.0851379174574
30
0
41
1
10
203.312148529342
20
-10.3291793935279
30
0
41
1
10
203.400731792786
20
-10.4108843038667
30
0
41
1
10
203.533606687951
20
-10.4788500313346
30
0
41
1
10
203.577898319673
20
-10.4924386005375
30
0
41
1
10
203.633262859326
20
-10.4988944283831
30
0
41
1
10
203.644335767256
20
-10.499659474406
30
0
41
1
10
203.666481583117
20
-10.5001587976748
30
0
41
1
10
203.677554491047
20
-10.4998961124246
30
0
41
1
10
203.710773214839
20
-10.4975481744178
30
0
41
1
10
203.7329190307
20
-10.4938988725141
30
0
41
1
10
203.843648110005
20
-10.4648132230221
30
0
41
1
10
203.932231373448
20
-10.4067342809723
30
0
41
1
10
204.109397900336
20
-10.2119895249258
30
0
41
1
10
204.19798116378
20
-10.0752648244103
30
0
41
1
10
204.375147690667
20
-9.71837428305071
30
0
41
1
10
204.463730954111
20
-9.49816747520276
30
0
41
1
10
204.640897480998
20
-8.97525603699077
30
0
41
1
10
204.729480744442
20
-8.67254447672755
30
0
41
1
10
204.90664727133
20
-7.99214080472532
30
0
41
1
10
204.995230534773
20
-7.61448343372763
30
0
41
1
10
205.172397061661
20
-6.79787977935925
30
0
41
1
10
205.260980325105
20
-6.35900373870419
30
0
41
1
10
205.438146851992
20
-5.43821591816379
30
0
41
1
10
205.526730115436
20
-4.95639136435369
30
0
41
1
10
205.703896642324
20
-3.97007861151528
30
0
41
1
10
205.792479905767
20
-3.46567177051603
30
0
41
1
10
205.969646432655
20
-2.4540689315422
30
0
41
1
10
206.058229696098
20
-1.94693079197916
30
0
41
1
10
206.191104591264
20
-1.19705332888643
30
0
41
1
10
206.235396222986
20
-0.948873085271003
30
0
41
1
10
206.301833670569
20
-0.580610230021932
30
0
41
1
10
206.32397948643
20
-0.458521862485128
30
0
41
1
10
206.368271118152
20
-0.215875554143906
30
0
41
1
10
206.390416934013
20
-0.0955247622582931
30
0
41
1
10
206.501146013317
20
0.504137459826097
30
0
41
1
10
206.589729276761
20
0.997541112444395
30
0
41
1
10
206.678312540205
20
1.49793063978109
30
0
0
SPLINE
5
DE
100
AcDbEntity
8
1
62
256
6
ByLayer
370
13
48
1
60
0
100
AcDbSpline
70
4
71
3
72
32
73
28
40
0
40
0
40
0
40
0
40
0.125
40
0.125
40
0.1875
40
0.1875
40
0.25
40
0.25
40
0.3125
40
0.3125
40
0.375
40
0.375
40
0.4375
40
0.4375
40
0.5
40
0.5
40
0.5625
40
0.5625
40
0.625
40
0.625
40
0.6875
40
0.6875
40
0.75
40
0.75
40
0.875
40
0.875
40
1
40
1
40
1
40
1
41
1
10
195.7
20
0.984855670554253
30
0
41
1
10
195.806901229449
20
1.58200363439028
30
0
41
1
10
195.913802458898
20
2.19309340373073
30
0
41
1
10
196.074154303072
20
3.10905663736906
30
0
41
1
10
196.127604917797
20
3.4142018555566
30
0
41
1
10
196.234506147246
20
4.01993396724623
30
0
41
1
10
196.287956761971
20
4.32051513378792
30
0
41
1
10
196.39485799142
20
4.9126810369803
30
0
41
1
10
196.448308606145
20
5.20425909300189
30
0
41
1
10
196.555209835594
20
5.77394574151597
30
0
41
1
10
196.608660450318
20
6.05204725479294
30
0
41
1
10
196.715561679768
20
6.59048157669713
30
0
41
1
10
196.769012294492
20
6.85080757764763
30
0
41
1
10
196.875913523942
20
7.34977641603049
30
0
41
1
10
196.929364138666
20
7.58841340096839
30
0
41
1
10
197.036265368115
20
8.04066706266357
30
0
41
1
10
197.08971598284
20
8.25427942565906
30
0
41
1
10
197.196617212289
20
8.6538786379293
30
0
41
1
10
197.250067827014
20
8.83986309771097
30
0
41
1
10
197.356969056463
20
9.18243506559057
30
0
41
1
10
197.410419671188
20
9.33902223829773
30
0
41
1
10
197.517320900637
20
9.62190308575236
30
0
41
1
10
197.570771515362
20
9.74819834870115
30
0
41
1
10
197.731123359535
20
10.0815821046154
30
0
41
1
10
197.838024588985
20
10.2428435197856
30
0
41
1
10
198.051827047883
20
10.4519761859428
30
0
41
1
10
198.158728277332
20
10.5
30
0
41
1
10
198.265629506781
20
10.5
30
0
0
SPLINE
5
DF
100
AcDbEntity
8
1
62
256
6
ByLayer
370
13
48
1
60
0
100
AcDbSpline
70
4
71
3
72
84
73
80
40
0
40
0
40
0
40
0
40
0.031249999999998
40
0.031249999999998
40
0.0624999999999959
40
0.0624999999999959
40
0.0937499999999939
40
0.0937499999999939
40
0.124999999999992
40
0.124999999999992
40
0.15624999999999
40
0.15624999999999
40
0.187499999999988
40
0.187499999999988
40
0.218749999999986
40
0.218749999999986
40
0.249999999999984
40
0.249999999999984
40
0.281249999999982
40
0.281249999999982
40
0.296874999999981
40
0.296874999999981
40
0.30468749999998
40
0.30468749999998
40
0.31249999999998
40
0.31249999999998
40
0.343749999999977
40
0.343749999999977
40
0.374999999999975
40
0.374999999999975
40
0.406249999999973
40
0.406249999999973
40
0.437499999999971
40
0.437499999999971
40
0.468749999999969
40
0.468749999999969
40
0.499999999999967
40
0.499999999999967
40
0.531249999999965
40
0.531249999999965
40
0.562499999999963
40
0.562499999999963
40
0.593749999999961
40
0.593749999999961
40
0.60937499999996
40
0.60937499999996
40
0.61328124999996
40
0.61328124999996
40
0.61718749999996
40
0.624999999999961
40
0.624999999999961
40
0.656249999999963
40
0.656249999999963
40
0.687499999999965
40
0.687499999999965
40
0.718749999999967
40
0.718749999999967
40
0.749999999999969
40
0.749999999999969
40
0.781249999999971
40
0.781249999999971
40
0.812499999999973
40
0.812499999999973
40
0.843749999999975
40
0.843749999999975
40
0.874999999999978
40
0.874999999999978
40
0.90624999999998
40
0.90624999999998
40
0.91406249999998
40
0.91406249999998
40
0.917968749999981
40
0.917968749999981
40
0.921874999999981
40
0.937499999999985
40
0.937499999999985
40
0.968749999999992
40
0.968749999999992
40
1
40
1
40
1
40
1
41
1
10
197.679455509466
20
10.5
30
0
41
1
10
197.773193603536
20
10.5
30
0
41
1
10
197.866931697606
20
10.4631222498746
30
0
41
1
10
198.054407885747
20
10.3038581603469
30
0
41
1
10
198.148145979817
20
10.1813912935168
30
0
41
1
10
198.335622167957
20
9.84369435073381
30
0
41
1
10
198.429360262028
20
9.62840254722093
30
0
41
1
10
198.616836450168
20
9.10468259106034
30
0
41
1
10
198.710574544238
20
8.79623648940353
30
0
41
1
10
198.898050732379
20
8.09400385571104
30
0
41
1
10
198.991788826449
20
7.70025724645316
30
0
41
1
10
199.179265014589
20
6.84309630047656
30
0
41
1
10
199.273003108659
20
6.37977300724859
30
0
41
1
10
199.4604792968
20
5.40499521527957
30
0
41
1
10
199.55421739087
20
4.89365630493364
30
0
41
1
10
199.74169357901
20
3.84703087156308
30
0
41
1
10
199.835431673081
20
3.31185077058373
30
0
41
1
10
200.022907861221
20
2.2409143132875
30
0
41
1
10
200.116645955291
20
1.7052299874199
30
0
41
1
10
200.257253096397
20
0.916120146477653
30
0
41
1
10
200.304122143431
20
0.655451744073758
30
0
41
1
10
200.374425713984
20
0.269498674244829
30
0
41
1
10
200.397860237502
20
0.141686666385567
30
0
41
1
10
200.444729284537
20
-0.112041151820193
30
0
41
1
10
200.468163808054
20
-0.239573407241238
30
0
41
1
10
200.585336425642
20
-0.88217201996261
30
0
41
1
10
200.679074519712
20
-1.41001881471385
30
0
41
1
10
200.866550707853
20
-2.47609468231264
30
0
41
1
10
200.960288801923
20
-3.01427398505783
30
0
41
1
10
201.147764990063
20
-4.07930838929488
30
0
41
1
10
201.241503084134
20
-4.606072785273
30
0
41
1
10
201.428979272274
20
-5.62415791032944
30
0
41
1
10
201.522717366344
20
-6.11536382393649
30
0
41
1
10
201.710193554485
20
-7.03896511031405
30
0
41
1
10
201.803931648555
20
-7.47125253136252
30
0
41
1
10
201.991407836695
20
-8.25787299021852
30
0
41
1
10
202.085145930765
20
-8.61213726777405
30
0
41
1
10
202.272622118906
20
-9.23055945260089
30
0
41
1
10
202.366360212976
20
-9.49470582029184
30
0
41
1
10
202.553836401116
20
-9.9289866162141
30
0
41
1
10
202.647574495187
20
-10.0991627713123
30
0
41
1
10
202.835050683327
20
-10.3493554296175
30
0
41
1
10
202.928788777397
20
-10.4294459676317
30
0
41
1
10
203.069395918502
20
-10.4892986606762
30
0
41
1
10
203.116264965537
20
-10.4992411273323
30
0
41
1
10
203.174851274331
20
-10.5001373747273
30
0
41
1
10
203.18656853609
20
-10.4997433284439
30
0
41
1
10
203.210003059608
20
-10.4977863686079
30
0
41
1
10
203.245154844884
20
-10.4930962234835
30
0
41
1
10
203.28030663016
20
-10.4830279296532
30
0
41
1
10
203.397479247748
20
-10.4370355349663
30
0
41
1
10
203.491217341818
20
-10.3602869779233
30
0
41
1
10
203.678693529959
20
-10.117064670364
30
0
41
1
10
203.772431624029
20
-9.95051615651531
30
0
41
1
10
203.959907812169
20
-9.52350739435607
30
0
41
1
10
204.053645906239
20
-9.26300369557464
30
0
41
1
10
204.24112209438
20
-8.65156269283858
30
0
41
1
10
204.33486018845
20
-8.30063463786709
30
0
41
1
10
204.52233637659
20
-7.52007268440681
30
0
41
1
10
204.616074470661
20
-7.09050552003629
30
0
41
1
10
204.803550658801
20
-6.17150032481902
30
0
41
1
10
204.897288752871
20
-5.68216927733391
30
0
41
1
10
205.084764941012
20
-4.66688595085699
30
0
41
1
10
205.178503035082
20
-4.14104885976161
30
0
41
1
10
205.365979223222
20
-3.07695399209612
30
0
41
1
10
205.459717317292
20
-2.53878829029222
30
0
41
1
10
205.647193505433
20
-1.47196583170964
30
0
41
1
10
205.740931599503
20
-0.94336053626634
30
0
41
1
10
205.858104217091
20
-0.299455858953252
30
0
41
1
10
205.881538740608
20
-0.17150499586981
30
0
41
1
10
205.916690525885
20
0.0190113300120629
30
0
41
1
10
205.928407787643
20
0.0823909085751495
30
0
41
1
10
205.951842311161
20
0.209894383470782
30
0
41
1
10
206.010428619955
20
0.529788685079609
30
0
41
1
10
206.069014928749
20
0.85505276502866
30
0
41
1
10
206.209622069854
20
1.64304228064091
30
0
41
1
10
206.303360163924
20
2.17831647580243
30
0
41
1
10
206.490836352065
20
3.24928179108551
30
0
41
1
10
206.584574446135
20
3.78490250474576
30
0
41
1
10
206.678312540205
20
4.30912829274956
30
0
0
SPLINE
5
E0
100
AcDbEntity
8
1
62
256
6
ByLayer
370
13
48
1
60
0
100
AcDbSpline
70
4
71
3
72
22
73
18
40
0
40
0
40
0
40
0
40
0.125
40
0.125
40
0.25
40
0.25
40
0.375
40
0.375
40
0.5
40
0.5
40
0.625
40
0.625
40
0.75
40
0.75
40
0.875
40
0.875
40
1
40
1
40
1
40
1
41
1
10
195.7
20
3.79525670166478
30
0
41
1
10
195.786281906943
20
4.28349100648668
30
0
41
1
10
195.872563813887
20
4.7652913085997
30
0
41
1
10
196.045127627774
20
5.69728271552995
30
0
41
1
10
196.131409534718
20
6.14739734964388
30
0
41
1
10
196.303973348605
20
6.99788460298618
30
0
41
1
10
196.390255255548
20
7.39818568093963
30
0
41
1
10
196.562819069435
20
8.13394211224139
30
0
41
1
10
196.649100976378
20
8.46934915337206
30
0
41
1
10
196.821664790265
20
9.06510811715182
30
0
41
1
10
196.907946697209
20
9.32544607412328
30
0
41
1
10
197.080510511096
20
9.76671916166083
30
0
41
1
10
197.166792418039
20
9.94767440507081
30
0
41
1
10
197.339356231927
20
10.2315917316059
30
0
41
1
10
197.42563813887
20
10.3345978692373
30
0
41
1
10
197.598201952757
20
10.468775211153
30
0
41
1
10
197.6844838597
20
10.5
30
0
41
1
10
197.770765766644
20
10.5
30
0
0
SPLINE
5
E1
100
AcDbEntity
8
1
62
256
6
ByLayer
370
13
48
1
60
0
100
AcDbSpline
70
4
71
3
72
80
73
76
40
0
40
0
40
0
40
0
40
0.0312499999999992
40
0.0312499999999992
40
0.0624999999999985
40
0.0624999999999985
40
0.0937499999999977
40
0.0937499999999977
40
0.124999999999997
40
0.124999999999997
40
0.156249999999996
40
0.156249999999996
40
0.187499999999995
40
0.187499999999995
40
0.218749999999995
40
0.218749999999995
40
0.249999999999994
40
0.249999999999994
40
0.281249999999993
40
0.281249999999993
40
0.289062499999993
40
0.289062499999993
40
0.296874999999992
40
0.296874999999992
40
0.312499999999992
40
0.312499999999992
40
0.343749999999993
40
0.343749999999993
40
0.374999999999993
40
0.374999999999993
40
0.406249999999993
40
0.406249999999993
40
0.437499999999994
40
0.437499999999994
40
0.468749999999994
40
0.468749999999994
40
0.499999999999994
40
0.499999999999994
40
0.531249999999994
40
0.531249999999994
40
0.562499999999995
40
0.562499999999995
40
0.578124999999995
40
0.578124999999995
40
0.593749999999996
40
0.593749999999996
40
0.624999999999996
40
0.624999999999996
40
0.656249999999996
40
0.656249999999996
40
0.687499999999997
40
0.687499999999997
40
0.718749999999997
40
0.718749999999997
40
0.749999999999997
40
0.749999999999997
40
0.781249999999998
40
0.781249999999998
40
0.812499999999998
40
0.812499999999998
40
0.843749999999998
40
0.843749999999998
40
0.859374999999999
40
0.859374999999999
40
0.867187499999999
40
0.867187499999999
40
0.874999999999999
40
0.874999999999999
40
0.906249999999999
40
0.906249999999999
40
0.937499999999999
40
0.937499999999999
40
0.96875
40
0.96875
40
1
40
1
40
1
40
1
41
1
10
197.184591769328
20
10.5
30
0
41
1
10
197.283484694025
20
10.5
30
0
41
1
10
197.382377618722
20
10.4589352382127
30
0
41
1
10
197.580163468115
20
10.2809959047996
30
0
41
1
10
197.679056392812
20
10.1440167414522
30
0
41
1
10
197.876842242205
20
9.76629249012166
30
0
41
1
10
197.975735166901
20
9.52547171209218
30
0
41
1
10
198.173521016295
20
8.94087716956727
30
0
41
1
10
198.272413940991
20
8.59709186433253
30
0
41
1
10
198.470199790385
20
7.81758603500867
30
0
41
1
10
198.569092715081
20
7.38193410296537
30
0
41
1
10
198.766878564475
20
6.43909482114367
30
0
41
1
10
198.865771489171
20
5.93203930566355
30
0
41
1
10
199.063557338564
20
4.87306998382823
30
0
41
1
10
199.162450263261
20
4.32130774906972
30
0
41
1
10
199.360236112654
20
3.20144440750764
30
0
41
1
10
199.459129037351
20
2.63346773523739
30
0
41
1
10
199.656914886744
20
1.50722555103155
30
0
41
1
10
199.755807811441
20
0.94902959363688
30
0
41
1
10
199.879423967312
20
0.270221499545301
30
0
41
1
10
199.904147198486
20
0.135391236657
30
0
41
1
10
199.953593660834
20
-0.132150582109915
30
0
41
1
10
199.978316892008
20
-0.266947729533285
30
0
41
1
10
200.052486585531
20
-0.674187486123543
30
0
41
1
10
200.101933047879
20
-0.949423152099513
30
0
41
1
10
200.250272434924
20
-1.78282224348121
30
0
41
1
10
200.349165359621
20
-2.34884519751222
30
0
41
1
10
200.546951209014
20
-3.47836342276858
30
0
41
1
10
200.64584413371
20
-4.04176002929088
30
0
41
1
10
200.843629983104
20
-5.13835769002952
30
0
41
1
10
200.9425229078
20
-5.67141575070127
30
0
41
1
10
201.140308757194
20
-6.67916312704202
30
0
41
1
10
201.23920168189
20
-7.15370441334162
30
0
41
1
10
201.436987531284
20
-8.02027693720117
30
0
41
1
10
201.53588045598
20
-8.41220364667009
30
0
41
1
10
201.733666305374
20
-9.09741008097427
30
0
41
1
10
201.83255923007
20
-9.39066118136591
30
0
41
1
10
202.030345079463
20
-9.87247942041981
30
0
41
1
10
202.12923800416
20
-10.0610937286752
30
0
41
1
10
202.327023853553
20
-10.3373904037134
30
0
41
1
10
202.42591677825
20
-10.4251676303155
30
0
41
1
10
202.574256165295
20
-10.4895973445707
30
0
41
1
10
202.623702627643
20
-10.4999169195255
30
0
41
1
10
202.72259555234
20
-10.5000820802351
30
0
41
1
10
202.772042014688
20
-10.4899354775923
30
0
41
1
10
202.920381401733
20
-10.4260457090136
30
0
41
1
10
203.01927432643
20
-10.3386567629619
30
0
41
1
10
203.217060175823
20
-10.0631692747335
30
0
41
1
10
203.31595310052
20
-9.8749757563981
30
0
41
1
10
203.513738949913
20
-9.39399607426478
30
0
41
1
10
203.612631874609
20
-9.10116247849075
30
0
41
1
10
203.810417724003
20
-8.41674642959367
30
0
41
1
10
203.909310648699
20
-8.02519227140044
30
0
41
1
10
204.107096498093
20
-7.15928194002623
30
0
41
1
10
204.205989422789
20
-6.6850300347316
30
0
41
1
10
204.403775272182
20
-5.67775293014338
30
0
41
1
10
204.502668196879
20
-5.14487567998557
30
0
41
1
10
204.700454046272
20
-4.048523738016
30
0
41
1
10
204.799346970969
20
-3.48519215288715
30
0
41
1
10
204.997132820362
20
-2.35569827648578
30
0
41
1
10
205.096025745059
20
-1.78963487621053
30
0
41
1
10
205.244365132104
20
-0.956112620238059
30
0
41
1
10
205.293811594452
20
-0.680825554770365
30
0
41
1
10
205.367981287975
20
-0.273495651090542
30
0
41
1
10
205.392704519149
20
-0.138649285540367
30
0
41
1
10
205.442150981497
20
0.128926700893231
30
0
41
1
10
205.466874212671
20
0.263674341465702
30
0
41
1
10
205.590490368542
20
0.942332015010606
30
0
41
1
10
205.689383293239
20
1.5004425456153
30
0
41
1
10
205.887169142632
20
2.62660892625934
30
0
41
1
10
205.986062067328
20
3.19459546294314
30
0
41
1
10
206.183847916722
20
4.31459088752317
30
0
41
1
10
206.282740841418
20
4.86647552443935
30
0
41
1
10
206.480526690812
20
5.92580419719883
30
0
41
1
10
206.579419615508
20
6.433096683559
30
0
41
1
10
206.678312540205
20
6.90480238069708
30
0
0
SPLINE
5
E2
100
AcDbEntity
8
1
62
256
6
ByLayer
370
13
48
1
60
0
100
AcDbSpline
70
4
71
3
72
22
73
18
40
0
40
0
40
0
40
0
40
0.125
40
0.125
40
0.25
40
0.25
40
0.375
40
0.375
40
0.5
40
0.5
40
0.625
40
0.625
40
0.75
40
0.75
40
0.875
40
0.875
40
1
40
1
40
1
40
1
41
1
10
195.7
20
6.45956135226689
30
0
41
1
10
195.765662584438
20
6.78645834456742
30
0
41
1
10
195.831325168876
20
7.09938619269556
30
0
41
1
10
195.962650337751
20
7.69034781551056
30
0
41
1
10
196.028312922189
20
7.96836680595408
30
0
41
1
10
196.159638091064
20
8.48398492236245
30
0
41
1
10
196.225300675502
20
8.72157529957968
30
0
41
1
10
196.356625844378
20
9.15263815017869
30
0
41
1
10
196.422288428815
20
9.34610886650509
30
0
41
1
10
196.553613597691
20
9.68722213287532
30
0
41
1
10
196.619276182129
20
9.83486952695316
30
0
41
1
10
196.750601351004
20
10.0845646080095
30
0
41
1
10
196.816263935442
20
10.1866222419262
30
0
41
1
10
196.947589104318
20
10.3470764432712
30
0
41
1
10
197.013251688755
20
10.4054859578351
30
0
41
1
10
197.144576857631
20
10.4819408372046
30
0
41
1
10
197.210239442069
20
10.5
30
0
41
1
10
197.275902026506
20
10.5
30
0
0
SPLINE
5
E3
100
AcDbEntity
8
1
62
256
6
ByLayer
370
13
48
1
60
0
100
AcDbSpline
70
4
71
3
72
103
73
99
40
0
40
0
40
0
40
0
40
0.0312500000000012
40
0.0312500000000012
40
0.0625000000000024
40
0.0625000000000024
40
0.0937500000000036
40
0.0937500000000036
40
0.109375000000004
40
0.109375000000004
40
0.125000000000004
40
0.125000000000004
40
0.140625000000005
40
0.140625000000005
40
0.156250000000005
40
0.156250000000005
40
0.171875000000005
40
0.171875000000005
40
0.187500000000006
40
0.187500000000006
40
0.218750000000006
40
0.218750000000006
40
0.250000000000007
40
0.250000000000007
40
0.265625000000007
40
0.265625000000007
40
0.273437500000007
40
0.273437500000007
40
0.277343750000007
40
0.277343750000007
40
0.281250000000007
40
0.281250000000007
40
0.312500000000006
40
0.312500000000006
40
0.343750000000005
40
0.343750000000005
40
0.375000000000005
40
0.375000000000005
40
0.390625000000004
40
0.390625000000004
40
0.406250000000004
40
0.406250000000004
40
0.421875000000004
40
0.421875000000004
40
0.437500000000004
40
0.437500000000004
40
0.468750000000004
40
0.468750000000004
40
0.500000000000003
40
0.500000000000003
40
0.531250000000003
40
0.531250000000003
40
0.546875000000003
40
0.546875000000003
40
0.550781250000003
40
0.550781250000003
40
0.554687500000003
40
0.562500000000004
40
0.562500000000004
40
0.593750000000004
40
0.593750000000004
40
0.625000000000004
40
0.625000000000004
40
0.656250000000004
40
0.656250000000004
40
0.671875000000004
40
0.671875000000004
40
0.687500000000004
40
0.687500000000004
40
0.703125000000004
40
0.703125000000004
40
0.718750000000004
40
0.718750000000004
40
0.750000000000004
40
0.750000000000004
40
0.781250000000005
40
0.781250000000005
40
0.812500000000005
40
0.812500000000005
40
0.820312500000004
40
0.820312500000004
40
0.828125000000004
40
0.828125000000004
40
0.843750000000004
40
0.843750000000004
40
0.875000000000003
40
0.875000000000003
40
0.906250000000002
40
0.906250000000002
40
0.937500000000002
40
0.937500000000002
40
0.953125000000001
40
0.953125000000001
40
0.968750000000001
40
0.968750000000001
40
0.984375
40
0.984375
40
1
40
1
40
1
40
1
41
1
10
196.689728029191
20
10.5
30
0
41
1
10
196.793775784514
20
10.5
30
0
41
1
10
196.897823539837
20
10.454519349158
30
0
41
1
10
197.105919050483
20
10.2568069676459
30
0
41
1
10
197.209966805806
20
10.1044413725794
30
0
41
1
10
197.418062316452
20
9.68436760311704
30
0
41
1
10
197.522110071775
20
9.41656878888898
30
0
41
1
10
197.67818170476
20
8.93018877164553
30
0
41
1
10
197.730205582421
20
8.75404365343556
30
0
41
1
10
197.834253337745
20
8.37520729433649
30
0
41
1
10
197.886277215406
20
8.17251780708756
30
0
41
1
10
197.990324970729
20
7.74284302440421
30
0
41
1
10
198.042348848391
20
7.51586115991157
30
0
41
1
10
198.146396603714
20
7.04053322490918
30
0
41
1
10
198.198420481375
20
6.79219198593927
30
0
41
1
10
198.302468236698
20
6.27763297966419
30
0
41
1
10
198.35449211436
20
6.01142099403981
30
0
41
1
10
198.458539869683
20
5.46500315037272
30
0
41
1
10
198.510563747344
20
5.18480347082971
30
0
41
1
10
198.666635380329
20
4.32935763988661
30
0
41
1
10
198.770683135652
20
3.73935454410957
30
0
41
1
10
198.978778646298
20
2.55233038372106
30
0
41
1
10
199.082826401621
20
1.95544613151083
30
0
41
1
10
199.238898034606
20
1.07598951833955
30
0
41
1
10
199.290921912267
20
0.785433512681237
30
0
41
1
10
199.36895772876
20
0.355603571429384
30
0
41
1
10
199.39496966759
20
0.213323742095184
30
0
41
1
10
199.433987575837
20
0.0016274466956361
30
0
41
1
10
199.446993545252
20
-0.0686416384102415
30
0
41
1
10
199.473005484083
20
-0.21013266180654
30
0
41
1
10
199.486011453498
20
-0.281159402979995
30
0
41
1
10
199.603065178237
20
-0.92276161922311
30
0
41
1
10
199.70711293356
20
-1.51018801989522
30
0
41
1
10
199.915208444206
20
-2.69550488493886
30
0
41
1
10
200.019256199529
20
-3.29330420340708
30
0
41
1
10
200.227351710175
20
-4.46892841135033
30
0
41
1
10
200.331399465498
20
-5.04658899018025
30
0
41
1
10
200.487471098483
20
-5.87319618272454
30
0
41
1
10
200.539494976144
20
-6.14207970183867
30
0
41
1
10
200.643542731467
20
-6.66262184073679
30
0
41
1
10
200.695566609129
20
-6.9142745703551
30
0
41
1
10
200.799614364452
20
-7.39678610583749
30
0
41
1
10
200.851638242113
20
-7.62763988215048
30
0
41
1
10
200.955685997436
20
-8.06551426546778
30
0
41
1
10
201.007709875098
20
-8.27253117730459
30
0
41
1
10
201.163781508083
20
-8.8542668537267
30
0
41
1
10
201.267829263406
20
-9.18927185863004
30
0
41
1
10
201.475924774052
20
-9.7437816533627
30
0
41
1
10
201.579972529375
20
-9.96332793147954
30
0
41
1
10
201.788068040021
20
-10.289246781677
30
0
41
1
10
201.892115795344
20
-10.3957345266857
30
0
41
1
10
202.048187428329
20
-10.4796875698981
30
0
41
1
10
202.10021130599
20
-10.4951066333067
30
0
41
1
10
202.165241153067
20
-10.4999789220825
30
0
41
1
10
202.178247122482
20
-10.5002364326155
30
0
41
1
10
202.204259061313
20
-10.4993359399593
30
0
41
1
10
202.24327696956
20
-10.4958465268005
30
0
41
1
10
202.282294877806
20
-10.4857833017327
30
0
41
1
10
202.412354571959
20
-10.4369688310734
30
0
41
1
10
202.516402327282
20
-10.3487837812806
30
0
41
1
10
202.724497837929
20
-10.0609632977385
30
0
41
1
10
202.828545593252
20
-9.86120531580161
30
0
41
1
10
203.036641103898
20
-9.34586801097919
30
0
41
1
10
203.140688859221
20
-9.030231320642
30
0
41
1
10
203.296760492205
20
-8.47562205428156
30
0
41
1
10
203.348784369867
20
-8.27732583582952
30
0
41
1
10
203.45283212519
20
-7.85600231806546
30
0
41
1
10
203.504856002852
20
-7.63297817731282
30
0
41
1
10
203.608903758175
20
-7.16502176520336
30
0
41
1
10
203.660927635836
20
-6.92009411406926
30
0
41
1
10
203.764975391159
20
-6.41173399949733
30
0
41
1
10
203.816999268821
20
-6.14830719290819
30
0
41
1
10
203.973070901805
20
-5.33601113316911
30
0
41
1
10
204.077118657128
20
-4.7651149623
30
0
41
1
10
204.285214167775
20
-3.59738705051561
30
0
41
1
10
204.389261923098
20
-3.00072895942654
30
0
41
1
10
204.597357433744
20
-1.8128625161234
30
0
41
1
10
204.701405189067
20
-1.22175905043133
30
0
41
1
10
204.831464883221
20
-0.502070685117047
30
0
41
1
10
204.857476822051
20
-0.359074209718841
30
0
41
1
10
204.909500699713
20
-0.0752788701068425
30
0
41
1
10
204.935512638544
20
0.0649071186116998
30
0
41
1
10
205.013548455036
20
0.490438559520754
30
0
41
1
10
205.065572332697
20
0.778551870012507
30
0
41
1
10
205.221643965682
20
1.65220566200102
30
0
41
1
10
205.325691721005
20
2.24727088735173
30
0
41
1
10
205.533787231651
20
3.43588164028421
30
0
41
1
10
205.637834986974
20
4.02930313834352
30
0
41
1
10
205.84593049762
20
5.18244400340083
30
0
41
1
10
205.949978252944
20
5.74197893879352
30
0
41
1
10
206.106049885928
20
6.53143754080318
30
0
41
1
10
206.15807376359
20
6.78629733383184
30
0
41
1
10
206.262121518912
20
7.2757991410997
30
0
41
1
10
206.314145396574
20
7.51043594177278
30
0
41
1
10
206.418193151897
20
7.95635157144918
30
0
41
1
10
206.470217029559
20
8.16762645020512
30
0
41
1
10
206.574264784882
20
8.56432072291372
30
0
41
1
10
206.626288662543
20
8.74973777209343
30
0
41
1
10
206.678312540205
20
8.92134745484145
30
0
0
SPLINE
5
E4
100
AcDbEntity
8
1
62
256
6
ByLayer
370
13
48
1
60
0
100
AcDbSpline
70
4
71
3
72
14
73
10
40
0
40
0
40
0
40
0
40
0.25
40
0.25
40
0.5
40
0.5
40
0.75
40
0.75
40
1
40
1
40
1
40
1
41
1
10
195.7
20
8.6061479609144
30
0
41
1
10
195.790086523864
20
8.93077494253771
30
0
41
1
10
195.880173047728
20
9.21520230753552
30
0
41
1
10
196.060346095456
20
9.6977016861772
30
0
41
1
10
196.15043261932
20
9.89579352501625
30
0
41
1
10
196.330605667048
20
10.2065440178596
30
0
41
1
10
196.420692190913
20
10.3192553337348
30
0
41
1
10
196.600865238641
20
10.4659501919984
30
0
41
1
10
196.690951762505
20
10.5
30
0
41
1
10
196.781038286369
20
10.5
30
0
0
SPLINE
5
E5
100
AcDbEntity
8
1
62
256
6
ByLayer
370
13
48
1
60
0
100
AcDbSpline
70
4
71
3
72
132
73
128
40
0
40
0
40
0
40
0
40
0.0312499999999988
40
0.0312499999999988
40
0.0468749999999981
40
0.0468749999999981
40
0.0624999999999975
40
0.0624999999999975
40
0.0781249999999969
40
0.0781249999999969
40
0.0937499999999963
40
0.0937499999999963
40
0.109374999999996
40
0.109374999999996
40
0.124999999999995
40
0.124999999999995
40
0.140624999999994
40
0.140624999999994
40
0.156249999999994
40
0.156249999999994
40
0.171874999999993
40
0.171874999999993
40
0.187499999999993
40
0.187499999999993
40
0.203124999999992
40
0.203124999999992
40
0.218749999999991
40
0.218749999999991
40
0.24999999999999
40
0.24999999999999
40
0.25781249999999
40
0.25781249999999
40
0.26562499999999
40
0.26562499999999
40
0.28124999999999
40
0.28124999999999
40
0.29687499999999
40
0.29687499999999
40
0.31249999999999
40
0.31249999999999
40
0.328124999999991
40
0.328124999999991
40
0.343749999999991
40
0.343749999999991
40
0.359374999999991
40
0.359374999999991
40
0.374999999999991
40
0.374999999999991
40
0.390624999999991
40
0.390624999999991
40
0.406249999999991
40
0.406249999999991
40
0.421874999999992
40
0.421874999999992
40
0.437499999999992
40
0.437499999999992
40
0.453124999999992
40
0.453124999999992
40
0.468749999999992
40
0.468749999999992
40
0.484374999999992
40
0.484374999999992
40
0.499999999999992
40
0.499999999999992
40
0.515624999999992
40
0.515624999999992
40
0.523437499999992
40
0.523437499999992
40
0.531249999999992
40
0.531249999999992
40
0.562499999999993
40
0.562499999999993
40
0.578124999999993
40
0.578124999999993
40
0.593749999999994
40
0.593749999999994
40
0.609374999999994
40
0.609374999999994
40
0.624999999999994
40
0.624999999999994
40
0.640624999999995
40
0.640624999999995
40
0.656249999999995
40
0.656249999999995
40
0.671874999999995
40
0.671874999999995
40
0.687499999999996
40
0.687499999999996
40
0.703124999999996
40
0.703124999999996
40
0.718749999999997
40
0.718749999999997
40
0.734374999999997
40
0.734374999999997
40
0.749999999999997
40
0.749999999999997
40
0.781249999999998
40
0.781249999999998
40
0.789062499999998
40
0.789062499999998
40
0.796874999999998
40
0.796874999999998
40
0.812499999999998
40
0.812499999999998
40
0.828124999999998
40
0.828124999999998
40
0.843749999999998
40
0.843749999999998
40
0.859374999999998
40
0.859374999999998
40
0.874999999999999
40
0.874999999999999
40
0.890624999999999
40
0.890624999999999
40
0.906249999999999
40
0.906249999999999
40
0.921874999999999
40
0.921874999999999
40
0.937499999999999
40
0.937499999999999
40
0.953124999999999
40
0.953124999999999
40
0.96875
40
0.96875
40
0.984375
40
0.984375
40
1
40
1
40
1
40
1
41
1
10
196.194864289053
20
10.5
30
0
41
1
10
196.304066875003
20
10.5
30
0
41
1
10
196.413269460952
20
10.4498737052431
30
0
41
1
10
196.577073339876
20
10.2859305675284
30
0
41
1
10
196.631674632851
20
10.2165390203565
30
0
41
1
10
196.740877218801
20
10.0468087232387
30
0
41
1
10
196.795478511776
20
9.94646529214009
30
0
41
1
10
196.904681097725
20
9.71409736835147
30
0
41
1
10
196.9592823907
20
9.58206948601483
30
0
41
1
10
197.068484976649
20
9.28645863707129
30
0
41
1
10
197.123086269624
20
9.12287412001871
30
0
41
1
10
197.232288855573
20
8.76521194260764
30
0
41
1
10
197.286890148548
20
8.57113494837671
30
0
41
1
10
197.396092734498
20
8.15450024190247
30
0
41
1
10
197.450694027472
20
7.93194552642203
30
0
41
1
10
197.559896613422
20
7.46126349825965
30
0
41
1
10
197.614497906397
20
7.21314131571404
30
0
41
1
10
197.723700492346
20
6.69500518823631
30
0
41
1
10
197.778301785321
20
6.4249980137914
30
0
41
1
10
197.887504371271
20
5.86736475791031
30
0
41
1
10
197.942105664245
20
5.57974637822412
30
0
41
1
10
198.051308250195
20
4.9915355806333
30
0
41
1
10
198.105909543169
20
4.69095099518853
30
0
41
1
10
198.215112129119
20
4.08158850621967
30
0
41
1
10
198.269713422094
20
3.7728178107466
30
0
41
1
10
198.378916008043
20
3.1517712194009
30
0
41
1
10
198.433517301018
20
2.83950131244538
30
0
41
1
10
198.597321179942
20
1.90402693643355
30
0
41
1
10
198.706523765892
20
1.28244930710755
30
0
41
1
10
198.843026998328
20
0.526388771459608
30
0
41
1
10
198.870327644816
20
0.376200195798788
30
0
41
1
10
198.924928937791
20
0.0782363141840676
30
0
41
1
10
198.952229584278
20
-0.0688680896424216
30
0
41
1
10
199.03413152374
20
-0.515661284855156
30
0
41
1
10
199.088732816715
20
-0.818383720320298
30
0
41
1
10
199.197935402664
20
-1.43047264957963
30
0
41
1
10
199.252536695639
20
-1.73983729338497
30
0
41
1
10
199.361739281589
20
-2.3615424152436
30
0
41
1
10
199.416340574563
20
-2.67387935966565
30
0
41
1
10
199.525543160513
20
-3.2973500887218
30
0
41
1
10
199.580144453488
20
-3.60847866343039
30
0
41
1
10
199.689347039437
20
-4.22497428324806
30
0
41
1
10
199.743948332412
20
-4.53033468185964
30
0
41
1
10
199.853150918361
20
-5.1305352312969
30
0
41
1
10
199.907752211336
20
-5.42536778195949
30
0
41
1
10
200.016954797286
20
-5.99976938568045
30
0
41
1
10
200.07155609026
20
-6.27933056998788
30
0
41
1
10
200.18075867621
20
-6.81869653144793
30
0
41
1
10
200.235359969185
20
-7.07849396507604
30
0
41
1
10
200.344562555134
20
-7.57432118877864
30
0
41
1
10
200.399163848109
20
-7.8103449335278
30
0
41
1
10
200.508366434058
20
-8.2552989809908
30
0
41
1
10
200.562967727033
20
-8.46422515335075
30
0
41
1
10
200.672170312983
20
-8.85249853025152
30
0
41
1
10
200.726771605957
20
-9.03184387388009
30
0
41
1
10
200.835974191907
20
-9.35940130691662
30
0
41
1
10
200.890575484882
20
-9.50761384748364
30
0
41
1
10
200.999778070831
20
-9.77230363907879
30
0
41
1
10
201.054379363806
20
-9.8887834010059
30
0
41
1
10
201.163581949755
20
-10.0903121808527
30
0
41
1
10
201.21818324273
20
-10.1753652953164
30
0
41
1
10
201.32738582868
20
-10.3151507794429
30
0
41
1
10
201.381987121654
20
-10.3698882403185
30
0
41
1
10
201.491189707604
20
-10.4508176867747
30
0
41
1
10
201.545791000579
20
-10.4770151578778
30
0
41
1
10
201.627692940041
20
-10.49661194231
30
0
41
1
10
201.654993586528
20
-10.4998643812394
30
0
41
1
10
201.709594879503
20
-10.5001273073691
30
0
41
1
10
201.73689552599
20
-10.4971444061666
30
0
41
1
10
201.873398758427
20
-10.4658640320314
30
0
41
1
10
201.982601344376
20
-10.3881679445646
30
0
41
1
10
202.146405223301
20
-10.1804022299488
30
0
41
1
10
202.201006516275
20
-10.096002168106
30
0
41
1
10
202.310209102225
20
-9.89579507190905
30
0
41
1
10
202.3648103952
20
-9.77998391373654
30
0
41
1
10
202.474012981149
20
-9.51662874259532
30
0
41
1
10
202.528614274124
20
-9.36908217980979
30
0
41
1
10
202.637816860074
20
-9.04283433232521
30
0
41
1
10
202.692418153048
20
-8.86413254951049
30
0
41
1
10
202.801620738998
20
-8.47710382821106
30
0
41
1
10
202.856222031973
20
-8.26877870123369
30
0
41
1
10
202.965424617922
20
-7.82496533825247
30
0
41
1
10
203.020025910897
20
-7.58948118736902
30
0
41
1
10
203.129228496846
20
-7.09465540640505
30
0
41
1
10
203.183829789821
20
-6.83531978688029
30
0
41
1
10
203.293032375771
20
-6.29678719504966
30
0
41
1
10
203.347633668745
20
-6.01759754655765
30
0
41
1
10
203.456836254695
20
-5.44384090035706
30
0
41
1
10
203.511437547669
20
-5.14928176868651
30
0
41
1
10
203.620640133619
20
-4.54952708675248
30
0
41
1
10
203.675241426594
20
-4.24433914995893
30
0
41
1
10
203.784444012543
20
-3.62808946069248
30
0
41
1
10
203.839045305518
20
-3.31703438062061
30
0
41
1
10
203.948247891468
20
-2.69361785549253
30
0
41
1
10
204.002849184442
20
-2.38126165398319
30
0
41
1
10
204.166653063367
20
-1.44852130993163
30
0
41
1
10
204.275855649316
20
-0.832771217327007
30
0
41
1
10
204.412358881753
20
-0.0876079050067062
30
0
41
1
10
204.43965952824
20
0.0595032407485974
30
0
41
1
10
204.494260821215
20
0.357263311987367
30
0
41
1
10
204.521561467702
20
0.507357276157165
30
0
41
1
10
204.603463407164
20
0.960734090859859
30
0
41
1
10
204.658064700139
20
1.2671302589427
30
0
41
1
10
204.767267286089
20
1.88484125828552
30
0
41
1
10
204.821868579064
20
2.19615342756606
30
0
41
1
10
204.931071165013
20
2.81976500478564
30
0
41
1
10
204.985672457988
20
3.13206004407076
30
0
41
1
10
205.094875043937
20
3.75325313946777
30
0
41
1
10
205.149476336912
20
4.06214523716142
30
0
41
1
10
205.258678922862
20
4.67185102590076
30
0
41
1
10
205.313280215836
20
4.97265752917968
30
0
41
1
10
205.422482801786
20
5.561412348956
30
0
41
1
10
205.47708409476
20
5.84935283875404
30
0
41
1
10
205.58628668071
20
6.40772522175857
30
0
41
1
10
205.640887973685
20
6.67814940212671
30
0
41
1
10
205.750090559634
20
7.19720427119177
30
0
41
1
10
205.804691852609
20
7.44582816189791
30
0
41
1
10
205.913894438558
20
7.91758384487784
30
0
41
1
10
205.968495731533
20
8.1407104664155
30
0
41
1
10
206.077698317483
20
8.55854145529179
30
0
41
1
10
206.132299610457
20
8.75324277775175
30
0
41
1
10
206.241502196407
20
9.11218639091373
30
0
41
1
10
206.296103489382
20
9.27642796648973
30
0
41
1
10
206.405306075331
20
9.57336558091532
30
0
41
1
10
206.459907368306
20
9.70606312659763
30
0
41
1
10
206.569109954255
20
9.93976386743216
30
0
41
1
10
206.62371124723
20
10.0407704187061
30
0
41
1
10
206.678312540205
20
10.1262869267228
30
0
0
SPLINE
5
E6
100
AcDbEntity
8
1
62
256
6
ByLayer
370
13
48
1
60
0
100
AcDbSpline
70
4
71
3
72
10
73
6
40
0
40
0
40
0
40
0
40
0.5
40
0.5
40
1
40
1
40
1
40
1
41
1
10
195.7
20
9.96878180789014
30
0
41
1
10
195.797695757705
20
10.1528922831652
30
0
41
1
10
195.895391515411
20
10.2864234349609
30
0
41
1
10
196.090783030821
20
10.4599280115305
30
0
41
1
10
196.188478788526
20
10.5
30
0
41
1
10
196.286174546231
20
10.5
30
0
0
SPLINE
5
E7
100
AcDbEntity
8
1
62
256
6
ByLayer
370
13
48
1
60
0
100
AcDbSpline
70
4
71
3
72
134
73
130
40
0
40
0
40
0
40
0
40
0.015625
40
0.015625
40
0.0312499999999999
40
0.0312499999999999
40
0.0468749999999999
40
0.0468749999999999
40
0.0624999999999999
40
0.0624999999999999
40
0.0781249999999999
40
0.0781249999999999
40
0.0937499999999998
40
0.0937499999999998
40
0.109375
40
0.109375
40
0.125
40
0.125
40
0.140625
40
0.140625
40
0.15625
40
0.15625
40
0.171875
40
0.171875
40
0.1875
40
0.1875
40
0.203125
40
0.203125
40
0.21875
40
0.21875
40
0.234375
40
0.234375
40
0.25
40
0.25
40
0.265625
40
0.265625
40
0.28125
40
0.28125
40
0.296875
40
0.296875
40
0.3125
40
0.3125
40
0.328125
40
0.328125
40
0.34375
40
0.34375
40
0.359375
40
0.359375
40
0.375
40
0.375
40
0.390625
40
0.390625
40
0.40625
40
0.40625
40
0.421875
40
0.421875
40
0.4375
40
0.4375
40
0.453125
40
0.453125
40
0.46875
40
0.46875
40
0.484375
40
0.484375
40
0.5
40
0.5
40
0.515625
40
0.515625
40
0.53125
40
0.53125
40
0.546875
40
0.546875
40
0.5625
40
0.5625
40
0.578125
40
0.578125
40
0.59375
40
0.59375
40
0.609375
40
0.609375
40
0.625
40
0.625
40
0.640625
40
0.640625
40
0.65625
40
0.65625
40
0.671875
40
0.671875
40
0.6875
40
0.6875
40
0.703125
40
0.703125
40
0.71875
40
0.71875
40
0.734375
40
0.734375
40
0.75
40
0.75
40
0.765625
40
0.765625
40
0.78125
40
0.78125
40
0.796875
40
0.796875
40
0.812499999999999
40
0.812499999999999
40
0.828124999999999
40
0.828124999999999
40
0.843749999999999
40
0.843749999999999
40
0.859374999999999
40
0.859374999999999
40
0.874999999999999
40
0.874999999999999
40
0.890624999999999
40
0.890624999999999
40
0.90625
40
0.90625
40
0.921875
40
0.921875
40
0.9375
40
0.9375
40
0.953125
40
0.953125
40
0.96875
40
0.96875
40
0.984375
40
0.984375
40
1
40
1
40
1
40
1
41
1
10
195.700000548916
20
10.5
30
0
41
1
10
195.757179257204
20
10.5
30
0
41
1
10
195.814357965492
20
10.4863118507016
30
0
41
1
10
195.928715382068
20
10.4287412388044
30
0
41
1
10
195.985894090355
20
10.3848518728072
30
0
41
1
10
196.100251506932
20
10.2645609000282
30
0
41
1
10
196.157430215219
20
10.1881525898756
30
0
41
1
10
196.271787631795
20
10.0012256161692
30
0
41
1
10
196.328966340083
20
9.89070124489629
30
0
41
1
10
196.443323756659
20
9.63485323092357
30
0
41
1
10
196.500502464947
20
9.48952571161738
30
0
41
1
10
196.614859881523
20
9.16443867562273
30
0
41
1
10
196.672038589811
20
8.98467783495738
30
0
41
1
10
196.786396006387
20
8.59222825383893
30
0
41
1
10
196.843574714675
20
8.37954118572765
30
0
41
1
10
196.957932131251
20
7.92387623179229
30
0
41
1
10
197.015110839539
20
7.68090305302877
30
0
41
1
10
197.129468256115
20
7.16833996696445
30
0
41
1
10
197.186646964403
20
6.89875738772486
30
0
41
1
10
197.301004380979
20
6.33750402435106
30
0
41
1
10
197.358183089267
20
6.04584238035571
30
0
41
1
10
197.472540505842
20
5.44556334115089
30
0
41
1
10
197.52971921413
20
5.13695584443639
30
0
41
1
10
197.644076630707
20
4.50823164713464
30
0
41
1
10
197.701255338994
20
4.18812450699969
30
0
41
1
10
197.81561275557
20
3.54186555706579
30
0
41
1
10
197.872791463858
20
3.21572202714913
30
0
41
1
10
197.987148880434
20
2.56260175818821
30
0
41
1
10
198.044327588722
20
2.23563137017578
30
0
41
1
10
198.158685005298
20
1.58559409555755
30
0
41
1
10
198.215863713586
20
1.26253133463644
30
0
41
1
10
198.330221130162
20
0.624413296980947
30
0
41
1
10
198.38739983845
20
0.309359952824195
30
0
41
1
10
198.501757255026
20
-0.309358467899955
30
0
41
1
10
198.558935963314
20
-0.624411778217166
30
0
41
1
10
198.67329337989
20
-1.26252979043363
30
0
41
1
10
198.730472088178
20
-1.58559254163683
30
0
41
1
10
198.844829504754
20
-2.23562980391756
30
0
41
1
10
198.902008213042
20
-2.56260018931405
30
0
41
1
10
199.016365629618
20
-3.21572046104589
30
0
41
1
10
199.073544337906
20
-3.54186399635287
30
0
41
1
10
199.187901754482
20
-4.18812296566952
30
0
41
1
10
199.245080462769
20
-4.50823011979966
30
0
41
1
10
199.359437879345
20
-5.13695435389505
30
0
41
1
10
199.416616587633
20
-5.44556187340939
30
0
41
1
10
199.530974004209
20
-6.0458409667576
30
0
41
1
10
199.588152712497
20
-6.33750264209624
30
0
41
1
10
199.702510129073
20
-6.89875607596329
30
0
41
1
10
199.759688837361
20
-7.16833869435081
30
0
41
1
10
199.874046253937
20
-7.68090186533937
30
0
41
1
10
199.931224962225
20
-7.92387508987554
30
0
41
1
10
200.045582378801
20
-8.37954014045232
30
0
41
1
10
200.102761087089
20
-8.59222725942769
30
0
41
1
10
200.217118503665
20
-8.98467694561035
30
0
41
1
10
200.274297211953
20
-9.1644378404709
30
0
41
1
10
200.388654628529
20
-9.48952498635114
30
0
41
1
10
200.445833336817
20
-9.63485256134317
30
0
41
1
10
200.560190753393
20
-9.89070068640592
30
0
41
1
10
200.617369461681
20
-10.0012251130794
30
0
41
1
10
200.731726878257
20
-10.1881521957157
30
0
41
1
10
200.788905586545
20
-10.2645605593953
30
0
41
1
10
200.90326300312
20
-10.3848516360432
30
0
41
1
10
200.960441711408
20
-10.4287410523814
30
0
41
1
10
201.074799127985
20
-10.4863117607854
30
0
41
1
10
201.131977836272
20
-10.4999999562499
30
0
41
1
10
201.246335252848
20
-10.5000000437499
30
0
41
1
10
201.303513961136
20
-10.4863119406176
30
0
41
1
10
201.417871377712
20
-10.4287414252272
30
0
41
1
10
201.475050086
20
-10.3848521095709
30
0
41
1
10
201.589407502576
20
-10.2645612406609
30
0
41
1
10
201.646586210864
20
-10.1881529840353
30
0
41
1
10
201.76094362744
20
-10.0012261192587
30
0
41
1
10
201.818122335728
20
-9.89070180338641
30
0
41
1
10
201.932479752304
20
-9.63485390050366
30
0
41
1
10
201.989658460592
20
-9.48952643688335
30
0
41
1
10
202.104015877168
20
-9.16443951077429
30
0
41
1
10
202.161194585456
20
-8.98467872430416
30
0
41
1
10
202.275552002032
20
-8.59222924824994
30
0
41
1
10
202.33273071032
20
-8.37954223100274
30
0
41
1
10
202.447088126895
20
-7.92387737370879
30
0
41
1
10
202.504266835183
20
-7.68090424071798
30
0
41
1
10
202.61862425176
20
-7.16834123957793
30
0
41
1
10
202.675802960047
20
-6.89875869948622
30
0
41
1
10
202.790160376623
20
-6.33750540660571
30
0
41
1
10
202.847339084911
20
-6.04584379395365
30
0
41
1
10
202.961696501487
20
-5.44556480889227
30
0
41
1
10
203.018875209775
20
-5.13695733497761
30
0
41
1
10
203.133232626351
20
-4.50823317446955
30
0
41
1
10
203.190411334639
20
-4.18812604832976
30
0
41
1
10
203.304768751215
20
-3.54186711777871
30
0
41
1
10
203.361947459503
20
-3.21572359325231
30
0
41
1
10
203.476304876079
20
-2.56260332706236
30
0
41
1
10
203.533483584367
20
-2.23563293643403
30
0
41
1
10
203.647841000943
20
-1.58559564947834
30
0
41
1
10
203.705019709231
20
-1.2625328788393
30
0
41
1
10
203.819377125807
20
-0.624414815744814
30
0
41
1
10
203.876555834094
20
-0.309361455870317
30
0
41
1
10
203.990913250671
20
0.30935700109751
30
0
41
1
10
204.048091958959
20
0.624410259453441
30
0
41
1
10
204.162449375534
20
1.26252824623089
30
0
41
1
10
204.219628083822
20
1.58559098771613
30
0
41
1
10
204.333985500398
20
2.23562823765934
30
0
41
1
10
204.391164208686
20
2.5625986204399
30
0
41
1
10
204.505521625262
20
3.21571889494265
30
0
41
1
10
204.56270033355
20
3.5418624356399
30
0
41
1
10
204.677057750126
20
4.18812142433933
30
0
41
1
10
204.734236458414
20
4.50822859246463
30
0
41
1
10
204.84859387499
20
5.13695286335363
30
0
41
1
10
204.905772583278
20
5.44556040566778
30
0
41
1
10
205.020129999854
20
6.04583955315937
30
0
41
1
10
205.077308708142
20
6.33750125984125
30
0
41
1
10
205.191666124718
20
6.89875476420156
30
0
41
1
10
205.248844833006
20
7.16833742173696
30
0
41
1
10
205.363202249582
20
7.68090067764973
30
0
41
1
10
205.42038095787
20
7.92387394795858
30
0
41
1
10
205.534738374446
20
8.37953909517674
30
0
41
1
10
205.591917082734
20
8.59222626501617
30
0
41
1
10
205.70627449931
20
8.98467605626306
30
0
41
1
10
205.763453207597
20
9.1644370053188
30
0
41
1
10
205.877810624173
20
9.48952426108463
30
0
41
1
10
205.934989332461
20
9.63485189176254
30
0
41
1
10
206.049346749037
20
9.89070012791527
30
0
41
1
10
206.106525457325
20
10.0012246099893
30
0
41
1
10
206.220882873901
20
10.1881518015555
30
0
41
1
10
206.278061582189
20
10.2645602187621
30
0
41
1
10
206.392418998765
20
10.3848513992789
30
0
41
1
10
206.449597707053
20
10.4287408659582
30
0
41
1
10
206.563955123629
20
10.486311670869
30
0
41
1
10
206.621133831917
20
10.4999999124996
30
0
41
1
10
206.678312540205
20
10.4999999999996
30
0
0
SPLINE
5
E8
100
AcDbEntity
8
1
62
256
6
ByLayer
370
13
48
1
60
0
100
AcDbSpline
70
4
71
3
72
10
73
6
40
0
40
0
40
0
40
0
40
0.5
40
0.5
40
1
40
1
40
1
40
1
41
1
10
206.092139091805
20
10.5
30
0
41
1
10
206.189834666538
20
10.5
30
0
41
1
10
206.287530241272
20
10.4599281623205
30
0
41
1
10
206.482921390738
20
10.2864242590268
30
0
41
1
10
206.580616965472
20
10.1528936306174
30
0
41
1
10
206.678312540205
20
9.96878387678268
30
0
0
SPLINE
5
E9
100
AcDbEntity
8
1
62
256
6
ByLayer
370
13
48
1
60
0
100
AcDbSpline
70
4
71
3
72
8
73
4
40
0
40
0
40
0
40
0
40
1
40
1
40
1
40
1
41
1
10
195.7
20
10.4881547885043
30
0
41
1
10
195.730436935365
20
10.4961248050841
30
0
41
1
10
195.760873870729
20
10.5
30
0
41
1
10
195.791310806093
20
10.5
30
0
0
SPLINE
5
EA
100
AcDbEntity
8
1
62
256
6
ByLayer
370
13
48
1
60
0
100
AcDbSpline
70
4
71
3
72
132
73
128
40
0
40
0
40
0
40
0
40
0.015625
40
0.015625
40
0.03125
40
0.03125
40
0.046875
40
0.046875
40
0.0625
40
0.0625
40
0.078125
40
0.078125
40
0.09375
40
0.09375
40
0.109375
40
0.109375
40
0.125
40
0.125
40
0.140625
40
0.140625
40
0.15625
40
0.15625
40
0.171875
40
0.171875
40
0.1875
40
0.1875
40
0.203125
40
0.203125
40
0.2109375
40
0.2109375
40
0.21875
40
0.21875
40
0.25
40
0.25
40
0.265625
40
0.265625
40
0.28125
40
0.28125
40
0.296875
40
0.296875
40
0.3125
40
0.3125
40
0.328125
40
0.328125
40
0.34375
40
0.34375
40
0.359375
40
0.359375
40
0.375
40
0.375
40
0.390625
40
0.390625
40
0.40625
40
0.40625
40
0.421875
40
0.421875
40
0.4375
40
0.4375
40
0.46875
40
0.46875
40
0.4765625
40
0.4765625
40
0.484375
40
0.484375
40
0.5
40
0.5
40
0.515625
40
0.515625
40
0.53125
40
0.53125
40
0.546875
40
0.546875
40
0.5625
40
0.5625
40
0.578125
40
0.578125
40
0.59375
40
0.59375
40
0.609375
40
0.609375
40
0.625
40
0.625
40
0.640625
40
0.640625
40
0.65625
40
0.65625
40
0.671875
40
0.671875
40
0.6875
40
0.6875
40
0.703125
40
0.703125
40
0.71875
40
0.71875
40
0.734375
40
0.734375
40
0.7421875
40
0.7421875
40
0.75
40
0.75
40
0.78125
40
0.78125
40
0.796875
40
0.796875
40
0.8125
40
0.8125
40
0.828125
40
0.828125
40
0.84375
40
0.84375
40
0.859375
40
0.859375
40
0.875
40
0.875
40
0.890625
40
0.890625
40
0.90625
40
0.90625
40
0.921875
40
0.921875
40
0.9375
40
0.9375
40
0.953125
40
0.953125
40
0.96875
40
0.96875
40
1
40
1
40
1
40
1
41
1
10
195.7
20
10.1262886461432
30
0
41
1
10
195.754601298693
20
10.0407723363603
30
0
41
1
10
195.809202597385
20
9.93976598378197
30
0
41
1
10
195.91840519477
20
9.70606563568654
30
0
41
1
10
195.973006493463
20
9.57336828403544
30
0
41
1
10
196.082209090848
20
9.2764310471166
30
0
41
1
10
196.136810389541
20
9.11218965500191
30
0
41
1
10
196.246012986926
20
8.7532463923975
30
0
41
1
10
196.300614285619
20
8.55854523701933
30
0
41
1
10
196.409816883004
20
8.14071456066415
30
0
41
1
10
196.464418181697
20
7.91758808455313
30
0
41
1
10
196.573620779082
20
7.44583266645495
30
0
41
1
10
196.628222077775
20
7.19720889519476
30
0
41
1
10
196.73742467516
20
6.67815423600447
30
0
41
1
10
196.792025973852
20
6.40773014606077
30
0
41
1
10
196.901228571238
20
5.84935791333251
30
0
41
1
10
196.95582986993
20
5.5614174833872
30
0
41
1
10
197.065032467315
20
4.97266275272992
30
0
41
1
10
197.119633766008
20
4.671856278723
30
0
41
1
10
197.228836363393
20
4.06215051936627
30
0
41
1
10
197.283437662086
20
3.75325842179254
30
0
41
1
10
197.392640259471
20
3.1320653001064
30
0
41
1
10
197.447241558164
20
2.81977023442357
30
0
41
1
10
197.556444155549
20
2.19615858140318
30
0
41
1
10
197.611045454242
20
1.88484636273117
30
0
41
1
10
197.720248051627
20
1.2671352456637
30
0
41
1
10
197.774849350319
20
0.960739009258305
30
0
41
1
10
197.856751298358
20
0.507362081064343
30
0
41
1
10
197.884051947705
20
0.357268077230117
30
0
41
1
10
197.938653246397
20
0.0595079235203855
30
0
41
1
10
197.965953895744
20
-0.0876032325323024
30
0
41
1
10
198.102457142475
20
-0.832766497079291
30
0
41
1
10
198.211659739861
20
-1.44851658494178
30
0
41
1
10
198.375463635938
20
-2.38125698373628
30
0
41
1
10
198.430064934631
20
-2.69361321374055
30
0
41
1
10
198.539267532016
20
-3.31702981726531
30
0
41
1
10
198.593868830709
20
-3.62808494724396
30
0
41
1
10
198.703071428094
20
-4.24433475772415
30
0
41
1
10
198.757672726787
20
-4.54952276582699
30
0
41
1
10
198.866875324172
20
-5.14927761072437
30
0
41
1
10
198.921476622865
20
-5.44383683404791
30
0
41
1
10
199.03067922025
20
-6.01759368177201
30
0
41
1
10
199.085280518943
20
-6.29678344012976
30
0
41
1
10
199.194483116328
20
-6.83531626679678
30
0
41
1
10
199.24908441502
20
-7.09465201128404
30
0
41
1
10
199.358287012405
20
-7.58947805337405
30
0
41
1
10
199.412888311098
20
-7.82496234041056
30
0
41
1
10
199.522090908484
20
-8.26877598248583
30
0
41
1
10
199.576692207176
20
-8.47710125239277
30
0
41
1
10
199.685894804561
20
-8.86413026174941
30
0
41
1
10
199.740496103254
20
-9.04283218968104
30
0
41
1
10
199.849698700639
20
-9.36908032516899
30
0
41
1
10
199.904299999332
20
-9.51662703083218
30
0
41
1
10
200.013502596717
20
-9.77998248153008
30
0
41
1
10
200.06810389541
20
-9.89579377637563
30
0
41
1
10
200.177306492795
20
-10.0960011364372
30
0
41
1
10
200.231907791487
20
-10.1804013254688
30
0
41
1
10
200.395711687565
20
-10.3881674037327
30
0
41
1
10
200.504914284951
20
-10.465863709333
30
0
41
1
10
200.641417531682
20
-10.4971443197801
30
0
41
1
10
200.668718181029
20
-10.500127266365
30
0
41
1
10
200.723319479721
20
-10.4998644277769
30
0
41
1
10
200.750620129067
20
-10.4966120331115
30
0
41
1
10
200.832522077106
20
-10.4770153826058
30
0
41
1
10
200.887123375799
20
-10.4508180023116
30
0
41
1
10
200.996325973184
20
-10.3698887383774
30
0
41
1
10
201.050927271877
20
-10.3151513692116
30
0
41
1
10
201.160129869262
20
-10.1753660669176
30
0
41
1
10
201.214731167955
20
-10.0903130425718
30
0
41
1
10
201.32393376534
20
-9.88878443866213
30
0
41
1
10
201.378535064032
20
-9.77230476254809
30
0
41
1
10
201.487737661418
20
-9.5076151355168
30
0
41
1
10
201.54233896011
20
-9.35940267369361
30
0
41
1
10
201.651541557496
20
-9.03184538846659
30
0
41
1
10
201.706142856188
20
-8.85250011389698
30
0
41
1
10
201.815345453574
20
-8.46422686317723
30
0
41
1
10
201.869946752266
20
-8.25530074793369
30
0
41
1
10
201.979149349651
20
-7.81034680105518
30
0
41
1
10
202.033750648344
20
-7.5743230997704
30
0
41
1
10
202.142953245729
20
-7.07849594832692
30
0
41
1
10
202.197554544422
20
-6.81869854349239
30
0
41
1
10
202.306757141807
20
-6.27933262469287
30
0
41
1
10
202.361358440499
20
-5.99977145425393
30
0
41
1
10
202.470561037885
20
-5.42536986384508
30
0
41
1
10
202.525162336577
20
-5.13053731262994
30
0
41
1
10
202.634364933963
20
-4.53033674884168
30
0
41
1
10
202.688966232655
20
-4.22497633643709
30
0
41
1
10
202.798168830041
20
-3.60848067750163
30
0
41
1
10
202.852770128733
20
-3.29735207747441
30
0
41
1
10
202.961972726119
20
-2.6738812883205
30
0
41
1
10
203.016574024811
20
-2.36154430912538
30
0
41
1
10
203.125776622196
20
-1.73983911050129
30
0
41
1
10
203.180377920889
20
-1.4304744247089
30
0
41
1
10
203.289580518274
20
-0.818385406494855
30
0
41
1
10
203.344181816967
20
-0.515662924066135
30
0
41
1
10
203.426083765006
20
-0.0688696562442033
30
0
41
1
10
203.453384414352
20
0.0782347623673445
30
0
41
1
10
203.507985713045
20
0.376198658527841
30
0
41
1
10
203.535286362391
20
0.526387242313945
30
0
41
1
10
203.671789609122
20
1.28244782289167
30
0
41
1
10
203.780992206508
20
1.90402550215327
30
0
41
1
10
203.944796102586
20
2.83949997235661
30
0
41
1
10
203.999397401278
20
3.15176991387909
30
0
41
1
10
204.108599998663
20
3.77281657985398
30
0
41
1
10
204.163201297356
20
4.08158731538816
30
0
41
1
10
204.272403894741
20
4.6909498887627
30
0
41
1
10
204.327005193434
20
4.99153451854951
30
0
41
1
10
204.436207790819
20
5.57974540758411
30
0
41
1
10
204.490809089512
20
5.86736383436826
30
0
41
1
10
204.600011686897
20
6.42499718546549
30
0
41
1
10
204.65461298559
20
6.695004408024
30
0
41
1
10
204.763815582975
20
7.21314063092143
30
0
41
1
10
204.818416881667
20
7.46126286076833
30
0
41
1
10
204.927619479053
20
7.93194498095267
30
0
41
1
10
204.982220777745
20
8.15449974114952
30
0
41
1
10
205.091423375131
20
8.57113453289614
30
0
41
1
10
205.146024673823
20
8.76521156767981
30
0
41
1
10
205.255227271208
20
9.12287382076482
30
0
41
1
10
205.309828569901
20
9.28645837293678
30
0
41
1
10
205.419031167286
20
9.58206928580188
30
0
41
1
10
205.473632465979
20
9.71409719694043
30
0
41
1
10
205.582835063364
20
9.94646517154706
30
0
41
1
10
205.637436362057
20
10.0468086246629
30
0
41
1
10
205.746638959442
20
10.2165389589642
30
0
41
1
10
205.801240258134
20
10.2859305213046
30
0
41
1
10
205.965044154213
20
10.4498736946815
30
0
41
1
10
206.074246751598
20
10.5
30
0
41
1
10
206.183449348983
20
10.5
30
0
0
SPLINE
5
EB
100
AcDbEntity
8
1
62
256
6
ByLayer
370
13
48
1
60
0
100
AcDbSpline
70
4
71
3
72
14
73
10
40
0
40
0
40
0
40
0
40
0.25
40
0.25
40
0.5
40
0.5
40
0.75
40
0.75
40
1
40
1
40
1
40
1
41
1
10
205.597275351667
20
10.5
30
0
41
1
10
205.687361784045
20
10.5
30
0
41
1
10
205.777448216424
20
10.4659502614179
30
0
41
1
10
205.95762108118
20
10.319255711236
30
0
41
1
10
206.047707513558
20
10.2065446343536
30
0
41
1
10
206.227880378314
20
9.89579480198748
30
0
41
1
10
206.317966810693
20
9.69770338485031
30
0
41
1
10
206.498139675449
20
9.21520501881113
30
0
41
1
10
206.588226107827
20
8.93077824468872
30
0
41
1
10
206.678312540205
20
8.60615191694964
30
0
0
SPLINE
5
EC
100
AcDbEntity
8
1
62
256
6
ByLayer
370
13
48
1
60
0
100
AcDbSpline
70
4
71
3
72
104
73
100
40
0
40
0
40
0
40
0
40
0.0156249999999995
40
0.0156249999999995
40
0.031249999999999
40
0.031249999999999
40
0.0468749999999985
40
0.0468749999999985
40
0.0624999999999979
40
0.0624999999999979
40
0.0937499999999963
40
0.0937499999999963
40
0.124999999999995
40
0.124999999999995
40
0.156249999999993
40
0.156249999999993
40
0.171874999999993
40
0.171874999999993
40
0.179687499999992
40
0.179687499999992
40
0.187499999999991
40
0.187499999999991
40
0.218749999999989
40
0.218749999999989
40
0.249999999999986
40
0.249999999999986
40
0.281249999999983
40
0.281249999999983
40
0.296874999999982
40
0.296874999999982
40
0.312499999999981
40
0.312499999999981
40
0.32812499999998
40
0.32812499999998
40
0.343749999999979
40
0.343749999999979
40
0.374999999999977
40
0.374999999999977
40
0.406249999999975
40
0.406249999999975
40
0.437499999999973
40
0.437499999999973
40
0.445312499999973
40
0.445312499999973
40
0.449218749999972
40
0.449218749999972
40
0.453124999999972
40
0.453124999999972
40
0.468749999999973
40
0.468749999999973
40
0.499999999999976
40
0.499999999999976
40
0.531249999999978
40
0.531249999999978
40
0.56249999999998
40
0.56249999999998
40
0.578124999999981
40
0.578124999999981
40
0.593749999999982
40
0.593749999999982
40
0.609374999999983
40
0.609374999999983
40
0.624999999999984
40
0.624999999999984
40
0.656249999999986
40
0.656249999999986
40
0.687499999999988
40
0.687499999999988
40
0.71874999999999
40
0.71874999999999
40
0.72265624999999
40
0.72265624999999
40
0.726562499999991
40
0.726562499999991
40
0.734374999999991
40
0.734374999999991
40
0.749999999999992
40
0.749999999999992
40
0.781249999999993
40
0.781249999999993
40
0.812499999999994
40
0.812499999999994
40
0.828124999999995
40
0.828124999999995
40
0.843749999999995
40
0.843749999999995
40
0.859374999999996
40
0.859374999999996
40
0.874999999999996
40
0.874999999999996
40
0.890624999999997
40
0.890624999999997
40
0.906249999999998
40
0.906249999999998
40
0.937499999999998
40
0.937499999999998
40
0.968749999999999
40
0.968749999999999
40
1
40
1
40
1
40
1
41
1
10
195.7
20
8.921351076224
30
0
41
1
10
195.752023883379
20
8.74974156840929
30
0
41
1
10
195.804047766759
20
8.56432468629936
30
0
41
1
10
195.908095533518
20
8.16763072723617
30
0
41
1
10
195.960119416897
20
7.95635599504533
30
0
41
1
10
196.064167183656
20
7.51044063402554
30
0
41
1
10
196.116191067035
20
7.27580395543623
30
0
41
1
10
196.220238833794
20
6.78630236497548
30
0
41
1
10
196.272262717173
20
6.53144266666615
30
0
41
1
10
196.428334367312
20
5.741984305355
30
0
41
1
10
196.53238213407
20
5.18244947184533
30
0
41
1
10
196.740477667588
20
4.02930869628546
30
0
41
1
10
196.844525434347
20
3.43588718606065
30
0
41
1
10
197.052620967864
20
2.24727631521182
30
0
41
1
10
197.156668734623
20
1.65221098441413
30
0
41
1
10
197.312740384762
20
0.778556986592974
30
0
41
1
10
197.364764268141
20
0.490443599588502
30
0
41
1
10
197.44280009321
20
0.0649120349386294
30
0
41
1
10
197.4688120349
20
-0.0752739671737004
30
0
41
1
10
197.520835918279
20
-0.359069287316032
30
0
41
1
10
197.546847859969
20
-0.502065754948006
30
0
41
1
10
197.676907568417
20
-1.22175409193025
30
0
41
1
10
197.780955335176
20
-1.81285756887695
30
0
41
1
10
197.989050868694
20
-3.00072411491871
30
0
41
1
10
198.093098635453
20
-3.59738229765395
30
0
41
1
10
198.30119416897
20
-4.76511047444151
30
0
41
1
10
198.405241935729
20
-5.33600681870627
30
0
41
1
10
198.561313585867
20
-6.14830318993512
30
0
41
1
10
198.613337469246
20
-6.41173010880198
30
0
41
1
10
198.717385236005
20
-6.92009046188892
30
0
41
1
10
198.769409119385
20
-7.16501823925339
30
0
41
1
10
198.873456886144
20
-7.63297491418061
30
0
41
1
10
198.925480769523
20
-7.85599919151198
30
0
41
1
10
199.029528536282
20
-8.27732298876884
30
0
41
1
10
199.081552419661
20
-8.47561935012556
30
0
41
1
10
199.237624069799
20
-9.0302290484548
30
0
41
1
10
199.341671836558
20
-9.34586603089247
30
0
41
1
10
199.549767370076
20
-9.86120389748686
30
0
41
1
10
199.653815136835
20
-10.0609621489292
30
0
41
1
10
199.861910670352
20
-10.3487831269537
30
0
41
1
10
199.965958437111
20
-10.4369684017096
30
0
41
1
10
200.096018145559
20
-10.4857831193559
30
0
41
1
10
200.122030087249
20
-10.4924919837821
30
0
41
1
10
200.161047999784
20
-10.4981726417411
30
0
41
1
10
200.174053970629
20
-10.4993358968795
30
0
41
1
10
200.200065912318
20
-10.5002364338291
30
0
41
1
10
200.213071883163
20
-10.4999789450345
30
0
41
1
10
200.278101737387
20
-10.495106766409
30
0
41
1
10
200.330125620767
20
-10.4796877928829
30
0
41
1
10
200.486197270905
20
-10.3957350218848
30
0
41
1
10
200.590245037664
20
-10.289247461889
30
0
41
1
10
200.798340571182
20
-9.96332897068794
30
0
41
1
10
200.90238833794
20
-9.74378286640751
30
0
41
1
10
201.110483871458
20
-9.18927338812682
30
0
41
1
10
201.214531638217
20
-8.854268525658
30
0
41
1
10
201.370603288355
20
-8.27253302672378
30
0
41
1
10
201.422627171734
20
-8.06551616806595
30
0
41
1
10
201.526674938493
20
-7.62764187777032
30
0
41
1
10
201.578698821873
20
-7.39678814129755
30
0
41
1
10
201.682746588631
20
-6.9142766714032
30
0
41
1
10
201.734770472011
20
-6.66262396753231
30
0
41
1
10
201.83881823877
20
-6.14208186594669
30
0
41
1
10
201.890842122149
20
-5.87319835839929
30
0
41
1
10
202.046913772287
20
-5.04659118011898
30
0
41
1
10
202.150961539046
20
-4.46893058333509
30
0
41
1
10
202.359057072564
20
-3.29330629539177
30
0
41
1
10
202.463104839322
20
-2.69550691503812
30
0
41
1
10
202.67120037284
20
-1.51018989809117
30
0
41
1
10
202.775248139599
20
-0.922763407540117
30
0
41
1
10
202.892301877202
20
-0.281161083415469
30
0
41
1
10
202.905307848047
20
-0.210134330159889
30
0
41
1
10
202.931319789737
20
-0.0686432824367955
30
0
41
1
10
202.944325760582
20
0.0016258146477526
30
0
41
1
10
202.983343673116
20
0.213322120070444
30
0
41
1
10
203.009355614806
20
0.355601956894049
30
0
41
1
10
203.087391439875
20
0.785431923067762
30
0
41
1
10
203.139415323255
20
1.07598794862125
30
0
41
1
10
203.295486973393
20
1.95544463127536
30
0
41
1
10
203.399534740152
20
2.55232894303816
30
0
41
1
10
203.607630273669
20
3.73935324504529
30
0
41
1
10
203.711678040428
20
4.32935642286949
30
0
41
1
10
203.867749690566
20
5.18480238696301
30
0
41
1
10
203.919773573946
20
5.46500211253081
30
0
41
1
10
204.023821340704
20
6.01142005003319
30
0
41
1
10
204.075845224084
20
6.27763208346457
30
0
41
1
10
204.179892990842
20
6.79219118550517
30
0
41
1
10
204.231916874222
20
7.0405324724297
30
0
41
1
10
204.335964640981
20
7.51586050184014
30
0
41
1
10
204.38798852436
20
7.74284241278235
30
0
41
1
10
204.492036291119
20
8.17251728531056
30
0
41
1
10
204.544060174498
20
8.37520681595157
30
0
41
1
10
204.648107941257
20
8.75404325743565
30
0
41
1
10
204.700131824637
20
8.93018841463626
30
0
41
1
10
204.856203474775
20
9.41656854067529
30
0
41
1
10
204.960251241534
20
9.6843674163479
30
0
41
1
10
205.168346775051
20
10.1044412823302
30
0
41
1
10
205.27239454181
20
10.2568069125059
30
0
41
1
10
205.480490075328
20
10.454519339107
30
0
41
1
10
205.584537842086
20
10.5
30
0
41
1
10
205.688585608845
20
10.5
30
0
0
SPLINE
5
ED
100
AcDbEntity
8
1
62
256
6
ByLayer
370
13
48
1
60
0
100
AcDbSpline
70
4
71
3
72
22
73
18
40
0
40
0
40
0
40
0
40
0.125
40
0.125
40
0.25
40
0.25
40
0.375
40
0.375
40
0.5
40
0.5
40
0.625
40
0.625
40
0.75
40
0.75
40
0.875
40
0.875
40
1
40
1
40
1
40
1
41
1
10
205.10241161153
20
10.5
30
0
41
1
10
205.168074150225
20
10.5
30
0
41
1
10
205.23373668892
20
10.4819408624113
30
0
41
1
10
205.365061766309
20
10.4054860924122
30
0
41
1
10
205.430724305004
20
10.3470766620598
30
0
41
1
10
205.562049382393
20
10.1866226938071
30
0
41
1
10
205.627711921088
20
10.0845652088132
30
0
41
1
10
205.759036998478
20
9.83487049166976
30
0
41
1
10
205.824699537173
20
9.68722331260793
30
0
41
1
10
205.956024614562
20
9.34611053835579
30
0
41
1
10
206.021687153257
20
9.1526400991315
30
0
41
1
10
206.153012230647
20
8.72157785503853
30
0
41
1
10
206.218674769341
20
8.48398780719461
30
0
41
1
10
206.349999846731
20
7.96837038669312
30
0
41
1
10
206.415662385426
20
7.69035176272456
30
0
41
1
10
206.546987462815
20
7.09939089087609
30
0
41
1
10
206.61265000151
20
6.78646342716314
30
0
41
1
10
206.678312540205
20
6.45956681774842
30
0
0
SPLINE
5
EE
100
AcDbEntity
8
1
62
256
6
ByLayer
370
13
48
1
60
0
100
AcDbSpline
70
4
71
3
72
80
73
76
40
0
40
0
40
0
40
0
40
0.0312499999999994
40
0.0312499999999994
40
0.0624999999999988
40
0.0624999999999988
40
0.0937499999999982
40
0.0937499999999982
40
0.124999999999998
40
0.124999999999998
40
0.132812499999997
40
0.132812499999997
40
0.140624999999997
40
0.140624999999997
40
0.156249999999997
40
0.156249999999997
40
0.187499999999997
40
0.187499999999997
40
0.218749999999998
40
0.218749999999998
40
0.249999999999998
40
0.249999999999998
40
0.281249999999999
40
0.281249999999999
40
0.312499999999999
40
0.312499999999999
40
0.34375
40
0.34375
40
0.375000000000001
40
0.375000000000001
40
0.406250000000001
40
0.406250000000001
40
0.421875000000002
40
0.421875000000002
40
0.437500000000002
40
0.437500000000002
40
0.468750000000003
40
0.468750000000003
40
0.500000000000003
40
0.500000000000003
40
0.531250000000004
40
0.531250000000004
40
0.562500000000004
40
0.562500000000004
40
0.593750000000005
40
0.593750000000005
40
0.625000000000005
40
0.625000000000005
40
0.656250000000006
40
0.656250000000006
40
0.687500000000006
40
0.687500000000006
40
0.703125000000006
40
0.703125000000006
40
0.710937500000006
40
0.710937500000006
40
0.718750000000006
40
0.718750000000006
40
0.750000000000005
40
0.750000000000005
40
0.781250000000004
40
0.781250000000004
40
0.812500000000004
40
0.812500000000004
40
0.843750000000003
40
0.843750000000003
40
0.875000000000002
40
0.875000000000002
40
0.906250000000002
40
0.906250000000002
40
0.937500000000001
40
0.937500000000001
40
0.968750000000001
40
0.968750000000001
40
1
40
1
40
1
40
1
41
1
10
195.7
20
6.90480761720013
30
0
41
1
10
195.798892936132
20
6.43310212749665
30
0
41
1
10
195.897785872265
20
5.92580979529754
30
0
41
1
10
196.09557174453
20
4.86648131867545
30
0
41
1
10
196.194464680662
20
4.31459672384267
30
0
41
1
10
196.392250552926
20
3.19460128284706
30
0
41
1
10
196.491143489059
20
2.62661468789366
30
0
41
1
10
196.688929361324
20
1.50044811374724
30
0
41
1
10
196.787822297456
20
0.942337448150113
30
0
41
1
10
196.911438467622
20
0.263679575363227
30
0
41
1
10
196.936161701655
20
0.128931841039446
30
0
41
1
10
196.985608169721
20
-0.138644122051915
30
0
41
1
10
197.010331403754
20
-0.273490477736203
30
0
41
1
10
197.084501105853
20
-0.680820357602954
30
0
41
1
10
197.133947573919
20
-0.956107414918961
30
0
41
1
10
197.282286978118
20
-1.78962967223239
30
0
41
1
10
197.38117991425
20
-2.35569310809021
30
0
41
1
10
197.578965786515
20
-3.48518713354829
30
0
41
1
10
197.677858722647
20
-4.04851883226269
30
0
41
1
10
197.875644594912
20
-5.14487107727376
30
0
41
1
10
197.974537531045
20
-5.67774851688606
30
0
41
1
10
198.172323403309
20
-6.68502606149079
30
0
41
1
10
198.271216339442
20
-7.15927821720709
30
0
41
1
10
198.469002211707
20
-8.02518908512323
30
0
41
1
10
198.567895147839
20
-8.41674352920523
30
0
41
1
10
198.765681020104
20
-9.10116015535746
30
0
41
1
10
198.864573956236
20
-9.39399404227387
30
0
41
1
10
199.062359828501
20
-9.87497428436851
30
0
41
1
10
199.161252764633
20
-10.0631680713922
30
0
41
1
10
199.359038636898
20
-10.3386560548985
30
0
41
1
10
199.45793157303
20
-10.4260452275278
30
0
41
1
10
199.606270977229
20
-10.4899352972147
30
0
41
1
10
199.655717445295
20
-10.5000819937801
30
0
41
1
10
199.754610381427
20
-10.4999170080994
30
0
41
1
10
199.804056849493
20
-10.48959752246
30
0
41
1
10
199.952396253692
20
-10.4251680791889
30
0
41
1
10
200.051289189824
20
-10.3373910374043
30
0
41
1
10
200.249075062089
20
-10.0610947244479
30
0
41
1
10
200.347967998221
20
-9.87248059334559
30
0
41
1
10
200.545753870486
20
-9.39066268282207
30
0
41
1
10
200.644646806619
20
-9.09741173366041
30
0
41
1
10
200.842432678884
20
-8.41220555958679
30
0
41
1
10
200.941325615016
20
-8.02027895899346
30
0
41
1
10
201.139111487281
20
-7.15370660030067
30
0
41
1
10
201.238004423413
20
-6.67916537024809
30
0
41
1
10
201.435790295677
20
-5.67141805230145
30
0
41
1
10
201.53468323181
20
-5.13835999383204
30
0
41
1
10
201.732469104075
20
-4.04176229057398
30
0
41
1
10
201.831362040207
20
-3.47836563945114
30
0
41
1
10
202.029147912472
20
-2.34884729111786
30
0
41
1
10
202.128040848604
20
-1.78282425873874
30
0
41
1
10
202.276380252803
20
-0.949425035639337
30
0
41
1
10
202.325826720869
20
-0.67418932339362
30
0
41
1
10
202.399996422968
20
-0.2669494951557
30
0
41
1
10
202.424719657001
20
-0.132152305576398
30
0
41
1
10
202.474166125068
20
0.135389526016922
30
0
41
1
10
202.498889359101
20
0.270219796083325
30
0
41
1
10
202.622505529266
20
0.949027929944094
30
0
41
1
10
202.721398465398
20
1.50722393172222
30
0
41
1
10
202.919184337663
20
2.63346622888369
30
0
41
1
10
203.018077273796
20
3.20144296974124
30
0
41
1
10
203.21586314606
20
4.32130646737124
30
0
41
1
10
203.314756082193
20
4.87306878957557
30
0
41
1
10
203.512541954457
20
5.93203829569578
30
0
41
1
10
203.61143489059
20
6.43909390793166
30
0
41
1
10
203.809220762854
20
7.38193338076201
30
0
41
1
10
203.908113698987
20
7.81758540695688
30
0
41
1
10
204.105899571252
20
8.59709141070189
30
0
41
1
10
204.204792507384
20
8.94087679613099
30
0
41
1
10
204.402578379649
20
9.52547147711834
30
0
41
1
10
204.501471315781
20
9.76629231339567
30
0
41
1
10
204.699257188046
20
10.1440166561034
30
0
41
1
10
204.798150124178
20
10.2809958526125
30
0
41
1
10
204.995935996443
20
10.4589352286704
30
0
41
1
10
205.094828932575
20
10.5
30
0
41
1
10
205.193721868708
20
10.5
30
0
0
SPLINE
5
EF
100
AcDbEntity
8
1
62
256
6
ByLayer
370
13
48
1
60
0
100
AcDbSpline
70
4
71
3
72
22
73
18
40
0
40
0
40
0
40
0
40
0.125
40
0.125
40
0.25
40
0.25
40
0.375
40
0.375
40
0.5
40
0.5
40
0.625
40
0.625
40
0.75
40
0.75
40
0.875
40
0.875
40
1
40
1
40
1
40
1
41
1
10
204.607547871392
20
10.5
30
0
41
1
10
204.693829732593
20
10.5
30
0
41
1
10
204.780111593793
20
10.4687752443743
30
0
41
1
10
204.952675316194
20
10.3345980494212
30
0
41
1
10
205.038957177395
20
10.2315920256711
30
0
41
1
10
205.211520899796
20
9.94767501413011
30
0
41
1
10
205.297802760996
20
9.76671997193097
30
0
41
1
10
205.470366483397
20
9.32544736934921
30
0
41
1
10
205.556648344598
20
9.06510969612731
30
0
41
1
10
205.729212066999
20
8.46935136454593
30
0
41
1
10
205.8154939282
20
8.13394467175033
30
0
41
1
10
205.988057650601
20
7.39818897242711
30
0
41
1
10
206.074339511801
20
6.99788827790877
30
0
41
1
10
206.246903234202
20
6.14740179077364
30
0
41
1
10
206.333185095403
20
5.69728753919637
30
0
41
1
10
206.505748817804
20
4.76529686107165
30
0
41
1
10
206.592030679004
20
4.28349690504331
30
0
41
1
10
206.678312540205
20
3.79526291384599
30
0
0
SPLINE
5
F0
100
AcDbEntity
8
1
62
256
6
ByLayer
370
13
48
1
60
0
100
AcDbSpline
70
4
71
3
72
85
73
81
40
0
40
0
40
0
40
0
40
0.0312499999999971
40
0.0312499999999971
40
0.0624999999999942
40
0.0624999999999942
40
0.0781249999999928
40
0.0781249999999928
40
0.0820312499999927
40
0.0820312499999927
40
0.0859374999999926
40
0.0859374999999926
40
0.0937499999999919
40
0.0937499999999919
40
0.124999999999989
40
0.124999999999989
40
0.156249999999986
40
0.156249999999986
40
0.187499999999983
40
0.187499999999983
40
0.21874999999998
40
0.21874999999998
40
0.249999999999977
40
0.249999999999977
40
0.281249999999974
40
0.281249999999974
40
0.312499999999971
40
0.312499999999971
40
0.343749999999968
40
0.343749999999968
40
0.374999999999965
40
0.374999999999965
40
0.382812499999965
40
0.386718749999964
40
0.386718749999964
40
0.390624999999964
40
0.390624999999964
40
0.406249999999965
40
0.406249999999965
40
0.437499999999967
40
0.437499999999967
40
0.468749999999969
40
0.468749999999969
40
0.499999999999971
40
0.499999999999971
40
0.531249999999973
40
0.531249999999973
40
0.562499999999975
40
0.562499999999975
40
0.593749999999976
40
0.593749999999976
40
0.624999999999978
40
0.624999999999978
40
0.65624999999998
40
0.65624999999998
40
0.687499999999982
40
0.687499999999982
40
0.695312499999982
40
0.695312499999982
40
0.703124999999983
40
0.703124999999983
40
0.718749999999984
40
0.718749999999984
40
0.749999999999986
40
0.749999999999986
40
0.781249999999988
40
0.781249999999988
40
0.812499999999989
40
0.812499999999989
40
0.843749999999991
40
0.843749999999991
40
0.874999999999993
40
0.874999999999993
40
0.906249999999995
40
0.906249999999995
40
0.937499999999996
40
0.937499999999996
40
0.968749999999998
40
0.968749999999998
40
1
40
1
40
1
40
1
41
1
10
195.7
20
4.30913443231748
30
0
41
1
10
195.793738105506
20
3.784908670031
30
0
41
1
10
195.887476211012
20
3.24928793202966
30
0
41
1
10
196.074952422024
20
2.17832248570619
30
0
41
1
10
196.16869052753
20
1.64304818404642
30
0
41
1
10
196.309297685789
20
0.855058465220253
30
0
41
1
10
196.356166738542
20
0.594847126307712
30
0
41
1
10
196.414753054483
20
0.273879417481084
30
0
41
1
10
196.426470317671
20
0.209899887446227
30
0
41
1
10
196.449904844047
20
0.082396370881753
30
0
41
1
10
196.461622107236
20
0.0190167630693736
30
0
41
1
10
196.496773896801
20
-0.17149954584184
30
0
41
1
10
196.520208423177
20
-0.299450399334404
30
0
41
1
10
196.63738105506
20
-0.94335503785743
30
0
41
1
10
196.731119160565
20
-1.47196033180225
30
0
41
1
10
196.918595371577
20
-2.53878285769542
30
0
41
1
10
197.012333477083
20
-3.07694862842527
30
0
41
1
10
197.199809688095
20
-4.14104370832743
30
0
41
1
10
197.293547793601
20
-4.66688094279223
30
0
41
1
10
197.481024004613
20
-5.68216462421952
30
0
41
1
10
197.574762110119
20
-6.17149588324409
30
0
41
1
10
197.762238321131
20
-7.09050155293667
30
0
41
1
10
197.855976426637
20
-7.52006898010038
30
0
41
1
10
198.043452637649
20
-8.30063148589846
30
0
41
1
10
198.137190743154
20
-8.65155983022075
30
0
41
1
10
198.324666954166
20
-9.26300141121749
30
0
41
1
10
198.418405059672
20
-9.52350539873828
30
0
41
1
10
198.605881270684
20
-9.95051471394837
30
0
41
1
10
198.69961937619
20
-10.117063492017
30
0
41
1
10
198.887095587202
20
-10.3602862869117
30
0
41
1
10
198.980833692708
20
-10.4370350670687
30
0
41
1
10
199.09800632459
20
-10.4830277099713
30
0
41
1
10
199.133158114155
20
-10.493096075996
30
0
41
1
10
199.16830990372
20
-10.4977862898567
30
0
41
1
10
199.191744430096
20
-10.499743294746
30
0
41
1
10
199.203461693285
20
-10.500137363053
30
0
41
1
10
199.262048009226
20
-10.4992412251971
30
0
41
1
10
199.308917061979
20
-10.489298847856
30
0
41
1
10
199.449524220237
20
-10.4294464256792
30
0
41
1
10
199.543262325744
20
-10.3493560722378
30
0
41
1
10
199.730738536755
20
-10.0991637769159
30
0
41
1
10
199.824476642261
20
-9.92898780014099
30
0
41
1
10
200.011952853273
20
-9.49470733838672
30
0
41
1
10
200.105690958779
20
-9.23056112642257
30
0
41
1
10
200.293167169791
20
-8.61213921533493
30
0
41
1
10
200.386905275297
20
-8.25787505568394
30
0
41
1
10
200.574381486309
20
-7.47125478432727
30
0
41
1
10
200.668119591815
20
-7.03896743282075
30
0
41
1
10
200.855595802827
20
-6.11536623383586
30
0
41
1
10
200.949333908333
20
-5.62416033810357
30
0
41
1
10
201.136810119344
20
-4.60607520141824
30
0
41
1
10
201.23054822485
20
-4.07931077602225
30
0
41
1
10
201.418024435862
20
-3.01427627583655
30
0
41
1
10
201.511762541368
20
-2.47609690666763
30
0
41
1
10
201.69923875238
20
-1.41002088226571
30
0
41
1
10
201.792976857886
20
-0.882173997223617
30
0
41
1
10
201.910149489768
20
-0.239575264774146
30
0
41
1
10
201.933584016145
20
-0.112042969090709
30
0
41
1
10
201.980453068898
20
0.141684862042069
30
0
41
1
10
202.003887595275
20
0.269496877090234
30
0
41
1
10
202.074191174404
20
0.655449970691222
30
0
41
1
10
202.121060227157
20
0.916118391890052
30
0
41
1
10
202.261667385416
20
1.70522829807848
30
0
41
1
10
202.355405490922
20
2.24091267937933
30
0
41
1
10
202.542881701934
20
3.31184926887371
30
0
41
1
10
202.636619807439
20
3.84702944661464
30
0
41
1
10
202.824096018452
20
4.89365504849928
30
0
41
1
10
202.917834123957
20
5.4049940505538
30
0
41
1
10
203.105310334969
20
6.37977203141946
30
0
41
1
10
203.199048440475
20
6.84309542175993
30
0
41
1
10
203.386524651487
20
7.70025655660706
30
0
41
1
10
203.480262756993
20
8.09400325754308
30
0
41
1
10
203.667738968005
20
8.79623605953029
30
0
41
1
10
203.761477073511
20
9.10468223775095
30
0
41
1
10
203.948953284523
20
9.62840232550113
30
0
41
1
10
204.042691390028
20
9.84369418403085
30
0
41
1
10
204.23016760104
20
10.1813912130322
30
0
41
1
10
204.323905706546
20
10.3038581110933
30
0
41
1
10
204.511381917558
20
10.4631222408392
30
0
41
1
10
204.605120023064
20
10.5
30
0
41
1
10
204.69885812857
20
10.5
30
0
0
SPLINE
5
F1
100
AcDbEntity
8
1
62
256
6
ByLayer
370
13
48
1
60
0
100
AcDbSpline
70
4
71
3
72
32
73
28
40
0
40
0
40
0
40
0
40
0.125
40
0.125
40
0.250000000000001
40
0.250000000000001
40
0.312500000000001
40
0.312500000000001
40
0.375000000000001
40
0.375000000000001
40
0.437500000000001
40
0.437500000000001
40
0.500000000000001
40
0.500000000000001
40
0.562500000000001
40
0.562500000000001
40
0.625000000000001
40
0.625000000000001
40
0.687500000000001
40
0.687500000000001
40
0.750000000000001
40
0.750000000000001
40
0.812500000000001
40
0.812500000000001
40
0.875
40
0.875
40
1
40
1
40
1
40
1
41
1
10
204.112684131255
20
10.5
30
0
41
1
10
204.219585314961
20
10.5
30
0
41
1
10
204.326486498667
20
10.4519762272764
30
0
41
1
10
204.54028886608
20
10.2428437469151
30
0
41
1
10
204.647190049786
20
10.0815824765222
30
0
41
1
10
204.807541825346
20
9.74819901867573
30
0
41
1
10
204.860992417199
20
9.62190386840601
30
0
41
1
10
204.967893600905
20
9.33902327131173
30
0
41
1
10
205.021344192758
20
9.18243623628547
30
0
41
1
10
205.128245376464
20
8.8398645655694
30
0
41
1
10
205.181695968317
20
8.65388026526435
30
0
41
1
10
205.288597152023
20
8.25428138907651
30
0
41
1
10
205.342047743877
20
8.04066920267553
30
0
41
1
10
205.448948927583
20
7.58841590541286
30
0
41
1
10
205.502399519436
20
7.34977910829764
30
0
41
1
10
205.609300703142
20
6.8508106501076
30
0
41
1
10
205.662751294996
20
6.59048484150983
30
0
41
1
10
205.769652478702
20
6.05205090185041
30
0
41
1
10
205.823103070555
20
5.77394957844825
30
0
41
1
10
205.930004254261
20
5.20426330043105
30
0
41
1
10
205.983454846114
20
4.91268542501672
30
0
41
1
10
206.09035602982
20
4.3205198676977
30
0
41
1
10
206.143806621674
20
4.01993886641142
30
0
41
1
10
206.25070780538
20
3.41420706489404
30
0
41
1
10
206.304158397233
20
3.10906199161764
30
0
41
1
10
206.464510172793
20
2.19309915671718
30
0
41
1
10
206.571411356499
20
1.58200960451001
30
0
41
1
10
206.678312540205
20
0.984861803016344
30
0
0
SPLINE
5
F2
100
AcDbEntity
8
1
62
256
6
ByLayer
370
13
48
1
60
0
100
AcDbSpline
70
4
71
3
72
85
73
81
40
0
40
0
40
0
40
0
40
0.0312499999999981
40
0.0312499999999981
40
0.0390624999999978
40
0.0390624999999978
40
0.0468749999999975
40
0.0468749999999975
40
0.0624999999999975
40
0.0624999999999975
40
0.0937499999999975
40
0.0937499999999975
40
0.124999999999998
40
0.124999999999998
40
0.156249999999998
40
0.156249999999998
40
0.187499999999998
40
0.187499999999998
40
0.218749999999998
40
0.218749999999998
40
0.249999999999998
40
0.249999999999998
40
0.281249999999998
40
0.281249999999998
40
0.312499999999998
40
0.312499999999998
40
0.343749999999998
40
0.343749999999998
40
0.351562499999998
40
0.351562499999998
40
0.355468749999998
40
0.355468749999998
40
0.359374999999998
40
0.374999999999999
40
0.374999999999999
40
0.406250000000002
40
0.406250000000002
40
0.437500000000005
40
0.437500000000005
40
0.468750000000007
40
0.468750000000007
40
0.50000000000001
40
0.50000000000001
40
0.531250000000012
40
0.531250000000012
40
0.562500000000015
40
0.562500000000015
40
0.593750000000018
40
0.593750000000018
40
0.62500000000002
40
0.62500000000002
40
0.656250000000023
40
0.656250000000023
40
0.671875000000024
40
0.671875000000024
40
0.675781250000024
40
0.675781250000024
40
0.679687500000024
40
0.679687500000024
40
0.687500000000024
40
0.687500000000024
40
0.718750000000022
40
0.718750000000022
40
0.750000000000019
40
0.750000000000019
40
0.781250000000017
40
0.781250000000017
40
0.812500000000014
40
0.812500000000014
40
0.843750000000012
40
0.843750000000012
40
0.87500000000001
40
0.87500000000001
40
0.906250000000007
40
0.906250000000007
40
0.937500000000005
40
0.937500000000005
40
0.968750000000002
40
0.968750000000002
40
1
40
1
40
1
40
1
41
1
10
195.7
20
1.49793684121536
30
0
41
1
10
195.78858327488
20
0.997547192995
30
0
41
1
10
195.877166549759
20
0.504143389387366
30
0
41
1
10
195.987895643359
20
-0.095519045148194
30
0
41
1
10
196.010041462078
20
-0.215869783361654
30
0
41
1
10
196.054333099518
20
-0.45851607446906
30
0
41
1
10
196.076478918238
20
-0.580604435097086
30
0
41
1
10
196.142916374398
20
-0.948867275024952
30
0
41
1
10
196.187208011837
20
-1.19704751564208
30
0
41
1
10
196.320082924157
20
-1.94692499336071
30
0
41
1
10
196.408666199036
20
-2.45406317438596
30
0
41
1
10
196.585832748795
20
-3.46566616600751
30
0
41
1
10
196.674416023675
20
-3.9700731182632
30
0
41
1
10
196.851582573434
20
-4.95638616196902
30
0
41
1
10
196.940165848313
20
-5.43821089539642
30
0
41
1
10
197.117332398072
20
-6.35899913300048
30
0
41
1
10
197.205915672952
20
-6.79787541102692
30
0
41
1
10
197.383082222711
20
-7.6144795792793
30
0
41
1
10
197.47166549759
20
-7.99213722665118
30
0
41
1
10
197.648832047349
20
-8.67254146699662
30
0
41
1
10
197.737415322229
20
-8.97525331907411
30
0
41
1
10
197.914581871988
20
-9.49816533270254
30
0
41
1
10
198.003165146867
20
-9.71837242403339
30
0
41
1
10
198.180331696626
20
-10.0752635043795
30
0
41
1
10
198.268914971506
20
-10.2119884603455
30
0
41
1
10
198.446081521265
20
-10.4067336862604
30
0
41
1
10
198.534664796144
20
-10.4648128427403
30
0
41
1
10
198.645393889743
20
-10.4938987310286
30
0
41
1
10
198.667539708464
20
-10.4975480792461
30
0
41
1
10
198.700758436543
20
-10.4998960845352
30
0
41
1
10
198.711831345903
20
-10.5001587917049
30
0
41
1
10
198.733977164623
20
-10.4996595122824
30
0
41
1
10
198.789341711423
20
-10.4958358908189
30
0
41
1
10
198.844706258223
20
-10.4788502916551
30
0
41
1
10
198.977581170542
20
-10.4108848361157
30
0
41
1
10
199.066164445421
20
-10.3291801102247
30
0
41
1
10
199.24333099518
20
-10.085138996531
30
0
41
1
10
199.33191427006
20
-9.92274737841254
30
0
41
1
10
199.509080819819
20
-9.51413877407856
30
0
41
1
10
199.597664094698
20
-9.26788991316536
30
0
41
1
10
199.774830644457
20
-8.69451941768952
30
0
41
1
10
199.863413919337
20
-8.36740357402815
30
0
41
1
10
200.040580469096
20
-7.64183759852637
30
0
41
1
10
200.129163743975
20
-7.24343457747986
30
0
41
1
10
200.306330293734
20
-6.3906258081303
30
0
41
1
10
200.394913568614
20
-5.93629796446922
30
0
41
1
10
200.572080118373
20
-4.99083489232814
30
0
41
1
10
200.660663393252
20
-4.49978743922412
30
0
41
1
10
200.837829943011
20
-3.50137198195904
30
0
41
1
10
200.926413217891
20
-2.99407947431138
30
0
41
1
10
201.10357976765
20
-1.98242097494332
30
0
41
1
10
201.192163042529
20
-1.47810358838427
30
0
41
1
10
201.325037954849
20
-0.735896604150383
30
0
41
1
10
201.369329592288
20
-0.490843432622825
30
0
41
1
10
201.424694139088
20
-0.188477684700075
30
0
41
1
10
201.435767048448
20
-0.128201419989438
30
0
41
1
10
201.457912867168
20
-0.0080653989651012
30
0
41
1
10
201.468985776528
20
0.0517585660522286
30
0
41
1
10
201.502204504608
20
0.232263970011388
30
0
41
1
10
201.524350323327
20
0.353423600124699
30
0
41
1
10
201.635079416927
20
0.96286480177406
30
0
41
1
10
201.723662691807
20
1.4622352317995
30
0
41
1
10
201.900829241565
20
2.46995319836461
30
0
41
1
10
201.989412516445
20
2.97826275583282
30
0
41
1
10
202.166579066204
20
3.98558336599743
30
0
41
1
10
202.255162341083
20
4.48452709040589
30
0
41
1
10
202.432328890843
20
5.4528293808857
30
0
41
1
10
202.520912165722
20
5.92210213808895
30
0
41
1
10
202.698078715481
20
6.811115343279
30
0
41
1
10
202.78666199036
20
7.23077184336415
30
0
41
1
10
202.963828540119
20
8.00357672368497
30
0
41
1
10
203.052411814999
20
8.35666551276142
30
0
41
1
10
203.229578364758
20
8.98456794681289
30
0
41
1
10
203.318161639637
20
9.25936126193122
30
0
41
1
10
203.495328189397
20
9.72535962531597
30
0
41
1
10
203.583911464276
20
9.91658478563744
30
0
41
1
10
203.761078014035
20
10.2165816519754
30
0
41
1
10
203.849661288915
20
10.3254025130474
30
0
41
1
10
204.026827838674
20
10.4670811855982
30
0
41
1
10
204.115411113553
20
10.5
30
0
41
1
10
204.203994388433
20
10.5
30
0
0
SPLINE
5
F3
100
AcDbEntity
8
1
62
256
6
ByLayer
370
13
48
1
60
0
100
AcDbSpline
70
4
71
3
72
42
73
38
40
0
40
0
40
0
40
0
40
0.0625000000000002
40
0.0625000000000002
40
0.125
40
0.125
40
0.187500000000001
40
0.187500000000001
40
0.250000000000001
40
0.250000000000001
40
0.312500000000001
40
0.312500000000001
40
0.375000000000001
40
0.375000000000001
40
0.437500000000001
40
0.437500000000001
40
0.500000000000001
40
0.500000000000001
40
0.562500000000001
40
0.562500000000001
40
0.625000000000001
40
0.625000000000001
40
0.687500000000001
40
0.687500000000001
40
0.750000000000001
40
0.750000000000001
40
0.812500000000001
40
0.812500000000001
40
0.875000000000002
40
0.875000000000002
40
0.890625000000002
40
0.890625000000002
40
0.906250000000002
40
0.906250000000002
40
0.937500000000002
40
0.937500000000002
40
1
40
1
40
1
40
1
41
1
10
203.617820391117
20
10.5
30
0
41
1
10
203.681580644223
20
10.5
30
0
41
1
10
203.745340897329
20
10.4829738206662
30
0
41
1
10
203.872861403541
20
10.4109966581406
30
0
41
1
10
203.936621656647
20
10.3560337627079
30
0
41
1
10
204.064142162859
20
10.2051183640868
30
0
41
1
10
204.127902415965
20
10.1091545871423
30
0
41
1
10
204.255422922177
20
9.87435629692064
30
0
41
1
10
204.319183175283
20
9.73551289046418
30
0
41
1
10
204.446703681495
20
9.41456737197649
30
0
41
1
10
204.510463934601
20
9.23246048310423
30
0
41
1
10
204.637984440813
20
8.82630480259201
30
0
41
1
10
204.701744693919
20
8.60225665371638
30
0
41
1
10
204.829265200131
20
8.11530647837273
30
0
41
1
10
204.893025453237
20
7.85241098348689
30
0
41
1
10
205.020545959449
20
7.29251860582482
30
0
41
1
10
205.084306212555
20
6.99553355559894
30
0
41
1
10
205.211826718767
20
6.37360021320245
30
0
41
1
10
205.275586971873
20
6.04866747439982
30
0
41
1
10
205.403107478085
20
5.37794477418339
30
0
41
1
10
205.466867731191
20
5.03217186832316
30
0
41
1
10
205.594388237403
20
4.32734456642407
30
0
41
1
10
205.658148490509
20
3.96830639617159
30
0
41
1
10
205.785668996721
20
3.24448585252665
30
0
41
1
10
205.849429249827
20
2.87971694339805
30
0
41
1
10
205.976949756039
20
2.15148145843423
30
0
41
1
10
206.040710009145
20
1.7880243941556
30
0
41
1
10
206.168230515357
20
1.06861988340998
30
0
41
1
10
206.231990768463
20
0.712677639236574
30
0
41
1
10
206.311691084845
20
0.275660022997727
30
0
41
1
10
206.327631148122
20
0.188649257714303
30
0
41
1
10
206.359511274675
20
0.0154823601598366
30
0
41
1
10
206.375451337952
20
-0.0705772906709967
30
0
41
1
10
206.423271527781
20
-0.330867873743017
30
0
41
1
10
206.455151654334
20
-0.506077818226487
30
0
41
1
10
206.550792033993
20
-1.03588835053699
30
0
41
1
10
206.614552287099
20
-1.39470343419421
30
0
41
1
10
206.678312540205
20
-1.75639118601973
30
0
0
SPLINE
5
F4
100
AcDbEntity
8
1
62
256
6
ByLayer
370
13
48
1
60
0
100
AcDbSpline
70
4
71
3
72
80
73
76
40
0
40
0
40
0
40
0
40
0.0312500000000019
40
0.0312500000000019
40
0.0625000000000037
40
0.0625000000000037
40
0.0937500000000056
40
0.0937500000000056
40
0.125000000000007
40
0.125000000000007
40
0.156250000000009
40
0.156250000000009
40
0.187500000000011
40
0.187500000000011
40
0.218750000000013
40
0.218750000000013
40
0.250000000000014
40
0.250000000000014
40
0.281250000000016
40
0.281250000000016
40
0.312500000000018
40
0.312500000000018
40
0.316406250000018
40
0.316406250000018
40
0.320312500000018
40
0.328125000000018
40
0.328125000000018
40
0.343750000000019
40
0.343750000000019
40
0.375000000000019
40
0.375000000000019
40
0.40625000000002
40
0.40625000000002
40
0.43750000000002
40
0.43750000000002
40
0.468750000000021
40
0.468750000000021
40
0.500000000000021
40
0.500000000000021
40
0.531250000000022
40
0.531250000000022
40
0.562500000000022
40
0.562500000000022
40
0.593750000000023
40
0.593750000000023
40
0.625000000000023
40
0.625000000000023
40
0.656250000000023
40
0.656250000000023
40
0.660156250000023
40
0.660156250000023
40
0.664062500000023
40
0.671875000000023
40
0.671875000000023
40
0.687500000000023
40
0.687500000000023
40
0.71875000000002
40
0.71875000000002
40
0.750000000000018
40
0.750000000000018
40
0.781250000000016
40
0.781250000000016
40
0.812500000000014
40
0.812500000000014
40
0.843750000000011
40
0.843750000000011
40
0.875000000000009
40
0.875000000000009
40
0.906250000000007
40
0.906250000000007
40
0.937500000000005
40
0.937500000000005
40
0.968750000000002
40
0.968750000000002
40
1
40
1
40
1
40
1
41
1
10
195.7
20
-1.24067563334336
30
0
41
1
10
195.783428444253
20
-1.70953077718849
30
0
41
1
10
195.866856888506
20
-2.18569967307374
30
0
41
1
10
196.033713777012
20
-3.1388537582541
30
0
41
1
10
196.117142221266
20
-3.61580034219739
30
0
41
1
10
196.283999109772
20
-4.55431754501114
30
0
41
1
10
196.367427554025
20
-5.01583128422266
30
0
41
1
10
196.534284442531
20
-5.90639527740453
30
0
41
1
10
196.617712886784
20
-6.33538040137623
30
0
41
1
10
196.78456977529
20
-7.14477982295503
30
0
41
1
10
196.867998219543
20
-7.52513538452862
30
0
41
1
10
197.034855108049
20
-8.22406568156691
30
0
41
1
10
197.118283552302
20
-8.5426021602934
30
0
41
1
10
197.285140440809
20
-9.10908767885908
30
0
41
1
10
197.368568885061
20
-9.35702693879125
30
0
41
1
10
197.535425773568
20
-9.77865848682828
30
0
41
1
10
197.618854217821
20
-9.95236864446593
30
0
41
1
10
197.785711106327
20
-10.2268965890857
30
0
41
1
10
197.86913955058
20
-10.3277516512281
30
0
41
1
10
198.035996439086
20
-10.4620737589563
30
0
41
1
10
198.119424883339
20
-10.4955860549443
30
0
41
1
10
198.213281883124
20
-10.5000903921802
30
0
41
1
10
198.223710438656
20
-10.5001331573979
30
0
41
1
10
198.244567549719
20
-10.4993058128889
30
0
41
1
10
198.275853216314
20
-10.4966881812603
30
0
41
1
10
198.307138882909
20
-10.4898594834181
30
0
41
1
10
198.369710216098
20
-10.4703802230714
30
0
41
1
10
198.411424438225
20
-10.4496268951384
30
0
41
1
10
198.536567104605
20
-10.3625556776635
30
0
41
1
10
198.619995548858
20
-10.2713177085426
30
0
41
1
10
198.786852437364
20
-10.0165614751143
30
0
41
1
10
198.870280881617
20
-9.85300415608813
30
0
41
1
10
199.037137770123
20
-9.45158695143954
30
0
41
1
10
199.120566214376
20
-9.21370593266383
30
0
41
1
10
199.287423102882
20
-8.66653434333836
30
0
41
1
10
199.370851547135
20
-8.35724952277707
30
0
41
1
10
199.537708435641
20
-7.67533922180806
30
0
41
1
10
199.621136879895
20
-7.30274838720453
30
0
41
1
10
199.787993768401
20
-6.50686422894475
30
0
41
1
10
199.871422212654
20
-6.08362758615218
30
0
41
1
10
200.03827910116
20
-5.20225443219522
30
0
41
1
10
200.121707545413
20
-4.74418309110638
30
0
41
1
10
200.288564433919
20
-3.81022312082331
30
0
41
1
10
200.371992878172
20
-3.3343932350792
30
0
41
1
10
200.538849766678
20
-2.38136370254236
30
0
41
1
10
200.622278210931
20
-1.90420550236973
30
0
41
1
10
200.789135099437
20
-0.962792467143089
30
0
41
1
10
200.87256354369
20
-0.498557711497682
30
0
41
1
10
200.966420543475
20
0.0101670554370514
30
0
41
1
10
200.976849099007
20
0.0665551939201521
30
0
41
1
10
200.99770621007
20
0.179937946884593
30
0
41
1
10
201.028991876665
20
0.350556929207528
30
0
41
1
10
201.06027754326
20
0.522725334292801
30
0
41
1
10
201.12284887645
20
0.868882433622417
30
0
41
1
10
201.164563098576
20
1.10208723759902
30
0
41
1
10
201.289705764956
20
1.80680247417089
30
0
41
1
10
201.373134209209
20
2.28349909278245
30
0
41
1
10
201.539991097715
20
3.23666246941673
30
0
41
1
10
201.623419541968
20
3.71308919324056
30
0
41
1
10
201.790276430474
20
4.64940665909509
30
0
41
1
10
201.873704874727
20
5.10923956461377
30
0
41
1
10
202.040561763234
20
5.99528626385043
30
0
41
1
10
202.123990207486
20
6.42143487181369
30
0
41
1
10
202.290847095993
20
7.22414496016117
30
0
41
1
10
202.374275540246
20
7.60064869859576
30
0
41
1
10
202.541132428752
20
8.29111943535997
30
0
41
1
10
202.624560873005
20
8.60504996451004
30
0
41
1
10
202.791417761511
20
9.16190601469563
30
0
41
1
10
202.874846205764
20
9.40482377448575
30
0
41
1
10
203.04170309427
20
9.81635160801295
30
0
41
1
10
203.125131538524
20
9.9849812041648
30
0
41
1
10
203.29198842703
20
10.2496054063242
30
0
41
1
10
203.375416871283
20
10.3456382050066
30
0
41
1
10
203.542273759789
20
10.4708128078103
30
0
41
1
10
203.625702204042
20
10.5
30
0
41
1
10
203.709130648295
20
10.5
30
0
0
SPLINE
5
F5
100
AcDbEntity
8
1
62
256
6
ByLayer
370
13
48
1
60
0
100
AcDbSpline
70
4
71
3
72
42
73
38
40
0
40
0
40
0
40
0
40
0.0625000000000001
40
0.0625000000000001
40
0.125
40
0.125
40
0.1875
40
0.1875
40
0.25
40
0.25
40
0.3125
40
0.3125
40
0.375
40
0.375
40
0.4375
40
0.4375
40
0.5
40
0.5
40
0.5625
40
0.5625
40
0.625
40
0.625
40
0.6875
40
0.6875
40
0.75
40
0.75
40
0.765625
40
0.765625
40
0.78125
40
0.78125
40
0.8125
40
0.8125
40
0.875
40
0.875
40
0.9375
40
0.9375
40
1
40
1
40
1
40
1
41
1
10
203.12295665098
20
10.5
30
0
41
1
10
203.197026565338
20
10.5
30
0
41
1
10
203.271096479697
20
10.4770087205163
30
0
41
1
10
203.419236308415
20
10.3790620682024
30
0
41
1
10
203.493306222774
20
10.3040815359237
30
0
41
1
10
203.641446051491
20
10.0977437372102
30
0
41
1
10
203.71551596585
20
9.96636389193196
30
0
41
1
10
203.863655794568
20
9.64516461379506
30
0
41
1
10
203.937725708927
20
9.45533022285358
30
0
41
1
10
204.085865537645
20
9.01809166920154
30
0
41
1
10
204.159935452004
20
8.77068462588701
30
0
41
1
10
204.308075280721
20
8.22238676648934
30
0
41
1
10
204.38214519508
20
7.92150739509006
30
0
41
1
10
204.530285023798
20
7.27344444803549
30
0
41
1
10
204.604354938157
20
6.92628555564855
30
0
41
1
10
204.752494766875
20
6.19538707133273
30
0
41
1
10
204.826564681233
20
5.81168100950578
30
0
41
1
10
204.974704509951
20
5.01906258166312
30
0
41
1
10
205.04877442431
20
4.61018619636533
30
0
41
1
10
205.196914253028
20
3.77918386483671
30
0
41
1
10
205.270984167387
20
3.35708995377442
30
0
41
1
10
205.419123996104
20
2.51114751067698
30
0
41
1
10
205.493193910463
20
2.08732246612303
30
0
41
1
10
205.641333739181
20
1.24810243797438
30
0
41
1
10
205.71540365354
20
0.832720468589315
30
0
41
1
10
205.807991046488
20
0.323963030723206
30
0
41
1
10
205.826508525078
20
0.222730089529307
30
0
41
1
10
205.863543482258
20
0.0214107765455083
30
0
41
1
10
205.882060960847
20
-0.0785236169089387
30
0
41
1
10
205.937613396616
20
-0.381148784901086
30
0
41
1
10
205.974648353796
20
-0.585155869568837
30
0
41
1
10
206.085753225334
20
-1.20256648559166
30
0
41
1
10
206.159823139693
20
-1.62141930638106
30
0
41
1
10
206.307962968411
20
-2.46473416998185
30
0
41
1
10
206.382032882769
20
-2.88918004385002
30
0
41
1
10
206.530172711487
20
-3.73305487741098
30
0
41
1
10
206.604242625846
20
-4.15245748000709
30
0
41
1
10
206.678312540205
20
-4.56349284849549
30
0
0
SPLINE
5
F6
100
AcDbEntity
8
1
62
256
6
ByLayer
370
13
48
1
60
0
100
AcDbSpline
70
4
71
3
72
79
73
75
40
0
40
0
40
0
40
0
40
0.0312500000000011
40
0.0312500000000011
40
0.0625000000000022
40
0.0625000000000022
40
0.0937500000000033
40
0.0937500000000033
40
0.125000000000004
40
0.125000000000004
40
0.156250000000005
40
0.156250000000005
40
0.187500000000006
40
0.187500000000006
40
0.218750000000008
40
0.218750000000008
40
0.250000000000009
40
0.250000000000009
40
0.265625000000009
40
0.265625000000009
40
0.273437500000009
40
0.273437500000009
40
0.281250000000009
40
0.281250000000009
40
0.312500000000009
40
0.312500000000009
40
0.34375000000001
40
0.34375000000001
40
0.37500000000001
40
0.37500000000001
40
0.406250000000011
40
0.406250000000011
40
0.437500000000011
40
0.437500000000011
40
0.468750000000011
40
0.468750000000011
40
0.500000000000012
40
0.500000000000012
40
0.531250000000012
40
0.531250000000012
40
0.562500000000013
40
0.562500000000013
40
0.593750000000013
40
0.593750000000013
40
0.625000000000014
40
0.625000000000014
40
0.632812500000013
40
0.632812500000013
40
0.636718750000013
40
0.636718750000013
40
0.640625000000013
40
0.656250000000012
40
0.656250000000012
40
0.687500000000011
40
0.687500000000011
40
0.71875000000001
40
0.71875000000001
40
0.750000000000009
40
0.750000000000009
40
0.781250000000007
40
0.781250000000007
40
0.812500000000006
40
0.812500000000006
40
0.843750000000005
40
0.843750000000005
40
0.875000000000004
40
0.875000000000004
40
0.906250000000003
40
0.906250000000003
40
0.937500000000002
40
0.937500000000002
40
0.968750000000001
40
0.968750000000001
40
1
40
1
40
1
40
1
41
1
10
195.7
20
-4.05294730306014
30
0
41
1
10
195.778273613627
20
-4.49353917447297
30
0
41
1
10
195.856547227253
20
-4.92748434673695
30
0
41
1
10
196.013094454507
20
-5.76805981782005
30
0
41
1
10
196.091368068133
20
-6.17464282946813
30
0
41
1
10
196.247915295386
20
-6.94702234978908
30
0
41
1
10
196.326188909013
20
-7.31277471883203
30
0
41
1
10
196.482736136266
20
-7.99206264896424
30
0
41
1
10
196.561009749893
20
-8.30556658407932
30
0
41
1
10
196.717556977146
20
-8.87213994840693
30
0
41
1
10
196.795830590773
20
-9.12519645924226
30
0
41
1
10
196.952377818026
20
-9.5665577370701
30
0
41
1
10
197.030651431653
20
-9.75486930376667
30
0
41
1
10
197.187198658906
20
-10.0664143731776
30
0
41
1
10
197.265472272533
20
-10.1896704101551
30
0
41
1
10
197.422019499786
20
-10.3743095646334
30
0
41
1
10
197.500293113413
20
-10.4357240225653
30
0
41
1
10
197.617703533853
20
-10.4858660757318
30
0
41
1
10
197.656840340666
20
-10.4956014282347
30
0
41
1
10
197.715545550886
20
-10.5004136435711
30
0
41
1
10
197.735113954293
20
-10.5004018003268
30
0
41
1
10
197.774250761106
20
-10.4971449524203
30
0
41
1
10
197.793819164513
20
-10.493884985453
30
0
41
1
10
197.891661181546
20
-10.4691384076561
30
0
41
1
10
197.969934795173
20
-10.4222380370216
30
0
41
1
10
198.126482022426
20
-10.2678792654945
30
0
41
1
10
198.204755636053
20
-10.1603884986132
30
0
41
1
10
198.361302863306
20
-9.88087334419984
30
0
41
1
10
198.439576476932
20
-9.70882353588615
30
0
41
1
10
198.596123704186
20
-9.29955086699266
30
0
41
1
10
198.674397317812
20
-9.06231677200643
30
0
41
1
10
198.830944545066
20
-8.52594931627641
30
0
41
1
10
198.909218158692
20
-8.22682386087564
30
0
41
1
10
199.065765385946
20
-7.57392627154741
30
0
41
1
10
199.144038999572
20
-7.22018151695261
30
0
41
1
10
199.300586226825
20
-6.46874346281331
30
0
41
1
10
199.378859840452
20
-6.07109199970506
30
0
41
1
10
199.535407067705
20
-5.24492163099816
30
0
41
1
10
199.613680681332
20
-4.81645015812506
30
0
41
1
10
199.770227908585
20
-3.94272802237273
30
0
41
1
10
199.848501522212
20
-3.49752077476842
30
0
41
1
10
200.005048749465
20
-2.60402333012311
30
0
41
1
10
200.083322363092
20
-2.15576526788158
30
0
41
1
10
200.239869590345
20
-1.26831227472226
30
0
41
1
10
200.318143203972
20
-0.829134988512294
30
0
41
1
10
200.415985221005
20
-0.291978306791861
30
0
41
1
10
200.435553624412
20
-0.185131541042466
30
0
41
1
10
200.464906229522
20
-0.0258343083880561
30
0
41
1
10
200.474690431225
20
0.0270210559827717
30
0
41
1
10
200.494258834632
20
0.133224048851389
30
0
41
1
10
200.543179843148
20
0.399540015203854
30
0
41
1
10
200.592100851665
20
0.669719731512743
30
0
41
1
10
200.709511272105
20
1.3239102168547
30
0
41
1
10
200.787784885732
20
1.76778927421384
30
0
41
1
10
200.944332112985
20
2.66033035794632
30
0
41
1
10
201.022605726612
20
3.10896918684816
30
0
41
1
10
201.179152953865
20
3.99821622739714
30
0
41
1
10
201.257426567491
20
4.43878745351415
30
0
41
1
10
201.413973794745
20
5.29791996643246
30
0
41
1
10
201.492247408371
20
5.71643529296242
30
0
41
1
10
201.648794635625
20
6.51757808408007
30
0
41
1
10
201.727068249251
20
6.90015905695981
30
0
41
1
10
201.883615476505
20
7.61707892895799
30
0
41
1
10
201.961889090131
20
7.95138053682558
30
0
41
1
10
202.118436317384
20
8.562205416214
30
0
41
1
10
202.196709931011
20
8.8387083190415
30
0
41
1
10
202.353257158264
20
9.32810887890011
30
0
41
1
10
202.431530771891
20
9.5410061515752
30
0
41
1
10
202.588077999144
20
9.90139589473102
30
0
41
1
10
202.666351612771
20
10.0489056968955
30
0
41
1
10
202.822898840024
20
10.2804806139593
30
0
41
1
10
202.901172453651
20
10.3645746451351
30
0
41
1
10
203.057719680904
20
10.4743177896113
30
0
41
1
10
203.135993294531
20
10.5
30
0
41
1
10
203.214266908157
20
10.5
30
0
0
SPLINE
5
F7
100
AcDbEntity
8
1
62
256
6
ByLayer
370
13
48
1
60
0
100
AcDbSpline
70
4
71
3
72
44
73
40
40
0
40
0
40
0
40
0
40
0.0625000000000006
40
0.0625000000000006
40
0.125000000000001
40
0.125000000000001
40
0.187500000000002
40
0.187500000000002
40
0.250000000000002
40
0.250000000000002
40
0.312500000000003
40
0.312500000000003
40
0.375000000000003
40
0.375000000000003
40
0.437500000000004
40
0.437500000000004
40
0.500000000000004
40
0.500000000000004
40
0.562500000000005
40
0.562500000000005
40
0.625000000000005
40
0.625000000000005
40
0.656250000000005
40
0.656250000000005
40
0.671875000000005
40
0.671875000000005
40
0.679687500000005
40
0.679687500000005
40
0.687500000000004
40
0.687500000000004
40
0.750000000000004
40
0.750000000000004
40
0.812500000000003
40
0.812500000000003
40
0.875000000000002
40
0.875000000000002
40
0.937500000000001
40
0.937500000000001
40
1
40
1
40
1
40
1
41
1
10
202.628092910842
20
10.5
30
0
41
1
10
202.712472486454
20
10.5
30
0
41
1
10
202.796852062066
20
10.4701413468484
30
0
41
1
10
202.965611213289
20
10.3420024970664
30
0
41
1
10
203.049990788901
20
10.243674298068
30
0
41
1
10
203.218749940124
20
9.97269837093518
30
0
41
1
10
203.303129515736
20
9.80001055369112
30
0
41
1
10
203.471888666959
20
9.37868074862374
30
0
41
1
10
203.556268242571
20
9.13001897925469
30
0
41
1
10
203.725027393794
20
8.56031549618621
30
0
41
1
10
203.809406969406
20
8.23928342122963
30
0
41
1
10
203.97816612063
20
7.53380400143095
30
0
41
1
10
204.062545696241
20
7.14939682232364
30
0
41
1
10
204.231304847465
20
6.33077005878869
30
0
41
1
10
204.315684423077
20
5.89661261879439
30
0
41
1
10
204.4844435743
20
4.99514985027642
30
0
41
1
10
204.568823149912
20
4.52791341538074
30
0
41
1
10
204.737582301135
20
3.57799046006036
30
0
41
1
10
204.821961876747
20
3.09536377587673
30
0
41
1
10
204.99072102797
20
2.13140170886632
30
0
41
1
10
205.075100603582
20
1.65010641780069
30
0
41
1
10
205.201669967
20
0.939820357544818
30
0
41
1
10
205.243859754805
20
0.704978018311834
30
0
41
1
10
205.307144436514
20
0.356694550605283
30
0
41
1
10
205.328239330417
20
0.24126171644636
30
0
41
1
10
205.359881671272
20
0.0692271045803636
30
0
41
1
10
205.370429118223
20
0.0121905563102302
30
0
41
1
10
205.391524012126
20
-0.102142094758278
30
0
41
1
10
205.402071459077
20
-0.159498666002151
30
0
41
1
10
205.496998481641
20
-0.677332206455077
30
0
41
1
10
205.581378057252
20
-1.14932181275367
30
0
41
1
10
205.750137208476
20
-2.10472967683927
30
0
41
1
10
205.834516784087
20
-2.58812359931287
30
0
41
1
10
206.003275935311
20
-3.55122153653974
30
0
41
1
10
206.087655510923
20
-4.03087852623335
30
0
41
1
10
206.256414662146
20
-4.96929996767852
30
0
41
1
10
206.340794237758
20
-5.42800024217487
30
0
41
1
10
206.509553388981
20
-6.30691891015368
30
0
41
1
10
206.593932964593
20
-6.72706872730132
30
0
41
1
10
206.678312540205
20
-7.12001298883243
30
0
0
SPLINE
5
F8
100
AcDbEntity
8
1
62
256
6
ByLayer
370
13
48
1
60
0
100
AcDbSpline
70
4
71
3
72
76
73
72
40
0
40
0
40
0
40
0
40
0.03125
40
0.03125
40
0.0625000000000001
40
0.0625000000000001
40
0.0937500000000001
40
0.0937500000000001
40
0.125
40
0.125
40
0.15625
40
0.15625
40
0.1875
40
0.1875
40
0.203125
40
0.203125
40
0.2109375
40
0.2109375
40
0.218749999999999
40
0.218749999999999
40
0.25
40
0.25
40
0.28125
40
0.28125
40
0.3125
40
0.3125
40
0.34375
40
0.34375
40
0.375
40
0.375
40
0.40625
40
0.40625
40
0.4375
40
0.4375
40
0.46875
40
0.46875
40
0.5
40
0.5
40
0.53125
40
0.53125
40
0.5625
40
0.5625
40
0.59375
40
0.59375
40
0.609375
40
0.609375
40
0.625
40
0.625
40
0.65625
40
0.65625
40
0.6875
40
0.6875
40
0.71875
40
0.71875
40
0.75
40
0.75
40
0.78125
40
0.78125
40
0.8125
40
0.8125
40
0.84375
40
0.84375
40
0.875
40
0.875
40
0.90625
40
0.90625
40
0.9375
40
0.9375
40
0.96875
40
0.96875
40
1
40
1
40
1
40
1
41
1
10
195.7
20
-6.68456286870546
30
0
41
1
10
195.773118783
20
-7.04117238976593
30
0
41
1
10
195.846237566
20
-7.37937322197902
30
0
41
1
10
195.992475132001
20
-8.00987400070153
30
0
41
1
10
196.065593915001
20
-8.30215191196854
30
0
41
1
10
196.211831481001
20
-8.83413933186083
30
0
41
1
10
196.284950264002
20
-9.07383929854603
30
0
41
1
10
196.431187830002
20
-9.49696650365229
30
0
41
1
10
196.504306613002
20
-9.68039740143479
30
0
41
1
10
196.650544179003
20
-9.99033325928548
30
0
41
1
10
196.723662962003
20
-10.1168528258239
30
0
41
1
10
196.869900528003
20
-10.3150787474747
30
0
41
1
10
196.943019311003
20
-10.3868065025353
30
0
41
1
10
197.052697485504
20
-10.4565292008242
30
0
41
1
10
197.089256877004
20
-10.473473739873
30
0
41
1
10
197.144095964254
20
-10.4899608661303
30
0
41
1
10
197.162375660004
20
-10.4939689627315
30
0
41
1
10
197.198935051504
20
-10.4991028329743
30
0
41
1
10
197.217214747254
20
-10.500229441416
30
0
41
1
10
197.308613226005
20
-10.498890099455
30
0
41
1
10
197.381732009005
20
-10.4753396857711
30
0
41
1
10
197.527969575005
20
-10.3775471224573
30
0
41
1
10
197.601088358006
20
-10.3032813855654
30
0
41
1
10
197.747325924006
20
-10.0998224884859
30
0
41
1
10
197.820444707006
20
-9.97060814668376
30
0
41
1
10
197.966682273006
20
-9.65524658150616
30
0
41
1
10
198.039801056007
20
-9.46908519034739
30
0
41
1
10
198.186038622007
20
-9.04060267250878
30
0
41
1
10
198.259157405007
20
-8.79827848736807
30
0
41
1
10
198.405394971008
20
-8.2612952189464
30
0
41
1
10
198.478513754008
20
-7.96664631725579
30
0
41
1
10
198.624751320008
20
-7.33178900391979
30
0
41
1
10
198.697870103009
20
-6.99160315280997
30
0
41
1
10
198.844107669009
20
-6.27490024900484
30
0
41
1
10
198.917226452009
20
-5.89841426028804
30
0
41
1
10
199.06346401801
20
-5.11997030616985
30
0
41
1
10
199.13658280101
20
-4.71804612634162
30
0
41
1
10
199.28282036701
20
-3.90021966850955
30
0
41
1
10
199.35593915001
20
-3.48434798152897
30
0
41
1
10
199.502176716011
20
-2.64976712040183
30
0
41
1
10
199.575295499011
20
-2.23108093597841
30
0
41
1
10
199.721533065011
20
-1.40083956017085
30
0
41
1
10
199.794651848012
20
-0.989297734409575
30
0
41
1
10
199.904330022512
20
-0.383517354198659
30
0
41
1
10
199.940889414012
20
-0.183711561213158
30
0
41
1
10
200.014008197012
20
0.212110773747753
30
0
41
1
10
200.050567588512
20
0.41233290826878
30
0
41
1
10
200.160245763013
20
1.01865623490238
30
0
41
1
10
200.233364546013
20
1.43047272538763
30
0
41
1
10
200.379602112013
20
2.26104393558606
30
0
41
1
10
200.452720895013
20
2.67978505475398
30
0
41
1
10
200.598958461014
20
3.51422060568498
30
0
41
1
10
200.672077244014
20
3.9298918321951
30
0
41
1
10
200.818314810014
20
4.74704309215281
30
0
41
1
10
200.891433593015
20
5.14849239819907
30
0
41
1
10
201.037671159015
20
5.92571533065728
30
0
41
1
10
201.110789942015
20
6.30145516441019
30
0
41
1
10
201.257027508016
20
7.01642191226304
30
0
41
1
10
201.330146291016
20
7.35561790264427
30
0
41
1
10
201.476383857016
20
7.98830153377838
30
0
41
1
10
201.549502640016
20
8.281766875524
30
0
41
1
10
201.695740206017
20
8.81625523455745
30
0
41
1
10
201.768858989017
20
9.05726838985737
30
0
41
1
10
201.915096555018
20
9.4830745271401
30
0
41
1
10
201.988215338018
20
9.6678708686886
30
0
41
1
10
202.134452904018
20
9.98051917322312
30
0
41
1
10
202.207571687018
20
10.1083855245532
30
0
41
1
10
202.353809253019
20
10.3092260885662
30
0
41
1
10
202.426928036019
20
10.3822215933781
30
0
41
1
10
202.573165602019
20
10.4775967528344
30
0
41
1
10
202.646284385019
20
10.5
30
0
41
1
10
202.71940316802
20
10.5
30
0
0
SPLINE
5
F9
100
AcDbEntity
8
1
62
256
6
ByLayer
370
13
48
1
60
0
100
AcDbSpline
70
4
71
3
72
44
73
40
40
0
40
0
40
0
40
0
40
0.0624999999999976
40
0.0624999999999976
40
0.124999999999995
40
0.124999999999995
40
0.187499999999993
40
0.187499999999993
40
0.24999999999999
40
0.24999999999999
40
0.312499999999988
40
0.312499999999988
40
0.374999999999986
40
0.374999999999986
40
0.437499999999983
40
0.437499999999983
40
0.499999999999981
40
0.499999999999981
40
0.562499999999978
40
0.562499999999978
40
0.593749999999977
40
0.593749999999977
40
0.601562499999978
40
0.601562499999978
40
0.609374999999978
40
0.609374999999978
40
0.624999999999979
40
0.624999999999979
40
0.687499999999983
40
0.687499999999983
40
0.749999999999986
40
0.749999999999986
40
0.81249999999999
40
0.81249999999999
40
0.874999999999993
40
0.874999999999993
40
0.937499999999996
40
0.937499999999996
40
1
40
1
40
1
40
1
41
1
10
202.133229170704
20
10.5
30
0
41
1
10
202.227918407569
20
10.5
30
0
41
1
10
202.322607644434
20
10.4623668657703
30
0
41
1
10
202.511986118163
20
10.2997391496172
30
0
41
1
10
202.606675355027
20
10.1746599609726
30
0
41
1
10
202.796053828757
20
9.82975238344363
30
0
41
1
10
202.890743065621
20
9.60985978601821
30
0
41
1
10
203.08012153935
20
9.07514157210557
30
0
41
1
10
203.174810776215
20
8.76029881944569
30
0
41
1
10
203.364189249944
20
8.04401887727002
30
0
41
1
10
203.458878486809
20
7.64262615387861
30
0
41
1
10
203.648256960538
20
6.76973452912236
30
0
41
1
10
203.742946197402
20
6.29833347215319
30
0
41
1
10
203.932324671132
20
5.30787252072378
30
0
41
1
10
204.027013907996
20
4.78893457346541
30
0
41
1
10
204.216392381726
20
3.72838127176783
30
0
41
1
10
204.31108161859
20
3.18687594432998
30
0
41
1
10
204.500460092319
20
2.10508687747793
30
0
41
1
10
204.595149329184
20
1.56487531864093
30
0
41
1
10
204.737183184481
20
0.770473103808683
30
0
41
1
10
204.784527802913
20
0.508287789037638
30
0
41
1
10
204.843708575953
20
0.185071396194417
30
0
41
1
10
204.855544730561
20
0.120653031316266
30
0
41
1
10
204.879217039778
20
-0.0077061377824634
30
0
41
1
10
204.891053194386
20
-0.0716878493477111
30
0
41
1
10
204.92656165821
20
-0.264810821326023
30
0
41
1
10
204.950233967426
20
-0.394492717576497
30
0
41
1
10
205.068595513507
20
-1.04698868299343
30
0
41
1
10
205.163284750372
20
-1.58226852500817
30
0
41
1
10
205.352663224101
20
-2.66115991499751
30
0
41
1
10
205.447352460965
20
-3.20471402116084
30
0
41
1
10
205.636730934694
20
-4.27735148975339
30
0
41
1
10
205.731420171559
20
-4.80633506455544
30
0
41
1
10
205.920798645288
20
-5.82487028126957
30
0
41
1
10
206.015487882153
20
-6.31430008164506
30
0
41
1
10
206.204866355882
20
-7.2300293947676
30
0
41
1
10
206.299555592747
20
-7.65621937036465
30
0
41
1
10
206.488934066476
20
-8.42664489787595
30
0
41
1
10
206.58362330334
20
-8.77081662814587
30
0
41
1
10
206.678312540205
20
-9.06839599877415
30
0
0
SPLINE
5
FA
100
AcDbEntity
8
1
62
256
6
ByLayer
370
13
48
1
60
0
100
AcDbSpline
70
4
71
3
72
77
73
73
40
0
40
0
40
0
40
0
40
0.0312500000000001
40
0.0312500000000001
40
0.0625000000000001
40
0.0625000000000001
40
0.0937500000000002
40
0.0937500000000002
40
0.125
40
0.125
40
0.15625
40
0.15625
40
0.1640625
40
0.1640625
40
0.171875
40
0.1875
40
0.1875
40
0.218749999999999
40
0.218749999999999
40
0.249999999999998
40
0.249999999999998
40
0.281249999999997
40
0.281249999999997
40
0.312499999999997
40
0.312499999999997
40
0.343749999999996
40
0.343749999999996
40
0.374999999999995
40
0.374999999999995
40
0.406249999999994
40
0.406249999999994
40
0.437499999999993
40
0.437499999999993
40
0.468749999999993
40
0.468749999999993
40
0.499999999999992
40
0.499999999999992
40
0.531249999999991
40
0.531249999999991
40
0.56249999999999
40
0.56249999999999
40
0.57812499999999
40
0.57812499999999
40
0.58593749999999
40
0.58593749999999
40
0.59374999999999
40
0.59374999999999
40
0.624999999999991
40
0.624999999999991
40
0.656249999999992
40
0.656249999999992
40
0.687499999999993
40
0.687499999999993
40
0.718749999999993
40
0.718749999999993
40
0.749999999999994
40
0.749999999999994
40
0.781249999999995
40
0.781249999999995
40
0.812499999999996
40
0.812499999999996
40
0.843749999999996
40
0.843749999999996
40
0.874999999999997
40
0.874999999999997
40
0.906249999999998
40
0.906249999999998
40
0.937499999999999
40
0.937499999999999
40
0.968749999999999
40
0.968749999999999
40
1
40
1
40
1
40
1
41
1
10
195.7
20
-8.76722768772424
30
0
41
1
10
195.767963952374
20
-9.00186636241983
30
0
41
1
10
195.835927904748
20
-9.21326985095209
30
0
41
1
10
195.971855809495
20
-9.58718829693524
30
0
41
1
10
196.039819761869
20
-9.74970738526622
30
0
41
1
10
196.175747666616
20
-10.0256876094585
30
0
41
1
10
196.24371161899
20
-10.1391596029832
30
0
41
1
10
196.379639523738
20
-10.3189009758925
30
0
41
1
10
196.447603476112
20
-10.3851853583042
30
0
41
1
10
196.583531380859
20
-10.4740331143901
30
0
41
1
10
196.651495333233
20
-10.4966128744267
30
0
41
1
10
196.7364502737
20
-10.5004034633219
30
0
41
1
10
196.753441261794
20
-10.4999536189871
30
0
41
1
10
196.78742323798
20
-10.496596208038
30
0
41
1
10
196.838396202261
20
-10.4878585417841
30
0
41
1
10
196.889369166541
20
-10.4676694612716
30
0
41
1
10
196.991315095102
20
-10.4111752586608
30
0
41
1
10
197.059279047476
20
-10.3519818749871
30
0
41
1
10
197.195206952223
20
-10.1868716217728
30
0
41
1
10
197.263170904597
20
-10.0809393563456
30
0
41
1
10
197.399098809344
20
-9.82020520131573
30
0
41
1
10
197.467062761718
20
-9.66539162303809
30
0
41
1
10
197.602990666466
20
-9.30671481356504
30
0
41
1
10
197.670954618839
20
-9.10284626012901
30
0
41
1
10
197.806882523587
20
-8.64811067490047
30
0
41
1
10
197.874846475961
20
-8.39724652003952
30
0
41
1
10
198.010774380708
20
-7.85284473908041
30
0
41
1
10
198.078738333082
20
-7.55931852768484
30
0
41
1
10
198.21466623783
20
-6.93597672412596
30
0
41
1
10
198.282630190203
20
-6.60617965143194
30
0
41
1
10
198.418558094951
20
-5.91828301700542
30
0
41
1
10
198.486522047325
20
-5.56020615873919
30
0
41
1
10
198.622449952072
20
-4.82470879661471
30
0
41
1
10
198.690413904446
20
-4.4473115411312
30
0
41
1
10
198.826341809194
20
-3.68240049738151
30
0
41
1
10
198.894305761567
20
-3.29490710025297
30
0
41
1
10
199.030233666315
20
-2.51863196038565
30
0
41
1
10
199.098197618689
20
-2.12986536294903
30
0
41
1
10
199.234125523436
20
-1.35893193275513
30
0
41
1
10
199.30208947581
20
-0.976773980083834
30
0
41
1
10
199.40403540437
20
-0.41342561076354
30
0
41
1
10
199.438017380557
20
-0.227279945264172
30
0
41
1
10
199.488990344838
20
0.0489695083381605
30
0
41
1
10
199.505981332931
20
0.141007428021766
30
0
41
1
10
199.539963309118
20
0.326493744075833
30
0
41
1
10
199.556954297212
20
0.419702914094728
30
0
41
1
10
199.641909237679
20
0.887862185032134
30
0
41
1
10
199.709873190052
20
1.26920854117799
30
0
41
1
10
199.8458010948
20
2.03908239406769
30
0
41
1
10
199.913765047174
20
2.42760150358231
30
0
41
1
10
200.049692951921
20
3.20403650900227
30
0
41
1
10
200.117656904295
20
3.59193773033965
30
0
41
1
10
200.253584809043
20
4.35837555292585
30
0
41
1
10
200.321548761417
20
4.73689210349434
30
0
41
1
10
200.457476666164
20
5.47534794022846
30
0
41
1
10
200.525440618538
20
5.83526408786969
30
0
41
1
10
200.661368523285
20
6.52751328600684
30
0
41
1
10
200.729332475659
20
6.85982345662512
30
0
41
1
10
200.865260380407
20
7.48876573073355
30
0
41
1
10
200.93322433278
20
7.78537886781396
30
0
41
1
10
201.069152237528
20
8.33638474107639
30
0
41
1
10
201.137116189902
20
8.59076543357565
30
0
41
1
10
201.273044094649
20
9.05279252220762
30
0
41
1
10
201.341008047023
20
9.26043536425422
30
0
41
1
10
201.476935951771
20
9.62673972314423
30
0
41
1
10
201.544899904145
20
9.78540597201919
30
0
41
1
10
201.680827808892
20
10.0537568566495
30
0
41
1
10
201.748791761266
20
10.1634527737751
30
0
41
1
10
201.884719666013
20
10.3358612922401
30
0
41
1
10
201.952683618387
20
10.3985891015705
30
0
41
1
10
202.088611523135
20
10.4806502614594
30
0
41
1
10
202.156575475508
20
10.5
30
0
41
1
10
202.224539427882
20
10.5
30
0
0
SPLINE
5
FB
100
AcDbEntity
8
1
62
256
6
ByLayer
370
13
48
1
60
0
100
AcDbSpline
70
4
71
3
72
58
73
54
40
0
40
0
40
0
40
0
40
0.0625000000000012
40
0.0625000000000012
40
0.125000000000002
40
0.125000000000002
40
0.187500000000004
40
0.187500000000004
40
0.218750000000004
40
0.218750000000004
40
0.250000000000005
40
0.250000000000005
40
0.281250000000005
40
0.281250000000005
40
0.312500000000006
40
0.312500000000006
40
0.343750000000007
40
0.343750000000007
40
0.375000000000007
40
0.375000000000007
40
0.437500000000008
40
0.437500000000008
40
0.500000000000009
40
0.500000000000009
40
0.531250000000009
40
0.531250000000009
40
0.53906250000001
40
0.53906250000001
40
0.54687500000001
40
0.54687500000001
40
0.56250000000001
40
0.56250000000001
40
0.625000000000009
40
0.625000000000009
40
0.687500000000007
40
0.687500000000007
40
0.718750000000006
40
0.718750000000006
40
0.750000000000005
40
0.750000000000005
40
0.781250000000004
40
0.781250000000004
40
0.812500000000004
40
0.812500000000004
40
0.843750000000003
40
0.843750000000003
40
0.875000000000002
40
0.875000000000002
40
0.906250000000001
40
0.906250000000001
40
0.937500000000001
40
0.937500000000001
40
1
40
1
40
1
40
1
41
1
10
201.638365430567
20
10.5
30
0
41
1
10
201.743364328684
20
10.5
30
0
41
1
10
201.848363226802
20
10.453679471563
30
0
41
1
10
202.058361023037
20
10.2521980880356
30
0
41
1
10
202.163359921154
20
10.0968973428554
30
0
41
1
10
202.373357717389
20
9.66875637712272
30
0
41
1
10
202.478356615506
20
9.39582269613291
30
0
41
1
10
202.635854962683
20
8.90035684421343
30
0
41
1
10
202.688354411741
20
8.72095640729
30
0
41
1
10
202.793353309859
20
8.33524469606252
30
0
41
1
10
202.845852758917
20
8.12893537376604
30
0
41
1
10
202.950851657035
20
7.69176966308331
30
0
41
1
10
203.003351106094
20
7.46091698462166
30
0
41
1
10
203.108350004211
20
6.97772692970369
30
0
41
1
10
203.16084945327
20
6.72539471090229
30
0
41
1
10
203.265848351387
20
6.20287210933489
30
0
41
1
10
203.318347800446
20
5.93268783980074
30
0
41
1
10
203.423346698564
20
5.37848070762328
30
0
41
1
10
203.475846147622
20
5.09446431886855
30
0
41
1
10
203.633344494799
20
4.22798939615021
30
0
41
1
10
203.738343392916
20
3.63120809848658
30
0
41
1
10
203.948341189151
20
2.43252335097753
30
0
41
1
10
204.053340087268
20
1.83075812778316
30
0
41
1
10
204.210838434444
20
0.9456413269736
30
0
41
1
10
204.263337883503
20
0.653471945642423
30
0
41
1
10
204.328962194827
20
0.293605741498197
30
0
41
1
10
204.342087057091
20
0.221898504795263
30
0
41
1
10
204.368336781621
20
0.0790548702611318
30
0
41
1
10
204.381461643886
20
0.0081148442575341
30
0
41
1
10
204.42083623068
20
-0.205441681689251
30
0
41
1
10
204.447085955209
20
-0.348985951263359
30
0
41
1
10
204.578334577856
20
-1.07179316472917
30
0
41
1
10
204.683333475973
20
-1.66662388285479
30
0
41
1
10
204.893331272208
20
-2.86435849701087
30
0
41
1
10
204.998330170325
20
-3.46715929038331
30
0
41
1
10
205.155828517502
20
-4.35359185211485
30
0
41
1
10
205.20832796656
20
-4.64606654504303
30
0
41
1
10
205.313326864678
20
-5.22078212091515
30
0
41
1
10
205.365826313737
20
-5.50301669965754
30
0
41
1
10
205.470825211854
20
-6.05304846468937
30
0
41
1
10
205.523324660913
20
-6.32083919159427
30
0
41
1
10
205.62832355903
20
-6.83800912573582
30
0
41
1
10
205.680823008089
20
-7.08738232497672
30
0
41
1
10
205.785821906207
20
-7.56416194079461
30
0
41
1
10
205.838321355265
20
-7.79156338639791
30
0
41
1
10
205.943320253383
20
-8.22143000169086
30
0
41
1
10
205.995819702441
20
-8.42389170697282
30
0
41
1
10
206.100818600559
20
-8.8016233304007
30
0
41
1
10
206.153318049618
20
-8.97689156928689
30
0
41
1
10
206.258316947735
20
-9.29877276575323
30
0
41
1
10
206.310816396794
20
-9.44538588013492
30
0
41
1
10
206.46831474397
20
-9.84126930735874
30
0
41
1
10
206.573313642087
20
-10.0462351037818
30
0
41
1
10
206.678312540205
20
-10.1942021128439
30
0
0
SPLINE
5
FC
100
AcDbEntity
8
1
62
256
6
ByLayer
370
13
48
1
60
0
100
AcDbSpline
70
4
71
3
72
78
73
74
40
0
40
0
40
0
40
0
40
0.0312500000000015
40
0.0312500000000015
40
0.0625000000000031
40
0.0625000000000031
40
0.0781250000000034
40
0.0781250000000034
40
0.0859375000000036
40
0.0859375000000036
40
0.0937500000000038
40
0.0937500000000038
40
0.125000000000004
40
0.125000000000004
40
0.156250000000003
40
0.156250000000003
40
0.187500000000003
40
0.187500000000003
40
0.218750000000003
40
0.218750000000003
40
0.250000000000003
40
0.250000000000003
40
0.281250000000003
40
0.281250000000003
40
0.312500000000002
40
0.312500000000002
40
0.343750000000002
40
0.343750000000002
40
0.375000000000002
40
0.375000000000002
40
0.406250000000002
40
0.406250000000002
40
0.437500000000002
40
0.437500000000002
40
0.468750000000002
40
0.468750000000002
40
0.500000000000002
40
0.500000000000002
40
0.531250000000001
40
0.531250000000001
40
0.539062500000002
40
0.539062500000002
40
0.546875000000002
40
0.546875000000002
40
0.562500000000002
40
0.562500000000002
40
0.593750000000002
40
0.593750000000002
40
0.625000000000002
40
0.625000000000002
40
0.656250000000002
40
0.656250000000002
40
0.687500000000002
40
0.687500000000002
40
0.718750000000001
40
0.718750000000001
40
0.750000000000001
40
0.750000000000001
40
0.781250000000001
40
0.781250000000001
40
0.812500000000001
40
0.812500000000001
40
0.843750000000001
40
0.843750000000001
40
0.875000000000001
40
0.875000000000001
40
0.906250000000001
40
0.906250000000001
40
0.9375
40
0.9375
40
0.96875
40
0.96875
40
1
40
1
40
1
40
1
41
1
10
195.7
20
-10.0511682980712
30
0
41
1
10
195.762809121747
20
-10.1594973551393
30
0
41
1
10
195.825618243495
20
-10.2471379539448
30
0
41
1
10
195.951236486989
20
-10.3830296835828
30
0
41
1
10
196.014045608737
20
-10.4312914720771
30
0
41
1
10
196.108259291358
20
-10.4764454255836
30
0
41
1
10
196.139663852231
20
-10.4869642482431
30
0
41
1
10
196.186770693542
20
-10.496284782701
30
0
41
1
10
196.202472973979
20
-10.4983156701038
30
0
41
1
10
196.233877534852
20
-10.5002858524976
30
0
41
1
10
196.249579815289
20
-10.500233308928
30
0
41
1
10
196.328091217474
20
-10.4947705698395
30
0
41
1
10
196.390900339221
20
-10.4736178692519
30
0
41
1
10
196.516518582715
20
-10.394124201393
30
0
41
1
10
196.579327704463
20
-10.3357721756603
30
0
41
1
10
196.704945947957
20
-10.1790559169049
30
0
41
1
10
196.767755069705
20
-10.0806813687584
30
0
41
1
10
196.8933733132
20
-9.84224252892437
30
0
41
1
10
196.956182434947
20
-9.70217024943454
30
0
41
1
10
197.081800678442
20
-9.38008567291635
30
0
41
1
10
197.144609800189
20
-9.19806926187084
30
0
41
1
10
197.270228043684
20
-8.79346075393315
30
0
41
1
10
197.333037165431
20
-8.5708695495986
30
0
41
1
10
197.458655408925
20
-8.08814253728912
30
0
41
1
10
197.521464530673
20
-7.82801300250367
30
0
41
1
10
197.647082774168
20
-7.27480026147217
30
0
41
1
10
197.709891895915
20
-6.98172814094775
30
0
41
1
10
197.83551013941
20
-6.36851747848763
30
0
41
1
10
197.898319261157
20
-6.04839339193714
30
0
41
1
10
198.023937504652
20
-5.38787289040252
30
0
41
1
10
198.086746626399
20
-5.04749229796306
30
0
41
1
10
198.212364869894
20
-4.35369741313028
30
0
41
1
10
198.275173991641
20
-4.00029820882023
30
0
41
1
10
198.400792235136
20
-3.2876775434155
30
0
41
1
10
198.463601356883
20
-2.92846868512166
30
0
41
1
10
198.589219600378
20
-2.2109912855386
30
0
41
1
10
198.652028722125
20
-1.85273176338637
30
0
41
1
10
198.77764696562
20
-1.14313881832706
30
0
41
1
10
198.840456087367
20
-0.791810474448823
30
0
41
1
10
198.918967489551
20
-0.360101856262901
30
0
41
1
10
198.934669769988
20
-0.274130147256813
30
0
41
1
10
198.966074330862
20
-0.102994232707289
30
0
41
1
10
198.981776611299
20
-0.018101991438499
30
0
41
1
10
199.028883452609
20
0.237431491562319
30
0
41
1
10
199.060288013483
20
0.409465312315632
30
0
41
1
10
199.154501696104
20
0.929790296924068
30
0
41
1
10
199.217310817851
20
1.28233721460086
30
0
41
1
10
199.342929061346
20
1.99363478080758
30
0
41
1
10
199.405738183093
20
2.35237983680287
30
0
41
1
10
199.531356426588
20
3.06997898867559
30
0
41
1
10
199.594165548335
20
3.42882355847348
30
0
41
1
10
199.71978379183
20
4.13978608579239
30
0
41
1
10
199.782592913577
20
4.49189103533357
30
0
41
1
10
199.908211157072
20
5.18213821278107
30
0
41
1
10
199.971020278819
20
5.52026514472433
30
0
41
1
10
200.096638522314
20
6.17534965431483
30
0
41
1
10
200.159447644061
20
6.49229146637242
30
0
41
1
10
200.285065887556
20
7.0983020846146
30
0
41
1
10
200.347875009303
20
7.38735677169456
30
0
41
1
10
200.473493252798
20
7.93184907250617
30
0
41
1
10
200.536302374545
20
8.18727616721119
30
0
41
1
10
200.66192061804
20
8.66010559879885
30
0
41
1
10
200.724729739787
20
8.87750235794846
30
0
41
1
10
200.850347983282
20
9.27144573116851
30
0
41
1
10
200.913157105029
20
9.4479921511001
30
0
41
1
10
201.038775348524
20
9.75907913664025
30
0
41
1
10
201.101584470271
20
9.8936244027837
30
0
41
1
10
201.227202713766
20
10.121152726782
30
0
41
1
10
201.290011835513
20
10.2141441709837
30
0
41
1
10
201.415630079008
20
10.3604063092993
30
0
41
1
10
201.478439200755
20
10.4136875035163
30
0
41
1
10
201.60405744425
20
10.4834788240817
30
0
41
1
10
201.666866565997
20
10.5
30
0
41
1
10
201.729675687745
20
10.5
30
0
0
SPLINE
5
FD
100
AcDbEntity
8
1
62
256
6
ByLayer
370
13
48
1
60
0
100
AcDbSpline
70
4
71
3
72
78
73
74
40
0
40
0
40
0
40
0
40
0.0312500000000005
40
0.0312500000000005
40
0.062500000000001
40
0.062500000000001
40
0.0937500000000015
40
0.0937500000000015
40
0.125000000000002
40
0.125000000000002
40
0.156250000000002
40
0.156250000000002
40
0.187500000000003
40
0.187500000000003
40
0.218750000000004
40
0.218750000000004
40
0.250000000000004
40
0.250000000000004
40
0.281250000000005
40
0.281250000000005
40
0.312500000000005
40
0.312500000000005
40
0.343750000000006
40
0.343750000000006
40
0.375000000000006
40
0.375000000000006
40
0.406250000000007
40
0.406250000000007
40
0.437500000000007
40
0.437500000000007
40
0.468750000000008
40
0.468750000000008
40
0.484375000000008
40
0.484375000000008
40
0.492187500000008
40
0.492187500000008
40
0.500000000000009
40
0.500000000000009
40
0.531250000000009
40
0.531250000000009
40
0.562500000000008
40
0.562500000000008
40
0.593750000000008
40
0.593750000000008
40
0.625000000000007
40
0.625000000000007
40
0.656250000000007
40
0.656250000000007
40
0.687500000000006
40
0.687500000000006
40
0.718750000000006
40
0.718750000000006
40
0.750000000000005
40
0.750000000000005
40
0.781250000000005
40
0.781250000000005
40
0.812500000000004
40
0.812500000000004
40
0.843750000000004
40
0.843750000000004
40
0.875000000000003
40
0.875000000000003
40
0.906250000000003
40
0.906250000000003
40
0.937500000000002
40
0.937500000000002
40
0.968750000000002
40
0.968750000000002
40
0.984375000000001
40
0.984375000000001
40
0.992187500000001
40
0.992187500000001
40
1
40
1
40
1
40
1
41
1
10
201.143501690429
20
10.5
30
0
41
1
10
201.201155970114
20
10.5
30
0
41
1
10
201.258810249799
20
10.4860829019268
30
0
41
1
10
201.37411880917
20
10.4275274343655
30
0
41
1
10
201.431773088855
20
10.3828818688037
30
0
41
1
10
201.547081648225
20
10.2605009867621
30
0
41
1
10
201.60473592791
20
10.1827586943111
30
0
41
1
10
201.720044487281
20
9.99256339553051
30
0
41
1
10
201.777698766966
20
9.88010447800758
30
0
41
1
10
201.893007326336
20
9.61979919994656
30
0
41
1
10
201.950661606022
20
9.47194887706274
30
0
41
1
10
202.065970165392
20
9.14127981183671
30
0
41
1
10
202.123624445077
20
8.9584598131203
30
0
41
1
10
202.238933004447
20
8.55944719550212
30
0
41
1
10
202.296587284132
20
8.34325648045356
30
0
41
1
10
202.411895843503
20
7.88026669117642
30
0
41
1
10
202.469550123188
20
7.63347269802006
30
0
41
1
10
202.584858682558
20
7.11310389938623
30
0
41
1
10
202.642512962243
20
6.83953688681549
30
0
41
1
10
202.757821521614
20
6.27031749956521
30
0
41
1
10
202.815475801299
20
5.97467474967416
30
0
41
1
10
202.930784360669
20
5.36660220645729
30
0
41
1
10
202.988438640355
20
5.054182742563
30
0
41
1
10
203.103747199725
20
4.41815410806342
30
0
41
1
10
203.16140147941
20
4.09455481628365
30
0
41
1
10
203.27671003878
20
3.44175532584552
30
0
41
1
10
203.334364318466
20
3.112563580494
30
0
41
1
10
203.449672877836
20
2.45388091025885
30
0
41
1
10
203.507327157521
20
2.12439636228436
30
0
41
1
10
203.622635716891
20
1.4699180926292
30
0
41
1
10
203.680289996576
20
1.1449283973707
30
0
41
1
10
203.766771416104
20
0.663903109721304
30
0
41
1
10
203.795598555947
20
0.504632305448638
30
0
41
1
10
203.838839265711
20
0.267665919017929
30
0
41
1
10
203.853252835632
20
0.18900005373041
30
0
41
1
10
203.882079975475
20
0.0323652354532271
30
0
41
1
10
203.896493545396
20
-0.0454456505886753
30
0
41
1
10
203.968561395002
20
-0.437226761711145
30
0
41
1
10
204.026215674688
20
-0.756234723898814
30
0
41
1
10
204.141524234058
20
-1.40185073737265
30
0
41
1
10
204.199178513743
20
-1.72845646387074
30
0
41
1
10
204.314487073113
20
-2.38496349217047
30
0
41
1
10
204.372141352798
20
-2.71486014110698
30
0
41
1
10
204.487449912169
20
-3.37301042160598
30
0
41
1
10
204.545104191854
20
-3.70125708610539
30
0
41
1
10
204.660412751224
20
-4.35070940757439
30
0
41
1
10
204.718067030909
20
-4.67190615677364
30
0
41
1
10
204.83337559028
20
-5.30164121916772
30
0
41
1
10
204.891029869965
20
-5.61016942928651
30
0
41
1
10
205.006338429335
20
-6.20901896665168
30
0
41
1
10
205.06399270902
20
-6.49933003536432
30
0
41
1
10
205.179301268391
20
-7.05657553150974
30
0
41
1
10
205.236955548076
20
-7.32350071460831
30
0
41
1
10
205.352264107446
20
-7.82948050536163
30
0
41
1
10
205.409918387132
20
-8.06852796510449
30
0
41
1
10
205.525226946502
20
-8.51518411443578
30
0
41
1
10
205.582881226187
20
-8.72278853585459
30
0
41
1
10
205.698189785557
20
-9.10409007878346
30
0
41
1
10
205.755844065242
20
-9.2777861518108
30
0
41
1
10
205.871152624613
20
-9.58998274708728
30
0
41
1
10
205.928806904298
20
-9.72848529941024
30
0
41
1
10
206.044115463668
20
-9.97017116530299
30
0
41
1
10
206.101769743353
20
-10.0733590375941
30
0
41
1
10
206.217078302724
20
-10.2453551138828
30
0
41
1
10
206.274732582409
20
-10.3141695970768
30
0
41
1
10
206.390041141779
20
-10.4192558395742
30
0
41
1
10
206.447695421464
20
-10.4555347101313
30
0
41
1
10
206.534176840992
20
-10.4874434706102
30
0
41
1
10
206.563003980835
20
-10.4943328623129
30
0
41
1
10
206.606244690598
20
-10.4993182472552
30
0
41
1
10
206.62065826052
20
-10.5000889446174
30
0
41
1
10
206.649485400362
20
-10.4998948029105
30
0
41
1
10
206.663898970284
20
-10.4989275688448
30
0
41
1
10
206.678312540205
20
-10.4970664848188
30
0
0
SPLINE
5
FE
100
AcDbEntity
8
1
62
256
6
ByLayer
370
13
48
1
60
0
100
AcDbSpline
70
4
71
3
72
77
73
73
40
0
40
0
40
0
40
0
40
0.0078125000000011
40
0.0078125000000011
40
0.0156250000000021
40
0.0156250000000021
40
0.0312500000000033
40
0.0312500000000033
40
0.0625000000000056
40
0.0625000000000056
40
0.093750000000008
40
0.093750000000008
40
0.12500000000001
40
0.12500000000001
40
0.156250000000013
40
0.156250000000013
40
0.187500000000015
40
0.187500000000015
40
0.218750000000017
40
0.218750000000017
40
0.25000000000002
40
0.25000000000002
40
0.281250000000022
40
0.281250000000022
40
0.312500000000024
40
0.312500000000024
40
0.343750000000027
40
0.343750000000027
40
0.375000000000029
40
0.375000000000029
40
0.406250000000031
40
0.406250000000031
40
0.437500000000033
40
0.437500000000033
40
0.468750000000036
40
0.468750000000036
40
0.500000000000038
40
0.500000000000038
40
0.507812500000038
40
0.507812500000038
40
0.515625000000038
40
0.531250000000038
40
0.531250000000038
40
0.562500000000035
40
0.562500000000035
40
0.593750000000033
40
0.593750000000033
40
0.62500000000003
40
0.62500000000003
40
0.656250000000028
40
0.656250000000028
40
0.687500000000025
40
0.687500000000025
40
0.718750000000023
40
0.718750000000023
40
0.75000000000002
40
0.75000000000002
40
0.781250000000018
40
0.781250000000018
40
0.812500000000015
40
0.812500000000015
40
0.843750000000013
40
0.843750000000013
40
0.87500000000001
40
0.87500000000001
40
0.906250000000008
40
0.906250000000008
40
0.937500000000005
40
0.937500000000005
40
0.968750000000003
40
0.968750000000003
40
1
40
1
40
1
40
1
41
1
10
195.7
20
-10.4970663430648
30
0
41
1
10
195.71441357278
20
-10.4989274728446
30
0
41
1
10
195.72882714556
20
-10.499894751717
30
0
41
1
10
195.757654291121
20
-10.5000889811361
30
0
41
1
10
195.772067863901
20
-10.4993183276334
30
0
41
1
10
195.815308582242
20
-10.4943330753376
30
0
41
1
10
195.844135727802
20
-10.4874437729952
30
0
41
1
10
195.930617164484
20
-10.455535282571
30
0
41
1
10
195.988271455604
20
-10.4192565947084
30
0
41
1
10
196.103580037846
20
-10.3141707178887
30
0
41
1
10
196.161234328967
20
-10.2453564176684
30
0
41
1
10
196.276542911209
20
-10.0733607018509
30
0
41
1
10
196.33419720233
20
-9.97017300704357
30
0
41
1
10
196.449505784572
20
-9.72848748449678
30
0
41
1
10
196.507160075693
20
-9.58998509801947
30
0
41
1
10
196.622468657935
20
-9.2777888167422
30
0
41
1
10
196.680122949055
20
-9.10409289185111
30
0
41
1
10
196.795431531297
20
-8.7227916220229
30
0
41
1
10
196.853085822418
20
-8.51518732555292
30
0
41
1
10
196.96839440466
20
-8.0685313985627
30
0
41
1
10
197.026048695781
20
-7.82948403620071
30
0
41
1
10
197.141357278023
20
-7.32350440977581
30
0
41
1
10
197.199011569144
20
-7.05657929361959
30
0
41
1
10
197.314320151385
20
-6.49933389980888
30
0
41
1
10
197.371974442506
20
-6.20902286649044
30
0
41
1
10
197.487283024748
20
-5.61017336905661
30
0
41
1
10
197.544937315869
20
-5.30164516348324
30
0
41
1
10
197.660245898111
20
-4.67191008166907
30
0
41
1
10
197.717900189232
20
-4.35071330851724
30
0
41
1
10
197.833208771473
20
-3.70126091430487
30
0
41
1
10
197.890863062594
20
-3.37301420102989
30
0
41
1
10
198.006171644836
20
-2.71486380270736
30
0
41
1
10
198.063825935957
20
-2.38496708473809
30
0
41
1
10
198.179134518199
20
-1.72845990309401
30
0
41
1
10
198.23678880932
20
-1.40185409229741
30
0
41
1
10
198.352097391562
20
-0.756237899937986
30
0
41
1
10
198.409751682683
20
-0.437229843173128
30
0
41
1
10
198.481819546584
20
-0.0454486102981093
30
0
41
1
10
198.496233119364
20
0.0323622926458143
30
0
41
1
10
198.525060264924
20
0.188997124580538
30
0
41
1
10
198.568300983265
20
0.424993995991429
30
0
41
1
10
198.611541701606
20
0.663900228294551
30
0
41
1
10
198.698023138287
20
1.14492557318988
30
0
41
1
10
198.755677429408
20
1.46991531391524
30
0
41
1
10
198.87098601165
20
2.12439368872884
30
0
41
1
10
198.928640302771
20
2.45387829639753
30
0
41
1
10
199.043948885013
20
3.11256109900972
30
0
41
1
10
199.101603176133
20
3.4417529170436
30
0
41
1
10
199.216911758375
20
4.09455256369904
30
0
41
1
10
199.274566049496
20
4.4181519390097
30
0
41
1
10
199.389874631738
20
5.0541807484536
30
0
41
1
10
199.447528922859
20
5.36660030375373
30
0
41
1
10
199.562837505101
20
5.97467303403693
30
0
41
1
10
199.620491796222
20
6.27031587957802
30
0
41
1
10
199.735800378464
20
6.83953545837232
30
0
41
1
10
199.793454669584
20
7.11310256682523
30
0
41
1
10
199.908763251826
20
7.63347155341384
30
0
41
1
10
199.966417542947
20
7.88026563863141
30
0
41
1
10
200.081726125189
20
8.34325560448121
30
0
41
1
10
200.13938041631
20
8.55944640403197
30
0
41
1
10
200.254688998552
20
8.95845917999361
30
0
41
1
10
200.312343289672
20
9.14127925254559
30
0
41
1
10
200.427651871914
20
9.47194845252926
30
0
41
1
10
200.485306163035
20
9.61979883633342
30
0
41
1
10
200.600614745277
20
9.88010422204115
30
0
41
1
10
200.658269036398
20
9.99256318629256
30
0
41
1
10
200.77357761864
20
10.1827585640214
30
0
41
1
10
200.831231909761
20
10.2605008886973
30
0
41
1
10
200.946540492002
20
10.3828818212228
30
0
41
1
10
201.004194783123
20
10.4275274050503
30
0
41
1
10
201.119503365365
20
10.4860828963985
30
0
41
1
10
201.177157656486
20
10.5
30
0
41
1
10
201.234811947607
20
10.5
30
0
0
SPLINE
5
FF
100
AcDbEntity
8
1
62
256
6
ByLayer
370
13
48
1
60
0
100
AcDbSpline
70
4
71
3
72
77
73
73
40
0
40
0
40
0
40
0
40
0.0312500000000001
40
0.0312500000000001
40
0.0625000000000002
40
0.0625000000000002
40
0.0937500000000003
40
0.0937500000000003
40
0.125
40
0.125
40
0.156250000000001
40
0.156250000000001
40
0.187500000000001
40
0.187500000000001
40
0.218750000000001
40
0.218750000000001
40
0.250000000000001
40
0.250000000000001
40
0.281250000000001
40
0.281250000000001
40
0.312500000000001
40
0.312500000000001
40
0.343750000000001
40
0.343750000000001
40
0.375000000000001
40
0.375000000000001
40
0.406250000000001
40
0.406250000000001
40
0.437500000000002
40
0.437500000000002
40
0.453125000000001
40
0.453125000000001
40
0.460937500000001
40
0.460937500000001
40
0.468750000000002
40
0.468750000000002
40
0.500000000000002
40
0.500000000000002
40
0.531250000000002
40
0.531250000000002
40
0.562500000000002
40
0.562500000000002
40
0.593750000000002
40
0.593750000000002
40
0.625000000000002
40
0.625000000000002
40
0.656250000000002
40
0.656250000000002
40
0.687500000000002
40
0.687500000000002
40
0.718750000000003
40
0.718750000000003
40
0.750000000000003
40
0.750000000000003
40
0.781250000000003
40
0.781250000000003
40
0.812500000000003
40
0.812500000000003
40
0.843750000000003
40
0.843750000000003
40
0.875000000000003
40
0.875000000000003
40
0.906250000000003
40
0.906250000000003
40
0.914062500000003
40
0.914062500000003
40
0.921875000000004
40
0.937500000000003
40
0.937500000000003
40
0.968750000000002
40
0.968750000000002
40
1
40
1
40
1
40
1
41
1
10
200.648637950291
20
10.5
30
0
41
1
10
200.711447060603
20
10.5
30
0
41
1
10
200.774256170915
20
10.4834788301076
30
0
41
1
10
200.899874391538
20
10.4136875356115
30
0
41
1
10
200.96268350185
20
10.360406361448
30
0
41
1
10
201.088301722473
20
10.2141442786159
30
0
41
1
10
201.151110832784
20
10.1211528698534
30
0
41
1
10
201.276729053408
20
9.89362463254977
30
0
41
1
10
201.339538163719
20
9.75907941766775
30
0
41
1
10
201.465156384342
20
9.44799254975285
30
0
41
1
10
201.527965494654
20
9.27144619618619
30
0
41
1
10
201.653583715277
20
8.87750296881777
30
0
41
1
10
201.716392825589
20
8.66010628914995
30
0
41
1
10
201.842011046212
20
8.18727702645648
30
0
41
1
10
201.904820156523
20
7.93185002115297
30
0
41
1
10
202.030438377147
20
7.38735790491307
30
0
41
1
10
202.093247487458
20
7.09830331298821
30
0
41
1
10
202.218865708081
20
6.49229288609087
30
0
41
1
10
202.281674818393
20
6.17535117020628
30
0
41
1
10
202.407293039016
20
5.5202668491801
30
0
41
1
10
202.470102149328
20
5.18214000961291
30
0
41
1
10
202.595720369951
20
4.49189300872879
30
0
41
1
10
202.658529480263
20
4.13978814336375
30
0
41
1
10
202.784147700886
20
3.42882577261716
30
0
41
1
10
202.846956811198
20
3.06998127520961
30
0
41
1
10
202.972575031821
20
2.3523822538219
30
0
41
1
10
203.035384142132
20
1.99363725592093
30
0
41
1
10
203.161002362755
20
1.28233979025723
30
0
41
1
10
203.223811473067
20
0.929792915033346
30
0
41
1
10
203.318025138534
20
0.409467982184737
30
0
41
1
10
203.34942969369
20
0.237434176706301
30
0
41
1
10
203.396536526424
20
-0.0180992863067502
30
0
41
1
10
203.412238804002
20
-0.102991499390555
30
0
41
1
10
203.443643359158
20
-0.274127365439995
30
0
41
1
10
203.459345636735
20
-0.360099050399953
30
0
41
1
10
203.537857024625
20
-0.791807549581989
30
0
41
1
10
203.600666134937
20
-1.1431358021625
30
0
41
1
10
203.72628435556
20
-1.85272857811668
30
0
41
1
10
203.789093465872
20
-2.21098802247744
30
0
41
1
10
203.914711686495
20
-2.92846528594657
30
0
41
1
10
203.977520796806
20
-3.28767408593816
30
0
41
1
10
204.103139017429
20
-4.00029465991554
30
0
41
1
10
204.165948127741
20
-4.35369383112223
30
0
41
1
10
204.291566348364
20
-5.04748867972057
30
0
41
1
10
204.354375458676
20
-5.38786926904857
30
0
41
1
10
204.479993679299
20
-6.04838979757844
30
0
41
1
10
204.54280278961
20
-6.36851391424895
30
0
41
1
10
204.668421010234
20
-6.9817246713551
30
0
41
1
10
204.731230120545
20
-7.27479685640938
30
0
41
1
10
204.856848341169
20
-7.82800975976804
30
0
41
1
10
204.91965745148
20
-8.08813939234398
30
0
41
1
10
205.045275672103
20
-8.57086663007919
30
0
41
1
10
205.108084782415
20
-8.79345796203268
30
0
41
1
10
205.233703003038
20
-9.19806674970036
30
0
41
1
10
205.29651211335
20
-9.38008331283436
30
0
41
1
10
205.422130333973
20
-9.70216821133576
30
0
41
1
10
205.484939444284
20
-9.84224066069595
30
0
41
1
10
205.610557664908
20
-10.0806798507792
30
0
41
1
10
205.673366775219
20
-10.1790545792824
30
0
41
1
10
205.798984995842
20
-10.335771202063
30
0
41
1
10
205.861794106154
20
-10.3941234114474
30
0
41
1
10
205.987412326777
20
-10.473617443419
30
0
41
1
10
206.050221437089
20
-10.4947703244575
30
0
41
1
10
206.128732824978
20
-10.5002332837408
30
0
41
1
10
206.144435102556
20
-10.5002858707189
30
0
41
1
10
206.175839657712
20
-10.4983157777882
30
0
41
1
10
206.222946490446
20
-10.4922239045527
30
0
41
1
10
206.270053323179
20
-10.4764458171256
30
0
41
1
10
206.364266988647
20
-10.4312921688117
30
0
41
1
10
206.427076098959
20
-10.3830305999494
30
0
41
1
10
206.552694319582
20
-10.2471393385796
30
0
41
1
10
206.615503429893
20
-10.1594989884138
30
0
41
1
10
206.678312540205
20
-10.0511701915364
30
0
0
SPLINE
5
100
100
AcDbEntity
8
1
62
256
6
ByLayer
370
13
48
1
60
0
100
AcDbSpline
70
4
71
3
72
58
73
54
40
0
40
0
40
0
40
0
40
0.0624999999999965
40
0.0624999999999965
40
0.0937499999999952
40
0.0937499999999952
40
0.124999999999994
40
0.124999999999994
40
0.156249999999993
40
0.156249999999993
40
0.187499999999991
40
0.187499999999991
40
0.21874999999999
40
0.21874999999999
40
0.249999999999989
40
0.249999999999989
40
0.281249999999988
40
0.281249999999988
40
0.312499999999986
40
0.312499999999986
40
0.374999999999985
40
0.374999999999985
40
0.437499999999983
40
0.437499999999983
40
0.453124999999984
40
0.453124999999984
40
0.460937499999984
40
0.460937499999984
40
0.468749999999984
40
0.468749999999984
40
0.499999999999985
40
0.499999999999985
40
0.562499999999986
40
0.562499999999986
40
0.624999999999988
40
0.624999999999988
40
0.656249999999989
40
0.656249999999989
40
0.68749999999999
40
0.68749999999999
40
0.718749999999991
40
0.718749999999991
40
0.749999999999992
40
0.749999999999992
40
0.781249999999994
40
0.781249999999994
40
0.812499999999995
40
0.812499999999995
40
0.874999999999997
40
0.874999999999997
40
0.937499999999998
40
0.937499999999998
40
1
40
1
40
1
40
1
41
1
10
195.7
20
-10.1942036599325
30
0
41
1
10
195.804998920989
20
-10.0462370127597
30
0
41
1
10
195.909997841978
20
-9.84127156973949
30
0
41
1
10
196.067496223461
20
-9.44538862945737
30
0
41
1
10
196.119995683956
20
-9.29877567018374
30
0
41
1
10
196.224994604945
20
-8.97689476477746
30
0
41
1
10
196.277494065439
20
-8.80162666183176
30
0
41
1
10
196.382492986428
20
-8.42389528703748
30
0
41
1
10
196.434992446923
20
-8.22143369443916
30
0
41
1
10
196.539991367912
20
-7.79156727817121
30
0
41
1
10
196.592490828406
20
-7.56416591890317
30
0
41
1
10
196.697489749395
20
-7.08738644755366
30
0
41
1
10
196.749989209889
20
-6.83801330644394
30
0
41
1
10
196.854988130878
20
-6.32084345986164
30
0
41
1
10
196.907487591373
20
-6.05305276238718
30
0
41
1
10
197.012486512362
20
-5.50302102836406
30
0
41
1
10
197.064985972856
20
-5.22078645120612
30
0
41
1
10
197.169984893846
20
-4.64607085272067
30
0
41
1
10
197.22248435434
20
-4.35359613560368
30
0
41
1
10
197.379982735823
20
-3.4671634672136
30
0
41
1
10
197.484981656812
20
-2.86436255712823
30
0
41
1
10
197.69497949879
20
-1.6666276496677
30
0
41
1
10
197.799978419779
20
-1.07179675524779
30
0
41
1
10
197.931227071015
20
-0.348989304680316
30
0
41
1
10
197.957476801262
20
-0.205444986840575
30
0
41
1
10
197.996851396633
20
0.0081116124269727
30
0
41
1
10
198.009976261757
20
0.0790516428733099
30
0
41
1
10
198.036225992004
20
0.22189529136827
30
0
41
1
10
198.049350857128
20
0.293602535460025
30
0
41
1
10
198.114975182746
20
0.653468778604264
30
0
41
1
10
198.16747464324
20
0.945638197736486
30
0
41
1
10
198.324973024724
20
1.83075513179037
30
0
41
1
10
198.429971945713
20
2.43252047061205
30
0
41
1
10
198.63996978769
20
3.63120549565468
30
0
41
1
10
198.744968708679
20
4.22798695519444
30
0
41
1
10
198.902467090163
20
5.09446214201338
30
0
41
1
10
198.954966550657
20
5.37847862226863
30
0
41
1
10
199.059965471646
20
5.93268594137234
30
0
41
1
10
199.112464932141
20
6.20287030632505
30
0
41
1
10
199.21746385313
20
6.72539309934251
30
0
41
1
10
199.269963313624
20
6.97772541416722
30
0
41
1
10
199.374962234613
20
7.46091565837199
30
0
41
1
10
199.427461695108
20
7.69176843008901
30
0
41
1
10
199.532460616097
20
8.12893432133529
30
0
41
1
10
199.584960076591
20
8.33524373093297
30
0
41
1
10
199.68995899758
20
8.72095560804101
30
0
41
1
10
199.742458458075
20
8.90035612353881
30
0
41
1
10
199.899956839558
20
9.39582219482625
30
0
41
1
10
200.004955760547
20
9.66875599987577
30
0
41
1
10
200.214953602525
20
10.0968971605411
30
0
41
1
10
200.319952523514
20
10.252197976662
30
0
41
1
10
200.529950365492
20
10.4536794512729
30
0
41
1
10
200.63494928648
20
10.5
30
0
41
1
10
200.739948207469
20
10.5
30
0
0
SPLINE
5
101
100
AcDbEntity
8
1
62
256
6
ByLayer
370
13
48
1
60
0
100
AcDbSpline
70
4
71
3
72
78
73
74
40
0
40
0
40
0
40
0
40
0.0312500000000008
40
0.0312500000000008
40
0.0625000000000016
40
0.0625000000000016
40
0.0937500000000024
40
0.0937500000000024
40
0.125000000000003
40
0.125000000000003
40
0.156250000000004
40
0.156250000000004
40
0.187500000000005
40
0.187500000000005
40
0.218750000000006
40
0.218750000000006
40
0.250000000000006
40
0.250000000000006
40
0.281250000000007
40
0.281250000000007
40
0.312500000000008
40
0.312500000000008
40
0.343750000000009
40
0.343750000000009
40
0.375000000000009
40
0.375000000000009
40
0.40625000000001
40
0.40625000000001
40
0.41406250000001
40
0.41406250000001
40
0.42187500000001
40
0.42187500000001
40
0.43750000000001
40
0.43750000000001
40
0.468750000000009
40
0.468750000000009
40
0.500000000000009
40
0.500000000000009
40
0.531250000000008
40
0.531250000000008
40
0.562500000000007
40
0.562500000000007
40
0.593750000000006
40
0.593750000000006
40
0.625000000000005
40
0.625000000000005
40
0.656250000000005
40
0.656250000000005
40
0.687500000000004
40
0.687500000000004
40
0.718750000000003
40
0.718750000000003
40
0.750000000000002
40
0.750000000000002
40
0.781250000000002
40
0.781250000000002
40
0.812500000000001
40
0.812500000000001
40
0.828125000000001
40
0.828125000000001
40
0.8359375
40
0.8359375
40
0.84375
40
0.84375
40
0.875
40
0.875
40
0.90625
40
0.90625
40
0.9375
40
0.9375
40
0.96875
40
0.96875
40
1
40
1
40
1
40
1
41
1
10
200.153774210154
20
10.5
30
0
41
1
10
200.221738151092
20
10.5
30
0
41
1
10
200.28970209203
20
10.4806502679837
30
0
41
1
10
200.425629973906
20
10.3985891364694
30
0
41
1
10
200.493593914844
20
10.335861349003
30
0
41
1
10
200.62952179672
20
10.1634528910709
30
0
41
1
10
200.697485737658
20
10.0537570126262
30
0
41
1
10
200.833413619534
20
9.78540622242153
30
0
41
1
10
200.901377560472
20
9.62674002929811
30
0
41
1
10
201.037305442348
20
9.26043579772099
30
0
41
1
10
201.105269383286
20
9.05279302723451
30
0
41
1
10
201.241197265162
20
8.59076609467181
30
0
41
1
10
201.309161206101
20
8.33638548667136
30
0
41
1
10
201.445089087977
20
7.78537979105792
30
0
41
1
10
201.513053028915
20
7.48876674710945
30
0
41
1
10
201.648980910791
20
6.85982466261618
30
0
41
1
10
201.716944851729
20
6.52751458845859
30
0
41
1
10
201.852872733605
20
5.83526558091734
30
0
41
1
10
201.920836674543
20
5.47534952738934
30
0
41
1
10
202.056764556419
20
4.73689387119035
30
0
41
1
10
202.124728497357
20
4.35837740702667
30
0
41
1
10
202.260656379233
20
3.59193974510669
30
0
41
1
10
202.328620320171
20
3.20403859802133
30
0
41
1
10
202.464548202047
20
2.42760372582876
30
0
41
1
10
202.532512142985
20
2.03908467528834
30
0
41
1
10
202.668440024861
20
1.26921092341246
30
0
41
1
10
202.736403965799
20
0.88786460931189
30
0
41
1
10
202.821358891972
20
0.419705380185832
30
0
41
1
10
202.838349877206
20
0.326496217995015
30
0
41
1
10
202.872331847675
20
0.141009916536547
30
0
41
1
10
202.88932283291
20
0.0489719939107829
30
0
41
1
10
202.940295788613
20
-0.227277386285152
30
0
41
1
10
202.974277759082
20
-0.413423003628395
30
0
41
1
10
203.076223670489
20
-0.976771231990028
30
0
41
1
10
203.144187611427
20
-1.35892909535335
30
0
41
1
10
203.280115493303
20
-2.12986236300927
30
0
41
1
10
203.348079434241
20
-2.51862888723929
30
0
41
1
10
203.484007316117
20
-3.29490390375884
30
0
41
1
10
203.551971257056
20
-3.68239725077504
30
0
41
1
10
203.687899138932
20
-4.44730822376374
30
0
41
1
10
203.75586307987
20
-4.82470545862793
30
0
41
1
10
203.891790961746
20
-5.56020281389252
30
0
41
1
10
203.959754902684
20
-5.91827968594157
30
0
41
1
10
204.09568278456
20
-6.60617638492863
30
0
41
1
10
204.163646725498
20
-6.93597350841173
30
0
41
1
10
204.299574607374
20
-7.55931545031822
30
0
41
1
10
204.367538548312
20
-7.85284174926821
30
0
41
1
10
204.503466430188
20
-8.39724373892008
30
0
41
1
10
204.571430371126
20
-8.64810801490023
30
0
41
1
10
204.707358253002
20
-9.10284387015963
30
0
41
1
10
204.77532219394
20
-9.30671257247764
30
0
41
1
10
204.911250075816
20
-9.66538969986067
30
0
41
1
10
204.979214016754
20
-9.82020344713291
30
0
41
1
10
205.11514189863
20
-10.0809379517696
30
0
41
1
10
205.183105839568
20
-10.1868703977786
30
0
41
1
10
205.319033721444
20
-10.3519810153468
30
0
41
1
10
205.386997662382
20
-10.41117458277
30
0
41
1
10
205.488943573789
20
-10.4676690577611
30
0
41
1
10
205.522925544258
20
-10.4811285350316
30
0
41
1
10
205.573898499962
20
-10.4936831589593
30
0
41
1
10
205.590889485196
20
-10.4965960732135
30
0
41
1
10
205.624871455665
20
-10.4999535724686
30
0
41
1
10
205.6418624409
20
-10.5004034602012
30
0
41
1
10
205.726817367073
20
-10.4966130935543
30
0
41
1
10
205.79478130801
20
-10.4740335293422
30
0
41
1
10
205.930709189887
20
-10.3851861991231
30
0
41
1
10
205.998673130824
20
-10.318902046767
30
0
41
1
10
206.134601012701
20
-10.1391611633003
30
0
41
1
10
206.202564953639
20
-10.025689429162
30
0
41
1
10
206.338492835515
20
-9.74970974488446
30
0
41
1
10
206.406456776453
20
-9.58719093706304
30
0
41
1
10
206.542384658329
20
-9.21327306202863
30
0
41
1
10
206.610348599267
20
-9.00186986389861
30
0
41
1
10
206.678312540205
20
-8.76723147787357
30
0
0
SPLINE
5
102
100
AcDbEntity
8
1
62
256
6
ByLayer
370
13
48
1
60
0
100
AcDbSpline
70
4
71
3
72
44
73
40
40
0
40
0
40
0
40
0
40
0.0624999999999988
40
0.0624999999999988
40
0.124999999999998
40
0.124999999999998
40
0.187499999999996
40
0.187499999999996
40
0.249999999999995
40
0.249999999999995
40
0.312499999999994
40
0.312499999999994
40
0.374999999999993
40
0.374999999999993
40
0.390624999999992
40
0.390624999999992
40
0.398437499999991
40
0.398437499999991
40
0.406249999999991
40
0.406249999999991
40
0.437499999999991
40
0.437499999999991
40
0.499999999999992
40
0.499999999999992
40
0.562499999999993
40
0.562499999999993
40
0.624999999999994
40
0.624999999999994
40
0.687499999999995
40
0.687499999999995
40
0.749999999999996
40
0.749999999999996
40
0.812499999999997
40
0.812499999999997
40
0.874999999999998
40
0.874999999999998
40
0.937499999999999
40
0.937499999999999
40
1
40
1
40
1
40
1
41
1
10
195.7
20
-9.06839944892056
30
0
41
1
10
195.794689259736
20
-8.7708203638345
30
0
41
1
10
195.889378519472
20
-8.42664888304176
30
0
41
1
10
196.078757038944
20
-7.6562237592718
30
0
41
1
10
196.17344629868
20
-7.23003393780687
30
0
41
1
10
196.362824818152
20
-6.3143048284843
30
0
41
1
10
196.457514077889
20
-5.82487507780428
30
0
41
1
10
196.646892597361
20
-4.80633986278548
30
0
41
1
10
196.741581857097
20
-4.27735624014917
30
0
41
1
10
196.930960376569
20
-3.20471859791965
30
0
41
1
10
197.025649636305
20
-2.66116436617611
30
0
41
1
10
197.215028155777
20
-1.58227267357122
30
0
41
1
10
197.309717415513
20
-1.04699265471294
30
0
41
1
10
197.428078990184
20
-0.394496452813968
30
0
41
1
10
197.451751305118
20
-0.264814508489053
30
0
41
1
10
197.487259777519
20
-0.0716914635151511
30
0
41
1
10
197.499095934986
20
-0.0077097253902707
30
0
41
1
10
197.52276824992
20
0.120649456952805
30
0
41
1
10
197.534604407387
20
0.185067828820024
30
0
41
1
10
197.593785194722
20
0.508284258456314
30
0
41
1
10
197.64112982459
20
0.77046960859019
30
0
41
1
10
197.783163714194
20
1.56487194745185
30
0
41
1
10
197.87785297393
20
2.1050836131426
30
0
41
1
10
198.067231493402
20
3.18687293751
30
0
41
1
10
198.161920753138
20
3.72837841560886
30
0
41
1
10
198.35129927261
20
4.78893205007944
30
0
41
1
10
198.445988532346
20
5.30787017936424
30
0
41
1
10
198.635367051818
20
6.29833150721925
30
0
41
1
10
198.730056311555
20
6.76973275843298
30
0
41
1
10
198.919434831027
20
7.64262476196004
30
0
41
1
10
199.014124090763
20
8.04401766971037
30
0
41
1
10
199.203502610235
20
8.76029795085969
30
0
41
1
10
199.298191869971
20
9.07514085802131
30
0
41
1
10
199.487570389443
20
9.60985933768734
30
0
41
1
10
199.582259649179
20
9.82975204634303
30
0
41
1
10
199.771638168651
20
10.1746597982139
30
0
41
1
10
199.866327428388
20
10.2997390500302
30
0
41
1
10
200.05570594786
20
10.4623668475127
30
0
41
1
10
200.150395207596
20
10.5
30
0
41
1
10
200.245084467332
20
10.5
30
0
0
SPLINE
5
103
100
AcDbEntity
8
1
62
256
6
ByLayer
370
13
48
1
60
0
100
AcDbSpline
70
4
71
3
72
76
73
72
40
0
40
0
40
0
40
0
40
0.0312499999999994
40
0.0312499999999994
40
0.0624999999999988
40
0.0624999999999988
40
0.0937499999999982
40
0.0937499999999982
40
0.124999999999998
40
0.124999999999998
40
0.156249999999997
40
0.156249999999997
40
0.187499999999996
40
0.187499999999996
40
0.218749999999996
40
0.218749999999996
40
0.249999999999995
40
0.249999999999995
40
0.281249999999994
40
0.281249999999994
40
0.312499999999994
40
0.312499999999994
40
0.343749999999993
40
0.343749999999993
40
0.374999999999992
40
0.374999999999992
40
0.390624999999992
40
0.390624999999992
40
0.406249999999992
40
0.406249999999992
40
0.437499999999991
40
0.437499999999991
40
0.46874999999999
40
0.46874999999999
40
0.49999999999999
40
0.49999999999999
40
0.531249999999989
40
0.531249999999989
40
0.562499999999988
40
0.562499999999988
40
0.593749999999988
40
0.593749999999988
40
0.624999999999987
40
0.624999999999987
40
0.656249999999986
40
0.656249999999986
40
0.687499999999986
40
0.687499999999986
40
0.718749999999985
40
0.718749999999985
40
0.749999999999985
40
0.749999999999985
40
0.781249999999984
40
0.781249999999984
40
0.789062499999984
40
0.789062499999984
40
0.796874999999984
40
0.796874999999984
40
0.812499999999986
40
0.812499999999986
40
0.843749999999988
40
0.843749999999988
40
0.87499999999999
40
0.87499999999999
40
0.906249999999993
40
0.906249999999993
40
0.937499999999995
40
0.937499999999995
40
0.968749999999997
40
0.968749999999997
40
1
40
1
40
1
40
1
41
1
10
199.658910470016
20
10.5
30
0
41
1
10
199.732029241581
20
10.5
30
0
41
1
10
199.805148013145
20
10.4775967598584
30
0
41
1
10
199.951385556274
20
10.3822216311041
30
0
41
1
10
200.024504327839
20
10.3092261499886
30
0
41
1
10
200.170741870968
20
10.108385651599
30
0
41
1
10
200.243860642532
20
9.98051934221115
30
0
41
1
10
200.390098185661
20
9.6678711397829
30
0
41
1
10
200.463216957226
20
9.48307485840542
30
0
41
1
10
200.609454500354
20
9.05726885774246
30
0
41
1
10
200.682573271919
20
8.8162557788861
30
0
41
1
10
200.828810815048
20
8.28176758510102
30
0
41
1
10
200.901929586612
20
7.9883023321421
30
0
41
1
10
201.048167129741
20
7.35561888540585
30
0
41
1
10
201.121285901306
20
7.01642299060813
30
0
41
1
10
201.267523444435
20
6.30145643429444
30
0
41
1
10
201.340642215999
20
5.92571669646659
30
0
41
1
10
201.486879759128
20
5.14849394976457
30
0
41
1
10
201.559998530692
20
4.74704473352335
30
0
41
1
10
201.706236073821
20
3.92989364148005
30
0
41
1
10
201.779354845386
20
3.51422249306324
30
0
41
1
10
201.925592388515
20
2.67978708253509
30
0
41
1
10
201.998711160079
20
2.26104602567261
30
0
41
1
10
202.144948703208
20
1.43047492203189
30
0
41
1
10
202.218067474773
20
1.01865847580515
30
0
41
1
10
202.327745632119
20
0.412335201649739
30
0
41
1
10
202.364305017902
20
0.212113082316335
30
0
41
1
10
202.437423789466
20
-0.183709226800033
30
0
41
1
10
202.473983175248
20
-0.383514937912622
30
0
41
1
10
202.583661332595
20
-0.989295176968938
30
0
41
1
10
202.65678010416
20
-1.40083691359348
30
0
41
1
10
202.803017647288
20
-2.23107812888333
30
0
41
1
10
202.876136418853
20
-2.64976424195777
30
0
41
1
10
203.022373961982
20
-3.4843449862112
30
0
41
1
10
203.095492733546
20
-3.90021662770619
30
0
41
1
10
203.241730276675
20
-4.71804302757704
30
0
41
1
10
203.31484904824
20
-5.1199671949679
30
0
41
1
10
203.461086591369
20
-5.89841116232844
30
0
41
1
10
203.534205362933
20
-6.27489717675229
30
0
41
1
10
203.680442906062
20
-6.99160017209445
30
0
41
1
10
203.753561677626
20
-7.33178608904217
30
0
41
1
10
203.899799220755
20
-7.96664357252388
30
0
41
1
10
203.97291799232
20
-8.26129257850752
30
0
41
1
10
204.119155535449
20
-8.79827608877011
30
0
41
1
10
204.192274307013
20
-9.04060041142495
30
0
41
1
10
204.338511850142
20
-9.46908322951862
30
0
41
1
10
204.411630621707
20
-9.65524478337457
30
0
41
1
10
204.557868164835
20
-9.97060668953526
30
0
41
1
10
204.6309869364
20
-10.0998212095804
30
0
41
1
10
204.777224479529
20
-10.3032804688287
30
0
41
1
10
204.850343251093
20
-10.3775463896129
30
0
41
1
10
204.996580794222
20
-10.4753393173943
30
0
41
1
10
205.069699565787
20
-10.4988899116339
30
0
41
1
10
205.161098030242
20
-10.5002294726595
30
0
41
1
10
205.179377723133
20
-10.4991029086916
30
0
41
1
10
205.215937108916
20
-10.4939691303013
30
0
41
1
10
205.234216801807
20
-10.4899610808273
30
0
41
1
10
205.28905588048
20
-10.4734740995207
30
0
41
1
10
205.325615266262
20
-10.4565296618713
30
0
41
1
10
205.435293423609
20
-10.3868072815542
30
0
41
1
10
205.508412195173
20
-10.3150797569675
30
0
41
1
10
205.654649738303
20
-10.1168543275256
30
0
41
1
10
205.727768509867
20
-9.99033502272005
30
0
41
1
10
205.874006052996
20
-9.6803997097976
30
0
41
1
10
205.94712482456
20
-9.4969690951821
30
0
41
1
10
206.093362367689
20
-9.07384246440211
30
0
41
1
10
206.166481139254
20
-8.83414278882225
30
0
41
1
10
206.312718682383
20
-8.30215594323528
30
0
41
1
10
206.385837453947
20
-8.00987831509801
30
0
41
1
10
206.532074997076
20
-7.37937807831071
30
0
41
1
10
206.60519376864
20
-7.04117750483223
30
0
41
1
10
206.678312540205
20
-6.6845682229654
30
0
0
SPLINE
5
104
100
AcDbEntity
8
1
62
256
6
ByLayer
370
13
48
1
60
0
100
AcDbSpline
70
4
71
3
72
44
73
40
40
0
40
0
40
0
40
0
40
0.06249999999999
40
0.06249999999999
40
0.12499999999998
40
0.12499999999998
40
0.18749999999997
40
0.18749999999997
40
0.24999999999996
40
0.24999999999996
40
0.31249999999995
40
0.31249999999995
40
0.32031249999995
40
0.32031249999995
40
0.328124999999949
40
0.328124999999949
40
0.34374999999995
40
0.34374999999995
40
0.374999999999952
40
0.374999999999952
40
0.437499999999957
40
0.437499999999957
40
0.499999999999962
40
0.499999999999962
40
0.562499999999967
40
0.562499999999967
40
0.624999999999971
40
0.624999999999971
40
0.687499999999976
40
0.687499999999976
40
0.749999999999981
40
0.749999999999981
40
0.812499999999986
40
0.812499999999986
40
0.87499999999999
40
0.87499999999999
40
0.937499999999995
40
0.937499999999995
40
1
40
1
40
1
40
1
41
1
10
195.7
20
-7.12001810128237
30
0
41
1
10
195.784379598483
20
-6.7270739681758
30
0
41
1
10
195.868759196966
20
-6.30692423338419
30
0
41
1
10
196.037518393933
20
-5.42800563952073
30
0
41
1
10
196.121897992416
20
-4.96930535686138
30
0
41
1
10
196.290657189383
20
-4.03088382031998
30
0
41
1
10
196.375036787866
20
-3.55122674382457
30
0
41
1
10
196.543795984832
20
-2.58812857306614
30
0
41
1
10
196.628175583315
20
-2.10473450400124
30
0
41
1
10
196.796934780282
20
-1.14932630843401
30
0
41
1
10
196.881314378765
20
-0.677336517352671
30
0
41
1
10
196.976241427059
20
-0.159502759061098
30
0
41
1
10
196.986788876869
20
-0.102146163472895
30
0
41
1
10
197.00788377649
20
0.0121865365279348
30
0
41
1
10
197.0184312263
20
0.0692230874427651
30
0
41
1
10
197.050073575732
20
0.241257719976716
30
0
41
1
10
197.071168475352
20
0.356690569226231
30
0
41
1
10
197.134453174215
20
0.704974086181153
30
0
41
1
10
197.176642973456
20
0.939816463557889
30
0
41
1
10
197.303212371181
20
1.65010265419079
30
0
41
1
10
197.387591969664
20
2.13139805360984
30
0
41
1
10
197.556351166631
20
3.09536037639802
30
0
41
1
10
197.640730765114
20
3.57798720800676
30
0
41
1
10
197.80948996208
20
4.52791048788723
30
0
41
1
10
197.893869560564
20
4.99514709987088
30
0
41
1
10
198.06262875753
20
5.89661023793863
30
0
41
1
10
198.147008356013
20
6.33076787030484
30
0
41
1
10
198.31576755298
20
7.14939501673911
30
0
41
1
10
198.400147151463
20
7.53380238626562
30
0
41
1
10
198.568906348429
20
8.23928216804151
30
0
41
1
10
198.653285946912
20
8.56031441446424
30
0
41
1
10
198.822045143879
20
9.13001820792641
30
0
41
1
10
198.906424742362
20
9.37868011617562
30
0
41
1
10
199.075183939329
20
9.80001015830814
30
0
41
1
10
199.159563537812
20
9.97269807374275
30
0
41
1
10
199.328322734778
20
10.2436741545645
30
0
41
1
10
199.412702333261
20
10.3420024091076
30
0
41
1
10
199.581461530228
20
10.4701413306092
30
0
41
1
10
199.665841128711
20
10.5
30
0
41
1
10
199.750220727194
20
10.5
30
0
0
SPLINE
5
105
100
AcDbEntity
8
1
62
256
6
ByLayer
370
13
48
1
60
0
100
AcDbSpline
70
4
71
3
72
80
73
76
40
0
40
0
40
0
40
0
40
0.0312500000000004
40
0.0312500000000004
40
0.0625000000000008
40
0.0625000000000008
40
0.0937500000000012
40
0.0937500000000012
40
0.125000000000002
40
0.125000000000002
40
0.156250000000002
40
0.156250000000002
40
0.187500000000002
40
0.187500000000002
40
0.218750000000003
40
0.218750000000003
40
0.250000000000003
40
0.250000000000003
40
0.281250000000004
40
0.281250000000004
40
0.312500000000004
40
0.312500000000004
40
0.343750000000004
40
0.343750000000004
40
0.359375000000005
40
0.359375000000005
40
0.363281250000005
40
0.363281250000005
40
0.367187500000005
40
0.367187500000005
40
0.375000000000005
40
0.375000000000005
40
0.406250000000005
40
0.406250000000005
40
0.437500000000006
40
0.437500000000006
40
0.468750000000006
40
0.468750000000006
40
0.500000000000007
40
0.500000000000007
40
0.531250000000007
40
0.531250000000007
40
0.562500000000007
40
0.562500000000007
40
0.593750000000008
40
0.593750000000008
40
0.625000000000008
40
0.625000000000008
40
0.656250000000009
40
0.656250000000009
40
0.687500000000009
40
0.687500000000009
40
0.71875000000001
40
0.71875000000001
40
0.726562500000009
40
0.726562500000009
40
0.734375000000009
40
0.734375000000009
40
0.750000000000008
40
0.750000000000008
40
0.781250000000007
40
0.781250000000007
40
0.812500000000006
40
0.812500000000006
40
0.843750000000005
40
0.843750000000005
40
0.875000000000004
40
0.875000000000004
40
0.906250000000003
40
0.906250000000003
40
0.937500000000002
40
0.937500000000002
40
0.968750000000001
40
0.968750000000001
40
1
40
1
40
1
40
1
41
1
10
199.164046729879
20
10.5
30
0
41
1
10
199.24232033207
20
10.5
30
0
41
1
10
199.320593934261
20
10.474317797136
30
0
41
1
10
199.477141138642
20
10.3645746857107
30
0
41
1
10
199.555414740833
20
10.280480680085
30
0
41
1
10
199.711961945215
20
10.0489058337677
30
0
41
1
10
199.790235547406
20
9.9013960768184
30
0
41
1
10
199.946782751788
20
9.5410064433629
30
0
41
1
10
200.025056353979
20
9.32810923517897
30
0
41
1
10
200.181603558361
20
8.83870882077716
30
0
41
1
10
200.259877160551
20
8.56220599890349
30
0
41
1
10
200.416424364933
20
7.95138129275486
30
0
41
1
10
200.494697967124
20
7.61707977714426
30
0
41
1
10
200.651245171506
20
6.90016009412389
30
0
41
1
10
200.729518773697
20
6.51757921792588
30
0
41
1
10
200.886065978079
20
5.71643661709561
30
0
41
1
10
200.964339580269
20
5.29792138413302
30
0
41
1
10
201.120886784651
20
4.43878904826707
30
0
41
1
10
201.199160386842
20
3.9982179056077
30
0
41
1
10
201.355707591224
20
3.10897101644025
30
0
41
1
10
201.433981193415
20
2.66033225545124
30
0
41
1
10
201.590528397797
20
1.76779128870524
30
0
41
1
10
201.668801999987
20
1.3239122804244
30
0
41
1
10
201.786212403274
20
0.669721853767498
30
0
41
1
10
201.825349204369
20
0.453578097810151
30
0
41
1
10
201.874270205739
20
0.186489717941953
30
0
41
1
10
201.884054406012
20
0.133226210006995
30
0
41
1
10
201.90362280656
20
0.0270232238506765
30
0
41
1
10
201.913407006834
20
-0.025832132910466
30
0
41
1
10
201.942759607655
20
-0.185129328939013
30
0
41
1
10
201.962328008203
20
-0.291976070503637
30
0
41
1
10
202.060170010942
20
-0.82913263278104
30
0
41
1
10
202.138443613133
20
-1.26830982813774
30
0
41
1
10
202.294990817515
20
-2.15576265786231
30
0
41
1
10
202.373264419705
20
-2.60402064756312
30
0
41
1
10
202.529811624087
20
-3.49751797466513
30
0
41
1
10
202.608085226278
20
-3.9427251773181
30
0
41
1
10
202.76463243066
20
-4.81644725890979
30
0
41
1
10
202.842906032851
20
-5.24491872262334
30
0
41
1
10
202.999453237233
20
-6.07108911432852
30
0
41
1
10
203.077726839424
20
-6.46874060962764
30
0
41
1
10
203.234274043805
20
-7.22017877111349
30
0
41
1
10
203.312547645996
20
-7.57392360086845
30
0
41
1
10
203.469094850378
20
-8.2268213805981
30
0
41
1
10
203.547368452569
20
-8.5259469512132
30
0
41
1
10
203.703915656951
20
-9.06231467037384
30
0
41
1
10
203.782189259142
20
-9.299548913526
30
0
41
1
10
203.938736463524
20
-9.70882190167725
30
0
41
1
10
204.017010065714
20
-9.88087188102418
30
0
41
1
10
204.173557270096
20
-10.1603873890531
30
0
41
1
10
204.251830872287
20
-10.2678783384655
30
0
41
1
10
204.408378076669
20
-10.4222374756331
30
0
41
1
10
204.48665167886
20
-10.4691380293431
30
0
41
1
10
204.584493681598
20
-10.4938848305631
30
0
41
1
10
204.604062082146
20
-10.4971448419492
30
0
41
1
10
204.643198883242
20
-10.5004017780411
30
0
41
1
10
204.662767283789
20
-10.5004136646286
30
0
41
1
10
204.721472485433
20
-10.4956015843807
30
0
41
1
10
204.760609286528
20
-10.4858663270992
30
0
41
1
10
204.878019689814
20
-10.435724574733
30
0
41
1
10
204.956293292005
20
-10.374310337671
30
0
41
1
10
205.112840496387
20
-10.1896716602929
30
0
41
1
10
205.191114098578
20
-10.0664158795502
30
0
41
1
10
205.34766130296
20
-9.75487134768633
30
0
41
1
10
205.425934905151
20
-9.56656006227072
30
0
41
1
10
205.582482109532
20
-9.12519935713712
30
0
41
1
10
205.660755711723
20
-8.87214313764724
30
0
41
1
10
205.817302916105
20
-8.30557034803095
30
0
41
1
10
205.895576518296
20
-7.99206669618997
30
0
41
1
10
206.052123722678
20
-7.31277930580376
30
0
41
1
10
206.130397324869
20
-6.94702719314031
30
0
41
1
10
206.28694452925
20
-6.17464814210362
30
0
41
1
10
206.365218131441
20
-5.76806534329262
30
0
41
1
10
206.521765335823
20
-4.92749024238091
30
0
41
1
10
206.600038938014
20
-4.4935452274249
30
0
41
1
10
206.678312540205
20
-4.05295348260722
30
0
0
SPLINE
5
106
100
AcDbEntity
8
1
62
256
6
ByLayer
370
13
48
1
60
0
100
AcDbSpline
70
4
71
3
72
42
73
38
40
0
40
0
40
0
40
0
40
0.0625
40
0.0625
40
0.125
40
0.125
40
0.1875
40
0.1875
40
0.21875
40
0.21875
40
0.234375
40
0.234375
40
0.25
40
0.25
40
0.3125
40
0.3125
40
0.375
40
0.375
40
0.4375
40
0.4375
40
0.5
40
0.5
40
0.5625
40
0.5625
40
0.625
40
0.625
40
0.6875
40
0.6875
40
0.75
40
0.75
40
0.8125
40
0.8125
40
0.875
40
0.875
40
0.9375
40
0.9375
40
1
40
1
40
1
40
1
41
1
10
195.7
20
-4.56349894067779
30
0
41
1
10
195.77406993723
20
-4.15246352817704
30
0
41
1
10
195.848139874461
20
-3.73306084683631
30
0
41
1
10
195.996279748921
20
-2.88918580023974
30
0
41
1
10
196.070349686152
20
-2.46473979216418
30
0
41
1
10
196.218489560612
20
-1.62142462103122
30
0
41
1
10
196.292559497843
20
-1.20257162698803
30
0
41
1
10
196.403664403689
20
-0.585160734046298
30
0
41
1
10
196.440699372304
20
-0.381153554225563
30
0
41
1
10
196.496251825226
20
-0.0785282406461363
30
0
41
1
10
196.514769309534
20
0.021406193758196
30
0
41
1
10
196.551804278149
20
0.222725534230619
30
0
41
1
10
196.570321762457
20
0.323958490320166
30
0
41
1
10
196.662909183995
20
0.8327160084757
30
0
41
1
10
196.736979121225
20
1.24809806081606
30
0
41
1
10
196.885118995686
20
2.08731829178197
30
0
41
1
10
196.959188932916
20
2.51114345621357
30
0
41
1
10
197.107328807377
20
3.35708617187427
30
0
41
1
10
197.181398744607
20
3.77918023561676
30
0
41
1
10
197.329538619068
20
4.6101828974154
30
0
41
1
10
197.403608556298
20
5.01905946027225
30
0
41
1
10
197.551748430759
20
5.81167825697776
30
0
41
1
10
197.625818367989
20
6.1953845100555
30
0
41
1
10
197.77395824245
20
6.92628337746533
30
0
41
1
10
197.84802817968
20
7.27344246163139
30
0
41
1
10
197.996168054141
20
7.92150577950622
30
0
41
1
10
198.070237991371
20
8.22238532988732
30
0
41
1
10
198.218377865832
20
8.77068352291792
30
0
41
1
10
198.292447803062
20
9.0180907208437
30
0
41
1
10
198.440587677523
20
9.45532955107245
30
0
41
1
10
198.514657614753
20
9.64516406396683
30
0
41
1
10
198.662797489214
20
9.96636354913397
30
0
41
1
10
198.736867426444
20
10.0977434795032
30
0
41
1
10
198.885007300905
20
10.3040814113498
30
0
41
1
10
198.959077238135
20
10.3790619917023
30
0
41
1
10
199.107217112596
20
10.4770087062838
30
0
41
1
10
199.181287049826
20
10.5
30
0
41
1
10
199.255356987057
20
10.5
30
0
0
SPLINE
5
107
100
AcDbEntity
8
1
62
256
6
ByLayer
370
13
48
1
60
0
100
AcDbSpline
70
4
71
3
72
80
73
76
40
0
40
0
40
0
40
0
40
0.0312500000000013
40
0.0312500000000013
40
0.0625000000000027
40
0.0625000000000027
40
0.093750000000004
40
0.093750000000004
40
0.125000000000005
40
0.125000000000005
40
0.156250000000007
40
0.156250000000007
40
0.187500000000008
40
0.187500000000008
40
0.218750000000009
40
0.218750000000009
40
0.25000000000001
40
0.25000000000001
40
0.281250000000012
40
0.281250000000012
40
0.312500000000013
40
0.312500000000013
40
0.328125000000013
40
0.328125000000013
40
0.335937500000013
40
0.339843750000013
40
0.339843750000013
40
0.343750000000013
40
0.343750000000013
40
0.375000000000015
40
0.375000000000015
40
0.406250000000016
40
0.406250000000016
40
0.437500000000017
40
0.437500000000017
40
0.468750000000019
40
0.468750000000019
40
0.50000000000002
40
0.50000000000002
40
0.531250000000021
40
0.531250000000021
40
0.562500000000023
40
0.562500000000023
40
0.593750000000024
40
0.593750000000024
40
0.625000000000025
40
0.625000000000025
40
0.656250000000027
40
0.656250000000027
40
0.671875000000027
40
0.671875000000027
40
0.679687500000027
40
0.683593750000028
40
0.683593750000028
40
0.687500000000028
40
0.687500000000028
40
0.718750000000025
40
0.718750000000025
40
0.750000000000022
40
0.750000000000022
40
0.78125000000002
40
0.78125000000002
40
0.812500000000017
40
0.812500000000017
40
0.843750000000014
40
0.843750000000014
40
0.875000000000011
40
0.875000000000011
40
0.906250000000009
40
0.906250000000009
40
0.937500000000006
40
0.937500000000006
40
0.968750000000003
40
0.968750000000003
40
1
40
1
40
1
40
1
41
1
10
198.669182989741
20
10.5
30
0
41
1
10
198.752611422559
20
10.5
30
0
41
1
10
198.836039855376
20
10.4708128158371
30
0
41
1
10
199.002896721011
20
10.3456382484537
30
0
41
1
10
199.086325153828
20
10.2496054771958
30
0
41
1
10
199.253182019462
20
9.98498135092939
30
0
41
1
10
199.33661045228
20
9.8163518032687
30
0
41
1
10
199.503467317914
20
9.40482408691216
30
0
41
1
10
199.586895750732
20
9.16190639580503
30
0
41
1
10
199.753752616367
20
8.60505049935614
30
0
41
1
10
199.837181049184
20
8.29112005523828
30
0
41
1
10
200.004037914818
20
7.6006494983852
30
0
41
1
10
200.087466347636
20
7.22414585478657
30
0
41
1
10
200.254323213271
20
6.42143595771822
30
0
41
1
10
200.337751646088
20
5.99528744614642
30
0
41
1
10
200.504608511722
20
5.1092409328223
30
0
41
1
10
200.58803694454
20
4.64940811678048
30
0
41
1
10
200.754893810174
20
3.7130908157952
30
0
41
1
10
200.838322242992
20
3.23666416733917
30
0
41
1
10
201.005179108627
20
2.28350092247609
30
0
41
1
10
201.088607541444
20
1.8068043602662
30
0
41
1
10
201.21375019067
20
1.10208919246296
30
0
41
1
10
201.255464407079
20
0.868884408791502
30
0
41
1
10
201.318035731692
20
0.522727335970473
30
0
41
1
10
201.349321393998
20
0.350558943153914
30
0
41
1
10
201.380607056304
20
0.179939971632024
30
0
41
1
10
201.401464164509
20
0.0665572255442441
30
0
41
1
10
201.411892718611
20
0.0101690886814083
30
0
41
1
10
201.50574970553
20
-0.498555568164449
30
0
41
1
10
201.589178138348
20
-0.962790229751988
30
0
41
1
10
201.756035003982
20
-1.90420309425616
30
0
41
1
10
201.8394634368
20
-2.38136121781278
30
0
41
1
10
202.006320302434
20
-3.33439062507881
30
0
41
1
10
202.089748735252
20
-3.81022046223302
30
0
41
1
10
202.256605600886
20
-4.74418037284849
30
0
41
1
10
202.340034033704
20
-5.20225170292449
30
0
41
1
10
202.506890899338
20
-6.08362487888314
30
0
41
1
10
202.590319332156
20
-6.50686155473321
30
0
41
1
10
202.75717619779
20
-7.30274582491299
30
0
41
1
10
202.840604630608
20
-7.6753367383827
30
0
41
1
10
203.007461496243
20
-8.3572472391742
30
0
41
1
10
203.09088992906
20
-8.66653218065281
30
0
41
1
10
203.257746794694
20
-9.21370404523168
30
0
41
1
10
203.341175227512
20
-9.45158521827503
30
0
41
1
10
203.508032093146
20
-9.85300275292627
30
0
41
1
10
203.591460525964
20
-10.0165602476125
30
0
41
1
10
203.758317391598
20
-10.2713168408388
30
0
41
1
10
203.841745824416
20
-10.3625549940376
30
0
41
1
10
203.966888473642
20
-10.449626485041
30
0
41
1
10
204.00860269005
20
-10.4703799037328
30
0
41
1
10
204.071174014663
20
-10.4898592986472
30
0
41
1
10
204.10245967697
20
-10.4966880633825
30
0
41
1
10
204.133745339276
20
-10.4993057611601
30
0
41
1
10
204.154602447481
20
-10.5001331495869
30
0
41
1
10
204.165031001583
20
-10.5000904061503
30
0
41
1
10
204.258887988502
20
-10.4955862691744
30
0
41
1
10
204.34231642132
20
-10.4620741733977
30
0
41
1
10
204.509173286954
20
-10.3277525072032
30
0
41
1
10
204.592601719772
20
-10.2268976864064
30
0
41
1
10
204.759458585406
20
-9.9523702565188
30
0
41
1
10
204.842887018224
20
-9.77866037224766
30
0
41
1
10
205.009743883858
20
-9.35702938792477
30
0
41
1
10
205.093172316676
20
-9.10909041826852
30
0
41
1
10
205.26002918231
20
-8.5426054775472
30
0
41
1
10
205.343457615128
20
-8.22406928627709
30
0
41
1
10
205.510314480762
20
-7.52513953994759
30
0
41
1
10
205.59374291358
20
-7.14478424150462
30
0
41
1
10
205.760599779214
20
-6.33538530231951
30
0
41
1
10
205.844028212032
20
-5.90640039751696
30
0
41
1
10
206.010885077666
20
-5.01583678435497
30
0
41
1
10
206.094313510483
20
-4.55432320595509
30
0
41
1
10
206.261170376118
20
-3.61580625929014
30
0
41
1
10
206.344598808936
20
-3.13885977070424
30
0
41
1
10
206.51145567457
20
-2.18570581118283
30
0
41
1
10
206.594884107388
20
-1.70953694566194
30
0
41
1
10
206.678312540205
20
-1.24068180298801
30
0
0
SPLINE
5
108
100
AcDbEntity
8
1
62
256
6
ByLayer
370
13
48
1
60
0
100
AcDbSpline
70
4
71
3
72
8
73
4
40
0
40
0
40
0
40
0
40
1
40
1
40
1
40
1
41
1
10
206.678312540205
20
-5.75710549241043
30
0
41
1
10
207.952208360137
20
-3.82688426537419
30
0
41
1
10
209.226104180068
20
-1.90783511444621
30
0
41
1
10
210.5
20
3.695E-13
30
0
0
SPLINE
5
109
100
AcDbEntity
8
1
62
256
6
ByLayer
370
13
48
1
60
0
100
AcDbSpline
70
4
71
3
72
8
73
4
40
0
40
0
40
0
40
0
40
1
40
1
40
1
40
1
41
1
10
206.678312540205
20
-0.35464286213741
30
0
41
1
10
207.952208360137
20
-0.249796849173066
30
0
41
1
10
209.226104180068
20
-0.131581665976483
30
0
41
1
10
210.5
20
-2.84E-14
30
0
0
SPLINE
5
10A
100
AcDbEntity
8
1
62
256
6
ByLayer
370
13
48
1
60
0
100
AcDbSpline
70
4
71
3
72
8
73
4
40
0
40
0
40
0
40
0
40
1
40
1
40
1
40
1
41
1
10
206.678312540205
20
8.12812697737442
30
0
41
1
10
207.952208360137
20
5.41028364238735
30
0
41
1
10
209.226104180068
20
2.70088821828315
30
0
41
1
10
210.5
20
-5.116E-13
30
0
0
SPLINE
5
10B
100
AcDbEntity
8
1
62
256
6
ByLayer
370
13
48
1
60
0
100
AcDbSpline
70
4
71
3
72
8
73
4
40
0
40
0
40
0
40
0
40
1
40
1
40
1
40
1
41
1
10
206.678312540205
20
-10.4900672058214
30
0
41
1
10
207.952208360137
20
-6.99395980705322
30
0
41
1
10
209.226104180068
20
-3.49724520197327
30
0
41
1
10
210.5
20
6.537E-13
30
0
0
SPLINE
5
10C
100
AcDbEntity
8
1
62
256
6
ByLayer
370
13
48
1
60
0
100
AcDbSpline
70
4
71
3
72
8
73
4
40
0
40
0
40
0
40
0
40
1
40
1
40
1
40
1
41
1
10
206.678312540205
20
-2.45167059528387
30
0
41
1
10
207.952208360137
20
-1.6214408859467
30
0
41
1
10
209.226104180068
20
-0.804211417957106
30
0
41
1
10
210.5
20
-5.68E-14
30
0
0
SPLINE
5
10D
100
AcDbEntity
8
1
62
256
6
ByLayer
370
13
48
1
60
0
100
AcDbSpline
70
4
71
3
72
8
73
4
40
0
40
0
40
0
40
0
40
1
40
1
40
1
40
1
41
1
10
206.678312540205
20
6.63019324651353
30
0
41
1
10
207.952208360137
20
4.43050076353424
30
0
41
1
10
209.226104180068
20
2.22042018348046
30
0
41
1
10
210.5
20
-2.84E-14
30
0
0
SPLINE
5
10E
100
AcDbEntity
8
1
62
256
6
ByLayer
370
13
48
1
60
0
100
AcDbSpline
70
4
71
3
72
8
73
4
40
0
40
0
40
0
40
0
40
1
40
1
40
1
40
1
41
1
10
206.678312540205
20
5.40425034622021
30
0
41
1
10
207.952208360137
20
3.59136538269019
30
0
41
1
10
209.226104180068
20
1.78993547343711
30
0
41
1
10
210.5
20
2.842E-13
30
0
0
SPLINE
5
10F
100
AcDbEntity
8
1
62
256
6
ByLayer
370
13
48
1
60
0
100
AcDbSpline
70
4
71
3
72
8
73
4
40
0
40
0
40
0
40
0
40
1
40
1
40
1
40
1
41
1
10
206.678312540205
20
-10.4732578570621
30
0
41
1
10
207.952208360137
20
-6.98121786826727
30
0
41
1
10
209.226104180068
20
-3.49010642409658
30
0
41
1
10
210.5
20
-5.684E-13
30
0
0
SPLINE
5
110
100
AcDbEntity
8
1
62
256
6
ByLayer
370
13
48
1
60
0
100
AcDbSpline
70
4
71
3
72
8
73
4
40
0
40
0
40
0
40
0
40
1
40
1
40
1
40
1
41
1
10
206.678312540205
20
-3.87943967913114
30
0
41
1
10
207.952208360137
20
-2.59872257960888
30
0
41
1
10
209.226104180068
20
-1.30556654626057
30
0
41
1
10
210.5
20
-2.274E-13
30
0
0
SPLINE
5
111
100
AcDbEntity
8
1
62
256
6
ByLayer
370
13
48
1
60
0
100
AcDbSpline
70
4
71
3
72
8
73
4
40
0
40
0
40
0
40
0
40
1
40
1
40
1
40
1
41
1
10
206.678312540205
20
7.51981800765856
30
0
41
1
10
207.952208360137
20
5.02254735297259
30
0
41
1
10
209.226104180068
20
2.51592302285766
30
0
41
1
10
210.5
20
-2.84E-14
30
0
0
SPLINE
5
112
100
AcDbEntity
8
1
62
256
6
ByLayer
370
13
48
1
60
0
100
AcDbSpline
70
4
71
3
72
8
73
4
40
0
40
0
40
0
40
0
40
1
40
1
40
1
40
1
41
1
10
206.678312540205
20
1.14212317559907
30
0
41
1
10
207.952208360137
20
0.77471199117349
30
0
41
1
10
209.226104180068
20
0.394001453436232
30
0
41
1
10
210.5
20
-2.84E-14
30
0
0
SPLINE
5
113
100
AcDbEntity
8
1
62
256
6
ByLayer
370
13
48
1
60
0
100
AcDbSpline
70
4
71
3
72
8
73
4
40
0
40
0
40
0
40
0
40
1
40
1
40
1
40
1
41
1
10
206.678312540205
20
-4.97234698353233
30
0
41
1
10
207.952208360137
20
-3.32667899557325
30
0
41
1
10
209.226104180068
20
-1.66921786863401
30
0
41
1
10
210.5
20
-2.842E-13
30
0
0
SPLINE
5
114
100
AcDbEntity
8
1
62
256
6
ByLayer
370
13
48
1
60
0
100
AcDbSpline
70
4
71
3
72
8
73
4
40
0
40
0
40
0
40
0
40
1
40
1
40
1
40
1
41
1
10
206.678312540205
20
-10.0274361785095
30
0
41
1
10
207.952208360137
20
-6.6809898192576
30
0
41
1
10
209.226104180068
20
-3.33848669383175
30
0
41
1
10
210.5
20
-5.684E-13
30
0
0
SPLINE
5
115
100
AcDbEntity
8
1
62
256
6
ByLayer
370
13
48
1
60
0
100
AcDbSpline
70
4
71
3
72
8
73
4
40
0
40
0
40
0
40
0
40
1
40
1
40
1
40
1
41
1
10
206.678312540205
20
-9.60430165826094
30
0
41
1
10
207.952208360137
20
-6.39746198064131
30
0
41
1
10
209.226104180068
20
-3.19600472879839
30
0
41
1
10
210.5
20
2.84E-14
30
0
0
SPLINE
5
116
100
AcDbEntity
8
1
62
256
6
ByLayer
370
13
48
1
60
0
100
AcDbSpline
70
4
71
3
72
8
73
4
40
0
40
0
40
0
40
0
40
1
40
1
40
1
40
1
41
1
10
206.678312540205
20
2.04474038555941
30
0
41
1
10
207.952208360137
20
1.3500404265171
30
0
41
1
10
209.226104180068
20
0.668455352600432
30
0
41
1
10
210.5
20
1.137E-13
30
0
0
SPLINE
5
117
100
AcDbEntity
8
1
62
256
6
ByLayer
370
13
48
1
60
0
100
AcDbSpline
70
4
71
3
72
8
73
4
40
0
40
0
40
0
40
0
40
1
40
1
40
1
40
1
41
1
10
206.678312540205
20
10.4353067049871
30
0
41
1
10
207.952208360137
20
6.95538860760746
30
0
41
1
10
209.226104180068
20
3.47692764112901
30
0
41
1
10
210.5
20
-6.537E-13
30
0
0
SPLINE
5
118
100
AcDbEntity
8
1
62
256
6
ByLayer
370
13
48
1
60
0
100
AcDbSpline
70
4
71
3
72
8
73
4
40
0
40
0
40
0
40
0
40
1
40
1
40
1
40
1
41
1
10
206.678312540205
20
8.99121691935932
30
0
41
1
10
207.952208360137
20
6.00105284297342
30
0
41
1
10
209.226104180068
20
3.0039586331682
30
0
41
1
10
210.5
20
-2.84E-14
30
0
0
SPLINE
5
119
100
AcDbEntity
8
1
62
256
6
ByLayer
370
13
48
1
60
0
100
AcDbSpline
70
4
71
3
72
8
73
4
40
0
40
0
40
0
40
0
40
1
40
1
40
1
40
1
41
1
10
206.678312540205
20
9.55359182805799
30
0
41
1
10
207.952208360137
20
6.37461091527786
30
0
41
1
10
209.226104180068
20
3.19005703693983
30
0
41
1
10
210.5
20
1.137E-13
30
0
0
SPLINE
5
11A
100
AcDbEntity
8
1
62
256
6
ByLayer
370
13
48
1
60
0
100
AcDbSpline
70
4
71
3
72
8
73
4
40
0
40
0
40
0
40
0
40
1
40
1
40
1
40
1
41
1
10
206.678312540205
20
-10.1103777536977
30
0
41
1
10
207.952208360137
20
-6.74386176563848
30
0
41
1
10
209.226104180068
20
-3.37371122814019
30
0
41
1
10
210.5
20
2.84E-14
30
0
0
SPLINE
5
11B
100
AcDbEntity
8
1
62
256
6
ByLayer
370
13
48
1
60
0
100
AcDbSpline
70
4
71
3
72
8
73
4
40
0
40
0
40
0
40
0
40
1
40
1
40
1
40
1
41
1
10
206.678312540205
20
-7.80459352790157
30
0
41
1
10
207.952208360137
20
-5.21201035430883
30
0
41
1
10
209.226104180068
20
-2.61046015851835
30
0
41
1
10
210.5
20
-4.263E-13
30
0
0
SPLINE
5
11C
100
AcDbEntity
8
1
62
256
6
ByLayer
370
13
48
1
60
0
100
AcDbSpline
70
4
71
3
72
8
73
4
40
0
40
0
40
0
40
0
40
1
40
1
40
1
40
1
41
1
10
206.678312540205
20
-6.94794727895558
30
0
41
1
10
207.952208360137
20
-4.64199357906134
30
0
41
1
10
209.226104180068
20
-2.32599421554784
30
0
41
1
10
210.5
20
4.547E-13
30
0
0
SPLINE
5
11D
100
AcDbEntity
8
1
62
256
6
ByLayer
370
13
48
1
60
0
100
AcDbSpline
70
4
71
3
72
8
73
4
40
0
40
0
40
0
40
0
40
1
40
1
40
1
40
1
41
1
10
206.678312540205
20
-7.60571343845328
30
0
41
1
10
207.952208360137
20
-5.06125389361094
30
0
41
1
10
209.226104180068
20
-2.52599758931524
30
0
41
1
10
210.5
20
2.84E-14
30
0
0
SPLINE
5
11E
100
AcDbEntity
8
1
62
256
6
ByLayer
370
13
48
1
60
0
100
AcDbSpline
70
4
71
3
72
8
73
4
40
0
40
0
40
0
40
0
40
1
40
1
40
1
40
1
41
1
10
206.678312540205
20
4.60158350330232
30
0
41
1
10
207.952208360137
20
3.07974533629368
30
0
41
1
10
209.226104180068
20
1.54587293802587
30
0
41
1
10
210.5
20
-2.84E-14
30
0
0
SPLINE
5
11F
100
AcDbEntity
8
1
62
256
6
ByLayer
370
13
48
1
60
0
100
AcDbSpline
70
4
71
3
72
8
73
4
40
0
40
0
40
0
40
0
40
1
40
1
40
1
40
1
41
1
10
206.678312540205
20
9.42841084213941
30
0
41
1
10
207.952208360137
20
6.2797203586818
30
0
41
1
10
209.226104180068
20
3.13689380820671
30
0
41
1
10
210.499999999999
20
1.6485E-12
30
0
0
SPLINE
5
120
100
AcDbEntity
8
1
62
256
6
ByLayer
370
13
48
1
60
0
100
AcDbSpline
70
4
71
3
72
8
73
4
40
0
40
0
40
0
40
0
40
1
40
1
40
1
40
1
41
1
10
206.678312540205
20
-8.38540519075389
30
0
41
1
10
207.952208360137
20
-5.58221985345259
30
0
41
1
10
209.226104180068
20
-2.78706439760273
30
0
41
1
10
210.5
20
2.84E-14
30
0
0
SPLINE
5
121
100
AcDbEntity
8
1
62
256
6
ByLayer
370
13
48
1
60
0
100
AcDbSpline
70
4
71
3
72
8
73
4
40
0
40
0
40
0
40
0
40
1
40
1
40
1
40
1
41
1
10
206.678312540205
20
-4.71256174611179
30
0
41
1
10
207.952208360137
20
-3.12975479343859
30
0
41
1
10
209.226104180068
20
-1.55888943578572
30
0
41
1
10
210.5
20
1.705E-13
30
0
0
SPLINE
5
122
100
AcDbEntity
8
1
62
256
6
ByLayer
370
13
48
1
60
0
100
AcDbSpline
70
4
71
3
72
8
73
4
40
0
40
0
40
0
40
0
40
1
40
1
40
1
40
1
41
1
10
206.678312540205
20
-1.55526641665844
30
0
41
1
10
207.952208360137
20
-1.05007263832968
30
0
41
1
10
209.226104180068
20
-0.531646681393369
30
0
41
1
10
210.5
20
-8.53E-14
30
0
0
SPLINE
5
123
100
AcDbEntity
8
1
62
256
6
ByLayer
370
13
48
1
60
0
100
AcDbSpline
70
4
71
3
72
8
73
4
40
0
40
0
40
0
40
0
40
1
40
1
40
1
40
1
41
1
10
206.678312540205
20
7.31257076101792
30
0
41
1
10
207.952208360137
20
4.86544836191993
30
0
41
1
10
209.226104180068
20
2.42790699792602
30
0
41
1
10
210.499999999999
20
1.279E-12
30
0
0
SPLINE
5
124
100
AcDbEntity
8
1
62
256
6
ByLayer
370
13
48
1
60
0
100
AcDbSpline
70
4
71
3
72
8
73
4
40
0
40
0
40
0
40
0
40
1
40
1
40
1
40
1
41
1
10
206.678312540205
20
9.89599526652168
30
0
41
1
10
207.952208360137
20
6.59285895257898
30
0
41
1
10
209.226104180068
20
3.2941697856638
30
0
41
1
10
210.499999999999
20
1.7337E-12
30
0
0
SPLINE
5
125
100
AcDbEntity
8
1
62
256
6
ByLayer
370
13
48
1
60
0
100
AcDbSpline
70
4
71
3
72
8
73
4
40
0
40
0
40
0
40
0
40
1
40
1
40
1
40
1
41
1
10
206.678312540205
20
-1.2651312692426
30
0
41
1
10
207.952208360137
20
-0.830142387545095
30
0
41
1
10
209.226104180068
20
-0.408428917188019
30
0
41
1
10
210.5
20
-2.84E-14
30
0
0
SPLINE
5
126
100
AcDbEntity
8
1
62
256
6
ByLayer
370
13
48
1
60
0
100
AcDbSpline
70
4
71
3
72
8
73
4
40
0
40
0
40
0
40
0
40
1
40
1
40
1
40
1
41
1
10
206.678312540205
20
2.33110053055083
30
0
41
1
10
207.952208360137
20
1.56710912385898
30
0
41
1
10
209.226104180068
20
0.790069907533137
30
0
41
1
10
210.5
20
-8.53E-14
30
0
0
SPLINE
5
127
100
AcDbEntity
8
1
62
256
6
ByLayer
370
13
48
1
60
0
100
AcDbSpline
70
4
71
3
72
8
73
4
40
0
40
0
40
0
40
0
40
1
40
1
40
1
40
1
41
1
10
206.678312540205
20
0.850656380669562
30
0
41
1
10
207.952208360137
20
0.553772315732061
30
0
41
1
10
209.226104180068
20
0.270218150616302
30
0
41
1
10
210.5
20
5.68E-14
30
0
0
SPLINE
5
128
100
AcDbEntity
8
1
62
256
6
ByLayer
370
13
48
1
60
0
100
AcDbSpline
70
4
71
3
72
8
73
4
40
0
40
0
40
0
40
0
40
1
40
1
40
1
40
1
41
1
10
206.678312540205
20
-10.3685732371029
30
0
41
1
10
207.952208360137
20
-6.91449186532665
30
0
41
1
10
209.226104180068
20
-3.45827554184217
30
0
41
1
10
210.5
20
6.537E-13
30
0
0
SPLINE
5
129
100
AcDbEntity
8
1
62
256
6
ByLayer
370
13
48
1
60
0
100
AcDbSpline
70
4
71
3
72
8
73
4
40
0
40
0
40
0
40
0
40
1
40
1
40
1
40
1
41
1
10
206.678312540205
20
5.65315458195687
30
0
41
1
10
207.952208360137
20
3.78004149268389
30
0
41
1
10
209.226104180068
20
1.89564284361199
30
0
41
1
10
210.5
20
-2.84E-14
30
0
0
SPLINE
5
12A
100
AcDbEntity
8
1
62
256
6
ByLayer
370
13
48
1
60
0
100
AcDbSpline
70
4
71
3
72
8
73
4
40
0
40
0
40
0
40
0
40
1
40
1
40
1
40
1
41
1
10
206.678312540205
20
-2.73538500197714
30
0
41
1
10
207.952208360137
20
-1.83650404244813
30
0
41
1
10
209.226104180068
20
-0.924702351844189
30
0
41
1
10
210.5
20
-1.421E-13
30
0
0
SPLINE
5
12B
100
AcDbEntity
8
1
62
256
6
ByLayer
370
13
48
1
60
0
100
AcDbSpline
70
4
71
3
72
8
73
4
40
0
40
0
40
0
40
0
40
1
40
1
40
1
40
1
41
1
10
206.678312540205
20
-10.318366808919
30
0
41
1
10
207.952208360137
20
-6.87643404144777
30
0
41
1
10
209.226104180068
20
-3.43695332740336
30
0
41
1
10
210.5
20
2.84E-14
30
0
0
SPLINE
5
12C
100
AcDbEntity
8
1
62
256
6
ByLayer
370
13
48
1
60
0
100
AcDbSpline
70
4
71
3
72
8
73
4
40
0
40
0
40
0
40
0
40
1
40
1
40
1
40
1
41
1
10
206.678312540205
20
8.31029985990875
30
0
41
1
10
207.952208360137
20
5.54837559056671
30
0
41
1
10
209.226104180068
20
2.77825538832349
30
0
41
1
10
210.5
20
-2.84E-14
30
0
0
SPLINE
5
12D
100
AcDbEntity
8
1
62
256
6
ByLayer
370
13
48
1
60
0
100
AcDbSpline
70
4
71
3
72
8
73
4
40
0
40
0
40
0
40
0
40
1
40
1
40
1
40
1
41
1
10
206.678312540205
20
-5.99969778862993
30
0
41
1
10
207.952208360137
20
-4.01077575532722
30
0
41
1
10
209.226104180068
20
-2.01086186118815
30
0
41
1
10
210.5
20
-3.411E-13
30
0
0
SPLINE
5
12E
100
AcDbEntity
8
1
62
256
6
ByLayer
370
13
48
1
60
0
100
AcDbSpline
70
4
71
3
72
8
73
4
40
0
40
0
40
0
40
0
40
1
40
1
40
1
40
1
41
1
10
206.678312540205
20
-9.05454194531035
30
0
41
1
10
207.952208360137
20
-6.02958861801662
30
0
41
1
10
209.226104180068
20
-3.01138594538338
30
0
41
1
10
210.5
20
2.84E-14
30
0
0
SPLINE
5
12F
100
AcDbEntity
8
1
62
256
6
ByLayer
370
13
48
1
60
0
100
AcDbSpline
70
4
71
3
72
8
73
4
40
0
40
0
40
0
40
0
40
1
40
1
40
1
40
1
41
1
10
206.678312540205
20
10.2331087465096
30
0
41
1
10
207.952208360137
20
6.81907586647901
30
0
41
1
10
209.226104180068
20
3.40801471537162
30
0
41
1
10
210.5
20
-6.537E-13
30
0
0
SPLINE
5
130
100
AcDbEntity
8
1
62
256
6
ByLayer
370
13
48
1
60
0
100
AcDbSpline
70
4
71
3
72
8
73
4
40
0
40
0
40
0
40
0
40
1
40
1
40
1
40
1
41
1
10
206.678312540205
20
10.4636979807185
30
0
41
1
10
207.952208360137
20
6.97690995876863
30
0
41
1
10
209.226104180068
20
3.48898515828893
30
0
41
1
10
210.5
20
0
30
0
0
SPLINE
5
131
100
AcDbEntity
8
1
62
256
6
ByLayer
370
13
48
1
60
0
100
AcDbSpline
70
4
71
3
72
8
73
4
40
0
40
0
40
0
40
0
40
1
40
1
40
1
40
1
41
1
10
206.678312540205
20
9.99001011343645
30
0
41
1
10
207.952208360137
20
6.66412473696747
30
0
41
1
10
209.226104180068
20
3.33409703798665
30
0
41
1
10
210.5
20
2.84E-14
30
0
0
SPLINE
5
132
100
AcDbEntity
8
1
62
256
6
ByLayer
370
13
48
1
60
0
100
AcDbSpline
70
4
71
3
72
8
73
4
40
0
40
0
40
0
40
0
40
1
40
1
40
1
40
1
41
1
10
206.678312540205
20
-8.55834232583081
30
0
41
1
10
207.952208360137
20
-5.71331085647719
30
0
41
1
10
209.226104180068
20
-2.86050922950969
30
0
41
1
10
210.5
20
2.84E-14
30
0
0
SPLINE
5
133
100
AcDbEntity
8
1
62
256
6
ByLayer
370
13
48
1
60
0
100
AcDbSpline
70
4
71
3
72
8
73
4
40
0
40
0
40
0
40
0
40
1
40
1
40
1
40
1
41
1
10
206.678312540205
20
-6.72574631329906
30
0
41
1
10
207.952208360137
20
-4.47355926651204
30
0
41
1
10
209.226104180068
20
-2.23162748185067
30
0
41
1
10
210.5
20
2.84E-14
30
0
0
SPLINE
5
134
100
AcDbEntity
8
1
62
256
6
ByLayer
370
13
48
1
60
0
100
AcDbSpline
70
4
71
3
72
8
73
4
40
0
40
0
40
0
40
0
40
1
40
1
40
1
40
1
41
1
10
206.678312540205
20
8.8365202076609
30
0
41
1
10
207.952208360137
20
5.88378857181448
30
0
41
1
10
209.226104180068
20
2.93826034354333
30
0
41
1
10
210.5
20
4.832E-13
30
0
0
SPLINE
5
135
100
AcDbEntity
8
1
62
256
6
ByLayer
370
13
48
1
60
0
100
AcDbSpline
70
4
71
3
72
8
73
4
40
0
40
0
40
0
40
0
40
1
40
1
40
1
40
1
41
1
10
206.678312540205
20
-3.60588656533156
30
0
41
1
10
207.952208360137
20
-2.39136195661399
30
0
41
1
10
209.226104180068
20
-1.18939102125427
30
0
41
1
10
210.5
20
-8.53E-14
30
0
0
SPLINE
5
136
100
AcDbEntity
8
1
62
256
6
ByLayer
370
13
48
1
60
0
100
AcDbSpline
70
4
71
3
72
8
73
4
40
0
40
0
40
0
40
0
40
1
40
1
40
1
40
1
41
1
10
206.678312540205
20
6.40060402834197
30
0
41
1
10
207.952208360137
20
4.25646595672237
30
0
41
1
10
209.226104180068
20
2.12291572598667
30
0
41
1
10
210.5
20
3.411E-13
30
0
0
SPLINE
5
137
100
AcDbEntity
8
1
62
256
6
ByLayer
370
13
48
1
60
0
100
AcDbSpline
70
4
71
3
72
8
73
4
40
0
40
0
40
0
40
0
40
1
40
1
40
1
40
1
41
1
10
206.678312540205
20
4.33664585734024
30
0
41
1
10
207.952208360137
20
2.8789154698068
30
0
41
1
10
209.226104180068
20
1.4333563240273
30
0
41
1
10
210.5
20
2.274E-13
30
0
0
SPLINE
5
138
100
AcDbEntity
8
1
62
256
6
ByLayer
370
13
48
1
60
0
100
AcDbSpline
70
4
71
3
72
8
73
4
40
0
40
0
40
0
40
0
40
1
40
1
40
1
40
1
41
1
10
206.678312540205
20
-0.0619121786061498
30
0
41
1
10
207.952208360137
20
-0.0278991121536478
30
0
41
1
10
209.226104180068
20
-0.0072616011367472
30
0
41
1
10
210.5
20
0
30
0
0
SPLINE
5
139
100
AcDbEntity
8
1
62
256
6
ByLayer
370
13
48
1
60
0
100
AcDbSpline
70
4
71
3
72
8
73
4
40
0
40
0
40
0
40
0
40
1
40
1
40
1
40
1
41
1
10
206.678312540205
20
3.21186609045415
30
0
41
1
10
207.952208360137
20
2.12850931199188
30
0
41
1
10
209.226104180068
20
1.05787949447387
30
0
41
1
10
210.5
20
1.705E-13
30
0
0
SPLINE
5
13A
100
AcDbEntity
8
1
62
256
6
ByLayer
370
13
48
1
60
0
100
AcDbSpline
70
4
71
3
72
8
73
4
40
0
40
0
40
0
40
0
40
1
40
1
40
1
40
1
41
1
10
206.678312540205
20
10.2947179423217
30
0
41
1
10
207.952208360137
20
6.86577729512808
30
0
41
1
10
209.226104180068
20
3.43417958174572
30
0
41
1
10
210.5
20
2.84E-14
30
0
0
SPLINE
5
13B
100
AcDbEntity
8
1
62
256
6
ByLayer
370
13
48
1
60
0
100
AcDbSpline
70
4
71
3
72
8
73
4
40
0
40
0
40
0
40
0
40
1
40
1
40
1
40
1
41
1
10
206.678312540205
20
-9.71888486076648
30
0
41
1
10
207.952208360137
20
-6.48431913216947
30
0
41
1
10
209.226104180068
20
-3.24466717508926
30
0
41
1
10
210.5
20
2.84E-14
30
0
0
SPLINE
5
13C
100
AcDbEntity
8
1
62
256
6
ByLayer
370
13
48
1
60
0
100
AcDbSpline
70
4
71
3
72
8
73
4
40
0
40
0
40
0
40
0
40
1
40
1
40
1
40
1
41
1
10
206.678312540205
20
-9.19925608538054
30
0
41
1
10
207.952208360137
20
-6.13928583119861
30
0
41
1
10
209.226104180068
20
-3.07284472742705
30
0
41
1
10
210.5
20
5.969E-13
30
0
0
SPLINE
5
13D
100
AcDbEntity
8
1
62
256
6
ByLayer
370
13
48
1
60
0
100
AcDbSpline
70
4
71
3
72
8
73
4
40
0
40
0
40
0
40
0
40
1
40
1
40
1
40
1
41
1
10
206.678312540205
20
3.48934415134977
30
0
41
1
10
207.952208360137
20
2.33884515052614
30
0
41
1
10
209.226104180068
20
1.17572190889371
30
0
41
1
10
210.5
20
0
30
0
0
LINE
5
7D
100
AcDbEntity
8
80
62
256
6
ByLayer
370
18
48
1
60
0
100
AcDbLine
10
0
20
0
30
0
11
-5
21
0
31
0
39
0
210
0
220
0
230
1
0
LINE
5
7E
100
AcDbEntity
8
4
62
256
6
ByLayer
370
18
48
0.05
60
0
100
AcDbLine
10
-5
20
0
30
0
11
215.5
21
0
31
0
39
0
210
0
220
0
230
1
0
LINE
5
80
100
AcDbEntity
8
81
62
256
6
ByLayer
370
18
48
1
60
0
100
AcDbLine
10
210.5
20
0
30
0
11
215.5
21
0
31
0
39
0
210
0
220
0
230
1
0
LINE
5
81
100
AcDbEntity
8
SK4
62
256
6
ByLayer
370
18
48
0.05
60
0
100
AcDbLine
10
-61
20
0
30
0
11
215.5
21
0
31
0
39
0
210
0
220
0
230
1
0
LINE
5
83
100
AcDbEntity
8
1
62
256
6
ByLayer
370
18
48
1
60
0
100
AcDbLine
10
66.288432
20
10.2
30
0
11
18.440069
21
10.2
31
0
39
0
210
0
220
0
230
1
0
LINE
5
84
100
AcDbEntity
8
1
62
256
6
ByLayer
370
18
48
1
60
0
100
AcDbLine
10
109.069925
20
-10.2
30
0
11
156.918701
21
-10.2
31
0
39
0
210
0
220
0
230
1
0
LINE
5
85
100
AcDbEntity
8
1
62
256
6
ByLayer
370
18
48
1
60
0
100
AcDbLine
10
156.918701
20
10.2
30
0
11
109.069925
21
10.2
31
0
39
0
210
0
220
0
230
1
0
LINE
5
86
100
AcDbEntity
8
1
62
256
6
ByLayer
370
18
48
1
60
0
100
AcDbLine
10
18.440069
20
-10.2
30
0
11
66.288432
21
-10.2
31
0
39
0
210
0
220
0
230
1
0
LINE
5
87
100
AcDbEntity
8
1
62
256
6
ByLayer
370
18
48
1
60
0
100
AcDbLine
10
210.5
20
0
30
0
11
206.678313
21
10.5
31
0
39
0
210
0
220
0
230
1
0
LINE
5
88
100
AcDbEntity
8
1
62
256
6
ByLayer
370
18
48
1
60
0
100
AcDbLine
10
206.678313
20
-10.5
30
0
11
210.5
21
0
31
0
39
0
210
0
220
0
230
1
0
LINE
5
89
100
AcDbEntity
8
1
62
256
6
ByLayer
370
18
48
1
60
0
100
AcDbLine
10
7.348756
20
10.809786
30
0
11
0
21
12.5
31
0
39
0
210
0
220
0
230
1
0
LINE
5
8A
100
AcDbEntity
8
1
62
256
6
ByLayer
370
18
48
1
60
0
100
AcDbLine
10
0
20
-12.5
30
0
11
7.348756
21
-10.809786
31
0
39
0
210
0
220
0
230
1
0
LINE
5
8B
100
AcDbEntity
8
1
62
256
6
ByLayer
370
18
48
1
60
0
100
AcDbLine
10
210.5
20
0
30
0
11
206.678313
21
10.5
31
0
39
0
210
0
220
0
230
1
0
LINE
5
8C
100
AcDbEntity
8
1
62
256
6
ByLayer
370
18
48
1
60
0
100
AcDbLine
10
206.678313
20
-10.5
30
0
11
210.5
21
0
31
0
39
0
210
0
220
0
230
1
0
LINE
5
8D
100
AcDbEntity
8
1
62
256
6
ByLayer
370
18
48
1
60
0
100
AcDbLine
10
195.7
20
-10.5
30
0
11
206.678313
21
-10.5
31
0
39
0
210
0
220
0
230
1
0
LINE
5
8E
100
AcDbEntity
8
SK1
62
256
6
ByLayer
370
18
48
1
60
0
100
AcDbLine
10
-56
20
-11.5
30
0
11
-55
21
-12.5
31
0
39
0
210
0
220
0
230
1
0
LINE
5
90
100
AcDbEntity
8
SK1
62
256
6
ByLayer
370
18
48
1
60
0
100
AcDbLine
10
-55
20
12.5
30
0
11
-56
21
11.5
31
0
39
0
210
0
220
0
230
1
0
LINE
5
91
100
AcDbEntity
8
SK1
62
256
6
ByLayer
370
18
48
1
60
0
100
AcDbLine
10
-55
20
-12.5
30
0
11
0
21
-12.5
31
0
39
0
210
0
220
0
230
1
0
LINE
5
92
100
AcDbEntity
8
SK1
62
256
6
ByLayer
370
18
48
1
60
0
100
AcDbLine
10
0
20
12.5
30
0
11
-55
21
12.5
31
0
39
0
210
0
220
0
230
1
0
LINE
5
93
100
AcDbEntity
8
1
62
256
6
ByLayer
370
18
48
1
60
0
100
AcDbLine
10
0
20
12.5
30
0
11
0
21
-12.5
31
0
39
0
210
0
220
0
230
1
0
LINE
5
94
100
AcDbEntity
8
1
62
256
6
ByLayer
370
18
48
1
60
0
100
AcDbLine
10
206.678313
20
10.5
30
0
11
206.678313
21
10.166565
31
0
39
0
210
0
220
0
230
1
0
LINE
5
95
100
AcDbEntity
8
1
62
256
6
ByLayer
370
18
48
1
60
0
100
AcDbLine
10
206.678313
20
-10.5
30
0
11
206.678313
21
-1.498578
31
0
39
0
210
0
220
0
230
1
0
LINE
5
96
100
AcDbEntity
8
1
62
256
6
ByLayer
370
18
48
1
60
0
100
AcDbLine
10
10
20
-10.157912
30
0
11
10
21
4.054881
31
0
39
0
210
0
220
0
230
1
0
LINE
5
97
100
AcDbEntity
8
SK1
62
256
6
ByLayer
370
13
48
1
60
0
100
AcDbLine
10
-15.162813
20
-7.237775
30
0
11
-15.162813
21
7.237775
31
0
39
0
210
0
220
0
230
1
0
LINE
5
98
100
AcDbEntity
8
SK1
62
256
6
ByLayer
370
13
48
1
60
0
100
AcDbLine
10
-51.386002
20
5.000227
30
0
11
-51.386002
21
-5.000227
31
0
39
0
210
0
220
0
230
1
0
LINE
5
99
100
AcDbEntity
8
SK1
62
256
6
ByLayer
370
18
48
1
60
0
100
AcDbLine
10
-56
20
-11.5
30
0
11
-56
21
11.5
31
0
39
0
210
0
220
0
230
1
0
LINE
5
9A
100
AcDbEntity
8
SK1
62
256
6
ByLayer
370
13
48
1
60
0
100
AcDbLine
10
-52.500329
20
-3.620591
30
0
11
-52.500329
21
3.620591
31
0
39
0
210
0
220
0
230
1
0
LINE
5
9B
100
AcDbEntity
8
SK1
62
256
6
ByLayer
370
18
48
1
60
0
100
AcDbLine
10
-55
20
-12.5
30
0
11
-55
21
12.5
31
0
39
0
210
0
220
0
230
1
0
LINE
5
9C
100
AcDbEntity
8
SK1
62
256
6
ByLayer
370
18
48
1
60
0
100
AcDbLine
10
0
20
12.5
30
0
11
0
21
-12.5
31
0
39
0
210
0
220
0
230
1
0
LINE
5
9D
100
AcDbEntity
8
SK1
62
256
6
ByLayer
370
13
48
1
60
0
100
AcDbLine
10
-14.015776
20
6.592429
30
0
11
-14.015776
21
-6.592429
31
0
39
0
210
0
220
0
230
1
0
LINE
5
9E
100
AcDbEntity
8
1
62
256
6
ByLayer
370
18
48
1
60
0
100
AcDbLine
10
206.678313
20
10.5
30
0
11
206.678313
21
-10.5
31
0
39
0
210
0
220
0
230
1
0
LINE
5
9F
100
AcDbEntity
8
1
62
256
6
ByLayer
370
18
48
1
60
0
100
AcDbLine
10
206.678313
20
10.5
30
0
11
206.678313
21
-10.5
31
0
39
0
210
0
220
0
230
1
0
LINE
5
A0
100
AcDbEntity
8
1
62
256
6
ByLayer
370
18
48
1
60
0
100
AcDbLine
10
206.678313
20
10.5
30
0
11
206.678313
21
-10.5
31
0
39
0
210
0
220
0
230
1
0
LINE
5
A1
100
AcDbEntity
8
1
62
256
6
ByLayer
370
18
48
1
60
0
100
AcDbLine
10
195.7
20
10.5
30
0
11
195.7
21
-10.5
31
0
39
0
210
0
220
0
230
1
0
LINE
5
A2
100
AcDbEntity
8
1
62
256
6
ByLayer
370
18
48
1
60
0
100
AcDbLine
10
195.7
20
10.5
30
0
11
195.7
21
-10.5
31
0
39
0
210
0
220
0
230
1
0
LINE
5
A3
100
AcDbEntity
8
1
62
256
6
ByLayer
370
18
48
1
60
0
100
AcDbLine
10
206.678313
20
10.5
30
0
11
206.678313
21
-10.5
31
0
39
0
210
0
220
0
230
1
0
LINE
5
A4
100
AcDbEntity
8
1
62
256
6
ByLayer
370
18
48
1
60
0
100
AcDbLine
10
195.7
20
10.5
30
0
11
195.7
21
-10.5
31
0
39
0
210
0
220
0
230
1
0
LINE
5
A5
100
AcDbEntity
8
1
62
256
6
ByLayer
370
18
48
1
60
0
100
AcDbLine
10
206.678313
20
10.5
30
0
11
206.678313
21
-10.5
31
0
39
0
210
0
220
0
230
1
0
LINE
5
A6
100
AcDbEntity
8
SK2
62
256
6
ByLayer
370
13
48
1
60
0
100
AcDbLine
10
-62.5
20
-12.5
30
0
11
-62.5
21
41.524569
31
0
39
0
210
0
220
0
230
1
0
LINE
5
A8
100
AcDbEntity
8
SK2
62
256
6
ByLayer
370
13
48
1
60
0
100
AcDbLine
10
-57.5875
20
12.5
30
0
11
-64.5
21
12.5
31
0
39
0
210
0
220
0
230
1
0
LINE
5
A9
100
AcDbEntity
8
SK2
62
256
6
ByLayer
370
13
48
1
60
0
100
AcDbLine
10
-57.5875
20
-12.5
30
0
11
-64.5
21
-12.5
31
0
39
0
210
0
220
0
230
1
0
LINE
5
AA
100
AcDbEntity
8
1
62
256
6
ByLayer
370
18
48
1
60
1
100
AcDbLine
10
-62.5
20
12.5
30
0
11
-62.039216
21
9.000002
31
0
39
0
210
0
220
0
230
1
0
LINE
5
AB
100
AcDbEntity
8
1
62
256
6
ByLayer
370
18
48
1
60
1
100
AcDbLine
10
-62.039216
20
9.000002
30
0
11
-62.960784
21
8.999998
31
0
39
0
210
0
220
0
230
1
0
LINE
5
AC
100
AcDbEntity
8
1
62
256
6
ByLayer
370
18
48
1
60
1
100
AcDbLine
10
-62.960784
20
8.999998
30
0
11
-62.5
21
12.5
31
0
39
0
210
0
220
0
230
1
0
LINE
5
AD
100
AcDbEntity
8
1
62
256
6
ByLayer
370
18
48
1
60
1
100
AcDbLine
10
-62.5
20
-12.5
30
0
11
-62.960784
21
-9.000002
31
0
39
0
210
0
220
0
230
1
0
LINE
5
AE
100
AcDbEntity
8
1
62
256
6
ByLayer
370
18
48
1
60
1
100
AcDbLine
10
-62.960784
20
-9.000002
30
0
11
-62.039216
21
-8.999998
31
0
39
0
210
0
220
0
230
1
0
LINE
5
AF
100
AcDbEntity
8
1
62
256
6
ByLayer
370
18
48
1
60
1
100
AcDbLine
10
-62.039216
20
-8.999998
30
0
11
-62.5
21
-12.5
31
0
39
0
210
0
220
0
230
1
0
LINE
5
B0
100
AcDbEntity
8
2
62
256
6
ByLayer
370
13
48
1
60
0
100
AcDbLine
10
218
20
-10.5
30
0
11
218
21
38.774683
31
0
39
0
210
0
220
0
230
1
0
LINE
5
B2
100
AcDbEntity
8
2
62
256
6
ByLayer
370
13
48
1
60
0
100
AcDbLine
10
208.265813
20
10.5
30
0
11
220
21
10.5
31
0
39
0
210
0
220
0
230
1
0
LINE
5
B3
100
AcDbEntity
8
2
62
256
6
ByLayer
370
13
48
1
60
0
100
AcDbLine
10
208.265813
20
-10.5
30
0
11
220
21
-10.5
31
0
39
0
210
0
220
0
230
1
0
LINE
5
B4
100
AcDbEntity
8
1
62
256
6
ByLayer
370
18
48
1
60
1
100
AcDbLine
10
218
20
10.5
30
0
11
218.460784
21
7.000002
31
0
39
0
210
0
220
0
230
1
0
LINE
5
B5
100
AcDbEntity
8
1
62
256
6
ByLayer
370
18
48
1
60
1
100
AcDbLine
10
218.460784
20
7.000002
30
0
11
217.539216
21
6.999998
31
0
39
0
210
0
220
0
230
1
0
LINE
5
B6
100
AcDbEntity
8
1
62
256
6
ByLayer
370
18
48
1
60
1
100
AcDbLine
10
217.539216
20
6.999998
30
0
11
218
21
10.5
31
0
39
0
210
0
220
0
230
1
0
LINE
5
B7
100
AcDbEntity
8
1
62
256
6
ByLayer
370
18
48
1
60
1
100
AcDbLine
10
218
20
-10.5
30
0
11
217.539216
21
-7.000002
31
0
39
0
210
0
220
0
230
1
0
LINE
5
B8
100
AcDbEntity
8
1
62
256
6
ByLayer
370
18
48
1
60
1
100
AcDbLine
10
217.539216
20
-7.000002
30
0
11
218.460784
21
-6.999998
31
0
39
0
210
0
220
0
230
1
0
LINE
5
B9
100
AcDbEntity
8
1
62
256
6
ByLayer
370
18
48
1
60
1
100
AcDbLine
10
218.460784
20
-6.999998
30
0
11
218
21
-10.5
31
0
39
0
210
0
220
0
230
1
0
LINE
5
BA
100
AcDbEntity
8
SK2
62
256
6
ByLayer
370
13
48
1
60
0
100
AcDbLine
10
211.042957
20
-1.491762
30
0
11
217.682423
21
-19.733545
31
0
39
0
210
0
220
0
230
1
0
LINE
5
BB
100
AcDbEntity
8
SK2
62
256
6
ByLayer
370
13
48
1
60
0
100
AcDbLine
10
211.042957
20
1.491762
30
0
11
217.682423
21
19.733545
31
0
39
0
210
0
220
0
230
1
0
LINE
5
BC
100
AcDbEntity
8
1
62
256
6
ByLayer
370
18
48
1
60
1
100
AcDbLine
10
216.998383
20
-17.85416
30
0
11
220.051575
21
-16.082064
31
0
39
0
210
0
220
0
230
1
0
LINE
5
BD
100
AcDbEntity
8
1
62
256
6
ByLayer
370
18
48
1
60
1
100
AcDbLine
10
220.051575
20
-16.082064
30
0
11
220.406196
21
-16.93267
31
0
39
0
210
0
220
0
230
1
0
LINE
5
BE
100
AcDbEntity
8
1
62
256
6
ByLayer
370
18
48
1
60
1
100
AcDbLine
10
220.406196
20
-16.93267
30
0
11
216.998383
21
-17.85416
31
0
39
0
210
0
220
0
230
1
0
LINE
5
BF
100
AcDbEntity
8
1
62
256
6
ByLayer
370
18
48
1
60
1
100
AcDbLine
10
216.998383
20
17.85416
30
0
11
220.406193
21
16.932671
31
0
39
0
210
0
220
0
230
1
0
LINE
5
C0
100
AcDbEntity
8
1
62
256
6
ByLayer
370
18
48
1
60
1
100
AcDbLine
10
220.406193
20
16.932671
30
0
11
220.051579
21
16.082063
31
0
39
0
210
0
220
0
230
1
0
LINE
5
C1
100
AcDbEntity
8
1
62
256
6
ByLayer
370
18
48
1
60
1
100
AcDbLine
10
220.051579
20
16.082063
30
0
11
216.998383
21
17.85416
31
0
39
0
210
0
220
0
230
1
0
LINE
5
142
100
AcDbEntity
8
1
62
256
6
ByLayer
370
18
48
1
60
1
100
AcDbLine
10
-62.5
20
12.5
30
0
11
-62.039216
21
9.000002
31
0
39
0
210
0
220
0
230
1
0
LINE
5
143
100
AcDbEntity
8
1
62
256
6
ByLayer
370
18
48
1
60
1
100
AcDbLine
10
-62.039216
20
9.000002
30
0
11
-62.960784
21
8.999998
31
0
39
0
210
0
220
0
230
1
0
LINE
5
144
100
AcDbEntity
8
1
62
256
6
ByLayer
370
18
48
1
60
1
100
AcDbLine
10
-62.960784
20
8.999998
30
0
11
-62.5
21
12.5
31
0
39
0
210
0
220
0
230
1
0
LINE
5
146
100
AcDbEntity
8
1
62
256
6
ByLayer
370
18
48
1
60
1
100
AcDbLine
10
-62.5
20
-12.5
30
0
11
-62.960784
21
-9.000002
31
0
39
0
210
0
220
0
230
1
0
LINE
5
147
100
AcDbEntity
8
1
62
256
6
ByLayer
370
18
48
1
60
1
100
AcDbLine
10
-62.960784
20
-9.000002
30
0
11
-62.039216
21
-8.999998
31
0
39
0
210
0
220
0
230
1
0
LINE
5
148
100
AcDbEntity
8
1
62
256
6
ByLayer
370
18
48
1
60
1
100
AcDbLine
10
-62.039216
20
-8.999998
30
0
11
-62.5
21
-12.5
31
0
39
0
210
0
220
0
230
1
0
LINE
5
14C
100
AcDbEntity
8
1
62
256
6
ByLayer
370
18
48
1
60
1
100
AcDbLine
10
218
20
10.5
30
0
11
218.460784
21
7.000002
31
0
39
0
210
0
220
0
230
1
0
LINE
5
14D
100
AcDbEntity
8
1
62
256
6
ByLayer
370
18
48
1
60
1
100
AcDbLine
10
218.460784
20
7.000002
30
0
11
217.539216
21
6.999998
31
0
39
0
210
0
220
0
230
1
0
LINE
5
14E
100
AcDbEntity
8
1
62
256
6
ByLayer
370
18
48
1
60
1
100
AcDbLine
10
217.539216
20
6.999998
30
0
11
218
21
10.5
31
0
39
0
210
0
220
0
230
1
0
LINE
5
150
100
AcDbEntity
8
1
62
256
6
ByLayer
370
18
48
1
60
1
100
AcDbLine
10
218
20
-10.5
30
0
11
217.539216
21
-7.000002
31
0
39
0
210
0
220
0
230
1
0
LINE
5
151
100
AcDbEntity
8
1
62
256
6
ByLayer
370
18
48
1
60
1
100
AcDbLine
10
217.539216
20
-7.000002
30
0
11
218.460784
21
-6.999998
31
0
39
0
210
0
220
0
230
1
0
LINE
5
152
100
AcDbEntity
8
1
62
256
6
ByLayer
370
18
48
1
60
1
100
AcDbLine
10
218.460784
20
-6.999998
30
0
11
218
21
-10.5
31
0
39
0
210
0
220
0
230
1
0
LINE
5
155
100
AcDbEntity
8
1
62
256
6
ByLayer
370
18
48
1
60
1
100
AcDbLine
10
216.998383
20
-17.85416
30
0
11
220.051575
21
-16.082064
31
0
39
0
210
0
220
0
230
1
0
LINE
5
156
100
AcDbEntity
8
1
62
256
6
ByLayer
370
18
48
1
60
1
100
AcDbLine
10
220.051575
20
-16.082064
30
0
11
220.406196
21
-16.93267
31
0
39
0
210
0
220
0
230
1
0
LINE
5
157
100
AcDbEntity
8
1
62
256
6
ByLayer
370
18
48
1
60
1
100
AcDbLine
10
220.406196
20
-16.93267
30
0
11
216.998383
21
-17.85416
31
0
39
0
210
0
220
0
230
1
0
LINE
5
159
100
AcDbEntity
8
1
62
256
6
ByLayer
370
18
48
1
60
1
100
AcDbLine
10
216.998383
20
17.85416
30
0
11
220.406193
21
16.932671
31
0
39
0
210
0
220
0
230
1
0
LINE
5
15A
100
AcDbEntity
8
1
62
256
6
ByLayer
370
18
48
1
60
1
100
AcDbLine
10
220.406193
20
16.932671
30
0
11
220.051579
21
16.082063
31
0
39
0
210
0
220
0
230
1
0
LINE
5
15B
100
AcDbEntity
8
1
62
256
6
ByLayer
370
18
48
1
60
1
100
AcDbLine
10
220.051579
20
16.082063
30
0
11
216.998383
21
17.85416
31
0
39
0
210
0
220
0
230
1
0
MTEXT
5
13E
100
AcDbEntity
8
SK2
62
256
6
ByLayer
370
18
48
1
60
0
100
AcDbMText
10
-63.841114
20
24.158438
30
0
210
0
220
0
230
1
1
%%c
40
3
41
0
44
1.084337
50
90
71
7
72
5
7
iso_b_vert
0
MTEXT
5
141
100
AcDbEntity
8
SK2
62
256
6
ByLayer
370
18
48
1
60
0
100
AcDbMText
10
-63.841114
20
30.135
30
0
210
0
220
0
230
1
1
\W0.7513;25.000
40
3
41
0
44
1.084337
50
90
71
7
72
5
7
iso_b_vert
0
MTEXT
5
14A
100
AcDbEntity
8
2
62
256
6
ByLayer
370
18
48
1
60
0
100
AcDbMText
10
216.658886
20
22.158438
30
0
210
0
220
0
230
1
1
%%c
40
3
41
0
44
1.084337
50
90
71
7
72
5
7
iso_b_vert
0
MTEXT
5
14B
100
AcDbEntity
8
2
62
256
6
ByLayer
370
18
48
1
60
0
100
AcDbMText
10
216.658886
20
28.135
30
0
210
0
220
0
230
1
1
\W0.7022;21.000
40
3
41
0
44
1.084337
50
90
71
7
72
5
7
iso_b_vert
0
MTEXT
5
154
100
AcDbEntity
8
SK2
62
256
6
ByLayer
370
18
48
1
60
0
100
AcDbMText
10
230.409114
20
3.734657
30
0
210
0
220
0
230
1
1
\W0.7071;140%%d
40
3
41
0
44
1.084337
50
270
71
7
72
5
7
iso_b_vert
0
MTEXT
5
15D
100
AcDbEntity
8
SK6
62
256
6
ByLayer
370
18
48
1
60
0
100
AcDbMText
10
53.712746
20
-67.114886
30
0
210
0
220
0
230
1
1
\W0.7358;H85821.0
40
3
41
0
44
1.084337
50
0
71
7
72
5
7
iso_b_vert
0
HATCH
5
145
100
AcDbEntity
8
SK2
62
256
6
ByLayer
370
13
48
1
60
0
100
AcDbHatch
10
0
20
0
30
0
210
0
220
0
230
1
2
ANSI31
70
0
71
0
91
1
92
5
93
3
72
1
10
-62.5
20
12.5
11
-62.0392162584472
21
9.00000169255318
72
1
10
-62.0392162584472
20
9.00000169255318
11
-62.9607837415528
21
8.99999830744682
72
1
10
-62.9607837415528
20
8.99999830744682
11
-62.5
21
12.5
97
0
75
0
76
1
52
0
41
0.0062
77
0
78
1
53
45
43
0
44
0
45
-0.0139193969876572
46
0.0139193969876572
79
0
47
0
98
1
10
0
20
0
0
HATCH
5
149
100
AcDbEntity
8
SK2
62
256
6
ByLayer
370
13
48
1
60
0
100
AcDbHatch
10
0
20
0
30
0
210
0
220
0
230
1
2
ANSI31
70
0
71
0
91
1
92
5
93
3
72
1
10
-62.5
20
-12.5
11
-62.9607837415528
21
-9.00000169255318
72
1
10
-62.9607837415528
20
-9.00000169255318
11
-62.0392162584472
21
-8.99999830744682
72
1
10
-62.0392162584472
20
-8.99999830744682
11
-62.5
21
-12.5
97
0
75
0
76
1
52
0
41
0.0062
77
0
78
1
53
45
43
0
44
0
45
-0.0139193969876572
46
0.0139193969876572
79
0
47
0
98
1
10
0
20
0
0
HATCH
5
14F
100
AcDbEntity
8
2
62
256
6
ByLayer
370
13
48
1
60
0
100
AcDbHatch
10
0
20
0
30
0
210
0
220
0
230
1
2
ANSI31
70
0
71
0
91
1
92
5
93
3
72
1
10
218
20
10.5
11
218.460783741553
21
7.00000169255318
72
1
10
218.460783741553
20
7.00000169255318
11
217.539216258447
21
6.99999830744682
72
1
10
217.539216258447
20
6.99999830744682
11
218
21
10.5
97
0
75
0
76
1
52
0
41
0.0062
77
0
78
1
53
45
43
0
44
0
45
-0.0139193969876572
46
0.0139193969876572
79
0
47
0
98
1
10
0
20
0
0
HATCH
5
153
100
AcDbEntity
8
2
62
256
6
ByLayer
370
13
48
1
60
0
100
AcDbHatch
10
0
20
0
30
0
210
0
220
0
230
1
2
ANSI31
70
0
71
0
91
1
92
5
93
3
72
1
10
218
20
-10.5
11
217.539216258447
21
-7.00000169255318
72
1
10
217.539216258447
20
-7.00000169255318
11
218.460783741553
21
-6.99999830744682
72
1
10
218.460783741553
20
-6.99999830744682
11
218
21
-10.5
97
0
75
0
76
1
52
0
41
0.0062
77
0
78
1
53
45
43
0
44
0
45
-0.0139193969876572
46
0.0139193969876572
79
0
47
0
98
1
10
0
20
0
0
HATCH
5
158
100
AcDbEntity
8
SK2
62
256
6
ByLayer
370
13
48
1
60
0
100
AcDbHatch
10
0
20
0
30
0
210
0
220
0
230
1
2
ANSI31
70
0
71
0
91
1
92
5
93
3
72
1
10
216.998382723188
20
-17.8541597949322
11
220.051575425693
21
-16.0820638240607
72
1
10
220.051575425693
20
-16.0820638240607
11
220.406195833975
21
-16.9326700737196
72
1
10
220.406195833975
20
-16.9326700737196
11
216.998382723188
21
-17.8541597949322
97
0
75
0
76
1
52
0
41
0.0062
77
0
78
1
53
45
43
0
44
0
45
-0.0139193969876572
46
0.0139193969876572
79
0
47
0
98
1
10
0
20
0
0
HATCH
5
15C
100
AcDbEntity
8
SK2
62
256
6
ByLayer
370
13
48
1
60
0
100
AcDbHatch
10
0
20
0
30
0
210
0
220
0
230
1
2
ANSI31
70
0
71
0
91
1
92
5
93
3
72
1
10
216.998382723188
20
17.8541597949322
11
220.406192709519
21
16.9326713763016
72
1
10
220.406192709519
20
16.9326713763016
11
220.051578550149
21
16.0820625214788
72
1
10
220.051578550149
20
16.0820625214788
11
216.998382723188
21
17.8541597949322
97
0
75
0
76
1
52
0
41
0.0062
77
0
78
1
53
45
43
0
44
0
45
-0.0139193969876572
46
0.0139193969876572
79
0
47
0
98
1
10
0
20
0
0
DIMENSION
5
160
100
AcDbEntity
8
SK2
62
256
6
ByLayer
370
18
48
1
60
0
100
AcDbDimension
2
_U0
10
210.5
20
-46.558453
30
0
11
77.25
21
-46.558453
31
0
70
32
71
1
72
1
41
1
210
0
220
0
230
1
3
Standard
100
AcDbAlignedDimension
13
-56
23
-12.5
33
0
14
210.5
24
0
34
0
50
0
100
AcDbRotatedDimension
1001
ACAD
1000
DSTYLE
1002
{
1070
   371
1070
    13
1070
   372
1070
    13
1070
     3
1000

1070
   170
1070
     0
1070
   144
1040
1.0
1070
   277
1070
     2
1070
   284
1070
     8
1070
   278
1070
    46
1070
   146
1040
1.166667
1070
   345
1005
16
1070
   347
1005
16
1070
   346
1005
16
1070
   344
1005
0
1070
   343
1005
0
1070
   172
1070
     1
1070
    76
1070
     0
1070
    75
1070
     0
1070
   282
1070
     0
1070
   281
1070
     0
1070
    71
1070
     0
1070
    74
1070
     0
1070
   279
1070
     0
1070
   173
1070
     1
1070
   340
1005
13F
1070
   271
1070
     2
1070
   272
1070
     3
1070
    77
1070
     1
1070
    73
1070
     1
1070
   171
1070
     3
1070
   274
1070
     4
1070
   177
1070
     2
1070
   176
1070
     2
1070
   178
1070
     2
1070
    78
1070
     8
1070
    48
1040
-0.1
1070
    41
1040
3.5
1070
   147
1040
1.5
1070
    42
1040
1.5875
1070
    44
1040
2.0
1070
   140
1040
3.0
1002
}
1001
ACAD_DSTYLE_DIM_LINETYPE
1070
   380
1005
16
1001
ACAD_DSTYLE_DIM_EXT1_LINETYPE
1070
   381
1005
16
1001
ACAD_DSTYLE_DIM_EXT2_LINETYPE
1070
   382
1005
16
0
DIMENSION
5
179
100
AcDbEntity
8
SK2
62
256
6
ByLayer
370
18
48
1
60
0
100
AcDbDimension
2
_U1
10
3
20
-36.558453
30
0
11
106.75
21
-36.558453
31
0
70
32
71
1
72
1
41
1
210
0
220
0
230
1
3
Standard
100
AcDbAlignedDimension
13
210.5
23
0
33
0
14
3
24
-10.5
34
0
50
0
100
AcDbRotatedDimension
1001
ACAD
1000
DSTYLE
1002
{
1070
   371
1070
    13
1070
   372
1070
    13
1070
     3
1000

1070
   170
1070
     0
1070
   144
1040
1.0
1070
   277
1070
     2
1070
   284
1070
     8
1070
   278
1070
    46
1070
   146
1040
1.166667
1070
   345
1005
16
1070
   347
1005
16
1070
   346
1005
16
1070
   344
1005
0
1070
   343
1005
0
1070
   172
1070
     1
1070
    76
1070
     0
1070
    75
1070
     0
1070
   282
1070
     0
1070
   281
1070
     0
1070
    71
1070
     0
1070
    74
1070
     0
1070
   279
1070
     0
1070
   173
1070
     1
1070
   340
1005
13F
1070
   271
1070
     2
1070
   272
1070
     3
1070
    77
1070
     1
1070
    73
1070
     1
1070
   171
1070
     3
1070
   274
1070
     4
1070
   177
1070
     2
1070
   176
1070
     2
1070
   178
1070
     2
1070
    78
1070
     8
1070
    48
1040
-0.1
1070
    41
1040
3.5
1070
   147
1040
1.5
1070
    42
1040
1.5875
1070
    44
1040
2.0
1070
   140
1040
3.0
1002
}
1001
ACAD_DSTYLE_DIM_LINETYPE
1070
   380
1005
16
1001
ACAD_DSTYLE_DIM_EXT1_LINETYPE
1070
   381
1005
16
1001
ACAD_DSTYLE_DIM_EXT2_LINETYPE
1070
   382
1005
16
0
DIMENSION
5
191
100
AcDbEntity
8
SK2
62
256
6
ByLayer
370
18
48
1
60
0
100
AcDbDimension
2
_U2
10
0
20
-36.558453
30
0
11
-28
21
-36.558453
31
0
70
32
71
1
72
1
41
1
210
0
220
0
230
1
3
Standard
100
AcDbAlignedDimension
13
-56
23
-12.5
33
0
14
0
24
-12.5
34
0
50
0
100
AcDbRotatedDimension
1001
ACAD
1000
DSTYLE
1002
{
1070
   371
1070
    13
1070
   372
1070
    13
1070
     3
1000

1070
   170
1070
     0
1070
   144
1040
1.0
1070
   277
1070
     2
1070
   284
1070
     8
1070
   278
1070
    46
1070
   146
1040
1.166667
1070
   345
1005
16
1070
   347
1005
16
1070
   346
1005
16
1070
   344
1005
0
1070
   343
1005
0
1070
   172
1070
     1
1070
    76
1070
     0
1070
    75
1070
     0
1070
   282
1070
     0
1070
   281
1070
     0
1070
    71
1070
     0
1070
    74
1070
     0
1070
   279
1070
     0
1070
   173
1070
     1
1070
   340
1005
13F
1070
   271
1070
     2
1070
   272
1070
     3
1070
    77
1070
     1
1070
    73
1070
     1
1070
   171
1070
     3
1070
   274
1070
     4
1070
   177
1070
     2
1070
   176
1070
     2
1070
   178
1070
     2
1070
    78
1070
     8
1070
    48
1040
-0.1
1070
    41
1040
3.5
1070
   147
1040
1.5
1070
    42
1040
1.5875
1070
    44
1040
2.0
1070
   140
1040
3.0
1002
}
1001
ACAD_DSTYLE_DIM_LINETYPE
1070
   380
1005
16
1001
ACAD_DSTYLE_DIM_EXT1_LINETYPE
1070
   381
1005
16
1001
ACAD_DSTYLE_DIM_EXT2_LINETYPE
1070
   382
1005
16
0
DIMENSION
5
1A9
100
AcDbEntity
8
SK2
62
256
6
ByLayer
370
18
48
1
60
0
100
AcDbDimension
2
_U3
10
26
20
33.558453
30
0
11
118.25
21
33.558453
31
0
70
32
71
1
72
1
41
1
210
0
220
0
230
1
3
Standard
100
AcDbAlignedDimension
13
210.5
23
0
33
0
14
26
24
10.5
34
0
50
0
100
AcDbRotatedDimension
1001
ACAD
1000
DSTYLE
1002
{
1070
   371
1070
    13
1070
   372
1070
    13
1070
     3
1000

1070
   170
1070
     0
1070
   144
1040
1.0
1070
   277
1070
     2
1070
   284
1070
     8
1070
   278
1070
    46
1070
   146
1040
1.166667
1070
   345
1005
16
1070
   347
1005
16
1070
   346
1005
16
1070
   344
1005
0
1070
   343
1005
0
1070
   172
1070
     1
1070
    76
1070
     0
1070
    75
1070
     0
1070
   282
1070
     0
1070
   281
1070
     0
1070
    71
1070
     0
1070
    74
1070
     0
1070
   279
1070
     0
1070
   173
1070
     1
1070
   340
1005
13F
1070
   271
1070
     2
1070
   272
1070
     3
1070
    77
1070
     1
1070
    73
1070
     1
1070
   171
1070
     3
1070
   274
1070
     4
1070
   177
1070
     2
1070
   176
1070
     2
1070
   178
1070
     2
1070
    78
1070
     8
1070
    48
1040
-0.1
1070
    41
1040
3.5
1070
   147
1040
1.5
1070
    42
1040
1.5875
1070
    44
1040
2.0
1070
   140
1040
3.0
1002
}
1001
ACAD_DSTYLE_DIM_LINETYPE
1070
   380
1005
16
1001
ACAD_DSTYLE_DIM_EXT1_LINETYPE
1070
   381
1005
16
1001
ACAD_DSTYLE_DIM_EXT2_LINETYPE
1070
   382
1005
16
0
ENDSEC
0
SECTION
2
OBJECTS
0
DICTIONARY
5
231
330
0
100
AcDbDictionary
280
0
281
1
3
ACAD_GROUP
350
232
3
ACAD_MLINESTYLE
350
233
0
DICTIONARY
5
232
330
0
100
AcDbDictionary
280
0
281
1
0
DICTIONARY
5
233
330
0
100
AcDbDictionary
280
0
281
1
3
Standard
350
18
0
MLINESTYLE
5
18
330
233
100
AcDbMlineStyle
2
Standard
70
0
3

62
256
51
90
52
90
71
2
49
-0.5
62
256
6
ByLayer
49
0.5
62
256
6
ByLayer
0
RASTERVARIABLES
5
21f
330

100
AcDbRasterVariables
90
0
70
1
71
1
72
1
0
ENDSEC
0
EOF
