0
SECTION
2
HEADER
9
$ACADVER
1
AC1015
9
$DWGCODEPAGE
3
ANSI_1252
9
$HANDSEED
5
23a
9
$ANGBASE
50
0
9
$ANGDIR
70
0
9
$ATTMODE
70
1
9
$AUNITS
70
0
9
$AUPREC
70
0
9
$CECOLOR
62
256
9
$CELTSCALE
40
1
9
$CELTYPE
6
ByLayer
9
$CELWEIGHT
370
18
9
$CLAYER
8
0
9
$CMLJUST
70
0
9
$CMLSCALE
40
1
9
$CMLSTYLE
2
Standard
9
$DIMSTYLE
2
Standard
9
$TEXTSIZE
40
0.2
9
$TEXTSTYLE
7
Standard
9
$LUNITS
70
2
9
$LUPREC
70
4
9
$EXTNAMES
290
1
9
$INSUNITS
70
4
9
$LTSCALE
40
1
9
$LWDISPLAY
290
1
9
$PDMODE
70
0
9
$PDSIZE
40
0
9
$PLINEGEN
70
0
0
ENDSEC
0
SECTION
2
CLASSES
0
CLASS
1
RASTERVARIABLES
2
AcDbRasterVariables
3
ISM
90
0
280
0
281
0
0
ENDSEC
0
SECTION
2
TABLES
0
TABLE
2
VPORT
5
230
100
AcDbSymbolTable
0
VPORT
5
1
100
AcDbSymbolTableRecord
100
AcDbViewportTableRecord
2
*Active
70
0
10
0
20
0
11
1
21
1
12
-1
22
1
13
0
23
0
14
0.5
24
0.5
15
10
25
10
16
0
26
0
36
1
17
0
27
0
37
0
0
ENDTAB
0
TABLE
2
LTYPE
5
231
100
AcDbSymbolTable
0
LTYPE
5
14
100
AcDbSymbolTableRecord
100
AcDbLinetypeTableRecord
70
0
2
ByBlock
3

72
65
73
0
40
0
0
LTYPE
5
15
100
AcDbSymbolTableRecord
100
AcDbLinetypeTableRecord
70
0
2
ByLayer
3

72
65
73
0
40
0
0
LTYPE
5
16
100
AcDbSymbolTableRecord
100
AcDbLinetypeTableRecord
70
0
2
Continuous
3
Solid line
72
65
73
0
40
0
0
LTYPE
5
6E
100
AcDbSymbolTableRecord
100
AcDbLinetypeTableRecord
70
0
2
CENTER
3
____ _ ____ _ ____ _ ____
72
65
73
4
40
47.5
49
22
74
0
49
-8.5
74
0
49
8.5
74
0
49
-8.5
74
0
0
LTYPE
5
6F
100
AcDbSymbolTableRecord
100
AcDbLinetypeTableRecord
70
0
2
DASHED
3
__ __ __ __ __ __ __ __ __
72
65
73
2
40
25.72
49
12.86
74
0
49
-12.86
74
0
0
ENDTAB
0
TABLE
2
LAYER
5
232
100
AcDbSymbolTable
0
LAYER
5
10
100
AcDbSymbolTableRecord
100
AcDbLayerTableRecord
2
0
70
0
62
7
6
Continuous
290
1
370
-3
390
0
0
LAYER
5
71
100
AcDbSymbolTableRecord
100
AcDbLayerTableRecord
2
80
70
0
62
-6
6
Continuous
290
1
370
-3
390
0
0
LAYER
5
73
100
AcDbSymbolTableRecord
100
AcDbLayerTableRecord
2
81
70
0
62
-3
6
Continuous
290
1
370
-3
390
0
0
LAYER
5
75
100
AcDbSymbolTableRecord
100
AcDbLayerTableRecord
2
1
70
0
62
4
6
Continuous
290
1
370
-3
390
0
0
LAYER
5
7F
100
AcDbSymbolTableRecord
100
AcDbLayerTableRecord
2
4
70
0
62
-2
6
CENTER
290
1
370
-3
390
0
0
LAYER
5
B1
100
AcDbSymbolTableRecord
100
AcDbLayerTableRecord
2
2
70
0
62
7
6
Continuous
290
1
370
-3
390
0
0
LAYER
5
15F
100
AcDbSymbolTableRecord
100
AcDbLayerTableRecord
2
Defpoints
70
0
62
7
6
Continuous
290
0
370
-3
390
0
0
LAYER
5
21c
100
AcDbSymbolTableRecord
100
AcDbLayerTableRecord
2
SK4
70
0
62
2
6
CENTER
290
1
370
-3
390
0
0
LAYER
5
21d
100
AcDbSymbolTableRecord
100
AcDbLayerTableRecord
2
SK1
70
0
62
4
6
Continuous
290
1
370
-3
390
0
0
LAYER
5
21e
100
AcDbSymbolTableRecord
100
AcDbLayerTableRecord
2
SK2
70
0
62
7
6
Continuous
290
1
370
-3
390
0
0
LAYER
5
21f
100
AcDbSymbolTableRecord
100
AcDbLayerTableRecord
2
SK6
70
0
62
5
6
Continuous
290
1
370
-3
390
0
0
ENDTAB
0
TABLE
2
STYLE
5
233
100
AcDbSymbolTable
0
STYLE
5
11
100
AcDbSymbolTableRecord
100
AcDbTextStyleTableRecord
2
Standard
3
txt
70
0
71
0
40
0
41
1
42
0
50
0
0
STYLE
5
13B
100
AcDbSymbolTableRecord
100
AcDbTextStyleTableRecord
2
iso_b_vert
3
simplex.shx
70
0
71
0
40
0
41
1
42
0
50
0
0
STYLE
5
13C
100
AcDbSymbolTableRecord
100
AcDbTextStyleTableRecord
2
DWGDirectTextStyle
3
simplex
70
0
71
0
40
0
41
1
42
0
50
0
0
ENDTAB
0
TABLE
2
DIMSTYLE
5
234
100
AcDbSymbolTable
100
AcDbDimStyleTable
0
DIMSTYLE
105
27
100
AcDbSymbolTableRecord
100
AcDbDimStyleTableRecord
2
Standard
70
0
3
<>
41
0.18
42
0.0625
44
0.18
140
0.18
147
0.09
73
0
74
0
77
1
271
2
275
0
278
52
280
0
340
11
0
ENDTAB
0
TABLE
2
VIEW
5
235
100
AcDbSymbolTable
0
ENDTAB
0
TABLE
2
UCS
5
236
100
AcDbSymbolTable
0
ENDTAB
0
TABLE
2
APPID
5
237
100
AcDbSymbolTable
0
APPID
5
12
100
AcDbSymbolTableRecord
100
AcDbRegAppTableRecord
2
ACAD
70
0
0
APPID
5
15B
100
AcDbSymbolTableRecord
100
AcDbRegAppTableRecord
2
ACAD_DSTYLE_DIMBREAK
70
0
0
APPID
5
1DB
100
AcDbSymbolTableRecord
100
AcDbRegAppTableRecord
2
ACAD_DSTYLE_DIM_LINETYPE
70
0
0
APPID
5
1DC
100
AcDbSymbolTableRecord
100
AcDbRegAppTableRecord
2
ACAD_DSTYLE_DIM_EXT1_LINETYPE
70
0
0
APPID
5
1DD
100
AcDbSymbolTableRecord
100
AcDbRegAppTableRecord
2
ACAD_DSTYLE_DIM_EXT2_LINETYPE
70
0
0
APPID
5
218
100
AcDbSymbolTableRecord
100
AcDbRegAppTableRecord
2
ACAD_MLEADERVER
70
0
0
ENDTAB
0
TABLE
2
BLOCK_RECORD
5
238
100
AcDbSymbolTable
0
BLOCK_RECORD
5
1F
100
AcDbSymbolTableRecord
100
AcDbBlockTableRecord
2
*Model_Space
340
0
70
0
0
BLOCK_RECORD
5
1B
100
AcDbSymbolTableRecord
100
AcDbBlockTableRecord
2
*Paper_Space
340
0
70
0
0
BLOCK_RECORD
5
23
100
AcDbSymbolTableRecord
100
AcDbBlockTableRecord
2
*Paper_Space0
340
0
70
0
0
BLOCK_RECORD
5
160
100
AcDbSymbolTableRecord
100
AcDbBlockTableRecord
2
*D1
340
0
70
0
0
BLOCK_RECORD
5
16C
100
AcDbSymbolTableRecord
100
AcDbBlockTableRecord
2
_U0
340
0
70
0
0
BLOCK_RECORD
5
178
100
AcDbSymbolTableRecord
100
AcDbBlockTableRecord
2
*D3
340
0
70
0
0
BLOCK_RECORD
5
184
100
AcDbSymbolTableRecord
100
AcDbBlockTableRecord
2
_U1
340
0
70
0
0
BLOCK_RECORD
5
190
100
AcDbSymbolTableRecord
100
AcDbBlockTableRecord
2
*D5
340
0
70
0
0
BLOCK_RECORD
5
19C
100
AcDbSymbolTableRecord
100
AcDbBlockTableRecord
2
_U2
340
0
70
0
0
BLOCK_RECORD
5
1A8
100
AcDbSymbolTableRecord
100
AcDbBlockTableRecord
2
*D7
340
0
70
0
0
BLOCK_RECORD
5
1B4
100
AcDbSymbolTableRecord
100
AcDbBlockTableRecord
2
_U3
340
0
70
0
0
ENDTAB
0
ENDSEC
0
SECTION
2
BLOCKS
0
BLOCK
5
20
100
AcDbEntity
8
0
100
AcDbBlockBegin
2
*Model_Space
70
0
10
0
20
0
30
0
3
*Model_Space
0
ENDBLK
5
21
100
AcDbEntity
8
0
100
AcDbBlockEnd
0
BLOCK
5
1C
100
AcDbEntity
8
0
100
AcDbBlockBegin
2
*Paper_Space
70
0
10
0
20
0
30
0
3
*Paper_Space
0
ENDBLK
5
1D
100
AcDbEntity
8
0
100
AcDbBlockEnd
0
BLOCK
5
24
100
AcDbEntity
8
0
100
AcDbBlockBegin
2
*Paper_Space0
70
0
10
0
20
0
30
0
3
*Paper_Space0
0
ENDBLK
5
25
100
AcDbEntity
8
0
100
AcDbBlockEnd
0
BLOCK
5
161
100
AcDbEntity
8
0
100
AcDbBlockBegin
2
*D1
70
1
10
0
20
0
30
0
3
*D1
0
LINE
5
163
100
AcDbEntity
8
0
62
256
6
ByLayer
370
-2
48
1
60
0
100
AcDbLine
10
-56
20
-14.0875
30
0
11
-56
21
-47.952229
31
0
39
0
210
0
220
0
230
1
0
LINE
5
164
100
AcDbEntity
8
0
62
256
6
ByLayer
370
-2
48
1
60
0
100
AcDbLine
10
208.5
20
-1.5875
30
0
11
208.5
21
-47.952229
31
0
39
0
210
0
220
0
230
1
0
LINE
5
165
100
AcDbEntity
8
0
62
256
6
ByLayer
370
-2
48
1
60
0
100
AcDbLine
10
-52.5
20
-45.952229
30
0
11
205
21
-45.952229
31
0
39
0
210
0
220
0
230
1
0
SOLID
5
166
100
AcDbEntity
8
0
62
256
6
ByLayer
370
-1
48
1
60
0
100
AcDbTrace
10
-52.5
20
-45.368896
30
0
11
-52.5
21
-46.535563
31
0
12
-56
22
-45.952229
32
0
13
-56
23
-45.952229
33
0
39
0
210
0
220
0
230
1
0
SOLID
5
167
100
AcDbEntity
8
0
62
256
6
ByLayer
370
-1
48
1
60
0
100
AcDbTrace
10
205
20
-46.535563
30
0
11
205
21
-45.368896
31
0
12
208.5
22
-45.952229
32
0
13
208.5
23
-45.952229
33
0
39
0
210
0
220
0
230
1
0
MTEXT
5
168
100
AcDbEntity
8
0
62
256
6
ByLayer
370
18
48
1
60
0
100
AcDbMText
10
76.25
20
-39.952229
30
0
210
0
220
0
230
1
1
\A1;264.5
40
3
41
0
44
1
50
0
71
5
72
5
7
iso_b_vert
0
POINT
5
169
100
AcDbEntity
8
Defpoints
62
0
6
ByLayer
370
-1
48
1
60
0
100
AcDbPoint
10
-56
20
-12.5
30
0
39
0
210
0
220
0
230
1
50
360
0
POINT
5
16A
100
AcDbEntity
8
Defpoints
62
0
6
ByLayer
370
-1
48
1
60
0
100
AcDbPoint
10
208.5
20
0
30
0
39
0
210
0
220
0
230
1
50
360
0
POINT
5
16B
100
AcDbEntity
8
Defpoints
62
0
6
ByLayer
370
-1
48
1
60
0
100
AcDbPoint
10
208.5
20
-45.952229
30
0
39
0
210
0
220
0
230
1
50
360
0
ENDBLK
5
162
100
AcDbEntity
8
0
100
AcDbBlockEnd
0
BLOCK
5
173
100
AcDbEntity
8
0
100
AcDbBlockBegin
2
_U0
70
0
10
0
20
0
30
0
3
_U0
0
MTEXT
5
16D
100
AcDbEntity
8
SK2
62
256
6
ByLayer
370
18
48
1
60
0
100
AcDbMText
10
70.488773
20
-45.067115
30
0
210
0
220
0
230
1
1
\W0.7728;264.50
40
3
41
0
44
1.084337
50
0
71
7
72
5
7
iso_b_vert
0
LINE
5
16E
100
AcDbEntity
8
SK2
62
256
6
ByLayer
370
13
48
1
60
0
100
AcDbLine
10
-56
20
-14.0875
30
0
11
-56
21
-47.952229
31
0
39
0
210
0
220
0
230
1
0
LINE
5
16F
100
AcDbEntity
8
SK2
62
256
6
ByLayer
370
13
48
1
60
0
100
AcDbLine
10
208.5
20
-1.5875
30
0
11
208.5
21
-47.952229
31
0
39
0
210
0
220
0
230
1
0
LINE
5
170
100
AcDbEntity
8
SK2
62
256
6
ByLayer
370
13
48
1
60
0
100
AcDbLine
10
-56
20
-45.952229
30
0
11
208.5
21
-45.952229
31
0
39
0
210
0
220
0
230
1
0
SOLID
5
171
100
AcDbEntity
8
SK2
62
256
6
ByLayer
370
18
48
1
60
0
100
AcDbTrace
10
-56
20
-45.952229
30
0
11
-52.500002
21
-45.491446
31
0
12
-52.499998
22
-46.413013
32
0
13
-52.499998
23
-46.413013
33
0
39
0
210
0
220
0
230
1
0
SOLID
5
172
100
AcDbEntity
8
SK2
62
256
6
ByLayer
370
18
48
1
60
0
100
AcDbTrace
10
208.5
20
-45.952229
30
0
11
205.000002
21
-46.413013
31
0
12
204.999998
22
-45.491446
32
0
13
204.999998
23
-45.491446
33
0
39
0
210
0
220
0
230
1
0
ENDBLK
5
174
100
AcDbEntity
8
0
100
AcDbBlockEnd
0
BLOCK
5
179
100
AcDbEntity
8
0
100
AcDbBlockBegin
2
*D3
70
1
10
0
20
0
30
0
3
*D3
0
LINE
5
17B
100
AcDbEntity
8
0
62
256
6
ByLayer
370
-2
48
1
60
0
100
AcDbLine
10
208.5
20
-1.5875
30
0
11
208.5
21
-37.952229
31
0
39
0
210
0
220
0
230
1
0
LINE
5
17C
100
AcDbEntity
8
0
62
256
6
ByLayer
370
-2
48
1
60
0
100
AcDbLine
10
3
20
-11.5875
30
0
11
3
21
-37.952229
31
0
39
0
210
0
220
0
230
1
0
LINE
5
17D
100
AcDbEntity
8
0
62
256
6
ByLayer
370
-2
48
1
60
0
100
AcDbLine
10
205
20
-35.952229
30
0
11
6.5
21
-35.952229
31
0
39
0
210
0
220
0
230
1
0
SOLID
5
17E
100
AcDbEntity
8
0
62
256
6
ByLayer
370
-1
48
1
60
0
100
AcDbTrace
10
205
20
-36.535563
30
0
11
205
21
-35.368896
31
0
12
208.5
22
-35.952229
32
0
13
208.5
23
-35.952229
33
0
39
0
210
0
220
0
230
1
0
SOLID
5
17F
100
AcDbEntity
8
0
62
256
6
ByLayer
370
-1
48
1
60
0
100
AcDbTrace
10
6.5
20
-35.368896
30
0
11
6.5
21
-36.535563
31
0
12
3
22
-35.952229
32
0
13
3
23
-35.952229
33
0
39
0
210
0
220
0
230
1
0
MTEXT
5
180
100
AcDbEntity
8
0
62
256
6
ByLayer
370
18
48
1
60
0
100
AcDbMText
10
105.75
20
-29.952229
30
0
210
0
220
0
230
1
1
\A1;205.5
40
3
41
0
44
1
50
0
71
5
72
5
7
iso_b_vert
0
POINT
5
181
100
AcDbEntity
8
Defpoints
62
0
6
ByLayer
370
-1
48
1
60
0
100
AcDbPoint
10
208.5
20
0
30
0
39
0
210
0
220
0
230
1
50
360
0
POINT
5
182
100
AcDbEntity
8
Defpoints
62
0
6
ByLayer
370
-1
48
1
60
0
100
AcDbPoint
10
3
20
-10
30
0
39
0
210
0
220
0
230
1
50
360
0
POINT
5
183
100
AcDbEntity
8
Defpoints
62
0
6
ByLayer
370
-1
48
1
60
0
100
AcDbPoint
10
3
20
-35.952229
30
0
39
0
210
0
220
0
230
1
50
360
0
ENDBLK
5
17A
100
AcDbEntity
8
0
100
AcDbBlockEnd
0
BLOCK
5
18B
100
AcDbEntity
8
0
100
AcDbBlockBegin
2
_U1
70
0
10
0
20
0
30
0
3
_U1
0
MTEXT
5
185
100
AcDbEntity
8
SK2
62
256
6
ByLayer
370
18
48
1
60
0
100
AcDbMText
10
100.146716
20
-35.067115
30
0
210
0
220
0
230
1
1
\W0.7513;205.50
40
3
41
0
44
1.084337
50
0
71
7
72
5
7
iso_b_vert
0
LINE
5
186
100
AcDbEntity
8
SK2
62
256
6
ByLayer
370
13
48
1
60
0
100
AcDbLine
10
208.5
20
-1.5875
30
0
11
208.5
21
-37.952229
31
0
39
0
210
0
220
0
230
1
0
LINE
5
187
100
AcDbEntity
8
SK2
62
256
6
ByLayer
370
13
48
1
60
0
100
AcDbLine
10
3
20
-11.5875
30
0
11
3
21
-37.952229
31
0
39
0
210
0
220
0
230
1
0
LINE
5
188
100
AcDbEntity
8
SK2
62
256
6
ByLayer
370
13
48
1
60
0
100
AcDbLine
10
208.5
20
-35.952229
30
0
11
3
21
-35.952229
31
0
39
0
210
0
220
0
230
1
0
SOLID
5
189
100
AcDbEntity
8
SK2
62
256
6
ByLayer
370
18
48
1
60
0
100
AcDbTrace
10
208.5
20
-35.952229
30
0
11
205.000002
21
-36.413013
31
0
12
204.999998
22
-35.491446
32
0
13
204.999998
23
-35.491446
33
0
39
0
210
0
220
0
230
1
0
SOLID
5
18A
100
AcDbEntity
8
SK2
62
256
6
ByLayer
370
18
48
1
60
0
100
AcDbTrace
10
3
20
-35.952229
30
0
11
6.499998
21
-35.491446
31
0
12
6.500002
22
-36.413013
32
0
13
6.500002
23
-36.413013
33
0
39
0
210
0
220
0
230
1
0
ENDBLK
5
18C
100
AcDbEntity
8
0
100
AcDbBlockEnd
0
BLOCK
5
191
100
AcDbEntity
8
0
100
AcDbBlockBegin
2
*D5
70
1
10
0
20
0
30
0
3
*D5
0
LINE
5
193
100
AcDbEntity
8
0
62
256
6
ByLayer
370
-2
48
1
60
0
100
AcDbLine
10
-56
20
-14.0875
30
0
11
-56
21
-37.952229
31
0
39
0
210
0
220
0
230
1
0
LINE
5
194
100
AcDbEntity
8
0
62
256
6
ByLayer
370
-2
48
1
60
0
100
AcDbLine
10
0
20
-14.0875
30
0
11
0
21
-37.952229
31
0
39
0
210
0
220
0
230
1
0
LINE
5
195
100
AcDbEntity
8
0
62
256
6
ByLayer
370
-2
48
1
60
0
100
AcDbLine
10
-52.5
20
-35.952229
30
0
11
-3.5
21
-35.952229
31
0
39
0
210
0
220
0
230
1
0
SOLID
5
196
100
AcDbEntity
8
0
62
256
6
ByLayer
370
-1
48
1
60
0
100
AcDbTrace
10
-52.5
20
-35.368896
30
0
11
-52.5
21
-36.535563
31
0
12
-56
22
-35.952229
32
0
13
-56
23
-35.952229
33
0
39
0
210
0
220
0
230
1
0
SOLID
5
197
100
AcDbEntity
8
0
62
256
6
ByLayer
370
-1
48
1
60
0
100
AcDbTrace
10
-3.5
20
-36.535563
30
0
11
-3.5
21
-35.368896
31
0
12
0
22
-35.952229
32
0
13
0
23
-35.952229
33
0
39
0
210
0
220
0
230
1
0
MTEXT
5
198
100
AcDbEntity
8
0
62
256
6
ByLayer
370
18
48
1
60
0
100
AcDbMText
10
-28
20
-29.952229
30
0
210
0
220
0
230
1
1
\A1;56
40
3
41
0
44
1
50
0
71
5
72
5
7
iso_b_vert
0
POINT
5
199
100
AcDbEntity
8
Defpoints
62
0
6
ByLayer
370
-1
48
1
60
0
100
AcDbPoint
10
-56
20
-12.5
30
0
39
0
210
0
220
0
230
1
50
360
0
POINT
5
19A
100
AcDbEntity
8
Defpoints
62
0
6
ByLayer
370
-1
48
1
60
0
100
AcDbPoint
10
0
20
-12.5
30
0
39
0
210
0
220
0
230
1
50
360
0
POINT
5
19B
100
AcDbEntity
8
Defpoints
62
0
6
ByLayer
370
-1
48
1
60
0
100
AcDbPoint
10
0
20
-35.952229
30
0
39
0
210
0
220
0
230
1
50
360
0
ENDBLK
5
192
100
AcDbEntity
8
0
100
AcDbBlockEnd
0
BLOCK
5
1A3
100
AcDbEntity
8
0
100
AcDbBlockBegin
2
_U2
70
0
10
0
20
0
30
0
3
_U2
0
MTEXT
5
19D
100
AcDbEntity
8
SK2
62
256
6
ByLayer
370
18
48
1
60
0
100
AcDbMText
10
-32.48237
20
-35.067115
30
0
210
0
220
0
230
1
1
\W0.7468;56.00
40
3
41
0
44
1.084337
50
0
71
7
72
5
7
iso_b_vert
0
LINE
5
19E
100
AcDbEntity
8
SK2
62
256
6
ByLayer
370
13
48
1
60
0
100
AcDbLine
10
-56
20
-14.0875
30
0
11
-56
21
-37.952229
31
0
39
0
210
0
220
0
230
1
0
LINE
5
19F
100
AcDbEntity
8
SK2
62
256
6
ByLayer
370
13
48
1
60
0
100
AcDbLine
10
0
20
-14.0875
30
0
11
0
21
-37.952229
31
0
39
0
210
0
220
0
230
1
0
LINE
5
1A0
100
AcDbEntity
8
SK2
62
256
6
ByLayer
370
13
48
1
60
0
100
AcDbLine
10
-56
20
-35.952229
30
0
11
0
21
-35.952229
31
0
39
0
210
0
220
0
230
1
0
SOLID
5
1A1
100
AcDbEntity
8
SK2
62
256
6
ByLayer
370
18
48
1
60
0
100
AcDbTrace
10
-56
20
-35.952229
30
0
11
-52.500002
21
-35.491446
31
0
12
-52.499998
22
-36.413013
32
0
13
-52.499998
23
-36.413013
33
0
39
0
210
0
220
0
230
1
0
SOLID
5
1A2
100
AcDbEntity
8
SK2
62
256
6
ByLayer
370
18
48
1
60
0
100
AcDbTrace
10
0
20
-35.952229
30
0
11
-3.499998
21
-36.413013
31
0
12
-3.500002
22
-35.491446
32
0
13
-3.500002
23
-35.491446
33
0
39
0
210
0
220
0
230
1
0
ENDBLK
5
1A4
100
AcDbEntity
8
0
100
AcDbBlockEnd
0
BLOCK
5
1A9
100
AcDbEntity
8
0
100
AcDbBlockBegin
2
*D7
70
1
10
0
20
0
30
0
3
*D7
0
LINE
5
1AB
100
AcDbEntity
8
0
62
256
6
ByLayer
370
-2
48
1
60
0
100
AcDbLine
10
208.5
20
1.5875
30
0
11
208.5
21
34.952229
31
0
39
0
210
0
220
0
230
1
0
LINE
5
1AC
100
AcDbEntity
8
0
62
256
6
ByLayer
370
-2
48
1
60
0
100
AcDbLine
10
33
20
11.5875
30
0
11
33
21
34.952229
31
0
39
0
210
0
220
0
230
1
0
LINE
5
1AD
100
AcDbEntity
8
0
62
256
6
ByLayer
370
-2
48
1
60
0
100
AcDbLine
10
205
20
32.952229
30
0
11
36.5
21
32.952229
31
0
39
0
210
0
220
0
230
1
0
SOLID
5
1AE
100
AcDbEntity
8
0
62
256
6
ByLayer
370
-1
48
1
60
0
100
AcDbTrace
10
205
20
32.368896
30
0
11
205
21
33.535563
31
0
12
208.5
22
32.952229
32
0
13
208.5
23
32.952229
33
0
39
0
210
0
220
0
230
1
0
SOLID
5
1AF
100
AcDbEntity
8
0
62
256
6
ByLayer
370
-1
48
1
60
0
100
AcDbTrace
10
36.5
20
33.535563
30
0
11
36.5
21
32.368896
31
0
12
33
22
32.952229
32
0
13
33
23
32.952229
33
0
39
0
210
0
220
0
230
1
0
MTEXT
5
1B0
100
AcDbEntity
8
0
62
256
6
ByLayer
370
18
48
1
60
0
100
AcDbMText
10
120.75
20
38.952229
30
0
210
0
220
0
230
1
1
\A1;175.5
40
3
41
0
44
1
50
0
71
5
72
5
7
iso_b_vert
0
POINT
5
1B1
100
AcDbEntity
8
Defpoints
62
0
6
ByLayer
370
-1
48
1
60
0
100
AcDbPoint
10
208.5
20
0
30
0
39
0
210
0
220
0
230
1
50
360
0
POINT
5
1B2
100
AcDbEntity
8
Defpoints
62
0
6
ByLayer
370
-1
48
1
60
0
100
AcDbPoint
10
33
20
10
30
0
39
0
210
0
220
0
230
1
50
360
0
POINT
5
1B3
100
AcDbEntity
8
Defpoints
62
0
6
ByLayer
370
-1
48
1
60
0
100
AcDbPoint
10
33
20
32.952229
30
0
39
0
210
0
220
0
230
1
50
360
0
ENDBLK
5
1AA
100
AcDbEntity
8
0
100
AcDbBlockEnd
0
BLOCK
5
1BB
100
AcDbEntity
8
0
100
AcDbBlockBegin
2
_U3
70
0
10
0
20
0
30
0
3
_U3
0
MTEXT
5
1B5
100
AcDbEntity
8
SK2
62
256
6
ByLayer
370
18
48
1
60
0
100
AcDbMText
10
115.521658
20
33.837344
30
0
210
0
220
0
230
1
1
\W0.7022;175.50
40
3
41
0
44
1.084337
50
0
71
7
72
5
7
iso_b_vert
0
LINE
5
1B6
100
AcDbEntity
8
SK2
62
256
6
ByLayer
370
13
48
1
60
0
100
AcDbLine
10
208.5
20
1.5875
30
0
11
208.5
21
34.952229
31
0
39
0
210
0
220
0
230
1
0
LINE
5
1B7
100
AcDbEntity
8
SK2
62
256
6
ByLayer
370
13
48
1
60
0
100
AcDbLine
10
33
20
11.5875
30
0
11
33
21
34.952229
31
0
39
0
210
0
220
0
230
1
0
LINE
5
1B8
100
AcDbEntity
8
SK2
62
256
6
ByLayer
370
13
48
1
60
0
100
AcDbLine
10
208.5
20
32.952229
30
0
11
33
21
32.952229
31
0
39
0
210
0
220
0
230
1
0
SOLID
5
1B9
100
AcDbEntity
8
SK2
62
256
6
ByLayer
370
18
48
1
60
0
100
AcDbTrace
10
208.5
20
32.952229
30
0
11
205.000002
21
32.491446
31
0
12
204.999998
22
33.413013
32
0
13
204.999998
23
33.413013
33
0
39
0
210
0
220
0
230
1
0
SOLID
5
1BA
100
AcDbEntity
8
SK2
62
256
6
ByLayer
370
18
48
1
60
0
100
AcDbTrace
10
33
20
32.952229
30
0
11
36.499998
21
33.413013
31
0
12
36.500002
22
32.491446
32
0
13
36.500002
23
32.491446
33
0
39
0
210
0
220
0
230
1
0
ENDBLK
5
1BC
100
AcDbEntity
8
0
100
AcDbBlockEnd
0
ENDSEC
0
SECTION
2
ENTITIES
0
ARC
5
C2
100
AcDbEntity
8
SK2
62
256
6
ByLayer
370
13
48
1
60
0
100
AcDbCircle
39
0
10
208.5
20
0
30
0
40
19
210
0
220
0
230
1
100
AcDbArc
50
290
51
70
0
ELLIPSE
5
C3
100
AcDbEntity
8
SK1
62
256
6
ByLayer
370
18
48
1
60
0
100
AcDbEllipse
10
-41.343561
20
0
30
0
11
-2.29613691341699E-15
21
-12.5000000000002
31
0
210
0
220
0
230
1
40
0.932515
41
-1.86465462472194
42
-1.27693802886786
0
ELLIPSE
5
C4
100
AcDbEntity
8
SK1
62
256
6
ByLayer
370
18
48
1
60
0
100
AcDbEllipse
10
276.680659
20
0
30
0
11
357.953166043254
21
-4.05596621644435E-13
31
0
210
0
220
0
230
1
40
0.034921
41
2.52406396812455
42
2.73005601344533
0
ELLIPSE
5
C5
100
AcDbEntity
8
SK1
62
256
6
ByLayer
370
18
48
1
60
0
100
AcDbEllipse
10
276.680659
20
0
30
0
11
357.953166032003
21
-4.05596621631686E-13
31
0
210
0
220
0
230
1
40
0.034921
41
-2.73005601344242
42
-2.52406396811705
0
ELLIPSE
5
C6
100
AcDbEntity
8
SK1
62
256
6
ByLayer
370
18
48
1
60
0
100
AcDbEllipse
10
-25.404609
20
0
30
0
11
13.4046088753088
21
-1.51887581674114E-14
31
0
210
0
220
0
230
1
40
0.932515
41
-0.555530755442636
42
0.555530755442635
0
POINT
5
70
100
AcDbEntity
8
80
62
256
6
ByLayer
370
18
48
1
60
0
100
AcDbPoint
10
0
20
0
30
0
39
0
210
0
220
0
230
1
50
360
0
POINT
5
72
100
AcDbEntity
8
81
62
256
6
ByLayer
370
18
48
1
60
0
100
AcDbPoint
10
208.5
20
0
30
0
39
0
210
0
220
0
230
1
50
360
0
POINT
5
74
100
AcDbEntity
8
1
62
256
6
ByLayer
370
18
48
1
60
1
100
AcDbPoint
10
-56
20
-12.5
30
0
39
0
210
0
220
0
230
1
50
360
0
POINT
5
76
100
AcDbEntity
8
1
62
256
6
ByLayer
370
18
48
1
60
1
100
AcDbPoint
10
208.5
20
0
30
0
39
0
210
0
220
0
230
1
50
360
0
POINT
5
77
100
AcDbEntity
8
1
62
256
6
ByLayer
370
18
48
1
60
1
100
AcDbPoint
10
208.5
20
0
30
0
39
0
210
0
220
0
230
1
50
360
0
POINT
5
78
100
AcDbEntity
8
1
62
256
6
ByLayer
370
18
48
1
60
1
100
AcDbPoint
10
3
20
-10
30
0
39
0
210
0
220
0
230
1
50
360
0
POINT
5
79
100
AcDbEntity
8
1
62
256
6
ByLayer
370
18
48
1
60
1
100
AcDbPoint
10
-56
20
-12.5
30
0
39
0
210
0
220
0
230
1
50
360
0
POINT
5
7A
100
AcDbEntity
8
1
62
256
6
ByLayer
370
18
48
1
60
1
100
AcDbPoint
10
0
20
-12.5
30
0
39
0
210
0
220
0
230
1
50
360
0
POINT
5
7B
100
AcDbEntity
8
1
62
256
6
ByLayer
370
18
48
1
60
1
100
AcDbPoint
10
208.5
20
0
30
0
39
0
210
0
220
0
230
1
50
360
0
POINT
5
7C
100
AcDbEntity
8
1
62
256
6
ByLayer
370
18
48
1
60
1
100
AcDbPoint
10
33
20
10
30
0
39
0
210
0
220
0
230
1
50
360
0
SPLINE
5
C7
100
AcDbEntity
8
1
62
256
6
ByLayer
370
18
48
1
60
0
100
AcDbSpline
70
4
71
3
72
25
73
21
40
0
40
0
40
0
40
0
40
0.125000000000002
40
0.125000000000002
40
0.250000000000005
40
0.250000000000005
40
0.375000000000007
40
0.375000000000007
40
0.406250000000008
40
0.406250000000008
40
0.437500000000008
40
0.50000000000001
40
0.50000000000001
40
0.625000000000007
40
0.625000000000007
40
0.750000000000005
40
0.750000000000005
40
0.875000000000002
40
0.875000000000002
40
1
40
1
40
1
40
1
41
1
10
10
20
9.07233040261633
30
0
41
1
10
10.3439811801679
20
9.04548415410048
30
0
41
1
10
10.6891563804424
20
9.02400027905617
30
0
41
1
10
11.3817127411611
20
8.9924984074438
30
0
41
1
10
11.7290952781749
20
8.98247924390236
30
0
41
1
10
12.4259467410402
20
8.97395858195898
30
0
41
1
10
12.7754167541156
20
8.97545827161295
30
0
41
1
10
13.2134978791335
20
8.98413462671419
30
0
41
1
10
13.3012215646837
20
8.98620949847663
30
0
41
1
10
13.4765945919454
20
8.99101339607856
30
0
41
1
10
13.7390448337296
20
8.99918522934709
30
0
41
1
10
13.9997227533064
20
9.01011917806562
30
0
41
1
10
14.5188593035081
20
9.03527206535085
30
0
41
1
10
14.8619903810626
20
9.05642976182236
30
0
41
1
10
15.5430960557862
20
9.10513987947985
30
0
41
1
10
15.881069679266
20
9.13268607846953
30
0
41
1
10
16.5526607228943
20
9.19156282159349
30
0
41
1
10
16.8862794073112
20
9.2228848628649
30
0
41
1
10
17.550000681828
20
9.28670686849901
30
0
41
1
10
17.8801069165917
20
9.31919830262504
30
0
41
1
10
18.2088580878398
20
9.35111076878221
30
0
0
SPLINE
5
C8
100
AcDbEntity
8
1
62
256
6
ByLayer
370
18
48
1
60
0
100
AcDbSpline
70
4
71
3
72
14
73
10
40
0
40
0
40
0
40
0
40
0.25
40
0.25
40
0.5
40
0.5
40
0.75
40
0.75
40
1
40
1
40
1
40
1
41
1
10
13.8632404250701
20
4.76858507116381
30
0
41
1
10
13.5335159768208
20
4.8734521279207
30
0
41
1
10
13.2062502544962
20
4.98205083109463
30
0
41
1
10
12.5555423918379
20
5.2038600521675
30
0
41
1
10
12.23209457382
20
5.31706360716729
30
0
41
1
10
11.5884792008138
20
5.5464548150552
30
0
41
1
10
11.2683101573555
20
5.66264603815696
30
0
41
1
10
10.6313895507192
20
5.89769690260187
30
0
41
1
10
10.3146403046033
20
6.01656848115226
30
0
41
1
10
10
20
6.13714892866651
30
0
0
SPLINE
5
C9
100
AcDbEntity
8
1
62
256
6
ByLayer
370
18
48
1
60
0
100
AcDbSpline
70
4
71
3
72
25
73
21
40
0
40
0
40
0
40
0
40
0.125
40
0.125
40
0.25
40
0.25
40
0.375
40
0.375
40
0.40625
40
0.40625
40
0.4375
40
0.5
40
0.5
40
0.625
40
0.625
40
0.75
40
0.75
40
0.875
40
0.875
40
1
40
1
40
1
40
1
41
1
10
10
20
-9.07233040261633
30
0
41
1
10
10.3439811801679
20
-9.04548415410051
30
0
41
1
10
10.6891563804424
20
-9.02400027905617
30
0
41
1
10
11.3817127411611
20
-8.9924984074438
30
0
41
1
10
11.7290952781749
20
-8.98247924390236
30
0
41
1
10
12.4259467410402
20
-8.97395858195898
30
0
41
1
10
12.7754167541156
20
-8.97545827161298
30
0
41
1
10
13.2134978791335
20
-8.98413462671419
30
0
41
1
10
13.3012215646837
20
-8.9862094984766
30
0
41
1
10
13.4765945919453
20
-8.9910133960785
30
0
41
1
10
13.7390448337296
20
-8.99918522934709
30
0
41
1
10
13.9997227533064
20
-9.01011917806562
30
0
41
1
10
14.5188593035081
20
-9.03527206535085
30
0
41
1
10
14.8619903810626
20
-9.05642976182239
30
0
41
1
10
15.5430960557862
20
-9.10513987947988
30
0
41
1
10
15.881069679266
20
-9.1326860784695
30
0
41
1
10
16.5526607228942
20
-9.19156282159346
30
0
41
1
10
16.8862794073112
20
-9.22288486286487
30
0
41
1
10
17.550000681828
20
-9.28670686849898
30
0
41
1
10
17.8801069165917
20
-9.31919830262504
30
0
41
1
10
18.2088580878398
20
-9.35111076878223
30
0
0
SPLINE
5
CA
100
AcDbEntity
8
1
62
256
6
ByLayer
370
18
48
1
60
0
100
AcDbSpline
70
4
71
3
72
14
73
10
40
0
40
0
40
0
40
0
40
0.371764529298321
40
0.371764529298321
40
0.557646793947502
40
0.557646793947502
40
0.743529058596683
40
0.743529058596683
40
1
40
1
40
1
40
1
41
1
10
194.4
20
-9.91622982402379
30
0
41
1
10
194.836555060371
20
-9.93656239451954
30
0
41
1
10
195.272885680735
20
-9.9531450327606
30
0
41
1
10
195.926982125615
20
-9.97240087604155
30
0
41
1
10
196.144943686845
20
-9.97788322338843
30
0
41
1
10
196.580720296502
20
-9.98696547048948
30
0
41
1
10
196.798544254481
20
-9.99056257587415
30
0
41
1
10
197.316900813836
20
-9.99685961640904
30
0
41
1
10
197.617467776406
20
-9.99870192346978
30
0
41
1
10
197.918034669496
20
-9.99875124400481
30
0
0
SPLINE
5
CB
100
AcDbEntity
8
1
62
256
6
ByLayer
370
18
48
1
60
0
100
AcDbSpline
70
4
71
3
72
18
73
14
40
0
40
0
40
0
40
0
40
0.373273593692107
40
0.373273593692107
40
0.559910390538163
40
0.559910390538163
40
0.653228788961191
40
0.653228788961191
40
0.746547187384219
40
0.746547187384219
40
0.93318398423027
40
0.93318398423027
40
1
40
1
40
1
40
1
41
1
10
18.2088580878398
20
-9.35111076878223
30
0
41
1
10
19.1299349661949
20
-9.43788666098087
30
0
41
1
10
20.0506303151539
20
-9.50814262922654
30
0
41
1
10
21.4303097521226
20
-9.58974636904583
30
0
41
1
10
21.8899690934455
20
-9.61296717857249
30
0
41
1
10
22.5790755317697
20
-9.64177811052602
30
0
41
1
10
22.8087456143907
20
-9.65036514946038
30
0
41
1
10
23.2681693068355
20
-9.66547374897789
30
0
41
1
10
23.4979027260901
20
-9.6720027229716
30
0
41
1
10
24.1871342649661
20
-9.68854119103378
30
0
41
1
10
24.646660289291
20
-9.69550709065902
30
0
41
1
10
25.2706526814279
20
-9.69947027173649
30
0
41
1
10
25.4351463498357
20
-9.69999606078028
30
0
41
1
10
25.5996339690217
20
-9.70000053839871
30
0
0
SPLINE
5
CC
100
AcDbEntity
8
1
62
256
6
ByLayer
370
18
48
1
60
0
100
AcDbSpline
70
4
71
3
72
206
73
202
40
0
40
0
40
0
40
0
40
0.0098744988150764
40
0.0098744988150764
40
0.0232545731554151
40
0.0232545731554151
40
0.0366346474957538
40
0.0366346474957538
40
0.0500147218360926
40
0.0500147218360926
40
0.056704759006262
40
0.056704759006262
40
0.0633947961764313
40
0.0633947961764313
40
0.0700848333466008
40
0.0700848333466008
40
0.0767748705167702
40
0.0767748705167702
40
0.0901549448571096
40
0.0901549448571096
40
0.103535019197449
40
0.103535019197449
40
0.110225056367619
40
0.110225056367619
40
0.116915093537789
40
0.116915093537789
40
0.130295167878128
40
0.130295167878128
40
0.143675242218468
40
0.143675242218468
40
0.150365279388637
40
0.150365279388637
40
0.157055316558806
40
0.157055316558806
40
0.170435390899145
40
0.170435390899145
40
0.183815465239483
40
0.183815465239483
40
0.190505502409651
40
0.190505502409651
40
0.19719553957982
40
0.19719553957982
40
0.203885576749989
40
0.203885576749989
40
0.210575613920158
40
0.210575613920158
40
0.223955688260494
40
0.223955688260494
40
0.230645725430662
40
0.230645725430662
40
0.23733576260083
40
0.23733576260083
40
0.244025799770998
40
0.244025799770998
40
0.250715836941166
40
0.250715836941166
40
0.264095911281501
40
0.264095911281501
40
0.270785948451669
40
0.270785948451669
40
0.277475985621836
40
0.277475985621836
40
0.284166022792004
40
0.284166022792004
40
0.290856059962172
40
0.290856059962172
40
0.304236134302507
40
0.304236134302507
40
0.317616208642842
40
0.317616208642842
40
0.32430624581301
40
0.32430624581301
40
0.330996282983177
40
0.330996282983177
40
0.344376357323512
40
0.344376357323512
40
0.357756431663846
40
0.357756431663846
40
0.364446468834013
40
0.364446468834013
40
0.37113650600418
40
0.37113650600418
40
0.384516580344514
40
0.384516580344514
40
0.397896654684847
40
0.397896654684847
40
0.404586691855014
40
0.404586691855014
40
0.411276729025181
40
0.411276729025181
40
0.438036877705848
40
0.438036877705848
40
0.451416952046182
40
0.451416952046182
40
0.464797026386516
40
0.464797026386516
40
0.47817710072685
40
0.47817710072685
40
0.484867137897018
40
0.484867137897018
40
0.491557175067185
40
0.491557175067185
40
0.504937249407521
40
0.504937249407521
40
0.518317323747856
40
0.518317323747856
40
0.525007360918024
40
0.525007360918024
40
0.531697398088193
40
0.531697398088193
40
0.54507747242853
40
0.54507747242853
40
0.558457546768867
40
0.558457546768867
40
0.565147583939035
40
0.565147583939035
40
0.571837621109204
40
0.571837621109204
40
0.585217695449542
40
0.585217695449542
40
0.591907732619711
40
0.591907732619711
40
0.59859776978988
40
0.59859776978988
40
0.605287806960049
40
0.605287806960049
40
0.611977844130218
40
0.611977844130218
40
0.625357918470555
40
0.625357918470555
40
0.638737992810893
40
0.638737992810893
40
0.645428029981062
40
0.645428029981062
40
0.652118067151231
40
0.652118067151231
40
0.665498141491569
40
0.665498141491569
40
0.678878215831906
40
0.678878215831906
40
0.685568253002075
40
0.685568253002075
40
0.692258290172244
40
0.692258290172244
40
0.698948327342412
40
0.698948327342412
40
0.705638364512581
40
0.705638364512581
40
0.719018438852918
40
0.719018438852918
40
0.725708476023087
40
0.725708476023087
40
0.732398513193255
40
0.732398513193255
40
0.739088550363424
40
0.739088550363424
40
0.745778587533593
40
0.745778587533593
40
0.759158661873929
40
0.759158661873929
40
0.772538736214265
40
0.772538736214265
40
0.779228773384433
40
0.779228773384433
40
0.785918810554601
40
0.785918810554601
40
0.812678959235274
40
0.812678959235274
40
0.819368996405443
40
0.819368996405443
40
0.826059033575611
40
0.826059033575611
40
0.839439107915947
40
0.839439107915947
40
0.852819182256283
40
0.852819182256283
40
0.859509219426451
40
0.859509219426451
40
0.866199256596619
40
0.866199256596619
40
0.892959405277293
40
0.892959405277293
40
0.899649442447462
40
0.899649442447462
40
0.906339479617631
40
0.906339479617631
40
0.919719553957969
40
0.919719553957969
40
0.933099628298307
40
0.933099628298307
40
0.946479702638646
40
0.946479702638646
40
0.959859776978984
40
0.959859776978984
40
0.973239851319323
40
0.973239851319323
40
0.979929888489492
40
0.979929888489492
40
0.986619925659661
40
0.986619925659661
40
1
40
1
40
1
40
1
41
1
10
91.5285070634698
20
7.15046184245674
30
0
41
1
10
91.867446763679
20
7.23126511033198
30
0
41
1
10
92.2064816115225
20
7.31034237985537
30
0
41
1
10
93.0050564130379
20
7.49267540225654
30
0
41
1
10
93.4646501548806
20
7.59454202881443
30
0
41
1
10
94.3839578398315
20
7.79233563307062
30
0
41
1
10
94.8435783721262
20
7.88840897905703
30
0
41
1
10
95.7637110290681
20
8.07324587248155
30
0
41
1
10
96.2241814595795
20
8.16209862734715
30
0
41
1
10
96.9153404526338
20
8.29029346553125
30
0
41
1
10
97.1457463777078
20
8.33215873294554
30
0
41
1
10
97.6063040494346
20
8.41412726217627
30
0
41
1
10
97.8364972155866
20
8.45423836198478
30
0
41
1
10
98.2966983811122
20
8.53272908037823
30
0
41
1
10
98.5267053827351
20
8.57111002090946
30
0
41
1
10
98.986525372157
20
8.64614104314106
30
0
41
1
10
99.2163519860606
20
8.6827705266046
30
0
41
1
10
99.9058679982655
20
8.78964246864422
30
0
41
1
10
100.365511198142
20
8.85698795187881
30
0
41
1
10
101.284559353858
20
8.98416843497898
30
0
41
1
10
101.743961334442
20
9.04400504942728
30
0
41
1
10
102.432805445483
20
9.1281889303111
30
0
41
1
10
102.662370672722
20
9.15532689857901
30
0
41
1
10
103.121408477101
20
9.20773662815415
30
0
41
1
10
103.350891421156
20
9.23299728917533
30
0
41
1
10
104.039441247138
20
9.30576403960387
30
0
41
1
10
104.498662138396
20
9.35022335966258
30
0
41
1
10
105.417235336618
20
9.43131097203386
30
0
41
1
10
105.876605203857
20
9.4679236248306
30
0
41
1
10
106.565702351246
20
9.51697241504439
30
0
41
1
10
106.79540838928
20
9.53234274186607
30
0
41
1
10
107.254821985021
20
9.5611173107057
30
0
41
1
10
107.48451116048
20
9.57452846221389
30
0
41
1
10
108.173825525616
20
9.61168150345904
30
0
41
1
10
108.633741774383
20
9.63233884123676
30
0
41
1
10
109.554140697579
20
9.66557091605506
30
0
41
1
10
110.014619386229
20
9.67814535755207
30
0
41
1
10
110.705675193264
20
9.69092442612424
30
0
41
1
10
110.936044134491
20
9.69416795916865
30
0
41
1
10
111.396458459237
20
9.69861033655309
30
0
41
1
10
111.626549504333
20
9.69980826073083
30
0
41
1
10
112.08662704249
20
9.70014923974807
30
0
41
1
10
112.316626982428
20
9.69929311429749
30
0
41
1
10
112.776605667078
20
9.69554871552083
30
0
41
1
10
113.006566696037
20
9.69266021714307
30
0
41
1
10
113.696329178492
20
9.68095866249482
30
0
41
1
10
114.156018255409
20
9.66911395606661
30
0
41
1
10
114.845243266012
20
9.64526847001019
30
0
41
1
10
115.074933186669
20
9.63630586897636
30
0
41
1
10
115.534195988516
20
9.61633878617752
30
0
41
1
10
115.763756936107
20
9.60532900609206
30
0
41
1
10
116.222816276793
20
9.5812761512625
30
0
41
1
10
116.452354823187
20
9.56825039649812
30
0
41
1
10
116.91150366859
20
9.54024100379135
30
0
41
1
10
117.141102853203
20
9.52525275744884
30
0
41
1
10
117.829941684493
20
9.47733610907684
30
0
41
1
10
118.289218375472
20
9.44145726521541
30
0
41
1
10
118.978112416113
20
9.3816698537459
30
0
41
1
10
119.207742531353
20
9.36074647032277
30
0
41
1
10
119.666980358242
20
9.31688526212932
30
0
41
1
10
119.896574735092
20
9.29393585370303
30
0
41
1
10
120.355800013072
20
9.24605507453333
30
0
41
1
10
120.585437236619
20
9.22112841670659
30
0
41
1
10
121.044899287898
20
9.16943365422966
30
0
41
1
10
121.274712105329
20
9.14265675202853
30
0
41
1
10
121.964322716787
20
9.05948226559255
30
0
41
1
10
122.424307805372
20
9.00025790468442
30
0
41
1
10
123.344666516865
20
8.87413467904616
30
0
41
1
10
123.805035098047
20
8.80722983651359
30
0
41
1
10
124.495812713111
20
8.70094138943392
30
0
41
1
10
124.726068902284
20
8.66455050054168
30
0
41
1
10
125.186256628651
20
8.59017818483051
30
0
41
1
10
125.416239004142
20
8.55216040823728
30
0
41
1
10
126.10582615162
20
8.43559295393345
30
0
41
1
10
126.565068902153
20
8.3545286862666
30
0
41
1
10
127.482469028092
20
8.18553949146252
30
0
41
1
10
127.940627748312
20
8.09761599469459
30
0
41
1
10
128.626986864219
20
7.96045127290796
30
0
41
1
10
128.855639875481
20
7.91387161714459
30
0
41
1
10
129.312806687677
20
7.81923190852064
30
0
41
1
10
129.541334375154
20
7.77119863281183
30
0
41
1
10
130.226700398678
20
7.62488494172226
30
0
41
1
10
130.683309129827
20
7.52436842542241
30
0
41
1
10
131.595836207754
20
7.31725496638433
30
0
41
1
10
132.051752687242
20
7.21065442400814
30
0
41
1
10
132.735029556269
20
7.04601127105198
30
0
41
1
10
132.962671494019
20
6.99030204235407
30
0
41
1
10
133.417899097355
20
6.87759670232319
30
0
41
1
10
133.645500725182
20
6.8206356664314
30
0
41
1
10
134.78339916899
20
6.53271243029715
30
0
41
1
10
135.693340926766
20
6.29238808773189
30
0
41
1
10
137.056922953517
20
5.9152031656848
30
0
41
1
10
137.511199473693
20
5.78660017378209
30
0
41
1
10
138.420167642402
20
5.52582700603179
30
0
41
1
10
138.874749386235
20
5.39340737334032
30
0
41
1
10
139.783969289934
20
5.12418793037534
30
0
41
1
10
140.238614367261
20
4.9874048729728
30
0
41
1
10
140.920556252145
20
4.77874568405139
30
0
41
1
10
141.147860341179
20
4.70859667002367
30
0
41
1
10
141.602476487164
20
4.56716964407318
30
0
41
1
10
141.829818021711
20
4.49596801418809
30
0
41
1
10
142.51212384728
20
4.2813840764066
30
0
41
1
10
142.967296833268
20
4.13683684858864
30
0
41
1
10
143.87808491089
20
3.84434630582038
30
0
41
1
10
144.33369909824
20
3.69639959608014
30
0
41
1
10
145.017382821269
20
3.47170692137863
30
0
41
1
10
145.245311277405
20
3.39631850329894
30
0
41
1
10
145.70126978314
20
3.24464573277439
30
0
41
1
10
145.929308423475
20
3.16838532098166
30
0
41
1
10
146.613800347914
20
2.93890581933545
30
0
41
1
10
147.070641824904
20
2.78503270044098
30
0
41
1
10
147.985117053412
20
2.47484113932199
30
0
41
1
10
148.442770465505
20
2.31857997121946
30
0
41
1
10
149.129804152819
20
2.08218969969994
30
0
41
1
10
149.35890771499
20
2.00305947274933
30
0
41
1
10
149.817290147398
20
1.84409037875091
30
0
41
1
10
150.046555972037
20
1.76420853398889
30
0
41
1
10
150.734878775693
20
1.52432376451162
30
0
41
1
10
151.194443165179
20
1.36403480339092
30
0
41
1
10
151.884693575258
20
1.12267830871309
30
0
41
1
10
152.114927714195
20
1.0420715478981
30
0
41
1
10
152.57568350029
20
0.880497341949535
30
0
41
1
10
152.806030892994
20
0.79959261450054
30
0
41
1
10
153.266479636699
20
0.637575362937184
30
0
41
1
10
153.496609487067
20
0.55645479169101
30
0
41
1
10
153.956651621481
20
0.393907913173138
30
0
41
1
10
154.186568846406
20
0.312496360918232
30
0
41
1
10
154.876204424146
20
0.0684176671054502
30
0
41
1
10
155.335908653122
20
-0.0937985691940355
30
0
41
1
10
156.255067818402
20
-0.417660493173088
30
0
41
1
10
156.714520120728
20
-0.579313615663779
30
0
41
1
10
157.403426759703
20
-0.82160893995362
30
0
41
1
10
157.633016745602
20
-0.902343907634076
30
0
41
1
10
158.092092203917
20
-1.0637901990589
30
0
41
1
10
158.321562638112
20
-1.14454420032098
30
0
41
1
10
159.009938999269
20
-1.38642090185741
30
0
41
1
10
159.468992182837
20
-1.54664192062899
30
0
41
1
10
160.387284413896
20
-1.8652822262406
30
0
41
1
10
160.846504404955
20
-2.0237553878475
30
0
41
1
10
161.535351761699
20
-2.26045517053143
30
0
41
1
10
161.764972887212
20
-2.33917978380072
30
0
41
1
10
162.224203140906
20
-2.49633969540599
30
0
41
1
10
162.45379989395
20
-2.57480922580297
30
0
41
1
10
162.913059286686
20
-2.73124004087987
30
0
41
1
10
163.142729034541
20
-2.80918156551115
30
0
41
1
10
163.602271722931
20
-2.9641777872998
30
0
41
1
10
163.832128014123
20
-3.04127879672825
30
0
41
1
10
164.521888217949
20
-3.27156759572523
30
0
41
1
10
164.981997761311
20
-3.4237022006854
30
0
41
1
10
165.672490429711
20
-3.65002161298762
30
0
41
1
10
165.902709048657
20
-3.72514841460944
30
0
41
1
10
166.363242568225
20
-3.87480786603683
30
0
41
1
10
166.593590677532
20
-3.94936186656491
30
0
41
1
10
167.053986237759
20
-4.09772878970992
30
0
41
1
10
167.28410082972
20
-4.1714876450821
30
0
41
1
10
167.744317458147
20
-4.31775760084341
30
0
41
1
10
167.974399255016
20
-4.39032321702663
30
0
41
1
10
168.664533079642
20
-4.60641034388951
30
0
41
1
10
169.124470441407
20
-4.74833276928092
30
0
41
1
10
170.043901660597
20
-5.02827857834234
30
0
41
1
10
170.503389156394
20
-5.16631642282914
30
0
41
1
10
171.192240177691
20
-5.37052714903592
30
0
41
1
10
171.421811356024
20
-5.43807937600127
30
0
41
1
10
171.881004926587
20
-5.57181136386993
30
0
41
1
10
172.110636920173
20
-5.63796992690166
30
0
41
1
10
173.258838095847
20
-5.96556487865774
30
0
41
1
10
174.177555439375
20
-6.21739286691476
30
0
41
1
10
175.325614953608
20
-6.52044060529056
30
0
41
1
10
175.555196380957
20
-6.58048771719416
30
0
41
1
10
176.014523762933
20
-6.69897875812455
30
0
41
1
10
176.244263271215
20
-6.75743802561695
30
0
41
1
10
176.93367438657
20
-6.93054194172575
30
0
41
1
10
177.393536539283
20
-7.0429197305221
30
0
41
1
10
178.313613278099
20
-7.2619455449796
30
0
41
1
10
178.773839807662
20
-7.368570119488
30
0
41
1
10
179.464353783769
20
-7.52432976520345
30
0
41
1
10
179.694586581628
20
-7.5755505407424
30
0
41
1
10
180.155123935905
20
-7.67630757090646
30
0
41
1
10
180.385345545196
20
-7.72579404281936
30
0
41
1
10
181.536275842493
20
-7.96871234304379
30
0
41
1
10
182.456211401801
20
-8.14910498673652
30
0
41
1
10
183.604583928233
20
-8.35807245581265
30
0
41
1
10
183.834165321721
20
-8.39905725619536
30
0
41
1
10
184.293260690465
20
-8.47922876370072
30
0
41
1
10
184.522812013115
20
-8.51836356055276
30
0
41
1
10
185.211497518797
20
-8.63291182041993
30
0
41
1
10
185.670640116398
20
-8.70550652767656
30
0
41
1
10
186.588796824193
20
-8.84341956348993
30
0
41
1
10
187.047817342828
20
-8.90872908744038
30
0
41
1
10
187.965618884289
20
-9.03213964241922
30
0
41
1
10
188.424330412634
20
-9.09029187973783
30
0
41
1
10
189.342366057634
20
-9.19847771810896
30
0
41
1
10
189.801602365462
20
-9.24862112385657
30
0
41
1
10
190.720339546773
20
-9.34120214686908
30
0
41
1
10
191.179851694043
20
-9.38362918406688
30
0
41
1
10
191.869253470438
20
-9.44148785797012
30
0
41
1
10
192.099072556875
20
-9.45981180357651
30
0
41
1
10
192.558762123584
20
-9.49450903260708
30
0
41
1
10
192.78865876468
20
-9.5108644852684
30
0
41
1
10
193.478727033196
20
-9.5568312817324
30
0
41
1
10
193.939195129117
20
-9.58340094096002
30
0
41
1
10
194.4
20
-9.60595475804757
30
0
0
SPLINE
5
CD
100
AcDbEntity
8
1
62
256
6
ByLayer
370
18
48
1
60
0
100
AcDbSpline
70
4
71
3
72
187
73
183
40
0
40
0
40
0
40
0
40
0.0039107939848104
40
0.0039107939848104
40
0.0171229280061119
40
0.0171229280061119
40
0.0303350620274134
40
0.0303350620274134
40
0.0567593300700164
40
0.0567593300700164
40
0.0633653970806666
40
0.0633653970806666
40
0.0699714640913168
40
0.0699714640913168
40
0.0831835981126173
40
0.0831835981126173
40
0.0963957321339177
40
0.0963957321339177
40
0.109607866155218
40
0.109607866155218
40
0.136032134197819
40
0.136032134197819
40
0.14263820120847
40
0.14263820120847
40
0.14924426821912
40
0.14924426821912
40
0.162456402240421
40
0.162456402240421
40
0.175668536261721
40
0.175668536261721
40
0.188880670283022
40
0.188880670283022
40
0.202092804304323
40
0.202092804304323
40
0.208698871314974
40
0.208698871314974
40
0.215304938325625
40
0.215304938325625
40
0.221911005336275
40
0.221911005336275
40
0.228517072346926
40
0.228517072346926
40
0.241729206368228
40
0.241729206368228
40
0.254941340389529
40
0.254941340389529
40
0.26815347441083
40
0.26815347441083
40
0.294577742453434
40
0.294577742453434
40
0.301183809464084
40
0.301183809464084
40
0.307789876474734
40
0.307789876474734
40
0.321002010496034
40
0.321002010496034
40
0.334214144517335
40
0.334214144517335
40
0.340820211527985
40
0.340820211527985
40
0.347426278538635
40
0.347426278538635
40
0.373850546581235
40
0.373850546581235
40
0.380456613591885
40
0.380456613591885
40
0.387062680602535
40
0.387062680602535
40
0.400274814623836
40
0.400274814623836
40
0.413486948645136
40
0.413486948645136
40
0.420093015655786
40
0.420093015655786
40
0.426699082666436
40
0.426699082666436
40
0.453123350709036
40
0.453123350709036
40
0.459729417719687
40
0.459729417719687
40
0.466335484730337
40
0.466335484730337
40
0.479547618751637
40
0.479547618751637
40
0.492759752772938
40
0.492759752772938
40
0.499365819783588
40
0.499365819783588
40
0.505971886794239
40
0.505971886794239
40
0.53239615483684
40
0.53239615483684
40
0.539002221847491
40
0.539002221847491
40
0.545608288858142
40
0.545608288858142
40
0.558820422879443
40
0.558820422879443
40
0.572032556900744
40
0.572032556900744
40
0.578638623911395
40
0.578638623911395
40
0.585244690922045
40
0.585244690922045
40
0.611668958964648
40
0.611668958964648
40
0.618275025975298
40
0.618275025975298
40
0.624881092985948
40
0.624881092985948
40
0.638093227007249
40
0.638093227007249
40
0.65130536102855
40
0.65130536102855
40
0.6579114280392
40
0.6579114280392
40
0.664517495049851
40
0.664517495049851
40
0.690941763092453
40
0.690941763092453
40
0.697547830103104
40
0.697547830103104
40
0.704153897113754
40
0.704153897113754
40
0.717366031135056
40
0.717366031135056
40
0.723972098145706
40
0.723972098145706
40
0.730578165156357
40
0.730578165156357
40
0.737184232167007
40
0.737184232167007
40
0.743790299177658
40
0.743790299177658
40
0.770214567220258
40
0.770214567220258
40
0.776820634230908
40
0.776820634230908
40
0.783426701241557
40
0.783426701241557
40
0.796638835262857
40
0.796638835262857
40
0.809850969284156
40
0.809850969284156
40
0.816457036294806
40
0.816457036294806
40
0.823063103305456
40
0.823063103305456
40
0.849487371348055
40
0.849487371348055
40
0.856093438358705
40
0.856093438358705
40
0.862699505369355
40
0.862699505369355
40
0.875911639390656
40
0.875911639390656
40
0.889123773411957
40
0.889123773411957
40
0.895729840422608
40
0.895729840422608
40
0.902335907433258
40
0.902335907433258
40
0.915548041454558
40
0.915548041454558
40
0.928760175475859
40
0.928760175475859
40
0.935366242486509
40
0.935366242486509
40
0.941972309497158
40
0.941972309497158
40
0.955184443518458
40
0.955184443518458
40
0.968396577539758
40
0.968396577539758
40
0.975002644550408
40
0.975002644550408
40
0.981608711561058
40
0.981608711561058
40
0.988214778571708
40
0.988214778571708
40
0.994820845582358
40
1
40
1
40
1
40
1
41
1
10
177.848246560395
20
-7.14861726771468
30
0
41
1
10
177.70920967142
20
-7.1817551183621
30
0
41
1
10
177.570205996084
20
-7.21460475071547
30
0
41
1
10
176.961742793297
20
-7.35717969207934
30
0
41
1
10
176.492635654974
20
-7.46393048101927
30
0
41
1
10
175.555285068812
20
-7.67108330068689
30
0
41
1
10
175.087075661937
20
-7.77153113668365
30
0
41
1
10
173.682815918872
20
-8.06165402959843
30
0
41
1
10
172.747299799511
20
-8.24051687075394
30
0
41
1
10
171.579003338628
20
-8.4464646700664
30
0
41
1
10
171.345404353201
20
-8.48677658532242
30
0
41
1
10
170.87829672118
20
-8.56559297300763
30
0
41
1
10
170.644763023097
20
-8.60406172749424
30
0
41
1
10
169.944106699987
20
-8.71650492501078
30
0
41
1
10
169.476970984399
20
-8.78757889256383
30
0
41
1
10
168.542675892073
20
-8.92204802319918
30
0
41
1
10
168.075517543934
20
-8.98544568611862
30
0
41
1
10
167.141274383086
20
-9.1046342101634
30
0
41
1
10
166.674238050089
20
-9.16045883727051
30
0
41
1
10
165.272364877277
20
-9.31557947421871
30
0
41
1
10
164.336846760679
20
-9.40271322554673
30
0
41
1
10
163.166567591002
20
-9.49144957988375
30
0
41
1
10
162.93246995001
20
-9.50818537035698
30
0
41
1
10
162.464179396545
20
-9.53961271491937
30
0
41
1
10
162.229969495215
20
-9.55429333396756
30
0
41
1
10
161.526980169932
20
-9.59515082002358
30
0
41
1
10
161.057895061581
20
-9.61817850104461
30
0
41
1
10
160.118911586498
20
-9.65584301476866
30
0
41
1
10
159.649013211893
20
-9.67048134715566
30
0
41
1
10
158.708488364331
20
-9.69131384524675
30
0
41
1
10
158.237914170815
20
-9.69749950786712
30
0
41
1
10
157.295514008786
20
-9.7012624278693
30
0
41
1
10
156.823685113926
20
-9.69885823633518
30
0
41
1
10
156.115050509153
20
-9.68881821928059
30
0
41
1
10
155.878795922726
20
-9.68439936429704
30
0
41
1
10
155.40656865465
20
-9.67342416347444
30
0
41
1
10
155.170541166264
20
-9.66686709716163
30
0
41
1
10
154.698665894181
20
-9.65160964168138
30
0
41
1
10
154.462820191749
20
-9.64290853504656
30
0
41
1
10
153.991307347656
20
-9.62335528605806
30
0
41
1
10
153.755625372584
20
-9.61250674561035
30
0
41
1
10
153.048612510745
20
-9.57683058898172
30
0
41
1
10
152.577372432961
20
-9.54885764680284
30
0
41
1
10
151.635132316608
20
-9.4845880776827
30
0
41
1
10
151.164131885991
20
-9.44829307863324
30
0
41
1
10
150.222471170136
20
-9.36729629906421
30
0
41
1
10
149.751870842173
20
-9.32253454881985
30
0
41
1
10
148.339756101268
20
-9.176204209811
30
0
41
1
10
147.397898420892
20
-9.06273419190543
30
0
41
1
10
146.220332771199
20
-8.9007191023654
30
0
41
1
10
145.984808507439
20
-8.86730198566227
30
0
41
1
10
145.513735107092
20
-8.79842944487768
30
0
41
1
10
145.278173387237
20
-8.76298744919234
30
0
41
1
10
144.571211767739
20
-8.65389599381783
30
0
41
1
10
144.099594494636
20
-8.57741575078157
30
0
41
1
10
143.155780705185
20
-8.41692700165797
30
0
41
1
10
142.683583664957
20
-8.33292077881899
30
0
41
1
10
141.974923749254
20
-8.2011137706964
30
0
41
1
10
141.738815993032
20
-8.15623263827734
30
0
41
1
10
141.266785843421
20
-8.06464167522088
30
0
41
1
10
141.030859617035
20
-8.01793659454776
30
0
41
1
10
139.851396337663
20
-7.78033037162766
30
0
41
1
10
138.908427870053
20
-7.5771421240872
30
0
41
1
10
137.730778383145
20
-7.30635551050557
30
0
41
1
10
137.495302572261
20
-7.25135324514136
30
0
41
1
10
137.02445866916
20
-7.13965271659114
30
0
41
1
10
136.789079205796
20
-7.08297515749791
30
0
41
1
10
136.082860351213
20
-6.91087244693583
30
0
41
1
10
135.61199948264
20
-6.79326758648253
30
0
41
1
10
134.670219413647
20
-6.55228239414345
30
0
41
1
10
134.199299430902
20
-6.42890473357167
30
0
41
1
10
133.492949672863
20
-6.23933122482131
30
0
41
1
10
133.257510327256
20
-6.17537568846055
30
0
41
1
10
132.78661316421
20
-6.04601494233418
30
0
41
1
10
132.551151744344
20
-5.98061715320836
30
0
41
1
10
131.373503524258
20
-5.65066947827239
30
0
41
1
10
130.430338354217
20
-5.37720321744774
30
0
41
1
10
129.250389638949
20
-5.02270288437481
30
0
41
1
10
129.014350515417
20
-4.95116587804577
30
0
41
1
10
128.542174249885
20
-4.80680494951872
30
0
41
1
10
128.305960709734
20
-4.73398246956435
30
0
41
1
10
127.597845173741
20
-4.51448042174158
30
0
41
1
10
127.126300191704
20
-4.36655405133223
30
0
41
1
10
126.184291661402
20
-4.06746734750479
30
0
41
1
10
125.713827127055
20
-3.91630993238579
30
0
41
1
10
125.009004475464
20
-3.68696217470458
30
0
41
1
10
124.774214252927
20
-3.61006296459317
30
0
41
1
10
124.304902738259
20
-3.45546028387349
30
0
41
1
10
124.070378115788
20
-3.37776664629757
30
0
41
1
10
122.898158360174
20
-2.98808242670296
30
0
41
1
10
121.961675898233
20
-2.67243647253545
30
0
41
1
10
120.792962832188
20
-2.27219941192237
30
0
41
1
10
120.559314750041
20
-2.19186791056495
30
0
41
1
10
120.092213849973
20
-2.03061836497173
30
0
41
1
10
119.858758219085
20
-1.94970862704656
30
0
41
1
10
119.158454557399
20
-1.70677853398047
30
0
41
1
10
118.691719621207
20
-1.54440993406357
30
0
41
1
10
117.758548806865
20
-1.2187518739662
30
0
41
1
10
117.292111320453
20
-1.05546717562947
30
0
41
1
10
116.592747025766
20
-0.809649421091592
30
0
41
1
10
116.359677985999
20
-0.727550662985891
30
0
41
1
10
115.893625968806
20
-0.563089465547819
30
0
41
1
10
115.66063870277
20
-0.480739707379769
30
0
41
1
10
114.495648589254
20
-0.0691272607708981
30
0
41
1
10
113.563367980137
20
0.259381649783393
30
0
41
1
10
112.397955054091
20
0.669924236030596
30
0
41
1
10
112.164868917875
20
0.752026782332422
30
0
41
1
10
111.698696545965
20
0.916240709418844
30
0
41
1
10
111.465619602768
20
0.998379604379636
30
0
41
1
10
110.766177959998
20
1.24418599889654
30
0
41
1
10
110.299624608714
20
1.40730876410345
30
0
41
1
10
109.366033900619
20
1.73215794941305
30
0
41
1
10
108.898994500862
20
1.89387831402721
30
0
41
1
10
108.198134156678
20
2.13559462718322
30
0
41
1
10
107.964465827137
20
2.21602859886352
30
0
41
1
10
107.497028826679
20
2.37660875774424
30
0
41
1
10
107.263256048581
20
2.45674278486263
30
0
41
1
10
106.09389206054
20
2.85595526984073
30
0
41
1
10
105.156575117436
20
3.16999258969611
30
0
41
1
10
103.982887165267
20
3.55658614504046
30
0
41
1
10
103.748047372738
20
3.63360688296274
30
0
41
1
10
103.2781685233
20
3.78706772399943
30
0
41
1
10
103.043141961961
20
3.86354487490172
30
0
41
1
10
102.337593079968
20
4.09160064617521
30
0
41
1
10
101.866583290208
20
4.24174937027291
30
0
41
1
10
101.159124828839
20
4.46420503990254
30
0
41
1
10
100.923147986169
20
4.53789552046223
30
0
41
1
10
100.450886333618
20
4.68437369656075
30
0
41
1
10
100.214584838867
20
4.75716721171824
30
0
41
1
10
99.7423402576541
20
4.90168221825721
30
0
41
1
10
99.5063174849315
20
4.97343205120461
30
0
41
1
10
99.0344731497416
20
5.11591686108798
30
0
41
1
10
98.7986480130387
20
5.18664203370463
30
0
41
1
10
97.6197697045188
20
5.53709435590292
30
0
41
1
10
96.6771715822395
20
5.80665502540174
30
0
41
1
10
95.4997962919326
20
6.13083825478461
30
0
41
1
10
95.2643656029237
20
6.19503556858467
30
0
41
1
10
94.7936007629528
20
6.32216293751944
30
0
41
1
10
94.5582809427887
20
6.38512308079672
30
0
41
1
10
93.8522875032173
20
6.57170874936577
30
0
41
1
10
93.3815474067369
20
6.69297698485818
30
0
41
1
10
92.4399438620558
20
6.92938653645783
30
0
41
1
10
91.969078009107
20
7.04452394417373
30
0
41
1
10
91.2627517874549
20
7.21275511622224
30
0
41
1
10
91.027306585957
20
7.26808843277794
30
0
41
1
10
90.5564135412896
20
7.37726584310408
30
0
41
1
10
90.3209624671891
20
7.43110299896495
30
0
41
1
10
89.1434477305662
20
7.6960815798999
30
0
41
1
10
88.2003013729504
20
7.89409798885436
30
0
41
1
10
87.0201850610324
20
8.12458149972449
30
0
41
1
10
86.7841032849174
20
8.16982478144539
30
0
41
1
10
86.3118292803472
20
8.25860503459307
30
0
41
1
10
86.0756691533346
20
8.30215865661688
30
0
41
1
10
85.3675288513925
20
8.429872288788
30
0
41
1
10
84.8956234053136
20
8.51106887296771
30
0
41
1
10
83.9522143919498
20
8.66570738701506
30
0
41
1
10
83.4807083601578
20
8.73914733459193
30
0
41
1
10
82.7738146846041
20
8.84358156518411
30
0
41
1
10
82.5382457564058
20
8.87743939267244
30
0
41
1
10
82.0672375946251
20
8.94324532951524
30
0
41
1
10
81.8317954697728
20
8.97518898087301
30
0
41
1
10
81.1255139984835
20
9.06798389424654
30
0
41
1
10
80.6546483350261
20
9.12572981933363
30
0
41
1
10
79.7128996102897
20
9.23306708585568
30
0
41
1
10
79.2420260908971
20
9.28266841713972
30
0
41
1
10
78.5357598744761
20
9.35099762577556
30
0
41
1
10
78.3003451407897
20
9.37276114645692
30
0
41
1
10
77.8295378753816
20
9.41425828956238
30
0
41
1
10
77.5941594639926
20
9.43400034466541
30
0
41
1
10
76.8878995349551
20
9.49006102325865
30
0
41
1
10
76.4168337512873
20
9.52318484070781
30
0
41
1
10
75.4742828763405
20
9.58100731491373
30
0
41
1
10
75.0027955206454
20
9.60570625771996
30
0
41
1
10
74.2953127216997
20
9.63644013426659
30
0
41
1
10
74.05944430086
20
9.64563177006627
30
0
41
1
10
73.5876314283067
20
9.66189684120727
30
0
41
1
10
73.3516846605428
20
9.66896840848858
30
0
41
1
10
72.8796181212538
20
9.6809587990702
30
0
41
1
10
72.6434409077299
20
9.68587661124673
30
0
41
1
10
72.171081209127
20
9.69355429116101
30
0
41
1
10
71.74984568214
20
9.69847876298761
30
0
41
1
10
71.3288145460643
20
9.69999314790067
30
0
41
1
10
71.1438285916314
20
9.70000058543687
30
0
0
SPLINE
5
CE
100
AcDbEntity
8
1
62
256
6
ByLayer
370
18
48
1
60
0
100
AcDbSpline
70
4
71
3
72
22
73
18
40
0
40
0
40
0
40
0
40
0.250000000000018
40
0.250000000000018
40
0.375000000000026
40
0.375000000000026
40
0.437500000000031
40
0.437500000000031
40
0.500000000000035
40
0.500000000000035
40
0.750000000000011
40
0.750000000000011
40
0.812500000000008
40
0.812500000000008
40
0.875000000000005
40
0.875000000000005
40
1
40
1
40
1
40
1
41
1
10
204.860297657352
20
-1.42737417484864
30
0
41
1
10
203.987619195811
20
-1.11233854708007
30
0
41
1
10
203.115371157248
20
-0.796836750949979
30
0
41
1
10
201.807911888799
20
-0.322127058591036
30
0
41
1
10
201.37227698951
20
-0.163557456333336
30
0
41
1
10
200.719040833661
20
0.0746252915711239
30
0
41
1
10
200.50132042263
20
0.15404360620505
30
0
41
1
10
200.065833364403
20
0.312662466449154
30
0
41
1
10
199.848066571417
20
0.391862667724268
30
0
41
1
10
198.759157293508
20
0.787431941433852
30
0
41
1
10
197.887776822371
20
1.10247479755262
30
0
41
1
10
196.798496371551
20
1.49522794836741
30
0
41
1
10
196.580649171623
20
1.57375783380704
30
0
41
1
10
196.144861833599
20
1.73047153850328
30
0
41
1
10
195.926904084617
20
1.80860705102145
30
0
41
1
10
195.272836546729
20
2.04234450763769
30
0
41
1
10
194.836535133693
20
2.19728481418076
30
0
41
1
10
194.4
20
2.35140292410677
30
0
0
SPLINE
5
CF
100
AcDbEntity
8
1
62
256
6
ByLayer
370
18
48
1
60
0
100
AcDbSpline
70
4
71
3
72
90
73
86
40
0
40
0
40
0
40
0
40
0.0312499999999986
40
0.0312499999999986
40
0.0624999999999973
40
0.0624999999999973
40
0.0937499999999959
40
0.0937499999999959
40
0.124999999999995
40
0.124999999999995
40
0.140624999999996
40
0.140624999999996
40
0.148437499999996
40
0.148437499999996
40
0.156249999999997
40
0.187499999999999
40
0.218750000000001
40
0.218750000000001
40
0.250000000000003
40
0.250000000000003
40
0.281250000000005
40
0.281250000000005
40
0.296875000000006
40
0.296875000000006
40
0.312500000000007
40
0.312500000000007
40
0.343750000000009
40
0.343750000000009
40
0.375000000000011
40
0.375000000000011
40
0.406250000000013
40
0.406250000000013
40
0.437500000000014
40
0.437500000000014
40
0.445312500000014
40
0.445312500000014
40
0.453125000000013
40
0.46875000000001
40
0.46875000000001
40
0.500000000000006
40
0.500000000000006
40
0.531250000000001
40
0.531250000000001
40
0.5390625
40
0.5390625
40
0.546875
40
0.562499999999998
40
0.562499999999998
40
0.593749999999994
40
0.593749999999994
40
0.62499999999999
40
0.62499999999999
40
0.632812499999989
40
0.632812499999989
40
0.640624999999988
40
0.656249999999987
40
0.656249999999987
40
0.687499999999983
40
0.687499999999983
40
0.718749999999979
40
0.718749999999979
40
0.726562499999979
40
0.726562499999979
40
0.734374999999979
40
0.734374999999979
40
0.749999999999981
40
0.749999999999981
40
0.781249999999984
40
0.781249999999984
40
0.812499999999986
40
0.812499999999986
40
0.843749999999988
40
0.843749999999988
40
0.851562499999989
40
0.851562499999989
40
0.85937499999999
40
0.874999999999991
40
0.874999999999991
40
0.906249999999993
40
0.937499999999995
40
0.968749999999998
40
0.968749999999998
40
0.984374999999999
40
0.984374999999999
40
1
40
1
40
1
40
1
41
1
10
204.860297657356
20
9.68245690027558
30
0
41
1
10
204.922765686984
20
9.52754051341353
30
0
41
1
10
204.985331392475
20
9.37029659655221
30
0
41
1
10
205.110764049106
20
9.05152608603839
30
0
41
1
10
205.173630895928
20
8.88999859652554
30
0
41
1
10
205.299739234883
20
8.56293348214029
30
0
41
1
10
205.362980758492
20
8.39739546574413
30
0
41
1
10
205.489880936179
20
8.06250346995591
30
0
41
1
10
205.553539678899
20
7.89315030547738
30
0
41
1
10
205.649347319293
20
7.63634681041233
30
0
41
1
10
205.681336188199
20
7.55028264206808
30
0
41
1
10
205.729396898524
20
7.42049741196368
30
0
41
1
10
205.745441042823
20
7.37709089082824
30
0
41
1
10
205.777497959356
20
7.29020182433152
30
0
41
1
10
205.857522802542
20
7.07289310589942
30
0
41
1
10
206.000524214428
20
6.68097492042816
30
0
41
1
10
206.12604934964
20
6.3315116360148
30
0
41
1
10
206.250638740882
20
5.98146243862362
30
0
41
1
10
206.312466593905
20
5.80614525071732
30
0
41
1
10
206.434920229552
20
5.45483680007405
30
0
41
1
10
206.495548477894
20
5.27884642331901
30
0
41
1
10
206.585255526886
20
5.01423860169623
30
0
41
1
10
206.614950362204
20
4.92593167516679
30
0
41
1
10
206.673844402288
20
4.74908044496826
30
0
41
1
10
206.703056711377
20
4.66049377631521
30
0
41
1
10
206.78938209735
20
4.39561275442088
30
0
41
1
10
206.845337285048
20
4.21978682020932
30
0
41
1
10
206.953034249443
20
3.86936829360477
30
0
41
1
10
207.004783094668
20
3.6947768442767
30
0
41
1
10
207.102494451594
20
3.34646340031227
30
0
41
1
10
207.148465199885
20
3.17274214951465
30
0
41
1
10
207.232251617073
20
2.82569757522569
30
0
41
1
10
207.270070999965
20
2.65237282914953
30
0
41
1
10
207.310139716708
20
2.43560451693242
30
0
41
1
10
207.317797185691
20
2.39220578657665
30
0
41
1
10
207.332294101878
20
2.30556949243785
30
0
41
1
10
207.352779523422
20
2.17606927490169
30
0
41
1
10
207.36926522522
20
2.04794807124307
30
0
41
1
10
207.396367826339
20
1.7936130537386
30
0
41
1
10
207.406553540146
20
1.62659064960266
30
0
41
1
10
207.409252087985
20
1.29820243606949
30
0
41
1
10
207.401748871731
20
1.13683937503686
30
0
41
1
10
207.381389428721
20
0.939198205819594
30
0
41
1
10
207.376766820915
20
0.899821992644519
30
0
41
1
10
207.366488415424
20
0.821733279791175
30
0
41
1
10
207.349558865655
20
0.705842701613392
30
0
41
1
10
207.328354904159
20
0.593634516703503
30
0
41
1
10
207.280957702516
20
0.374010813445182
30
0
41
1
10
207.242734430855
20
0.233976422274537
30
0
41
1
10
207.156477641519
20
-0.0338212880060382
30
0
41
1
10
207.108451448074
20
-0.161588281683436
30
0
41
1
10
207.043880343683
20
-0.313741283958421
30
0
41
1
10
207.030723807738
20
-0.343821914177852
30
0
41
1
10
207.004045205731
20
-0.403086441287911
30
0
41
1
10
206.963527521012
20
-0.490533826709566
30
0
41
1
10
206.921665449834
20
-0.573718001290558
30
0
41
1
10
206.836473579949
20
-0.734571940538984
30
0
41
1
10
206.777741404126
20
-0.834470665768805
30
0
41
1
10
206.657540281491
20
-1.02008001103573
30
0
41
1
10
206.596063231911
20
-1.10578799943559
30
0
41
1
10
206.517875875469
20
-1.20406699390654
30
0
41
1
10
206.502170358056
20
-1.22327895389731
30
0
41
1
10
206.47062906191
20
-1.26081146327073
30
0
41
1
10
206.454785544451
20
-1.2791395325462
30
0
41
1
10
206.40727529593
20
-1.33255095506965
30
0
41
1
10
206.375563486707
20
-1.36614322136364
30
0
41
1
10
206.280362747198
20
-1.46100893908621
30
0
41
1
10
206.216813232613
20
-1.5163834998468
30
0
41
1
10
206.089664978105
20
-1.61178766324164
30
0
41
1
10
206.02606426023
20
-1.65181570370788
30
0
41
1
10
205.898793912831
20
-1.7165422540732
30
0
41
1
10
205.835123380378
20
-1.74124079992581
30
0
41
1
10
205.755425444795
20
-1.76232420409434
30
0
41
1
10
205.739474065178
20
-1.76605049954176
30
0
41
1
10
205.707704037566
20
-1.77248895342359
30
0
41
1
10
205.660194227613
20
-1.78064092931379
30
0
41
1
10
205.613104588183
20
-1.78432564491328
30
0
41
1
10
205.519444348241
20
-1.78583899382082
30
0
41
1
10
205.395947769535
20
-1.77226106790613
30
0
41
1
10
205.214204257586
20
-1.70593698886404
30
0
41
1
10
205.09494932362
20
-1.63101745608756
30
0
41
1
10
205.006062098118
20
-1.56305975835363
30
0
41
1
10
204.976618971179
20
-1.53851285434823
30
0
41
1
10
204.918164716673
20
-1.4857274149212
30
0
41
1
10
204.889138574514
20
-1.45747744980383
30
0
41
1
10
204.860297657356
20
-1.42737417485009
30
0
0
SPLINE
5
D0
100
AcDbEntity
8
1
62
256
6
ByLayer
370
18
48
1
60
0
100
AcDbSpline
70
4
71
3
72
18
73
14
40
0
40
0
40
0
40
0
40
0.0584025798253393
40
0.0584025798253393
40
0.24672206386025
40
0.24672206386025
40
0.435041547895161
40
0.435041547895161
40
0.529201289912627
40
0.529201289912627
40
0.623361031930093
40
0.623361031930093
40
1
40
1
40
1
40
1
41
1
10
197.918035068765
20
9.99875124407032
30
0
41
1
10
198.053151355949
20
9.99877341481894
30
0
41
1
10
198.18826762909
20
9.99843325068545
30
0
41
1
10
198.759055489399
20
9.995471546403
30
0
41
1
10
199.194708326866
20
9.98945653479942
30
0
41
1
10
200.06587905825
20
9.96989839096329
30
0
41
1
10
200.501376682252
20
9.95634908172897
30
0
41
1
10
201.154516229034
20
9.93030940459369
30
0
41
1
10
201.372250247479
20
9.92068725402575
30
0
41
1
10
201.807864054747
20
9.89960397275917
30
0
41
1
10
202.025727635952
20
9.88813821468653
30
0
41
1
10
203.115279014064
20
9.82619183384301
30
0
41
1
10
203.9876391115
20
9.76191313044336
30
0
41
1
10
204.860297657352
20
9.68245690027595
30
0
0
SPLINE
5
D1
100
AcDbEntity
8
1
62
256
6
ByLayer
370
18
48
1
60
0
100
AcDbSpline
70
4
71
3
72
183
73
179
40
0
40
0
40
0
40
0
40
0.0293936099468956
40
0.0293936099468956
40
0.0440904149203436
40
0.0440904149203436
40
0.0514388174070677
40
0.0514388174070677
40
0.0587872198937917
40
0.0587872198937917
40
0.0734840248672401
40
0.0734840248672401
40
0.0881808298406885
40
0.0881808298406885
40
0.0955292323274129
40
0.0955292323274129
40
0.102877634814137
40
0.102877634814137
40
0.117574439787586
40
0.117574439787586
40
0.132271244761035
40
0.132271244761035
40
0.139619647247759
40
0.139619647247759
40
0.146968049734483
40
0.146968049734483
40
0.176361659681379
40
0.176361659681379
40
0.183710062168103
40
0.183710062168103
40
0.191058464654827
40
0.191058464654827
40
0.205755269628275
40
0.220452074601722
40
0.220452074601722
40
0.227800477088446
40
0.227800477088446
40
0.23514887957517
40
0.23514887957517
40
0.264542489522066
40
0.264542489522066
40
0.27189089200879
40
0.27189089200879
40
0.279239294495514
40
0.279239294495514
40
0.293936099468962
40
0.293936099468962
40
0.30863290444241
40
0.30863290444241
40
0.315981306929135
40
0.315981306929135
40
0.323329709415859
40
0.323329709415859
40
0.338026514389308
40
0.338026514389308
40
0.352723319362756
40
0.352723319362756
40
0.360071721849481
40
0.360071721849481
40
0.367420124336205
40
0.367420124336205
40
0.382116929309654
40
0.382116929309654
40
0.396813734283103
40
0.396813734283103
40
0.404162136769827
40
0.404162136769827
40
0.411510539256552
40
0.411510539256552
40
0.426207344230002
40
0.426207344230002
40
0.440904149203451
40
0.440904149203451
40
0.448252551690175
40
0.448252551690175
40
0.4556009541769
40
0.4556009541769
40
0.462949356663624
40
0.462949356663624
40
0.470297759150349
40
0.470297759150349
40
0.484994564123798
40
0.484994564123798
40
0.492342966610523
40
0.492342966610523
40
0.499691369097247
40
0.499691369097247
40
0.507039771583972
40
0.507039771583972
40
0.514388174070697
40
0.514388174070697
40
0.529084979044146
40
0.529084979044146
40
0.536433381530871
40
0.536433381530871
40
0.543781784017595
40
0.543781784017595
40
0.55113018650432
40
0.55113018650432
40
0.558478588991045
40
0.558478588991045
40
0.587872198937942
40
0.587872198937942
40
0.595220601424666
40
0.595220601424666
40
0.602569003911391
40
0.602569003911391
40
0.617265808884841
40
0.617265808884841
40
0.63196261385829
40
0.63196261385829
40
0.639311016345015
40
0.639311016345015
40
0.646659418831739
40
0.646659418831739
40
0.676053028778636
40
0.676053028778636
40
0.683401431265359
40
0.683401431265359
40
0.690749833752083
40
0.690749833752083
40
0.698098236238807
40
0.698098236238807
40
0.705446638725531
40
0.705446638725531
40
0.72014344369898
40
0.72014344369898
40
0.727491846185704
40
0.727491846185704
40
0.734840248672428
40
0.734840248672428
40
0.764233858619326
40
0.764233858619326
40
0.77158226110605
40
0.77158226110605
40
0.778930663592774
40
0.778930663592774
40
0.793627468566223
40
0.793627468566223
40
0.808324273539672
40
0.808324273539672
40
0.823021078513121
40
0.823021078513121
40
0.83771788348657
40
0.83771788348657
40
0.845066285973295
40
0.845066285973295
40
0.852414688460019
40
0.852414688460019
40
0.859763090946744
40
0.859763090946744
40
0.867111493433468
40
0.867111493433468
40
0.881808298406917
40
0.881808298406917
40
0.896505103380365
40
0.896505103380365
40
0.903853505867089
40
0.903853505867089
40
0.911201908353813
40
0.911201908353813
40
0.925898713327261
40
0.925898713327261
40
0.940595518300709
40
0.940595518300709
40
0.947943920787434
40
0.947943920787434
40
0.955292323274158
40
0.955292323274158
40
0.969989128247608
40
0.969989128247608
40
0.984685933221058
40
0.984685933221058
40
0.992034335707782
40
0.992034335707782
40
0.999382738194507
40
0.999382738194507
40
1
40
1
40
1
40
1
41
1
10
18.2088580878398
20
9.35111076878223
30
0
41
1
10
19.1299349661949
20
9.43788666098087
30
0
41
1
10
20.0506303151539
20
9.50814262922654
30
0
41
1
10
21.4303097521226
20
9.58974636904583
30
0
41
1
10
21.8899690934455
20
9.61296717857249
30
0
41
1
10
22.5790755317697
20
9.64177811052602
30
0
41
1
10
22.8087456143907
20
9.65036514946038
30
0
41
1
10
23.2681693068355
20
9.66547374897789
30
0
41
1
10
23.4979027260901
20
9.6720027229716
30
0
41
1
10
24.1871342649661
20
9.68854119103378
30
0
41
1
10
24.646660289291
20
9.69550709065905
30
0
41
1
10
25.5656474579303
20
9.7013438806633
30
0
41
1
10
26.0251009420439
20
9.70021280489905
30
0
41
1
10
26.7141912743258
20
9.69236632296349
30
0
41
1
10
26.9438911151202
20
9.6887250491832
30
0
41
1
10
27.4034404406774
20
9.67941321283806
30
0
41
1
10
27.6332983322567
20
9.67374643326991
30
0
41
1
10
28.3230381357211
20
9.65371661535289
30
0
41
1
10
28.783092904707
20
9.63632737507933
30
0
41
1
10
29.7035591273884
20
9.59344159098458
30
0
41
1
10
30.1639683111395
20
9.56794442425664
30
0
41
1
10
30.8547712976353
20
9.52349643595892
30
0
41
1
10
31.0850483131139
20
9.50763694162035
30
0
41
1
10
31.5454786585619
20
9.47398591983387
30
0
41
1
10
31.7756709423023
20
9.45618869736461
30
0
41
1
10
32.9264638453738
20
9.36235318284304
30
0
41
1
10
33.8465392663387
20
9.27183326703715
30
0
41
1
10
34.9952592347667
20
9.13877186414945
30
0
41
1
10
35.2249392522404
20
9.11116180893282
30
0
41
1
10
35.6843045781423
20
9.05407399634723
30
0
41
1
10
35.9140067100076
20
9.02461445639358
30
0
41
1
10
36.6031934986517
20
8.93353571261531
30
0
41
1
10
37.5222086666857
20
8.80478339725801
30
0
41
1
10
38.4412062879316
20
8.6612179516251
30
0
41
1
10
39.1303659507997
20
8.54783374881697
30
0
41
1
10
39.3600549149512
20
8.50906333873422
30
0
41
1
10
39.8194992210976
20
8.4297358724771
30
0
41
1
10
40.0492907710508
20
8.38923078549681
30
0
41
1
10
41.1986122462123
20
8.18255712039772
30
0
41
1
10
42.1191229170288
20
8.00386699032083
30
0
41
1
10
43.2704092873362
20
7.7625962437439
30
0
41
1
10
43.500755420133
20
7.71340442905571
30
0
41
1
10
43.961117406283
20
7.61346383504093
30
0
41
1
10
44.1911667290758
20
7.56272516779865
30
0
41
1
10
44.8810735628538
20
7.40853099102625
30
0
41
1
10
45.340610407818
20
7.30294025580216
30
0
41
1
10
46.2587457220912
20
7.08593586735648
30
0
41
1
10
46.7173530944825
20
6.97454045195141
30
0
41
1
10
47.4044960406908
20
6.80293711233165
30
0
41
1
10
47.6334110391459
20
6.74497348246024
30
0
41
1
10
48.0909944378632
20
6.6275581581566
30
0
41
1
10
48.3196896865251
20
6.56816568969649
30
0
41
1
10
49.0056835096251
20
6.38838900112975
30
0
41
1
10
49.4628164005453
20
6.26624419156263
30
0
41
1
10
50.3765350796079
20
6.01705716030818
30
0
41
1
10
50.8331195699165
20
5.89001111115505
30
0
41
1
10
51.5175116864625
20
5.69558527208952
30
0
41
1
10
51.745551750274
20
5.6301095112733
30
0
41
1
10
52.2014809070936
20
5.49789178944681
30
0
41
1
10
52.429378851183
20
5.43117080518272
30
0
41
1
10
53.1130763295324
20
5.22967514284579
30
0
41
1
10
53.5688978372158
20
5.09361942319183
30
0
41
1
10
54.4803481665667
20
4.81750101635177
30
0
41
1
10
54.9359971369136
20
4.67748787997965
30
0
41
1
10
55.6192761031143
20
4.46432337480252
30
0
41
1
10
55.8470032932323
20
4.39274385222348
30
0
41
1
10
56.3023804125109
20
4.24849750488283
30
0
41
1
10
56.5300143398421
20
4.17578741218492
30
0
41
1
10
57.2130655997159
20
3.95672407896362
30
0
41
1
10
57.6686357196743
20
3.80945373255486
30
0
41
1
10
58.5800105777265
20
3.51203562552584
30
0
41
1
10
59.035811457953
20
3.36187666742382
30
0
41
1
10
59.7196039872084
20
3.13423363565804
30
0
41
1
10
59.9475520930847
20
3.0579572778675
30
0
41
1
10
60.4034545316658
20
2.90452761741724
30
0
41
1
10
60.6314085064608
20
2.82737246990493
30
0
41
1
10
61.087445097895
20
2.67252735940519
30
0
41
1
10
61.3155403274665
20
2.59487380653613
30
0
41
1
10
61.7719389453352
20
2.43926648148388
30
0
41
1
10
62.0002252341234
20
2.36126372152788
30
0
41
1
10
62.6853088617192
20
2.12655630441327
30
0
41
1
10
63.1423387766839
20
1.96917681121113
30
0
41
1
10
63.8282720382647
20
1.73151591816782
30
0
41
1
10
64.0569809790381
20
1.65202928461423
30
0
41
1
10
64.5145166262552
20
1.49248237331625
30
0
41
1
10
64.7433334826008
20
1.4123918343586
30
0
41
1
10
65.2011287442365
20
1.25176156239596
30
0
41
1
10
65.4301435801437
20
1.17133340617758
30
0
41
1
10
65.8884712734665
20
1.01045157818803
30
0
41
1
10
66.1177719841801
20
0.929960771716736
30
0
41
1
10
66.8060535562503
20
0.688245355611912
30
0
41
1
10
67.2654096837382
20
0.526766574270596
30
0
41
1
10
67.9551111972991
20
0.283755725946463
30
0
41
1
10
68.1851249893065
20
0.202626135232123
30
0
41
1
10
68.6453641841173
20
0.0400582617272676
30
0
41
1
10
68.8756342792292
20
-0.0414391805434491
30
0
41
1
10
69.3361693219871
20
-0.204502487090764
30
0
41
1
10
69.5663490702122
20
-0.28601700272273
30
0
41
1
10
70.0266742846059
20
-0.448599564049573
30
0
41
1
10
70.2568105428616
20
-0.529695262278835
30
0
41
1
10
71.4072369739185
20
-0.934566727109626
30
0
41
1
10
72.3268266143271
20
-1.25635288977747
30
0
41
1
10
73.4748499778542
20
-1.65742339418139
30
0
41
1
10
73.7043938042092
20
-1.73754245098516
30
0
41
1
10
74.1635575456359
20
-1.89703308628043
30
0
41
1
10
74.3931572284113
20
-1.97646241205118
30
0
41
1
10
75.0819762327971
20
-2.21390230206987
30
0
41
1
10
75.5412128166633
20
-2.37107346091528
30
0
41
1
10
76.459585490342
20
-2.68358915316648
30
0
41
1
10
76.9187257235333
20
-2.83892199614385
30
0
41
1
10
77.6072857103076
20
-3.07073830779174
30
0
41
1
10
77.8367941256323
20
-3.14777576829584
30
0
41
1
10
78.2959260648133
20
-3.30100574777626
30
0
41
1
10
78.5255655216978
20
-3.37715565505363
30
0
41
1
10
79.6740504641803
20
-3.75580471195505
30
0
41
1
10
80.5936801551393
20
-4.05223340684987
30
0
41
1
10
81.7437512990626
20
-4.41596641247537
30
0
41
1
10
81.973774105038
20
-4.48841827333814
30
0
41
1
10
82.4340285620458
20
-4.63223130553777
30
0
41
1
10
82.6642746808451
20
-4.70355566411664
30
0
41
1
10
83.1249816645125
20
-4.84510295810324
30
0
41
1
10
83.3553589419379
20
-4.91530029478031
30
0
41
1
10
83.8159203459571
20
-5.05453532583564
30
0
41
1
10
84.0461381828441
20
-5.12358396612152
30
0
41
1
10
84.7365762844209
20
-5.32909455357307
30
0
41
1
10
85.1965907545443
20
-5.46390064680631
30
0
41
1
10
85.8860855830501
20
-5.6630474657434
30
0
41
1
10
86.1158242450374
20
-5.72892945113207
30
0
41
1
10
86.5752436988943
20
-5.85938995695849
30
0
41
1
10
86.8049373773234
20
-5.92393920883865
30
0
41
1
10
87.9534819522771
20
-6.24295353043885
30
0
41
1
10
88.8722227523277
20
-6.48705514050971
30
0
41
1
10
90.0199626243771
20
-6.77951172235515
30
0
41
1
10
90.2494655955969
20
-6.83738745845383
30
0
41
1
10
90.708452125755
20
-6.95175467890078
30
0
41
1
10
90.9379754129036
20
-7.00816619675962
30
0
41
1
10
91.6267308718584
20
-7.17490974263177
30
0
41
1
10
92.08609822454
20
-7.28285607956923
30
0
41
1
10
93.0050564130381
20
-7.49267540225657
30
0
41
1
10
93.4646501548808
20
-7.59454202881449
30
0
41
1
10
94.3839578398317
20
-7.79233563307059
30
0
41
1
10
94.8435783721263
20
-7.88840897905703
30
0
41
1
10
95.7637110290683
20
-8.07324587248158
30
0
41
1
10
96.2241814595796
20
-8.16209862734715
30
0
41
1
10
96.9153404526339
20
-8.29029346553125
30
0
41
1
10
97.1457463777079
20
-8.33215873294557
30
0
41
1
10
97.6063040494348
20
-8.41412726217629
30
0
41
1
10
97.8364972155867
20
-8.45423836198478
30
0
41
1
10
98.2966983811124
20
-8.53272908037826
30
0
41
1
10
98.5267053827351
20
-8.57111002090952
30
0
41
1
10
98.9865253721572
20
-8.64614104314106
30
0
41
1
10
99.2163519860607
20
-8.68277052660463
30
0
41
1
10
99.9058679982657
20
-8.78964246864422
30
0
41
1
10
100.365511198142
20
-8.85698795187884
30
0
41
1
10
101.284559353858
20
-8.98416843497898
30
0
41
1
10
101.743961334442
20
-9.04400504942728
30
0
41
1
10
102.432805445483
20
-9.12818893031113
30
0
41
1
10
102.662370672723
20
-9.15532689857903
30
0
41
1
10
103.121408477101
20
-9.20773662815415
30
0
41
1
10
103.350891421157
20
-9.23299728917533
30
0
41
1
10
104.039441247138
20
-9.30576403960387
30
0
41
1
10
104.498662138396
20
-9.35022335966258
30
0
41
1
10
105.417235336618
20
-9.43131097203386
30
0
41
1
10
105.876605203858
20
-9.4679236248306
30
0
41
1
10
106.565702351246
20
-9.51697241504439
30
0
41
1
10
106.79540838928
20
-9.53234274186607
30
0
41
1
10
107.254821985021
20
-9.56111731070573
30
0
41
1
10
107.48451116048
20
-9.57452846221392
30
0
41
1
10
108.173825525616
20
-9.61168150345904
30
0
41
1
10
108.633741774383
20
-9.63233884123679
30
0
41
1
10
109.554140697579
20
-9.66557091605506
30
0
41
1
10
110.014619386229
20
-9.67814535755207
30
0
41
1
10
110.705675193264
20
-9.69092442612424
30
0
41
1
10
110.936044134491
20
-9.69416795916862
30
0
41
1
10
111.396458459237
20
-9.69861033655309
30
0
41
1
10
111.626549504333
20
-9.69980826073086
30
0
41
1
10
111.87591140469
20
-9.69999307126531
30
0
41
1
10
111.895234261993
20
-9.70000014858996
30
0
41
1
10
111.914556862054
20
-9.69999998846103
30
0
0
SPLINE
5
D2
100
AcDbEntity
8
1
62
256
6
ByLayer
370
18
48
1
60
0
100
AcDbSpline
70
4
71
3
72
36
73
32
40
0
40
0
40
0
40
0
40
0.0003332147612956
40
0.0003332147612956
40
0.0836387801978527
40
0.0836387801978527
40
0.12529156291613
40
0.12529156291613
40
0.166944345634409
40
0.166944345634409
40
0.33355547650751
40
0.33355547650751
40
0.375208259225787
40
0.375208259225787
40
0.416861041944066
40
0.416861041944066
40
0.500166607380628
40
0.500166607380628
40
0.58347217281719
40
0.58347217281719
40
0.66677773825375
40
0.66677773825375
40
0.750083303690312
40
0.750083303690312
40
0.833388869126874
40
0.833388869126874
40
0.875041651845154
40
0.875041651845154
40
0.916694434563435
40
0.916694434563435
40
1
40
1
40
1
40
1
41
1
10
177.848054580981
20
7.15111837492586
30
0
41
1
10
177.849894687395
20
7.15155650837707
30
0
41
1
10
177.851734796633
20
7.15199459598199
30
0
41
1
10
178.313613278099
20
7.26194554497965
30
0
41
1
10
178.773839807662
20
7.36857011948808
30
0
41
1
10
179.464353783769
20
7.52432976520342
30
0
41
1
10
179.694586581628
20
7.5755505407424
30
0
41
1
10
180.155123935905
20
7.67630757090649
30
0
41
1
10
180.385345545196
20
7.72579404281936
30
0
41
1
10
181.536275842493
20
7.96871234304399
30
0
41
1
10
182.456211401801
20
8.14910498673657
30
0
41
1
10
183.604583928233
20
8.35807245581265
30
0
41
1
10
183.834165321722
20
8.39905725619539
30
0
41
1
10
184.293260690465
20
8.47922876370069
30
0
41
1
10
184.522812013115
20
8.51836356055279
30
0
41
1
10
185.211497518797
20
8.63291182041996
30
0
41
1
10
185.670640116398
20
8.70550652767656
30
0
41
1
10
186.588796824193
20
8.84341956348993
30
0
41
1
10
187.047817342828
20
8.90872908744035
30
0
41
1
10
187.965618884289
20
9.03213964241925
30
0
41
1
10
188.424330412634
20
9.09029187973783
30
0
41
1
10
189.342366057634
20
9.19847771810896
30
0
41
1
10
189.801602365462
20
9.24862112385657
30
0
41
1
10
190.720339546774
20
9.34120214686908
30
0
41
1
10
191.179851694043
20
9.38362918406688
30
0
41
1
10
191.869253470438
20
9.44148785797012
30
0
41
1
10
192.099072556875
20
9.45981180357651
30
0
41
1
10
192.558762123584
20
9.49450903260708
30
0
41
1
10
192.78865876468
20
9.5108644852684
30
0
41
1
10
193.478727033196
20
9.5568312817324
30
0
41
1
10
193.939195129117
20
9.58340094095999
30
0
41
1
10
194.4
20
9.60595475804757
30
0
0
SPLINE
5
D3
100
AcDbEntity
8
1
62
256
6
ByLayer
370
18
48
1
60
0
100
AcDbSpline
70
4
71
4
72
13
73
8
40
0
40
0
40
0
40
0
40
0
40
0.78139235749937
40
0.78139235749937
40
0.78139235749937
40
1
40
1
40
1
40
1
40
1
41
0.996856785525806
10
18.2088580878398
20
9.35111076878225
30
0
41
0.994727863171859
10
18.0800692347601
20
8.12243155509178
30
0
41
0.994104670666957
10
17.8480020434618
20
6.84661315719015
30
0
41
1
10
17.5226204183448
20
5.70272521764392
30
0
41
1
10
17.0791760793448
20
4.54387699742054
30
0
41
0.999538575729456
10
16.9767800457845
20
4.29913935214698
30
0
41
0.998887555744899
10
16.8697100463128
20
4.06688959212645
30
0
41
0.998212011085808
10
16.7589351905699
20
3.85009955996995
30
0
0
SPLINE
5
D4
100
AcDbEntity
8
1
62
256
6
ByLayer
370
18
48
1
60
0
100
AcDbSpline
70
4
71
3
72
60
73
56
40
0
40
0
40
0
40
0
40
0.0381359163821183
40
0.0381359163821183
40
0.0762718327642367
40
0.0762718327642367
40
0.152543665528471
40
0.152543665528471
40
0.19067958191059
40
0.19067958191059
40
0.228815498292708
40
0.228815498292708
40
0.266951414674826
40
0.266951414674826
40
0.305087331056945
40
0.305087331056945
40
0.324155289248005
40
0.324155289248005
40
0.343223247439065
40
0.343223247439065
40
0.381359163821185
40
0.381359163821185
40
0.419495080203306
40
0.419495080203306
40
0.457630996585426
40
0.457630996585426
40
0.495766912967546
40
0.495766912967546
40
0.533902829349667
40
0.533902829349667
40
0.610174662113907
40
0.610174662113907
40
0.629242620304967
40
0.629242620304967
40
0.648310578496027
40
0.648310578496027
40
0.68644649487815
40
0.68644649487815
40
0.724582411260272
40
0.724582411260272
40
0.762718327642395
40
0.762718327642395
40
0.838990160406639
40
0.838990160406639
40
0.858058118597701
40
0.858058118597701
40
0.877126076788763
40
0.877126076788763
40
0.915261993170886
40
0.915261993170886
40
0.95339790955301
40
0.95339790955301
40
0.991533825935133
40
0.991533825935133
40
1
40
1
40
1
40
1
41
1
10
194.4
20
2.17472682236556
30
0
41
1
10
193.927480840653
20
2.33706380387727
30
0
41
1
10
193.455264934433
20
2.49833060420278
30
0
41
1
10
192.511536689918
20
2.81898868040915
30
0
41
1
10
192.040049480794
20
2.97844107305483
30
0
41
1
10
190.625639102495
20
3.4512087785653
30
0
41
1
10
189.682984221783
20
3.75958321952479
30
0
41
1
10
188.269782216266
20
4.21290355165664
30
0
41
1
10
187.79890364669
20
4.36260791985293
30
0
41
1
10
186.85675501519
20
4.65724085985087
30
0
41
1
10
186.385547641554
20
4.80233685619535
30
0
41
1
10
185.442911180542
20
5.08821520147026
30
0
41
1
10
184.971484989325
20
5.22900528601744
30
0
41
1
10
184.028512198553
20
5.50649117686237
30
0
41
1
10
183.556993441745
20
5.64324480566185
30
0
41
1
10
182.849125763048
20
5.84410407176574
30
0
41
1
10
182.613083794374
20
5.91037555424504
30
0
41
1
10
182.140838906247
20
6.04158337695853
30
0
41
1
10
181.904581828597
20
6.10653252541155
30
0
41
1
10
181.195947050366
20
6.29929571730293
30
0
41
1
10
180.724109516631
20
6.4249185444545
30
0
41
1
10
179.781655136346
20
6.67052995703702
30
0
41
1
10
179.311095773205
20
6.79063396133853
30
0
41
1
10
178.370605971132
20
7.0238785709148
30
0
41
1
10
177.900729090429
20
7.13715666415959
30
0
41
1
10
176.961742793297
20
7.35717969207934
30
0
41
1
10
176.492635654973
20
7.46393048101927
30
0
41
1
10
175.555285068812
20
7.67108330068695
30
0
41
1
10
175.087075661937
20
7.77153113668373
30
0
41
1
10
173.682815918872
20
8.06165402959834
30
0
41
1
10
172.747299799511
20
8.24051687075396
30
0
41
1
10
171.579003338628
20
8.44646467006643
30
0
41
1
10
171.345404353201
20
8.48677658532242
30
0
41
1
10
170.87829672118
20
8.56559297300765
30
0
41
1
10
170.644763023096
20
8.60406172749427
30
0
41
1
10
169.944106699987
20
8.71650492501081
30
0
41
1
10
169.476970984399
20
8.78757889256386
30
0
41
1
10
168.542675892073
20
8.92204802319921
30
0
41
1
10
168.075517543934
20
8.98544568611862
30
0
41
1
10
167.141274383086
20
9.10463421016345
30
0
41
1
10
166.674238050089
20
9.16045883727054
30
0
41
1
10
165.272364877277
20
9.31557947421874
30
0
41
1
10
164.336846760679
20
9.40271322554676
30
0
41
1
10
163.166567591002
20
9.49144957988375
30
0
41
1
10
162.93246995001
20
9.50818537035701
30
0
41
1
10
162.464179396545
20
9.53961271491937
30
0
41
1
10
162.229969495214
20
9.55429333396759
30
0
41
1
10
161.526980169932
20
9.59515082002358
30
0
41
1
10
161.057895061581
20
9.61817850104461
30
0
41
1
10
160.118911586498
20
9.65584301476866
30
0
41
1
10
159.649013211893
20
9.67048134715566
30
0
41
1
10
158.708488364331
20
9.69131384524675
30
0
41
1
10
158.237914170815
20
9.69749950786712
30
0
41
1
10
157.662107664055
20
9.69979865201941
30
0
41
1
10
157.557470247844
20
9.70000512208907
30
0
41
1
10
157.452802220152
20
9.70000033976555
30
0
0
SPLINE
5
D5
100
AcDbEntity
8
1
62
256
6
ByLayer
370
18
48
1
60
0
100
AcDbSpline
70
4
71
3
72
159
73
155
40
0
40
0
40
0
40
0
40
0.0003998402557381
40
0.0003998402557381
40
0.0094871144352308
40
0.0094871144352308
40
0.0185743886147236
40
0.0185743886147236
40
0.0549234853326966
40
0.0549234853326966
40
0.0640107595121906
40
0.0640107595121906
40
0.0730980336916846
40
0.0730980336916846
40
0.0912725820506714
40
0.0912725820506714
40
0.109447130409658
40
0.109447130409658
40
0.118534404589152
40
0.118534404589152
40
0.127621678768645
40
0.127621678768645
40
0.145796227127631
40
0.145796227127631
40
0.163970775486617
40
0.163970775486617
40
0.17305804966611
40
0.17305804966611
40
0.182145323845602
40
0.182145323845602
40
0.200319872204588
40
0.200319872204588
40
0.218494420563574
40
0.218494420563574
40
0.227581694743067
40
0.227581694743067
40
0.236668968922559
40
0.236668968922559
40
0.245756243102051
40
0.245756243102051
40
0.254843517281544
40
0.27301806564053
40
0.27301806564053
40
0.282105339820023
40
0.282105339820023
40
0.291192613999517
40
0.291192613999517
40
0.309367162358503
40
0.309367162358503
40
0.327541710717489
40
0.327541710717489
40
0.336628984896982
40
0.336628984896982
40
0.345716259076475
40
0.345716259076475
40
0.36389080743546
40
0.36389080743546
40
0.382065355794445
40
0.382065355794445
40
0.391152629973938
40
0.391152629973938
40
0.400239904153431
40
0.400239904153431
40
0.418414452512417
40
0.418414452512417
40
0.42750172669191
40
0.42750172669191
40
0.436589000871402
40
0.436589000871402
40
0.445676275050895
40
0.445676275050895
40
0.454763549230388
40
0.454763549230388
40
0.472938097589374
40
0.472938097589374
40
0.49111264594836
40
0.49111264594836
40
0.500199920127852
40
0.500199920127852
40
0.509287194307345
40
0.509287194307345
40
0.527461742666331
40
0.527461742666331
40
0.545636291025316
40
0.545636291025316
40
0.554723565204809
40
0.554723565204809
40
0.563810839384302
40
0.563810839384302
40
0.581985387743289
40
0.581985387743289
40
0.591072661922782
40
0.591072661922782
40
0.600159936102276
40
0.600159936102276
40
0.609247210281769
40
0.609247210281769
40
0.618334484461263
40
0.618334484461263
40
0.636509032820249
40
0.636509032820249
40
0.654683581179236
40
0.654683581179236
40
0.663770855358729
40
0.663770855358729
40
0.672858129538222
40
0.672858129538222
40
0.691032677897209
40
0.691032677897209
40
0.709207226256196
40
0.709207226256196
40
0.71829450043569
40
0.71829450043569
40
0.727381774615184
40
0.727381774615184
40
0.745556322974172
40
0.745556322974172
40
0.763730871333159
40
0.763730871333159
40
0.772818145512653
40
0.772818145512653
40
0.781905419692147
40
0.781905419692147
40
0.790992693871642
40
0.790992693871642
40
0.800079968051136
40
0.800079968051136
40
0.818254516410123
40
0.818254516410123
40
0.836429064769111
40
0.836429064769111
40
0.854603613128098
40
0.854603613128098
40
0.872778161487085
40
0.872778161487085
40
0.881865435666579
40
0.881865435666579
40
0.890952709846073
40
0.890952709846073
40
0.900039984025567
40
0.900039984025567
40
0.90912725820506
40
0.90912725820506
40
0.927301806564048
40
0.927301806564048
40
0.936389080743542
40
0.936389080743542
40
0.945476354923036
40
0.945476354923036
40
0.95456362910253
40
0.95456362910253
40
0.963650903282024
40
0.963650903282024
40
1
40
1
40
1
40
1
41
1
10
91.5292722029508
20
-7.14927155111033
30
0
41
1
10
91.5189127649265
20
-7.15174183154321
30
0
41
1
10
91.5085533175599
20
-7.15421066716564
30
0
41
1
10
91.2627517874545
20
-7.21275511622235
30
0
41
1
10
91.0273065859567
20
-7.26808843277806
30
0
41
1
10
90.5564135412892
20
-7.37726584310417
30
0
41
1
10
90.3209624671888
20
-7.43110299896503
30
0
41
1
10
89.1434477305658
20
-7.69608157990001
30
0
41
1
10
88.20030137295
20
-7.89409798885444
30
0
41
1
10
87.020185061032
20
-8.12458149972457
30
0
41
1
10
86.7841032849169
20
-8.16982478144547
30
0
41
1
10
86.3118292803469
20
-8.25860503459319
30
0
41
1
10
86.0756691533342
20
-8.30215865661697
30
0
41
1
10
85.3675288513921
20
-8.42987228878809
30
0
41
1
10
84.8956234053133
20
-8.5110688729678
30
0
41
1
10
83.9522143919494
20
-8.66570738701515
30
0
41
1
10
83.4807083601575
20
-8.73914733459199
30
0
41
1
10
82.7738146846037
20
-8.84358156518417
30
0
41
1
10
82.5382457564054
20
-8.87743939267253
30
0
41
1
10
82.0672375946247
20
-8.94324532951526
30
0
41
1
10
81.8317954697724
20
-8.97518898087301
30
0
41
1
10
81.1255139984832
20
-9.06798389424657
30
0
41
1
10
80.6546483350258
20
-9.12572981933369
30
0
41
1
10
79.7128996102894
20
-9.23306708585574
30
0
41
1
10
79.2420260908967
20
-9.28266841713975
30
0
41
1
10
78.5357598744758
20
-9.35099762577559
30
0
41
1
10
78.3003451407893
20
-9.37276114645698
30
0
41
1
10
77.8295378753813
20
-9.41425828956241
30
0
41
1
10
77.5941594639922
20
-9.43400034466544
30
0
41
1
10
76.8878995349548
20
-9.49006102325868
30
0
41
1
10
76.416833751287
20
-9.52318484070784
30
0
41
1
10
75.4742828763402
20
-9.58100731491376
30
0
41
1
10
75.0027955206452
20
-9.60570625771999
30
0
41
1
10
74.2953127216994
20
-9.63644013426662
30
0
41
1
10
74.0594443008597
20
-9.6456317700663
30
0
41
1
10
73.5876314283064
20
-9.66189684120727
30
0
41
1
10
73.3516846605426
20
-9.66896840848858
30
0
41
1
10
72.8796181212535
20
-9.6809587990702
30
0
41
1
10
72.6434409077296
20
-9.68587661124673
30
0
41
1
10
72.1710812091267
20
-9.69355429116101
30
0
41
1
10
71.4627253749641
20
-9.7018353551384
30
0
41
1
10
70.7549475231106
20
-9.70047328041139
30
0
41
1
10
70.0475964754487
20
-9.69269494566885
30
0
41
1
10
69.8118839632597
20
-9.68903200070017
30
0
41
1
10
69.3406091209785
20
-9.67955813768182
30
0
41
1
10
69.1050607640823
20
-9.67374325253533
30
0
41
1
10
68.3984905038984
20
-9.65309800263472
30
0
41
1
10
67.9274757364942
20
-9.63509227915736
30
0
41
1
10
66.9855374529272
20
-9.59067361902862
30
0
41
1
10
66.5146117933668
20
-9.56426291916725
30
0
41
1
10
65.8083558160037
20
-9.51831035769689
30
0
41
1
10
65.5729603557105
20
-9.50193519752693
30
0
41
1
10
65.1022231527376
20
-9.46705493081853
30
0
41
1
10
64.8668796074317
20
-9.44854970820418
30
0
41
1
10
64.1607858066195
20
-9.38991966038506
30
0
41
1
10
63.6898968869087
20
-9.34673737861118
30
0
41
1
10
62.7477855188185
20
-9.25225293185915
30
0
41
1
10
62.2765759951855
20
-9.20094195262641
30
0
41
1
10
61.5695729528052
20
-9.1178154306848
30
0
41
1
10
61.3338737730733
20
-9.08907917611003
30
0
41
1
10
60.8624194602676
20
-9.0295327805139
30
0
41
1
10
60.6266777430239
20
-8.99870715832282
30
0
41
1
10
59.9192302707815
20
-8.90325000832124
30
0
41
1
10
59.4472208609379
20
-8.83573728360827
30
0
41
1
10
58.7386601197304
20
-8.72866528328461
30
0
41
1
10
58.5023835806588
20
-8.69200604020043
30
0
41
1
10
58.030100279689
20
-8.6168117364079
30
0
41
1
10
57.794038414303
20
-8.5782679640825
30
0
41
1
10
57.3220871471651
20
-8.49926932819636
30
0
41
1
10
57.0861982522418
20
-8.45881371106185
30
0
41
1
10
56.6146021958751
20
-8.3759725339323
30
0
41
1
10
56.3788938078108
20
-8.33358779302003
30
0
41
1
10
55.67190143857
20
-8.20374010867559
30
0
41
1
10
55.2006737990504
20
-8.11370348788776
30
0
41
1
10
54.2583940029415
20
-7.92679684355423
30
0
41
1
10
53.7873558069312
20
-7.82990568412606
30
0
41
1
10
53.0809937657796
20
-7.6793418521645
30
0
41
1
10
52.8455722966356
20
-7.62828212228459
30
0
41
1
10
52.3748021438427
20
-7.52439906267088
30
0
41
1
10
52.1394667528405
20
-7.47155081869852
30
0
41
1
10
51.4334382281601
20
-7.31058948845595
30
0
41
1
10
50.9626315857619
20
-7.20023425002978
30
0
41
1
10
50.0207974252473
20
-6.97344290377268
30
0
41
1
10
49.5497691081012
20
-6.85700961530159
30
0
41
1
10
48.8431252961191
20
-6.67766020303847
30
0
41
1
10
48.6075614335506
20
-6.61709108899871
30
0
41
1
10
48.1364102082651
20
-6.49435367648212
30
0
41
1
10
47.9008224800309
20
-6.4321852136454
30
0
41
1
10
47.1938876620587
20
-6.24356321680887
30
0
41
1
10
46.7222909583498
20
-6.11516777095571
30
0
41
1
10
46.0144093355406
20
-5.91868897564038
30
0
41
1
10
45.7783716417686
20
-5.852539212289
30
0
41
1
10
45.3061491450936
20
-5.71890750047808
30
0
41
1
10
45.0699108306615
20
-5.65141028788113
30
0
41
1
10
44.5975373446878
20
-5.51513289669177
30
0
41
1
10
44.3615130777701
20
-5.4463850077816
30
0
41
1
10
43.8897963210642
20
-5.30765215746581
30
0
41
1
10
43.6541155369638
20
-5.23763520603433
30
0
41
1
10
42.9474603061079
20
-5.02602895746119
30
0
41
1
10
42.4767818372324
20
-4.8831340126178
30
0
41
1
10
41.5362744161995
20
-4.59371733711248
30
0
41
1
10
41.0664453268525
20
-4.44719623418894
30
0
41
1
10
40.3623955094596
20
-4.2245426891775
30
0
41
1
10
40.1278288763886
20
-4.14984326630778
30
0
41
1
10
39.6589377045272
20
-3.99945599169863
30
0
41
1
10
39.4246139649457
20
-3.92376573587759
30
0
41
1
10
38.7218839324124
20
-3.6955522671735
30
0
41
1
10
38.2536432878556
20
-3.54209852509783
30
0
41
1
10
37.317593442797
20
-3.23275368790314
30
0
41
1
10
36.849802269663
20
-3.07681211792826
30
0
41
1
10
36.1485056239793
20
-2.84088637582056
30
0
41
1
10
35.914805108251
20
-2.76190874795543
30
0
41
1
10
35.4475415200731
20
-2.60326019392687
30
0
41
1
10
35.2139887941362
20
-2.52355958101617
30
0
41
1
10
34.5134511034177
20
-2.28366109146796
30
0
41
1
10
34.0464605569314
20
-2.12302856499466
30
0
41
1
10
33.1125265393181
20
-1.800438889953
30
0
41
1
10
32.6455883805249
20
-1.63846675194046
30
0
41
1
10
31.9452834760612
20
-1.39432177793031
30
0
41
1
10
31.7118666202676
20
-1.31273912763464
30
0
41
1
10
31.2450785410411
20
-1.14914308864297
30
0
41
1
10
31.0117115192527
20
-1.06711728320772
30
0
41
1
10
30.5449536277305
20
-0.902836705009037
30
0
41
1
10
30.3115555461496
20
-0.820603065686527
30
0
41
1
10
29.8446487460372
20
-0.656162603961093
30
0
41
1
10
29.6111503555855
20
-0.573925566166338
30
0
41
1
10
28.9105355256448
20
-0.327120321936746
30
0
41
1
10
28.4432971695953
20
-0.162465059473135
30
0
41
1
10
27.5085505634902
20
0.167243682665287
30
0
41
1
10
27.0410608869029
20
0.332352787481142
30
0
41
1
10
26.1057786360992
20
0.662885063408538
30
0
41
1
10
25.6378045712251
20
0.827765026164229
30
0
41
1
10
24.70109198873
20
1.15645027975452
30
0
41
1
10
24.232371281716
20
1.32030863429489
30
0
41
1
10
23.5287958518792
20
1.56553167225897
30
0
41
1
10
23.2941893192542
20
1.64718178496901
30
0
41
1
10
22.824822214231
20
1.8103289456038
30
0
41
1
10
22.5900672087254
20
1.89184312690935
30
0
41
1
10
22.1203472541311
20
2.05454996387996
30
0
41
1
10
21.8853772778656
20
2.13572726582694
30
0
41
1
10
21.4151313946834
20
2.29746564514403
30
0
41
1
10
21.1798650077468
20
2.37805579709266
30
0
41
1
10
20.4736527882466
20
2.61904189431942
30
0
41
1
10
20.002291137011
20
2.77864450653672
30
0
41
1
10
19.2944518658554
20
3.0165763697041
30
0
41
1
10
19.0583691015005
20
3.09564247930052
30
0
41
1
10
18.5859560255819
20
3.25329571872368
30
0
41
1
10
18.3498093754533
20
3.331839276111
30
0
41
1
10
17.8776015489117
20
3.48826450209384
30
0
41
1
10
17.6415127835469
20
3.56607257548453
30
0
41
1
10
17.1692905774788
20
3.72068552166869
30
0
41
1
10
16.9331678049324
20
3.79751884942559
30
0
41
1
10
15.7525062177594
20
4.17935670037127
30
0
41
1
10
14.8078078807422
20
4.4773617050823
30
0
41
1
10
13.8632404250701
20
4.76858507116378
30
0
0
SPLINE
5
D6
100
AcDbEntity
8
1
62
256
6
ByLayer
370
18
48
1
60
0
100
AcDbSpline
70
4
71
3
72
106
73
102
40
0
40
0
40
0
40
0
40
0.0624999999999981
40
0.0624999999999981
40
0.093749999999998
40
0.093749999999998
40
0.124999999999998
40
0.124999999999998
40
0.156249999999998
40
0.156249999999998
40
0.164062499999998
40
0.164062499999998
40
0.171874999999999
40
0.187499999999998
40
0.187499999999998
40
0.218749999999997
40
0.218749999999997
40
0.249999999999996
40
0.249999999999996
40
0.265624999999996
40
0.265624999999996
40
0.273437499999996
40
0.273437499999996
40
0.281249999999995
40
0.281249999999995
40
0.312499999999994
40
0.312499999999994
40
0.343749999999992
40
0.343749999999992
40
0.359374999999992
40
0.359374999999992
40
0.367187499999992
40
0.367187499999992
40
0.374999999999991
40
0.374999999999991
40
0.40624999999999
40
0.40624999999999
40
0.421874999999989
40
0.421874999999989
40
0.429687499999989
40
0.429687499999989
40
0.433593749999989
40
0.433593749999989
40
0.437499999999989
40
0.437499999999989
40
0.468749999999989
40
0.468749999999989
40
0.484374999999989
40
0.484374999999989
40
0.492187499999989
40
0.496093749999989
40
0.496093749999989
40
0.499999999999989
40
0.499999999999989
40
0.531249999999989
40
0.531249999999989
40
0.546874999999989
40
0.546874999999989
40
0.554687499999989
40
0.554687499999989
40
0.558593749999989
40
0.558593749999989
40
0.562499999999989
40
0.562499999999989
40
0.59374999999999
40
0.59374999999999
40
0.609374999999991
40
0.609374999999991
40
0.617187499999991
40
0.617187499999991
40
0.624999999999991
40
0.624999999999991
40
0.656249999999993
40
0.656249999999993
40
0.687499999999994
40
0.687499999999994
40
0.703124999999994
40
0.703124999999994
40
0.710937499999994
40
0.710937499999994
40
0.718749999999995
40
0.718749999999995
40
0.749999999999995
40
0.749999999999995
40
0.781249999999996
40
0.781249999999996
40
0.812499999999996
40
0.812499999999996
40
0.843749999999996
40
0.843749999999996
40
0.874999999999997
40
0.874999999999997
40
0.890624999999998
40
0.890624999999998
40
0.906249999999999
40
0.906249999999999
40
0.937499999999999
40
0.937499999999999
40
0.96875
40
0.96875
40
1
40
1
40
1
40
1
41
1
10
10
20
9.07233040261633
30
0
41
1
10
9.58307605539619
20
9.21632577126451
30
0
41
1
10
9.17292521589275
20
9.36426646193479
30
0
41
1
10
8.56789219586375
20
9.59001390506415
30
0
41
1
10
8.36791532470414
20
9.66589624175509
30
0
41
1
10
7.97140153167817
20
9.8184902398323
30
0
41
1
10
7.77486422942911
20
9.89520266676251
30
0
41
1
10
7.38530055214363
20
10.0489399558519
30
0
41
1
10
7.19227358558487
20
10.1259660970378
30
0
41
1
10
6.95325813634241
20
10.2220519422129
30
0
41
1
10
6.90555955004149
20
10.241262645882
30
0
41
1
10
6.81068677800027
20
10.2795332894359
30
0
41
1
10
6.66905516741843
20
10.3367567925752
30
0
41
1
10
6.52946765521702
20
10.3933773358309
30
0
41
1
10
6.2530603824633
20
10.5056540947956
30
0
41
1
10
6.07247345426572
20
10.5792258863077
30
0
41
1
10
5.71901429150972
20
10.7228255324942
30
0
41
1
10
5.54613912203035
20
10.7928571331994
30
0
41
1
10
5.2930320073113
20
10.8943256363443
30
0
41
1
10
5.2096991978334
20
10.9275497268534
30
0
41
1
10
5.08632954528511
20
10.9763457793855
30
0
41
1
10
5.04547810084722
20
10.9924375698079
30
0
41
1
10
4.96433373005601
20
11.0242474591503
30
0
41
1
10
4.92405256367886
20
11.0399606841728
30
0
41
1
10
4.72504013548681
20
11.1171532345689
30
0
41
1
10
4.57269860333912
20
11.1748314800284
30
0
41
1
10
4.28271109631794
20
11.2803448794616
30
0
41
1
10
4.14505390070835
20
11.3281909008565
30
0
41
1
10
3.95082893275372
20
11.3908689672332
30
0
41
1
10
3.88813719921384
20
11.4102408990591
30
0
41
1
10
3.79740908298751
20
11.436733273877
30
0
41
1
10
3.76767048995873
20
11.4451484341954
30
0
41
1
10
3.70971400857246
20
11.4609688084353
30
0
41
1
10
3.68146762069534
20
11.4683833119216
30
0
41
1
10
3.54394670366864
20
11.5029007027927
30
0
41
1
10
3.44574795480082
20
11.5223757218194
30
0
41
1
10
3.31780329343405
20
11.5375012611008
30
0
41
1
10
3.27839158839305
20
11.5401881566573
30
0
41
1
10
3.22445880899664
20
11.5403653815192
30
0
41
1
10
3.20734637928092
20
11.5397815552305
30
0
41
1
10
3.1830274455161
20
11.5378938854067
30
0
41
1
10
3.17515623779636
20
11.537096232908
30
0
41
1
10
3.15994646787078
20
11.5351680377225
30
0
41
1
10
3.15259869665781
20
11.5340368439077
30
0
41
1
10
3.08877972270898
20
11.5223487456726
30
0
41
1
10
3.04841071812743
20
11.5012750036144
30
0
41
1
10
3.0128951949288
20
11.4529918230353
30
0
41
1
10
3.00524362561382
20
11.4341121967078
30
0
41
1
10
3.00024531995962
20
11.4014685142536
30
0
41
1
10
2.99936743819779
20
11.3840648673676
30
0
41
1
10
3.00097330740627
20
11.3650037611025
30
0
41
1
10
3.00260268706319
20
11.3519236165106
30
0
41
1
10
3.00369866527228
20
11.3451906600093
30
0
41
1
10
3.01602627338269
20
11.2832557990242
30
0
41
1
10
3.04445055560356
20
11.2182135789733
30
0
41
1
10
3.11138997468586
20
11.1069573799698
30
0
41
1
10
3.13776999828224
20
11.0675826649945
30
0
41
1
10
3.18332929548205
20
11.0051935714628
30
0
41
1
10
3.19951470246602
20
10.9838423784704
30
0
41
1
10
3.22528383818962
20
10.9509940021426
30
0
41
1
10
3.23411986331564
20
10.9399109162865
30
0
41
1
10
3.25220688445162
20
10.9175706767287
30
0
41
1
10
3.26146697816728
20
10.906301830133
30
0
41
1
10
3.34671849689656
20
10.8040162709074
30
0
41
1
10
3.4360138142381
20
10.7069711771261
30
0
41
1
10
3.5877409108715
20
10.5537719282925
30
0
41
1
10
3.64129383016066
20
10.5014273882013
30
0
41
1
10
3.72587093834301
20
10.4211431608671
30
0
41
1
10
3.75482044668721
20
10.3940425109078
30
0
41
1
10
3.81377484692055
20
10.339577082921
30
0
41
1
10
3.84379319594637
20
10.3121981147063
30
0
41
1
10
3.99646270178477
20
10.174627303118
30
0
41
1
10
4.12680780261206
20
10.0624246912016
30
0
41
1
10
4.40136955459431
20
9.83483456672096
30
0
41
1
10
4.54560110102744
20
9.71944203594833
30
0
41
1
10
4.77100306266206
20
9.544531526528
30
0
41
1
10
4.84765035630915
20
9.48592221771207
30
0
41
1
10
4.96474950676208
20
9.39760428939744
30
0
41
1
10
5.00415112191612
20
9.3680873561149
30
0
41
1
10
5.08358458257769
20
9.30896941535647
30
0
41
1
10
5.12352323253754
20
9.27943759946368
30
0
41
1
10
5.32427468949501
20
9.13191494420667
30
0
41
1
10
5.48825110818763
20
9.01433659209565
30
0
41
1
10
5.82183744042968
20
8.78002194665464
30
0
41
1
10
5.99145079073642
20
8.66328507031906
30
0
41
1
10
6.3354161857813
20
8.43054261948998
30
0
41
1
10
6.5097698486407
20
8.31453643943399
30
0
41
1
10
6.86245898001363
20
8.0830899746222
30
0
41
1
10
7.04079498610352
20
7.96764892997055
30
0
41
1
10
7.40079991252722
20
7.73713270968693
30
0
41
1
10
7.58246866335875
20
7.62205655202285
30
0
41
1
10
7.85706263610126
20
7.44956017349028
30
0
41
1
10
7.94898329596373
20
7.39205617311893
30
0
41
1
10
8.13320804593107
20
7.27722387669115
30
0
41
1
10
8.22552058474335
20
7.21988996814969
30
0
41
1
10
8.50300195888576
20
7.04808830061577
30
0
41
1
10
8.68871080559546
20
6.93381699077256
30
0
41
1
10
9.0613528142388
20
6.70562658325886
30
0
41
1
10
9.24828543337574
20
6.59170634525088
30
0
41
1
10
9.62328228843114
20
6.36417109183367
30
0
41
1
10
9.81134614349614
20
6.25055514343833
30
0
41
1
10
10
20
6.13714892866651
30
0
0
SPLINE
5
D7
100
AcDbEntity
8
1
62
256
6
ByLayer
370
18
48
1
60
0
100
AcDbSpline
70
4
71
3
72
37
73
33
40
0
40
0
40
0
40
0
40
0.171511857281045
40
0.171511857281045
40
0.257267785921565
40
0.257267785921565
40
0.343023714562085
40
0.343023714562085
40
0.428779643202604
40
0.428779643202604
40
0.450218625362734
40
0.450218625362734
40
0.471657607522865
40
0.51453557184312
40
0.51453557184312
40
0.600291500483631
40
0.600291500483631
40
0.686047429124142
40
0.686047429124142
40
0.728925393444397
40
0.728925393444397
40
0.750364375604523
40
0.750364375604523
40
0.771803357764649
40
0.771803357764649
40
0.857559286405154
40
0.857559286405154
40
0.943315215045659
40
0.943315215045659
40
0.98619317936591
40
0.98619317936591
40
1
40
1
40
1
40
1
41
1
10
10
20
-9.07233040261633
30
0
41
1
10
9.58307605539613
20
-9.21632577126454
30
0
41
1
10
9.17292521589275
20
-9.36426646193482
30
0
41
1
10
8.56789219586375
20
-9.59001390506418
30
0
41
1
10
8.36791532470411
20
-9.66589624175506
30
0
41
1
10
7.97140153167817
20
-9.81849023983227
30
0
41
1
10
7.77486422942911
20
-9.89520266676254
30
0
41
1
10
7.38530055214369
20
-10.0489399558519
30
0
41
1
10
7.19227358558484
20
-10.1259660970379
30
0
41
1
10
6.95325813634241
20
-10.222051942213
30
0
41
1
10
6.90555955004146
20
-10.241262645882
30
0
41
1
10
6.81068677800022
20
-10.2795332894359
30
0
41
1
10
6.66905516741841
20
-10.3367567925752
30
0
41
1
10
6.52946765521702
20
-10.3933773358309
30
0
41
1
10
6.25306038246327
20
-10.5056540947956
30
0
41
1
10
6.07247345426572
20
-10.5792258863078
30
0
41
1
10
5.71901429150967
20
-10.7228255324942
30
0
41
1
10
5.54613912203033
20
-10.7928571331994
30
0
41
1
10
5.29303200731127
20
-10.8943256363443
30
0
41
1
10
5.2096991978334
20
-10.9275497268534
30
0
41
1
10
5.08632954528511
20
-10.9763457793856
30
0
41
1
10
5.04547810084722
20
-10.992437569808
30
0
41
1
10
4.96433373005601
20
-11.0242474591503
30
0
41
1
10
4.92405256367886
20
-11.0399606841728
30
0
41
1
10
4.72504013548678
20
-11.1171532345689
30
0
41
1
10
4.57269860333906
20
-11.1748314800284
30
0
41
1
10
4.28271109631791
20
-11.2803448794616
30
0
41
1
10
4.14505390070835
20
-11.3281909008565
30
0
41
1
10
3.95082893275369
20
-11.3908689672332
30
0
41
1
10
3.88813719921387
20
-11.4102408990591
30
0
41
1
10
3.8081753223052
20
-11.4335895598967
30
0
41
1
10
3.78890793328307
20
-11.4391042573651
30
0
41
1
10
3.76991806218237
20
-11.4444227117446
30
0
0
SPLINE
5
D8
100
AcDbEntity
8
SK1
62
256
6
ByLayer
370
18
48
1
60
0
100
AcDbSpline
70
4
71
3
72
34
73
30
40
0
40
0
40
0
40
0
40
0.125000000000001
40
0.125000000000001
40
0.250000000000002
40
0.250000000000002
40
0.375000000000003
40
0.375000000000003
40
0.437500000000004
40
0.437500000000004
40
0.500000000000005
40
0.500000000000005
40
0.625000000000005
40
0.625000000000005
40
0.656250000000005
40
0.656250000000005
40
0.687500000000005
40
0.687500000000005
40
0.750000000000005
40
0.750000000000005
40
0.812500000000005
40
0.812500000000005
40
0.843750000000004
40
0.843750000000004
40
0.875000000000004
40
0.875000000000004
40
0.937500000000002
40
0.937500000000002
40
1
40
1
40
1
40
1
41
1
10
-52.5003287739481
20
-3.62059097355461
30
0
41
1
10
-52.4791023107682
20
-3.69580949914169
30
0
41
1
10
-52.456173666836
20
-3.7701328086529
30
0
41
1
10
-52.4062202513366
20
-3.91675156331095
30
0
41
1
10
-52.3792000011183
20
-3.98904864238443
30
0
41
1
10
-52.3201140822394
20
-4.13128549106548
30
0
41
1
10
-52.2880578558644
20
-4.20122868864783
30
0
41
1
10
-52.2351342019209
20
-4.30400502578081
30
0
41
1
10
-52.2166821098451
20
-4.33790583931534
30
0
41
1
10
-52.1779019271959
20
-4.40490146665846
30
0
41
1
10
-52.1575385793023
20
-4.43805147836142
30
0
41
1
10
-52.093380094742
20
-4.53574061166557
30
0
41
1
10
-52.0468993353633
20
-4.59806703723407
30
0
41
1
10
-51.9825062567773
20
-4.67139689881651
30
0
41
1
10
-51.9693089720826
20
-4.68583123022111
30
0
41
1
10
-51.9422155209833
20
-4.71419608571787
30
0
41
1
10
-51.9282893124733
20
-4.72815494045494
30
0
41
1
10
-51.8855899983215
20
-4.7689776324583
30
0
41
1
10
-51.8559681934236
20
-4.79473829352929
30
0
41
1
10
-51.7940523105194
20
-4.84293492664423
30
0
41
1
10
-51.7617609635258
20
-4.86537421079322
30
0
41
1
10
-51.710934585781
20
-4.89608972183805
30
0
41
1
10
-51.693592788252
20
-4.9058359097269
30
0
41
1
10
-51.6580214478988
20
-4.92423937407065
30
0
41
1
10
-51.6397301965266
20
-4.93292309713041
30
0
41
1
10
-51.583780125377
20
-4.9569645106269
30
0
41
1
10
-51.5455987975117
20
-4.97010157811332
30
0
41
1
10
-51.4673083175319
20
-4.99008231274206
30
0
41
1
10
-51.4272005227822
20
-4.99693051090844
30
0
41
1
10
-51.3860020460815
20
-5.00022676868039
30
0
0
SPLINE
5
D9
100
AcDbEntity
8
SK1
62
256
6
ByLayer
370
18
48
1
60
0
100
AcDbSpline
70
4
71
3
72
34
73
30
40
0
40
0
40
0
40
0
40
0.0625000000000001
40
0.0625000000000001
40
0.125
40
0.125
40
0.1875
40
0.1875
40
0.25
40
0.25
40
0.28125
40
0.28125
40
0.312499999999999
40
0.312499999999999
40
0.374999999999998
40
0.374999999999998
40
0.499999999999995
40
0.499999999999995
40
0.531249999999995
40
0.531249999999995
40
0.562499999999995
40
0.562499999999995
40
0.624999999999996
40
0.624999999999996
40
0.749999999999997
40
0.749999999999997
40
0.874999999999999
40
0.874999999999999
40
1
40
1
40
1
40
1
41
1
10
-51.3860020460815
20
5.00022676868039
30
0
41
1
10
-51.4271597094618
20
4.99693377635015
30
0
41
1
10
-51.4672462826171
20
4.9900941818546
30
0
41
1
10
-51.5455242136708
20
4.97012456894885
30
0
41
1
10
-51.5837142752675
20
4.95699014998107
30
0
41
1
10
-51.658355568598
20
4.92492253812571
30
0
41
1
10
-51.6938849422845
20
4.90639169663621
30
0
41
1
10
-51.7618166387264
20
4.86534206803361
30
0
41
1
10
-51.7942559781117
20
4.84279931421437
30
0
41
1
10
-51.8409760500773
20
4.80639681369991
30
0
41
1
10
-51.8562248159031
20
4.79382938651
30
0
41
1
10
-51.8861176712827
20
4.76788296468004
30
0
41
1
10
-51.9007110618413
20
4.75454548912128
30
0
41
1
10
-51.9432559764382
20
4.71379512925466
30
0
41
1
10
-51.9701014783725
20
4.68554212638855
30
0
41
1
10
-52.0468805903312
20
4.59805033156974
30
0
41
1
10
-52.0930959781036
20
4.5361050376323
30
0
41
1
10
-52.146279276313
20
4.45521167958731
30
0
41
1
10
-52.1566830990007
20
4.43885754119347
30
0
41
1
10
-52.1770537162702
20
4.4058167491863
30
0
41
1
10
-52.1870311208955
20
4.38911114781021
30
0
41
1
10
-52.2162315231511
20
4.33872068618709
30
0
41
1
10
-52.2347469485042
20
4.30473232112985
30
0
41
1
10
-52.2878314108395
20
4.20171722667834
30
0
41
1
10
-52.3199565384223
20
4.13164670884206
30
0
41
1
10
-52.3791390929746
20
3.98921323503123
30
0
41
1
10
-52.4061866509714
20
3.91684682729945
30
0
41
1
10
-52.4561716481468
20
3.77014208810513
30
0
41
1
10
-52.4791043925606
20
3.69580212206003
30
0
41
1
10
-52.5003287739482
20
3.62059097355464
30
0
0
SPLINE
5
DA
100
AcDbEntity
8
SK1
62
256
6
ByLayer
370
18
48
1
60
0
100
AcDbSpline
70
4
71
3
72
32
73
28
40
0
40
0
40
0
40
0
40
0.124999999999982
40
0.124999999999982
40
0.249999999999963
40
0.249999999999963
40
0.374999999999945
40
0.374999999999945
40
0.406249999999941
40
0.406249999999941
40
0.437499999999938
40
0.499999999999932
40
0.499999999999932
40
0.624999999999931
40
0.624999999999931
40
0.656249999999931
40
0.656249999999931
40
0.68749999999993
40
0.68749999999993
40
0.749999999999941
40
0.749999999999941
40
0.874999999999977
40
0.874999999999977
40
0.906249999999979
40
0.906249999999979
40
0.937499999999981
40
1
40
1
40
1
40
1
41
1
10
-14.0157764695459
20
6.59242894057729
30
0
41
1
10
-14.0458287908144
20
6.6375753796253
30
0
41
1
10
-14.0777095790597
20
6.68135165141678
30
0
41
1
10
-14.1456160664485
20
6.76590887596987
30
0
41
1
10
-14.1816386907667
20
6.80669170869109
30
0
41
1
10
-14.2584995514322
20
6.88489663469755
30
0
41
1
10
-14.2993317458756
20
6.92232243783545
30
0
41
1
10
-14.35399779722
20
6.96665617585003
30
0
41
1
10
-14.3651284778382
20
6.97541075031074
30
0
41
1
10
-14.3876400333972
20
6.9925614515505
30
0
41
1
10
-14.4218166346372
20
7.01777898878851
30
0
41
1
10
-14.4572545898122
20
7.04143848131534
30
0
41
1
10
-14.529923003083
20
7.08656817107874
30
0
41
1
10
-14.5807455844469
20
7.11375097789289
30
0
41
1
10
-14.6477689594914
20
7.14354340177493
30
0
41
1
10
-14.6613494138678
20
7.1492913738704
30
0
41
1
10
-14.6888796972728
20
7.1603468035685
30
0
41
1
10
-14.7028224503024
20
7.16564964334611
30
0
41
1
10
-14.7448319317882
20
7.18073146134719
30
0
41
1
10
-14.7732044950192
20
7.1897362156873
30
0
41
1
10
-14.8594560991353
20
7.21351895535656
30
0
41
1
10
-14.9184624466539
20
7.22508541231923
30
0
41
1
10
-14.9943023139084
20
7.23365556703433
30
0
41
1
10
-15.009604540326
20
7.23507501753883
30
0
41
1
10
-15.0401948935638
20
7.23728819114979
30
0
41
1
10
-15.0861089470591
20
7.23967813447453
30
0
41
1
10
-15.1321084232236
20
7.23928527151031
30
0
41
1
10
-15.1628130403699
20
7.23777548279986
30
0
0
SPLINE
5
DB
100
AcDbEntity
8
SK1
62
256
6
ByLayer
370
18
48
1
60
0
100
AcDbSpline
70
4
71
3
72
24
73
20
40
0
40
0
40
0
40
0
40
0.124999999999998
40
0.124999999999998
40
0.249999999999995
40
0.249999999999995
40
0.374999999999993
40
0.374999999999993
40
0.49999999999999
40
0.49999999999999
40
0.624999999999988
40
0.624999999999988
40
0.749999999999985
40
0.749999999999985
40
0.812499999999989
40
0.812499999999989
40
0.874999999999992
40
0.874999999999992
40
1
40
1
40
1
40
1
41
1
10
-15.1628130403699
20
-7.23777548279986
30
0
41
1
10
-15.1013368482927
20
-7.2407983526281
30
0
41
1
10
-15.0406973758297
20
-7.23880609117487
30
0
41
1
10
-14.920978556398
20
-7.22545942224767
30
0
41
1
10
-14.8618998887329
20
-7.21410077871741
30
0
41
1
10
-14.7452745335612
20
-7.18212437688828
30
0
41
1
10
-14.6895699451789
20
-7.16201960319464
30
0
41
1
10
-14.5827589175342
20
-7.11474711952985
30
0
41
1
10
-14.5316211412475
20
-7.08755690757022
30
0
41
1
10
-14.4334554488588
20
-7.02672282100497
30
0
41
1
10
-14.38751619038
20
-6.99376703919228
30
0
41
1
10
-14.3007925764322
20
-6.92357765523022
30
0
41
1
10
-14.2600161652162
20
-6.88633798514746
30
0
41
1
10
-14.2021759714483
20
-6.82763631844753
30
0
41
1
10
-14.1834523029509
20
-6.80759363972547
30
0
41
1
10
-14.1470479748901
20
-6.76660288333122
30
0
41
1
10
-14.1293429656042
20
-6.74562348347595
30
0
41
1
10
-14.0779142754528
20
-6.68164973874727
30
0
41
1
10
-14.0458764161971
20
-6.63764692539442
30
0
41
1
10
-14.0157764695459
20
-6.59242894057729
30
0
0
SPLINE
5
DC
100
AcDbEntity
8
1
62
256
6
ByLayer
370
13
48
1
60
0
100
AcDbSpline
70
4
71
3
72
77
73
73
40
0
40
0
40
0
40
0
40
0.03125
40
0.03125
40
0.0624999999999999
40
0.0624999999999999
40
0.0937499999999999
40
0.0937499999999999
40
0.125
40
0.125
40
0.15625
40
0.15625
40
0.1875
40
0.1875
40
0.1953125
40
0.1953125
40
0.203125
40
0.203125
40
0.21875
40
0.21875
40
0.25
40
0.25
40
0.28125
40
0.28125
40
0.3125
40
0.3125
40
0.34375
40
0.34375
40
0.375
40
0.375
40
0.40625
40
0.40625
40
0.4375
40
0.4375
40
0.46875
40
0.46875
40
0.499999999999999
40
0.499999999999999
40
0.531249999999999
40
0.531249999999999
40
0.562499999999999
40
0.562499999999999
40
0.593749999999999
40
0.593749999999999
40
0.6015625
40
0.6015625
40
0.609375
40
0.625
40
0.625
40
0.65625
40
0.65625
40
0.6875
40
0.6875
40
0.71875
40
0.71875
40
0.75
40
0.75
40
0.78125
40
0.78125
40
0.8125
40
0.8125
40
0.84375
40
0.84375
40
0.875
40
0.875
40
0.90625
40
0.90625
40
0.9375
40
0.9375
40
0.96875
40
0.96875
40
1
40
1
40
1
40
1
41
1
10
194.4
20
-7.23291879782576
30
0
41
1
10
194.467720114854
20
-7.52916314869441
30
0
41
1
10
194.535440229709
20
-7.8051253143897
30
0
41
1
10
194.670880459417
20
-8.31040685660693
30
0
41
1
10
194.738600574272
20
-8.53971687980697
30
0
41
1
10
194.87404080398
20
-8.94806106302698
30
0
41
1
10
194.941760918835
20
-9.12709656469002
30
0
41
1
10
195.077201148543
20
-9.43386358363236
30
0
41
1
10
195.144921263398
20
-9.56160570353632
30
0
41
1
10
195.280361493106
20
-9.76717607491977
30
0
41
1
10
195.348081607961
20
-9.84502113304291
30
0
41
1
10
195.483521837669
20
-9.95418164929154
30
0
41
1
10
195.551241952524
20
-9.98551650213088
30
0
41
1
10
195.635892096092
20
-9.99861738082416
30
0
41
1
10
195.652822124805
20
-9.99993685856907
30
0
41
1
10
195.686682182232
20
-10.000058715316
30
0
41
1
10
195.703612210946
20
-9.99886307466537
30
0
41
1
10
195.754402297087
20
-9.99138022518926
30
0
41
1
10
195.788262354514
20
-9.98119491076599
30
0
41
1
10
195.889842526795
20
-9.93409771131044
30
0
41
1
10
195.95756264165
20
-9.88059817603477
30
0
41
1
10
196.093002871358
20
-9.72523965748047
30
0
41
1
10
196.160722986213
20
-9.62336209740204
30
0
41
1
10
196.296163215921
20
-9.36876351646831
30
0
41
1
10
196.363883330776
20
-9.21602827290172
30
0
41
1
10
196.499323560484
20
-8.85944789061304
30
0
41
1
10
196.567043675339
20
-8.65559636325864
30
0
41
1
10
196.702483905048
20
-8.19905674271695
30
0
41
1
10
196.770204019902
20
-7.94637248160203
30
0
41
1
10
196.90564424961
20
-7.39702651195586
30
0
41
1
10
196.973364364465
20
-7.10037920502748
30
0
41
1
10
197.108804594173
20
-6.47027758838462
30
0
41
1
10
197.176524709028
20
-6.13684619918817
30
0
41
1
10
197.311964938737
20
-5.44208812159334
30
0
41
1
10
197.379685053591
20
-5.08078889229054
30
0
41
1
10
197.515125283299
20
-4.34017552163107
30
0
41
1
10
197.582845398154
20
-3.96088861807016
30
0
41
1
10
197.718285627863
20
-3.19430990396049
30
0
41
1
10
197.786005742717
20
-2.80704091163133
30
0
41
1
10
197.921445972425
20
-2.03387155682134
30
0
41
1
10
197.98916608728
20
-1.64798694336477
30
0
41
1
10
198.124606316988
20
-0.885736314787778
30
0
41
1
10
198.192326431843
20
-0.509378206214762
30
0
41
1
10
198.276976575411
20
-0.0489860999770713
30
0
41
1
10
198.293906604124
20
0.0423212275763944
30
0
41
1
10
198.327766661551
20
0.226429735294999
30
0
41
1
10
198.378556747692
20
0.50409017360451
30
0
41
1
10
198.429346833833
20
0.785839178328729
30
0
41
1
10
198.530927006114
20
1.3535621926261
30
0
41
1
10
198.598647120969
20
1.73772432275399
30
0
41
1
10
198.734087350678
20
2.50966645165036
30
0
41
1
10
198.801807465532
20
2.89743270801554
30
0
41
1
10
198.937247695241
20
3.66749058390928
30
0
41
1
10
199.004967810095
20
4.04976101762304
30
0
41
1
10
199.140408039804
20
4.79892346920099
30
0
41
1
10
199.208128154658
20
5.16578903031618
30
0
41
1
10
199.343568384367
20
5.87415167597311
30
0
41
1
10
199.411288499221
20
6.2156209048436
30
0
41
1
10
199.54672872893
20
6.86394568955706
30
0
41
1
10
199.614448843784
20
7.17077672894831
30
0
41
1
10
199.749889073493
20
7.74212908635982
30
0
41
1
10
199.817609188347
20
8.00663353443969
30
0
41
1
10
199.953049418056
20
8.48782228265071
30
0
41
1
10
200.02076953291
20
8.70449998193629
30
0
41
1
10
200.156209762619
20
9.08707061347016
30
0
41
1
10
200.223929877473
20
9.25296747671115
30
0
41
1
10
200.359370107182
20
9.53359637673279
30
0
41
1
10
200.427090222036
20
9.6483409374456
30
0
41
1
10
200.562530451745
20
9.82861359260559
30
0
41
1
10
200.630250566599
20
9.89415949883278
30
0
41
1
10
200.765690796308
20
9.97984294803373
30
0
41
1
10
200.833410911162
20
10
30
0
41
1
10
200.901131026016
20
10
30
0
0
SPLINE
5
DD
100
AcDbEntity
8
1
62
256
6
ByLayer
370
13
48
1
60
0
100
AcDbSpline
70
4
71
3
72
42
73
38
40
0
40
0
40
0
40
0
40
0.0625000000000005
40
0.0625000000000005
40
0.125000000000001
40
0.125000000000001
40
0.187500000000002
40
0.187500000000002
40
0.250000000000002
40
0.250000000000002
40
0.312500000000002
40
0.312500000000002
40
0.375000000000003
40
0.375000000000003
40
0.437500000000003
40
0.437500000000003
40
0.500000000000004
40
0.500000000000004
40
0.562500000000005
40
0.562500000000005
40
0.625000000000005
40
0.625000000000005
40
0.640625000000005
40
0.640625000000005
40
0.656250000000005
40
0.656250000000005
40
0.687500000000004
40
0.687500000000004
40
0.750000000000003
40
0.750000000000003
40
0.812500000000003
40
0.812500000000003
40
0.875000000000002
40
0.875000000000002
40
0.937500000000001
40
0.937500000000001
40
1
40
1
40
1
40
1
41
1
10
200.833647148812
20
10
30
0
41
1
10
200.917535701072
20
10
30
0
41
1
10
201.001424253334
20
9.96903146161691
30
0
41
1
10
201.169201357855
20
9.83579534837736
30
0
41
1
10
201.253089910116
20
9.73347139920367
30
0
41
1
10
201.420867014638
20
9.45139569550682
30
0
41
1
10
201.504755566899
20
9.27159829534054
30
0
41
1
10
201.672532671421
20
8.83337544787898
30
0
41
1
10
201.756421223682
20
8.57493080360462
30
0
41
1
10
201.924198328204
20
7.9841738655625
30
0
41
1
10
202.008086880465
20
7.65187939691182
30
0
41
1
10
202.175863984987
20
6.92419665366793
30
0
41
1
10
202.259752537248
20
6.52886247161919
30
0
41
1
10
202.42752964177
20
5.69079297163674
30
0
41
1
10
202.511418194031
20
5.24813473393891
30
0
41
1
10
202.679195298553
20
4.3339990141925
30
0
41
1
10
202.763083850814
20
3.86260115881103
30
0
41
1
10
202.930860955336
20
2.91002477790067
30
0
41
1
10
203.014749507597
20
2.42890960029155
30
0
41
1
10
203.182526612119
20
1.4741817753694
30
0
41
1
10
203.26641516438
20
1.00060577988052
30
0
41
1
10
203.371275854706
20
0.422072958652763
30
0
41
1
10
203.392247992771
20
0.307029061482211
30
0
41
1
10
203.434192268902
20
0.0784464329893524
30
0
41
1
10
203.455164406967
20
-0.0346100629479054
30
0
41
1
10
203.518080821162
20
-0.376899899199202
30
0
41
1
10
203.560025097293
20
-0.608155182922303
30
0
41
1
10
203.685857925684
20
-1.30888006270712
30
0
41
1
10
203.769746477945
20
-1.7854187199103
30
0
41
1
10
203.937523582467
20
-2.74255869804287
30
0
41
1
10
204.021412134728
20
-3.22311719023716
30
0
41
1
10
204.18918923925
20
-4.17052313525375
30
0
41
1
10
204.273077791511
20
-4.63730245228746
30
0
41
1
10
204.440854896033
20
-5.53803145213772
30
0
41
1
10
204.524743448294
20
-5.9719002689246
30
0
41
1
10
204.692520552816
20
-6.78863831418204
30
0
41
1
10
204.776409105077
20
-7.17143384786055
30
0
41
1
10
204.860297657338
20
-7.52131874126019
30
0
0
SPLINE
5
DE
100
AcDbEntity
8
1
62
256
6
ByLayer
370
13
48
1
60
0
100
AcDbSpline
70
4
71
3
72
76
73
72
40
0
40
0
40
0
40
0
40
0.0312500000000015
40
0.0312500000000015
40
0.0625000000000031
40
0.0625000000000031
40
0.0937500000000046
40
0.0937500000000046
40
0.125000000000006
40
0.125000000000006
40
0.132812500000006
40
0.132812500000006
40
0.140625000000006
40
0.156250000000005
40
0.156250000000005
40
0.187500000000003
40
0.187500000000003
40
0.218750000000001
40
0.218750000000001
40
0.249999999999999
40
0.249999999999999
40
0.281249999999997
40
0.281249999999997
40
0.312499999999995
40
0.312499999999995
40
0.343749999999993
40
0.343749999999993
40
0.374999999999991
40
0.374999999999991
40
0.406249999999989
40
0.406249999999989
40
0.437499999999987
40
0.437499999999987
40
0.468749999999985
40
0.468749999999985
40
0.499999999999983
40
0.499999999999983
40
0.531249999999981
40
0.531249999999981
40
0.562499999999979
40
0.562499999999979
40
0.570312499999979
40
0.570312499999979
40
0.578124999999979
40
0.593749999999979
40
0.593749999999979
40
0.624999999999981
40
0.624999999999981
40
0.656249999999982
40
0.656249999999982
40
0.687499999999984
40
0.687499999999984
40
0.718749999999986
40
0.718749999999986
40
0.749999999999987
40
0.749999999999987
40
0.781249999999989
40
0.781249999999989
40
0.812499999999991
40
0.812499999999991
40
0.843749999999992
40
0.843749999999992
40
0.874999999999994
40
0.874999999999994
40
0.906249999999995
40
0.906249999999995
40
0.937499999999997
40
0.937499999999997
40
0.968749999999998
40
0.968749999999998
40
1
40
1
40
1
40
1
41
1
10
194.4
20
-8.99658019784246
30
0
41
1
10
194.462564949289
20
-9.16487543396019
30
0
41
1
10
194.525129898578
20
-9.31140558515838
30
0
41
1
10
194.650259797155
20
-9.56090601130234
30
0
41
1
10
194.712824746444
20
-9.66388521436045
30
0
41
1
10
194.837954645022
20
-9.82792806972245
30
0
41
1
10
194.90051959431
20
-9.88900379141919
30
0
41
1
10
195.025649492888
20
-9.9722274373249
30
0
41
1
10
195.088214442177
20
-9.99438850309718
30
0
41
1
10
195.166420628788
20
-10.0002256337187
30
0
41
1
10
195.18206186611
20
-10.000309382726
30
0
41
1
10
195.213344340754
20
-9.99831741246211
30
0
41
1
10
195.260268052721
20
-9.99206376567699
30
0
41
1
10
195.307191764688
20
-9.97571270061198
30
0
41
1
10
195.401039188621
20
-9.92880791649921
30
0
41
1
10
195.46360413791
20
-9.87856725456544
30
0
41
1
10
195.588734036487
20
-9.73688434877758
30
0
41
1
10
195.651298985776
20
-9.64542954970435
30
0
41
1
10
195.776428884353
20
-9.41927104907322
30
0
41
1
10
195.838993833642
20
-9.28455736555003
30
0
41
1
10
195.96412373222
20
-8.97141882382505
30
0
41
1
10
196.026688681509
20
-8.79298859542061
30
0
41
1
10
196.151818580086
20
-8.39377774503214
30
0
41
1
10
196.214383529375
20
-8.17299790038163
30
0
41
1
10
196.339513427953
20
-7.69234576619786
30
0
41
1
10
196.402078377241
20
-7.43248093640264
30
0
41
1
10
196.527208275819
20
-6.87869130396044
30
0
41
1
10
196.589773225108
20
-6.58477990570952
30
0
41
1
10
196.714903123685
20
-5.96938703009056
30
0
41
1
10
196.777468072974
20
-5.64792298719371
30
0
41
1
10
196.902597971552
20
-4.98490112237945
30
0
41
1
10
196.965162920841
20
-4.64336213170824
30
0
41
1
10
197.090292819418
20
-3.94809844060768
30
0
41
1
10
197.152857768707
20
-3.59439127397135
30
0
41
1
10
197.277987667285
20
-2.88257535555826
30
0
41
1
10
197.340552616573
20
-2.52448070135864
30
0
41
1
10
197.465682515151
20
-1.81106793413443
30
0
41
1
10
197.52824746444
20
-1.45575927451395
30
0
41
1
10
197.653377363017
20
-0.754133602842444
30
0
41
1
10
197.715942312306
20
-0.407821183037129
30
0
41
1
10
197.794148498917
20
0.0162986751356584
30
0
41
1
10
197.809789736239
20
0.100811432225299
30
0
41
1
10
197.841072210884
20
0.271246774104526
30
0
41
1
10
197.887995922851
20
0.528156761404489
30
0
41
1
10
197.934919634817
20
0.788514527916163
30
0
41
1
10
198.02876705875
20
1.31285776825243
30
0
41
1
10
198.091332008039
20
1.66729130645103
30
0
41
1
10
198.216461906617
20
2.37985283418547
30
0
41
1
10
198.279026855905
20
2.73797203348988
30
0
41
1
10
198.404156754483
20
3.45084837946436
30
0
41
1
10
198.466721703772
20
3.80559200687921
30
0
41
1
10
198.591851602349
20
4.50399634849288
30
0
41
1
10
198.654416551638
20
4.84763988550157
30
0
41
1
10
198.779546450216
20
5.51592446895614
30
0
41
1
10
198.842111399504
20
5.84054670859803
30
0
41
1
10
198.967241298082
20
6.46321890889641
30
0
41
1
10
199.029806247371
20
6.76125108471518
30
0
41
1
10
199.154936145948
20
7.32408272273381
30
0
41
1
10
199.217501095237
20
7.58886810357893
30
0
41
1
10
199.342630993815
20
8.07994321143704
30
0
41
1
10
199.405195943104
20
8.30622460544788
30
0
41
1
10
199.530325841681
20
8.71676957386899
30
0
41
1
10
199.59289079097
20
8.90103147444353
30
0
41
1
10
199.718020689548
20
9.22590848980735
30
0
41
1
10
199.780585638836
20
9.36652821796312
30
0
41
1
10
199.905715537414
20
9.60433840934735
30
0
41
1
10
199.968280486703
20
9.70153834623164
30
0
41
1
10
200.09341038528
20
9.85435529954682
30
0
41
1
10
200.155975334569
20
9.90998464720562
30
0
41
1
10
200.281105233147
20
9.98280042660758
30
0
41
1
10
200.343670182436
20
10
30
0
41
1
10
200.406235131724
20
10
30
0
0
SPLINE
5
DF
100
AcDbEntity
8
1
62
256
6
ByLayer
370
13
48
1
60
0
100
AcDbSpline
70
4
71
3
72
42
73
38
40
0
40
0
40
0
40
0
40
0.0625000000000006
40
0.0625000000000006
40
0.125000000000001
40
0.125000000000001
40
0.187500000000002
40
0.187500000000002
40
0.250000000000002
40
0.250000000000002
40
0.312500000000003
40
0.312500000000003
40
0.375000000000003
40
0.375000000000003
40
0.437500000000004
40
0.437500000000004
40
0.500000000000004
40
0.500000000000004
40
0.562500000000005
40
0.562500000000005
40
0.578125000000005
40
0.578125000000005
40
0.593750000000004
40
0.593750000000004
40
0.625000000000004
40
0.625000000000004
40
0.687500000000003
40
0.687500000000003
40
0.750000000000003
40
0.750000000000003
40
0.812500000000002
40
0.812500000000002
40
0.875000000000001
40
0.875000000000001
40
0.937500000000001
40
0.937500000000001
40
1
40
1
40
1
40
1
41
1
10
200.338751254519
20
10
30
0
41
1
10
200.432950137911
20
10
30
0
41
1
10
200.527149021304
20
9.96091384409434
30
0
41
1
10
200.715546788088
20
9.79155122997329
30
0
41
1
10
200.80974567148
20
9.66117530339807
30
0
41
1
10
200.998143438264
20
9.30165951925784
30
0
41
1
10
201.092342321656
20
9.07244765415837
30
0
41
1
10
201.28074008844
20
8.51602673836601
30
0
41
1
10
201.374938971832
20
8.18880664751373
30
0
41
1
10
201.563336738616
20
7.44684315904192
30
0
41
1
10
201.657535622008
20
7.03216490478212
30
0
41
1
10
201.845933388792
20
6.13468600979544
30
0
41
1
10
201.940132272184
20
5.65201067989122
30
0
41
1
10
202.128530038968
20
4.64391548674394
30
0
41
1
10
202.22272892236
20
4.11863977524044
30
0
41
1
10
202.411126689145
20
3.05248189150285
30
0
41
1
10
202.505325572537
20
2.51171814365594
30
0
41
1
10
202.693723339321
20
1.43938064740539
30
0
41
1
10
202.787922222713
20
0.907873177786627
30
0
41
1
10
202.905670826953
20
0.261485837726724
30
0
41
1
10
202.929220547801
20
0.133093493971927
30
0
41
1
10
202.976319989497
20
-0.12167708757309
30
0
41
1
10
202.999869710345
20
-0.249953797904311
30
0
41
1
10
203.070518872889
20
-0.637627374753123
30
0
41
1
10
203.117618314585
20
-0.899644327614539
30
0
41
1
10
203.258916639673
20
-1.69303816808778
30
0
41
1
10
203.353115523065
20
-2.23191751918958
30
0
41
1
10
203.541513289849
20
-3.30735037803612
30
0
41
1
10
203.635712173241
20
-3.84381023012455
30
0
41
1
10
203.824109940025
20
-4.88808542755785
30
0
41
1
10
203.918308823418
20
-5.39576488259044
30
0
41
1
10
204.106706590202
20
-6.3556654266859
30
0
41
1
10
204.200905473594
20
-6.80774566988759
30
0
41
1
10
204.389303240378
20
-7.63345292443989
30
0
41
1
10
204.48350212377
20
-8.0069802786841
30
0
41
1
10
204.671899890554
20
-8.66018856989223
30
0
41
1
10
204.766098773946
20
-8.93984194276467
30
0
41
1
10
204.860297657338
20
-9.16967747363114
30
0
0
SPLINE
5
E0
100
AcDbEntity
8
1
62
256
6
ByLayer
370
13
48
1
60
0
100
AcDbSpline
70
4
71
3
72
78
73
74
40
0
40
0
40
0
40
0
40
0.0312499999999981
40
0.0312499999999981
40
0.0468749999999971
40
0.0468749999999971
40
0.0546874999999961
40
0.0546874999999961
40
0.0624999999999951
40
0.0624999999999951
40
0.0937499999999932
40
0.0937499999999932
40
0.124999999999991
40
0.124999999999991
40
0.156249999999989
40
0.156249999999989
40
0.187499999999987
40
0.187499999999987
40
0.218749999999985
40
0.218749999999985
40
0.249999999999984
40
0.249999999999984
40
0.281249999999982
40
0.281249999999982
40
0.31249999999998
40
0.31249999999998
40
0.343749999999978
40
0.343749999999978
40
0.374999999999976
40
0.374999999999976
40
0.406249999999974
40
0.406249999999974
40
0.437499999999972
40
0.437499999999972
40
0.46874999999997
40
0.46874999999997
40
0.499999999999969
40
0.499999999999969
40
0.515624999999968
40
0.515624999999968
40
0.523437499999968
40
0.523437499999968
40
0.531249999999968
40
0.531249999999968
40
0.56249999999997
40
0.56249999999997
40
0.593749999999972
40
0.593749999999972
40
0.624999999999974
40
0.624999999999974
40
0.656249999999976
40
0.656249999999976
40
0.687499999999978
40
0.687499999999978
40
0.718749999999981
40
0.718749999999981
40
0.749999999999983
40
0.749999999999983
40
0.781249999999985
40
0.781249999999985
40
0.812499999999987
40
0.812499999999987
40
0.843749999999989
40
0.843749999999989
40
0.874999999999991
40
0.874999999999991
40
0.906249999999994
40
0.906249999999994
40
0.937499999999996
40
0.937499999999996
40
0.968749999999998
40
0.968749999999998
40
1
40
1
40
1
40
1
41
1
10
194.4
20
-9.87749332329503
30
0
41
1
10
194.457409783723
20
-9.92882723984749
30
0
41
1
10
194.514819567446
20
-9.96327601021432
30
0
41
1
10
194.600934243031
20
-9.9916967902966
30
0
41
1
10
194.629639134893
20
-9.99730026690517
30
0
41
1
10
194.672696472685
20
-10.0001991541497
30
0
41
1
10
194.687048918616
20
-10.0002540718235
30
0
41
1
10
194.715753810478
20
-9.99854590125261
30
0
41
1
10
194.730106256409
20
-9.99677589516764
30
0
41
1
10
194.801868486063
20
-9.98321927452938
30
0
41
1
10
194.859278269786
20
-9.95729081510493
30
0
41
1
10
194.974097837233
20
-9.87233691878785
30
0
41
1
10
195.031507620956
20
-9.81330294140031
30
0
41
1
10
195.146327188402
20
-9.65990091338202
30
0
41
1
10
195.203736972126
20
-9.5655250525005
30
0
41
1
10
195.318556539572
20
-9.34016163535046
30
0
41
1
10
195.375966323295
20
-9.20916814012119
30
0
41
1
10
195.490785890742
20
-8.91046206072232
30
0
41
1
10
195.548195674465
20
-8.74274649607131
30
0
41
1
10
195.663015241911
20
-8.37179697428024
30
0
41
1
10
195.720425025635
20
-8.1685637789459
30
0
41
1
10
195.835244593081
20
-7.72912370048235
30
0
41
1
10
195.892654376805
20
-7.49292157812445
30
0
41
1
10
196.007473944251
20
-6.99134992195724
30
0
41
1
10
196.064883727974
20
-6.72598875870619
30
0
41
1
10
196.179703295421
20
-6.17096774042002
30
0
41
1
10
196.237113079144
20
-5.88131887078174
30
0
41
1
10
196.351932646591
20
-5.28335886641696
30
0
41
1
10
196.409342430314
20
-4.97505992986666
30
0
41
1
10
196.52416199776
20
-4.34585044287553
30
0
41
1
10
196.581571781484
20
-4.02495179237278
30
0
41
1
10
196.69639134893
20
-3.37664043329207
30
0
41
1
10
196.753801132654
20
-3.04923801034641
30
0
41
1
10
196.8686207001
20
-2.39372595676946
30
0
41
1
10
196.926030483823
20
-2.06562409789427
30
0
41
1
10
197.04085005127
20
-1.41395540410551
30
0
41
1
10
197.098259834993
20
-1.09039343470471
30
0
41
1
10
197.184374510578
20
-0.611816997428264
30
0
41
1
10
197.213079402439
20
-0.453412934229192
30
0
41
1
10
197.256136740232
20
-0.217849322620083
30
0
41
1
10
197.270489186163
20
-0.13966810816413
30
0
41
1
10
197.299194078024
20
0.0159594128507479
30
0
41
1
10
197.313546523955
20
0.0935181770380211
30
0
41
1
10
197.385308753609
20
0.484281516361648
30
0
41
1
10
197.442718537332
20
0.802602488595056
30
0
41
1
10
197.557538104779
20
1.44672035973528
30
0
41
1
10
197.614947888502
20
1.77251421703008
30
0
41
1
10
197.729767455949
20
2.42680270066336
30
0
41
1
10
197.787177239672
20
2.7552913800331
30
0
41
1
10
197.901996807118
20
3.40949869890227
30
0
41
1
10
197.959406590842
20
3.73520857034174
30
0
41
1
10
198.074226158288
20
4.37791332792548
30
0
41
1
10
198.131635942012
20
4.69489720543652
30
0
41
1
10
198.246455509458
20
5.31403032245177
30
0
41
1
10
198.303865293181
20
5.61616738324622
30
0
41
1
10
198.418684860628
20
6.19966493422305
30
0
41
1
10
198.476094644351
20
6.4810134949702
30
0
41
1
10
198.590914211797
20
7.01753722683992
30
0
41
1
10
198.648323995521
20
7.27270222595439
30
0
41
1
10
198.763143562967
20
7.75234447186415
30
0
41
1
10
198.820553346691
20
7.97681458780087
30
0
41
1
10
198.935372914137
20
8.39169934890208
30
0
41
1
10
198.99278269786
20
8.58211069218845
30
0
41
1
10
199.107602265307
20
8.92681582517497
30
0
41
1
10
199.16501204903
20
9.08111028951336
30
0
41
1
10
199.279831616477
20
9.35286457148152
30
0
41
1
10
199.3372414002
20
9.4703285690037
30
0
41
1
10
199.452060967646
20
9.66897462809354
30
0
41
1
10
199.50947075137
20
9.75016345042366
30
0
41
1
10
199.624290318816
20
9.87791363700836
30
0
41
1
10
199.681700102539
20
9.9244832080272
30
0
41
1
10
199.796519669986
20
9.98552211583743
30
0
41
1
10
199.853929453709
20
10
30
0
41
1
10
199.911339237432
20
10
30
0
0
SPLINE
5
E1
100
AcDbEntity
8
1
62
256
6
ByLayer
370
13
48
1
60
0
100
AcDbSpline
70
4
71
3
72
66
73
62
40
0
40
0
40
0
40
0
40
0.0625000000000038
40
0.0625000000000038
40
0.0937500000000062
40
0.0937500000000062
40
0.125000000000008
40
0.125000000000008
40
0.156250000000011
40
0.156250000000011
40
0.187500000000013
40
0.187500000000013
40
0.218750000000016
40
0.218750000000016
40
0.250000000000018
40
0.250000000000018
40
0.28125000000002
40
0.28125000000002
40
0.312500000000023
40
0.312500000000023
40
0.343750000000025
40
0.343750000000025
40
0.375000000000028
40
0.375000000000028
40
0.40625000000003
40
0.40625000000003
40
0.437500000000032
40
0.437500000000032
40
0.500000000000036
40
0.500000000000036
40
0.515625000000037
40
0.515625000000037
40
0.523437500000037
40
0.523437500000037
40
0.531250000000037
40
0.531250000000037
40
0.562500000000035
40
0.562500000000035
40
0.62500000000003
40
0.62500000000003
40
0.656250000000028
40
0.656250000000028
40
0.687500000000025
40
0.687500000000025
40
0.718750000000023
40
0.718750000000023
40
0.75000000000002
40
0.75000000000002
40
0.781250000000018
40
0.781250000000018
40
0.812500000000015
40
0.812500000000015
40
0.843750000000013
40
0.843750000000013
40
0.875000000000011
40
0.875000000000011
40
0.906250000000008
40
0.906250000000008
40
0.937500000000006
40
0.937500000000006
40
1
40
1
40
1
40
1
41
1
10
199.843855360227
20
10
30
0
41
1
10
199.948364574751
20
10
30
0
41
1
10
200.052873789274
20
9.95183563134697
30
0
41
1
10
200.209637611058
20
9.79426390579397
30
0
41
1
10
200.26189221832
20
9.72756617103423
30
0
41
1
10
200.366401432843
20
9.56442162335395
30
0
41
1
10
200.418656040105
20
9.46797026595559
30
0
41
1
10
200.523165254628
20
9.24462221735797
30
0
41
1
10
200.575419861889
20
9.11772225358655
30
0
41
1
10
200.679929076412
20
8.83361592680345
30
0
41
1
10
200.732183683674
20
8.67640809892174
30
0
41
1
10
200.836692898197
20
8.33273320943277
30
0
41
1
10
200.888947505459
20
8.14626685636867
30
0
41
1
10
200.993456719982
20
7.74604286909641
30
0
41
1
10
201.045711327244
20
7.53228822108125
30
0
41
1
10
201.150220541767
20
7.080321081384
30
0
41
1
10
201.202475149028
20
6.84211365026229
30
0
41
1
10
201.306984363551
20
6.34481806864548
30
0
41
1
10
201.359238970813
20
6.08573655975889
30
0
41
1
10
201.463748185336
20
5.55083592241428
30
0
41
1
10
201.516002792598
20
5.27502431418958
30
0
41
1
10
201.620512007121
20
4.71115723535158
30
0
41
1
10
201.672766614382
20
4.42310937662464
30
0
41
1
10
201.777275828905
20
3.83938414001929
30
0
41
1
10
201.829530436167
20
3.54371372946679
30
0
41
1
10
201.93403965069
20
2.94925686199025
30
0
41
1
10
201.986294257952
20
2.65047615445906
30
0
41
1
10
202.143058079737
20
1.75578967028471
30
0
41
1
10
202.247567294259
20
1.16182437869043
30
0
41
1
10
202.378203812413
20
0.439987059928228
30
0
41
1
10
202.404331116044
20
0.296629011405116
30
0
41
1
10
202.44352207149
20
0.0833670958781454
30
0
41
1
10
202.456585723306
20
0.0127754234642907
30
0
41
1
10
202.482713026937
20
-0.12885548266425
30
0
41
1
10
202.495776678752
20
-0.199975700321886
30
0
41
1
10
202.561094937829
20
-0.556997456578415
30
0
41
1
10
202.613349545091
20
-0.847184169890653
30
0
41
1
10
202.770113366875
20
-1.72693042521047
30
0
41
1
10
202.874622581399
20
-2.32591345803138
30
0
41
1
10
203.031386403183
20
-3.22015501115879
30
0
41
1
10
203.083641010445
20
-3.51746534005127
30
0
41
1
10
203.188150224968
20
-4.10613169449201
30
0
41
1
10
203.240404832229
20
-4.39748113994364
30
0
41
1
10
203.344914046753
20
-4.96962529341121
30
0
41
1
10
203.397168654014
20
-5.25041254507909
30
0
41
1
10
203.501677868537
20
-5.79686849009013
30
0
41
1
10
203.553932475799
20
-6.06252953875119
30
0
41
1
10
203.658441690322
20
-6.5744352232108
30
0
41
1
10
203.710696297583
20
-6.82067280962332
30
0
41
1
10
203.815205512107
20
-7.28992318744835
30
0
41
1
10
203.867460119368
20
-7.51293027365168
30
0
41
1
10
203.971969333891
20
-7.93259488519757
30
0
41
1
10
204.024223941153
20
-8.12924863103888
30
0
41
1
10
204.128733155676
20
-8.49390973654974
30
0
41
1
10
204.180987762938
20
-8.66191555663136
30
0
41
1
10
204.285496977461
20
-8.96789265156076
30
0
41
1
10
204.337751584722
20
-9.10586463198234
30
0
41
1
10
204.442260799246
20
-9.35130679111745
30
0
41
1
10
204.494515406507
20
-9.45877964109562
30
0
41
1
10
204.651279228292
20
-9.73604797982998
30
0
41
1
10
204.755788442815
20
-9.86039355788742
30
0
41
1
10
204.860297657338
20
-9.93014605044857
30
0
0
SPLINE
5
E2
100
AcDbEntity
8
1
62
256
6
ByLayer
370
13
48
1
60
0
100
AcDbSpline
70
4
71
3
72
66
73
62
40
0
40
0
40
0
40
0
40
0.0625000000000053
40
0.0625000000000053
40
0.0937500000000079
40
0.0937500000000079
40
0.12500000000001
40
0.12500000000001
40
0.156250000000013
40
0.156250000000013
40
0.187500000000016
40
0.187500000000016
40
0.218750000000018
40
0.218750000000018
40
0.250000000000021
40
0.250000000000021
40
0.281250000000023
40
0.281250000000023
40
0.312500000000026
40
0.312500000000026
40
0.343750000000029
40
0.343750000000029
40
0.375000000000031
40
0.375000000000031
40
0.437500000000036
40
0.437500000000036
40
0.468750000000039
40
0.468750000000039
40
0.476562500000039
40
0.476562500000039
40
0.484375000000039
40
0.484375000000039
40
0.500000000000038
40
0.500000000000038
40
0.562500000000033
40
0.562500000000033
40
0.593750000000031
40
0.593750000000031
40
0.625000000000029
40
0.625000000000029
40
0.656250000000026
40
0.656250000000026
40
0.687500000000024
40
0.687500000000024
40
0.718750000000022
40
0.718750000000022
40
0.750000000000019
40
0.750000000000019
40
0.781250000000017
40
0.781250000000017
40
0.812500000000015
40
0.812500000000015
40
0.843750000000012
40
0.843750000000012
40
0.87500000000001
40
0.87500000000001
40
0.906250000000007
40
0.906250000000007
40
0.937500000000005
40
0.937500000000005
40
1
40
1
40
1
40
1
41
1
10
194.4
20
-9.93014674859745
30
0
41
1
10
194.504509236315
20
-9.86039460313955
30
0
41
1
10
194.609018472631
20
-9.73604937710942
30
0
41
1
10
194.765782327104
20
-9.45878154417599
30
0
41
1
10
194.818036945262
20
-9.35130885902481
30
0
41
1
10
194.922546181577
20
-9.10586701670189
30
0
41
1
10
194.974800799735
20
-8.96789518825219
30
0
41
1
10
195.07931003605
20
-8.66191837933997
30
0
41
1
10
195.131564654208
20
-8.49391269329038
30
0
41
1
10
195.236073890523
20
-8.12925183347247
30
0
41
1
10
195.288328508681
20
-7.93259819928073
30
0
41
1
10
195.392837744996
20
-7.51293378523434
30
0
41
1
10
195.445092363154
20
-7.28992678487336
30
0
41
1
10
195.54960159947
20
-6.82067655081158
30
0
41
1
10
195.601856217627
20
-6.57443902231722
30
0
41
1
10
195.706365453943
20
-6.06253342511749
30
0
41
1
10
195.7586200721
20
-5.79687240580057
30
0
41
1
10
195.863129308416
20
-5.25041649171928
30
0
41
1
10
195.915383926574
20
-4.96962924164407
30
0
41
1
10
196.019893162889
20
-4.39748506575017
30
0
41
1
10
196.072147781047
20
-4.1061355962899
30
0
41
1
10
196.176657017362
20
-3.51746917143061
30
0
41
1
10
196.22891163552
20
-3.22015879614014
30
0
41
1
10
196.385675489993
20
-2.32591707611644
30
0
41
1
10
196.490184726309
20
-1.72693389511997
30
0
41
1
10
196.646948580782
20
-0.847187387948452
30
0
41
1
10
196.699203198939
20
-0.557000585762637
30
0
41
1
10
196.764521471636
20
-0.199978714785459
30
0
41
1
10
196.777585126176
20
-0.128858474001305
30
0
41
1
10
196.803712435255
20
0.012772478685946
30
0
41
1
10
196.816776089794
20
0.0833641542056967
30
0
41
1
10
196.855967053412
20
0.296626089804136
30
0
41
1
10
196.882094362491
20
0.439984153335246
30
0
41
1
10
197.012730907885
20
1.16182155536467
30
0
41
1
10
197.117240144201
20
1.75578694032308
30
0
41
1
10
197.274003998674
20
2.65047360167483
30
0
41
1
10
197.326258616832
20
2.94925437436771
30
0
41
1
10
197.430767853147
20
3.54371138279399
30
0
41
1
10
197.483022471305
20
3.83938186913244
30
0
41
1
10
197.58753170762
20
4.42310726564435
30
0
41
1
10
197.639786325778
20
4.7111552084871
30
0
41
1
10
197.744295562093
20
5.27502246098976
30
0
41
1
10
197.796550180251
20
5.55083415875612
30
0
41
1
10
197.901059416567
20
6.08573497728852
30
0
41
1
10
197.953314034724
20
6.34481657781245
30
0
41
1
10
198.05782327104
20
6.84211234129785
30
0
41
1
10
198.110077889197
20
7.08031986264155
30
0
41
1
10
198.214587125513
20
7.5322871779604
30
0
41
1
10
198.266841743671
20
7.7460419113668
30
0
41
1
10
198.371350979986
20
8.14626606154727
30
0
41
1
10
198.423605598144
20
8.33273249212192
30
0
41
1
10
198.528114834459
20
8.67640752629538
30
0
41
1
10
198.580369452617
20
8.83361542134745
30
0
41
1
10
198.684878688932
20
9.11772187041365
30
0
41
1
10
198.73713330709
20
9.24462188929726
30
0
41
1
10
198.841642543405
20
9.46797003514516
30
0
41
1
10
198.893897161563
20
9.56442143468371
30
0
41
1
10
198.998406397879
20
9.72756605353396
30
0
41
1
10
199.050661016036
20
9.79426381732762
30
0
41
1
10
199.207424870509
20
9.95183561113831
30
0
41
1
10
199.311934106825
20
10
30
0
41
1
10
199.41644334314
20
10
30
0
0
SPLINE
5
E3
100
AcDbEntity
8
1
62
256
6
ByLayer
370
13
48
1
60
0
100
AcDbSpline
70
4
71
3
72
77
73
73
40
0
40
0
40
0
40
0
40
0.0312500000000002
40
0.0312500000000002
40
0.0625000000000005
40
0.0625000000000005
40
0.0937500000000007
40
0.0937500000000007
40
0.125000000000001
40
0.125000000000001
40
0.156250000000001
40
0.156250000000001
40
0.187500000000001
40
0.187500000000001
40
0.218750000000002
40
0.218750000000002
40
0.250000000000002
40
0.250000000000002
40
0.281250000000002
40
0.281250000000002
40
0.312500000000002
40
0.312500000000002
40
0.343750000000003
40
0.343750000000003
40
0.375000000000003
40
0.375000000000003
40
0.406250000000003
40
0.406250000000003
40
0.437500000000003
40
0.437500000000003
40
0.468750000000004
40
0.468750000000004
40
0.476562500000004
40
0.476562500000004
40
0.484375000000005
40
0.500000000000005
40
0.500000000000005
40
0.531250000000005
40
0.531250000000005
40
0.562500000000006
40
0.562500000000006
40
0.593750000000006
40
0.593750000000006
40
0.625000000000006
40
0.625000000000006
40
0.656250000000006
40
0.656250000000006
40
0.687500000000007
40
0.687500000000007
40
0.718750000000007
40
0.718750000000007
40
0.750000000000007
40
0.750000000000007
40
0.781250000000007
40
0.781250000000007
40
0.812500000000008
40
0.812500000000008
40
0.843750000000008
40
0.843750000000008
40
0.875000000000008
40
0.875000000000008
40
0.906250000000008
40
0.906250000000008
40
0.937500000000009
40
0.937500000000009
40
0.945312500000008
40
0.945312500000008
40
0.953125000000007
40
0.953125000000007
40
0.968750000000005
40
0.968750000000005
40
1
40
1
40
1
40
1
41
1
10
199.348959465935
20
10
30
0
41
1
10
199.406369238762
20
10
30
0
41
1
10
199.46377901159
20
9.98552212134123
30
0
41
1
10
199.578598557244
20
9.92448323727817
30
0
41
1
10
199.636008330071
20
9.87791368451084
30
0
41
1
10
199.750827875725
20
9.75016354839997
30
0
41
1
10
199.808237648552
20
9.66897475829967
30
0
41
1
10
199.923057194206
20
9.47032877811745
30
0
41
1
10
199.980466967033
20
9.35286482727832
30
0
41
1
10
200.095286512688
20
9.08111065265081
30
0
41
1
10
200.152696285515
20
8.92681624897159
30
0
41
1
10
200.267515831169
20
8.58211124974622
30
0
41
1
10
200.324925603996
20
8.39169997955872
30
0
41
1
10
200.43974514965
20
7.97681537452598
30
0
41
1
10
200.497154922478
20
7.75234534155106
30
0
41
1
10
200.611974468132
20
7.27270326798438
30
0
41
1
10
200.669384240959
20
7.0175383582397
30
0
41
1
10
200.784203786613
20
6.48101480749074
30
0
41
1
10
200.84161355944
20
6.19966633848117
30
0
41
1
10
200.956433105094
20
5.61616896911536
30
0
41
1
10
201.013842877921
20
5.31403199818132
30
0
41
1
10
201.128662423576
20
4.6948990549752
30
0
41
1
10
201.186072196403
20
4.37791526140231
30
0
41
1
10
201.300891742057
20
3.73521066229543
30
0
41
1
10
201.358301514884
20
3.40950086538794
30
0
41
1
10
201.473121060539
20
2.75529368351931
30
0
41
1
10
201.530530833366
20
2.42680506661571
30
0
41
1
10
201.64535037902
20
1.77251669414812
30
0
41
1
10
201.702760151847
20
1.44672288555441
30
0
41
1
10
201.817579697501
20
0.80260509731599
30
0
41
1
10
201.874989470328
20
0.484284159287796
30
0
41
1
10
201.946751686362
20
0.0935208537447636
30
0
41
1
10
201.961104129569
20
0.015962092255279
30
0
41
1
10
201.989809015982
20
-0.139665382211916
30
0
41
1
10
202.032866345603
20
-0.374208107361824
30
0
41
1
10
202.075923675223
20
-0.611814134680458
30
0
41
1
10
202.162038334464
20
-1.0903904403421
30
0
41
1
10
202.219448107291
20
-1.41395232645132
30
0
41
1
10
202.334267652945
20
-2.06562086766124
30
0
41
1
10
202.391677425772
20
-2.39372265726317
30
0
41
1
10
202.506496971426
20
-3.04923459152258
30
0
41
1
10
202.563906744254
20
-3.37663696444085
30
0
41
1
10
202.678726289908
20
-4.02494824755289
30
0
41
1
10
202.736136062735
20
-4.34584687213186
30
0
41
1
10
202.850955608389
20
-4.97505633532577
30
0
41
1
10
202.908365381216
20
-5.28335527401774
30
0
41
1
10
203.02318492687
20
-5.88131531328645
30
0
41
1
10
203.080594699698
20
-6.17096421569676
30
0
41
1
10
203.195414245352
20
-6.72598533093998
30
0
41
1
10
203.252824018179
20
-6.99134655837821
30
0
41
1
10
203.367643563833
20
-7.49291837315994
30
0
41
1
10
203.42505333666
20
-7.7291205899391
30
0
41
1
10
203.539872882314
20
-8.16856088440352
30
0
41
1
10
203.597282655142
20
-8.3717942013042
30
0
41
1
10
203.712102200796
20
-8.74274398869176
30
0
41
1
10
203.769511973623
20
-8.91045969735478
30
0
41
1
10
203.884331519277
20
-9.20916608141661
30
0
41
1
10
203.941741292104
20
-9.34015973727708
30
0
41
1
10
204.056560837758
20
-9.56552348595324
30
0
41
1
10
204.113970610586
20
-9.65989951771149
30
0
41
1
10
204.22879015624
20
-9.81330189140107
30
0
41
1
10
204.286199929067
20
-9.87233604356885
30
0
41
1
10
204.401019474721
20
-9.95729028754127
30
0
41
1
10
204.458429247548
20
-9.98321891983167
30
0
41
1
10
204.530191463582
20
-9.99677575227102
30
0
41
1
10
204.544543906789
20
-9.99854580050459
30
0
41
1
10
204.573248793202
20
-10.0002540548826
30
0
41
1
10
204.587601236409
20
-10.0001991786025
30
0
41
1
10
204.63065856603
20
-9.99730041936726
30
0
41
1
10
204.659363452443
20
-9.99169703188107
30
0
41
1
10
204.745478111684
20
-9.96327653035212
30
0
41
1
10
204.802887884511
20
-9.92882796066715
30
0
41
1
10
204.860297657338
20
-9.87749425861813
30
0
0
SPLINE
5
E4
100
AcDbEntity
8
1
62
256
6
ByLayer
370
13
48
1
60
0
100
AcDbSpline
70
4
71
3
72
42
73
38
40
0
40
0
40
0
40
0
40
0.0625000000000007
40
0.0625000000000007
40
0.125000000000001
40
0.125000000000001
40
0.187500000000002
40
0.187500000000002
40
0.250000000000003
40
0.250000000000003
40
0.312500000000003
40
0.312500000000003
40
0.375000000000004
40
0.375000000000004
40
0.406250000000004
40
0.406250000000004
40
0.421875000000004
40
0.421875000000004
40
0.437500000000004
40
0.437500000000004
40
0.500000000000003
40
0.500000000000003
40
0.562500000000003
40
0.562500000000003
40
0.625000000000002
40
0.625000000000002
40
0.687500000000002
40
0.687500000000002
40
0.750000000000001
40
0.750000000000001
40
0.812500000000001
40
0.812500000000001
40
0.875000000000001
40
0.875000000000001
40
0.9375
40
0.9375
40
1
40
1
40
1
40
1
41
1
10
194.4
20
-9.16968002583349
30
0
41
1
10
194.494198905184
20
-8.93984480762151
30
0
41
1
10
194.588397810369
20
-8.66019172250083
30
0
41
1
10
194.776795620737
20
-8.00698392626526
30
0
41
1
10
194.870994525922
20
-7.63345677900449
30
0
41
1
10
195.05939233629
20
-6.80774983824011
30
0
41
1
10
195.153591241475
20
-6.35566970175975
30
0
41
1
10
195.341989051843
20
-5.39576926811333
30
0
41
1
10
195.436187957028
20
-4.88808981691435
30
0
41
1
10
195.624585767396
20
-3.84381453786833
30
0
41
1
10
195.718784672581
20
-3.30735460056448
30
0
41
1
10
195.907182482949
20
-2.2319215068716
30
0
41
1
10
196.001381388134
20
-1.69304200638268
30
0
41
1
10
196.14267974591
20
-0.899647914859315
30
0
41
1
10
196.189779198502
20
-0.637630873823383
30
0
41
1
10
196.260428377391
20
-0.249957160454926
30
0
41
1
10
196.283978103687
20
-0.121680370961542
30
0
41
1
10
196.331077556279
20
0.133090235078185
30
0
41
1
10
196.354627282575
20
0.261482592537135
30
0
41
1
10
196.472375914055
20
0.907870008504403
30
0
41
1
10
196.56657481924
20
1.4393775627837
30
0
41
1
10
196.754972629608
20
2.51171527440178
30
0
41
1
10
196.849171534793
20
3.05247915298418
30
0
41
1
10
197.037569345162
20
4.11863733413941
30
0
41
1
10
197.131768250346
20
4.64391321225852
30
0
41
1
10
197.320166060714
20
5.652008756486
30
0
41
1
10
197.414364965899
20
6.13468427069611
30
0
41
1
10
197.602762776267
20
7.0321635294944
30
0
41
1
10
197.696961681452
20
7.44684196306713
30
0
41
1
10
197.885359491821
20
8.18880578370835
30
0
41
1
10
197.979558397005
20
8.51602602727397
30
0
41
1
10
198.167956207373
20
9.07244720673171
30
0
41
1
10
198.262155112558
20
9.30165918274486
30
0
41
1
10
198.450552922927
20
9.66117514088145
30
0
41
1
10
198.544751828111
20
9.79155113060079
30
0
41
1
10
198.733149638479
20
9.96091382592408
30
0
41
1
10
198.827348543664
20
10
30
0
41
1
10
198.921547448848
20
10
30
0
0
SPLINE
5
E5
100
AcDbEntity
8
1
62
256
6
ByLayer
370
13
48
1
60
0
100
AcDbSpline
70
4
71
3
72
78
73
74
40
0
40
0
40
0
40
0
40
0.03125
40
0.03125
40
0.0625000000000001
40
0.0625000000000001
40
0.0937500000000001
40
0.0937500000000001
40
0.125
40
0.125
40
0.15625
40
0.15625
40
0.1875
40
0.1875
40
0.21875
40
0.21875
40
0.25
40
0.25
40
0.28125
40
0.28125
40
0.3125
40
0.3125
40
0.34375
40
0.34375
40
0.375
40
0.375
40
0.40625
40
0.40625
40
0.421875
40
0.421875
40
0.4296875
40
0.4296875
40
0.437500000000001
40
0.437500000000001
40
0.468750000000001
40
0.468750000000001
40
0.500000000000001
40
0.500000000000001
40
0.53125
40
0.53125
40
0.5625
40
0.5625
40
0.59375
40
0.59375
40
0.625
40
0.625
40
0.65625
40
0.65625
40
0.6875
40
0.6875
40
0.71875
40
0.71875
40
0.75
40
0.75
40
0.78125
40
0.78125
40
0.8125
40
0.8125
40
0.843749999999999
40
0.843749999999999
40
0.859374999999999
40
0.859374999999999
40
0.8671875
40
0.8671875
40
0.875
40
0.875
40
0.90625
40
0.90625
40
0.9375
40
0.9375
40
0.96875
40
0.96875
40
1
40
1
40
1
40
1
41
1
10
198.854063571643
20
10
30
0
41
1
10
198.916628510036
20
10
30
0
41
1
10
198.979193448429
20
9.98280043260922
30
0
41
1
10
199.104323325214
20
9.90998467924814
30
0
41
1
10
199.166888263607
20
9.85435535163998
30
0
41
1
10
199.292018140392
20
9.70153845382362
30
0
41
1
10
199.354583078785
20
9.60433855239756
30
0
41
1
10
199.47971295557
20
9.3665284476603
30
0
41
1
10
199.542277893963
20
9.22590877069945
30
0
41
1
10
199.667407770748
20
8.90103187250787
30
0
41
1
10
199.729972709141
20
8.71677003791075
30
0
41
1
10
199.855102585926
20
8.30622521389719
30
0
41
1
10
199.917667524318
20
8.07994389830924
30
0
41
1
10
200.042797401104
20
7.58886895614441
30
0
41
1
10
200.105362339496
20
7.32408366255569
30
0
41
1
10
200.230492216282
20
6.76125220333927
30
0
41
1
10
200.293057154674
20
6.46322011904812
30
0
41
1
10
200.41818703146
20
5.84054810107617
30
0
41
1
10
200.480751969852
20
5.51592595221433
30
0
41
1
10
200.605881846638
20
4.84764154468266
30
0
41
1
10
200.66844678503
20
4.50399809280106
30
0
41
1
10
200.793576661816
20
3.80559391153761
30
0
41
1
10
200.856141600208
20
3.45085035933582
30
0
41
1
10
200.981271476994
20
2.73797415065508
30
0
41
1
10
201.043836415386
20
2.37985501342791
30
0
41
1
10
201.168966292171
20
1.66729359472939
30
0
41
1
10
201.231531230564
20
1.31286010349211
30
0
41
1
10
201.325378638153
20
0.788516921706588
30
0
41
1
10
201.356661107349
20
0.614945094909928
30
0
41
1
10
201.403584811144
20
0.356886266148678
30
0
41
1
10
201.419226045742
20
0.271249216105076
30
0
41
1
10
201.450508514938
20
0.100813887847522
30
0
41
1
10
201.466149749537
20
0.0163011336874206
30
0
41
1
10
201.544355922528
20
-0.407818608164405
30
0
41
1
10
201.60692086092
20
-0.754130937840301
30
0
41
1
10
201.732050737705
20
-1.45575644082047
30
0
41
1
10
201.794615676098
20
-1.81106502189525
30
0
41
1
10
201.919745552883
20
-2.52447764978754
30
0
41
1
10
201.982310491276
20
-2.88257224322288
30
0
41
1
10
202.107440368061
20
-3.59438806394135
30
0
41
1
10
202.170005306454
20
-3.94809519367206
30
0
41
1
10
202.295135183239
20
-4.64335884003972
30
0
41
1
10
202.357700121632
20
-4.98489782290673
30
0
41
1
10
202.482829998417
20
-5.64791970486976
30
0
41
1
10
202.54539493681
20
-5.96938377273594
30
0
41
1
10
202.670524813595
20
-6.58477673255305
30
0
41
1
10
202.733089751988
20
-6.87868819003825
30
0
41
1
10
202.858219628773
20
-7.43247797419312
30
0
41
1
10
202.920784567166
20
-7.69234289645948
30
0
41
1
10
203.045914443951
20
-8.17299524531879
30
0
41
1
10
203.108479382344
20
-8.39377521215513
30
0
41
1
10
203.233609259129
20
-8.7929863310369
30
0
41
1
10
203.296174197522
20
-8.97141670572296
30
0
41
1
10
203.421304074307
20
-9.28455555710349
30
0
41
1
10
203.4838690127
20
-9.41926940397286
30
0
41
1
10
203.608998889485
20
-9.64542824076551
30
0
41
1
10
203.671563827877
20
-9.73688321262958
30
0
41
1
10
203.796693704663
20
-9.87856646605201
30
0
41
1
10
203.859258643056
20
-9.92880730281169
30
0
41
1
10
203.953106050644
20
-9.97571234578015
30
0
41
1
10
203.984388519841
20
-9.98661314155314
30
0
41
1
10
204.031312223635
20
-9.99623247127161
30
0
41
1
10
204.046953458233
20
-9.99831731277982
30
0
41
1
10
204.07823592743
20
-10.0003093668828
30
0
41
1
10
204.093877162028
20
-10.0002256592539
30
0
41
1
10
204.172083335019
20
-9.9943887425209
30
0
41
1
10
204.234648273412
20
-9.97222786442686
30
0
41
1
10
204.359778150197
20
-9.88900462529281
30
0
41
1
10
204.42234308859
20
-9.82792912270034
30
0
41
1
10
204.547472965375
20
-9.66388673261275
30
0
41
1
10
204.610037903767
20
-9.56090777572442
30
0
41
1
10
204.735167780553
20
-9.31140786179859
30
0
41
1
10
204.797732718945
20
-9.16487797663393
30
0
41
1
10
204.860297657338
20
-8.99658301158564
30
0
0
SPLINE
5
E6
100
AcDbEntity
8
1
62
256
6
ByLayer
370
13
48
1
60
0
100
AcDbSpline
70
4
71
3
72
42
73
38
40
0
40
0
40
0
40
0
40
0.0625000000000008
40
0.0625000000000008
40
0.125000000000002
40
0.125000000000002
40
0.187500000000002
40
0.187500000000002
40
0.250000000000003
40
0.250000000000003
40
0.312500000000004
40
0.312500000000004
40
0.343750000000005
40
0.343750000000005
40
0.359375000000005
40
0.359375000000005
40
0.375000000000005
40
0.375000000000005
40
0.437500000000005
40
0.437500000000005
40
0.500000000000004
40
0.500000000000004
40
0.562500000000004
40
0.562500000000004
40
0.625000000000003
40
0.625000000000003
40
0.687500000000003
40
0.687500000000003
40
0.750000000000002
40
0.750000000000002
40
0.812500000000002
40
0.812500000000002
40
0.875000000000001
40
0.875000000000001
40
0.937500000000001
40
0.937500000000001
40
1
40
1
40
1
40
1
41
1
10
194.4
20
-7.5213231040708
30
0
41
1
10
194.483888574053
20
-7.17143839177515
30
0
41
1
10
194.567777148107
20
-6.7886429961406
30
0
41
1
10
194.735554296213
20
-5.97190513458983
30
0
41
1
10
194.819442870266
20
-5.53803636349156
30
0
41
1
10
194.987220018373
20
-4.63730736844329
30
0
41
1
10
195.071108592426
20
-4.17052801064011
30
0
41
1
10
195.238885740533
20
-3.22312191329385
30
0
41
1
10
195.322774314586
20
-2.74256330969723
30
0
41
1
10
195.490551462692
20
-1.78542305939004
30
0
41
1
10
195.574440036746
20
-1.30888424155796
30
0
41
1
10
195.700272897825
20
-0.608159100551831
30
0
41
1
10
195.742217184852
20
-0.376903726368539
30
0
41
1
10
195.805133615392
20
-0.0346137512546534
30
0
41
1
10
195.826105758905
20
0.0784427674205119
30
0
41
1
10
195.868050045932
20
0.307025423258921
30
0
41
1
10
195.889022189445
20
0.422069335409731
30
0
41
1
10
195.993882907012
20
1.00060223813602
30
0
41
1
10
196.077771481065
20
1.47417832014787
30
0
41
1
10
196.245548629172
20
2.42890635908145
30
0
41
1
10
196.329437203225
20
2.91002166419798
30
0
41
1
10
196.497214351331
20
3.86259833354333
30
0
41
1
10
196.581102925385
20
4.33399634981862
30
0
41
1
10
196.748880073491
20
5.24813241141919
30
0
41
1
10
196.832768647544
20
5.69079082998866
30
0
41
1
10
197.000545795651
20
6.52886069447104
30
0
41
1
10
197.084434369704
20
6.92419506002784
30
0
41
1
10
197.252211517811
20
7.65187815502688
30
0
41
1
10
197.336100091864
20
7.98417279181388
30
0
41
1
10
197.503877239971
20
8.57493003577474
30
0
41
1
10
197.587765814024
20
8.83337481776795
30
0
41
1
10
197.75554296213
20
9.2715979008909
30
0
41
1
10
197.839431536183
20
9.45139539899847
30
0
41
1
10
198.00720868429
20
9.7334712560519
30
0
41
1
10
198.091097258343
20
9.83579526068999
30
0
41
1
10
198.25887440645
20
9.96903144546937
30
0
41
1
10
198.342762980503
20
10
30
0
41
1
10
198.426651554556
20
10
30
0
0
SPLINE
5
E7
100
AcDbEntity
8
1
62
256
6
ByLayer
370
13
48
1
60
0
100
AcDbSpline
70
4
71
3
72
78
73
74
40
0
40
0
40
0
40
0
40
0.0312499999999992
40
0.0312499999999992
40
0.0624999999999983
40
0.0624999999999983
40
0.0937499999999975
40
0.0937499999999975
40
0.124999999999997
40
0.124999999999997
40
0.156249999999996
40
0.156249999999996
40
0.187499999999995
40
0.187499999999995
40
0.218749999999994
40
0.218749999999994
40
0.249999999999993
40
0.249999999999993
40
0.281249999999993
40
0.281249999999993
40
0.312499999999992
40
0.312499999999992
40
0.343749999999991
40
0.343749999999991
40
0.37499999999999
40
0.37499999999999
40
0.39062499999999
40
0.39062499999999
40
0.39843749999999
40
0.39843749999999
40
0.40624999999999
40
0.40624999999999
40
0.437499999999991
40
0.437499999999991
40
0.468749999999993
40
0.468749999999993
40
0.499999999999995
40
0.499999999999995
40
0.531249999999996
40
0.531249999999996
40
0.562499999999998
40
0.562499999999998
40
0.59375
40
0.59375
40
0.625000000000001
40
0.625000000000001
40
0.656250000000003
40
0.656250000000003
40
0.687500000000004
40
0.687500000000004
40
0.718750000000006
40
0.718750000000006
40
0.750000000000008
40
0.750000000000008
40
0.781250000000009
40
0.781250000000009
40
0.79687500000001
40
0.79687500000001
40
0.80468750000001
40
0.80468750000001
40
0.81250000000001
40
0.81250000000001
40
0.843750000000008
40
0.843750000000008
40
0.875000000000007
40
0.875000000000007
40
0.906250000000005
40
0.906250000000005
40
0.937500000000003
40
0.937500000000003
40
0.968750000000002
40
0.968750000000002
40
1
40
1
40
1
40
1
41
1
10
198.359167677351
20
10
30
0
41
1
10
198.426887781309
20
10
30
0
41
1
10
198.494607885268
20
9.97984295453432
30
0
41
1
10
198.630048093184
20
9.89415953369149
30
0
41
1
10
198.697768197142
20
9.82861364933751
30
0
41
1
10
198.833208405059
20
9.6483410547485
30
0
41
1
10
198.900928509017
20
9.53359653274669
30
0
41
1
10
199.036368716933
20
9.25296772707509
30
0
41
1
10
199.104088820891
20
9.08707091947977
30
0
41
1
10
199.239529028808
20
8.70450041459242
30
0
41
1
10
199.307249132766
20
8.48782278630443
30
0
41
1
10
199.442689340682
20
8.00663419213242
30
0
41
1
10
199.510409444641
20
7.74212982707999
30
0
41
1
10
199.645849652557
20
7.1707776429752
30
0
41
1
10
199.713569756515
20
6.86394669384069
30
0
41
1
10
199.849009964432
20
6.2156220911798
30
0
41
1
10
199.91673006839
20
5.87415295407908
30
0
41
1
10
200.052170276306
20
5.16579048761747
30
0
41
1
10
200.119890380264
20
4.79892501390424
30
0
41
1
10
200.255330588181
20
4.0497627274992
30
0
41
1
10
200.323050692139
20
3.6674923715403
30
0
41
1
10
200.458490900055
20
2.89743463744591
30
0
41
1
10
200.526211004014
20
2.50966844511899
30
0
41
1
10
200.66165121193
20
1.73772642805784
30
0
41
1
10
200.729371315888
20
1.35356434572984
30
0
41
1
10
200.830951471825
20
0.785841390248748
30
0
41
1
10
200.864811523804
20
0.59800873790283
30
0
41
1
10
200.915601601773
20
0.318986009533347
30
0
41
1
10
200.932531627763
20
0.226431994840311
30
0
41
1
10
200.966391679742
20
0.0423235003496529
30
0
41
1
10
200.983321705731
20
-0.0489838119324588
30
0
41
1
10
201.067971835679
20
-0.509375802392242
30
0
41
1
10
201.135691939637
20
-0.885733821714837
30
0
41
1
10
201.271132147554
20
-1.64798428531154
30
0
41
1
10
201.338852251512
20
-2.03386882306182
30
0
41
1
10
201.474292459428
20
-2.80703804727005
30
0
41
1
10
201.542012563386
20
-3.19430698473511
30
0
41
1
10
201.677452771303
20
-3.96088561686725
30
0
41
1
10
201.745172875261
20
-4.3401724933486
30
0
41
1
10
201.880613083178
20
-5.08078584318628
30
0
41
1
10
201.948333187136
20
-5.44208507877553
30
0
41
1
10
202.083773395052
20
-6.1368432055431
30
0
41
1
10
202.15149349901
20
-6.47027463764155
30
0
41
1
10
202.286933706927
20
-7.10037637693088
30
0
41
1
10
202.354653810885
20
-7.39702376360134
30
0
41
1
10
202.490094018801
20
-7.94636992658045
30
0
41
1
10
202.557814122759
20
-8.19905430126573
30
0
41
1
10
202.693254330676
20
-8.65559417691284
30
0
41
1
10
202.760974434634
20
-8.8594458457689
30
0
41
1
10
202.89641464255
20
-9.21602653108229
30
0
41
1
10
202.964134746509
20
-9.36876193613392
30
0
41
1
10
203.099574954425
20
-9.62336085116146
30
0
41
1
10
203.167295058383
20
-9.72523858381442
30
0
41
1
10
203.302735266299
20
-9.88059744990514
30
0
41
1
10
203.370455370258
20
-9.93409716011809
30
0
41
1
10
203.472035526195
20
-9.98119461801633
30
0
41
1
10
203.505895578174
20
-9.99138001793722
30
0
41
1
10
203.556685656143
20
-9.99886299407967
30
0
41
1
10
203.573615682132
20
-10.0000586766235
30
0
41
1
10
203.607475734111
20
-9.99993690331797
30
0
41
1
10
203.624405760101
20
-9.99861746840983
30
0
41
1
10
203.709055890048
20
-9.98551680945593
30
0
41
1
10
203.776775994007
20
-9.95418215031009
30
0
41
1
10
203.912216201923
20
-9.84502205469681
30
0
41
1
10
203.979936305881
20
-9.76717722352731
30
0
41
1
10
204.115376513798
20
-9.56160733332675
30
0
41
1
10
204.183096617756
20
-9.43386546764566
30
0
41
1
10
204.318536825672
20
-9.12709897488099
30
0
41
1
10
204.386256929631
20
-8.94806374514428
30
0
41
1
10
204.521697137547
20
-8.53972011090573
30
0
41
1
10
204.589417241505
20
-8.31041036471206
30
0
41
1
10
204.724857449422
20
-7.80512936714644
30
0
41
1
10
204.79257755338
20
-7.52916746903568
30
0
41
1
10
204.860297657338
20
-7.23292337372314
30
0
0
SPLINE
5
E8
100
AcDbEntity
8
1
62
256
6
ByLayer
370
13
48
1
60
0
100
AcDbSpline
70
4
71
3
72
42
73
38
40
0
40
0
40
0
40
0
40
0.0624999999999989
40
0.0624999999999989
40
0.124999999999998
40
0.124999999999998
40
0.187499999999997
40
0.187499999999997
40
0.249999999999995
40
0.249999999999995
40
0.265624999999996
40
0.265624999999996
40
0.281249999999996
40
0.281249999999996
40
0.312499999999996
40
0.312499999999996
40
0.374999999999996
40
0.374999999999996
40
0.437499999999997
40
0.437499999999997
40
0.499999999999997
40
0.499999999999997
40
0.562499999999998
40
0.562499999999998
40
0.624999999999998
40
0.624999999999998
40
0.687499999999998
40
0.687499999999998
40
0.749999999999999
40
0.749999999999999
40
0.812499999999999
40
0.812499999999999
40
0.874999999999999
40
0.874999999999999
40
0.9375
40
0.9375
40
1
40
1
40
1
40
1
41
1
10
194.4
20
-5.13290330894927
30
0
41
1
10
194.473578242922
20
-4.73886532967907
30
0
41
1
10
194.547156485844
20
-4.33195179375673
30
0
41
1
10
194.694312971689
20
-3.50519830622261
30
0
41
1
10
194.767891214611
20
-3.08539539771053
30
0
41
1
10
194.915047700455
20
-2.24518376360973
30
0
41
1
10
194.988625943377
20
-1.82480131974202
30
0
41
1
10
195.135782429222
20
-0.994194052816198
30
0
41
1
10
195.209360672144
20
-0.583982663380851
30
0
41
1
10
195.301333475796
20
-0.0829455631797771
30
0
41
1
10
195.319728036527
20
0.0162826502018447
30
0
41
1
10
195.356517157988
20
0.21617434888438
30
0
41
1
10
195.374911718719
20
0.316713677954084
30
0
41
1
10
195.43009540091
20
0.619934599061395
30
0
41
1
10
195.466884522371
20
0.824223649979359
30
0
41
1
10
195.577251886755
20
1.44193098968768
30
0
41
1
10
195.650830129677
20
1.86025332429401
30
0
41
1
10
195.797986615521
20
2.69982838958211
30
0
41
1
10
195.871564858443
20
3.1210587118461
30
0
41
1
10
196.018721344288
20
3.9545416753709
30
0
41
1
10
196.09229958721
20
4.36676012075461
30
0
41
1
10
196.239456073054
20
5.16938333677805
30
0
41
1
10
196.313034315977
20
5.55974673393209
30
0
41
1
10
196.460190801821
20
6.30605096394609
30
0
41
1
10
196.533769044743
20
6.66195080990559
30
0
41
1
10
196.680925530587
20
7.32821305803475
30
0
41
1
10
196.754503773509
20
7.63854326199908
30
0
41
1
10
196.901660259354
20
8.20517524290037
30
0
41
1
10
196.975238502276
20
8.46146005046944
30
0
41
1
10
197.12239498812
20
8.91489352154903
30
0
41
1
10
197.195973231042
20
9.11204278401576
30
0
41
1
10
197.343129716887
20
9.44573088920023
30
0
41
1
10
197.416707959809
20
9.58228570299434
30
0
41
1
10
197.563864445653
20
9.79668307642086
30
0
41
1
10
197.637442688575
20
9.87455156884181
30
0
41
1
10
197.78459917442
20
9.97619529327667
30
0
41
1
10
197.858177417342
20
10
30
0
41
1
10
197.931755660264
20
10
30
0
0
SPLINE
5
E9
100
AcDbEntity
8
1
62
256
6
ByLayer
370
13
48
1
60
0
100
AcDbSpline
70
4
71
3
72
80
73
76
40
0
40
0
40
0
40
0
40
0.0312500000000015
40
0.0312500000000015
40
0.0625000000000029
40
0.0625000000000029
40
0.0937500000000044
40
0.0937500000000044
40
0.125000000000006
40
0.125000000000006
40
0.156250000000007
40
0.156250000000007
40
0.187500000000009
40
0.187500000000009
40
0.21875000000001
40
0.21875000000001
40
0.250000000000011
40
0.250000000000011
40
0.281250000000013
40
0.281250000000013
40
0.312500000000014
40
0.312500000000014
40
0.343750000000016
40
0.343750000000016
40
0.359375000000016
40
0.359375000000016
40
0.367187500000016
40
0.371093750000016
40
0.371093750000016
40
0.375000000000016
40
0.375000000000016
40
0.406250000000014
40
0.406250000000014
40
0.437500000000011
40
0.437500000000011
40
0.468750000000009
40
0.468750000000009
40
0.500000000000006
40
0.500000000000006
40
0.531250000000004
40
0.531250000000004
40
0.562500000000002
40
0.562500000000002
40
0.59375
40
0.59375
40
0.624999999999997
40
0.624999999999997
40
0.656249999999995
40
0.656249999999995
40
0.687499999999993
40
0.687499999999993
40
0.71874999999999
40
0.71874999999999
40
0.734374999999989
40
0.734374999999989
40
0.742187499999988
40
0.746093749999988
40
0.746093749999988
40
0.749999999999987
40
0.749999999999987
40
0.781249999999989
40
0.781249999999989
40
0.81249999999999
40
0.81249999999999
40
0.843749999999992
40
0.843749999999992
40
0.874999999999994
40
0.874999999999994
40
0.906249999999995
40
0.906249999999995
40
0.937499999999997
40
0.937499999999997
40
0.968749999999999
40
0.968749999999999
40
1
40
1
40
1
40
1
41
1
10
197.864271783059
20
10
30
0
41
1
10
197.937147052583
20
10
30
0
41
1
10
198.010022322107
20
9.97664915190023
30
0
41
1
10
198.155772861154
20
9.87699629345639
30
0
41
1
10
198.228648130678
20
9.80066618041587
30
0
41
1
10
198.374398669726
20
9.59052882019895
30
0
41
1
10
198.447273939249
20
9.45669672845347
30
0
41
1
10
198.593024478297
20
9.12962108111074
30
0
41
1
10
198.66589974782
20
8.93636194431423
30
0
41
1
10
198.811650286868
20
8.49171940204334
30
0
41
1
10
198.884525556392
20
8.24033479995464
30
0
41
1
10
199.030276095439
20
7.6842196927737
30
0
41
1
10
199.103151364963
20
7.37950457868681
30
0
41
1
10
199.24890190401
20
6.72478989748478
30
0
41
1
10
199.321777173534
20
6.37482032865046
30
0
41
1
10
199.467527712582
20
5.64024848669436
30
0
41
1
10
199.540402982105
20
5.25568497030025
30
0
41
1
10
199.686153521153
20
4.46411017835263
30
0
41
1
10
199.759028790676
20
4.05713859584182
30
0
41
1
10
199.904779329724
20
3.23325800225143
30
0
41
1
10
199.977654599248
20
2.81638239820936
30
0
41
1
10
200.123405138295
20
1.98440661598792
30
0
41
1
10
200.196280407819
20
1.56932896440736
30
0
41
1
10
200.305593312104
20
0.955590220315486
30
0
41
1
10
200.342030946866
20
0.752475299111609
30
0
41
1
10
200.396687399009
20
0.450792577160257
30
0
41
1
10
200.42401562508
20
0.300697015672711
30
0
41
1
10
200.451343851152
20
0.151853922499271
30
0
41
1
10
200.469562668533
20
0.0529173404937637
30
0
41
1
10
200.478672077223
20
0.0036951376617367
30
0
41
1
10
200.560656755438
20
-0.44050414689994
30
0
41
1
10
200.633532024961
20
-0.844959208455009
30
0
41
1
10
200.779282564009
20
-1.66502489329895
30
0
41
1
10
200.852157833532
20
-2.08062421124117
30
0
41
1
10
200.99790837258
20
-2.91279132282472
30
0
41
1
10
201.070783642104
20
-3.32933566372864
30
0
41
1
10
201.216534181151
20
-4.15160506287219
30
0
41
1
10
201.289409450675
20
-4.55729602368223
30
0
41
1
10
201.435159989722
20
-5.34534264137926
30
0
41
1
10
201.508035259246
20
-5.72765839741831
30
0
41
1
10
201.653785798294
20
-6.45684229852796
30
0
41
1
10
201.726661067817
20
-6.80367209378647
30
0
41
1
10
201.872411606865
20
-7.45137945316347
30
0
41
1
10
201.945286876388
20
-7.75222797906684
30
0
41
1
10
202.091037415436
20
-8.30011596800495
30
0
41
1
10
202.16391268496
20
-8.54714130567146
30
0
41
1
10
202.309663224007
20
-8.98283990747797
30
0
41
1
10
202.382538493531
20
-9.17151560503891
30
0
41
1
10
202.528289032578
20
-9.48946333946816
30
0
41
1
10
202.601164302102
20
-9.61875187905684
30
0
41
1
10
202.74691484115
20
-9.82006794157553
30
0
41
1
10
202.819790110673
20
-9.89212077195
30
0
41
1
10
202.929103014959
20
-9.96076995004259
30
0
41
1
10
202.965540649721
20
-9.97709868567949
30
0
41
1
10
203.020197101864
20
-9.99232449076848
30
0
41
1
10
203.047525327935
20
-9.99762169966044
30
0
41
1
10
203.074853554006
20
-9.99956012701622
30
0
41
1
10
203.093072371387
20
-10.0001192870299
30
0
41
1
10
203.102181780078
20
-10.0000342305091
30
0
41
1
10
203.184166458292
20
-9.99596632780256
30
0
41
1
10
203.257041727816
20
-9.96873420460636
30
0
41
1
10
203.402792266863
20
-9.86089539252438
30
0
41
1
10
203.475667536387
20
-9.78026065107096
30
0
41
1
10
203.621418075434
20
-9.56126282516888
30
0
41
1
10
203.694293344958
20
-9.42287539571524
30
0
41
1
10
203.840043884006
20
-9.08666762894211
30
0
41
1
10
203.912919153529
20
-8.88883266351584
30
0
41
1
10
204.058669692577
20
-8.43528243405416
30
0
41
1
10
204.131544962101
20
-8.17956722401465
30
0
41
1
10
204.277295501148
20
-7.61530210923476
30
0
41
1
10
204.350170770672
20
-7.30676884919063
30
0
41
1
10
204.495921309719
20
-6.64515934123028
30
0
41
1
10
204.568796579243
20
-6.29211401583143
30
0
41
1
10
204.714547118291
20
-5.55229147252359
30
0
41
1
10
204.787422387814
20
-5.16555337032048
30
0
41
1
10
204.860297657338
20
-4.76807600771986
30
0
0
SPLINE
5
EA
100
AcDbEntity
8
1
62
256
6
ByLayer
370
13
48
1
60
0
100
AcDbSpline
70
4
71
3
72
41
73
37
40
0
40
0
40
0
40
0
40
0.0625000000000013
40
0.0625000000000013
40
0.125000000000003
40
0.125000000000003
40
0.140625000000003
40
0.140625000000003
40
0.156250000000003
40
0.187500000000004
40
0.187500000000004
40
0.250000000000004
40
0.250000000000004
40
0.312500000000003
40
0.312500000000003
40
0.375000000000003
40
0.375000000000003
40
0.437500000000003
40
0.437500000000003
40
0.500000000000003
40
0.500000000000003
40
0.562500000000002
40
0.562500000000002
40
0.625000000000002
40
0.625000000000002
40
0.687500000000002
40
0.687500000000002
40
0.750000000000001
40
0.750000000000001
40
0.812500000000001
40
0.812500000000001
40
0.875000000000001
40
0.875000000000001
40
0.9375
40
0.9375
40
1
40
1
40
1
40
1
41
1
10
194.4
20
-2.36026292281773
30
0
41
1
10
194.463267911791
20
-1.99916725562895
30
0
41
1
10
194.526535823582
20
-1.63887500826783
30
0
41
1
10
194.653071647164
20
-0.926496280917377
30
0
41
1
10
194.716339558955
20
-0.57441550018234
30
0
41
1
10
194.795424448694
20
-0.14283051715185
30
0
41
1
10
194.811241426642
20
-0.0571046014671026
30
0
41
1
10
194.842875382538
20
0.114170775564872
30
0
41
1
10
194.890326316381
20
0.372435294850448
30
0
41
1
10
194.937777250224
20
0.634434003402504
30
0
41
1
10
195.032679117911
20
1.1624432212829
30
0
41
1
10
195.095947029702
20
1.5198353271544
30
0
41
1
10
195.222482853284
20
2.23930018081092
30
0
41
1
10
195.285750765075
20
2.60136433596145
30
0
41
1
10
195.412286588657
20
3.32299338594174
30
0
41
1
10
195.475554500448
20
3.68254456458317
30
0
41
1
10
195.602090324031
20
4.39122160546745
30
0
41
1
10
195.665358235822
20
4.74032965035937
30
0
41
1
10
195.791894059404
20
5.41992631416528
30
0
41
1
10
195.855161971195
20
5.75039510228808
30
0
41
1
10
195.981697794777
20
6.38482490514258
30
0
41
1
10
196.044965706568
20
6.68876689856211
30
0
41
1
10
196.17150153015
20
7.26315476298313
30
0
41
1
10
196.234769441941
20
7.53358534684438
30
0
41
1
10
196.361305265524
20
8.03538779976816
30
0
41
1
10
196.424573177315
20
8.26675040293554
30
0
41
1
10
196.551109000897
20
8.68665632067402
30
0
41
1
10
196.614376912688
20
8.87519746745886
30
0
41
1
10
196.74091273627
20
9.20767628880085
30
0
41
1
10
196.804180648061
20
9.35161856700211
30
0
41
1
10
196.930716471644
20
9.5950527546874
30
0
41
1
10
196.993984383435
20
9.69455453925582
30
0
41
1
10
197.120520207017
20
9.8509742104369
30
0
41
1
10
197.183788118808
20
9.90790509104184
30
0
41
1
10
197.31032394239
20
9.98241103781118
30
0
41
1
10
197.373591854181
20
10
30
0
41
1
10
197.436859765972
20
10
30
0
0
SPLINE
5
EB
100
AcDbEntity
8
1
62
256
6
ByLayer
370
13
48
1
60
0
100
AcDbSpline
70
4
71
3
72
81
73
77
40
0
40
0
40
0
40
0
40
0.0312499999999973
40
0.0312499999999973
40
0.0624999999999945
40
0.0624999999999945
40
0.0937499999999918
40
0.0937499999999918
40
0.124999999999989
40
0.124999999999989
40
0.156249999999986
40
0.156249999999986
40
0.187499999999984
40
0.187499999999984
40
0.218749999999981
40
0.218749999999981
40
0.249999999999978
40
0.249999999999978
40
0.281249999999976
40
0.281249999999976
40
0.312499999999973
40
0.312499999999973
40
0.34374999999997
40
0.34374999999997
40
0.34765624999997
40
0.34765624999997
40
0.35156249999997
40
0.35156249999997
40
0.359374999999969
40
0.359374999999969
40
0.374999999999969
40
0.374999999999969
40
0.40624999999997
40
0.40624999999997
40
0.437499999999971
40
0.437499999999971
40
0.468749999999972
40
0.468749999999972
40
0.499999999999973
40
0.499999999999973
40
0.531249999999973
40
0.531249999999973
40
0.562499999999974
40
0.562499999999974
40
0.593749999999975
40
0.593749999999975
40
0.624999999999976
40
0.624999999999976
40
0.656249999999977
40
0.656249999999977
40
0.687499999999978
40
0.687499999999978
40
0.695312499999977
40
0.695312499999977
40
0.699218749999977
40
0.699218749999977
40
0.703124999999977
40
0.718749999999979
40
0.718749999999979
40
0.749999999999981
40
0.749999999999981
40
0.781249999999983
40
0.781249999999983
40
0.812499999999986
40
0.812499999999986
40
0.843749999999988
40
0.843749999999988
40
0.87499999999999
40
0.87499999999999
40
0.906249999999993
40
0.906249999999993
40
0.937499999999995
40
0.937499999999995
40
0.968749999999998
40
0.968749999999998
40
1
40
1
40
1
40
1
41
1
10
197.369375888767
20
10
30
0
41
1
10
197.447406323856
20
10
30
0
41
1
10
197.525436758946
20
9.97321842661486
30
0
41
1
10
197.681497629124
20
9.85848377274073
30
0
41
1
10
197.759528064214
20
9.77049125524422
30
0
41
1
10
197.915588934392
20
9.52806449397482
30
0
41
1
10
197.993619369482
20
9.37359667300566
30
0
41
1
10
198.14968023966
20
8.99649139216004
30
0
41
1
10
198.227710674749
20
8.77383584267773
30
0
41
1
10
198.383771544928
20
8.26298164419521
30
0
41
1
10
198.461801980017
20
7.97478785213306
30
0
41
1
10
198.617862850196
20
7.34006150621539
30
0
41
1
10
198.695893285285
20
6.99355848429619
30
0
41
1
10
198.851954155463
20
6.25347973485424
30
0
41
1
10
198.929984590553
20
5.85995263463781
30
0
41
1
10
199.086045460731
20
5.039952575776
30
0
41
1
10
199.164075895821
20
4.61353614407989
30
0
41
1
10
199.320136765999
20
3.74312067030362
30
0
41
1
10
199.398167201088
20
3.29917348426491
30
0
41
1
10
199.554228071267
20
2.40862262918773
30
0
41
1
10
199.632258506356
20
1.96205665375874
30
0
41
1
10
199.788319376535
20
1.07938164128942
30
0
41
1
10
199.866349811624
20
0.643292161943037
30
0
41
1
10
199.9541340511
20
0.164441490018106
30
0
41
1
10
199.963887855486
20
0.111397180231052
30
0
41
1
10
199.983395464258
20
0.0056482535480029
30
0
41
1
10
199.993149268644
20
-0.0470328162303986
30
0
41
1
10
200.022410681803
20
-0.205920663555673
30
0
41
1
10
200.041918290575
20
-0.3125168795587
30
0
41
1
10
200.100441116892
20
-0.634107160652263
30
0
41
1
10
200.139456334436
20
-0.850908573420668
30
0
41
1
10
200.25650198707
20
-1.50663722408652
30
0
41
1
10
200.33453242216
20
-1.95096833100342
30
0
41
1
10
200.490593292338
20
-2.8417861396693
30
0
41
1
10
200.568623727428
20
-3.28824120358922
30
0
41
1
10
200.724684597606
20
-4.16890176614703
30
0
41
1
10
200.802715032695
20
-4.60305944303613
30
0
41
1
10
200.958775902874
20
-5.44374890196488
30
0
41
1
10
201.036806337963
20
-5.8502244156146
30
0
41
1
10
201.192867208142
20
-6.62079891532176
30
0
41
1
10
201.270897643231
20
-6.98484513767241
30
0
41
1
10
201.42695851341
20
-7.65812053327525
30
0
41
1
10
201.504988948499
20
-7.96731265842817
30
0
41
1
10
201.661049818678
20
-8.52214190111485
30
0
41
1
10
201.739080253767
20
-8.7677655437538
30
0
41
1
10
201.895141123945
20
-9.19120471867245
30
0
41
1
10
201.973171559035
20
-9.36903109992684
30
0
41
1
10
202.129232429213
20
-9.65714270877126
30
0
41
1
10
202.207262864302
20
-9.76745726775101
30
0
41
1
10
202.363323734481
20
-9.92470184692951
30
0
41
1
10
202.44135416957
20
-9.97167036061634
30
0
41
1
10
202.538892213432
20
-9.9951352208945
30
0
41
1
10
202.558399822204
20
-9.9980711549218
30
0
41
1
10
202.587661235363
20
-9.99993447250134
30
0
41
1
10
202.597415039749
20
-10.0001330217031
30
0
41
1
10
202.616922648521
20
-9.99969579564345
30
0
41
1
10
202.665691670452
20
-9.99650623759425
30
0
41
1
10
202.714460692383
20
-9.9826208286284
30
0
41
1
10
202.831506345017
20
-9.92729798187651
30
0
41
1
10
202.909536780106
20
-9.86100043572395
30
0
41
1
10
203.065597650285
20
-9.66342228737321
30
0
41
1
10
203.143628085374
20
-9.53210502193696
30
0
41
1
10
203.299688955552
20
-9.20143318463346
30
0
41
1
10
203.377719390642
20
-9.00205419008631
30
0
41
1
10
203.53378026082
20
-8.53633510021854
30
0
41
1
10
203.611810695909
20
-8.26999146175481
30
0
41
1
10
203.767871566088
20
-7.67599999657384
30
0
41
1
10
203.845902001177
20
-7.34837351622554
30
0
41
1
10
204.001962871356
20
-6.64179627168824
30
0
41
1
10
204.079993306445
20
-6.26288864671392
30
0
41
1
10
204.236054176624
20
-5.4670654052039
30
0
41
1
10
204.314084611713
20
-5.05020505971467
30
0
41
1
10
204.470145481891
20
-4.19361038734368
30
0
41
1
10
204.548175916981
20
-3.75393081662634
30
0
41
1
10
204.704236787159
20
-2.86694936445807
30
0
41
1
10
204.782267222249
20
-2.41969077004762
30
0
41
1
10
204.860297657338
20
-1.97555088399966
30
0
0
SPLINE
5
EC
100
AcDbEntity
8
1
62
256
6
ByLayer
370
13
48
1
60
0
100
AcDbSpline
70
4
71
3
72
34
73
30
40
0
40
0
40
0
40
0
40
0.125000000000001
40
0.125000000000001
40
0.187500000000001
40
0.187500000000001
40
0.25
40
0.25
40
0.3125
40
0.3125
40
0.374999999999999
40
0.374999999999999
40
0.437499999999999
40
0.437499999999999
40
0.499999999999999
40
0.499999999999999
40
0.562499999999999
40
0.562499999999999
40
0.624999999999999
40
0.624999999999999
40
0.687499999999999
40
0.687499999999999
40
0.749999999999998
40
0.749999999999998
40
0.812499999999998
40
0.812499999999998
40
0.874999999999998
40
0.874999999999998
40
1
40
1
40
1
40
1
41
1
10
194.4
20
0.398482557978184
30
0
41
1
10
194.50591516132
20
0.98006760321357
30
0
41
1
10
194.61183032264
20
1.57988278294559
30
0
41
1
10
194.77070306462
20
2.48577732947115
30
0
41
1
10
194.82366064528
20
2.78869401446104
30
0
41
1
10
194.9295758066
20
3.39212390274105
30
0
41
1
10
194.98253338726
20
3.69263123281109
30
0
41
1
10
195.08844854858
20
4.2865852887644
30
0
41
1
10
195.14140612924
20
4.58002474120377
30
0
41
1
10
195.24732129056
20
5.15504300008655
30
0
41
1
10
195.30027887122
20
5.43661372509246
30
0
41
1
10
195.40619403254
20
5.9831844409859
30
0
41
1
10
195.4591516132
20
6.24817633069273
30
0
41
1
10
195.56506677452
20
6.7572152023011
30
0
41
1
10
195.61802435518
20
7.00125492782936
30
0
41
1
10
195.7239395165
20
7.46458495577147
30
0
41
1
10
195.77689709716
20
7.68386963653131
30
0
41
1
10
195.88281225848
20
8.09465082703258
30
0
41
1
10
195.93576983914
20
8.28614392126485
30
0
41
1
10
196.04168500046
20
8.63920647902157
30
0
41
1
10
196.09464258112
20
8.80077498826932
30
0
41
1
10
196.20055774244
20
9.09282241831141
30
0
41
1
10
196.2535153231
20
9.22330275800104
30
0
41
1
10
196.35943048442
20
9.45296976333597
30
0
41
1
10
196.41238806508
20
9.55215983640022
30
0
41
1
10
196.5183032264
20
9.71992995739788
30
0
41
1
10
196.57126080706
20
9.78851482041259
30
0
41
1
10
196.73013354904
20
9.95052284419344
30
0
41
1
10
196.83604871036
20
10
30
0
41
1
10
196.94196387168
20
10
30
0
0
SPLINE
5
ED
100
AcDbEntity
8
1
62
256
6
ByLayer
370
13
48
1
60
0
100
AcDbSpline
70
4
71
3
72
84
73
80
40
0
40
0
40
0
40
0
40
0.0312500000000012
40
0.0312500000000012
40
0.0625000000000024
40
0.0625000000000024
40
0.0937500000000036
40
0.0937500000000036
40
0.125000000000005
40
0.125000000000005
40
0.156250000000006
40
0.156250000000006
40
0.187500000000007
40
0.187500000000007
40
0.218750000000008
40
0.218750000000008
40
0.25000000000001
40
0.25000000000001
40
0.281250000000011
40
0.281250000000011
40
0.312500000000012
40
0.312500000000012
40
0.320312500000012
40
0.320312500000012
40
0.328125000000012
40
0.328125000000012
40
0.34375000000001
40
0.34375000000001
40
0.375000000000009
40
0.375000000000009
40
0.406250000000008
40
0.406250000000008
40
0.437500000000006
40
0.437500000000006
40
0.468750000000005
40
0.468750000000005
40
0.500000000000003
40
0.500000000000003
40
0.531250000000002
40
0.531250000000002
40
0.5625
40
0.5625
40
0.593749999999999
40
0.593749999999999
40
0.624999999999997
40
0.624999999999997
40
0.640624999999996
40
0.640624999999996
40
0.648437499999995
40
0.652343749999995
40
0.652343749999995
40
0.656249999999995
40
0.656249999999995
40
0.687499999999995
40
0.687499999999995
40
0.718749999999996
40
0.718749999999996
40
0.749999999999997
40
0.749999999999997
40
0.781249999999998
40
0.781249999999998
40
0.812499999999998
40
0.812499999999998
40
0.843749999999999
40
0.843749999999999
40
0.875
40
0.875
40
0.906250000000001
40
0.906250000000001
40
0.937500000000001
40
0.937500000000001
40
0.968750000000002
40
0.968750000000002
40
0.976562500000002
40
0.980468750000001
40
0.980468750000001
40
0.984375000000001
40
0.984375000000001
40
1
40
1
40
1
40
1
41
1
10
196.874479994475
20
10
30
0
41
1
10
196.95766559513
20
10
30
0
41
1
10
197.040851195785
20
9.96955011470672
30
0
41
1
10
197.207222397094
20
9.83861111913629
30
0
41
1
10
197.290407997749
20
9.73806792299862
30
0
41
1
10
197.456779199059
20
9.46091632398276
30
0
41
1
10
197.539964799714
20
9.28426384333474
30
0
41
1
10
197.706336001023
20
8.85361084240819
30
0
41
1
10
197.789521601678
20
8.59959111040774
30
0
41
1
10
197.955892802988
20
8.01866962134434
30
0
41
1
10
198.039078403643
20
7.69178370603535
30
0
41
1
10
198.205449604952
20
6.97542672525606
30
0
41
1
10
198.288635205607
20
6.58600625828186
30
0
41
1
10
198.455006406917
20
5.75969809717773
30
0
41
1
10
198.538192007571
20
5.3228836590354
30
0
41
1
10
198.704563208881
20
4.41981171683238
30
0
41
1
10
198.787748809536
20
3.9536309830786
30
0
41
1
10
198.954120010846
20
3.01042928481627
30
0
41
1
10
199.037305611501
20
2.53347053516859
30
0
41
1
10
199.20367681281
20
1.58574428937916
30
0
41
1
10
199.286862413465
20
1.11501399137021
30
0
41
1
10
199.390844414283
20
0.539181392360064
30
0
41
1
10
199.411640814447
20
0.424635121680353
30
0
41
1
10
199.453233614775
20
0.1969635797347
30
0
41
1
10
199.474030014938
20
0.0840702727959126
30
0
41
1
10
199.53641921543
20
-0.253722805984012
30
0
41
1
10
199.578012015757
20
-0.482044770655222
30
0
41
1
10
199.702790416739
20
-1.17428433611968
30
0
41
1
10
199.785976017394
20
-1.64558459675524
30
0
41
1
10
199.952347218703
20
-2.59378807160206
30
0
41
1
10
200.035532819358
20
-3.07065294715446
30
0
41
1
10
200.201904020668
20
-4.01290107584316
30
0
41
1
10
200.285089621323
20
-4.47822122045676
30
0
41
1
10
200.451460822632
20
-5.37878269787456
30
0
41
1
10
200.534646423287
20
-5.81394700773714
30
0
41
1
10
200.701017624597
20
-6.63624046084337
30
0
41
1
10
200.784203225252
20
-7.02329694102025
30
0
41
1
10
200.950574426562
20
-7.73438002531032
30
0
41
1
10
201.033760027216
20
-8.05835732912976
30
0
41
1
10
201.200131228526
20
-8.63314862832652
30
0
41
1
10
201.283316829181
20
-8.88394834388669
30
0
41
1
10
201.44968803049
20
-9.30810092122613
30
0
41
1
10
201.532873631145
20
-9.48147430791832
30
0
41
1
10
201.699244832455
20
-9.75223448532782
30
0
41
1
10
201.78243043311
20
-9.84966608533554
30
0
41
1
10
201.907208834092
20
-9.94345553582929
30
0
41
1
10
201.948801634419
20
-9.96602459590474
30
0
41
1
10
202.01119083491
20
-9.98764657783508
30
0
41
1
10
202.042385435156
20
-9.99540173693745
30
0
41
1
10
202.073580035401
20
-9.9987412107636
30
0
41
1
10
202.094376435565
20
-10.0000058661578
30
0
41
1
10
202.104774635647
20
-10.0001588249829
30
0
41
1
10
202.198358436384
20
-9.99726280897218
30
0
41
1
10
202.281544037038
20
-9.96402147743692
30
0
41
1
10
202.447915238348
20
-9.82716833775774
30
0
41
1
10
202.531100839003
20
-9.7235025697037
30
0
41
1
10
202.697472040313
20
-9.43994614283926
30
0
41
1
10
202.780657640967
20
-9.26001216529986
30
0
41
1
10
202.947028842277
20
-8.82286433945114
30
0
41
1
10
203.030214442932
20
-8.56563261175364
30
0
41
1
10
203.196585644242
20
-7.97860755300641
30
0
41
1
10
203.279771244896
20
-7.64883162535244
30
0
41
1
10
203.446142446206
20
-6.92724669364685
30
0
41
1
10
203.529328046861
20
-6.53548956392632
30
0
41
1
10
203.695699248171
20
-5.70522659431546
30
0
41
1
10
203.778884848825
20
-5.26679456784134
30
0
41
1
10
203.945256050135
20
-4.36127824421504
30
0
41
1
10
204.02844165079
20
-3.89427043143789
30
0
41
1
10
204.194812852099
20
-2.9501792796587
30
0
41
1
10
204.277998452754
20
-2.47315724293298
30
0
41
1
10
204.444369654064
20
-1.5259637519103
30
0
41
1
10
204.527555254719
20
-1.05582835373008
30
0
41
1
10
204.631537255537
20
-0.481056306737031
30
0
41
1
10
204.662731855783
20
-0.309578736926596
30
0
41
1
10
204.693926456028
20
-0.139732320749175
30
0
41
1
10
204.714722856192
20
-0.0268843176151279
30
0
41
1
10
204.725121056274
20
0.029252739152156
30
0
41
1
10
204.777112056683
20
0.311399592069648
30
0
41
1
10
204.81870485701
20
0.540188994592995
30
0
41
1
10
204.860297657338
20
0.771338116591437
30
0
0
SPLINE
5
EE
100
AcDbEntity
8
1
62
256
6
ByLayer
370
13
48
1
60
0
100
AcDbSpline
70
4
71
3
72
22
73
18
40
0
40
0
40
0
40
0
40
0.125
40
0.125
40
0.25
40
0.25
40
0.375
40
0.375
40
0.5
40
0.5
40
0.625
40
0.625
40
0.75
40
0.75
40
0.875
40
0.875
40
1
40
1
40
1
40
1
41
1
10
194.4
20
3.19449039559564
30
0
41
1
10
194.485294499058
20
3.67993852355676
30
0
41
1
10
194.570588998116
20
4.16160432406468
30
0
41
1
10
194.741177996231
20
5.09764164136163
30
0
41
1
10
194.826472495289
20
5.55192780842879
30
0
41
1
10
194.997061493405
20
6.41349264154644
30
0
41
1
10
195.082355992463
20
6.82068625474412
30
0
41
1
10
195.252944990578
20
7.57114202214942
30
0
41
1
10
195.338239489636
20
7.91434261061357
30
0
41
1
10
195.508828487752
20
8.52496450134856
30
0
41
1
10
195.59412298681
20
8.79236360810498
30
0
41
1
10
195.764711984925
20
9.24591728005743
30
0
41
1
10
195.850006483983
20
9.43209085758613
30
0
41
1
10
196.020595482099
20
9.72415131239379
30
0
41
1
10
196.105889981157
20
9.83008706651736
30
0
41
1
10
196.276478979272
20
9.96798082134117
30
0
41
1
10
196.36177347833
20
10
30
0
41
1
10
196.447067977388
20
10
30
0
0
SPLINE
5
EF
100
AcDbEntity
8
1
62
256
6
ByLayer
370
13
48
1
60
0
100
AcDbSpline
70
4
71
3
72
82
73
78
40
0
40
0
40
0
40
0
40
0.0312499999999997
40
0.0312499999999997
40
0.0624999999999993
40
0.0624999999999993
40
0.093749999999999
40
0.093749999999999
40
0.124999999999999
40
0.124999999999999
40
0.156249999999998
40
0.156249999999998
40
0.187499999999998
40
0.187499999999998
40
0.218749999999998
40
0.218749999999998
40
0.249999999999997
40
0.249999999999997
40
0.281249999999997
40
0.281249999999997
40
0.296874999999997
40
0.296874999999997
40
0.304687499999997
40
0.304687499999997
40
0.312499999999997
40
0.312499999999997
40
0.343749999999998
40
0.343749999999998
40
0.374999999999999
40
0.374999999999999
40
0.40625
40
0.40625
40
0.437500000000001
40
0.437500000000001
40
0.468750000000002
40
0.468750000000002
40
0.500000000000003
40
0.500000000000003
40
0.531250000000004
40
0.531250000000004
40
0.562500000000005
40
0.562500000000005
40
0.593750000000006
40
0.593750000000006
40
0.609375000000006
40
0.609375000000006
40
0.617187500000006
40
0.617187500000006
40
0.625000000000006
40
0.625000000000006
40
0.656250000000005
40
0.656250000000005
40
0.687500000000004
40
0.687500000000004
40
0.718750000000003
40
0.718750000000003
40
0.750000000000002
40
0.750000000000002
40
0.781250000000001
40
0.781250000000001
40
0.8125
40
0.8125
40
0.843749999999999
40
0.843749999999999
40
0.874999999999998
40
0.874999999999998
40
0.906249999999998
40
0.906249999999998
40
0.921874999999997
40
0.921874999999997
40
0.929687499999997
40
0.929687499999997
40
0.937499999999997
40
0.937499999999997
40
0.968749999999998
40
0.968749999999998
40
1
40
1
40
1
40
1
41
1
10
196.379584100183
20
10
30
0
41
1
10
196.467924866404
20
10
30
0
41
1
10
196.556265632624
20
9.96564348334527
30
0
41
1
10
196.732947165064
20
9.81736782564076
30
0
41
1
10
196.821287931285
20
9.70337600441508
30
0
41
1
10
196.997969463726
20
9.38905828107517
30
0
41
1
10
197.086310229946
20
9.1886760801068
30
0
41
1
10
197.262991762387
20
8.70104161382517
30
0
41
1
10
197.351332528607
20
8.41377157417139
30
0
41
1
10
197.528014061048
20
7.7592543093144
30
0
41
1
10
197.616354827268
20
7.39204078160933
30
0
41
1
10
197.793036359709
20
6.59175484052204
30
0
41
1
10
197.881377125929
20
6.1587625111799
30
0
41
1
10
198.05805865837
20
5.24651671890504
30
0
41
1
10
198.14639942459
20
4.76736698953633
30
0
41
1
10
198.323080957031
20
3.78502508157214
30
0
41
1
10
198.411421723251
20
3.28193047412759
30
0
41
1
10
198.588103255692
20
2.27340368218157
30
0
41
1
10
198.676444021913
20
1.76803968407549
30
0
41
1
10
198.808955171243
20
1.0222102010718
30
0
41
1
10
198.853125554353
20
0.775606076509575
30
0
41
1
10
198.919381129018
20
0.410133955030233
30
0
41
1
10
198.941466320574
20
0.289046610028038
30
0
41
1
10
198.985636703684
20
0.0485545318717584
30
0
41
1
10
199.007721895239
20
-0.0704666379768355
30
0
41
1
10
199.118147853014
20
-0.672207678479737
30
0
41
1
10
199.206488619235
20
-1.16715034095554
30
0
41
1
10
199.383170151675
20
-2.16886936702051
30
0
41
1
10
199.471510917896
20
-2.67560554885671
30
0
41
1
10
199.648192450336
20
-3.68134942680902
30
0
41
1
10
199.736533216557
20
-4.18027964590217
30
0
41
1
10
199.913214748997
20
-5.14833341260081
30
0
41
1
10
200.001555515218
20
-5.61735500813842
30
0
41
1
10
200.178237047659
20
-6.50375407223467
30
0
41
1
10
200.266577813879
20
-6.9210312102534
30
0
41
1
10
200.44325934632
20
-7.68548944275591
30
0
41
1
10
200.53160011254
20
-8.03260114606866
30
0
41
1
10
200.708281644981
20
-8.6443175922775
30
0
41
1
10
200.796622411201
20
-8.90890262300624
30
0
41
1
10
200.973303943642
20
-9.35058890106313
30
0
41
1
10
201.061644709862
20
-9.52771998571853
30
0
41
1
10
201.238326242303
20
-9.79678467929105
30
0
41
1
10
201.326667008523
20
-9.88878119585158
30
0
41
1
10
201.459178157854
20
-9.96894036328422
30
0
41
1
10
201.503348540964
20
-9.98605961756223
30
0
41
1
10
201.569604115629
20
-9.99836325780709
30
0
41
1
10
201.591689307185
20
-10.0002374908684
30
0
41
1
10
201.635859690295
20
-9.99971469515918
30
0
41
1
10
201.65794488185
20
-9.99730740788308
30
0
41
1
10
201.768370839625
20
-9.97407732734607
30
0
41
1
10
201.856711605846
20
-9.91953441759563
30
0
41
1
10
202.033393138286
20
-9.72858813997297
30
0
41
1
10
202.121733904507
20
-9.59211420763879
30
0
41
1
10
202.298415436947
20
-9.23201312329508
30
0
41
1
10
202.386756203168
20
-9.00833790344689
30
0
41
1
10
202.563437735608
20
-8.47520205791267
30
0
41
1
10
202.651778501829
20
-8.16573668613162
30
0
41
1
10
202.82846003427
20
-7.46991518020374
30
0
41
1
10
202.91680080049
20
-7.08360637002767
30
0
41
1
10
203.093482332931
20
-6.24989770938691
30
0
41
1
10
203.181823099151
20
-5.80258697246546
30
0
41
1
10
203.358504631592
20
-4.86747392780629
30
0
41
1
10
203.446845397812
20
-4.3797765773102
30
0
41
1
10
203.623526930253
20
-3.38626801687965
30
0
41
1
10
203.711867696473
20
-2.88054831794369
30
0
41
1
10
203.888549228914
20
-1.87209440872593
30
0
41
1
10
203.976889995134
20
-1.36941848873965
30
0
41
1
10
204.109401144465
20
-0.630776619806284
30
0
41
1
10
204.153571527575
20
-0.387091315376694
30
0
41
1
10
204.21982710224
20
-0.0266619333384313
30
0
41
1
10
204.241912293796
20
0.0923981197146873
30
0
41
1
10
204.286082676905
20
0.333297379788178
30
0
41
1
10
204.308167868461
20
0.454576067293402
30
0
41
1
10
204.418593826236
20
1.06458588884917
30
0
41
1
10
204.506934592457
20
1.56434541704675
30
0
41
1
10
204.683616124897
20
2.57087495061108
30
0
41
1
10
204.771956891118
20
3.07759451355037
30
0
41
1
10
204.860297657338
20
3.57759482069409
30
0
0
SPLINE
5
F0
100
AcDbEntity
8
1
62
256
6
ByLayer
370
13
48
1
60
0
100
AcDbSpline
70
4
71
3
72
22
73
18
40
0
40
0
40
0
40
0
40
0.125
40
0.125
40
0.25
40
0.25
40
0.375
40
0.375
40
0.5
40
0.5
40
0.625
40
0.625
40
0.75
40
0.75
40
0.875
40
0.875
40
1
40
1
40
1
40
1
41
1
10
194.4
20
5.8971993250415
30
0
41
1
10
194.464673836796
20
6.22614855713718
30
0
41
1
10
194.529347673591
20
6.5419328442687
30
0
41
1
10
194.658695347182
20
7.13954652265409
30
0
41
1
10
194.723369183978
20
7.42135801388514
30
0
41
1
10
194.85271685757
20
7.94483384891893
30
0
41
1
10
194.917390694365
20
8.1864868542375
30
0
41
1
10
195.046738367957
20
8.62537807053502
30
0
41
1
10
195.111412204752
20
8.82261297116742
30
0
41
1
10
195.240759878344
20
9.17054883138988
30
0
41
1
10
195.305433715139
20
9.32125430608625
30
0
41
1
10
195.434781388731
20
9.57614023993378
30
0
41
1
10
195.499455225526
20
9.68033139409323
30
0
41
1
10
195.628802899117
20
9.8440900046952
30
0
41
1
10
195.693476735913
20
9.90367185854655
30
0
41
1
10
195.822824409505
20
9.98161910232139
30
0
41
1
10
195.8874982463
20
10
30
0
41
1
10
195.952172083096
20
10
30
0
0
SPLINE
5
F1
100
AcDbEntity
8
1
62
256
6
ByLayer
370
13
48
1
60
0
100
AcDbSpline
70
4
71
3
72
87
73
83
40
0
40
0
40
0
40
0
40
0.0312499999999976
40
0.0312499999999976
40
0.0624999999999951
40
0.0624999999999951
40
0.0937499999999927
40
0.0937499999999927
40
0.12499999999999
40
0.12499999999999
40
0.156249999999988
40
0.156249999999988
40
0.187499999999985
40
0.187499999999985
40
0.218749999999983
40
0.218749999999983
40
0.24999999999998
40
0.24999999999998
40
0.281249999999978
40
0.281249999999978
40
0.289062499999978
40
0.289062499999978
40
0.292968749999977
40
0.292968749999977
40
0.296874999999977
40
0.296874999999977
40
0.312499999999979
40
0.312499999999979
40
0.34374999999998
40
0.34374999999998
40
0.374999999999982
40
0.374999999999982
40
0.406249999999984
40
0.406249999999984
40
0.437499999999985
40
0.437499999999985
40
0.468749999999987
40
0.468749999999987
40
0.499999999999989
40
0.499999999999989
40
0.531249999999991
40
0.531249999999991
40
0.562499999999992
40
0.562499999999992
40
0.578124999999993
40
0.578124999999993
40
0.582031249999993
40
0.582031249999993
40
0.585937499999993
40
0.585937499999993
40
0.593749999999993
40
0.593749999999993
40
0.624999999999992
40
0.624999999999992
40
0.656249999999992
40
0.656249999999992
40
0.687499999999992
40
0.687499999999992
40
0.718749999999992
40
0.718749999999992
40
0.749999999999992
40
0.749999999999992
40
0.781249999999992
40
0.781249999999992
40
0.812499999999991
40
0.812499999999991
40
0.843749999999991
40
0.843749999999991
40
0.859374999999991
40
0.859374999999991
40
0.867187499999991
40
0.87109374999999
40
0.87109374999999
40
0.87499999999999
40
0.87499999999999
40
0.906249999999993
40
0.906249999999993
40
0.937499999999995
40
0.937499999999995
40
0.968749999999998
40
0.968749999999998
40
1
40
1
40
1
40
1
41
1
10
195.884688205891
20
10
30
0
41
1
10
195.978184137677
20
10
30
0
41
1
10
196.071680069463
20
9.96149772789144
30
0
41
1
10
196.258671933035
20
9.7947437426233
30
0
41
1
10
196.352167864821
20
9.66639612615376
30
0
41
1
10
196.539159728392
20
9.31247026601201
30
0
41
1
10
196.632655660178
20
9.08682198590316
30
0
41
1
10
196.81964752375
20
8.53887639133688
30
0
41
1
10
196.913143455536
20
8.21656685652198
30
0
41
1
10
197.100135319108
20
7.48529282540991
30
0
41
1
10
197.193631250894
20
7.07638896498918
30
0
41
1
10
197.380623114465
20
6.19063926171856
30
0
41
1
10
197.474119046251
20
5.71391260720281
30
0
41
1
10
197.661110909823
20
4.71716675592762
30
0
41
1
10
197.754606841609
20
4.1972866160223
30
0
41
1
10
197.941598705181
20
3.14078145738554
30
0
41
1
10
198.035094636967
20
2.60427266229323
30
0
41
1
10
198.222086500539
20
1.53896943113017
30
0
41
1
10
198.315582432325
20
1.01024210216957
30
0
41
1
10
198.432452347057
20
0.366367320322553
30
0
41
1
10
198.455826330004
20
0.238429954683312
30
0
41
1
10
198.490887304423
20
0.0479640921821556
30
0
41
1
10
198.502574295896
20
-0.0151288279462847
30
0
41
1
10
198.525948278843
20
-0.141939325959186
30
0
41
1
10
198.537635270316
20
-0.205586924490859
30
0
41
1
10
198.596070227683
20
-0.524962620677883
30
0
41
1
10
198.642818193575
20
-0.784118710026036
30
0
41
1
10
198.783062091254
20
-1.56935066460753
30
0
41
1
10
198.87655802304
20
-2.10334991324203
30
0
41
1
10
199.063549886612
20
-3.17104021170593
30
0
41
1
10
199.157045818398
20
-3.70464530061034
30
0
41
1
10
199.344037681969
20
-4.74603504494988
30
0
41
1
10
199.437533613755
20
-5.25369124327528
30
0
41
1
10
199.624525477327
20
-6.21683736039307
30
0
41
1
10
199.718021409113
20
-6.67219005827508
30
0
41
1
10
199.905013272685
20
-7.50768456010164
30
0
41
1
10
199.998509204471
20
-7.88772437566558
30
0
41
1
10
200.185501068042
20
-8.55660728926691
30
0
41
1
10
200.278996999829
20
-8.84541547349255
30
0
41
1
10
200.4659888634
20
-9.32506229979882
30
0
41
1
10
200.559484795186
20
-9.51593657132372
30
0
41
1
10
200.746476658758
20
-9.8021289458768
30
0
41
1
10
200.839972590544
20
-9.89753017188318
30
0
41
1
10
200.980216488223
20
-9.97624793077114
30
0
41
1
10
201.026964454116
20
-9.99180485449128
30
0
41
1
10
201.085399411482
20
-9.99892916860247
30
0
41
1
10
201.097086402955
20
-9.99973848877224
30
0
41
1
10
201.120460385902
20
-10.0001538355402
30
0
41
1
10
201.132147377375
20
-9.9997632034565
30
0
41
1
10
201.167208351795
20
-9.99676108007435
30
0
41
1
10
201.190582334741
20
-9.992316167328
30
0
41
1
10
201.307452249474
20
-9.95733535435832
30
0
41
1
10
201.40094818126
20
-9.88834150898984
30
0
41
1
10
201.587940044831
20
-9.65718821050456
30
0
41
1
10
201.681435976617
20
-9.49493807273578
30
0
41
1
10
201.868427840189
20
-9.07238511806634
30
0
41
1
10
201.961923771975
20
-8.81202952219579
30
0
41
1
10
202.148915635547
20
-8.19711350607457
30
0
41
1
10
202.242411567333
20
-7.84256628309214
30
0
41
1
10
202.429403430904
20
-7.05253744484165
30
0
41
1
10
202.52289936269
20
-6.61714035372268
30
0
41
1
10
202.709891226262
20
-5.68663046903109
30
0
41
1
10
202.803387158048
20
-5.1916490257718
30
0
41
1
10
202.99037902162
20
-4.16777806255462
30
0
41
1
10
203.083874953406
20
-3.63902389832492
30
0
41
1
10
203.270866816978
20
-2.57383095426613
30
0
41
1
10
203.364362748764
20
-2.03749281906997
30
0
41
1
10
203.504606646442
20
-1.24444499194951
30
0
41
1
10
203.551354612335
20
-0.981970665631138
30
0
41
1
10
203.621476561175
20
-0.592837037576174
30
0
41
1
10
203.656537535595
20
-0.399410431131457
30
0
41
1
10
203.691598510014
20
-0.207985501397417
30
0
41
1
10
203.714972492961
20
-0.0808432582210514
30
0
41
1
10
203.726659484434
20
-0.0176620924026452
30
0
41
1
10
203.831842407693
20
0.552227033021182
30
0
41
1
10
203.925338339479
20
1.07471255808394
30
0
41
1
10
204.112330203051
20
2.1338257777727
30
0
41
1
10
204.205826134837
20
2.67040226383835
30
0
41
1
10
204.392817998408
20
3.73456143939313
30
0
41
1
10
204.486313930194
20
4.26204064300879
30
0
41
1
10
204.673305793766
20
5.28175800414724
30
0
41
1
10
204.766801725552
20
5.77385980416346
30
0
41
1
10
204.860297657338
20
6.23551037423499
30
0
0
SPLINE
5
F2
100
AcDbEntity
8
1
62
256
6
ByLayer
370
13
48
1
60
0
100
AcDbSpline
70
4
71
3
72
14
73
10
40
0
40
0
40
0
40
0
40
0.25
40
0.25
40
0.5
40
0.5
40
0.75
40
0.75
40
1
40
1
40
1
40
1
41
1
10
194.4
20
8.09692031363892
30
0
41
1
10
194.488106349067
20
8.42246990111585
30
0
41
1
10
194.576212698134
20
8.70818835457018
30
0
41
1
10
194.752425396268
20
9.19315862209785
30
0
41
1
10
194.840531745335
20
9.39242835192559
30
0
41
1
10
195.016744443469
20
9.70500303566499
30
0
41
1
10
195.104850792536
20
9.81836369758099
30
0
41
1
10
195.28106349067
20
9.96582630997676
30
0
41
1
10
195.369169839737
20
10
30
0
41
1
10
195.457276188804
20
10
30
0
0
SPLINE
5
F3
100
AcDbEntity
8
1
62
256
6
ByLayer
370
13
48
1
60
0
100
AcDbSpline
70
4
71
3
72
86
73
82
40
0
40
0
40
0
40
0
40
0.0312499999999961
40
0.0312499999999961
40
0.0624999999999921
40
0.0624999999999921
40
0.0937499999999882
40
0.0937499999999882
40
0.124999999999984
40
0.124999999999984
40
0.15624999999998
40
0.15624999999998
40
0.187499999999976
40
0.187499999999976
40
0.218749999999972
40
0.218749999999972
40
0.249999999999969
40
0.249999999999969
40
0.265624999999967
40
0.265624999999967
40
0.273437499999966
40
0.273437499999966
40
0.277343749999966
40
0.277343749999966
40
0.281249999999965
40
0.281249999999965
40
0.312499999999966
40
0.312499999999966
40
0.343749999999968
40
0.343749999999968
40
0.374999999999969
40
0.374999999999969
40
0.40624999999997
40
0.40624999999997
40
0.437499999999971
40
0.437499999999971
40
0.468749999999972
40
0.468749999999972
40
0.499999999999973
40
0.499999999999973
40
0.531249999999974
40
0.531249999999974
40
0.546874999999975
40
0.546874999999975
40
0.550781249999976
40
0.550781249999976
40
0.554687499999976
40
0.554687499999976
40
0.562499999999977
40
0.562499999999977
40
0.593749999999978
40
0.593749999999978
40
0.62499999999998
40
0.62499999999998
40
0.656249999999981
40
0.656249999999981
40
0.687499999999983
40
0.687499999999983
40
0.718749999999985
40
0.718749999999985
40
0.749999999999986
40
0.749999999999986
40
0.781249999999988
40
0.781249999999988
40
0.81249999999999
40
0.81249999999999
40
0.82812499999999
40
0.82812499999999
40
0.835937499999991
40
0.835937499999991
40
0.843749999999991
40
0.843749999999991
40
0.874999999999993
40
0.874999999999993
40
0.906249999999995
40
0.906249999999995
40
0.937499999999997
40
0.937499999999997
40
0.968749999999998
40
0.968749999999998
40
1
40
1
40
1
40
1
41
1
10
195.389792311599
20
10
30
0
41
1
10
195.48844340895
20
10
30
0
41
1
10
195.587094506302
20
9.95711196898358
30
0
41
1
10
195.784396701005
20
9.77072908972823
30
0
41
1
10
195.883047798356
20
9.62710975687241
30
0
41
1
10
196.080349993059
20
9.23113830317152
30
0
41
1
10
196.179001090411
20
8.97870129776416
30
0
41
1
10
196.376303285113
20
8.3672386565037
30
0
41
1
10
196.474954382465
20
8.00821244918535
30
0
41
1
10
196.672256577168
20
7.19742490489287
30
0
41
1
10
196.770907674519
20
6.74576261064416
30
0
41
1
10
196.968209869222
20
5.77380575146972
30
0
41
1
10
197.066860966574
20
5.25367976731692
30
0
41
1
10
197.264163161277
20
4.17497467253784
30
0
41
1
10
197.362814258628
20
3.61657280908602
30
0
41
1
10
197.560116453331
20
2.49213568427695
30
0
41
1
10
197.658767550682
20
1.92622987699542
30
0
41
1
10
197.80674419671
20
1.09164325220698
30
0
41
1
10
197.856069745385
20
0.815781723320271
30
0
41
1
10
197.930058068399
20
0.407498450188058
30
0
41
1
10
197.954720842736
20
0.272318614993935
30
0
41
1
10
197.991715004243
20
0.0711387312763065
30
0
41
1
10
198.004046391412
20
0.0045268939607013
30
0
41
1
10
198.028709165751
20
-0.129188306429768
30
0
41
1
10
198.041040552919
20
-0.196317092108217
30
0
41
1
10
198.152023037439
20
-0.802760729889741
30
0
41
1
10
198.250674134791
20
-1.35836870013037
30
0
41
1
10
198.447976329494
20
-2.48071618002234
30
0
41
1
10
198.546627426845
20
-3.04737468763497
30
0
41
1
10
198.743929621548
20
-4.16351093250967
30
0
41
1
10
198.8425807189
20
-4.71283897169883
30
0
41
1
10
199.039882913603
20
-5.7631727098078
30
0
41
1
10
199.138534010954
20
-6.26399681552277
30
0
41
1
10
199.335836205657
20
-7.1884987313631
30
0
41
1
10
199.434487303008
20
-7.6120249173286
30
0
41
1
10
199.631789497712
20
-8.36067248867911
30
0
41
1
10
199.730440595063
20
-8.68572639910948
30
0
41
1
10
199.927742789765
20
-9.22720573413974
30
0
41
1
10
200.026393887117
20
-9.44366304831374
30
0
41
1
10
200.22369608182
20
-9.76930772214627
30
0
41
1
10
200.322347179171
20
-9.87859846836699
30
0
41
1
10
200.470323825199
20
-9.97016087649007
30
0
41
1
10
200.519649373874
20
-9.98868196869336
30
0
41
1
10
200.581306309719
20
-9.99802780056331
30
0
41
1
10
200.593637696888
20
-9.999207397085
30
0
41
1
10
200.618300471226
20
-10.0002198904455
30
0
41
1
10
200.630631858395
20
-10.000057641527
30
0
41
1
10
200.667626019901
20
-9.99754766227369
30
0
41
1
10
200.692288794239
20
-9.99316443207593
30
0
41
1
10
200.815602665929
20
-9.95706375447159
30
0
41
1
10
200.91425376328
20
-9.88255590372077
30
0
41
1
10
201.111555957983
20
-9.62932006180444
30
0
41
1
10
201.210207055334
20
-9.45047505649848
30
0
41
1
10
201.407509250037
20
-8.9835016612987
30
0
41
1
10
201.506160347389
20
-8.69531195165669
30
0
41
1
10
201.703462542092
20
-8.01560264527831
30
0
41
1
10
201.802113639443
20
-7.62411559023022
30
0
41
1
10
201.999415834146
20
-6.75533539503095
30
0
41
1
10
202.098066931497
20
-6.27816950521296
30
0
41
1
10
202.2953691262
20
-5.26468620210272
30
0
41
1
10
202.394020223552
20
-4.72854746780547
30
0
41
1
10
202.591322418255
20
-3.62811226364639
30
0
41
1
10
202.689973515606
20
-3.06398239243293
30
0
41
1
10
202.887275710309
20
-1.937472596085
30
0
41
1
10
202.98592680766
20
-1.37519919147709
30
0
41
1
10
203.133903453688
20
-0.551527415339422
30
0
41
1
10
203.183229002364
20
-0.280208396537176
30
0
41
1
10
203.257217325377
20
0.120135305746345
30
0
41
1
10
203.281880099715
20
0.254407346787218
30
0
41
1
10
203.331205648391
20
0.525173324704014
30
0
41
1
10
203.355868422728
20
0.661527532577622
30
0
41
1
10
203.479182294418
20
1.34738181766511
30
0
41
1
10
203.577833391769
20
1.90939826308843
30
0
41
1
10
203.775135586472
20
3.03585299235957
30
0
41
1
10
203.873786683824
20
3.60018596611516
30
0
41
1
10
204.071088878526
20
4.70154650834419
30
0
41
1
10
204.169739975878
20
5.238408169791
30
0
41
1
10
204.367042170581
20
6.25383322609744
30
0
41
1
10
204.465693267932
20
6.73221761971769
30
0
41
1
10
204.662995462635
20
7.60381686790748
30
0
41
1
10
204.761646559986
20
7.99690315913907
30
0
41
1
10
204.860297657338
20
8.33845846376764
30
0
0
SPLINE
5
F4
100
AcDbEntity
8
1
62
256
6
ByLayer
370
13
48
1
60
0
100
AcDbSpline
70
4
71
3
72
10
73
6
40
0
40
0
40
0
40
0
40
0.5
40
0.5
40
1
40
1
40
1
40
1
41
1
10
194.4
20
9.48677082961598
30
0
41
1
10
194.493730049085
20
9.66466210208836
30
0
41
1
10
194.587460098171
20
9.79368335252161
30
0
41
1
10
194.774920196341
20
9.9613037617307
30
0
41
1
10
194.868650245426
20
10
30
0
41
1
10
194.962380294512
20
10
30
0
0
SPLINE
5
F5
100
AcDbEntity
8
1
62
256
6
ByLayer
370
13
48
1
60
0
100
AcDbSpline
70
4
71
3
72
130
73
126
40
0
40
0
40
0
40
0
40
0.0312499999999982
40
0.0312499999999982
40
0.0624999999999965
40
0.0624999999999965
40
0.0781249999999956
40
0.0781249999999956
40
0.0937499999999947
40
0.0937499999999947
40
0.109374999999994
40
0.109374999999994
40
0.124999999999993
40
0.124999999999993
40
0.140624999999992
40
0.140624999999992
40
0.156249999999991
40
0.156249999999991
40
0.17187499999999
40
0.17187499999999
40
0.18749999999999
40
0.18749999999999
40
0.203124999999989
40
0.203124999999989
40
0.218749999999988
40
0.218749999999988
40
0.249999999999987
40
0.249999999999987
40
0.257812499999986
40
0.257812499999986
40
0.261718749999986
40
0.261718749999986
40
0.265624999999986
40
0.265624999999986
40
0.281249999999988
40
0.281249999999988
40
0.31249999999999
40
0.31249999999999
40
0.32812499999999
40
0.32812499999999
40
0.343749999999991
40
0.343749999999991
40
0.359374999999992
40
0.359374999999992
40
0.374999999999993
40
0.374999999999993
40
0.390624999999993
40
0.390624999999993
40
0.406249999999994
40
0.406249999999994
40
0.421874999999995
40
0.421874999999995
40
0.437499999999995
40
0.437499999999995
40
0.453124999999996
40
0.453124999999996
40
0.468749999999997
40
0.468749999999997
40
0.499999999999998
40
0.499999999999998
40
0.515624999999998
40
0.515624999999998
40
0.523437499999999
40
0.523437499999999
40
0.527343749999999
40
0.527343749999999
40
0.531249999999999
40
0.531249999999999
40
0.562500000000001
40
0.562500000000001
40
0.578125000000002
40
0.578125000000002
40
0.593750000000002
40
0.593750000000002
40
0.609375000000003
40
0.609375000000003
40
0.625000000000004
40
0.625000000000004
40
0.640625000000005
40
0.640625000000005
40
0.656250000000006
40
0.656250000000006
40
0.671875000000006
40
0.671875000000006
40
0.687500000000007
40
0.687500000000007
40
0.703125000000008
40
0.703125000000008
40
0.718750000000009
40
0.718750000000009
40
0.734375000000009
40
0.734375000000009
40
0.75000000000001
40
0.75000000000001
40
0.781250000000011
40
0.781250000000011
40
0.785156250000011
40
0.785156250000011
40
0.789062500000011
40
0.789062500000011
40
0.79687500000001
40
0.79687500000001
40
0.812500000000009
40
0.812500000000009
40
0.843750000000008
40
0.843750000000008
40
0.859375000000007
40
0.859375000000007
40
0.875000000000006
40
0.875000000000006
40
0.890625000000006
40
0.890625000000006
40
0.906250000000005
40
0.906250000000005
40
0.921875000000004
40
0.921875000000004
40
0.937500000000003
40
0.937500000000003
40
0.953125000000002
40
0.953125000000002
40
0.968750000000002
40
0.968750000000002
40
0.984375000000001
40
0.984375000000001
40
1
40
1
40
1
40
1
41
1
10
194.894896417307
20
10
30
0
41
1
10
194.998702680224
20
10
30
0
41
1
10
195.102508943141
20
9.95248524966638
30
0
41
1
10
195.310121468975
20
9.74531446770271
30
0
41
1
10
195.413927731892
20
9.58549924509393
30
0
41
1
10
195.569637126268
20
9.25516585101897
30
0
41
1
10
195.621540257726
20
9.13003743110295
30
0
41
1
10
195.725346520643
20
8.84986255327101
30
0
41
1
10
195.777249652101
20
8.69481461313438
30
0
41
1
10
195.881055915018
20
8.35579337860861
30
0
41
1
10
195.932959046477
20
8.17182068050465
30
0
41
1
10
196.036765309394
20
7.77683964471862
30
0
41
1
10
196.088668440852
20
7.56583409262132
30
0
41
1
10
196.192474703769
20
7.11952352780756
30
0
41
1
10
196.244377835228
20
6.8842233099916
30
0
41
1
10
196.348184098145
20
6.39279135896214
30
0
41
1
10
196.400087229603
20
6.1366659726869
30
0
41
1
10
196.50389349252
20
5.60761423959323
30
0
41
1
10
196.555796623979
20
5.33469513050517
30
0
41
1
10
196.659602886896
20
4.77644261701067
30
0
41
1
10
196.711506018354
20
4.49111659154022
30
0
41
1
10
196.815312281271
20
3.9125708195082
30
0
41
1
10
196.86721541273
20
3.61935788296626
30
0
41
1
10
196.971021675647
20
3.02947725779688
30
0
41
1
10
197.022924807105
20
2.73281524770806
30
0
41
1
10
197.178634201481
20
1.84389911377531
30
0
41
1
10
197.282440464398
20
1.25298868023449
30
0
41
1
10
197.412198293044
20
0.533894398087199
30
0
41
1
10
197.438149858773
20
0.391032029160726
30
0
41
1
10
197.477077207367
20
0.178435036479101
30
0
41
1
10
197.490052990232
20
0.10785184779516
30
0
41
1
10
197.516004555961
20
-0.032709374321513
30
0
41
1
10
197.528980338826
20
-0.102921358808743
30
0
41
1
10
197.593859253149
20
-0.45622945862101
30
0
41
1
10
197.645762384607
20
-0.743535055775794
30
0
41
1
10
197.801471778983
20
-1.61510049752397
30
0
41
1
10
197.9052780419
20
-2.2092471116043
30
0
41
1
10
198.060987436275
20
-3.09798638037
30
0
41
1
10
198.112890567734
20
-3.39375494797034
30
0
41
1
10
198.216696830651
20
-3.98004885327862
30
0
41
1
10
198.268599962109
20
-4.27056799228413
30
0
41
1
10
198.372406225026
20
-4.84186760301353
30
0
41
1
10
198.424309356485
20
-5.12264095248617
30
0
41
1
10
198.528115619401
20
-5.66995705258916
30
0
41
1
10
198.58001875086
20
-5.93649239131028
30
0
41
1
10
198.683825013777
20
-6.45106468879393
30
0
41
1
10
198.735728145235
20
-6.699094687187
30
0
41
1
10
198.839534408153
20
-7.17283120420919
30
0
41
1
10
198.891437539611
20
-7.39853194283461
30
0
41
1
10
198.995243802528
20
-7.82442139986586
30
0
41
1
10
199.047146933987
20
-8.02460610825673
30
0
41
1
10
199.150953196903
20
-8.39706048704241
30
0
41
1
10
199.202856328362
20
-8.56932826644265
30
0
41
1
10
199.306662591279
20
-8.88442090527937
30
0
41
1
10
199.358565722738
20
-9.02724605131181
30
0
41
1
10
199.462371985654
20
-9.28282468955933
30
0
41
1
10
199.514275117113
20
-9.39558042599984
30
0
41
1
10
199.669984511488
20
-9.68908718132766
30
0
41
1
10
199.773790774406
20
-9.8247699827038
30
0
41
1
10
199.929500168781
20
-9.94621400828092
30
0
41
1
10
199.981403300239
20
-9.97309881254972
30
0
41
1
10
200.059257997427
20
-9.99461724611675
30
0
41
1
10
200.085209563156
20
-9.99865857631332
30
0
41
1
10
200.12413691175
20
-10.0002465756845
30
0
41
1
10
200.137112694615
20
-10.0000360932287
30
0
41
1
10
200.163064260344
20
-9.99811947616061
30
0
41
1
10
200.176040043209
20
-9.99641017429613
30
0
41
1
10
200.29282208899
20
-9.97409896106123
30
0
41
1
10
200.396628351908
20
-9.90472221370911
30
0
41
1
10
200.552337746283
20
-9.71455972629829
30
0
41
1
10
200.604240877741
20
-9.63687649129321
30
0
41
1
10
200.708047140658
20
-9.45180298033702
30
0
41
1
10
200.759950272117
20
-9.34440871971816
30
0
41
1
10
200.863756535034
20
-9.09953392396557
30
0
41
1
10
200.915659666492
20
-8.96205083628249
30
0
41
1
10
201.019465929409
20
-8.65746539548189
30
0
41
1
10
201.071369060868
20
-8.49036238330177
30
0
41
1
10
201.175175323785
20
-8.12790017467105
30
0
41
1
10
201.227078455243
20
-7.93254247664743
30
0
41
1
10
201.33088471816
20
-7.51581825427081
30
0
41
1
10
201.382787849619
20
-7.29445537955846
30
0
41
1
10
201.486594112536
20
-6.8287749076942
30
0
41
1
10
201.538497243994
20
-6.58446281226213
30
0
41
1
10
201.642303506911
20
-6.07660603335918
30
0
41
1
10
201.69420663837
20
-5.81306815075388
30
0
41
1
10
201.798012901287
20
-5.27096305550504
30
0
41
1
10
201.849916032745
20
-4.99240322988999
30
0
41
1
10
201.953722295662
20
-4.42472292959044
30
0
41
1
10
202.005625427121
20
-4.13560967971199
30
0
41
1
10
202.109431690038
20
-3.55133456127783
30
0
41
1
10
202.161334821496
20
-3.25617909478106
30
0
41
1
10
202.265141084413
20
-2.66416807362015
30
0
41
1
10
202.317044215872
20
-2.36731761817435
30
0
41
1
10
202.472753610247
20
-1.48023237325438
30
0
41
1
10
202.576559873164
20
-0.893749528951588
30
0
41
1
10
202.693341918946
20
-0.254169497404661
30
0
41
1
10
202.70631770181
20
-0.183380077339223
30
0
41
1
10
202.73226926754
20
-0.0423923165307087
30
0
41
1
10
202.745245050404
20
0.0276339332729378
30
0
41
1
10
202.784172398998
20
0.23899119129814
30
0
41
1
10
202.810123964727
20
0.381084905773719
30
0
41
1
10
202.887978661915
20
0.810428571944129
30
0
41
1
10
202.939881793374
20
1.1007586023596
30
0
41
1
10
203.095591187749
20
1.97937065376001
30
0
41
1
10
203.199397450666
20
2.57548878457109
30
0
41
1
10
203.355106845042
20
3.46196177138049
30
0
41
1
10
203.4070099765
20
3.75610940573253
30
0
41
1
10
203.510816239417
20
4.33732772629776
30
0
41
1
10
203.562719370876
20
4.62439176861534
30
0
41
1
10
203.666525633793
20
5.18692298333173
30
0
41
1
10
203.718428765251
20
5.46238282925219
30
0
41
1
10
203.822235028168
20
5.99727871607874
30
0
41
1
10
203.874138159627
20
6.25670743864714
30
0
41
1
10
203.977944422543
20
6.75542961810248
30
0
41
1
10
204.029847554002
20
6.99471651652937
30
0
41
1
10
204.133653816919
20
7.44957015043585
30
0
41
1
10
204.185556948378
20
7.6651317735919
30
0
41
1
10
204.289363211295
20
8.06965414038618
30
0
41
1
10
204.341266342753
20
8.25861171840501
30
0
41
1
10
204.44507260567
20
8.60787535618044
30
0
41
1
10
204.496975737128
20
8.76818042926536
30
0
41
1
10
204.600782000046
20
9.05898140794608
30
0
41
1
10
204.652685131504
20
9.1894784450925
30
0
41
1
10
204.756491394421
20
9.42039600976628
30
0
41
1
10
204.808394525879
20
9.52081946925802
30
0
41
1
10
204.860297657338
20
9.60648495361531
30
0
0
SPLINE
5
F6
100
AcDbEntity
8
1
62
256
6
ByLayer
370
13
48
1
60
0
100
AcDbSpline
70
4
71
3
72
8
73
4
40
0
40
0
40
0
40
0
40
1
40
1
40
1
40
1
41
1
10
194.4
20
9.99324100775618
30
0
41
1
10
194.422494800073
20
9.99777978558865
30
0
41
1
10
194.444989600146
20
10
30
0
41
1
10
194.46748440022
20
10
30
0
0
SPLINE
5
F7
100
AcDbEntity
8
1
62
256
6
ByLayer
370
13
48
1
60
0
100
AcDbSpline
70
4
71
3
72
134
73
130
40
0
40
0
40
0
40
0
40
0.015625
40
0.015625
40
0.03125
40
0.03125
40
0.0468750000000001
40
0.0468750000000001
40
0.0625000000000001
40
0.0625000000000001
40
0.0781250000000001
40
0.0781250000000001
40
0.0937500000000001
40
0.0937500000000001
40
0.109375
40
0.109375
40
0.125
40
0.125
40
0.140625
40
0.140625
40
0.15625
40
0.15625
40
0.171875
40
0.171875
40
0.1875
40
0.1875
40
0.203125
40
0.203125
40
0.21875
40
0.21875
40
0.234375
40
0.234375
40
0.25
40
0.25
40
0.265625
40
0.265625
40
0.28125
40
0.28125
40
0.296875
40
0.296875
40
0.3125
40
0.3125
40
0.328125
40
0.328125
40
0.34375
40
0.34375
40
0.359375
40
0.359375
40
0.375
40
0.375
40
0.390625
40
0.390625
40
0.40625
40
0.40625
40
0.421875
40
0.421875
40
0.4375
40
0.4375
40
0.453125
40
0.453125
40
0.46875
40
0.46875
40
0.484375
40
0.484375
40
0.5
40
0.5
40
0.515625
40
0.515625
40
0.531249999999999
40
0.531249999999999
40
0.546875
40
0.546875
40
0.5625
40
0.5625
40
0.578125
40
0.578125
40
0.59375
40
0.59375
40
0.609375
40
0.609375
40
0.625
40
0.625
40
0.640625
40
0.640625
40
0.65625
40
0.65625
40
0.671875
40
0.671875
40
0.6875
40
0.6875
40
0.703125
40
0.703125
40
0.71875
40
0.71875
40
0.734375
40
0.734375
40
0.75
40
0.75
40
0.765625
40
0.765625
40
0.78125
40
0.78125
40
0.796875
40
0.796875
40
0.8125
40
0.8125
40
0.828125
40
0.828125
40
0.84375
40
0.84375
40
0.859375
40
0.859375
40
0.875
40
0.875
40
0.890625
40
0.890625
40
0.90625
40
0.90625
40
0.921875
40
0.921875
40
0.9375
40
0.9375
40
0.953125
40
0.953125
40
0.96875
40
0.96875
40
0.984375
40
0.984375
40
1
40
1
40
1
40
1
41
1
10
194.400000523015
20
10
30
0
41
1
10
194.454481237256
20
10
30
0
41
1
10
194.508961951497
20
9.98696366733486
30
0
41
1
10
194.61792337998
20
9.9321345131471
30
0
41
1
10
194.672404094221
20
9.89033511695919
30
0
41
1
10
194.781365522704
20
9.77577228574114
30
0
41
1
10
194.835846236945
20
9.70300246654818
30
0
41
1
10
194.944807665428
20
9.524976777304
30
0
41
1
10
194.999288379669
20
9.41971547132982
30
0
41
1
10
195.108249808151
20
9.17605069611767
30
0
41
1
10
195.162730522393
20
9.03764353487369
30
0
41
1
10
195.271691950875
20
8.72803683392641
30
0
41
1
10
195.326172665116
20
8.55683603329274
30
0
41
1
10
195.435134093599
20
8.18307452746564
30
0
41
1
10
195.48961480784
20
7.98051541497873
30
0
41
1
10
195.598576236323
20
7.54654879218313
30
0
41
1
10
195.653056950564
20
7.31514576478932
30
0
41
1
10
195.762018379047
20
6.82699044472804
30
0
41
1
10
195.816499093288
20
6.57024513116653
30
0
41
1
10
195.92546052177
20
6.03571811842957
30
0
41
1
10
195.979941236012
20
5.75794512414828
30
0
41
1
10
196.088902664494
20
5.18625080109609
30
0
41
1
10
196.143383378735
20
4.89233889946323
30
0
41
1
10
196.252344807218
20
4.29355394965205
30
0
41
1
10
196.306825521459
20
3.98869000666636
30
0
41
1
10
196.415786949942
20
3.37320529244363
30
0
41
1
10
196.470267664183
20
3.06259240680868
30
0
41
1
10
196.579229092666
20
2.44057310303637
30
0
41
1
10
196.633709806907
20
2.12917273350075
30
0
41
1
10
196.742671235389
20
1.51008961481674
30
0
41
1
10
196.797151949631
20
1.20241079489185
30
0
41
1
10
196.906113378113
20
0.594679330458064
30
0
41
1
10
196.960594092354
20
0.294628526499224
30
0
41
1
10
197.069555520837
20
-0.294627112285667
30
0
41
1
10
197.124036235078
20
-0.594677884016363
30
0
41
1
10
197.232997663561
20
-1.20240932422251
30
0
41
1
10
197.287478377802
20
-1.51008813489221
30
0
41
1
10
197.396439806284
20
-2.12917124182624
30
0
41
1
10
197.450920520526
20
-2.44057160887053
30
0
41
1
10
197.559881949009
20
-3.06259091528179
30
0
41
1
10
197.61436266325
20
-3.37320380605036
30
0
41
1
10
197.723324091732
20
-3.98868853873287
30
0
41
1
10
197.777804805973
20
-4.29355249504729
30
0
41
1
10
197.886766234456
20
-4.89233747990005
30
0
41
1
10
197.941246948697
20
-5.18624940324705
30
0
41
1
10
198.05020837718
20
-5.7579437778644
30
0
41
1
10
198.104689091421
20
-6.03571680199641
30
0
41
1
10
198.213650519903
20
-6.5702438818698
30
0
41
1
10
198.268131234145
20
-6.82698923271505
30
0
41
1
10
198.377092662627
20
-7.31514463365653
30
0
41
1
10
198.431573376868
20
-7.54654770464339
30
0
41
1
10
198.540534805351
20
-7.9805144194784
30
0
41
1
10
198.595015519592
20
-8.18307358040732
30
0
41
1
10
198.703976948075
20
-8.55683518629559
30
0
41
1
10
198.758457662316
20
-8.72803603854371
30
0
41
1
10
198.867419090799
20
-9.03764284414393
30
0
41
1
10
198.92189980504
20
-9.17605005842208
30
0
41
1
10
199.030861233523
20
-9.41971493943421
30
0
41
1
10
199.085341947764
20
-9.52497629817086
30
0
41
1
10
199.194303376246
20
-9.70300209115777
30
0
41
1
10
199.248784090488
20
-9.77577196132881
30
0
41
1
10
199.35774551897
20
-9.89033489146968
30
0
41
1
10
199.412226233211
20
-9.93213433560138
30
0
41
1
10
199.521187661694
20
-9.98696358170039
30
0
41
1
10
199.575668375935
20
-9.99999995833323
30
0
41
1
10
199.684629804418
20
-10.0000000416666
30
0
41
1
10
199.739110518659
20
-9.9869637529691
30
0
41
1
10
199.848071947141
20
-9.93213469069258
30
0
41
1
10
199.902552661383
20
-9.89033534244848
30
0
41
1
10
200.011514089865
20
-9.77577261015321
30
0
41
1
10
200.065994804107
20
-9.70300284193837
30
0
41
1
10
200.174956232589
20
-9.5249772564369
30
0
41
1
10
200.229436946831
20
-9.41971600322515
30
0
41
1
10
200.338398375313
20
-9.17605133381301
30
0
41
1
10
200.392879089554
20
-9.0376442256032
30
0
41
1
10
200.501840518037
20
-8.72803762930886
30
0
41
1
10
200.556321232278
20
-8.55683688028969
30
0
41
1
10
200.665282660761
20
-8.18307547452375
30
0
41
1
10
200.719763375002
20
-7.9805164104788
30
0
41
1
10
200.828724803484
20
-7.54654987972265
30
0
41
1
10
200.883205517725
20
-7.31514689592188
30
0
41
1
10
200.992166946208
20
-6.82699165674086
30
0
41
1
10
201.046647660449
20
-6.57024638046309
30
0
41
1
10
201.155609088932
20
-6.03571943486259
30
0
41
1
10
201.210089803173
20
-5.75794647043205
30
0
41
1
10
201.319051231656
20
-5.18625219894503
30
0
41
1
10
201.373531945897
20
-4.89234031902629
30
0
41
1
10
201.482493374379
20
-4.29355540425672
30
0
41
1
10
201.536974088621
20
-3.98869147459976
30
0
41
1
10
201.645935517103
20
-3.37320677883687
30
0
41
1
10
201.700416231344
20
-3.06259389833554
30
0
41
1
10
201.809377659827
20
-2.44057459720224
30
0
41
1
10
201.863858374068
20
-2.12917422517526
30
0
41
1
10
201.972819802551
20
-1.51009109474128
30
0
41
1
10
202.027300516792
20
-1.20241226556124
30
0
41
1
10
202.136261945275
20
-0.594680776899821
30
0
41
1
10
202.190742659516
20
-0.294629957971722
30
0
41
1
10
202.299704087998
20
0.294625715330966
30
0
41
1
10
202.35418480224
20
0.594676437574719
30
0
41
1
10
202.463146230722
20
1.20240785355324
30
0
41
1
10
202.517626944963
20
1.51008665496772
30
0
41
1
10
202.626588373446
20
2.12916975015176
30
0
41
1
10
202.681069087687
20
2.44057011470466
30
0
41
1
10
202.79003051617
20
3.0625894237549
30
0
41
1
10
202.844511230411
20
3.37320231965702
30
0
41
1
10
202.953472658894
20
3.98868707079936
30
0
41
1
10
203.007953373135
20
4.29355104044251
30
0
41
1
10
203.116914801618
20
4.89233606033679
30
0
41
1
10
203.171395515859
20
5.18624800539789
30
0
41
1
10
203.280356944341
20
5.75794243158035
30
0
41
1
10
203.334837658582
20
6.03571548556309
30
0
41
1
10
203.443799087065
20
6.5702426325729
30
0
41
1
10
203.498279801306
20
6.82698802070186
30
0
41
1
10
203.607241229789
20
7.31514350252354
30
0
41
1
10
203.66172194403
20
7.54654661710342
30
0
41
1
10
203.770683372513
20
7.98051342397787
30
0
41
1
10
203.825164086754
20
8.18307263334873
30
0
41
1
10
203.934125515237
20
8.55683433929815
30
0
41
1
10
203.988606229478
20
8.72803524316075
30
0
41
1
10
204.09756765796
20
9.03764215341391
30
0
41
1
10
204.152048372202
20
9.1760494207262
30
0
41
1
10
204.261009800684
20
9.41971440753835
30
0
41
1
10
204.315490514925
20
9.52497581903745
30
0
41
1
10
204.424451943408
20
9.7030017157671
30
0
41
1
10
204.478932657649
20
9.77577163691626
30
0
41
1
10
204.587894086132
20
9.89033466597991
30
0
41
1
10
204.642374800373
20
9.93213415805545
30
0
41
1
10
204.751336228856
20
9.98696349606573
30
0
41
1
10
204.805816943097
20
9.99999991666627
30
0
41
1
10
204.860297657338
20
9.9999999999996
30
0
0
SPLINE
5
F8
100
AcDbEntity
8
1
62
256
6
ByLayer
370
13
48
1
60
0
100
AcDbSpline
70
4
71
3
72
129
73
125
40
0
40
0
40
0
40
0
40
0.0156249999999994
40
0.0156249999999994
40
0.0312499999999988
40
0.0312499999999988
40
0.0468749999999981
40
0.0468749999999981
40
0.0624999999999975
40
0.0624999999999975
40
0.0781249999999969
40
0.0781249999999969
40
0.0937499999999963
40
0.0937499999999963
40
0.109374999999996
40
0.109374999999996
40
0.124999999999995
40
0.124999999999995
40
0.140624999999994
40
0.140624999999994
40
0.156249999999994
40
0.156249999999994
40
0.187499999999993
40
0.187499999999993
40
0.203124999999992
40
0.203124999999992
40
0.210937499999992
40
0.210937499999992
40
0.214843749999992
40
0.214843749999992
40
0.218749999999992
40
0.218749999999992
40
0.249999999999991
40
0.249999999999991
40
0.26562499999999
40
0.26562499999999
40
0.281249999999989
40
0.281249999999989
40
0.296874999999988
40
0.296874999999988
40
0.312499999999987
40
0.312499999999987
40
0.328124999999987
40
0.328124999999987
40
0.343749999999986
40
0.343749999999986
40
0.359374999999985
40
0.359374999999985
40
0.374999999999984
40
0.374999999999984
40
0.390624999999983
40
0.390624999999983
40
0.406249999999982
40
0.406249999999982
40
0.421874999999981
40
0.421874999999981
40
0.437499999999981
40
0.437499999999981
40
0.468749999999979
40
0.468749999999979
40
0.472656249999979
40
0.472656249999979
40
0.476562499999979
40
0.476562499999979
40
0.484374999999979
40
0.484374999999979
40
0.499999999999979
40
0.499999999999979
40
0.531249999999979
40
0.531249999999979
40
0.546874999999979
40
0.546874999999979
40
0.562499999999979
40
0.562499999999979
40
0.578124999999979
40
0.578124999999979
40
0.593749999999979
40
0.593749999999979
40
0.609374999999979
40
0.609374999999979
40
0.624999999999979
40
0.624999999999979
40
0.640624999999979
40
0.640624999999979
40
0.656249999999979
40
0.656249999999979
40
0.671874999999979
40
0.671874999999979
40
0.687499999999979
40
0.687499999999979
40
0.71874999999998
40
0.71874999999998
40
0.73437499999998
40
0.73437499999998
40
0.73828124999998
40
0.73828124999998
40
0.74218749999998
40
0.749999999999981
40
0.749999999999981
40
0.781249999999983
40
0.781249999999983
40
0.796874999999984
40
0.796874999999984
40
0.812499999999985
40
0.812499999999985
40
0.828124999999986
40
0.828124999999986
40
0.843749999999988
40
0.843749999999988
40
0.859374999999989
40
0.859374999999989
40
0.87499999999999
40
0.87499999999999
40
0.890624999999991
40
0.890624999999991
40
0.906249999999992
40
0.906249999999992
40
0.921874999999993
40
0.921874999999993
40
0.937499999999994
40
0.937499999999994
40
0.968749999999997
40
0.968749999999997
40
1
40
1
40
1
40
1
41
1
10
194.4
20
9.60648668007264
30
0
41
1
10
194.451903136906
20
9.52082138457806
30
0
41
1
10
194.503806273813
20
9.42039811400511
30
0
41
1
10
194.607612547626
20
9.18948092193125
30
0
41
1
10
194.659515684533
20
9.05898406845398
30
0
41
1
10
194.763321958346
20
8.76818344626565
30
0
41
1
10
194.815225095252
20
8.60787854599042
30
0
41
1
10
194.919031369066
20
8.25861523752852
30
0
41
1
10
194.970934505972
20
8.06965781600002
30
0
41
1
10
195.074740779785
20
7.66513574098261
30
0
41
1
10
195.126643916692
20
7.44957425310147
30
0
41
1
10
195.230450190505
20
6.99472086459022
30
0
41
1
10
195.282353327412
20
6.75543407627561
30
0
41
1
10
195.386159601225
20
6.2567120891882
30
0
41
1
10
195.438062738131
20
5.99728344887205
30
0
41
1
10
195.541869011944
20
5.46238769741623
30
0
41
1
10
195.593772148851
20
5.18692790461574
30
0
41
1
10
195.697578422664
20
4.62439676718134
30
0
41
1
10
195.749481559571
20
4.33733274903173
30
0
41
1
10
195.853287833384
20
3.75611444935859
30
0
41
1
10
195.90519097029
20
3.46196681173981
30
0
41
1
10
196.06090038101
20
2.57549377789579
30
0
41
1
10
196.164706654823
20
1.97937556588013
30
0
41
1
10
196.320416065543
20
1.10076333981249
30
0
41
1
10
196.37231920245
20
0.810433242430292
30
0
41
1
10
196.45017390781
20
0.381089465713274
30
0
41
1
10
196.476125476263
20
0.238995712706327
30
0
41
1
10
196.515052828942
20
0.0276383947325201
30
0
41
1
10
196.528028613169
20
-0.0423878597173371
30
0
41
1
10
196.553980181623
20
-0.183375610391465
30
0
41
1
10
196.566955965849
20
-0.254165025872396
30
0
41
1
10
196.683738023889
20
-0.893745020662578
30
0
41
1
10
196.787544297702
20
-1.4802278646419
30
0
41
1
10
196.943253708422
20
-2.36731316827854
30
0
41
1
10
196.995156845328
20
-2.66416365310175
30
0
41
1
10
197.098963119141
20
-3.25617475340212
30
0
41
1
10
197.150866256048
20
-3.55133026966556
30
0
41
1
10
197.254672529861
20
-4.13560550790706
30
0
41
1
10
197.306575666768
20
-4.42471882782817
30
0
41
1
10
197.410381940581
20
-4.99239928737776
30
0
41
1
10
197.462285077487
20
-5.27095920219881
30
0
41
1
10
197.5660913513
20
-5.81306449290503
30
0
41
1
10
197.617994488207
20
-6.07660248175685
30
0
41
1
10
197.72180076202
20
-6.58445948716115
30
0
41
1
10
197.773703898927
20
-6.82877170284013
30
0
41
1
10
197.87751017274
20
-7.29445242544497
30
0
41
1
10
197.929413309646
20
-7.51581543064094
30
0
41
1
10
198.03321958346
20
-7.93253992001777
30
0
41
1
10
198.085122720366
20
-8.12789775454721
30
0
41
1
10
198.188928994179
20
-8.49036023787281
30
0
41
1
10
198.240832131086
20
-8.65746338823192
30
0
41
1
10
198.344638404899
20
-8.96204910290527
30
0
41
1
10
198.396541541806
20
-9.09953232627399
30
0
41
1
10
198.500347815619
20
-9.34440738720207
30
0
41
1
10
198.552250952525
20
-9.45180177730535
30
0
41
1
10
198.656057226339
20
-9.63687553798724
30
0
41
1
10
198.707960363245
20
-9.71455889323116
30
0
41
1
10
198.863669773965
20
-9.9047217240942
30
0
41
1
10
198.967476047778
20
-9.9740986770133
30
0
41
1
10
199.084258105817
20
-9.99641009036358
30
0
41
1
10
199.097233890044
20
-9.99811941403811
30
0
41
1
10
199.123185458498
20
-10.0000360738724
30
0
41
1
10
199.136161242724
20
-10.0002465771045
30
0
41
1
10
199.175088595404
20
-9.99865864047973
30
0
41
1
10
199.201040163857
20
-9.99461735256639
30
0
41
1
10
199.278894869217
20
-9.97309904687302
30
0
41
1
10
199.330798006124
20
-9.9462143292296
30
0
41
1
10
199.486507416843
20
-9.82477056456617
30
0
41
1
10
199.590313690657
20
-9.68908793860552
30
0
41
1
10
199.746023101376
20
-9.39558143373253
30
0
41
1
10
199.797926238283
20
-9.28282577863644
30
0
41
1
10
199.901732512096
20
-9.027247296192
30
0
41
1
10
199.953635649003
20
-8.88442222461171
30
0
41
1
10
200.057441922816
20
-8.56932972533059
30
0
41
1
10
200.109345059722
20
-8.39706201102737
30
0
41
1
10
200.213151333535
20
-8.02460775097424
30
0
41
1
10
200.265054470442
20
-7.82442309621365
30
0
41
1
10
200.368860744255
20
-7.39853373339628
30
0
41
1
10
200.420763881162
20
-7.17283303535115
30
0
41
1
10
200.524570154975
20
-6.69909658551683
30
0
41
1
10
200.576473291881
20
-6.45106661373038
30
0
41
1
10
200.680279565695
20
-5.93649435528579
30
0
41
1
10
200.732182702601
20
-5.66995902899868
30
0
41
1
10
200.835988976414
20
-5.12264294010308
30
0
41
1
10
200.887892113321
20
-4.84186958940754
30
0
41
1
10
200.991698387134
20
-4.27056996371977
30
0
41
1
10
201.04360152404
20
-3.98005081098398
30
0
41
1
10
201.147407797854
20
-3.39375686734863
30
0
41
1
10
201.19931093476
20
-3.09798827515735
30
0
41
1
10
201.35502034548
20
-2.20924891928175
30
0
41
1
10
201.458826619293
20
-1.61510222936701
30
0
41
1
10
201.614536030013
20
-0.743536659945704
30
0
41
1
10
201.666439166919
20
-0.456231017914519
30
0
41
1
10
201.731318088053
20
-0.1029228603403
30
0
41
1
10
201.744293872279
20
-0.032710860238069
30
0
41
1
10
201.770245440733
20
0.107850368123678
30
0
41
1
10
201.809172793412
20
0.31959937499596
30
0
41
1
10
201.848100146092
20
0.533892940179811
30
0
41
1
10
201.977857988359
20
1.25298726573095
30
0
41
1
10
202.081664262172
20
1.84389774729269
30
0
41
1
10
202.237373672892
20
2.73281397152127
30
0
41
1
10
202.289276809798
20
3.0294760147101
30
0
41
1
10
202.393083083611
20
3.61935671127071
30
0
41
1
10
202.444986220518
20
3.9125696861027
30
0
41
1
10
202.548792494331
20
4.49111553874775
30
0
41
1
10
202.600695631238
20
4.77644160653873
30
0
41
1
10
202.704501905051
20
5.33469420725578
30
0
41
1
10
202.756405041957
20
5.60761336124236
30
0
41
1
10
202.86021131577
20
6.13666518506207
30
0
41
1
10
202.912114452677
20
6.39279061716058
30
0
41
1
10
203.01592072649
20
6.88422265903273
30
0
41
1
10
203.067823863397
20
7.11952292186365
30
0
41
1
10
203.17163013721
20
7.56583357422517
30
0
41
1
10
203.223533274116
20
7.77683916885127
30
0
41
1
10
203.327339547929
20
8.17182028571958
30
0
41
1
10
203.379242684836
20
8.35579302237397
30
0
41
1
10
203.483048958649
20
8.69481432882543
30
0
41
1
10
203.534952095556
20
8.84986230233568
30
0
41
1
10
203.638758369369
20
9.13003724090512
30
0
41
1
10
203.690661506275
20
9.25516568818483
30
0
41
1
10
203.846370916995
20
9.58549915467628
30
0
41
1
10
203.950177190808
20
9.74531441249951
30
0
41
1
10
204.157789738435
20
9.95248523963181
30
0
41
1
10
204.261596012248
20
10
30
0
41
1
10
204.365402286061
20
10
30
0
0
SPLINE
5
F9
100
AcDbEntity
8
1
62
256
6
ByLayer
370
13
48
1
60
0
100
AcDbSpline
70
4
71
3
72
10
73
6
40
0
40
0
40
0
40
0
40
0.5
40
0.5
40
1
40
1
40
1
40
1
41
1
10
204.297918408856
20
10
30
0
41
1
10
204.391648283603
20
10
30
0
41
1
10
204.48537815835
20
9.96130390635415
30
0
41
1
10
204.672837907844
20
9.7936841432213
30
0
41
1
10
204.766567782591
20
9.66466339512078
30
0
41
1
10
204.860297657338
20
9.48677281488514
30
0
0
SPLINE
5
FA
100
AcDbEntity
8
1
62
256
6
ByLayer
370
13
48
1
60
0
100
AcDbSpline
70
4
71
3
72
86
73
82
40
0
40
0
40
0
40
0
40
0.0312499999999987
40
0.0312499999999987
40
0.0624999999999974
40
0.0624999999999974
40
0.093749999999996
40
0.093749999999996
40
0.124999999999995
40
0.124999999999995
40
0.156249999999993
40
0.156249999999993
40
0.164062499999993
40
0.164062499999993
40
0.171874999999993
40
0.171874999999993
40
0.187499999999993
40
0.187499999999993
40
0.218749999999991
40
0.218749999999991
40
0.24999999999999
40
0.24999999999999
40
0.281249999999988
40
0.281249999999988
40
0.312499999999987
40
0.312499999999987
40
0.343749999999986
40
0.343749999999986
40
0.374999999999984
40
0.374999999999984
40
0.406249999999983
40
0.406249999999983
40
0.437499999999981
40
0.437499999999981
40
0.445312499999981
40
0.445312499999981
40
0.449218749999981
40
0.449218749999981
40
0.453124999999981
40
0.453124999999981
40
0.46874999999998
40
0.46874999999998
40
0.499999999999979
40
0.499999999999979
40
0.531249999999978
40
0.531249999999978
40
0.562499999999976
40
0.562499999999976
40
0.593749999999975
40
0.593749999999975
40
0.624999999999973
40
0.624999999999973
40
0.656249999999972
40
0.656249999999972
40
0.68749999999997
40
0.68749999999997
40
0.718749999999969
40
0.718749999999969
40
0.722656249999969
40
0.722656249999969
40
0.726562499999969
40
0.726562499999969
40
0.734374999999969
40
0.734374999999969
40
0.749999999999971
40
0.749999999999971
40
0.781249999999974
40
0.781249999999974
40
0.812499999999978
40
0.812499999999978
40
0.843749999999982
40
0.843749999999982
40
0.874999999999985
40
0.874999999999985
40
0.906249999999989
40
0.906249999999989
40
0.937499999999993
40
0.937499999999993
40
0.968749999999996
40
0.968749999999996
40
1
40
1
40
1
40
1
41
1
10
194.4
20
8.33846208538802
30
0
41
1
10
194.498651108247
20
7.99690710410448
30
0
41
1
10
194.597302216495
20
7.60382110301279
30
0
41
1
10
194.79460443299
20
6.73222233765264
30
0
41
1
10
194.893255541238
20
6.25383813652363
30
0
41
1
10
195.090557757733
20
5.23841335331574
30
0
41
1
10
195.189208865981
20
4.70155177251206
30
0
41
1
10
195.386511082476
20
3.60019128521103
30
0
41
1
10
195.485162190724
20
3.03585828596596
30
0
41
1
10
195.682464407219
20
1.90940342062811
30
0
41
1
10
195.781115515466
20
1.34738686491102
30
0
41
1
10
195.904429400776
20
0.661532406800632
30
0
41
1
10
195.929092177838
20
0.525178162571279
30
0
41
1
10
195.978417731961
20
0.254412108893774
30
0
41
1
10
196.003080509023
20
0.120139981868391
30
0
41
1
10
196.077068840209
20
-0.28020368730347
30
0
41
1
10
196.126394394333
20
-0.551522691252188
30
0
41
1
10
196.274371056704
20
-1.37519444745428
30
0
41
1
10
196.373022164952
20
-1.93746787189659
30
0
41
1
10
196.570324381447
20
-3.06397778478484
30
0
41
1
10
196.668975489695
20
-3.62810775284623
30
0
41
1
10
196.86627770619
20
-4.72854322740002
30
0
41
1
10
196.964928814437
20
-5.26468213526169
30
0
41
1
10
197.162231030933
20
-6.27816584815403
30
0
41
1
10
197.26088213918
20
-6.75533197404107
30
0
41
1
10
197.458184355675
20
-7.62411267799627
30
0
41
1
10
197.556835463923
20
-8.01560000546874
30
0
41
1
10
197.754137680418
20
-8.69530986175309
30
0
41
1
10
197.852788788666
20
-8.98349984862179
30
0
41
1
10
198.050091005161
20
-9.45047377450425
30
0
41
1
10
198.148742113409
20
-9.62931903312517
30
0
41
1
10
198.346044329904
20
-9.88255533809547
30
0
41
1
10
198.444695438151
20
-9.95706339858469
30
0
41
1
10
198.568009323461
20
-9.99316430572915
30
0
41
1
10
198.592672100523
20
-9.99754758022894
30
0
41
1
10
198.629666266115
20
-10.0000576234986
30
0
41
1
10
198.641997654646
20
-10.0002198931814
30
0
41
1
10
198.666660431708
20
-9.99920744165277
30
0
41
1
10
198.678991820239
20
-9.9980278661543
30
0
41
1
10
198.740648762894
20
-9.98868213987583
30
0
41
1
10
198.789974317018
20
-9.9701611336798
30
0
41
1
10
198.937950979389
20
-9.87859898553126
30
0
41
1
10
199.036602087637
20
-9.76930841532993
30
0
41
1
10
199.233904304132
20
-9.44366408158743
30
0
41
1
10
199.332555412379
20
-9.2272069313421
30
0
41
1
10
199.529857628875
20
-8.68572789322593
30
0
41
1
10
199.628508737122
20
-8.3606741156124
30
0
41
1
10
199.825810953618
20
-7.61202676333718
30
0
41
1
10
199.924462061865
20
-7.188500663513
30
0
41
1
10
200.12176427836
20
-6.263998865758
30
0
41
1
10
200.220415386608
20
-5.76317479198184
30
0
41
1
10
200.417717603103
20
-4.71284106591122
30
0
41
1
10
200.516368711351
20
-4.16351300692506
30
0
41
1
10
200.713670927846
20
-3.04737668141712
30
0
41
1
10
200.812322036093
20
-2.48071811311885
30
0
41
1
10
201.009624252589
20
-1.35837048597651
30
0
41
1
10
201.108275360836
20
-0.80276242929844
30
0
41
1
10
201.219257857615
20
-0.196318688209601
30
0
41
1
10
201.231589246146
20
-0.129189890967012
30
0
41
1
10
201.256252023208
20
0.0045253326966588
30
0
41
1
10
201.268583411739
20
0.0711371725213326
30
0
41
1
10
201.305577577331
20
0.272317066181728
30
0
41
1
10
201.330240354393
20
0.407496908771748
30
0
41
1
10
201.404228685579
20
0.81578020641976
30
0
41
1
10
201.453554239703
20
1.09164175476317
30
0
41
1
10
201.601530902074
20
1.92622844718596
30
0
41
1
10
201.700182010322
20
2.49213431206673
30
0
41
1
10
201.897484226817
20
3.61657157318953
30
0
41
1
10
201.996135335065
20
4.17497351533606
30
0
41
1
10
202.19343755156
20
5.25367877991954
30
0
41
1
10
202.292088659807
20
5.77380485510017
30
0
41
1
10
202.489390876303
20
6.74576189670495
30
0
41
1
10
202.58804198455
20
7.19742428224077
30
0
41
1
10
202.785344201045
20
8.00821199720681
30
0
41
1
10
202.883995309293
20
8.36723828381659
30
0
41
1
10
203.081297525788
20
8.97870106261956
30
0
41
1
10
203.179948634036
20
9.2311381262453
30
0
41
1
10
203.377250850531
20
9.6271096713852
30
0
41
1
10
203.475901958779
20
9.77072903749374
30
0
41
1
10
203.673204175274
20
9.95711195945938
30
0
41
1
10
203.771855283521
20
10
30
0
41
1
10
203.870506391769
20
10
30
0
0
SPLINE
5
FB
100
AcDbEntity
8
1
62
256
6
ByLayer
370
13
48
1
60
0
100
AcDbSpline
70
4
71
3
72
14
73
10
40
0
40
0
40
0
40
0
40
0.25
40
0.25
40
0.5
40
0.5
40
0.75
40
0.75
40
1
40
1
40
1
40
1
41
1
10
203.803022514564
20
10
30
0
41
1
10
203.891128776462
20
10
30
0
41
1
10
203.979235038359
20
9.96582637786977
30
0
41
1
10
204.155447562155
20
9.81836406736983
30
0
41
1
10
204.243553824053
20
9.70500363980466
30
0
41
1
10
204.419766347849
20
9.39242960328355
30
0
41
1
10
204.507872609747
20
9.19316028654239
30
0
41
1
10
204.684085133542
20
8.70819100842732
30
0
41
1
10
204.77219139544
20
8.42247313124798
30
0
41
1
10
204.860297657338
20
8.09692417867697
30
0
0
SPLINE
5
FC
100
AcDbEntity
8
1
62
256
6
ByLayer
370
13
48
1
60
0
100
AcDbSpline
70
4
71
3
72
87
73
83
40
0
40
0
40
0
40
0
40
0.031249999999998
40
0.031249999999998
40
0.062499999999996
40
0.062499999999996
40
0.0937499999999941
40
0.0937499999999941
40
0.124999999999992
40
0.124999999999992
40
0.128906249999992
40
0.128906249999992
40
0.132812499999992
40
0.140624999999992
40
0.140624999999992
40
0.156249999999992
40
0.156249999999992
40
0.187499999999992
40
0.187499999999992
40
0.218749999999993
40
0.218749999999993
40
0.249999999999993
40
0.249999999999993
40
0.281249999999993
40
0.281249999999993
40
0.312499999999994
40
0.312499999999994
40
0.343749999999994
40
0.343749999999994
40
0.374999999999994
40
0.374999999999994
40
0.406249999999995
40
0.406249999999995
40
0.414062499999995
40
0.414062499999995
40
0.417968749999994
40
0.417968749999994
40
0.421874999999994
40
0.421874999999994
40
0.437499999999996
40
0.437499999999996
40
0.468749999999999
40
0.468749999999999
40
0.500000000000001
40
0.500000000000001
40
0.531250000000004
40
0.531250000000004
40
0.562500000000007
40
0.562500000000007
40
0.59375000000001
40
0.59375000000001
40
0.625000000000013
40
0.625000000000013
40
0.656250000000015
40
0.656250000000015
40
0.687500000000018
40
0.687500000000018
40
0.70312500000002
40
0.70312500000002
40
0.707031250000019
40
0.707031250000019
40
0.710937500000019
40
0.710937500000019
40
0.718750000000018
40
0.718750000000018
40
0.750000000000016
40
0.750000000000016
40
0.781250000000015
40
0.781250000000015
40
0.812500000000013
40
0.812500000000013
40
0.843750000000011
40
0.843750000000011
40
0.875000000000008
40
0.875000000000008
40
0.906250000000006
40
0.906250000000006
40
0.937500000000004
40
0.937500000000004
40
0.968750000000002
40
0.968750000000002
40
1
40
1
40
1
40
1
41
1
10
194.4
20
6.23551553916684
30
0
41
1
10
194.493495942682
20
5.77386514144209
30
0
41
1
10
194.586991885364
20
5.28176346198117
30
0
41
1
10
194.773983770728
20
4.26204623722381
30
0
41
1
10
194.86747971341
20
3.73456704956868
30
0
41
1
10
195.054471598774
20
2.67040781533294
30
0
41
1
10
195.147967541456
20
2.13383125484898
30
0
41
1
10
195.33495942682
20
1.07471781946148
30
0
41
1
10
195.428455369503
20
0.552232153330323
30
0
41
1
10
195.53363830502
20
-0.0176571535256755
30
0
41
1
10
195.545325297855
20
-0.0808383067475233
30
0
41
1
10
195.568699283526
20
-0.207980540077926
30
0
41
1
10
195.603760262031
20
-0.399405456354231
30
0
41
1
10
195.638821240537
20
-0.592832053405658
30
0
41
1
10
195.708943197549
20
-0.981965668419377
30
0
41
1
10
195.75569116889
20
-1.2444399937163
30
0
41
1
10
195.895935082913
20
-2.0374878430313
30
0
41
1
10
195.989431025595
20
-2.57382602700073
30
0
41
1
10
196.176422910959
20
-3.63901914274518
30
0
41
1
10
196.269918853641
20
-4.16777342997364
30
0
41
1
10
196.456910739005
20
-5.19164470910309
30
0
41
1
10
196.550406681687
20
-5.68662634524949
30
0
41
1
10
196.737398567051
20
-6.61713666961475
30
0
41
1
10
196.830894509733
20
-7.05253400736962
30
0
41
1
10
197.017886395097
20
-7.84256336766086
30
0
41
1
10
197.11138233778
20
-8.19711086582848
30
0
41
1
10
197.298374223143
20
-8.8120274326721
30
0
41
1
10
197.391870165826
20
-9.07238330388338
30
0
41
1
10
197.57886205119
20
-9.49493678448846
30
0
41
1
10
197.672357993872
20
-9.65718717274953
30
0
41
1
10
197.859349879236
20
-9.88834093040811
30
0
41
1
10
197.952845821918
20
-9.95733498446182
30
0
41
1
10
198.06971575027
20
-9.99231602742881
30
0
41
1
10
198.093089735941
20
-9.99676098465346
30
0
41
1
10
198.128150714447
20
-9.999763172445
30
0
41
1
10
198.139837707282
20
-10.0001538254886
30
0
41
1
10
198.163211692952
20
-9.99973852045983
30
0
41
1
10
198.174898685788
20
-9.99892922126369
30
0
41
1
10
198.233333649964
20
-9.99180501248676
30
0
41
1
10
198.280081621305
20
-9.97624817453683
30
0
41
1
10
198.420325535328
20
-9.89753067512859
30
0
41
1
10
198.51382147801
20
-9.80212962509324
30
0
41
1
10
198.700813363374
20
-9.51593759312189
30
0
41
1
10
198.794309306056
20
-9.32506348809846
30
0
41
1
10
198.98130119142
20
-8.84541696832926
30
0
41
1
10
199.074797134102
20
-8.55660892400243
30
0
41
1
10
199.261789019466
20
-7.88772624879294
30
0
41
1
10
199.355284962148
20
-7.50768653161288
30
0
41
1
10
199.542276847513
20
-6.67219217628931
30
0
41
1
10
199.635772790195
20
-6.21683952649562
30
0
41
1
10
199.822764675559
20
-5.25369345478046
30
0
41
1
10
199.916260618241
20
-4.74603725382866
30
0
41
1
10
200.103252503605
20
-3.70464746087075
30
0
41
1
10
200.196748446287
20
-3.17104232608926
30
0
41
1
10
200.383740331651
20
-2.10335190505143
30
0
41
1
10
200.477236274333
20
-1.56935257983662
30
0
41
1
10
200.617480188356
20
-0.784120497771625
30
0
41
1
10
200.664228159697
20
-0.52496436382657
30
0
41
1
10
200.722663123873
20
-0.205588610271065
30
0
41
1
10
200.734350116709
20
-0.141941000184232
30
0
41
1
10
200.757724102379
20
-0.0151304789217193
30
0
41
1
10
200.769411095215
20
0.0479624463297057
30
0
41
1
10
200.80447207372
20
0.238428318620777
30
0
41
1
10
200.827846059391
20
0.366365691512982
30
0
41
1
10
200.944715987744
20
1.01024051329915
30
0
41
1
10
201.038211930425
20
1.53896788611618
30
0
41
1
10
201.22520381579
20
2.60427122766185
30
0
41
1
10
201.318699758472
20
3.14078008929184
30
0
41
1
10
201.505691643836
20
4.19728539845838
30
0
41
1
10
201.599187586518
20
4.71716562232092
30
0
41
1
10
201.786179471882
20
5.71391164989132
30
0
41
1
10
201.879675414564
20
6.19063839666646
30
0
41
1
10
202.066667299928
20
7.07638828164406
30
0
41
1
10
202.16016324261
20
7.48529223141901
30
0
41
1
10
202.347155127974
20
8.21656642782875
30
0
41
1
10
202.440651070656
20
8.53887603851896
30
0
41
1
10
202.62764295602
20
9.08682176399611
30
0
41
1
10
202.721138898702
20
9.31247009912315
30
0
41
1
10
202.908130784066
20
9.66639604556059
30
0
41
1
10
203.001626726749
20
9.79474369333803
30
0
41
1
10
203.188618612113
20
9.96149771887551
30
0
41
1
10
203.282114554795
20
10
30
0
41
1
10
203.375610497477
20
10
30
0
0
SPLINE
5
FD
100
AcDbEntity
8
1
62
256
6
ByLayer
370
13
48
1
60
0
100
AcDbSpline
70
4
71
3
72
22
73
18
40
0
40
0
40
0
40
0
40
0.125
40
0.125
40
0.25
40
0.25
40
0.375
40
0.375
40
0.5
40
0.5
40
0.625
40
0.625
40
0.75
40
0.75
40
0.875
40
0.875
40
1
40
1
40
1
40
1
41
1
10
203.308126620272
20
10
30
0
41
1
10
203.372800413483
20
10
30
0
41
1
10
203.437474206694
20
9.98161912714392
30
0
41
1
10
203.566821793116
20
9.90367199131308
30
0
41
1
10
203.631495586327
20
9.84409022063539
30
0
41
1
10
203.760843172749
20
9.68033184030762
30
0
41
1
10
203.825516965961
20
9.57614083329389
30
0
41
1
10
203.954864552383
20
9.32125525866527
30
0
41
1
10
204.019538345594
20
9.17054999606785
30
0
41
1
10
204.148885932016
20
8.82261462023257
30
0
41
1
10
204.213559725227
20
8.62537999188407
30
0
41
1
10
204.342907311649
20
8.1864893695078
30
0
41
1
10
204.40758110486
20
7.94483668578772
30
0
41
1
10
204.536928691283
20
7.42136152700834
30
0
41
1
10
204.601602484494
20
7.13955039036446
30
0
41
1
10
204.730950070916
20
6.54193743409471
30
0
41
1
10
204.795623864127
20
6.22615351440638
30
0
41
1
10
204.860297657338
20
5.89720464544038
30
0
0
SPLINE
5
FE
100
AcDbEntity
8
1
62
256
6
ByLayer
370
13
48
1
60
0
100
AcDbSpline
70
4
71
3
72
82
73
78
40
0
40
0
40
0
40
0
40
0.0312500000000012
40
0.0312500000000012
40
0.0625000000000023
40
0.0625000000000023
40
0.0703125000000023
40
0.0703125000000023
40
0.0781250000000022
40
0.0781250000000022
40
0.0937500000000028
40
0.0937500000000028
40
0.125000000000004
40
0.125000000000004
40
0.156250000000005
40
0.156250000000005
40
0.187500000000006
40
0.187500000000006
40
0.218750000000007
40
0.218750000000007
40
0.250000000000009
40
0.250000000000009
40
0.28125000000001
40
0.28125000000001
40
0.312500000000011
40
0.312500000000011
40
0.343750000000012
40
0.343750000000012
40
0.375000000000013
40
0.375000000000013
40
0.382812500000013
40
0.382812500000013
40
0.390625000000013
40
0.390625000000013
40
0.406250000000012
40
0.406250000000012
40
0.43750000000001
40
0.43750000000001
40
0.468750000000008
40
0.468750000000008
40
0.500000000000006
40
0.500000000000006
40
0.531250000000004
40
0.531250000000004
40
0.562500000000003
40
0.562500000000003
40
0.593750000000001
40
0.593750000000001
40
0.624999999999999
40
0.624999999999999
40
0.656249999999997
40
0.656249999999997
40
0.687499999999995
40
0.687499999999995
40
0.695312499999995
40
0.695312499999995
40
0.703124999999994
40
0.703124999999994
40
0.718749999999995
40
0.718749999999995
40
0.749999999999995
40
0.749999999999995
40
0.781249999999996
40
0.781249999999996
40
0.812499999999996
40
0.812499999999996
40
0.843749999999997
40
0.843749999999997
40
0.874999999999998
40
0.874999999999998
40
0.906249999999998
40
0.906249999999998
40
0.937499999999999
40
0.937499999999999
40
0.968749999999999
40
0.968749999999999
40
1
40
1
40
1
40
1
41
1
10
194.4
20
3.57760074112235
30
0
41
1
10
194.488340777116
20
3.07760042626774
30
0
41
1
10
194.576681554233
20
2.57088081094253
30
0
41
1
10
194.753363108466
20
1.56435110243811
30
0
41
1
10
194.841703885582
20
1.06459145186526
30
0
41
1
10
194.952129856978
20
0.454581448135087
30
0
41
1
10
194.974215051257
20
0.333302722737017
30
0
41
1
10
195.018385439816
20
0.0924033843227789
30
0
41
1
10
195.040470634095
20
-0.0266566973375291
30
0
41
1
10
195.106726216932
20
-0.387086049903616
30
0
41
1
10
195.15089660549
20
-0.630771341305348
30
0
41
1
10
195.283407771165
20
-1.36941319335023
30
0
41
1
10
195.371748548282
20
-1.87208913187661
30
0
41
1
10
195.548430102514
20
-2.88054314646064
30
0
41
1
10
195.636770879631
20
-3.38626293231835
30
0
41
1
10
195.813452433864
20
-4.37977173600788
30
0
41
1
10
195.90179321098
20
-4.86746924287061
30
0
41
1
10
196.078474765214
20
-5.80258266096664
30
0
41
1
10
196.16681554233
20
-6.24989361489224
30
0
41
1
10
196.343497096563
20
-7.08360275216188
30
0
41
1
10
196.43183787368
20
-7.46991182181375
30
0
41
1
10
196.608519427913
20
-8.16573386518107
30
0
41
1
10
196.696860205029
20
-8.47519951474806
30
0
41
1
10
196.873541759262
20
-9.0083359092977
30
0
41
1
10
196.961882536379
20
-9.23201140023474
30
0
41
1
10
197.138564090612
20
-9.59211299926395
30
0
41
1
10
197.226904867728
20
-9.72858717513193
30
0
41
1
10
197.403586421961
20
-9.91953389867595
30
0
41
1
10
197.491927199078
20
-9.97407701082898
30
0
41
1
10
197.602353170473
20
-9.99730731509661
30
0
41
1
10
197.624438364752
20
-9.99971464567312
30
0
41
1
10
197.668608753311
20
-10.0002375250708
30
0
41
1
10
197.69069394759
20
-9.99836333382615
30
0
41
1
10
197.756949530427
20
-9.9860598206308
30
0
41
1
10
197.801119918985
20
-9.96894065236879
30
0
41
1
10
197.93363108466
20
-9.88878174479933
30
0
41
1
10
198.021971861777
20
-9.79678540397765
30
0
41
1
10
198.19865341601
20
-9.52772105313022
30
0
41
1
10
198.286994193126
20
-9.35059013537415
30
0
41
1
10
198.463675747359
20
-8.90890416710022
30
0
41
1
10
198.552016524476
20
-8.64431927914603
30
0
41
1
10
198.728698078709
20
-8.03260308082048
30
0
41
1
10
198.817038855825
20
-7.68549148252416
30
0
41
1
10
198.993720410058
20
-6.9210334135322
30
0
41
1
10
199.082061187175
20
-6.50375633397042
30
0
41
1
10
199.258742741408
20
-5.61735733827899
30
0
41
1
10
199.347083518524
20
-5.14833575272155
30
0
41
1
10
199.523765072757
20
-4.18028196245407
30
0
41
1
10
199.612105849874
20
-3.68135170989535
30
0
41
1
10
199.788787404107
20
-2.67560773159369
30
0
41
1
10
199.877128181223
20
-2.16887148297093
30
0
41
1
10
200.053809735456
20
-1.16715230229431
30
0
41
1
10
200.142150512573
20
-0.672209552070512
30
0
41
1
10
200.252576483969
20
-0.0704683961808996
30
0
41
1
10
200.274661678248
20
0.0485527898517262
30
0
41
1
10
200.318832066806
20
0.289044881498342
30
0
41
1
10
200.340917261085
20
0.410132233933553
30
0
41
1
10
200.407172843922
20
0.775604379796135
30
0
41
1
10
200.451343232481
20
1.0222085233988
30
0
41
1
10
200.583854398156
20
1.76803807184063
30
0
41
1
10
200.672195175272
20
2.27340212477321
30
0
41
1
10
200.848876729505
20
3.28192904608232
30
0
41
1
10
200.937217506621
20
3.78502372805738
30
0
41
1
10
201.113899060854
20
4.76736579860284
30
0
41
1
10
201.202239837971
20
5.24651561597955
30
0
41
1
10
201.378921392204
20
6.1587615887743
30
0
41
1
10
201.46726216932
20
6.59175401055825
30
0
41
1
10
201.643943723554
20
7.39204013093777
30
0
41
1
10
201.73228450067
20
7.75925374542109
30
0
41
1
10
201.908966054903
20
8.41377116930954
30
0
41
1
10
201.99730683202
20
8.70104128117003
30
0
41
1
10
202.173988386253
20
9.18867587144877
30
0
41
1
10
202.262329163369
20
9.38905812420069
30
0
41
1
10
202.439010717602
20
9.7033759286777
30
0
41
1
10
202.527351494719
20
9.81736777928447
30
0
41
1
10
202.704033048952
20
9.96564347483567
30
0
41
1
10
202.792373826068
20
10
30
0
41
1
10
202.880714603185
20
10
30
0
0
SPLINE
5
FF
100
AcDbEntity
8
1
62
256
6
ByLayer
370
13
48
1
60
0
100
AcDbSpline
70
4
71
3
72
22
73
18
40
0
40
0
40
0
40
0
40
0.125
40
0.125
40
0.25
40
0.25
40
0.375
40
0.375
40
0.5
40
0.5
40
0.625
40
0.625
40
0.75
40
0.75
40
0.875
40
0.875
40
1
40
1
40
1
40
1
41
1
10
202.81323072598
20
10
30
0
41
1
10
202.898525181453
20
10
30
0
41
1
10
202.983819636926
20
9.96798085418621
30
0
41
1
10
203.154408547873
20
9.83008724505896
30
0
41
1
10
203.239703003346
20
9.72415160394058
30
0
41
1
10
203.410291914292
20
9.43209146147763
30
0
41
1
10
203.495586369766
20
9.24591808339054
30
0
41
1
10
203.666175280712
20
8.7923648906208
30
0
41
1
10
203.751469736186
20
8.52496606359634
30
0
41
1
10
203.922058647132
20
7.9143447926196
30
0
41
1
10
204.007353102605
20
7.57114454403759
30
0
41
1
10
204.177942013552
20
6.82068948497727
30
0
41
1
10
204.263236469025
20
6.41349624000057
30
0
41
1
10
204.433825379972
20
5.5519321344801
30
0
41
1
10
204.519119835445
20
5.09764632653542
30
0
41
1
10
204.689708746391
20
4.16160968329518
30
0
41
1
10
204.775003201865
20
3.6799441975443
30
0
41
1
10
204.860297657338
20
3.19449634900616
30
0
0
SPLINE
5
100
100
AcDbEntity
8
1
62
256
6
ByLayer
370
13
48
1
60
0
100
AcDbSpline
70
4
71
3
72
84
73
80
40
0
40
0
40
0
40
0
40
0.0156250000000013
40
0.0156250000000013
40
0.0195312500000012
40
0.0195312500000012
40
0.023437500000001
40
0.0312500000000006
40
0.0312500000000006
40
0.0624999999999979
40
0.0624999999999979
40
0.0937499999999951
40
0.0937499999999951
40
0.124999999999992
40
0.124999999999992
40
0.15624999999999
40
0.15624999999999
40
0.187499999999987
40
0.187499999999987
40
0.218749999999984
40
0.218749999999984
40
0.249999999999981
40
0.249999999999981
40
0.281249999999979
40
0.281249999999979
40
0.312499999999976
40
0.312499999999976
40
0.343749999999974
40
0.343749999999974
40
0.347656249999973
40
0.347656249999973
40
0.351562499999973
40
0.359374999999973
40
0.359374999999973
40
0.374999999999973
40
0.374999999999973
40
0.406249999999973
40
0.406249999999973
40
0.437499999999973
40
0.437499999999973
40
0.468749999999973
40
0.468749999999973
40
0.499999999999973
40
0.499999999999973
40
0.531249999999973
40
0.531249999999973
40
0.562499999999973
40
0.562499999999973
40
0.593749999999973
40
0.593749999999973
40
0.624999999999973
40
0.624999999999973
40
0.656249999999973
40
0.656249999999973
40
0.671874999999973
40
0.671874999999973
40
0.679687499999973
40
0.679687499999973
40
0.687499999999973
40
0.687499999999973
40
0.718749999999976
40
0.718749999999976
40
0.749999999999979
40
0.749999999999979
40
0.781249999999981
40
0.781249999999981
40
0.812499999999984
40
0.812499999999984
40
0.843749999999987
40
0.843749999999987
40
0.874999999999989
40
0.874999999999989
40
0.906249999999992
40
0.906249999999992
40
0.937499999999995
40
0.937499999999995
40
0.968749999999997
40
0.968749999999997
40
1
40
1
40
1
40
1
41
1
10
194.4
20
0.771343929830238
30
0
41
1
10
194.441592805775
20
0.540194738158704
30
0
41
1
10
194.483185611551
20
0.3114052601087
30
0
41
1
10
194.53517661877
20
0.02925830706684
30
0
41
1
10
194.545574820214
20
-0.0268787575826934
30
0
41
1
10
194.566371223102
20
-0.139726750312803
30
0
41
1
10
194.597565827433
20
-0.309573152038581
30
0
41
1
10
194.628760431765
20
-0.481050710964268
30
0
41
1
10
194.732742446204
20
-1.05582273004046
30
0
41
1
10
194.815928057755
20
-1.52595813282849
30
0
41
1
10
194.982299280857
20
-2.47315169580318
30
0
41
1
10
195.065484892408
20
-2.95017379995576
30
0
41
1
10
195.23185611551
20
-3.89426515248914
30
0
41
1
10
195.315041727061
20
-4.36127309863656
30
0
41
1
10
195.481412950162
20
-5.26678975018723
30
0
41
1
10
195.564598561713
20
-5.70522197119189
30
0
41
1
10
195.730969784815
20
-6.53548537807396
30
0
41
1
10
195.814155396366
20
-6.92724275044193
30
0
41
1
10
195.980526619468
20
-7.64882819619226
30
0
41
1
10
196.063712231019
20
-7.97860439510779
30
0
41
1
10
196.230083454121
20
-8.56563000274818
30
0
41
1
10
196.313269065672
20
-8.82286200794488
30
0
41
1
10
196.479640288774
20
-9.26001037406837
30
0
41
1
10
196.562825900325
20
-9.43994461429514
30
0
41
1
10
196.729197123427
20
-9.72350153545449
30
0
41
1
10
196.812382734978
20
-9.82716753508913
30
0
41
1
10
196.97875395808
20
-9.96402109699861
30
0
41
1
10
197.061939569631
20
-9.99726261920938
30
0
41
1
10
197.155523382626
20
-10.0001588248042
30
0
41
1
10
197.16592158407
20
-10.0000058866987
30
0
41
1
10
197.186717986957
20
-9.99874127321306
30
0
41
1
10
197.217912591289
20
-9.99540186251539
30
0
41
1
10
197.249107195621
20
-9.98764676726145
30
0
41
1
10
197.311496404284
20
-9.96602491376501
30
0
41
1
10
197.353089210059
20
-9.94345594030042
30
0
41
1
10
197.477867627386
20
-9.84966675060289
30
0
41
1
10
197.561053238937
20
-9.75223532580014
30
0
41
1
10
197.727424462039
20
-9.48147548899368
30
0
41
1
10
197.810610073589
20
-9.30810226762813
30
0
41
1
10
197.976981296691
20
-8.8839499976165
30
0
41
1
10
198.060166908242
20
-8.6331504239715
30
0
41
1
10
198.226538131344
20
-8.05835937325193
30
0
41
1
10
198.309723742895
20
-7.73438217592155
30
0
41
1
10
198.476094965997
20
-7.02329926121837
30
0
41
1
10
198.559280577548
20
-6.6362428441065
30
0
41
1
10
198.72565180065
20
-5.81394947137272
30
0
41
1
10
198.808837412201
20
-5.37878517883655
30
0
41
1
10
198.975208635303
20
-4.47822369385159
30
0
41
1
10
199.058394246854
20
-4.01290352440486
30
0
41
1
10
199.224765469956
20
-3.07065531202133
30
0
41
1
10
199.307951081507
20
-2.59379037768406
30
0
41
1
10
199.474322304609
20
-1.64558676192058
30
0
41
1
10
199.55750791616
20
-1.17428641922072
30
0
41
1
10
199.682286333486
20
-0.482046721335024
30
0
41
1
10
199.723879139262
20
-0.253724710964605
30
0
41
1
10
199.786268347925
20
0.0840684377792229
30
0
41
1
10
199.807064750813
20
0.196961738409755
30
0
41
1
10
199.848657556588
20
0.424633294927872
30
0
41
1
10
199.869453959476
20
0.539179573544629
30
0
41
1
10
199.973435973914
20
1.11501221551592
30
0
41
1
10
200.056621585466
20
1.58574255848208
30
0
41
1
10
200.222992808568
20
2.53346891431798
30
0
41
1
10
200.306178420119
20
3.0104277290624
30
0
41
1
10
200.472549643221
20
3.95362957372478
30
0
41
1
10
200.555735254771
20
4.41981038876364
30
0
41
1
10
200.722106477873
20
5.32288250302003
30
0
41
1
10
200.805292089424
20
5.75969703188645
30
0
41
1
10
200.971663312526
20
6.58600537534767
30
0
41
1
10
201.054848924077
20
6.97542593389645
30
0
41
1
10
201.221220147179
20
7.69178308990459
30
0
41
1
10
201.30440575873
20
8.01866908881493
30
0
41
1
10
201.470776981832
20
8.59959072982662
30
0
41
1
10
201.553962593383
20
8.85361053014429
30
0
41
1
10
201.720333816485
20
9.28426364791326
30
0
41
1
10
201.803519428036
20
9.4609161770866
30
0
41
1
10
201.969890651138
20
9.73806785207697
30
0
41
1
10
202.053076262689
20
9.83861107568785
30
0
41
1
10
202.219447485791
20
9.96955010670163
30
0
41
1
10
202.302633097342
20
10
30
0
41
1
10
202.385818708892
20
10
30
0
0
SPLINE
5
101
100
AcDbEntity
8
1
62
256
6
ByLayer
370
13
48
1
60
0
100
AcDbSpline
70
4
71
3
72
34
73
30
40
0
40
0
40
0
40
0
40
0.124999999999998
40
0.124999999999998
40
0.187499999999998
40
0.187499999999998
40
0.249999999999998
40
0.249999999999998
40
0.312499999999998
40
0.312499999999998
40
0.374999999999998
40
0.374999999999998
40
0.437499999999998
40
0.437499999999998
40
0.499999999999998
40
0.499999999999998
40
0.562499999999998
40
0.562499999999998
40
0.624999999999998
40
0.624999999999998
40
0.687499999999998
40
0.687499999999998
40
0.749999999999998
40
0.749999999999998
40
0.812499999999998
40
0.812499999999998
40
0.874999999999998
40
0.874999999999998
40
1
40
1
40
1
40
1
41
1
10
202.318334831688
20
10
30
0
41
1
10
202.424249949423
20
10
30
0
41
1
10
202.530165067158
20
9.95052288516942
30
0
41
1
10
202.689037743762
20
9.78851499992567
30
0
41
1
10
202.74199530263
20
9.71993019584593
30
0
41
1
10
202.847910420365
20
9.55216021929556
30
0
41
1
10
202.900867979232
20
9.45297023175215
30
0
41
1
10
203.006783096968
20
9.2233034236929
30
0
41
1
10
203.059740655836
20
9.09282319576232
30
0
41
1
10
203.165655773571
20
8.80077601350084
30
0
41
1
10
203.218613332439
20
8.63920764027293
30
0
41
1
10
203.324528450174
20
8.28614537517637
30
0
41
1
10
203.377486009042
20
8.09465243757629
30
0
41
1
10
203.483401126777
20
7.68387157579204
30
0
41
1
10
203.536358685645
20
7.46458706710311
30
0
41
1
10
203.642273803381
20
7.00125739239513
30
0
41
1
10
203.695231362248
20
6.75721784801209
30
0
41
1
10
203.801146479984
20
6.2481793407201
30
0
41
1
10
203.854104038851
20
5.98318763416492
30
0
41
1
10
203.960019156587
20
5.43661727940307
30
0
41
1
10
204.012976715455
20
5.15504673235876
30
0
41
1
10
204.11889183319
20
4.58002881747802
30
0
41
1
10
204.171849392058
20
4.28658953106452
30
0
41
1
10
204.277764509793
20
3.69263578944358
30
0
41
1
10
204.330722068661
20
3.39212860767083
30
0
41
1
10
204.436637186396
20
2.78869899378319
30
0
41
1
10
204.489594745264
20
2.48578243488495
30
0
41
1
10
204.648467421867
20
1.57988822886767
30
0
41
1
10
204.754382539602
20
0.980073225089598
30
0
41
1
10
204.860297657338
20
0.398488301776496
30
0
0
SPLINE
5
102
100
AcDbEntity
8
1
62
256
6
ByLayer
370
13
48
1
60
0
100
AcDbSpline
70
4
71
3
72
82
73
78
40
0
40
0
40
0
40
0
40
0.031250000000003
40
0.031250000000003
40
0.0625000000000061
40
0.0625000000000061
40
0.0937500000000091
40
0.0937500000000091
40
0.125000000000012
40
0.125000000000012
40
0.156250000000015
40
0.156250000000015
40
0.187500000000018
40
0.187500000000018
40
0.218750000000021
40
0.218750000000021
40
0.250000000000024
40
0.250000000000024
40
0.281250000000027
40
0.281250000000027
40
0.296875000000029
40
0.296875000000029
40
0.300781250000029
40
0.300781250000029
40
0.304687500000028
40
0.304687500000028
40
0.312500000000029
40
0.312500000000029
40
0.343750000000029
40
0.343750000000029
40
0.375000000000029
40
0.375000000000029
40
0.406250000000029
40
0.406250000000029
40
0.437500000000029
40
0.437500000000029
40
0.468750000000029
40
0.468750000000029
40
0.50000000000003
40
0.50000000000003
40
0.53125000000003
40
0.53125000000003
40
0.56250000000003
40
0.56250000000003
40
0.59375000000003
40
0.59375000000003
40
0.62500000000003
40
0.62500000000003
40
0.64062500000003
40
0.64062500000003
40
0.64843750000003
40
0.64843750000003
40
0.65234375000003
40
0.65234375000003
40
0.65625000000003
40
0.65625000000003
40
0.687500000000027
40
0.687500000000027
40
0.718750000000024
40
0.718750000000024
40
0.750000000000021
40
0.750000000000021
40
0.781250000000019
40
0.781250000000019
40
0.812500000000016
40
0.812500000000016
40
0.843750000000013
40
0.843750000000013
40
0.875000000000011
40
0.875000000000011
40
0.906250000000008
40
0.906250000000008
40
0.937500000000005
40
0.937500000000005
40
0.968750000000003
40
0.968750000000003
40
1
40
1
40
1
40
1
41
1
10
194.4
20
-1.97554493012379
30
0
41
1
10
194.478030445985
20
-2.41968485109518
30
0
41
1
10
194.556060891971
20
-2.86694350984541
30
0
41
1
10
194.712121783942
20
-3.75392515246435
30
0
41
1
10
194.790152229927
20
-4.19360484932918
30
0
41
1
10
194.946213121898
20
-5.0501998324151
30
0
41
1
10
195.024243567883
20
-5.4670603624615
30
0
41
1
10
195.180304459854
20
-6.26288402127622
30
0
41
1
10
195.258334905839
20
-6.64179187893578
30
0
41
1
10
195.41439579781
20
-7.34836962101443
30
0
41
1
10
195.492426243796
20
-7.67599636611911
30
0
41
1
10
195.648487135767
20
-8.26998837368095
30
0
41
1
10
195.726517581752
20
-8.53633228966152
30
0
41
1
10
195.882578473723
20
-9.00205192807803
30
0
41
1
10
195.960608919708
20
-9.20143119357252
30
0
41
1
10
196.116669811679
20
-9.53210354987775
30
0
41
1
10
196.194700257665
20
-9.6634210633259
30
0
41
1
10
196.350761149635
20
-9.86099967330742
30
0
41
1
10
196.428791595621
20
-9.92729743307973
30
0
41
1
10
196.545837264599
20
-9.98262056998226
30
0
41
1
10
196.584852487592
20
-9.99372898886787
30
0
41
1
10
196.633621516333
20
-9.99905762082443
30
0
41
1
10
196.643375322081
20
-9.99969575824841
30
0
41
1
10
196.662882933577
20
-10.0001330263106
30
0
41
1
10
196.672636739325
20
-9.99993449785515
30
0
41
1
10
196.70189815657
20
-9.99807124315493
30
0
41
1
10
196.721405768066
20
-9.99513535137891
30
0
41
1
10
196.818943825548
20
-9.97167070370364
30
0
41
1
10
196.896974271534
20
-9.9247023645004
30
0
41
1
10
197.053035163504
20
-9.76745813350601
30
0
41
1
10
197.13106560949
20
-9.65714374818737
30
0
41
1
10
197.287126501461
20
-9.36903247441757
30
0
41
1
10
197.365156947446
20
-9.191206254517
30
0
41
1
10
197.521217839417
20
-8.76776737825526
30
0
41
1
10
197.599248285402
20
-8.52214387285272
30
0
41
1
10
197.755309177373
20
-7.96731487040205
30
0
41
1
10
197.833339623359
20
-7.65812284819475
30
0
41
1
10
197.989400515329
20
-6.98484761756527
30
0
41
1
10
198.067430961315
20
-6.62080145721896
30
0
41
1
10
198.223491853286
20
-5.85022703864925
30
0
41
1
10
198.301522299271
20
-5.44375154414698
30
0
41
1
10
198.457583191242
20
-4.60306208356519
30
0
41
1
10
198.535613637227
20
-4.16890438592082
30
0
41
1
10
198.691674529198
20
-3.28824374877118
30
0
41
1
10
198.769704975184
20
-2.84178863107385
30
0
41
1
10
198.925765867154
20
-1.95097069094521
30
0
41
1
10
199.00379631314
20
-1.5066395063979
30
0
41
1
10
199.120841982118
20
-0.850910728631135
30
0
41
1
10
199.159857205111
20
-0.634109271718671
30
0
41
1
10
199.2183800396
20
-0.312518922591835
30
0
41
1
10
199.237887651096
20
-0.205922683607639
30
0
41
1
10
199.267149068341
20
-0.0470348014555668
30
0
41
1
10
199.276902874089
20
0.0056462790253136
30
0
41
1
10
199.296410485585
20
0.111395212033244
30
0
41
1
10
199.306164291333
20
0.164439525133872
30
0
41
1
10
199.393948543067
20
0.643290228249782
30
0
41
1
10
199.471978989053
20
1.07937974513834
30
0
41
1
10
199.628039881023
20
1.96205485221674
30
0
41
1
10
199.706070327009
20
2.40862088472446
30
0
41
1
10
199.86213121898
20
3.29917187111033
30
0
41
1
10
199.940161664965
20
3.74311913137433
30
0
41
1
10
200.096222556936
20
4.61353476594067
30
0
41
1
10
200.174253002921
20
5.03995128417688
30
0
41
1
10
200.330313894892
20
5.85995152164176
30
0
41
1
10
200.408344340878
20
6.25347871388044
30
0
41
1
10
200.564405232848
20
6.99355764507169
30
0
41
1
10
200.642435678834
20
7.3400607566723
30
0
41
1
10
200.798496570805
20
7.97478727218154
30
0
41
1
10
200.87652701679
20
8.26298114411722
30
0
41
1
10
201.032587908761
20
8.77383548672958
30
0
41
1
10
201.110618354746
20
8.99649110045087
30
0
41
1
10
201.266679246717
20
9.37359649078513
30
0
41
1
10
201.344709692703
20
9.52806435700819
30
0
41
1
10
201.500770584673
20
9.7704911890965
30
0
41
1
10
201.578801030659
20
9.85848373217834
30
0
41
1
10
201.73486192263
20
9.97321841911273
30
0
41
1
10
201.812892368615
20
10
30
0
41
1
10
201.890922814601
20
10
30
0
0
SPLINE
5
103
100
AcDbEntity
8
1
62
256
6
ByLayer
370
13
48
1
60
0
100
AcDbSpline
70
4
71
3
72
42
73
38
40
0
40
0
40
0
40
0
40
0.0624999999999994
40
0.0624999999999994
40
0.124999999999999
40
0.124999999999999
40
0.187499999999998
40
0.187499999999998
40
0.249999999999998
40
0.249999999999998
40
0.312499999999997
40
0.312499999999997
40
0.374999999999997
40
0.374999999999997
40
0.437499999999996
40
0.437499999999996
40
0.499999999999996
40
0.499999999999996
40
0.562499999999995
40
0.562499999999995
40
0.624999999999995
40
0.624999999999995
40
0.687499999999994
40
0.687499999999994
40
0.749999999999993
40
0.749999999999993
40
0.812499999999993
40
0.812499999999993
40
0.843749999999993
40
0.843749999999993
40
0.859374999999994
40
0.859374999999994
40
0.874999999999994
40
0.874999999999994
40
0.937499999999997
40
0.937499999999997
40
1
40
1
40
1
40
1
41
1
10
201.823438937396
20
10
30
0
41
1
10
201.886706827395
20
10
30
0
41
1
10
201.949974717393
20
9.98241104995046
30
0
41
1
10
202.076510497391
20
9.90790515589208
30
0
41
1
10
202.139778387389
20
9.8509743158827
30
0
41
1
10
202.266314167387
20
9.69455475707736
30
0
41
1
10
202.329582057386
20
9.59505304431005
30
0
41
1
10
202.456117837383
20
9.3516190320255
30
0
41
1
10
202.519385727382
20
9.20767685743638
30
0
41
1
10
202.64592150738
20
8.87519827306923
30
0
41
1
10
202.709189397379
20
8.68665725964644
30
0
41
1
10
202.835725177376
20
8.26675163347721
30
0
41
1
10
202.898993067375
20
8.035389188501
30
0
41
1
10
203.025528847373
20
7.53358706928711
30
0
41
1
10
203.088796737372
20
7.26315666091466
30
0
41
1
10
203.215332517369
20
6.68876915536998
30
0
41
1
10
203.278600407368
20
6.38482734529958
30
0
41
1
10
203.405136187366
20
5.7503979067516
30
0
41
1
10
203.468404077364
20
5.41992929954716
30
0
41
1
10
203.594939857362
20
4.74033298522764
30
0
41
1
10
203.658207747361
20
4.39122510887182
30
0
41
1
10
203.784743527358
20
3.68254838417647
30
0
41
1
10
203.848011417357
20
3.32299735316838
30
0
41
1
10
203.974547197355
20
2.6013685712538
30
0
41
1
10
204.037815087354
20
2.23930453653031
30
0
41
1
10
204.164350867351
20
1.51983989280183
30
0
41
1
10
204.22761875735
20
1.16244787643831
30
0
41
1
10
204.322520592348
20
0.634438768751011
30
0
41
1
10
204.354154537348
20
0.45977299578837
30
0
41
1
10
204.401605454847
20
0.200264206949953
30
0
41
1
10
204.417422427346
20
0.114175630220672
30
0
41
1
10
204.449056372346
20
-0.0570997219687115
30
0
41
1
10
204.464873344845
20
-0.142825568304033
30
0
41
1
10
204.543958207344
20
-0.574410321184843
30
0
41
1
10
204.607226097343
20
-0.926490924584158
30
0
41
1
10
204.73376187734
20
-1.63886932272845
30
0
41
1
10
204.797029767339
20
-1.99916141825526
30
0
41
1
10
204.860297657338
20
-2.36025695270115
30
0
0
SPLINE
5
104
100
AcDbEntity
8
1
62
256
6
ByLayer
370
13
48
1
60
0
100
AcDbSpline
70
4
71
3
72
80
73
76
40
0
40
0
40
0
40
0
40
0.0312499999999977
40
0.0312499999999977
40
0.0624999999999955
40
0.0624999999999955
40
0.0937499999999932
40
0.0937499999999932
40
0.124999999999991
40
0.124999999999991
40
0.156249999999989
40
0.156249999999989
40
0.187499999999986
40
0.187499999999986
40
0.218749999999984
40
0.218749999999984
40
0.249999999999982
40
0.249999999999982
40
0.253906249999982
40
0.253906249999982
40
0.257812499999982
40
0.265624999999981
40
0.265624999999981
40
0.281249999999982
40
0.281249999999982
40
0.312499999999983
40
0.312499999999983
40
0.343749999999983
40
0.343749999999983
40
0.374999999999984
40
0.374999999999984
40
0.406249999999985
40
0.406249999999985
40
0.437499999999986
40
0.437499999999986
40
0.468749999999987
40
0.468749999999987
40
0.499999999999987
40
0.499999999999987
40
0.531249999999988
40
0.531249999999988
40
0.562499999999989
40
0.562499999999989
40
0.59374999999999
40
0.59374999999999
40
0.624999999999991
40
0.624999999999991
40
0.628906249999991
40
0.628906249999991
40
0.632812499999991
40
0.640624999999991
40
0.640624999999991
40
0.656249999999992
40
0.656249999999992
40
0.687499999999992
40
0.687499999999992
40
0.718749999999993
40
0.718749999999993
40
0.749999999999994
40
0.749999999999994
40
0.781249999999995
40
0.781249999999995
40
0.812499999999996
40
0.812499999999996
40
0.843749999999996
40
0.843749999999996
40
0.874999999999997
40
0.874999999999997
40
0.906249999999998
40
0.906249999999998
40
0.937499999999999
40
0.937499999999999
40
0.968749999999999
40
0.968749999999999
40
1
40
1
40
1
40
1
41
1
10
194.4
20
-4.76807030244828
30
0
41
1
10
194.47287528042
20
-5.16554782696139
30
0
41
1
10
194.54575056084
20
-5.55228611792515
30
0
41
1
10
194.691501121679
20
-6.29210908308656
30
0
41
1
10
194.764376402099
20
-6.64515464152905
30
0
41
1
10
194.910126962939
20
-7.30676464587879
30
0
41
1
10
194.983002243359
20
-7.61529816919301
30
0
41
1
10
195.128752804199
20
-8.17956382406987
30
0
41
1
10
195.201628084619
20
-8.43527931085379
30
0
41
1
10
195.347378645458
20
-8.88883009035473
30
0
41
1
10
195.420253925878
20
-9.08666532900759
30
0
41
1
10
195.566004486718
20
-9.42287362385665
30
0
41
1
10
195.638879767138
20
-9.56126130811978
30
0
41
1
10
195.784630327978
20
-9.7802596140813
30
0
41
1
10
195.857505608398
20
-9.86089458077672
30
0
41
1
10
196.003256169237
20
-9.96873380706589
30
0
41
1
10
196.076131449657
20
-9.99596611924508
30
0
41
1
10
196.158116140129
20
-10.0000342127857
30
0
41
1
10
196.167225550182
20
-10.0001192900861
30
0
41
1
10
196.185444370287
20
-9.99956017186346
30
0
41
1
10
196.212772600444
20
-9.99762180743414
30
0
41
1
10
196.240100830602
20
-9.99232466213047
30
0
41
1
10
196.294757290917
20
-9.97709898493352
30
0
41
1
10
196.331194931127
20
-9.96077033551592
30
0
41
1
10
196.440507851757
20
-9.89212141746953
30
0
41
1
10
196.513383132177
20
-9.82006876235587
30
0
41
1
10
196.659133693016
20
-9.61875304489553
30
0
41
1
10
196.732008973436
20
-9.48946467506667
30
0
41
1
10
196.877759534276
20
-9.17151726438411
30
0
41
1
10
196.950634814696
20
-8.98284172076092
30
0
41
1
10
197.096385375535
20
-8.54714340106636
30
0
41
1
10
197.169260655955
20
-8.30011819152466
30
0
41
1
10
197.315011216795
20
-7.75223042492638
30
0
41
1
10
197.387886497215
20
-7.45138199320181
30
0
41
1
10
197.533637058055
20
-6.80367478330808
30
0
41
1
10
197.606512338475
20
-6.45684504334159
30
0
41
1
10
197.752262899314
20
-5.72766121292523
30
0
41
1
10
197.825138179734
20
-5.34534547230183
30
0
41
1
10
197.970888740574
20
-4.55729884845164
30
0
41
1
10
198.043764020994
20
-4.15160786610826
30
0
41
1
10
198.189514581834
20
-3.32933839296507
30
0
41
1
10
198.262389862254
20
-2.91279399963997
30
0
41
1
10
198.408140423093
20
-2.08062676022217
30
0
41
1
10
198.481015703513
20
-1.66502736690944
30
0
41
1
10
198.626766264353
20
-0.844961516803977
30
0
41
1
10
198.699641544773
20
-0.440506365389439
30
0
41
1
10
198.781626235245
20
0.0036930240090953
30
0
41
1
10
198.790735645298
20
0.0529152292779429
30
0
41
1
10
198.808954465403
20
0.151851817775508
30
0
41
1
10
198.83628269556
20
0.300694921111131
30
0
41
1
10
198.863610925718
20
0.450790494041087
30
0
41
1
10
198.918267386033
20
0.752473240596714
30
0
41
1
10
198.954705026242
20
0.955588180499433
30
0
41
1
10
199.064017946872
20
1.56932698756211
30
0
41
1
10
199.136893227292
20
1.98440469035043
30
0
41
1
10
199.282643788132
20
2.81638059199349
30
0
41
1
10
199.355519068552
20
3.23325626425063
30
0
41
1
10
199.501269629392
20
4.05713700785461
30
0
41
1
10
199.574144909812
20
4.4641086721513
30
0
41
1
10
199.719895470651
20
5.2556836359947
30
0
41
1
10
199.792770751071
20
5.64024724247273
30
0
41
1
10
199.938521311911
20
6.3748192664105
30
0
41
1
10
200.011396592331
20
6.72478892710853
30
0
41
1
10
200.15714715317
20
7.379503787017
30
0
41
1
10
200.23002243359
20
7.68421898791334
30
0
41
1
10
200.37577299443
20
8.24033425757904
30
0
41
1
10
200.44864827485
20
8.49171893531934
30
0
41
1
10
200.59439883569
20
8.93636161325497
30
0
41
1
10
200.66727411611
20
9.1296208100558
30
0
41
1
10
200.813024676949
20
9.45669655937596
30
0
41
1
10
200.885899957369
20
9.59052869310068
30
0
41
1
10
201.031650518209
20
9.80066611899861
30
0
41
1
10
201.104525798629
20
9.87699625575749
30
0
41
1
10
201.250276359469
20
9.97664914489954
30
0
41
1
10
201.323151639889
20
10
30
0
41
1
10
201.396026920308
20
10
30
0
0
SPLINE
5
105
100
AcDbEntity
8
1
62
256
6
ByLayer
370
13
48
1
60
0
100
AcDbSpline
70
4
71
3
72
42
73
38
40
0
40
0
40
0
40
0
40
0.0624999999999992
40
0.0624999999999992
40
0.124999999999998
40
0.124999999999998
40
0.187499999999998
40
0.187499999999998
40
0.249999999999997
40
0.249999999999997
40
0.312499999999996
40
0.312499999999996
40
0.374999999999995
40
0.374999999999995
40
0.437499999999994
40
0.437499999999994
40
0.499999999999993
40
0.499999999999993
40
0.562499999999992
40
0.562499999999992
40
0.624999999999992
40
0.624999999999992
40
0.687499999999991
40
0.687499999999991
40
0.718749999999991
40
0.718749999999991
40
0.734374999999991
40
0.734374999999991
40
0.749999999999991
40
0.749999999999991
40
0.812499999999993
40
0.812499999999993
40
0.874999999999996
40
0.874999999999996
40
0.937499999999998
40
0.937499999999998
40
1
40
1
40
1
40
1
41
1
10
201.328543043104
20
10
30
0
41
1
10
201.402121264233
20
10
30
0
41
1
10
201.475699485363
20
9.97619530741468
30
0
41
1
10
201.622855927623
20
9.87455164501785
30
0
41
1
10
201.696434148753
20
9.79668320054026
30
0
41
1
10
201.843590591013
20
9.5822859598741
30
0
41
1
10
201.917168812143
20
9.44573123093119
30
0
41
1
10
202.064325254402
20
9.11204333176556
30
0
41
1
10
202.137903475532
20
8.91489419047841
30
0
41
1
10
202.285059917792
20
8.46146099310624
30
0
41
1
10
202.358638138922
20
8.20517633804556
30
0
41
1
10
202.505794581182
20
7.6385446842159
30
0
41
1
10
202.579372802312
20
7.32821465476434
30
0
41
1
10
202.726529244572
20
6.66195276516038
30
0
41
1
10
202.800107465701
20
6.30605310314348
30
0
41
1
10
202.947263907961
20
5.55974923655737
30
0
41
1
10
203.020842129091
20
5.16938601881847
30
0
41
1
10
203.167998571351
20
4.36676314398576
30
0
41
1
10
203.24157679248
20
3.95454486032551
30
0
41
1
10
203.38873323474
20
3.12106219210196
30
0
41
1
10
203.46231145587
20
2.69983200339206
30
0
41
1
10
203.60946789813
20
1.8602571704042
30
0
41
1
10
203.68304611926
20
1.44193493454898
30
0
41
1
10
203.793413450955
20
0.82422771495095
30
0
41
1
10
203.83020256152
20
0.619938699431714
30
0
41
1
10
203.885386227367
20
0.316717824486062
30
0
41
1
10
203.903780782649
20
0.216178509649211
30
0
41
1
10
203.940569893214
20
0.0162868371459126
30
0
41
1
10
203.958964448497
20
-0.082941335543893
30
0
41
1
10
204.050937224909
20
-0.583978204849018
30
0
41
1
10
204.124515446039
20
-0.994189417147567
30
0
41
1
10
204.271671888299
20
-1.82479636110165
30
0
41
1
10
204.345250109429
20
-2.24517865920336
30
0
41
1
10
204.492406551689
20
-3.08539005031014
30
0
41
1
10
204.565984772819
20
-3.50519286168455
30
0
41
1
10
204.713141215078
20
-4.33194621930025
30
0
41
1
10
204.786719436208
20
-4.7388597225343
30
0
41
1
10
204.860297657338
20
-5.13289770708249
30
0
0
SPLINE
5
106
100
AcDbEntity
8
1
62
256
6
ByLayer
370
13
48
1
60
0
100
AcDbSpline
70
4
71
3
72
8
73
4
40
0
40
0
40
0
40
0
40
1
40
1
40
1
40
1
41
1
10
204.860297657338
20
-2.51111843520783
30
0
41
1
10
206.073531771559
20
-1.66233535918354
30
0
41
1
10
207.286765885779
20
-0.825290362403535
30
0
41
1
10
208.5
20
2.84E-14
30
0
0
SPLINE
5
107
100
AcDbEntity
8
1
62
256
6
ByLayer
370
13
48
1
60
0
100
AcDbSpline
70
4
71
3
72
8
73
4
40
0
40
0
40
0
40
0
40
1
40
1
40
1
40
1
41
1
10
204.860297657338
20
5.56669485641129
30
0
41
1
10
206.073531771559
20
3.72120865332738
30
0
41
1
10
207.286765885779
20
1.86563138821464
30
0
41
1
10
208.5
20
5.68E-14
30
0
0
SPLINE
5
108
100
AcDbEntity
8
1
62
256
6
ByLayer
370
13
48
1
60
0
100
AcDbSpline
70
4
71
3
72
8
73
4
40
0
40
0
40
0
40
0
40
1
40
1
40
1
40
1
41
1
10
204.860297657338
20
-9.31808409224871
30
0
41
1
10
206.073531771559
20
-6.21645950116806
30
0
41
1
10
207.286765885779
20
-3.11041088726947
30
0
41
1
10
208.5
20
5.68E-14
30
0
0
SPLINE
5
109
100
AcDbEntity
8
1
62
256
6
ByLayer
370
13
48
1
60
0
100
AcDbSpline
70
4
71
3
72
8
73
4
40
0
40
0
40
0
40
0
40
1
40
1
40
1
40
1
41
1
10
204.860297657338
20
9.9316794393678
30
0
41
1
10
206.073531771559
20
6.6197038576608
30
0
41
1
10
207.28676588578
20
3.30912211947816
30
0
41
1
10
208.5
20
-6.821E-13
30
0
0
SPLINE
5
10A
100
AcDbEntity
8
1
62
256
6
ByLayer
370
13
48
1
60
0
100
AcDbSpline
70
4
71
3
72
8
73
4
40
0
40
0
40
0
40
0
40
1
40
1
40
1
40
1
41
1
10
204.860297657338
20
-8.1813715998783
30
0
41
1
10
206.073531771559
20
-5.46122410989739
30
0
41
1
10
207.286765885779
20
-2.73408216419264
30
0
41
1
10
208.5
20
-4.547E-13
30
0
0
SPLINE
5
10B
100
AcDbEntity
8
1
62
256
6
ByLayer
370
13
48
1
60
0
100
AcDbSpline
70
4
71
3
72
8
73
4
40
0
40
0
40
0
40
0
40
1
40
1
40
1
40
1
41
1
10
204.860297657338
20
-9.91531739192897
30
0
41
1
10
206.073531771559
20
-6.61178715605467
30
0
41
1
10
207.286765885779
20
-3.30665946320664
30
0
41
1
10
208.5
20
-5.4E-13
30
0
0
SPLINE
5
10C
100
AcDbEntity
8
1
62
256
6
ByLayer
370
13
48
1
60
0
100
AcDbSpline
70
4
71
3
72
8
73
4
40
0
40
0
40
0
40
0
40
1
40
1
40
1
40
1
41
1
10
204.860297657338
20
-0.126283970480216
30
0
41
1
10
206.073531771559
20
-0.0720579399609562
30
0
41
1
10
207.286765885779
20
-0.0299630310963721
30
0
41
1
10
208.5
20
0
30
0
0
SPLINE
5
10D
100
AcDbEntity
8
1
62
256
6
ByLayer
370
13
48
1
60
0
100
AcDbSpline
70
4
71
3
72
8
73
4
40
0
40
0
40
0
40
0
40
1
40
1
40
1
40
1
41
1
10
204.860297657338
20
-7.43014919779631
30
0
41
1
10
206.073531771559
20
-4.96155266936665
30
0
41
1
10
207.286765885779
20
-2.48481984712413
30
0
41
1
10
208.5
20
-4.263E-13
30
0
0
SPLINE
5
10E
100
AcDbEntity
8
1
62
256
6
ByLayer
370
13
48
1
60
0
100
AcDbSpline
70
4
71
3
72
8
73
4
40
0
40
0
40
0
40
0
40
1
40
1
40
1
40
1
41
1
10
204.860297657338
20
8.14676575869299
30
0
41
1
10
206.073531771559
20
5.43821290607877
30
0
41
1
10
207.286765885779
20
2.72260631704427
30
0
41
1
10
208.5
20
-5.68E-14
30
0
0
SPLINE
5
10F
100
AcDbEntity
8
1
62
256
6
ByLayer
370
13
48
1
60
0
100
AcDbSpline
70
4
71
3
72
8
73
4
40
0
40
0
40
0
40
0
40
1
40
1
40
1
40
1
41
1
10
204.860297657338
20
-4.75056934975885
30
0
41
1
10
206.073531771559
20
-3.15637031818852
30
0
41
1
10
207.286765885779
20
-1.5728367363769
30
0
41
1
10
208.5
20
2.84E-14
30
0
0
SPLINE
5
110
100
AcDbEntity
8
1
62
256
6
ByLayer
370
13
48
1
60
0
100
AcDbSpline
70
4
71
3
72
8
73
4
40
0
40
0
40
0
40
0
40
1
40
1
40
1
40
1
41
1
10
204.860297657338
20
2.26586182281773
30
0
41
1
10
206.073531771559
20
1.52239134108348
30
0
41
1
10
207.286765885779
20
0.767099037917234
30
0
41
1
10
208.5
20
-2.84E-14
30
0
0
SPLINE
5
111
100
AcDbEntity
8
1
62
256
6
ByLayer
370
13
48
1
60
0
100
AcDbSpline
70
4
71
3
72
8
73
4
40
0
40
0
40
0
40
0
40
1
40
1
40
1
40
1
41
1
10
204.860297657338
20
-6.71498160912552
30
0
41
1
10
206.073531771559
20
-4.46766426581928
30
0
41
1
10
207.286765885779
20
-2.22932225659818
30
0
41
1
10
208.5
20
5.68E-14
30
0
0
SPLINE
5
112
100
AcDbEntity
8
1
62
256
6
ByLayer
370
13
48
1
60
0
100
AcDbSpline
70
4
71
3
72
8
73
4
40
0
40
0
40
0
40
0
40
1
40
1
40
1
40
1
41
1
10
204.860297657338
20
9.29616653982353
30
0
41
1
10
206.073531771559
20
6.20191546713184
30
0
41
1
10
207.286765885779
20
3.10317275228411
30
0
41
1
10
208.5
20
8.53E-14
30
0
0
SPLINE
5
113
100
AcDbEntity
8
1
62
256
6
ByLayer
370
13
48
1
60
0
100
AcDbSpline
70
4
71
3
72
8
73
4
40
0
40
0
40
0
40
0
40
1
40
1
40
1
40
1
41
1
10
204.860297657338
20
8.25696677332175
30
0
41
1
10
206.073531771559
20
5.49780048784069
30
0
41
1
10
207.28676588578
20
2.74546001459513
30
0
41
1
10
208.5
20
-5.684E-13
30
0
0
SPLINE
5
114
100
AcDbEntity
8
1
62
256
6
ByLayer
370
13
48
1
60
0
100
AcDbSpline
70
4
71
3
72
8
73
4
40
0
40
0
40
0
40
0
40
1
40
1
40
1
40
1
41
1
10
204.860297657338
20
4.69775170613346
30
0
41
1
10
206.073531771559
20
3.12112420869869
30
0
41
1
10
207.286765885779
20
1.5551966247877
30
0
41
1
10
208.5
20
2.558E-13
30
0
0
SPLINE
5
115
100
AcDbEntity
8
1
62
256
6
ByLayer
370
13
48
1
60
0
100
AcDbSpline
70
4
71
3
72
8
73
4
40
0
40
0
40
0
40
0
40
1
40
1
40
1
40
1
41
1
10
204.860297657338
20
6.67045536548821
30
0
41
1
10
206.073531771559
20
4.43793144389397
30
0
41
1
10
207.28676588578
20
2.21443161430224
30
0
41
1
10
208.5
20
-4.547E-13
30
0
0
SPLINE
5
116
100
AcDbEntity
8
1
62
256
6
ByLayer
370
13
48
1
60
0
100
AcDbSpline
70
4
71
3
72
8
73
4
40
0
40
0
40
0
40
0
40
1
40
1
40
1
40
1
41
1
10
204.860297657338
20
9.90735706545871
30
0
41
1
10
206.073531771559
20
6.60655233225239
30
0
41
1
10
207.286765885779
20
3.30407809897744
30
0
41
1
10
208.5
20
0
30
0
0
SPLINE
5
117
100
AcDbEntity
8
1
62
256
6
ByLayer
370
13
48
1
60
0
100
AcDbSpline
70
4
71
3
72
8
73
4
40
0
40
0
40
0
40
0
40
1
40
1
40
1
40
1
41
1
10
204.860297657338
20
6.52570035519739
30
0
41
1
10
206.073531771559
20
4.3596599230716
30
0
41
1
10
207.286765885779
20
2.1844120429279
30
0
41
1
10
208.5
20
5.68E-14
30
0
0
SPLINE
5
118
100
AcDbEntity
8
1
62
256
6
ByLayer
370
13
48
1
60
0
100
AcDbSpline
70
4
71
3
72
8
73
4
40
0
40
0
40
0
40
0
40
1
40
1
40
1
40
1
41
1
10
204.860297657338
20
-8.81374534107525
30
0
41
1
10
206.073531771559
20
-5.88156176582601
30
0
41
1
10
207.286765885779
20
-2.94362717958418
30
0
41
1
10
208.5
20
-4.832E-13
30
0
0
SPLINE
5
119
100
AcDbEntity
8
1
62
256
6
ByLayer
370
13
48
1
60
0
100
AcDbSpline
70
4
71
3
72
8
73
4
40
0
40
0
40
0
40
0
40
1
40
1
40
1
40
1
41
1
10
204.860297657338
20
4.52682342687467
30
0
41
1
10
206.073531771559
20
3.02870035171227
30
0
41
1
10
207.286765885779
20
1.51974919074806
30
0
41
1
10
208.5
20
-2.84E-14
30
0
0
SPLINE
5
11A
100
AcDbEntity
8
1
62
256
6
ByLayer
370
13
48
1
60
0
100
AcDbSpline
70
4
71
3
72
8
73
4
40
0
40
0
40
0
40
0
40
1
40
1
40
1
40
1
41
1
10
204.860297657338
20
-4.58017662930067
30
0
41
1
10
206.073531771559
20
-3.06423604704614
30
0
41
1
10
207.286765885779
20
-1.53750036754772
30
0
41
1
10
208.5
20
-2.558E-13
30
0
0
SPLINE
5
11B
100
AcDbEntity
8
1
62
256
6
ByLayer
370
13
48
1
60
0
100
AcDbSpline
70
4
71
3
72
8
73
4
40
0
40
0
40
0
40
0
40
1
40
1
40
1
40
1
41
1
10
204.860297657338
20
-2.32418870171318
30
0
41
1
10
206.073531771559
20
-1.56125924100161
30
0
41
1
10
207.286765885779
20
-0.786524516127002
30
0
41
1
10
208.5
20
-1.421E-13
30
0
0
SPLINE
5
11C
100
AcDbEntity
8
1
62
256
6
ByLayer
370
13
48
1
60
0
100
AcDbSpline
70
4
71
3
72
8
73
4
40
0
40
0
40
0
40
0
40
1
40
1
40
1
40
1
41
1
10
204.860297657338
20
-9.68706145531525
30
0
41
1
10
206.073531771559
20
-6.46105234348099
30
0
41
1
10
207.286765885779
20
-3.23201046363417
30
0
41
1
10
208.5
20
5.68E-14
30
0
0
SPLINE
5
11D
100
AcDbEntity
8
1
62
256
6
ByLayer
370
13
48
1
60
0
100
AcDbSpline
70
4
71
3
72
8
73
4
40
0
40
0
40
0
40
0
40
1
40
1
40
1
40
1
41
1
10
204.860297657338
20
2.45306731846657
30
0
41
1
10
206.073531771559
20
1.6236165685996
30
0
41
1
10
207.286765885779
20
0.805922072277781
30
0
41
1
10
208.5
20
1.421E-13
30
0
0
SPLINE
5
11E
100
AcDbEntity
8
1
62
256
6
ByLayer
370
13
48
1
60
0
100
AcDbSpline
70
4
71
3
72
8
73
4
40
0
40
0
40
0
40
0
40
1
40
1
40
1
40
1
41
1
10
204.860297657338
20
-6.57099094760451
30
0
41
1
10
206.073531771559
20
-4.38980604150734
30
0
41
1
10
207.286765885779
20
-2.19946119733578
30
0
41
1
10
208.5
20
5.68E-14
30
0
0
SPLINE
5
11F
100
AcDbEntity
8
1
62
256
6
ByLayer
370
13
48
1
60
0
100
AcDbSpline
70
4
71
3
72
8
73
4
40
0
40
0
40
0
40
0
40
1
40
1
40
1
40
1
41
1
10
204.860297657338
20
-9.73307822618443
30
0
41
1
10
206.073531771559
20
-6.48593440201589
30
0
41
1
10
207.286765885779
20
-3.24155350974198
30
0
41
1
10
208.5
20
5.68E-14
30
0
0
SPLINE
5
120
100
AcDbEntity
8
1
62
256
6
ByLayer
370
13
48
1
60
0
100
AcDbSpline
70
4
71
3
72
8
73
4
40
0
40
0
40
0
40
0
40
1
40
1
40
1
40
1
41
1
10
204.860297657338
20
-8.90311469882977
30
0
41
1
10
206.073531771559
20
-5.92988531284749
30
0
41
1
10
207.286765885779
20
-2.96216076822085
30
0
41
1
10
208.5
20
-4.832E-13
30
0
0
SPLINE
5
121
100
AcDbEntity
8
1
62
256
6
ByLayer
370
13
48
1
60
0
100
AcDbSpline
70
4
71
3
72
8
73
4
40
0
40
0
40
0
40
0
40
1
40
1
40
1
40
1
41
1
10
204.860297657338
20
0.0663603043155661
30
0
41
1
10
206.073531771559
20
0.0321081288731477
30
0
41
1
10
207.286765885779
20
0.0099879077039589
30
0
41
1
10
208.5
20
0
30
0
0
SPLINE
5
122
100
AcDbEntity
8
1
62
256
6
ByLayer
370
13
48
1
60
0
100
AcDbSpline
70
4
71
3
72
8
73
4
40
0
40
0
40
0
40
0
40
1
40
1
40
1
40
1
41
1
10
204.860297657338
20
-5.7747194041122
30
0
41
1
10
206.073531771559
20
-3.83990796497886
30
0
41
1
10
207.286765885779
20
-1.91498876878976
30
0
41
1
10
208.5
20
3.979E-13
30
0
0
SPLINE
5
123
100
AcDbEntity
8
1
62
256
6
ByLayer
370
13
48
1
60
0
100
AcDbSpline
70
4
71
3
72
8
73
4
40
0
40
0
40
0
40
0
40
1
40
1
40
1
40
1
41
1
10
204.860297657338
20
9.71915018925807
30
0
41
1
10
206.073531771559
20
6.47657833021987
30
0
41
1
10
207.28676588578
20
3.2368401478291
30
0
41
1
10
208.5
20
-6.821E-13
30
0
0
SPLINE
5
124
100
AcDbEntity
8
1
62
256
6
ByLayer
370
13
48
1
60
0
100
AcDbSpline
70
4
71
3
72
8
73
4
40
0
40
0
40
0
40
0
40
1
40
1
40
1
40
1
41
1
10
204.860297657338
20
-7.55769701989172
30
0
41
1
10
206.073531771559
20
-5.03051996792797
30
0
41
1
10
207.286765885779
20
-2.51127095884249
30
0
41
1
10
208.5
20
5.116E-13
30
0
0
SPLINE
5
125
100
AcDbEntity
8
1
62
256
6
ByLayer
370
13
48
1
60
0
100
AcDbSpline
70
4
71
3
72
8
73
4
40
0
40
0
40
0
40
0
40
1
40
1
40
1
40
1
41
1
10
204.860297657338
20
8.87566732798007
30
0
41
1
10
206.073531771559
20
5.91152243517638
30
0
41
1
10
207.28676588578
20
2.95294707490976
30
0
41
1
10
208.5
20
-6.253E-13
30
0
0
SPLINE
5
126
100
AcDbEntity
8
1
62
256
6
ByLayer
370
13
48
1
60
0
100
AcDbSpline
70
4
71
3
72
8
73
4
40
0
40
0
40
0
40
0
40
1
40
1
40
1
40
1
41
1
10
204.860297657338
20
-9.99953608736678
30
0
41
1
10
206.073531771559
20
-6.66647425340568
30
0
41
1
10
207.286765885779
20
-3.33327347935233
30
0
41
1
10
208.5
20
-5.4E-13
30
0
0
SPLINE
5
127
100
AcDbEntity
8
1
62
256
6
ByLayer
370
13
48
1
60
0
100
AcDbSpline
70
4
71
3
72
8
73
4
40
0
40
0
40
0
40
0
40
1
40
1
40
1
40
1
41
1
10
204.860297657338
20
1.07761605044615
30
0
41
1
10
206.073531771559
20
0.730472391944176
30
0
41
1
10
207.286765885779
20
0.371264635892572
30
0
41
1
10
208.5
20
-5.68E-14
30
0
0
SPLINE
5
128
100
AcDbEntity
8
1
62
256
6
ByLayer
370
13
48
1
60
0
100
AcDbSpline
70
4
71
3
72
8
73
4
40
0
40
0
40
0
40
0
40
1
40
1
40
1
40
1
41
1
10
204.860297657338
20
-1.13717391378427
30
0
41
1
10
206.073531771559
20
-0.770169582839429
30
0
41
1
10
207.286765885779
20
-0.39110907419493
30
0
41
1
10
208.5
20
-5.68E-14
30
0
0
SPLINE
5
129
100
AcDbEntity
8
1
62
256
6
ByLayer
370
13
48
1
60
0
100
AcDbSpline
70
4
71
3
72
8
73
4
40
0
40
0
40
0
40
0
40
1
40
1
40
1
40
1
41
1
10
204.860297657338
20
-1.32834949695788
30
0
41
1
10
206.073531771559
20
-0.873541504882581
30
0
41
1
10
207.286765885779
20
-0.430755432912662
30
0
41
1
10
208.5
20
5.68E-14
30
0
0
SPLINE
5
12A
100
AcDbEntity
8
1
62
256
6
ByLayer
370
13
48
1
60
0
100
AcDbSpline
70
4
71
3
72
8
73
4
40
0
40
0
40
0
40
0
40
1
40
1
40
1
40
1
41
1
10
204.860297657338
20
7.51831940632252
30
0
41
1
10
206.073531771559
20
5.00421342035781
30
0
41
1
10
207.28676588578
20
2.49809036952502
30
0
41
1
10
208.5
20
-5.116E-13
30
0
0
SPLINE
5
12B
100
AcDbEntity
8
1
62
256
6
ByLayer
370
13
48
1
60
0
100
AcDbSpline
70
4
71
3
72
8
73
4
40
0
40
0
40
0
40
0
40
1
40
1
40
1
40
1
41
1
10
204.860297657338
20
-5.61637761811707
30
0
41
1
10
206.073531771559
20
-3.7542898411248
30
0
41
1
10
207.286765885779
20
-1.88215154583858
30
0
41
1
10
208.5
20
-3.126E-13
30
0
0
SPLINE
5
12C
100
AcDbEntity
8
1
62
256
6
ByLayer
370
13
48
1
60
0
100
AcDbSpline
70
4
71
3
72
8
73
4
40
0
40
0
40
0
40
0
40
1
40
1
40
1
40
1
41
1
10
204.860297657338
20
9.36543336798962
30
0
41
1
10
206.073531771559
20
6.23936923106155
30
0
41
1
10
207.28676588578
20
3.11753743981913
30
0
41
1
10
208.5
20
-6.537E-13
30
0
0
SPLINE
5
12D
100
AcDbEntity
8
1
62
256
6
ByLayer
370
13
48
1
60
0
100
AcDbSpline
70
4
71
3
72
8
73
4
40
0
40
0
40
0
40
0
40
1
40
1
40
1
40
1
41
1
10
204.860297657338
20
5.72569135158656
30
0
41
1
10
206.073531771559
20
3.80718078968269
30
0
41
1
10
207.286765885779
20
1.89860438601053
30
0
41
1
10
208.5
20
3.126E-13
30
0
0
SPLINE
5
12E
100
AcDbEntity
8
1
62
256
6
ByLayer
370
13
48
1
60
0
100
AcDbSpline
70
4
71
3
72
8
73
4
40
0
40
0
40
0
40
0
40
1
40
1
40
1
40
1
41
1
10
204.860297657338
20
-3.47744060386305
30
0
41
1
10
206.073531771559
20
-2.32966889156089
30
0
41
1
10
207.286765885779
20
-1.17051432063951
30
0
41
1
10
208.5
20
-1.99E-13
30
0
0
SPLINE
5
12F
100
AcDbEntity
8
1
62
256
6
ByLayer
370
13
48
1
60
0
100
AcDbSpline
70
4
71
3
72
8
73
4
40
0
40
0
40
0
40
0
40
1
40
1
40
1
40
1
41
1
10
204.860297657338
20
3.60156904144716
30
0
41
1
10
206.073531771559
20
2.38972786675512
30
0
41
1
10
207.286765885779
20
1.18919692601349
30
0
41
1
10
208.5
20
1.99E-13
30
0
0
SPLINE
5
130
100
AcDbEntity
8
1
62
256
6
ByLayer
370
13
48
1
60
0
100
AcDbSpline
70
4
71
3
72
8
73
4
40
0
40
0
40
0
40
0
40
1
40
1
40
1
40
1
41
1
10
204.860297657338
20
9.99877931241008
30
0
41
1
10
206.073531771559
20
6.66604243577902
30
0
41
1
10
207.286765885779
20
3.33309392155476
30
0
41
1
10
208.5
20
0
30
0
0
SPLINE
5
131
100
AcDbEntity
8
1
62
256
6
ByLayer
370
13
48
1
60
0
100
AcDbSpline
70
4
71
3
72
8
73
4
40
0
40
0
40
0
40
0
40
1
40
1
40
1
40
1
41
1
10
204.860297657338
20
-9.93849411850806
30
0
41
1
10
206.073531771559
20
-6.6243192102707
30
0
41
1
10
207.286765885779
20
-3.3114658971692
30
0
41
1
10
208.5
20
5.68E-14
30
0
0
SPLINE
5
132
100
AcDbEntity
8
1
62
256
6
ByLayer
370
13
48
1
60
0
100
AcDbSpline
70
4
71
3
72
8
73
4
40
0
40
0
40
0
40
0
40
1
40
1
40
1
40
1
41
1
10
204.860297657338
20
-3.65740900797775
30
0
41
1
10
206.073531771559
20
-2.4269808993578
30
0
41
1
10
207.286765885779
20
-1.20783651309168
30
0
41
1
10
208.5
20
1.421E-13
30
0
0
SPLINE
5
133
100
AcDbEntity
8
1
62
256
6
ByLayer
370
13
48
1
60
0
100
AcDbSpline
70
4
71
3
72
8
73
4
40
0
40
0
40
0
40
0
40
1
40
1
40
1
40
1
41
1
10
204.860297657338
20
3.42119200883499
30
0
41
1
10
206.073531771559
20
2.29219490650965
30
0
41
1
10
207.286765885779
20
1.15178999140028
30
0
41
1
10
208.5
20
-2.84E-14
30
0
0
SPLINE
5
134
100
AcDbEntity
8
1
62
256
6
ByLayer
370
13
48
1
60
0
100
AcDbSpline
70
4
71
3
72
8
73
4
40
0
40
0
40
0
40
0
40
1
40
1
40
1
40
1
41
1
10
204.860297657338
20
-8.29062372845519
30
0
41
1
10
206.073531771559
20
-5.52029861267013
30
0
41
1
10
207.286765885779
20
-2.75673907993612
30
0
41
1
10
208.5
20
5.68E-14
30
0
0
SPLINE
5
135
100
AcDbEntity
8
1
62
256
6
ByLayer
370
13
48
1
60
0
100
AcDbSpline
70
4
71
3
72
8
73
4
40
0
40
0
40
0
40
0
40
1
40
1
40
1
40
1
41
1
10
204.860297657338
20
8.78527686720602
30
0
41
1
10
206.073531771559
20
5.86264676021091
30
0
41
1
10
207.286765885779
20
2.93420172797306
30
0
41
1
10
208.5
20
8.53E-14
30
0
0
SPLINE
5
136
100
AcDbEntity
8
1
62
256
6
ByLayer
370
13
48
1
60
0
100
AcDbSpline
70
4
71
3
72
8
73
4
40
0
40
0
40
0
40
0
40
1
40
1
40
1
40
1
41
1
10
204.860297657338
20
9.67201321492718
30
0
41
1
10
206.073531771559
20
6.45109055842943
30
0
41
1
10
207.286765885779
20
3.22706479178169
30
0
41
1
10
208.5
20
0
30
0
0
SPLINE
5
137
100
AcDbEntity
8
1
62
256
6
ByLayer
370
13
48
1
60
0
100
AcDbSpline
70
4
71
3
72
8
73
4
40
0
40
0
40
0
40
0
40
1
40
1
40
1
40
1
41
1
10
204.860297657338
20
-9.38627243372611
30
0
41
1
10
206.073531771559
20
-6.25333010881806
30
0
41
1
10
207.286765885779
20
-3.12455191616922
30
0
41
1
10
208.5
20
5.68E-14
30
0
0
SPLINE
5
138
100
AcDbEntity
8
1
62
256
6
ByLayer
370
13
48
1
60
0
100
AcDbSpline
70
4
71
3
72
8
73
4
40
0
40
0
40
0
40
0
40
1
40
1
40
1
40
1
41
1
10
204.860297657338
20
7.38990869936407
30
0
41
1
10
206.073531771559
20
4.93477954512738
30
0
41
1
10
207.286765885779
20
2.47146031109028
30
0
41
1
10
208.5
20
-5.68E-14
30
0
0
SPLINE
5
139
100
AcDbEntity
8
1
62
256
6
ByLayer
370
13
48
1
60
0
100
AcDbSpline
70
4
71
3
72
8
73
4
40
0
40
0
40
0
40
0
40
1
40
1
40
1
40
1
41
1
10
204.860297657338
20
1.26893052350553
30
0
41
1
10
206.073531771559
20
0.833919414134641
30
0
41
1
10
207.286765885779
20
0.410939797861033
30
0
41
1
10
208.5
20
5.68E-14
30
0
0
LINE
5
7D
100
AcDbEntity
8
80
62
256
6
ByLayer
370
18
48
1
60
0
100
AcDbLine
10
0
20
0
30
0
11
-5
21
0
31
0
39
0
210
0
220
0
230
1
0
LINE
5
7E
100
AcDbEntity
8
4
62
256
6
ByLayer
370
18
48
0.05
60
0
100
AcDbLine
10
-5
20
0
30
0
11
213.5
21
0
31
0
39
0
210
0
220
0
230
1
0
LINE
5
80
100
AcDbEntity
8
81
62
256
6
ByLayer
370
18
48
1
60
0
100
AcDbLine
10
208.5
20
0
30
0
11
213.5
21
0
31
0
39
0
210
0
220
0
230
1
0
LINE
5
81
100
AcDbEntity
8
SK4
62
256
6
ByLayer
370
18
48
0.05
60
0
100
AcDbLine
10
-61
20
0
30
0
11
213.5
21
0
31
0
39
0
210
0
220
0
230
1
0
LINE
5
83
100
AcDbEntity
8
1
62
256
6
ByLayer
370
18
48
1
60
0
100
AcDbLine
10
71.141631
20
9.7
30
0
11
25.599303
21
9.7
31
0
39
0
210
0
220
0
230
1
0
LINE
5
84
100
AcDbEntity
8
1
62
256
6
ByLayer
370
18
48
1
60
0
100
AcDbLine
10
111.915588
20
-9.7
30
0
11
157.454802
21
-9.7
31
0
39
0
210
0
220
0
230
1
0
LINE
5
85
100
AcDbEntity
8
1
62
256
6
ByLayer
370
18
48
1
60
0
100
AcDbLine
10
157.454802
20
9.7
30
0
11
111.915588
21
9.7
31
0
39
0
210
0
220
0
230
1
0
LINE
5
86
100
AcDbEntity
8
1
62
256
6
ByLayer
370
18
48
1
60
0
100
AcDbLine
10
25.599303
20
-9.7
30
0
11
71.141631
21
-9.7
31
0
39
0
210
0
220
0
230
1
0
LINE
5
87
100
AcDbEntity
8
1
62
256
6
ByLayer
370
18
48
1
60
0
100
AcDbLine
10
208.5
20
0
30
0
11
204.860298
21
10
31
0
39
0
210
0
220
0
230
1
0
LINE
5
88
100
AcDbEntity
8
1
62
256
6
ByLayer
370
18
48
1
60
0
100
AcDbLine
10
204.860298
20
-10
30
0
11
208.5
21
0
31
0
39
0
210
0
220
0
230
1
0
LINE
5
89
100
AcDbEntity
8
1
62
256
6
ByLayer
370
18
48
1
60
0
100
AcDbLine
10
3.770595
20
11.444234
30
0
11
0
21
12.5
31
0
39
0
210
0
220
0
230
1
0
LINE
5
8A
100
AcDbEntity
8
1
62
256
6
ByLayer
370
18
48
1
60
0
100
AcDbLine
10
0
20
-12.5
30
0
11
3.770595
21
-11.444234
31
0
39
0
210
0
220
0
230
1
0
LINE
5
8B
100
AcDbEntity
8
1
62
256
6
ByLayer
370
18
48
1
60
0
100
AcDbLine
10
208.5
20
0
30
0
11
204.860298
21
10
31
0
39
0
210
0
220
0
230
1
0
LINE
5
8C
100
AcDbEntity
8
1
62
256
6
ByLayer
370
18
48
1
60
0
100
AcDbLine
10
204.860298
20
-10
30
0
11
208.5
21
0
31
0
39
0
210
0
220
0
230
1
0
LINE
5
8D
100
AcDbEntity
8
1
62
256
6
ByLayer
370
18
48
1
60
0
100
AcDbLine
10
194.4
20
-10
30
0
11
204.860298
21
-10
31
0
39
0
210
0
220
0
230
1
0
LINE
5
8E
100
AcDbEntity
8
SK1
62
256
6
ByLayer
370
18
48
1
60
0
100
AcDbLine
10
-56
20
-11.5
30
0
11
-55
21
-12.5
31
0
39
0
210
0
220
0
230
1
0
LINE
5
90
100
AcDbEntity
8
SK1
62
256
6
ByLayer
370
18
48
1
60
0
100
AcDbLine
10
-55
20
12.5
30
0
11
-56
21
11.5
31
0
39
0
210
0
220
0
230
1
0
LINE
5
91
100
AcDbEntity
8
SK1
62
256
6
ByLayer
370
18
48
1
60
0
100
AcDbLine
10
-55
20
-12.5
30
0
11
0
21
-12.5
31
0
39
0
210
0
220
0
230
1
0
LINE
5
92
100
AcDbEntity
8
SK1
62
256
6
ByLayer
370
18
48
1
60
0
100
AcDbLine
10
0
20
12.5
30
0
11
-55
21
12.5
31
0
39
0
210
0
220
0
230
1
0
LINE
5
93
100
AcDbEntity
8
1
62
256
6
ByLayer
370
18
48
1
60
0
100
AcDbLine
10
0
20
12.5
30
0
11
0
21
-12.5
31
0
39
0
210
0
220
0
230
1
0
LINE
5
94
100
AcDbEntity
8
1
62
256
6
ByLayer
370
18
48
1
60
0
100
AcDbLine
10
204.860298
20
10
30
0
11
204.860298
21
9.682457
31
0
39
0
210
0
220
0
230
1
0
LINE
5
95
100
AcDbEntity
8
1
62
256
6
ByLayer
370
18
48
1
60
0
100
AcDbLine
10
204.860298
20
-10
30
0
11
204.860298
21
-1.427374
31
0
39
0
210
0
220
0
230
1
0
LINE
5
96
100
AcDbEntity
8
1
62
256
6
ByLayer
370
18
48
1
60
0
100
AcDbLine
10
10
20
-9.07233
30
0
11
10
21
6.137149
31
0
39
0
210
0
220
0
230
1
0
LINE
5
97
100
AcDbEntity
8
SK1
62
256
6
ByLayer
370
13
48
1
60
0
100
AcDbLine
10
-15.162813
20
-7.237775
30
0
11
-15.162813
21
7.237775
31
0
39
0
210
0
220
0
230
1
0
LINE
5
98
100
AcDbEntity
8
SK1
62
256
6
ByLayer
370
13
48
1
60
0
100
AcDbLine
10
-51.386002
20
5.000227
30
0
11
-51.386002
21
-5.000227
31
0
39
0
210
0
220
0
230
1
0
LINE
5
99
100
AcDbEntity
8
SK1
62
256
6
ByLayer
370
18
48
1
60
0
100
AcDbLine
10
-56
20
-11.5
30
0
11
-56
21
11.5
31
0
39
0
210
0
220
0
230
1
0
LINE
5
9A
100
AcDbEntity
8
SK1
62
256
6
ByLayer
370
13
48
1
60
0
100
AcDbLine
10
-52.500329
20
-3.620591
30
0
11
-52.500329
21
3.620591
31
0
39
0
210
0
220
0
230
1
0
LINE
5
9B
100
AcDbEntity
8
SK1
62
256
6
ByLayer
370
18
48
1
60
0
100
AcDbLine
10
-55
20
-12.5
30
0
11
-55
21
12.5
31
0
39
0
210
0
220
0
230
1
0
LINE
5
9C
100
AcDbEntity
8
SK1
62
256
6
ByLayer
370
18
48
1
60
0
100
AcDbLine
10
0
20
12.5
30
0
11
0
21
-12.5
31
0
39
0
210
0
220
0
230
1
0
LINE
5
9D
100
AcDbEntity
8
SK1
62
256
6
ByLayer
370
13
48
1
60
0
100
AcDbLine
10
-14.015776
20
6.592429
30
0
11
-14.015776
21
-6.592429
31
0
39
0
210
0
220
0
230
1
0
LINE
5
9E
100
AcDbEntity
8
1
62
256
6
ByLayer
370
18
48
1
60
0
100
AcDbLine
10
204.860298
20
10
30
0
11
204.860298
21
-10
31
0
39
0
210
0
220
0
230
1
0
LINE
5
9F
100
AcDbEntity
8
1
62
256
6
ByLayer
370
18
48
1
60
0
100
AcDbLine
10
204.860298
20
10
30
0
11
204.860298
21
-10
31
0
39
0
210
0
220
0
230
1
0
LINE
5
A0
100
AcDbEntity
8
1
62
256
6
ByLayer
370
18
48
1
60
0
100
AcDbLine
10
204.860298
20
10
30
0
11
204.860298
21
-10
31
0
39
0
210
0
220
0
230
1
0
LINE
5
A1
100
AcDbEntity
8
1
62
256
6
ByLayer
370
18
48
1
60
0
100
AcDbLine
10
194.4
20
10
30
0
11
194.4
21
-10
31
0
39
0
210
0
220
0
230
1
0
LINE
5
A2
100
AcDbEntity
8
1
62
256
6
ByLayer
370
18
48
1
60
0
100
AcDbLine
10
194.4
20
10
30
0
11
194.4
21
-10
31
0
39
0
210
0
220
0
230
1
0
LINE
5
A3
100
AcDbEntity
8
1
62
256
6
ByLayer
370
18
48
1
60
0
100
AcDbLine
10
204.860298
20
10
30
0
11
204.860298
21
-10
31
0
39
0
210
0
220
0
230
1
0
LINE
5
A4
100
AcDbEntity
8
1
62
256
6
ByLayer
370
18
48
1
60
0
100
AcDbLine
10
194.4
20
10
30
0
11
194.4
21
-10
31
0
39
0
210
0
220
0
230
1
0
LINE
5
A5
100
AcDbEntity
8
1
62
256
6
ByLayer
370
18
48
1
60
0
100
AcDbLine
10
204.860298
20
10
30
0
11
204.860298
21
-10
31
0
39
0
210
0
220
0
230
1
0
LINE
5
A6
100
AcDbEntity
8
SK2
62
256
6
ByLayer
370
13
48
1
60
0
100
AcDbLine
10
-62.5
20
-12.5
30
0
11
-62.5
21
41.524569
31
0
39
0
210
0
220
0
230
1
0
LINE
5
A8
100
AcDbEntity
8
SK2
62
256
6
ByLayer
370
13
48
1
60
0
100
AcDbLine
10
-57.5875
20
12.5
30
0
11
-64.5
21
12.5
31
0
39
0
210
0
220
0
230
1
0
LINE
5
A9
100
AcDbEntity
8
SK2
62
256
6
ByLayer
370
13
48
1
60
0
100
AcDbLine
10
-57.5875
20
-12.5
30
0
11
-64.5
21
-12.5
31
0
39
0
210
0
220
0
230
1
0
LINE
5
AA
100
AcDbEntity
8
1
62
256
6
ByLayer
370
18
48
1
60
1
100
AcDbLine
10
-62.5
20
12.5
30
0
11
-62.039216
21
9.000002
31
0
39
0
210
0
220
0
230
1
0
LINE
5
AB
100
AcDbEntity
8
1
62
256
6
ByLayer
370
18
48
1
60
1
100
AcDbLine
10
-62.039216
20
9.000002
30
0
11
-62.960784
21
8.999998
31
0
39
0
210
0
220
0
230
1
0
LINE
5
AC
100
AcDbEntity
8
1
62
256
6
ByLayer
370
18
48
1
60
1
100
AcDbLine
10
-62.960784
20
8.999998
30
0
11
-62.5
21
12.5
31
0
39
0
210
0
220
0
230
1
0
LINE
5
AD
100
AcDbEntity
8
1
62
256
6
ByLayer
370
18
48
1
60
1
100
AcDbLine
10
-62.5
20
-12.5
30
0
11
-62.960784
21
-9.000002
31
0
39
0
210
0
220
0
230
1
0
LINE
5
AE
100
AcDbEntity
8
1
62
256
6
ByLayer
370
18
48
1
60
1
100
AcDbLine
10
-62.960784
20
-9.000002
30
0
11
-62.039216
21
-8.999998
31
0
39
0
210
0
220
0
230
1
0
LINE
5
AF
100
AcDbEntity
8
1
62
256
6
ByLayer
370
18
48
1
60
1
100
AcDbLine
10
-62.039216
20
-8.999998
30
0
11
-62.5
21
-12.5
31
0
39
0
210
0
220
0
230
1
0
LINE
5
B0
100
AcDbEntity
8
2
62
256
6
ByLayer
370
13
48
1
60
0
100
AcDbLine
10
216
20
-10
30
0
11
216
21
39.024569
31
0
39
0
210
0
220
0
230
1
0
LINE
5
B2
100
AcDbEntity
8
2
62
256
6
ByLayer
370
13
48
1
60
0
100
AcDbLine
10
206.447798
20
10
30
0
11
218
21
10
31
0
39
0
210
0
220
0
230
1
0
LINE
5
B3
100
AcDbEntity
8
2
62
256
6
ByLayer
370
13
48
1
60
0
100
AcDbLine
10
206.447798
20
-10
30
0
11
218
21
-10
31
0
39
0
210
0
220
0
230
1
0
LINE
5
B4
100
AcDbEntity
8
1
62
256
6
ByLayer
370
18
48
1
60
1
100
AcDbLine
10
216
20
10
30
0
11
216.460784
21
6.500002
31
0
39
0
210
0
220
0
230
1
0
LINE
5
B5
100
AcDbEntity
8
1
62
256
6
ByLayer
370
18
48
1
60
1
100
AcDbLine
10
216.460784
20
6.500002
30
0
11
215.539216
21
6.499998
31
0
39
0
210
0
220
0
230
1
0
LINE
5
B6
100
AcDbEntity
8
1
62
256
6
ByLayer
370
18
48
1
60
1
100
AcDbLine
10
215.539216
20
6.499998
30
0
11
216
21
10
31
0
39
0
210
0
220
0
230
1
0
LINE
5
B7
100
AcDbEntity
8
1
62
256
6
ByLayer
370
18
48
1
60
1
100
AcDbLine
10
216
20
-10
30
0
11
215.539216
21
-6.500002
31
0
39
0
210
0
220
0
230
1
0
LINE
5
B8
100
AcDbEntity
8
1
62
256
6
ByLayer
370
18
48
1
60
1
100
AcDbLine
10
215.539216
20
-6.500002
30
0
11
216.460784
21
-6.499998
31
0
39
0
210
0
220
0
230
1
0
LINE
5
B9
100
AcDbEntity
8
1
62
256
6
ByLayer
370
18
48
1
60
1
100
AcDbLine
10
216.460784
20
-6.499998
30
0
11
216
21
-10
31
0
39
0
210
0
220
0
230
1
0
LINE
5
BA
100
AcDbEntity
8
SK2
62
256
6
ByLayer
370
13
48
1
60
0
100
AcDbLine
10
209.042957
20
-1.491762
30
0
11
215.682423
21
-19.733545
31
0
39
0
210
0
220
0
230
1
0
LINE
5
BB
100
AcDbEntity
8
SK2
62
256
6
ByLayer
370
13
48
1
60
0
100
AcDbLine
10
209.042957
20
1.491762
30
0
11
215.682423
21
19.733545
31
0
39
0
210
0
220
0
230
1
0
LINE
5
BC
100
AcDbEntity
8
1
62
256
6
ByLayer
370
18
48
1
60
1
100
AcDbLine
10
214.998383
20
-17.85416
30
0
11
218.051575
21
-16.082064
31
0
39
0
210
0
220
0
230
1
0
LINE
5
BD
100
AcDbEntity
8
1
62
256
6
ByLayer
370
18
48
1
60
1
100
AcDbLine
10
218.051575
20
-16.082064
30
0
11
218.406196
21
-16.93267
31
0
39
0
210
0
220
0
230
1
0
LINE
5
BE
100
AcDbEntity
8
1
62
256
6
ByLayer
370
18
48
1
60
1
100
AcDbLine
10
218.406196
20
-16.93267
30
0
11
214.998383
21
-17.85416
31
0
39
0
210
0
220
0
230
1
0
LINE
5
BF
100
AcDbEntity
8
1
62
256
6
ByLayer
370
18
48
1
60
1
100
AcDbLine
10
214.998383
20
17.85416
30
0
11
218.406193
21
16.932671
31
0
39
0
210
0
220
0
230
1
0
LINE
5
C0
100
AcDbEntity
8
1
62
256
6
ByLayer
370
18
48
1
60
1
100
AcDbLine
10
218.406193
20
16.932671
30
0
11
218.051579
21
16.082063
31
0
39
0
210
0
220
0
230
1
0
LINE
5
C1
100
AcDbEntity
8
1
62
256
6
ByLayer
370
18
48
1
60
1
100
AcDbLine
10
218.051579
20
16.082063
30
0
11
214.998383
21
17.85416
31
0
39
0
210
0
220
0
230
1
0
LINE
5
13E
100
AcDbEntity
8
1
62
256
6
ByLayer
370
18
48
1
60
1
100
AcDbLine
10
-62.5
20
12.5
30
0
11
-62.039216
21
9.000002
31
0
39
0
210
0
220
0
230
1
0
LINE
5
13F
100
AcDbEntity
8
1
62
256
6
ByLayer
370
18
48
1
60
1
100
AcDbLine
10
-62.039216
20
9.000002
30
0
11
-62.960784
21
8.999998
31
0
39
0
210
0
220
0
230
1
0
LINE
5
140
100
AcDbEntity
8
1
62
256
6
ByLayer
370
18
48
1
60
1
100
AcDbLine
10
-62.960784
20
8.999998
30
0
11
-62.5
21
12.5
31
0
39
0
210
0
220
0
230
1
0
LINE
5
142
100
AcDbEntity
8
1
62
256
6
ByLayer
370
18
48
1
60
1
100
AcDbLine
10
-62.5
20
-12.5
30
0
11
-62.960784
21
-9.000002
31
0
39
0
210
0
220
0
230
1
0
LINE
5
143
100
AcDbEntity
8
1
62
256
6
ByLayer
370
18
48
1
60
1
100
AcDbLine
10
-62.960784
20
-9.000002
30
0
11
-62.039216
21
-8.999998
31
0
39
0
210
0
220
0
230
1
0
LINE
5
144
100
AcDbEntity
8
1
62
256
6
ByLayer
370
18
48
1
60
1
100
AcDbLine
10
-62.039216
20
-8.999998
30
0
11
-62.5
21
-12.5
31
0
39
0
210
0
220
0
230
1
0
LINE
5
148
100
AcDbEntity
8
1
62
256
6
ByLayer
370
18
48
1
60
1
100
AcDbLine
10
216
20
10
30
0
11
216.460784
21
6.500002
31
0
39
0
210
0
220
0
230
1
0
LINE
5
149
100
AcDbEntity
8
1
62
256
6
ByLayer
370
18
48
1
60
1
100
AcDbLine
10
216.460784
20
6.500002
30
0
11
215.539216
21
6.499998
31
0
39
0
210
0
220
0
230
1
0
LINE
5
14A
100
AcDbEntity
8
1
62
256
6
ByLayer
370
18
48
1
60
1
100
AcDbLine
10
215.539216
20
6.499998
30
0
11
216
21
10
31
0
39
0
210
0
220
0
230
1
0
LINE
5
14C
100
AcDbEntity
8
1
62
256
6
ByLayer
370
18
48
1
60
1
100
AcDbLine
10
216
20
-10
30
0
11
215.539216
21
-6.500002
31
0
39
0
210
0
220
0
230
1
0
LINE
5
14D
100
AcDbEntity
8
1
62
256
6
ByLayer
370
18
48
1
60
1
100
AcDbLine
10
215.539216
20
-6.500002
30
0
11
216.460784
21
-6.499998
31
0
39
0
210
0
220
0
230
1
0
LINE
5
14E
100
AcDbEntity
8
1
62
256
6
ByLayer
370
18
48
1
60
1
100
AcDbLine
10
216.460784
20
-6.499998
30
0
11
216
21
-10
31
0
39
0
210
0
220
0
230
1
0
LINE
5
151
100
AcDbEntity
8
1
62
256
6
ByLayer
370
18
48
1
60
1
100
AcDbLine
10
214.998383
20
-17.85416
30
0
11
218.051575
21
-16.082064
31
0
39
0
210
0
220
0
230
1
0
LINE
5
152
100
AcDbEntity
8
1
62
256
6
ByLayer
370
18
48
1
60
1
100
AcDbLine
10
218.051575
20
-16.082064
30
0
11
218.406196
21
-16.93267
31
0
39
0
210
0
220
0
230
1
0
LINE
5
153
100
AcDbEntity
8
1
62
256
6
ByLayer
370
18
48
1
60
1
100
AcDbLine
10
218.406196
20
-16.93267
30
0
11
214.998383
21
-17.85416
31
0
39
0
210
0
220
0
230
1
0
LINE
5
155
100
AcDbEntity
8
1
62
256
6
ByLayer
370
18
48
1
60
1
100
AcDbLine
10
214.998383
20
17.85416
30
0
11
218.406193
21
16.932671
31
0
39
0
210
0
220
0
230
1
0
LINE
5
156
100
AcDbEntity
8
1
62
256
6
ByLayer
370
18
48
1
60
1
100
AcDbLine
10
218.406193
20
16.932671
30
0
11
218.051579
21
16.082063
31
0
39
0
210
0
220
0
230
1
0
LINE
5
157
100
AcDbEntity
8
1
62
256
6
ByLayer
370
18
48
1
60
1
100
AcDbLine
10
218.051579
20
16.082063
30
0
11
214.998383
21
17.85416
31
0
39
0
210
0
220
0
230
1
0
MTEXT
5
13A
100
AcDbEntity
8
SK2
62
256
6
ByLayer
370
18
48
1
60
0
100
AcDbMText
10
-63.841114
20
24.158438
30
0
210
0
220
0
230
1
1
%%c
40
3
41
0
44
1.084337
50
90
71
7
72
5
7
iso_b_vert
0
MTEXT
5
13D
100
AcDbEntity
8
SK2
62
256
6
ByLayer
370
18
48
1
60
0
100
AcDbMText
10
-63.841114
20
30.135
30
0
210
0
220
0
230
1
1
\W0.7513;25.000
40
3
41
0
44
1.084337
50
90
71
7
72
5
7
iso_b_vert
0
MTEXT
5
146
100
AcDbEntity
8
2
62
256
6
ByLayer
370
18
48
1
60
0
100
AcDbMText
10
214.658886
20
21.658438
30
0
210
0
220
0
230
1
1
%%c
40
3
41
0
44
1.084337
50
90
71
7
72
5
7
iso_b_vert
0
MTEXT
5
147
100
AcDbEntity
8
2
62
256
6
ByLayer
370
18
48
1
60
0
100
AcDbMText
10
214.658886
20
27.635
30
0
210
0
220
0
230
1
1
\W0.7513;20.000
40
3
41
0
44
1.084337
50
90
71
7
72
5
7
iso_b_vert
0
MTEXT
5
150
100
AcDbEntity
8
SK2
62
256
6
ByLayer
370
18
48
1
60
0
100
AcDbMText
10
228.409114
20
3.734657
30
0
210
0
220
0
230
1
1
\W0.7071;140%%d
40
3
41
0
44
1.084337
50
270
71
7
72
5
7
iso_b_vert
0
MTEXT
5
159
100
AcDbEntity
8
SK6
62
256
6
ByLayer
370
18
48
1
60
0
100
AcDbMText
10
51.96286
20
-67.114886
30
0
210
0
220
0
230
1
1
\W0.7680;H85820.0
40
3
41
0
44
1.084337
50
0
71
7
72
5
7
iso_b_vert
0
HATCH
5
141
100
AcDbEntity
8
SK2
62
256
6
ByLayer
370
13
48
1
60
0
100
AcDbHatch
10
0
20
0
30
0
210
0
220
0
230
1
2
ANSI31
70
0
71
0
91
1
92
5
93
3
72
1
10
-62.5
20
12.5
11
-62.0392162584472
21
9.00000169255318
72
1
10
-62.0392162584472
20
9.00000169255318
11
-62.9607837415528
21
8.99999830744682
72
1
10
-62.9607837415528
20
8.99999830744682
11
-62.5
21
12.5
97
0
75
0
76
1
52
0
41
0.0062
77
0
78
1
53
45
43
0
44
0
45
-0.0139193969876572
46
0.0139193969876572
79
0
47
0
98
1
10
0
20
0
0
HATCH
5
145
100
AcDbEntity
8
SK2
62
256
6
ByLayer
370
13
48
1
60
0
100
AcDbHatch
10
0
20
0
30
0
210
0
220
0
230
1
2
ANSI31
70
0
71
0
91
1
92
5
93
3
72
1
10
-62.5
20
-12.5
11
-62.9607837415528
21
-9.00000169255318
72
1
10
-62.9607837415528
20
-9.00000169255318
11
-62.0392162584472
21
-8.99999830744682
72
1
10
-62.0392162584472
20
-8.99999830744682
11
-62.5
21
-12.5
97
0
75
0
76
1
52
0
41
0.0062
77
0
78
1
53
45
43
0
44
0
45
-0.0139193969876572
46
0.0139193969876572
79
0
47
0
98
1
10
0
20
0
0
HATCH
5
14B
100
AcDbEntity
8
2
62
256
6
ByLayer
370
13
48
1
60
0
100
AcDbHatch
10
0
20
0
30
0
210
0
220
0
230
1
2
ANSI31
70
0
71
0
91
1
92
5
93
3
72
1
10
216
20
10
11
216.460783741553
21
6.50000169255318
72
1
10
216.460783741553
20
6.50000169255318
11
215.539216258447
21
6.49999830744682
72
1
10
215.539216258447
20
6.49999830744682
11
216
21
10
97
0
75
0
76
1
52
0
41
0.0062
77
0
78
1
53
45
43
0
44
0
45
-0.0139193969876572
46
0.0139193969876572
79
0
47
0
98
1
10
0
20
0
0
HATCH
5
14F
100
AcDbEntity
8
2
62
256
6
ByLayer
370
13
48
1
60
0
100
AcDbHatch
10
0
20
0
30
0
210
0
220
0
230
1
2
ANSI31
70
0
71
0
91
1
92
5
93
3
72
1
10
216
20
-10
11
215.539216258447
21
-6.50000169255318
72
1
10
215.539216258447
20
-6.50000169255318
11
216.460783741553
21
-6.49999830744682
72
1
10
216.460783741553
20
-6.49999830744682
11
216
21
-10
97
0
75
0
76
1
52
0
41
0.0062
77
0
78
1
53
45
43
0
44
0
45
-0.0139193969876572
46
0.0139193969876572
79
0
47
0
98
1
10
0
20
0
0
HATCH
5
154
100
AcDbEntity
8
SK2
62
256
6
ByLayer
370
13
48
1
60
0
100
AcDbHatch
10
0
20
0
30
0
210
0
220
0
230
1
2
ANSI31
70
0
71
0
91
1
92
5
93
3
72
1
10
214.998382723188
20
-17.8541597949323
11
218.051575425693
21
-16.0820638240608
72
1
10
218.051575425693
20
-16.0820638240608
11
218.406195833975
21
-16.9326700737196
72
1
10
218.406195833975
20
-16.9326700737196
11
214.998382723188
21
-17.8541597949323
97
0
75
0
76
1
52
0
41
0.0062
77
0
78
1
53
45
43
0
44
0
45
-0.0139193969876572
46
0.0139193969876572
79
0
47
0
98
1
10
0
20
0
0
HATCH
5
158
100
AcDbEntity
8
SK2
62
256
6
ByLayer
370
13
48
1
60
0
100
AcDbHatch
10
0
20
0
30
0
210
0
220
0
230
1
2
ANSI31
70
0
71
0
91
1
92
5
93
3
72
1
10
214.998382723188
20
17.8541597949323
11
218.406192709519
21
16.9326713763016
72
1
10
218.406192709519
20
16.9326713763016
11
218.051578550149
21
16.0820625214788
72
1
10
218.051578550149
20
16.0820625214788
11
214.998382723188
21
17.8541597949323
97
0
75
0
76
1
52
0
41
0.0062
77
0
78
1
53
45
43
0
44
0
45
-0.0139193969876572
46
0.0139193969876572
79
0
47
0
98
1
10
0
20
0
0
DIMENSION
5
15C
100
AcDbEntity
8
SK2
62
256
6
ByLayer
370
18
48
1
60
0
100
AcDbDimension
2
_U0
10
208.5
20
-45.952229
30
0
11
76.25
21
-45.952229
31
0
70
32
71
1
72
1
41
1
210
0
220
0
230
1
3
Standard
100
AcDbAlignedDimension
13
-56
23
-12.5
33
0
14
208.5
24
0
34
0
50
0
100
AcDbRotatedDimension
1001
ACAD
1000
DSTYLE
1002
{
1070
   371
1070
    13
1070
   372
1070
    13
1070
     3
1000

1070
   170
1070
     0
1070
   144
1040
1.0
1070
   277
1070
     2
1070
   284
1070
     8
1070
   278
1070
    46
1070
   146
1040
1.166667
1070
   345
1005
16
1070
   347
1005
16
1070
   346
1005
16
1070
   344
1005
0
1070
   343
1005
0
1070
   172
1070
     1
1070
    76
1070
     0
1070
    75
1070
     0
1070
   282
1070
     0
1070
   281
1070
     0
1070
    71
1070
     0
1070
    74
1070
     0
1070
   279
1070
     0
1070
   173
1070
     1
1070
   340
1005
13B
1070
   271
1070
     2
1070
   272
1070
     3
1070
    77
1070
     1
1070
    73
1070
     1
1070
   171
1070
     3
1070
   274
1070
     4
1070
   177
1070
     2
1070
   176
1070
     2
1070
   178
1070
     2
1070
    78
1070
     8
1070
    48
1040
-0.1
1070
    41
1040
3.5
1070
   147
1040
1.5
1070
    42
1040
1.5875
1070
    44
1040
2.0
1070
   140
1040
3.0
1002
}
1001
ACAD_DSTYLE_DIM_LINETYPE
1070
   380
1005
16
1001
ACAD_DSTYLE_DIM_EXT1_LINETYPE
1070
   381
1005
16
1001
ACAD_DSTYLE_DIM_EXT2_LINETYPE
1070
   382
1005
16
0
DIMENSION
5
175
100
AcDbEntity
8
SK2
62
256
6
ByLayer
370
18
48
1
60
0
100
AcDbDimension
2
_U1
10
3
20
-35.952229
30
0
11
105.75
21
-35.952229
31
0
70
32
71
1
72
1
41
1
210
0
220
0
230
1
3
Standard
100
AcDbAlignedDimension
13
208.5
23
0
33
0
14
3
24
-10
34
0
50
0
100
AcDbRotatedDimension
1001
ACAD
1000
DSTYLE
1002
{
1070
   371
1070
    13
1070
   372
1070
    13
1070
     3
1000

1070
   170
1070
     0
1070
   144
1040
1.0
1070
   277
1070
     2
1070
   284
1070
     8
1070
   278
1070
    46
1070
   146
1040
1.166667
1070
   345
1005
16
1070
   347
1005
16
1070
   346
1005
16
1070
   344
1005
0
1070
   343
1005
0
1070
   172
1070
     1
1070
    76
1070
     0
1070
    75
1070
     0
1070
   282
1070
     0
1070
   281
1070
     0
1070
    71
1070
     0
1070
    74
1070
     0
1070
   279
1070
     0
1070
   173
1070
     1
1070
   340
1005
13B
1070
   271
1070
     2
1070
   272
1070
     3
1070
    77
1070
     1
1070
    73
1070
     1
1070
   171
1070
     3
1070
   274
1070
     4
1070
   177
1070
     2
1070
   176
1070
     2
1070
   178
1070
     2
1070
    78
1070
     8
1070
    48
1040
-0.1
1070
    41
1040
3.5
1070
   147
1040
1.5
1070
    42
1040
1.5875
1070
    44
1040
2.0
1070
   140
1040
3.0
1002
}
1001
ACAD_DSTYLE_DIM_LINETYPE
1070
   380
1005
16
1001
ACAD_DSTYLE_DIM_EXT1_LINETYPE
1070
   381
1005
16
1001
ACAD_DSTYLE_DIM_EXT2_LINETYPE
1070
   382
1005
16
0
DIMENSION
5
18D
100
AcDbEntity
8
SK2
62
256
6
ByLayer
370
18
48
1
60
0
100
AcDbDimension
2
_U2
10
0
20
-35.952229
30
0
11
-28
21
-35.952229
31
0
70
32
71
1
72
1
41
1
210
0
220
0
230
1
3
Standard
100
AcDbAlignedDimension
13
-56
23
-12.5
33
0
14
0
24
-12.5
34
0
50
0
100
AcDbRotatedDimension
1001
ACAD
1000
DSTYLE
1002
{
1070
   371
1070
    13
1070
   372
1070
    13
1070
     3
1000

1070
   170
1070
     0
1070
   144
1040
1.0
1070
   277
1070
     2
1070
   284
1070
     8
1070
   278
1070
    46
1070
   146
1040
1.166667
1070
   345
1005
16
1070
   347
1005
16
1070
   346
1005
16
1070
   344
1005
0
1070
   343
1005
0
1070
   172
1070
     1
1070
    76
1070
     0
1070
    75
1070
     0
1070
   282
1070
     0
1070
   281
1070
     0
1070
    71
1070
     0
1070
    74
1070
     0
1070
   279
1070
     0
1070
   173
1070
     1
1070
   340
1005
13B
1070
   271
1070
     2
1070
   272
1070
     3
1070
    77
1070
     1
1070
    73
1070
     1
1070
   171
1070
     3
1070
   274
1070
     4
1070
   177
1070
     2
1070
   176
1070
     2
1070
   178
1070
     2
1070
    78
1070
     8
1070
    48
1040
-0.1
1070
    41
1040
3.5
1070
   147
1040
1.5
1070
    42
1040
1.5875
1070
    44
1040
2.0
1070
   140
1040
3.0
1002
}
1001
ACAD_DSTYLE_DIM_LINETYPE
1070
   380
1005
16
1001
ACAD_DSTYLE_DIM_EXT1_LINETYPE
1070
   381
1005
16
1001
ACAD_DSTYLE_DIM_EXT2_LINETYPE
1070
   382
1005
16
0
DIMENSION
5
1A5
100
AcDbEntity
8
SK2
62
256
6
ByLayer
370
18
48
1
60
0
100
AcDbDimension
2
_U3
10
33
20
32.952229
30
0
11
120.75
21
32.952229
31
0
70
32
71
1
72
1
41
1
210
0
220
0
230
1
3
Standard
100
AcDbAlignedDimension
13
208.5
23
0
33
0
14
33
24
10
34
0
50
0
100
AcDbRotatedDimension
1001
ACAD
1000
DSTYLE
1002
{
1070
   371
1070
    13
1070
   372
1070
    13
1070
     3
1000

1070
   170
1070
     0
1070
   144
1040
1.0
1070
   277
1070
     2
1070
   284
1070
     8
1070
   278
1070
    46
1070
   146
1040
1.166667
1070
   345
1005
16
1070
   347
1005
16
1070
   346
1005
16
1070
   344
1005
0
1070
   343
1005
0
1070
   172
1070
     1
1070
    76
1070
     0
1070
    75
1070
     0
1070
   282
1070
     0
1070
   281
1070
     0
1070
    71
1070
     0
1070
    74
1070
     0
1070
   279
1070
     0
1070
   173
1070
     1
1070
   340
1005
13B
1070
   271
1070
     2
1070
   272
1070
     3
1070
    77
1070
     1
1070
    73
1070
     1
1070
   171
1070
     3
1070
   274
1070
     4
1070
   177
1070
     2
1070
   176
1070
     2
1070
   178
1070
     2
1070
    78
1070
     8
1070
    48
1040
-0.1
1070
    41
1040
3.5
1070
   147
1040
1.5
1070
    42
1040
1.5875
1070
    44
1040
2.0
1070
   140
1040
3.0
1002
}
1001
ACAD_DSTYLE_DIM_LINETYPE
1070
   380
1005
16
1001
ACAD_DSTYLE_DIM_EXT1_LINETYPE
1070
   381
1005
16
1001
ACAD_DSTYLE_DIM_EXT2_LINETYPE
1070
   382
1005
16
0
ENDSEC
0
SECTION
2
OBJECTS
0
DICTIONARY
5
22d
330
0
100
AcDbDictionary
280
0
281
1
3
ACAD_GROUP
350
22e
3
ACAD_MLINESTYLE
350
22f
0
DICTIONARY
5
22e
330
0
100
AcDbDictionary
280
0
281
1
0
DICTIONARY
5
22f
330
0
100
AcDbDictionary
280
0
281
1
3
Standard
350
18
0
MLINESTYLE
5
18
330
22f
100
AcDbMlineStyle
2
Standard
70
0
3

62
256
51
90
52
90
71
2
49
-0.5
62
256
6
ByLayer
49
0.5
62
256
6
ByLayer
0
RASTERVARIABLES
5
21b
330

100
AcDbRasterVariables
90
0
70
1
71
1
72
1
0
ENDSEC
0
EOF
