0
SECTION
2
HEADER
9
$ACADVER
1
AC1015
9
$DWGCODEPAGE
3
ANSI_1252
9
$HANDSEED
5
236
9
$ANGBASE
50
0
9
$ANGDIR
70
0
9
$ATTMODE
70
1
9
$AUNITS
70
0
9
$AUPREC
70
0
9
$CECOLOR
62
256
9
$CELTSCALE
40
1
9
$CELTYPE
6
ByLayer
9
$CELWEIGHT
370
18
9
$CLAYER
8
0
9
$CMLJUST
70
0
9
$CMLSCALE
40
1
9
$CMLSTYLE
2
Standard
9
$DIMSTYLE
2
Standard
9
$TEXTSIZE
40
0.2
9
$TEXTSTYLE
7
Standard
9
$LUNITS
70
2
9
$LUPREC
70
4
9
$EXTNAMES
290
1
9
$INSUNITS
70
4
9
$LTSCALE
40
1
9
$LWDISPLAY
290
1
9
$PDMODE
70
0
9
$PDSIZE
40
0
9
$PLINEGEN
70
0
0
ENDSEC
0
SECTION
2
CLASSES
0
CLASS
1
RASTERVARIABLES
2
AcDbRasterVariables
3
ISM
90
0
280
0
281
0
0
ENDSEC
0
SECTION
2
TABLES
0
TABLE
2
VPORT
5
22c
100
AcDbSymbolTable
0
VPORT
5
1
100
AcDbSymbolTableRecord
100
AcDbViewportTableRecord
2
*Active
70
0
10
0
20
0
11
1
21
1
12
-1
22
1
13
0
23
0
14
0.5
24
0.5
15
10
25
10
16
0
26
0
36
1
17
0
27
0
37
0
0
ENDTAB
0
TABLE
2
LTYPE
5
22d
100
AcDbSymbolTable
0
LTYPE
5
14
100
AcDbSymbolTableRecord
100
AcDbLinetypeTableRecord
70
0
2
ByBlock
3

72
65
73
0
40
0
0
LTYPE
5
15
100
AcDbSymbolTableRecord
100
AcDbLinetypeTableRecord
70
0
2
ByLayer
3

72
65
73
0
40
0
0
LTYPE
5
16
100
AcDbSymbolTableRecord
100
AcDbLinetypeTableRecord
70
0
2
Continuous
3
Solid line
72
65
73
0
40
0
0
LTYPE
5
6E
100
AcDbSymbolTableRecord
100
AcDbLinetypeTableRecord
70
0
2
CENTER
3
____ _ ____ _ ____ _ ____
72
65
73
4
40
47.5
49
22
74
0
49
-8.5
74
0
49
8.5
74
0
49
-8.5
74
0
0
LTYPE
5
6F
100
AcDbSymbolTableRecord
100
AcDbLinetypeTableRecord
70
0
2
DASHED
3
__ __ __ __ __ __ __ __ __
72
65
73
2
40
25.72
49
12.86
74
0
49
-12.86
74
0
0
ENDTAB
0
TABLE
2
LAYER
5
22e
100
AcDbSymbolTable
0
LAYER
5
10
100
AcDbSymbolTableRecord
100
AcDbLayerTableRecord
2
0
70
0
62
7
6
Continuous
290
1
370
-3
390
0
0
LAYER
5
71
100
AcDbSymbolTableRecord
100
AcDbLayerTableRecord
2
81
70
0
62
-3
6
Continuous
290
1
370
-3
390
0
0
LAYER
5
73
100
AcDbSymbolTableRecord
100
AcDbLayerTableRecord
2
80
70
0
62
-6
6
Continuous
290
1
370
-3
390
0
0
LAYER
5
75
100
AcDbSymbolTableRecord
100
AcDbLayerTableRecord
2
1
70
0
62
4
6
Continuous
290
1
370
-3
390
0
0
LAYER
5
7E
100
AcDbSymbolTableRecord
100
AcDbLayerTableRecord
2
4
70
0
62
-2
6
CENTER
290
1
370
-3
390
0
0
LAYER
5
B1
100
AcDbSymbolTableRecord
100
AcDbLayerTableRecord
2
2
70
0
62
7
6
Continuous
290
1
370
-3
390
0
0
LAYER
5
15B
100
AcDbSymbolTableRecord
100
AcDbLayerTableRecord
2
Defpoints
70
0
62
7
6
Continuous
290
0
370
-3
390
0
0
LAYER
5
218
100
AcDbSymbolTableRecord
100
AcDbLayerTableRecord
2
SK4
70
0
62
2
6
CENTER
290
1
370
-3
390
0
0
LAYER
5
219
100
AcDbSymbolTableRecord
100
AcDbLayerTableRecord
2
SK1
70
0
62
4
6
Continuous
290
1
370
-3
390
0
0
LAYER
5
21a
100
AcDbSymbolTableRecord
100
AcDbLayerTableRecord
2
SK2
70
0
62
7
6
Continuous
290
1
370
-3
390
0
0
LAYER
5
21b
100
AcDbSymbolTableRecord
100
AcDbLayerTableRecord
2
SK6
70
0
62
5
6
Continuous
290
1
370
-3
390
0
0
ENDTAB
0
TABLE
2
STYLE
5
22f
100
AcDbSymbolTable
0
STYLE
5
11
100
AcDbSymbolTableRecord
100
AcDbTextStyleTableRecord
2
Standard
3
txt
70
0
71
0
40
0
41
1
42
0
50
0
0
STYLE
5
137
100
AcDbSymbolTableRecord
100
AcDbTextStyleTableRecord
2
iso_b_vert
3
simplex.shx
70
0
71
0
40
0
41
1
42
0
50
0
0
STYLE
5
138
100
AcDbSymbolTableRecord
100
AcDbTextStyleTableRecord
2
DWGDirectTextStyle
3
simplex
70
0
71
0
40
0
41
1
42
0
50
0
0
ENDTAB
0
TABLE
2
DIMSTYLE
5
230
100
AcDbSymbolTable
100
AcDbDimStyleTable
0
DIMSTYLE
105
27
100
AcDbSymbolTableRecord
100
AcDbDimStyleTableRecord
2
Standard
70
0
3
<>
41
0.18
42
0.0625
44
0.18
140
0.18
147
0.09
73
0
74
0
77
1
271
2
275
0
278
52
280
0
340
11
0
ENDTAB
0
TABLE
2
VIEW
5
231
100
AcDbSymbolTable
0
ENDTAB
0
TABLE
2
UCS
5
232
100
AcDbSymbolTable
0
ENDTAB
0
TABLE
2
APPID
5
233
100
AcDbSymbolTable
0
APPID
5
12
100
AcDbSymbolTableRecord
100
AcDbRegAppTableRecord
2
ACAD
70
0
0
APPID
5
157
100
AcDbSymbolTableRecord
100
AcDbRegAppTableRecord
2
ACAD_DSTYLE_DIMBREAK
70
0
0
APPID
5
1D7
100
AcDbSymbolTableRecord
100
AcDbRegAppTableRecord
2
ACAD_DSTYLE_DIM_LINETYPE
70
0
0
APPID
5
1D8
100
AcDbSymbolTableRecord
100
AcDbRegAppTableRecord
2
ACAD_DSTYLE_DIM_EXT1_LINETYPE
70
0
0
APPID
5
1D9
100
AcDbSymbolTableRecord
100
AcDbRegAppTableRecord
2
ACAD_DSTYLE_DIM_EXT2_LINETYPE
70
0
0
APPID
5
214
100
AcDbSymbolTableRecord
100
AcDbRegAppTableRecord
2
ACAD_MLEADERVER
70
0
0
ENDTAB
0
TABLE
2
BLOCK_RECORD
5
234
100
AcDbSymbolTable
0
BLOCK_RECORD
5
1F
100
AcDbSymbolTableRecord
100
AcDbBlockTableRecord
2
*Model_Space
340
0
70
0
0
BLOCK_RECORD
5
1B
100
AcDbSymbolTableRecord
100
AcDbBlockTableRecord
2
*Paper_Space
340
0
70
0
0
BLOCK_RECORD
5
23
100
AcDbSymbolTableRecord
100
AcDbBlockTableRecord
2
*Paper_Space0
340
0
70
0
0
BLOCK_RECORD
5
15C
100
AcDbSymbolTableRecord
100
AcDbBlockTableRecord
2
*D1
340
0
70
0
0
BLOCK_RECORD
5
168
100
AcDbSymbolTableRecord
100
AcDbBlockTableRecord
2
_U0
340
0
70
0
0
BLOCK_RECORD
5
174
100
AcDbSymbolTableRecord
100
AcDbBlockTableRecord
2
*D3
340
0
70
0
0
BLOCK_RECORD
5
180
100
AcDbSymbolTableRecord
100
AcDbBlockTableRecord
2
_U1
340
0
70
0
0
BLOCK_RECORD
5
18C
100
AcDbSymbolTableRecord
100
AcDbBlockTableRecord
2
*D5
340
0
70
0
0
BLOCK_RECORD
5
198
100
AcDbSymbolTableRecord
100
AcDbBlockTableRecord
2
_U2
340
0
70
0
0
BLOCK_RECORD
5
1A4
100
AcDbSymbolTableRecord
100
AcDbBlockTableRecord
2
*D7
340
0
70
0
0
BLOCK_RECORD
5
1B0
100
AcDbSymbolTableRecord
100
AcDbBlockTableRecord
2
_U3
340
0
70
0
0
ENDTAB
0
ENDSEC
0
SECTION
2
BLOCKS
0
BLOCK
5
20
100
AcDbEntity
8
0
100
AcDbBlockBegin
2
*Model_Space
70
0
10
0
20
0
30
0
3
*Model_Space
0
ENDBLK
5
21
100
AcDbEntity
8
0
100
AcDbBlockEnd
0
BLOCK
5
1C
100
AcDbEntity
8
0
100
AcDbBlockBegin
2
*Paper_Space
70
0
10
0
20
0
30
0
3
*Paper_Space
0
ENDBLK
5
1D
100
AcDbEntity
8
0
100
AcDbBlockEnd
0
BLOCK
5
24
100
AcDbEntity
8
0
100
AcDbBlockBegin
2
*Paper_Space0
70
0
10
0
20
0
30
0
3
*Paper_Space0
0
ENDBLK
5
25
100
AcDbEntity
8
0
100
AcDbBlockEnd
0
BLOCK
5
15D
100
AcDbEntity
8
0
100
AcDbBlockBegin
2
*D1
70
1
10
0
20
0
30
0
3
*D1
0
LINE
5
15F
100
AcDbEntity
8
0
62
256
6
ByLayer
370
-2
48
1
60
0
100
AcDbLine
10
-56
20
-14.0875
30
0
11
-56
21
-48.058728
31
0
39
0
210
0
220
0
230
1
0
LINE
5
160
100
AcDbEntity
8
0
62
256
6
ByLayer
370
-2
48
1
60
0
100
AcDbLine
10
195.5
20
-1.5875
30
0
11
195.5
21
-48.058728
31
0
39
0
210
0
220
0
230
1
0
LINE
5
161
100
AcDbEntity
8
0
62
256
6
ByLayer
370
-2
48
1
60
0
100
AcDbLine
10
-52.5
20
-46.058728
30
0
11
192
21
-46.058728
31
0
39
0
210
0
220
0
230
1
0
SOLID
5
162
100
AcDbEntity
8
0
62
256
6
ByLayer
370
-1
48
1
60
0
100
AcDbTrace
10
-52.5
20
-45.475394
30
0
11
-52.5
21
-46.642061
31
0
12
-56
22
-46.058728
32
0
13
-56
23
-46.058728
33
0
39
0
210
0
220
0
230
1
0
SOLID
5
163
100
AcDbEntity
8
0
62
256
6
ByLayer
370
-1
48
1
60
0
100
AcDbTrace
10
192
20
-46.642061
30
0
11
192
21
-45.475394
31
0
12
195.5
22
-46.058728
32
0
13
195.5
23
-46.058728
33
0
39
0
210
0
220
0
230
1
0
MTEXT
5
164
100
AcDbEntity
8
0
62
256
6
ByLayer
370
18
48
1
60
0
100
AcDbMText
10
69.75
20
-40.058728
30
0
210
0
220
0
230
1
1
\A1;251.5
40
3
41
0
44
1
50
0
71
5
72
5
7
iso_b_vert
0
POINT
5
165
100
AcDbEntity
8
Defpoints
62
0
6
ByLayer
370
-1
48
1
60
0
100
AcDbPoint
10
-56
20
-12.5
30
0
39
0
210
0
220
0
230
1
50
360
0
POINT
5
166
100
AcDbEntity
8
Defpoints
62
0
6
ByLayer
370
-1
48
1
60
0
100
AcDbPoint
10
195.5
20
0
30
0
39
0
210
0
220
0
230
1
50
360
0
POINT
5
167
100
AcDbEntity
8
Defpoints
62
0
6
ByLayer
370
-1
48
1
60
0
100
AcDbPoint
10
195.5
20
-46.058728
30
0
39
0
210
0
220
0
230
1
50
360
0
ENDBLK
5
15E
100
AcDbEntity
8
0
100
AcDbBlockEnd
0
BLOCK
5
16F
100
AcDbEntity
8
0
100
AcDbBlockBegin
2
_U0
70
0
10
0
20
0
30
0
3
_U0
0
MTEXT
5
169
100
AcDbEntity
8
SK2
62
256
6
ByLayer
370
18
48
1
60
0
100
AcDbMText
10
64.521658
20
-45.173613
30
0
210
0
220
0
230
1
1
\W0.7022;251.50
40
3
41
0
44
1.084337
50
0
71
7
72
5
7
iso_b_vert
0
LINE
5
16A
100
AcDbEntity
8
SK2
62
256
6
ByLayer
370
13
48
1
60
0
100
AcDbLine
10
-56
20
-14.0875
30
0
11
-56
21
-48.058728
31
0
39
0
210
0
220
0
230
1
0
LINE
5
16B
100
AcDbEntity
8
SK2
62
256
6
ByLayer
370
13
48
1
60
0
100
AcDbLine
10
195.5
20
-1.5875
30
0
11
195.5
21
-48.058728
31
0
39
0
210
0
220
0
230
1
0
LINE
5
16C
100
AcDbEntity
8
SK2
62
256
6
ByLayer
370
13
48
1
60
0
100
AcDbLine
10
-56
20
-46.058728
30
0
11
195.5
21
-46.058728
31
0
39
0
210
0
220
0
230
1
0
SOLID
5
16D
100
AcDbEntity
8
SK2
62
256
6
ByLayer
370
18
48
1
60
0
100
AcDbTrace
10
-56
20
-46.058728
30
0
11
-52.500002
21
-45.597944
31
0
12
-52.499998
22
-46.519511
32
0
13
-52.499998
23
-46.519511
33
0
39
0
210
0
220
0
230
1
0
SOLID
5
16E
100
AcDbEntity
8
SK2
62
256
6
ByLayer
370
18
48
1
60
0
100
AcDbTrace
10
195.5
20
-46.058728
30
0
11
192.000002
21
-46.519511
31
0
12
191.999998
22
-45.597944
32
0
13
191.999998
23
-45.597944
33
0
39
0
210
0
220
0
230
1
0
ENDBLK
5
170
100
AcDbEntity
8
0
100
AcDbBlockEnd
0
BLOCK
5
175
100
AcDbEntity
8
0
100
AcDbBlockBegin
2
*D3
70
1
10
0
20
0
30
0
3
*D3
0
LINE
5
177
100
AcDbEntity
8
0
62
256
6
ByLayer
370
-2
48
1
60
0
100
AcDbLine
10
195.5
20
-1.5875
30
0
11
195.5
21
-38.058728
31
0
39
0
210
0
220
0
230
1
0
LINE
5
178
100
AcDbEntity
8
0
62
256
6
ByLayer
370
-2
48
1
60
0
100
AcDbLine
10
3
20
-11.0875
30
0
11
3
21
-38.058728
31
0
39
0
210
0
220
0
230
1
0
LINE
5
179
100
AcDbEntity
8
0
62
256
6
ByLayer
370
-2
48
1
60
0
100
AcDbLine
10
192
20
-36.058728
30
0
11
6.5
21
-36.058728
31
0
39
0
210
0
220
0
230
1
0
SOLID
5
17A
100
AcDbEntity
8
0
62
256
6
ByLayer
370
-1
48
1
60
0
100
AcDbTrace
10
192
20
-36.642061
30
0
11
192
21
-35.475394
31
0
12
195.5
22
-36.058728
32
0
13
195.5
23
-36.058728
33
0
39
0
210
0
220
0
230
1
0
SOLID
5
17B
100
AcDbEntity
8
0
62
256
6
ByLayer
370
-1
48
1
60
0
100
AcDbTrace
10
6.5
20
-35.475394
30
0
11
6.5
21
-36.642061
31
0
12
3
22
-36.058728
32
0
13
3
23
-36.058728
33
0
39
0
210
0
220
0
230
1
0
MTEXT
5
17C
100
AcDbEntity
8
0
62
256
6
ByLayer
370
18
48
1
60
0
100
AcDbMText
10
99.25
20
-30.058728
30
0
210
0
220
0
230
1
1
\A1;192.5
40
3
41
0
44
1
50
0
71
5
72
5
7
iso_b_vert
0
POINT
5
17D
100
AcDbEntity
8
Defpoints
62
0
6
ByLayer
370
-1
48
1
60
0
100
AcDbPoint
10
195.5
20
0
30
0
39
0
210
0
220
0
230
1
50
360
0
POINT
5
17E
100
AcDbEntity
8
Defpoints
62
0
6
ByLayer
370
-1
48
1
60
0
100
AcDbPoint
10
3
20
-9.5
30
0
39
0
210
0
220
0
230
1
50
360
0
POINT
5
17F
100
AcDbEntity
8
Defpoints
62
0
6
ByLayer
370
-1
48
1
60
0
100
AcDbPoint
10
3
20
-36.058728
30
0
39
0
210
0
220
0
230
1
50
360
0
ENDBLK
5
176
100
AcDbEntity
8
0
100
AcDbBlockEnd
0
BLOCK
5
187
100
AcDbEntity
8
0
100
AcDbBlockBegin
2
_U1
70
0
10
0
20
0
30
0
3
_U1
0
MTEXT
5
181
100
AcDbEntity
8
SK2
62
256
6
ByLayer
370
18
48
1
60
0
100
AcDbMText
10
94.021658
20
-35.173613
30
0
210
0
220
0
230
1
1
\W0.7022;192.50
40
3
41
0
44
1.084337
50
0
71
7
72
5
7
iso_b_vert
0
LINE
5
182
100
AcDbEntity
8
SK2
62
256
6
ByLayer
370
13
48
1
60
0
100
AcDbLine
10
195.5
20
-1.5875
30
0
11
195.5
21
-38.058728
31
0
39
0
210
0
220
0
230
1
0
LINE
5
183
100
AcDbEntity
8
SK2
62
256
6
ByLayer
370
13
48
1
60
0
100
AcDbLine
10
3
20
-11.0875
30
0
11
3
21
-38.058728
31
0
39
0
210
0
220
0
230
1
0
LINE
5
184
100
AcDbEntity
8
SK2
62
256
6
ByLayer
370
13
48
1
60
0
100
AcDbLine
10
195.5
20
-36.058728
30
0
11
3
21
-36.058728
31
0
39
0
210
0
220
0
230
1
0
SOLID
5
185
100
AcDbEntity
8
SK2
62
256
6
ByLayer
370
18
48
1
60
0
100
AcDbTrace
10
195.5
20
-36.058728
30
0
11
192.000002
21
-36.519511
31
0
12
191.999998
22
-35.597944
32
0
13
191.999998
23
-35.597944
33
0
39
0
210
0
220
0
230
1
0
SOLID
5
186
100
AcDbEntity
8
SK2
62
256
6
ByLayer
370
18
48
1
60
0
100
AcDbTrace
10
3
20
-36.058728
30
0
11
6.499998
21
-35.597944
31
0
12
6.500002
22
-36.519511
32
0
13
6.500002
23
-36.519511
33
0
39
0
210
0
220
0
230
1
0
ENDBLK
5
188
100
AcDbEntity
8
0
100
AcDbBlockEnd
0
BLOCK
5
18D
100
AcDbEntity
8
0
100
AcDbBlockBegin
2
*D5
70
1
10
0
20
0
30
0
3
*D5
0
LINE
5
18F
100
AcDbEntity
8
0
62
256
6
ByLayer
370
-2
48
1
60
0
100
AcDbLine
10
-56
20
-14.0875
30
0
11
-56
21
-38.058728
31
0
39
0
210
0
220
0
230
1
0
LINE
5
190
100
AcDbEntity
8
0
62
256
6
ByLayer
370
-2
48
1
60
0
100
AcDbLine
10
0
20
-14.0875
30
0
11
0
21
-38.058728
31
0
39
0
210
0
220
0
230
1
0
LINE
5
191
100
AcDbEntity
8
0
62
256
6
ByLayer
370
-2
48
1
60
0
100
AcDbLine
10
-52.5
20
-36.058728
30
0
11
-3.5
21
-36.058728
31
0
39
0
210
0
220
0
230
1
0
SOLID
5
192
100
AcDbEntity
8
0
62
256
6
ByLayer
370
-1
48
1
60
0
100
AcDbTrace
10
-52.5
20
-35.475394
30
0
11
-52.5
21
-36.642061
31
0
12
-56
22
-36.058728
32
0
13
-56
23
-36.058728
33
0
39
0
210
0
220
0
230
1
0
SOLID
5
193
100
AcDbEntity
8
0
62
256
6
ByLayer
370
-1
48
1
60
0
100
AcDbTrace
10
-3.5
20
-36.642061
30
0
11
-3.5
21
-35.475394
31
0
12
0
22
-36.058728
32
0
13
0
23
-36.058728
33
0
39
0
210
0
220
0
230
1
0
MTEXT
5
194
100
AcDbEntity
8
0
62
256
6
ByLayer
370
18
48
1
60
0
100
AcDbMText
10
-28
20
-30.058728
30
0
210
0
220
0
230
1
1
\A1;56
40
3
41
0
44
1
50
0
71
5
72
5
7
iso_b_vert
0
POINT
5
195
100
AcDbEntity
8
Defpoints
62
0
6
ByLayer
370
-1
48
1
60
0
100
AcDbPoint
10
-56
20
-12.5
30
0
39
0
210
0
220
0
230
1
50
360
0
POINT
5
196
100
AcDbEntity
8
Defpoints
62
0
6
ByLayer
370
-1
48
1
60
0
100
AcDbPoint
10
0
20
-12.5
30
0
39
0
210
0
220
0
230
1
50
360
0
POINT
5
197
100
AcDbEntity
8
Defpoints
62
0
6
ByLayer
370
-1
48
1
60
0
100
AcDbPoint
10
0
20
-36.058728
30
0
39
0
210
0
220
0
230
1
50
360
0
ENDBLK
5
18E
100
AcDbEntity
8
0
100
AcDbBlockEnd
0
BLOCK
5
19F
100
AcDbEntity
8
0
100
AcDbBlockBegin
2
_U2
70
0
10
0
20
0
30
0
3
_U2
0
MTEXT
5
199
100
AcDbEntity
8
SK2
62
256
6
ByLayer
370
18
48
1
60
0
100
AcDbMText
10
-32.48237
20
-35.173613
30
0
210
0
220
0
230
1
1
\W0.7468;56.00
40
3
41
0
44
1.084337
50
0
71
7
72
5
7
iso_b_vert
0
LINE
5
19A
100
AcDbEntity
8
SK2
62
256
6
ByLayer
370
13
48
1
60
0
100
AcDbLine
10
-56
20
-14.0875
30
0
11
-56
21
-38.058728
31
0
39
0
210
0
220
0
230
1
0
LINE
5
19B
100
AcDbEntity
8
SK2
62
256
6
ByLayer
370
13
48
1
60
0
100
AcDbLine
10
0
20
-14.0875
30
0
11
0
21
-38.058728
31
0
39
0
210
0
220
0
230
1
0
LINE
5
19C
100
AcDbEntity
8
SK2
62
256
6
ByLayer
370
13
48
1
60
0
100
AcDbLine
10
-56
20
-36.058728
30
0
11
0
21
-36.058728
31
0
39
0
210
0
220
0
230
1
0
SOLID
5
19D
100
AcDbEntity
8
SK2
62
256
6
ByLayer
370
18
48
1
60
0
100
AcDbTrace
10
-56
20
-36.058728
30
0
11
-52.500002
21
-35.597944
31
0
12
-52.499998
22
-36.519511
32
0
13
-52.499998
23
-36.519511
33
0
39
0
210
0
220
0
230
1
0
SOLID
5
19E
100
AcDbEntity
8
SK2
62
256
6
ByLayer
370
18
48
1
60
0
100
AcDbTrace
10
0
20
-36.058728
30
0
11
-3.499998
21
-36.519511
31
0
12
-3.500002
22
-35.597944
32
0
13
-3.500002
23
-35.597944
33
0
39
0
210
0
220
0
230
1
0
ENDBLK
5
1A0
100
AcDbEntity
8
0
100
AcDbBlockEnd
0
BLOCK
5
1A5
100
AcDbEntity
8
0
100
AcDbBlockBegin
2
*D7
70
1
10
0
20
0
30
0
3
*D7
0
LINE
5
1A7
100
AcDbEntity
8
0
62
256
6
ByLayer
370
-2
48
1
60
0
100
AcDbLine
10
195.5
20
1.5875
30
0
11
195.5
21
35.058728
31
0
39
0
210
0
220
0
230
1
0
LINE
5
1A8
100
AcDbEntity
8
0
62
256
6
ByLayer
370
-2
48
1
60
0
100
AcDbLine
10
28
20
11.0875
30
0
11
28
21
35.058728
31
0
39
0
210
0
220
0
230
1
0
LINE
5
1A9
100
AcDbEntity
8
0
62
256
6
ByLayer
370
-2
48
1
60
0
100
AcDbLine
10
192
20
33.058728
30
0
11
31.5
21
33.058728
31
0
39
0
210
0
220
0
230
1
0
SOLID
5
1AA
100
AcDbEntity
8
0
62
256
6
ByLayer
370
-1
48
1
60
0
100
AcDbTrace
10
192
20
32.475394
30
0
11
192
21
33.642061
31
0
12
195.5
22
33.058728
32
0
13
195.5
23
33.058728
33
0
39
0
210
0
220
0
230
1
0
SOLID
5
1AB
100
AcDbEntity
8
0
62
256
6
ByLayer
370
-1
48
1
60
0
100
AcDbTrace
10
31.5
20
33.642061
30
0
11
31.5
21
32.475394
31
0
12
28
22
33.058728
32
0
13
28
23
33.058728
33
0
39
0
210
0
220
0
230
1
0
MTEXT
5
1AC
100
AcDbEntity
8
0
62
256
6
ByLayer
370
18
48
1
60
0
100
AcDbMText
10
111.75
20
39.058728
30
0
210
0
220
0
230
1
1
\A1;167.5
40
3
41
0
44
1
50
0
71
5
72
5
7
iso_b_vert
0
POINT
5
1AD
100
AcDbEntity
8
Defpoints
62
0
6
ByLayer
370
-1
48
1
60
0
100
AcDbPoint
10
195.5
20
0
30
0
39
0
210
0
220
0
230
1
50
360
0
POINT
5
1AE
100
AcDbEntity
8
Defpoints
62
0
6
ByLayer
370
-1
48
1
60
0
100
AcDbPoint
10
28
20
9.5
30
0
39
0
210
0
220
0
230
1
50
360
0
POINT
5
1AF
100
AcDbEntity
8
Defpoints
62
0
6
ByLayer
370
-1
48
1
60
0
100
AcDbPoint
10
28
20
33.058728
30
0
39
0
210
0
220
0
230
1
50
360
0
ENDBLK
5
1A6
100
AcDbEntity
8
0
100
AcDbBlockEnd
0
BLOCK
5
1B7
100
AcDbEntity
8
0
100
AcDbBlockBegin
2
_U3
70
0
10
0
20
0
30
0
3
_U3
0
MTEXT
5
1B1
100
AcDbEntity
8
SK2
62
256
6
ByLayer
370
18
48
1
60
0
100
AcDbMText
10
106.521658
20
33.943842
30
0
210
0
220
0
230
1
1
\W0.7022;167.50
40
3
41
0
44
1.084337
50
0
71
7
72
5
7
iso_b_vert
0
LINE
5
1B2
100
AcDbEntity
8
SK2
62
256
6
ByLayer
370
13
48
1
60
0
100
AcDbLine
10
195.5
20
1.5875
30
0
11
195.5
21
35.058728
31
0
39
0
210
0
220
0
230
1
0
LINE
5
1B3
100
AcDbEntity
8
SK2
62
256
6
ByLayer
370
13
48
1
60
0
100
AcDbLine
10
28
20
11.0875
30
0
11
28
21
35.058728
31
0
39
0
210
0
220
0
230
1
0
LINE
5
1B4
100
AcDbEntity
8
SK2
62
256
6
ByLayer
370
13
48
1
60
0
100
AcDbLine
10
195.5
20
33.058728
30
0
11
28
21
33.058728
31
0
39
0
210
0
220
0
230
1
0
SOLID
5
1B5
100
AcDbEntity
8
SK2
62
256
6
ByLayer
370
18
48
1
60
0
100
AcDbTrace
10
195.5
20
33.058728
30
0
11
192.000002
21
32.597944
31
0
12
191.999998
22
33.519511
32
0
13
191.999998
23
33.519511
33
0
39
0
210
0
220
0
230
1
0
SOLID
5
1B6
100
AcDbEntity
8
SK2
62
256
6
ByLayer
370
18
48
1
60
0
100
AcDbTrace
10
28
20
33.058728
30
0
11
31.499998
21
33.519511
31
0
12
31.500002
22
32.597944
32
0
13
31.500002
23
32.597944
33
0
39
0
210
0
220
0
230
1
0
ENDBLK
5
1B8
100
AcDbEntity
8
0
100
AcDbBlockEnd
0
ENDSEC
0
SECTION
2
ENTITIES
0
ARC
5
C2
100
AcDbEntity
8
SK2
62
256
6
ByLayer
370
13
48
1
60
0
100
AcDbCircle
39
0
10
195.5
20
0
30
0
40
18.9999999999999
210
0
220
0
230
1
100
AcDbArc
50
290
51
70
0
ELLIPSE
5
C3
100
AcDbEntity
8
SK1
62
256
6
ByLayer
370
18
48
1
60
0
100
AcDbEllipse
10
-41.343561
20
0
30
0
11
-2.29613691341699E-15
21
-12.5000000000002
31
0
210
0
220
0
230
1
40
0.932515
41
-1.86465462472194
42
-1.27693802886786
0
ELLIPSE
5
C4
100
AcDbEntity
8
SK1
62
256
6
ByLayer
370
18
48
1
60
0
100
AcDbEllipse
10
276.680659
20
0
30
0
11
357.953166043254
21
-4.05596621644435E-13
31
0
210
0
220
0
230
1
40
0.034921
41
2.52406396812455
42
2.73005601344533
0
ELLIPSE
5
C5
100
AcDbEntity
8
SK1
62
256
6
ByLayer
370
18
48
1
60
0
100
AcDbEllipse
10
276.680659
20
0
30
0
11
357.953166032003
21
-4.05596621631686E-13
31
0
210
0
220
0
230
1
40
0.034921
41
-2.73005601344242
42
-2.52406396811705
0
ELLIPSE
5
C6
100
AcDbEntity
8
SK1
62
256
6
ByLayer
370
18
48
1
60
0
100
AcDbEllipse
10
-25.404609
20
0
30
0
11
13.4046088753088
21
-1.51887581674114E-14
31
0
210
0
220
0
230
1
40
0.932515
41
-0.555530755442636
42
0.555530755442635
0
POINT
5
70
100
AcDbEntity
8
81
62
256
6
ByLayer
370
18
48
1
60
0
100
AcDbPoint
10
195.5
20
0
30
0
39
0
210
0
220
0
230
1
50
360
0
POINT
5
72
100
AcDbEntity
8
80
62
256
6
ByLayer
370
18
48
1
60
0
100
AcDbPoint
10
0
20
0
30
0
39
0
210
0
220
0
230
1
50
360
0
POINT
5
74
100
AcDbEntity
8
1
62
256
6
ByLayer
370
18
48
1
60
1
100
AcDbPoint
10
-56
20
-12.5
30
0
39
0
210
0
220
0
230
1
50
360
0
POINT
5
76
100
AcDbEntity
8
1
62
256
6
ByLayer
370
18
48
1
60
1
100
AcDbPoint
10
195.5
20
0
30
0
39
0
210
0
220
0
230
1
50
360
0
POINT
5
77
100
AcDbEntity
8
1
62
256
6
ByLayer
370
18
48
1
60
1
100
AcDbPoint
10
195.5
20
0
30
0
39
0
210
0
220
0
230
1
50
360
0
POINT
5
78
100
AcDbEntity
8
1
62
256
6
ByLayer
370
18
48
1
60
1
100
AcDbPoint
10
3
20
-9.5
30
0
39
0
210
0
220
0
230
1
50
360
0
POINT
5
79
100
AcDbEntity
8
1
62
256
6
ByLayer
370
18
48
1
60
1
100
AcDbPoint
10
-56
20
-12.5
30
0
39
0
210
0
220
0
230
1
50
360
0
POINT
5
7A
100
AcDbEntity
8
1
62
256
6
ByLayer
370
18
48
1
60
1
100
AcDbPoint
10
0
20
-12.5
30
0
39
0
210
0
220
0
230
1
50
360
0
POINT
5
7B
100
AcDbEntity
8
1
62
256
6
ByLayer
370
18
48
1
60
1
100
AcDbPoint
10
195.5
20
0
30
0
39
0
210
0
220
0
230
1
50
360
0
POINT
5
7C
100
AcDbEntity
8
1
62
256
6
ByLayer
370
18
48
1
60
1
100
AcDbPoint
10
28
20
9.5
30
0
39
0
210
0
220
0
230
1
50
360
0
SPLINE
5
C7
100
AcDbEntity
8
1
62
256
6
ByLayer
370
18
48
1
60
0
100
AcDbSpline
70
4
71
3
72
25
73
21
40
0
40
0
40
0
40
0
40
0.125000000000006
40
0.125000000000006
40
0.250000000000012
40
0.250000000000012
40
0.375000000000019
40
0.375000000000019
40
0.406250000000019
40
0.406250000000019
40
0.437500000000019
40
0.500000000000015
40
0.500000000000015
40
0.625000000000011
40
0.625000000000011
40
0.750000000000007
40
0.750000000000007
40
0.875000000000004
40
0.875000000000004
40
1
40
1
40
1
40
1
41
1
10
10
20
-8.93801660111009
30
0
41
1
10
10.3384089249044
20
-8.92059361436353
30
0
41
1
10
10.6780247159693
20
-8.90641854090583
30
0
41
1
10
11.359481473813
20
-8.88567803043739
30
0
41
1
10
11.7013239153993
20
-8.87910862151344
30
0
41
1
10
12.3871113099236
20
-8.87384313892622
30
0
41
1
10
12.7310574113304
20
-8.87514619754037
30
0
41
1
10
13.1622422886134
20
-8.88137980307681
30
0
41
1
10
13.2485901042406
20
-8.8828562452162
30
0
41
1
10
13.4207387739706
20
-8.88623575787599
30
0
41
1
10
13.6783747137916
20
-8.89194709017741
30
0
41
1
10
13.934303047355
20
-8.89947432106143
30
0
41
1
10
14.4440218771837
20
-8.91661656063815
30
0
41
1
10
14.7809829733578
20
-8.93083725275662
30
0
41
1
10
15.4499430341398
20
-8.96281372967198
30
0
41
1
10
15.7819410616647
20
-8.98056237030247
30
0
41
1
10
16.4417555643335
20
-9.01733557919997
30
0
41
1
10
16.7695732735561
20
-9.03635194479125
30
0
41
1
10
17.4218501114673
20
-9.07343748287522
30
0
41
1
10
17.7463127526387
20
-9.09149987053399
30
0
41
1
10
18.0694929669955
20
-9.10811326895561
30
0
0
SPLINE
5
C8
100
AcDbEntity
8
1
62
256
6
ByLayer
370
18
48
1
60
0
100
AcDbSpline
70
4
71
3
72
28
73
24
40
0
40
0
40
0
40
0
40
0.062500000000005
40
0.062500000000005
40
0.12500000000001
40
0.12500000000001
40
0.250000000000013
40
0.250000000000013
40
0.375000000000015
40
0.375000000000015
40
0.500000000000018
40
0.500000000000018
40
0.562500000000016
40
0.562500000000016
40
0.625000000000014
40
0.625000000000014
40
0.750000000000009
40
0.750000000000009
40
0.875000000000005
40
0.875000000000005
40
0.937500000000002
40
0.937500000000002
40
1
40
1
40
1
40
1
41
1
10
192.042282774478
20
-1.35566426699688
30
0
41
1
10
191.832737934132
20
-1.28028900597769
30
0
41
1
10
191.623254310083
20
-1.20478930561782
30
0
41
1
10
191.204432031827
20
-1.05347836957858
30
0
41
1
10
190.995102640024
20
-0.977641402604007
30
0
41
1
10
190.367217494863
20
-0.749982047276859
30
0
41
1
10
189.948760090055
20
-0.598023865170063
30
0
41
1
10
189.112172049623
20
-0.293565948961884
30
0
41
1
10
188.693890635312
20
-0.141484671854556
30
0
41
1
10
187.857387042089
20
0.162479773285696
30
0
41
1
10
187.439186905669
20
0.314423978083539
30
0
41
1
10
186.811999946737
20
0.542381183774552
30
0
41
1
10
186.602958125255
20
0.618378185747446
30
0
41
1
10
186.184911702403
20
0.770383834121503
30
0
41
1
10
185.975897374111
20
0.846365583454542
30
0
41
1
10
185.348699992288
20
1.07374875159104
30
0
41
1
10
184.930413868795
20
1.22472989781991
30
0
41
1
10
184.093571583378
20
1.5255863117718
30
0
41
1
10
183.675008187844
20
1.67544183888145
30
0
41
1
10
183.047072469166
20
1.89970138744556
30
0
41
1
10
182.837744014882
20
1.97436319899211
30
0
41
1
10
182.418954660716
20
2.12323162664464
30
0
41
1
10
182.209501670346
20
2.19745997063961
30
0
41
1
10
182
20
2.27150874805173
30
0
0
SPLINE
5
C9
100
AcDbEntity
8
1
62
256
6
ByLayer
370
18
48
1
60
0
100
AcDbSpline
70
4
71
3
72
87
73
83
40
0
40
0
40
0
40
0
40
0.031250000000008
40
0.031250000000008
40
0.062500000000016
40
0.062500000000016
40
0.12500000000003
40
0.12500000000003
40
0.140625000000034
40
0.140625000000034
40
0.148437500000035
40
0.148437500000035
40
0.156250000000036
40
0.187500000000039
40
0.187500000000039
40
0.250000000000043
40
0.250000000000043
40
0.281250000000044
40
0.281250000000044
40
0.296875000000045
40
0.296875000000045
40
0.312500000000045
40
0.312500000000045
40
0.343750000000045
40
0.343750000000045
40
0.375000000000044
40
0.375000000000044
40
0.406250000000043
40
0.406250000000043
40
0.437500000000042
40
0.437500000000042
40
0.445312500000042
40
0.445312500000042
40
0.453125000000042
40
0.468750000000043
40
0.468750000000043
40
0.500000000000044
40
0.500000000000044
40
0.531250000000044
40
0.531250000000044
40
0.539062500000045
40
0.539062500000045
40
0.546875000000046
40
0.562500000000047
40
0.562500000000047
40
0.59375000000005
40
0.59375000000005
40
0.625000000000052
40
0.625000000000052
40
0.632812500000052
40
0.632812500000052
40
0.640625000000052
40
0.656250000000049
40
0.656250000000049
40
0.687500000000045
40
0.687500000000045
40
0.71875000000004
40
0.71875000000004
40
0.72656250000004
40
0.72656250000004
40
0.73437500000004
40
0.73437500000004
40
0.750000000000039
40
0.750000000000039
40
0.781250000000036
40
0.781250000000036
40
0.812500000000033
40
0.812500000000033
40
0.84375000000003
40
0.84375000000003
40
0.851562500000029
40
0.851562500000029
40
0.859375000000028
40
0.875000000000024
40
0.875000000000024
40
0.906250000000018
40
0.937500000000013
40
0.968750000000007
40
0.968750000000007
40
0.984375000000004
40
0.984375000000004
40
1
40
1
40
1
40
1
41
1
10
192.042282774471
20
9.19833569242948
30
0
41
1
10
192.101615893751
20
9.05122014840364
30
0
41
1
10
192.161042126063
20
8.90189589841935
30
0
41
1
10
192.280181839658
20
8.5991777260769
30
0
41
1
10
192.339895218903
20
8.44578301189938
30
0
41
1
10
192.519572505831
20
7.97987061636641
30
0
41
1
10
192.640089909336
20
7.66165755129072
30
0
41
1
10
192.79178160633
20
7.2550887438525
30
0
41
1
10
192.822170882402
20
7.17333221232491
30
0
41
1
10
192.867829236371
20
7.05003860290225
30
0
41
1
10
192.883071610509
20
7.00880231710735
30
0
41
1
10
192.91352663393
20
6.92625670265431
30
0
41
1
10
192.989552015313
20
6.7198110007277
30
0
41
1
10
193.065023973852
20
6.51296338747267
30
0
41
1
10
193.245019529174
20
6.0157518840054
30
0
41
1
10
193.363560296602
20
5.68326403657949
30
0
41
1
10
193.53802709046
20
5.18265062363429
30
0
41
1
10
193.595612675506
20
5.01546099583064
30
0
41
1
10
193.680816292225
20
4.76408742005847
30
0
41
1
10
193.709020175986
20
4.68019746991828
30
0
41
1
10
193.764957029486
20
4.51219294810844
30
0
41
1
10
193.792699855694
20
4.42804595386374
30
0
41
1
10
193.874683248666
20
4.17644147139114
30
0
41
1
10
193.927826839135
20
4.00942425673432
30
0
41
1
10
194.030119156371
20
3.67655435911971
30
0
41
1
10
194.079274482304
20
3.51070286773839
30
0
41
1
10
194.172097585645
20
3.17982108704743
30
0
41
1
10
194.215773179951
20
3.01479153425072
30
0
41
1
10
194.295388192173
20
2.68510907597835
30
0
41
1
10
194.331331186792
20
2.52045482847481
30
0
41
1
10
194.369422538323
20
2.31453175208185
30
0
41
1
10
194.376701372475
20
2.2733127915364
30
0
41
1
10
194.39049012362
20
2.19098285312151
30
0
41
1
10
194.409976491943
20
2.06792066511784
30
0
41
1
10
194.425663023467
20
1.94617330251646
30
0
41
1
10
194.451459127742
20
1.70449926759545
30
0
41
1
10
194.461165725926
20
1.54580250016346
30
0
41
1
10
194.463782824419
20
1.23381112783275
30
0
41
1
10
194.456678059398
20
1.08051916058446
30
0
41
1
10
194.437364026672
20
0.89277975116363
30
0
41
1
10
194.432979186244
20
0.855385759155666
30
0
41
1
10
194.423221210417
20
0.781180814667522
30
0
41
1
10
194.407146606777
20
0.671057294071034
30
0
41
1
10
194.387008269337
20
0.564441588751436
30
0
41
1
10
194.341989570893
20
0.355773580742777
30
0
41
1
10
194.305680406635
20
0.222737626532961
30
0
41
1
10
194.22374319893
20
-0.0316586220870079
30
0
41
1
10
194.178122051715
20
-0.153022352984522
30
0
41
1
10
194.116786709482
20
-0.297541588883433
30
0
41
1
10
194.1042910032
20
-0.326109453241344
30
0
41
1
10
194.07894366096
20
-0.382412235366075
30
0
41
1
10
194.040447988576
20
-0.465487954009888
30
0
41
1
10
194.000675730733
20
-0.544509555818252
30
0
41
1
10
193.91973798104
20
-0.697309744470715
30
0
41
1
10
193.863940258691
20
-0.792200424758477
30
0
41
1
10
193.749748856086
20
-0.968496282643571
30
0
41
1
10
193.691347459449
20
-1.04989892790871
30
0
41
1
10
193.617074564653
20
-1.14323732985318
30
0
41
1
10
193.602155483804
20
-1.16148327753316
30
0
41
1
10
193.572193867017
20
-1.19712822701854
30
0
41
1
10
193.55714148499
20
-1.21453730697974
30
0
41
1
10
193.512000732929
20
-1.2652733610214
30
0
41
1
10
193.481870995784
20
-1.29718198212257
30
0
41
1
10
193.391421207859
20
-1.38729072741546
30
0
41
1
10
193.331045069449
20
-1.43988531555661
30
0
41
1
10
193.210249901433
20
-1.53049712773068
30
0
41
1
10
193.149828989301
20
-1.56851284761453
30
0
41
1
10
193.028925630667
20
-1.62998632023499
30
0
41
1
10
192.96844232347
20
-1.6534440855807
30
0
41
1
10
192.892736527548
20
-1.67347264787054
30
0
41
1
10
192.877581234621
20
-1.67701359907127
30
0
41
1
10
192.847394955842
20
-1.68313265656809
30
0
41
1
10
192.802253789648
20
-1.69088122485127
30
0
41
1
10
192.757512595372
20
-1.69438744605199
30
0
41
1
10
192.668524302632
20
-1.69583950817989
30
0
41
1
10
192.551190475172
20
-1.68296740383843
30
0
41
1
10
192.378523660374
20
-1.62003561808888
30
0
41
1
10
192.265229269296
20
-1.54894289197745
30
0
41
1
10
192.180787146695
20
-1.48445639943716
30
0
41
1
10
192.152807205506
20
-1.46115531467981
30
0
41
1
10
192.097265916432
20
-1.41105354820385
30
0
41
1
10
192.069686292502
20
-1.38423901334181
30
0
41
1
10
192.042282774471
20
-1.35566426699455
30
0
0
SPLINE
5
CA
100
AcDbEntity
8
1
62
256
6
ByLayer
370
18
48
1
60
0
100
AcDbSpline
70
4
71
3
72
20
73
16
40
0
40
0
40
0
40
0
40
0.0482534905510534
40
0.0482534905510534
40
0.238602792440841
40
0.238602792440841
40
0.428952094330628
40
0.428952094330628
40
0.619301396220415
40
0.619301396220415
40
0.714476047165308
40
0.714476047165308
40
0.809650698110202
40
0.809650698110202
40
1
40
1
40
1
40
1
41
1
10
185.448814147809
20
9.4988136881199
30
0
41
1
10
185.554840259031
20
9.49883517879658
30
0
41
1
10
185.660855942522
20
9.49862164444832
30
0
41
1
10
186.185023146229
20
9.49640215033151
30
0
41
1
10
186.602878776315
20
9.49093831665135
30
0
41
1
10
187.439062236835
20
9.47273024723819
30
0
41
1
10
187.857305540405
20
9.46000101993153
30
0
41
1
10
188.693867008309
20
9.42728887242907
30
0
41
1
10
189.112210950699
20
9.40731060831661
30
0
41
1
10
189.739755593491
20
9.37185336088481
30
0
41
1
10
189.948941964943
20
9.35911853761974
30
0
41
1
10
190.36731491718
20
9.33179955419826
30
0
41
1
10
190.576492793157
20
9.31720869059131
30
0
41
1
10
191.204298945089
20
9.27079945653406
30
0
41
1
10
191.623164731064
20
9.23633855998477
30
0
41
1
10
192.042282774478
20
9.19833569242891
30
0
0
SPLINE
5
CB
100
AcDbEntity
8
1
62
256
6
ByLayer
370
18
48
1
60
0
100
AcDbSpline
70
4
71
3
72
176
73
172
40
0
40
0
40
0
40
0
40
0.02990341207405
40
0.02990341207405
40
0.0448551181110751
40
0.0448551181110751
40
0.0523309711295875
40
0.0523309711295875
40
0.0598068241480999
40
0.0598068241480999
40
0.0747585301851242
40
0.0747585301851242
40
0.0897102362221486
40
0.0897102362221486
40
0.0971860892406607
40
0.0971860892406607
40
0.104661942259173
40
0.104661942259173
40
0.119613648296198
40
0.119613648296198
40
0.134565354333222
40
0.134565354333222
40
0.142041207351735
40
0.142041207351735
40
0.149517060370248
40
0.149517060370248
40
0.179420472444298
40
0.179420472444298
40
0.194372178481323
40
0.194372178481323
40
0.209323884518348
40
0.209323884518348
40
0.224275590555374
40
0.224275590555374
40
0.231751443573886
40
0.231751443573886
40
0.239227296592398
40
0.239227296592398
40
0.254179002629423
40
0.254179002629423
40
0.269130708666447
40
0.269130708666447
40
0.276606561684959
40
0.276606561684959
40
0.284082414703471
40
0.284082414703471
40
0.299034120740496
40
0.299034120740496
40
0.31398582677752
40
0.31398582677752
40
0.321461679796032
40
0.321461679796032
40
0.328937532814544
40
0.328937532814544
40
0.343889238851568
40
0.343889238851568
40
0.358840944888592
40
0.358840944888592
40
0.366316797907104
40
0.366316797907104
40
0.373792650925615
40
0.373792650925615
40
0.381268503944127
40
0.381268503944127
40
0.388744356962639
40
0.388744356962639
40
0.418647769036686
40
0.418647769036686
40
0.426123622055198
40
0.426123622055198
40
0.433599475073709
40
0.433599475073709
40
0.448551181110733
40
0.448551181110733
40
0.463502887147756
40
0.463502887147756
40
0.470978740166268
40
0.470978740166268
40
0.47845459318478
40
0.47845459318478
40
0.508358005258828
40
0.508358005258828
40
0.515833858277341
40
0.515833858277341
40
0.523309711295853
40
0.523309711295853
40
0.538261417332877
40
0.538261417332877
40
0.553213123369902
40
0.553213123369902
40
0.568164829406926
40
0.568164829406926
40
0.58311653544395
40
0.58311653544395
40
0.598068241480974
40
0.598068241480974
40
0.605544094499487
40
0.605544094499487
40
0.613019947517999
40
0.613019947517999
40
0.627971653555023
40
0.627971653555023
40
0.642923359592047
40
0.642923359592047
40
0.65039921261056
40
0.65039921261056
40
0.657875065629072
40
0.657875065629072
40
0.672826771666097
40
0.672826771666097
40
0.687778477703122
40
0.687778477703122
40
0.695254330721635
40
0.695254330721635
40
0.702730183740148
40
0.702730183740148
40
0.71020603675866
40
0.71020603675866
40
0.717681889777173
40
0.717681889777173
40
0.732633595814197
40
0.732633595814197
40
0.740109448832709
40
0.740109448832709
40
0.747585301851221
40
0.747585301851221
40
0.755061154869733
40
0.755061154869733
40
0.762537007888246
40
0.762537007888246
40
0.77748871392527
40
0.77748871392527
40
0.792440419962294
40
0.792440419962294
40
0.799916272980806
40
0.799916272980806
40
0.807392125999319
40
0.807392125999319
40
0.822343832036344
40
0.822343832036344
40
0.837295538073369
40
0.837295538073369
40
0.844771391091882
40
0.844771391091882
40
0.852247244110394
40
0.852247244110394
40
0.859723097128907
40
0.859723097128907
40
0.867198950147419
40
0.867198950147419
40
0.882150656184445
40
0.882150656184445
40
0.889626509202957
40
0.889626509202957
40
0.89710236222147
40
0.89710236222147
40
0.927005774295519
40
0.927005774295519
40
0.934481627314032
40
0.934481627314032
40
0.941957480332544
40
0.941957480332544
40
0.95690918636957
40
0.95690918636957
40
0.971860892406595
40
0.971860892406595
40
0.979336745425108
40
0.979336745425108
40
0.986812598443621
40
0.986812598443621
40
1
40
1
40
1
40
1
41
1
10
18.0694929669956
20
9.10811326895561
30
0
41
1
10
18.9264310636343
20
9.15086363554843
30
0
41
1
10
19.7830123056522
20
9.17850951285527
30
0
41
1
10
21.0666553224628
20
9.19795710945354
30
0
41
1
10
21.4943304799945
20
9.20075282976822
30
0
41
1
10
22.1354836029662
20
9.19936481234427
30
0
41
1
10
22.3491591790198
20
9.19796948751409
30
0
41
1
10
22.7765869752856
20
9.19333083443368
30
0
41
1
10
22.9903205554032
20
9.19008798274649
30
0
41
1
10
23.631550844998
20
9.17760378283887
30
0
41
1
10
24.0590735023292
20
9.16560977545453
30
0
41
1
10
24.9140691222017
20
9.13426537968613
30
0
41
1
10
25.341566955893
20
9.11492488638609
30
0
41
1
10
25.9826449675746
20
9.08028083054936
30
0
41
1
10
26.1963251126196
20
9.06779727266724
30
0
41
1
10
26.623808596622
20
9.04102905053983
30
0
41
1
10
26.8376286140922
20
9.02675508938012
30
0
41
1
10
27.4792640810274
20
8.9812538278114
30
0
41
1
10
27.907221924595
20
8.94732956697356
30
0
41
1
10
28.7634654162903
20
8.87225558311818
30
0
41
1
10
29.1917489203591
20
8.8311048073937
30
0
41
1
10
29.8343515469498
20
8.76383891392194
30
0
41
1
10
30.048610799855
20
8.74047261065746
30
0
41
1
10
30.477039810017
20
8.69200319611022
30
0
41
1
10
30.6912302712164
20
8.66692770982075
30
0
41
1
10
31.7620449859837
20
8.53736919488216
30
0
41
1
10
32.6182087061299
20
8.4203622516674
30
0
41
1
10
33.9010095748977
20
8.2240529186777
30
0
41
1
10
34.3282678378756
20
8.15498673489424
30
0
41
1
10
35.183165041886
20
8.01100281752059
30
0
41
1
10
35.6106850117003
20
7.93594722541172
30
0
41
1
10
36.4656901341847
20
7.77949805063904
30
0
41
1
10
36.8931918406091
20
7.6981274731632
30
0
41
1
10
37.5343713733521
20
7.57121156934153
30
0
41
1
10
37.7480838359643
20
7.52809238387036
30
0
41
1
10
38.1754830568695
20
7.44021818291961
30
0
41
1
10
38.38918691041
20
7.39549012791139
30
0
41
1
10
39.0305474483278
20
7.25934326435052
30
0
41
1
10
39.4583771789027
20
7.16584131667403
30
0
41
1
10
40.3143949105029
20
6.97313118186577
30
0
41
1
10
40.7425787585422
20
6.87391341577126
30
0
41
1
10
41.3850754780328
20
6.72068023811542
30
0
41
1
10
41.599268847075
20
6.66884980210389
30
0
41
1
10
42.0276923572685
20
6.56362908168046
30
0
41
1
10
42.2419486442632
20
6.51026638264401
30
0
41
1
10
42.8845102949271
20
6.34851596657882
30
0
41
1
10
43.3128372062958
20
6.23854591008106
30
0
41
1
10
44.1691065011335
20
6.01377592323686
30
0
41
1
10
44.5970754252748
20
5.89903075837481
30
0
41
1
10
45.2387120103064
20
5.72321989805761
30
0
41
1
10
45.452537832219
20
5.66399977855636
30
0
41
1
10
45.8800721209248
20
5.5442959594489
30
0
41
1
10
46.0937645259401
20
5.48377466604205
30
0
41
1
10
46.7348340514297
20
5.30069586728814
30
0
41
1
10
47.162308211216
20
5.17687244500024
30
0
41
1
10
48.0173073320522
20
4.92541020818567
30
0
41
1
10
48.4448233422243
20
4.79774927359128
30
0
41
1
10
49.0860586263899
20
4.60320447865922
30
0
41
1
10
49.2998030399204
20
4.53786136509174
30
0
41
1
10
49.7272446022139
20
4.40606537580132
30
0
41
1
10
49.9409253784
20
4.33957038923595
30
0
41
1
10
50.3683350829103
20
4.20570309206593
30
0
41
1
10
50.5820725181535
20
4.13835251188064
30
0
41
1
10
51.0097244553562
20
4.00311111593908
30
0
41
1
10
51.22361847389
20
3.93516845058139
30
0
41
1
10
52.2933063675659
20
3.59353713303531
30
0
41
1
10
53.1498270124415
20
3.31431625792783
30
0
41
1
10
54.2210612466163
20
2.95669415682374
30
0
41
1
10
54.435212365805
20
2.88485006891838
30
0
41
1
10
54.863324092927
20
2.74099156298158
30
0
41
1
10
55.0772900730923
20
2.66891818027816
30
0
41
1
10
55.7188948311866
20
2.45218901955516
30
0
41
1
10
56.1462373442388
20
2.3070142093126
30
0
41
1
10
57.0000326230187
20
2.01496624498296
30
0
41
1
10
57.4265062905731
20
1.8681568376748
30
0
41
1
10
58.0654277473329
20
1.64630213069998
30
0
41
1
10
58.2782857574048
20
1.5721253769315
30
0
41
1
10
58.7039079192068
20
1.42373921485466
30
0
41
1
10
58.9166873374143
20
1.3495758019383
30
0
41
1
10
59.9803239650089
20
0.978590879518094
30
0
41
1
10
60.8303139355594
20
0.680998738532224
30
0
41
1
10
61.8912495978286
20
0.306792757048441
30
0
41
1
10
62.1033439233158
20
0.231796105054855
30
0
41
1
10
62.5274720894229
20
0.0818652925273113
30
0
41
1
10
62.7395330144724
20
0.0070114696710846
30
0
41
1
10
63.3757015080721
20
-0.217232796895814
30
0
41
1
10
63.7997842548589
20
-0.366337910161775
30
0
41
1
10
64.6477528233947
20
-0.664179682191701
30
0
41
1
10
65.0716527840396
20
-0.812874647288538
30
0
41
1
10
65.9191588159506
20
-1.11017446745541
30
0
41
1
10
66.342652653344
20
-1.25910422868947
30
0
41
1
10
67.1901392089028
20
-1.55455557760624
30
0
41
1
10
67.6140459011483
20
-1.70133112402775
30
0
41
1
10
68.4619850558696
20
-1.99357095307329
30
0
41
1
10
68.8860379612794
20
-2.13897583272282
30
0
41
1
10
69.5221750772148
20
-2.35619938061757
30
0
41
1
10
69.7342303846311
20
-2.42845989430242
30
0
41
1
10
70.1583512691554
20
-2.57270993349948
30
0
41
1
10
70.3704199631364
20
-2.64469023737516
30
0
41
1
10
71.0069219196205
20
-2.85942311891336
30
0
41
1
10
71.4315889113281
20
-3.00114669734722
30
0
41
1
10
72.2814398507774
20
-3.28215701700719
30
0
41
1
10
72.706618603538
20
-3.42145819498495
30
0
41
1
10
73.3447250063226
20
-3.62871633552152
30
0
41
1
10
73.557484389095
20
-3.69751765048676
30
0
41
1
10
73.9830666153466
20
-3.83469154077352
30
0
41
1
10
74.1958998753069
20
-3.90303460801093
30
0
41
1
10
74.8347325104369
20
-4.10675335029384
30
0
41
1
10
75.2611519063422
20
-4.24057719896442
30
0
41
1
10
76.1148297672392
20
-4.50487471134309
30
0
41
1
10
76.5420983617014
20
-4.63531983671066
30
0
41
1
10
77.183590979078
20
-4.82857689396525
30
0
41
1
10
77.3975199032472
20
-4.89259467531627
30
0
41
1
10
77.825565645389
20
-5.01984794427014
30
0
41
1
10
78.0396721827307
20
-5.08311140790983
30
0
41
1
10
78.4681270501689
20
-5.20870614219876
30
0
41
1
10
78.6823731592832
20
-5.27091150951938
30
0
41
1
10
79.1107467698051
20
-5.3940040007823
30
0
41
1
10
79.3248966962124
20
-5.45492053587688
30
0
41
1
10
79.9672084680375
20
-5.63586063942489
30
0
41
1
10
80.3952268189781
20
-5.75408991292929
30
0
41
1
10
81.0368989046298
20
-5.92801156454027
30
0
41
1
10
81.2507349704777
20
-5.9854042671474
30
0
41
1
10
81.6782685572262
20
-6.09908719547627
30
0
41
1
10
81.8919457500813
20
-6.15542078459129
30
0
41
1
10
82.3192027363623
20
-6.26688628351036
30
0
41
1
10
82.5327919798949
20
-6.321997525559
30
0
41
1
10
82.9600367731075
20
-6.43068180804423
30
0
41
1
10
83.1736830128702
20
-6.48427604535698
30
0
41
1
10
83.8145936220734
20
-6.6430338209658
30
0
41
1
10
84.2418516306548
20
-6.74612870038533
30
0
41
1
10
85.0962589926304
20
-6.94699028462878
30
0
41
1
10
85.5234053805991
20
-7.04476290091307
30
0
41
1
10
86.1639721577785
20
-7.18751316837663
30
0
41
1
10
86.3774669825254
20
-7.23444624847539
30
0
41
1
10
86.8045987979571
20
-7.32666215760622
30
0
41
1
10
87.0182216115845
20
-7.37197181648102
30
0
41
1
10
87.6592304989352
20
-7.50557162530129
30
0
41
1
10
88.0867543381507
20
-7.59154003681127
30
0
41
1
10
88.9420408453731
20
-7.75750146430948
30
0
41
1
10
89.3698344861322
20
-7.83744708424223
30
0
41
1
10
90.0115735832595
20
-7.95302948443899
30
0
41
1
10
90.225498704672
20
-7.990825590924
30
0
41
1
10
90.6535192376578
20
-8.06473674213063
30
0
41
1
10
90.8676305601211
20
-8.10083025702025
30
0
41
1
10
91.2960637884891
20
-8.17129189191508
30
0
41
1
10
91.5104038337882
20
-8.20568849431734
30
0
41
1
10
91.9390836558538
20
-8.27280290046312
30
0
41
1
10
92.1533598794597
20
-8.30550902050297
30
0
41
1
10
92.7959849665787
20
-8.40109652531339
30
0
41
1
10
93.2241286627544
20
-8.46145249078188
30
0
41
1
10
93.8658640437286
20
-8.54698909922601
30
0
41
1
10
94.0796840430336
20
-8.5746793984739
30
0
41
1
10
94.5072238619253
20
-8.62831949872367
30
0
41
1
10
94.7209789577046
20
-8.65423360386177
30
0
41
1
10
95.789765052264
20
-8.77923034889233
30
0
41
1
10
96.644669083451
20
-8.86482459404837
30
0
41
1
10
97.7125826078471
20
-8.95431675818807
30
0
41
1
10
97.9261061008226
20
-8.97135052572733
30
0
41
1
10
98.3531180597342
20
-9.00362083395439
30
0
41
1
10
98.5666159571647
20
-9.01885088959577
30
0
41
1
10
99.207302435329
20
-9.06171568220739
30
0
41
1
10
99.6346113070055
20
-9.08657824506179
30
0
41
1
10
100.489358227046
20
-9.12904261237037
30
0
41
1
10
100.916821577341
20
-9.14663084487287
30
0
41
1
10
101.558081242104
20
-9.16753545473495
30
0
41
1
10
101.771845285194
20
-9.17358985164219
30
0
41
1
10
102.19938496182
20
-9.18385883943941
30
0
41
1
10
102.413159120649
20
-9.1880712961412
30
0
41
1
10
103.004312267968
20
-9.1971237557878
30
0
41
1
10
103.381860695755
20
-9.20000144891142
30
0
41
1
10
103.759627182944
20
-9.20000019085654
30
0
0
SPLINE
5
CC
100
AcDbEntity
8
1
62
256
6
ByLayer
370
18
48
1
60
0
100
AcDbSpline
70
4
71
3
72
38
73
34
40
0
40
0
40
0
40
0
40
0.0147783464677636
40
0.0147783464677636
40
0.0968801509287859
40
0.0968801509287859
40
0.178981955389807
40
0.178981955389807
40
0.220032857620316
40
0.220032857620316
40
0.261083759850824
40
0.261083759850824
40
0.302134662081333
40
0.302134662081333
40
0.343185564311842
40
0.343185564311842
40
0.425287368772863
40
0.425287368772863
40
0.507389173233885
40
0.507389173233885
40
0.548440075464396
40
0.548440075464396
40
0.589490977694908
40
0.589490977694908
40
0.67159278215593
40
0.67159278215593
40
0.753694586616953
40
0.753694586616953
40
0.794745488847461
40
0.794745488847461
40
0.835796391077971
40
0.835796391077971
40
1
40
1
40
1
40
1
41
1
10
166.367157846533
20
6.77553973022583
30
0
41
1
10
166.444113481718
20
6.79394747467646
30
0
41
1
10
166.521072828267
20
6.81226727322547
30
0
41
1
10
167.025633701713
20
6.93173588138862
30
0
41
1
10
167.453524142353
20
7.02991824023121
30
0
41
1
10
168.309740825443
20
7.22050353957161
30
0
41
1
10
168.7380608426
20
7.31291669439525
30
0
41
1
10
169.380800873127
20
7.447301712929
30
0
41
1
10
169.595139023963
20
7.49138930603215
30
0
41
1
10
170.023636642087
20
7.57816519920078
30
0
41
1
10
170.237764738711
20
7.62086650646876
30
0
41
1
10
170.665918266058
20
7.70466003734262
30
0
41
1
10
170.879953402289
20
7.74573715615489
30
0
41
1
10
171.308028546523
20
7.82612995240814
30
0
41
1
10
171.522046805559
20
7.86548078136033
30
0
41
1
10
172.163985393415
20
7.98110022687013
30
0
41
1
10
172.59180702032
20
8.05491149111143
30
0
41
1
10
173.447093403779
20
8.19612280176148
30
0
41
1
10
173.874544676027
20
8.26353966762926
30
0
41
1
10
174.515418112642
20
8.35984839206139
30
0
41
1
10
174.729022695069
20
8.39110927593998
30
0
41
1
10
175.156316690064
20
8.45180942605001
30
0
41
1
10
175.369988486801
20
8.48127058533186
30
0
41
1
10
176.011048867952
20
8.56703599916844
30
0
41
1
10
176.438478084346
20
8.62073009081266
30
0
41
1
10
177.293333886932
20
8.72127463429894
30
0
41
1
10
177.720775539401
20
8.76811224759433
30
0
41
1
10
178.361821255886
20
8.83327101735583
30
0
41
1
10
178.575505036167
20
8.85412032096318
30
0
41
1
10
179.003024209059
20
8.89396336097357
30
0
41
1
10
179.216872607897
20
8.91294955006182
30
0
41
1
10
180.28639698259
20
9.00335321399925
30
0
41
1
10
181.142915092627
20
9.06124327631315
30
0
41
1
10
182
20
9.10469582670785
30
0
0
SPLINE
5
CD
100
AcDbEntity
8
1
62
256
6
ByLayer
370
18
48
1
60
0
100
AcDbSpline
70
4
71
3
72
84
73
80
40
0
40
0
40
0
40
0
40
0.0187279948515417
40
0.0187279948515417
40
0.0374559897030834
40
0.0374559897030834
40
0.0749119794061688
40
0.0749119794061688
40
0.0936399742577116
40
0.0936399742577116
40
0.112367969109254
40
0.112367969109254
40
0.14982395881234
40
0.14982395881234
40
0.187279948515425
40
0.187279948515425
40
0.206007943366968
40
0.206007943366968
40
0.224735938218511
40
0.224735938218511
40
0.262191927921594
40
0.262191927921594
40
0.299647917624678
40
0.299647917624678
40
0.31837591247622
40
0.31837591247622
40
0.337103907327763
40
0.337103907327763
40
0.355831902179306
40
0.355831902179306
40
0.374559897030849
40
0.374559897030849
40
0.412015886733936
40
0.412015886733936
40
0.430743881585481
40
0.430743881585481
40
0.449471876437026
40
0.449471876437026
40
0.468199871288571
40
0.468199871288571
40
0.486927866140116
40
0.486927866140116
40
0.524383855843203
40
0.524383855843203
40
0.561839845546291
40
0.561839845546291
40
0.580567840397836
40
0.580567840397836
40
0.599295835249381
40
0.599295835249381
40
0.636751824952471
40
0.636751824952471
40
0.67420781465556
40
0.67420781465556
40
0.692935809507106
40
0.692935809507106
40
0.711663804358652
40
0.711663804358652
40
0.749119794061746
40
0.749119794061746
40
0.78657578376484
40
0.78657578376484
40
0.805303778616386
40
0.805303778616386
40
0.824031773467932
40
0.824031773467932
40
0.861487763171022
40
0.861487763171022
40
0.880215758022567
40
0.880215758022567
40
0.898943752874111
40
0.898943752874111
40
0.917671747725656
40
0.917671747725656
40
0.936399742577201
40
0.936399742577201
40
0.973855732280291
40
0.973855732280291
40
1
40
1
40
1
40
1
41
1
10
182
20
2.09412339027992
30
0
41
1
10
181.780182240633
20
2.16961430804903
30
0
41
1
10
181.560458375975
20
2.24492726810888
30
0
41
1
10
181.12109978057
20
2.39491748099871
30
0
41
1
10
180.901452366451
20
2.4695595122077
30
0
41
1
10
180.242632109692
20
2.69250904944084
30
0
41
1
10
179.80359432997
20
2.83987783585548
30
0
41
1
10
179.145359235991
20
3.05919890887196
30
0
41
1
10
178.92600003843
20
3.13201387320336
30
0
41
1
10
178.48739319537
20
3.2770746089538
30
0
41
1
10
178.268157884498
20
3.34935300686638
30
0
41
1
10
177.610486731683
20
3.56497512915703
30
0
41
1
10
177.172023557002
20
3.70694379254556
30
0
41
1
10
176.295090027312
20
3.98741781904445
30
0
41
1
10
175.856610097805
20
4.12589962810137
30
0
41
1
10
175.198985106994
20
4.33127793854513
30
0
41
1
10
174.979804499888
20
4.39937565848081
30
0
41
1
10
174.541390716863
20
4.53457293831286
30
0
41
1
10
174.322155327037
20
4.60166766495635
30
0
41
1
10
173.66440178189
20
4.80153545677788
30
0
41
1
10
173.225883605976
20
4.93300386441427
30
0
41
1
10
172.348290114987
20
5.19110993787592
30
0
41
1
10
171.909289000905
20
5.31793300758241
30
0
41
1
10
171.250551896918
20
5.50498553046222
30
0
41
1
10
171.030931899619
20
5.56680155059505
30
0
41
1
10
170.591615674925
20
5.68937248768367
30
0
41
1
10
170.37192788241
20
5.75014650714263
30
0
41
1
10
169.932430460917
20
5.87052303173863
30
0
41
1
10
169.71264946712
20
5.93004873164375
30
0
41
1
10
169.273423511677
20
6.04761636543245
30
0
41
1
10
169.053921339322
20
6.10568409440535
30
0
41
1
10
168.395750131714
20
6.27776654634758
30
0
41
1
10
167.957406695916
20
6.38964219228086
30
0
41
1
10
167.300634714574
20
6.55341756258485
30
0
41
1
10
167.081846693575
20
6.6073612705809
30
0
41
1
10
166.644476033986
20
6.71380457678077
30
0
41
1
10
166.425878271166
20
6.76627257404223
30
0
41
1
10
165.988868928227
20
6.86973236134372
30
0
41
1
10
165.770464473247
20
6.92073875847169
30
0
41
1
10
165.33385078035
20
7.02129408065952
30
0
41
1
10
165.115619022622
20
7.07079730561719
30
0
41
1
10
164.461074540925
20
7.21685580280226
30
0
41
1
10
164.024955957047
20
7.31105037458602
30
0
41
1
10
163.1533139028
20
7.49332020298937
30
0
41
1
10
162.717791014171
20
7.58139368475486
30
0
41
1
10
162.064948830446
20
7.70887499487824
30
0
41
1
10
161.847385636177
20
7.75055830464734
30
0
41
1
10
161.412277757961
20
7.83217822512097
30
0
41
1
10
161.19474413391
20
7.87213330663474
30
0
41
1
10
160.542208702654
20
7.9894541682404
30
0
41
1
10
160.107264533725
20
8.06426750225643
30
0
41
1
10
159.237633898351
20
8.20725006500859
30
0
41
1
10
158.803010585157
20
8.27549398456492
30
0
41
1
10
158.151029355157
20
8.37253691921956
30
0
41
1
10
157.933704226757
20
8.40401183569216
30
0
41
1
10
157.49908843395
20
8.46525012052115
30
0
41
1
10
157.281791764158
20
8.49500483950251
30
0
41
1
10
156.629767953726
20
8.58149104213416
30
0
41
1
10
156.194957044783
20
8.63550971851924
30
0
41
1
10
155.325216720524
20
8.73643025022878
30
0
41
1
10
154.890277377404
20
8.78332043277283
30
0
41
1
10
154.237798245176
20
8.84828214116175
30
0
41
1
10
154.020294485526
20
8.86903899478045
30
0
41
1
10
153.58512737126
20
8.90864711483218
30
0
41
1
10
153.367474524829
20
8.92750806892838
30
0
41
1
10
152.714312728747
20
8.98127356202542
30
0
41
1
10
152.278596023917
20
9.0133607469389
30
0
41
1
10
151.624659213214
20
9.05588373205524
30
0
41
1
10
151.406622692614
20
9.06912437722968
30
0
41
1
10
150.970455873766
20
9.09373803570841
30
0
41
1
10
150.752318186601
20
9.10510608587359
30
0
41
1
10
150.315842702998
20
9.12591905326369
30
0
41
1
10
150.097514748586
20
9.13536948112127
30
0
41
1
10
149.660704726398
20
9.15236306223784
30
0
41
1
10
149.44223468902
20
9.15990862174056
30
0
41
1
10
148.786465077499
20
9.17963449048324
30
0
41
1
10
148.348790728464
20
9.18891103770989
30
0
41
1
10
147.604908221423
20
9.19810636100351
30
0
41
1
10
147.298910644546
20
9.20000335222181
30
0
41
1
10
146.992710206108
20
9.20000049793356
30
0
0
SPLINE
5
CE
100
AcDbEntity
8
1
62
256
6
ByLayer
370
18
48
1
60
0
100
AcDbSpline
70
4
71
3
72
154
73
150
40
0
40
0
40
0
40
0
40
0.0108618607255059
40
0.0108618607255059
40
0.0295248444854038
40
0.0295248444854038
40
0.0388563363653522
40
0.0388563363653522
40
0.0481878282453006
40
0.0481878282453006
40
0.0668508120051964
40
0.0668508120051964
40
0.0761823038851438
40
0.0761823038851438
40
0.0855137957650912
40
0.0855137957650912
40
0.0948452876450386
40
0.0948452876450386
40
0.104176779524986
40
0.104176779524986
40
0.122839763284882
40
0.122839763284882
40
0.141502747044777
40
0.141502747044777
40
0.150834238924725
40
0.150834238924725
40
0.160165730804673
40
0.160165730804673
40
0.178828714564569
40
0.178828714564569
40
0.188160206444517
40
0.188160206444517
40
0.197491698324465
40
0.197491698324465
40
0.206823190204413
40
0.206823190204413
40
0.216154682084361
40
0.216154682084361
40
0.234817665844257
40
0.234817665844257
40
0.253480649604152
40
0.253480649604152
40
0.2628121414841
40
0.2628121414841
40
0.272143633364048
40
0.290806617123943
40
0.290806617123943
40
0.300138109003891
40
0.300138109003891
40
0.309469600883839
40
0.309469600883839
40
0.318801092763787
40
0.318801092763787
40
0.328132584643735
40
0.328132584643735
40
0.365458552163526
40
0.365458552163526
40
0.384121535923422
40
0.384121535923422
40
0.402784519683318
40
0.402784519683318
40
0.412116011563266
40
0.412116011563266
40
0.421447503443214
40
0.421447503443214
40
0.44011048720311
40
0.44011048720311
40
0.449441979083057
40
0.449441979083057
40
0.458773470963005
40
0.477436454722901
40
0.477436454722901
40
0.486767946602849
40
0.486767946602849
40
0.496099438482797
40
0.496099438482797
40
0.514762422242693
40
0.514762422242693
40
0.533425406002588
40
0.533425406002588
40
0.552088389762484
40
0.552088389762484
40
0.561419881642432
40
0.561419881642432
40
0.57075137352238
40
0.57075137352238
40
0.589414357282276
40
0.589414357282276
40
0.598745849162224
40
0.598745849162224
40
0.608077341042172
40
0.608077341042172
40
0.626740324802068
40
0.626740324802068
40
0.636071816682016
40
0.636071816682016
40
0.645403308561963
40
0.645403308561963
40
0.654734800441911
40
0.654734800441911
40
0.664066292321859
40
0.664066292321859
40
0.673397784201806
40
0.673397784201806
40
0.682729276081754
40
0.682729276081754
40
0.70139225984165
40
0.70139225984165
40
0.710723751721598
40
0.710723751721598
40
0.720055243601545
40
0.720055243601545
40
0.738718227361441
40
0.738718227361441
40
0.757381211121336
40
0.757381211121336
40
0.766712703001284
40
0.766712703001284
40
0.776044194881232
40
0.776044194881232
40
0.78537568676118
40
0.78537568676118
40
0.794707178641128
40
0.794707178641128
40
0.813370162401024
40
0.813370162401024
40
0.822701654280973
40
0.822701654280973
40
0.832033146160921
40
0.832033146160921
40
0.850696129920819
40
0.850696129920819
40
0.869359113680716
40
0.869359113680716
40
0.878690605560665
40
0.878690605560665
40
0.888022097440614
40
0.888022097440614
40
0.906685081200512
40
0.906685081200512
40
0.92534806496041
40
0.92534806496041
40
0.934679556840358
40
0.934679556840358
40
0.944011048720307
40
0.944011048720307
40
0.962674032480205
40
0.962674032480205
40
1
40
1
40
1
40
1
41
1
10
84.3664904398791
20
-6.78063649167541
30
0
41
1
10
84.1126360842539
20
-6.84104449785173
30
0
41
1
10
83.8586432015808
20
-6.90049558607038
30
0
41
1
10
83.1678946679817
20
-7.05956609351654
30
0
41
1
10
82.7308840741188
20
-7.15734783488767
30
0
41
1
10
82.0748211561557
20
-7.29987514193851
30
0
41
1
10
81.856041160212
20
-7.3466896990854
30
0
41
1
10
81.4181689193373
20
-7.43867727611072
30
0
41
1
10
81.199087419227
20
-7.48387207949585
30
0
41
1
10
80.5414110485624
20
-7.61706942368778
30
0
41
1
10
80.1023799235842
20
-7.702678547598
30
0
41
1
10
79.4430096409149
20
-7.826377709334
30
0
41
1
10
79.2231584616951
20
-7.86681581917421
30
0
41
1
10
78.7837806018597
20
-7.94604728142039
30
0
41
1
10
78.564179286238
20
-7.98483268861173
30
0
41
1
10
78.1250678040008
20
-8.06062304038218
30
0
41
1
10
77.9055679748802
20
-8.09764419365899
30
0
41
1
10
77.4667094348401
20
-8.16998114292065
30
0
41
1
10
77.2473614677638
20
-8.20530972362644
30
0
41
1
10
76.5893701121049
20
-8.30852757178158
30
0
41
1
10
76.1507915724266
20
-8.3736764277927
30
0
41
1
10
75.2739559932268
20
-8.49689151682915
30
0
41
1
10
74.8356889837859
20
-8.55494368546604
30
0
41
1
10
74.178552431707
20
-8.63669960497762
30
0
41
1
10
73.9595620326393
20
-8.66307338750622
30
0
41
1
10
73.5215463870183
20
-8.71392147566257
30
0
41
1
10
73.3025227334808
20
-8.73839898989249
30
0
41
1
10
72.6454082086418
20
-8.80900959076908
30
0
41
1
10
72.2072702960637
20
-8.85232072289892
30
0
41
1
10
71.55001669558
20
-8.91169583257806
30
0
41
1
10
71.330926904179
20
-8.93055696493607
30
0
41
1
10
70.8927613558009
20
-8.96642745660287
30
0
41
1
10
70.673689193342
20
-8.983437609623
30
0
41
1
10
70.2354517751682
20
-9.01553176000311
30
0
41
1
10
70.0162941365346
20
-9.030621949932
30
0
41
1
10
69.5779278972547
20
-9.05890245768302
30
0
41
1
10
69.3587330118563
20
-9.07209865823083
30
0
41
1
10
68.7009781391543
20
-9.10878255052251
30
0
41
1
10
68.2621813738258
20
-9.12934469812819
30
0
41
1
10
67.3841569211542
20
-9.16276652016441
30
0
41
1
10
66.9449236909597
20
-9.17562196305937
30
0
41
1
10
66.2857750438806
20
-9.18907548953416
30
0
41
1
10
66.0659749035108
20
-9.19258861540138
30
0
41
1
10
65.6265619485112
20
-9.1976448286585
30
0
41
1
10
64.9675820123893
20
-9.20227390762565
30
0
41
1
10
64.3090126873684
20
-9.19811018209168
30
0
41
1
10
63.6507501229851
20
-9.18812500791279
30
0
41
1
10
63.4313823642773
20
-9.18382567062
30
0
41
1
10
62.9927775118028
20
-9.1732777616923
30
0
41
1
10
62.7735512797667
20
-9.1670255294695
30
0
41
1
10
62.3351494550054
20
-9.15258492882285
30
0
41
1
10
62.1159685461066
20
-9.14439950815071
30
0
41
1
10
61.6776714585014
20
-9.12609443169228
30
0
41
1
10
61.4585659826795
20
-9.11597031178962
30
0
41
1
10
60.3631445709925
20
-9.06052637949617
30
0
41
1
10
59.4866737002861
20
-9.00100784865796
30
0
41
1
10
58.1722733513165
20
-8.88875296162516
30
0
41
1
10
57.7342317102587
20
-8.84744560593242
30
0
41
1
10
56.857654547459
20
-8.75756576338492
30
0
41
1
10
56.4191764887417
20
-8.70896215754536
30
0
41
1
10
55.7612046581565
20
-8.63055210103343
30
0
41
1
10
55.5418390783053
20
-8.60349677497197
30
0
41
1
10
55.1030484745901
20
-8.54751808408628
30
0
41
1
10
54.8836337447327
20
-8.51858284560788
30
0
41
1
10
54.2252373855128
20
-8.42902566843372
30
0
41
1
10
53.7860259680719
20
-8.36574749990754
30
0
41
1
10
53.1268780018451
20
-8.2653366728313
30
0
41
1
10
52.9070414046095
20
-8.23097465959299
30
0
41
1
10
52.4675238032303
20
-8.16062259210605
30
0
41
1
10
51.8084029185146
20
-8.05259890541649
30
0
41
1
10
51.1498510799661
20
-7.93698261420022
30
0
41
1
10
50.4917141126137
20
-7.81624825727866
30
0
41
1
10
50.2724081714898
20
-7.77514379513156
30
0
41
1
10
49.8339227749135
20
-7.69124002887719
30
0
41
1
10
49.6147231979535
20
-7.64847167766055
30
0
41
1
10
48.9571258217247
20
-7.51793204254847
30
0
41
1
10
48.5187741111632
20
-7.42785875303758
30
0
41
1
10
47.6421979803434
20
-7.24160336884972
30
0
41
1
10
47.2039880705097
20
-7.1453969913469
30
0
41
1
10
46.3278096379341
20
-6.946642799833
30
0
41
1
10
45.8896874456635
20
-6.84437848281982
30
0
41
1
10
45.232524290947
20
-6.68651532528267
30
0
41
1
10
45.0134664948963
20
-6.63316131703726
30
0
41
1
10
44.5752401295663
20
-6.52519733125189
30
0
41
1
10
44.3560837863726
20
-6.47056396214737
30
0
41
1
10
43.6985198352892
20
-6.30464519732902
30
0
41
1
10
43.2600235738259
20
-6.19132971634724
30
0
41
1
10
42.602135839503
20
-6.01720068537753
30
0
41
1
10
42.382816733485
20
-5.9584629507284
30
0
41
1
10
41.9441328938132
20
-5.8395868331406
30
0
41
1
10
41.72476146081
20
-5.77946215776313
30
0
41
1
10
41.0663644426305
20
-5.59746783719021
30
0
41
1
10
40.6271082860197
20
-5.47386558988336
30
0
41
1
10
39.9677620465891
20
-5.28500781419876
30
0
41
1
10
39.747858583976
20
-5.22146865771285
30
0
41
1
10
39.3084186483611
20
-5.0933393290828
30
0
41
1
10
39.0888302031542
20
-5.02872702795798
30
0
41
1
10
38.6499263328523
20
-4.89838018365597
30
0
41
1
10
38.4305949204431
20
-4.83268776284066
30
0
41
1
10
37.9921092722887
20
-4.70043594428412
30
0
41
1
10
37.7729641628576
20
-4.63385248662541
30
0
41
1
10
37.3348978585946
20
-4.49969501470528
30
0
41
1
10
37.1159824108618
20
-4.43210521121847
30
0
41
1
10
36.6782631185294
20
-4.29623762027043
30
0
41
1
10
36.459466504443
20
-4.22794072231534
30
0
41
1
10
35.8032961203916
20
-4.02188236338878
30
0
41
1
10
35.3661506073352
20
-3.88292982693045
30
0
41
1
10
34.7109265696321
20
-3.67201787857937
30
0
41
1
10
34.4926005147765
20
-3.60130102849692
30
0
41
1
10
34.0561187727694
20
-3.45902273839849
30
0
41
1
10
33.8379709269387
20
-3.38743934409666
30
0
41
1
10
33.1835914111256
20
-3.17195088996658
30
0
41
1
10
32.747446844405
20
-3.02724553364382
30
0
41
1
10
31.8754000290653
20
-2.73568588887846
30
0
41
1
10
31.4394887641383
20
-2.58885744815018
30
0
41
1
10
30.7859141072809
20
-2.36669081777737
30
0
41
1
10
30.5681060948524
20
-2.29230984608662
30
0
41
1
10
30.1324825306208
20
-2.14320259163665
30
0
41
1
10
29.9146756135033
20
-2.06845210927736
30
0
41
1
10
29.4790980394928
20
-1.91848206572442
30
0
41
1
10
29.261340827361
20
-1.84322387119488
30
0
41
1
10
28.8257959532593
20
-1.69242852529393
30
0
41
1
10
28.6079947635071
20
-1.61693040833544
30
0
41
1
10
27.9545292793985
20
-1.39006743354471
30
0
41
1
10
27.5188169177844
20
-1.23829461680825
30
0
41
1
10
26.8652038326934
20
-1.00966804756507
30
0
41
1
10
26.6473241846876
20
-0.933301283056977
30
0
41
1
10
26.211553551176
20
-0.780232970148461
30
0
41
1
10
25.9936736074764
20
-0.703498916120282
30
0
41
1
10
25.3399072647615
20
-0.47311260446412
30
0
41
1
10
24.903812057257
20
-0.319519176214328
30
0
41
1
10
24.0311368229142
20
-0.0122855045470942
30
0
41
1
10
23.594549219819
20
0.141331678042746
30
0
41
1
10
22.9393952457409
20
0.372068822706666
30
0
41
1
10
22.7209773974958
20
0.449070217279342
30
0
41
1
10
22.2839845969015
20
0.602980647651862
30
0
41
1
10
22.0654010374694
20
0.679863511331064
30
0
41
1
10
21.4094212994536
20
0.910393341540868
30
0
41
1
10
20.9718528816739
20
1.06409573979752
30
0
41
1
10
20.0957167462085
20
1.37000949807143
30
0
41
1
10
19.6572106297437
20
1.52240591929146
30
0
41
1
10
18.9988645165452
20
1.7503809404036
30
0
41
1
10
18.7793161016879
20
1.82626372969028
30
0
41
1
10
18.3400242015492
20
1.97782768754576
30
0
41
1
10
18.1202375924264
20
2.0535438802502
30
0
41
1
10
17.4609569770807
20
2.28011855457885
30
0
41
1
10
17.0214429321604
20
2.43000080053045
30
0
41
1
10
15.7027842689882
20
2.87580361130478
30
0
41
1
10
14.8235779385256
20
3.16804866067346
30
0
41
1
10
13.944526604193
20
3.45597402902973
30
0
0
SPLINE
5
CF
100
AcDbEntity
8
1
62
256
6
ByLayer
370
18
48
1
60
0
100
AcDbSpline
70
4
71
3
72
14
73
10
40
0
40
0
40
0
40
0
40
0.182049873098338
40
0.182049873098338
40
0.364099746196676
40
0.364099746196676
40
0.728199492393374
40
0.728199492393374
40
1
40
1
40
1
40
1
41
1
10
182
20
-9.4153048850861
30
0
41
1
10
182.209480254228
20
-9.42541005051947
30
0
41
1
10
182.418856111007
20
-9.43461563474941
30
0
41
1
10
182.837548068151
20
-9.45117448371681
30
0
41
1
10
183.046886285892
20
-9.45852293253358
30
0
41
1
10
183.674858219974
20
-9.47780555438098
30
0
41
1
10
184.093444410342
20
-9.48698224379316
30
0
41
1
10
184.824276956346
20
-9.49664904618476
30
0
41
1
10
185.136590656881
20
-9.49875040187845
30
0
41
1
10
185.448813931138
20
-9.49881368807598
30
0
0
SPLINE
5
D0
100
AcDbEntity
8
1
62
256
6
ByLayer
370
18
48
1
60
0
100
AcDbSpline
70
4
71
3
72
10
73
6
40
0
40
0
40
0
40
0
40
0.695410290466869
40
0.695410290466869
40
1
40
1
40
1
40
1
41
1
10
18.0694929669956
20
-9.10811326895561
30
0
41
1
10
18.9264310636343
20
-9.15086363554843
30
0
41
1
10
19.7830123056523
20
-9.17850951285527
30
0
41
1
10
21.013598080609
20
-9.19715327550384
30
0
41
1
10
21.3882638814863
20
-9.2000028027538
30
0
41
1
10
21.7627489351217
20
-9.20000013314976
30
0
0
SPLINE
5
D1
100
AcDbEntity
8
1
62
256
6
ByLayer
370
18
48
1
60
0
100
AcDbSpline
70
4
71
3
72
213
73
209
40
0
40
0
40
0
40
0
40
0.0030956534593634
40
0.0030956534593634
40
0.0162128159138408
40
0.0162128159138408
40
0.0227713971410796
40
0.0227713971410796
40
0.0293299783683183
40
0.0293299783683183
40
0.0424471408227958
40
0.0424471408227958
40
0.0555643032772733
40
0.0555643032772733
40
0.0621228845045124
40
0.0621228845045124
40
0.0686814657317516
40
0.0686814657317516
40
0.0752400469589907
40
0.0752400469589907
40
0.0817986281862298
40
0.0817986281862298
40
0.0949157906407081
40
0.0949157906407081
40
0.101474371867947
40
0.101474371867947
40
0.108032953095186
40
0.108032953095186
40
0.134267278004145
40
0.134267278004145
40
0.140825859231385
40
0.140825859231385
40
0.147384440458624
40
0.147384440458624
40
0.160501602913104
40
0.160501602913104
40
0.173618765367584
40
0.173618765367584
40
0.180177346594825
40
0.180177346594825
40
0.186735927822064
40
0.186735927822064
40
0.199853090276544
40
0.199853090276544
40
0.206411671503784
40
0.206411671503784
40
0.212970252731024
40
0.212970252731024
40
0.219528833958264
40
0.219528833958264
40
0.226087415185503
40
0.226087415185503
40
0.239204577639984
40
0.239204577639984
40
0.252321740094464
40
0.252321740094464
40
0.258880321321704
40
0.258880321321704
40
0.265438902548944
40
0.265438902548944
40
0.278556065003425
40
0.278556065003425
40
0.291673227457906
40
0.291673227457906
40
0.298231808685147
40
0.298231808685147
40
0.304790389912387
40
0.304790389912387
40
0.311348971139627
40
0.311348971139627
40
0.317907552366868
40
0.317907552366868
40
0.331024714821348
40
0.331024714821348
40
0.337583296048589
40
0.337583296048589
40
0.344141877275829
40
0.344141877275829
40
0.350700458503069
40
0.350700458503069
40
0.35725903973031
40
0.35725903973031
40
0.370376202184791
40
0.370376202184791
40
0.383493364639271
40
0.383493364639271
40
0.390051945866512
40
0.390051945866512
40
0.396610527093752
40
0.396610527093752
40
0.422844852002715
40
0.422844852002715
40
0.429403433229957
40
0.429403433229957
40
0.435962014457198
40
0.435962014457198
40
0.449079176911681
40
0.449079176911681
40
0.462196339366165
40
0.462196339366165
40
0.468754920593407
40
0.468754920593407
40
0.475313501820649
40
0.475313501820649
40
0.488430664275134
40
0.488430664275134
40
0.501547826729619
40
0.501547826729619
40
0.508106407956861
40
0.508106407956861
40
0.514664989184104
40
0.514664989184104
40
0.527782151638589
40
0.527782151638589
40
0.540899314093074
40
0.540899314093074
40
0.547457895320317
40
0.547457895320317
40
0.554016476547559
40
0.554016476547559
40
0.560575057774802
40
0.560575057774802
40
0.567133639002044
40
0.567133639002044
40
0.58025080145653
40
0.58025080145653
40
0.593367963911016
40
0.593367963911016
40
0.599926545138258
40
0.599926545138258
40
0.606485126365501
40
0.613043707592743
40
0.613043707592743
40
0.619602288819986
40
0.619602288819986
40
0.632719451274471
40
0.632719451274471
40
0.639278032501713
40
0.639278032501713
40
0.645836613728955
40
0.645836613728955
40
0.65895377618344
40
0.65895377618344
40
0.672070938637924
40
0.672070938637924
40
0.678629519865166
40
0.678629519865166
40
0.685188101092408
40
0.685188101092408
40
0.698305263546892
40
0.698305263546892
40
0.711422426001375
40
0.711422426001375
40
0.724539588455859
40
0.724539588455859
40
0.737656750910342
40
0.737656750910342
40
0.750773913364826
40
0.750773913364826
40
0.757332494592067
40
0.757332494592067
40
0.763891075819308
40
0.763891075819308
40
0.777008238273791
40
0.777008238273791
40
0.790125400728274
40
0.790125400728274
40
0.796683981955515
40
0.796683981955515
40
0.803242563182757
40
0.803242563182757
40
0.81635972563724
40
0.81635972563724
40
0.829476888091723
40
0.829476888091723
40
0.836035469318964
40
0.836035469318964
40
0.842594050546205
40
0.842594050546205
40
0.855711213000687
40
0.855711213000687
40
0.868828375455169
40
0.868828375455169
40
0.87538695668241
40
0.87538695668241
40
0.881945537909651
40
0.881945537909651
40
0.888504119136892
40
0.888504119136892
40
0.895062700364133
40
0.895062700364133
40
0.908179862818615
40
0.908179862818615
40
0.921297025273098
40
0.921297025273098
40
0.92785560650034
40
0.92785560650034
40
0.934414187727581
40
0.934414187727581
40
0.947531350182065
40
0.947531350182065
40
0.960648512636548
40
0.960648512636548
40
0.96720709386379
40
0.96720709386379
40
0.973765675091032
40
0.973765675091032
40
1
40
1
40
1
40
1
41
1
10
84.3665862304728
20
6.77500823646898
30
0
41
1
10
84.4674119451475
20
6.7990077315425
30
0
41
1
10
84.568235141313
20
6.8228578016774
30
0
41
1
10
85.0962589926305
20
6.94699028462881
30
0
41
1
10
85.5234053805991
20
7.04476290091304
30
0
41
1
10
86.1639721577783
20
7.18751316837663
30
0
41
1
10
86.3774669825253
20
7.23444624847539
30
0
41
1
10
86.8045987979571
20
7.32666215760622
30
0
41
1
10
87.0182216115843
20
7.37197181648102
30
0
41
1
10
87.6592304989352
20
7.50557162530129
30
0
41
1
10
88.0867543381507
20
7.59154003681127
30
0
41
1
10
88.9420408453731
20
7.75750146430951
30
0
41
1
10
89.3698344861323
20
7.83744708424223
30
0
41
1
10
90.0115735832596
20
7.95302948443901
30
0
41
1
10
90.225498704672
20
7.99082559092403
30
0
41
1
10
90.6535192376579
20
8.06473674213066
30
0
41
1
10
90.8676305601211
20
8.10083025702028
30
0
41
1
10
91.2960637884892
20
8.17129189191508
30
0
41
1
10
91.5104038337882
20
8.20568849431734
30
0
41
1
10
91.9390836558539
20
8.27280290046315
30
0
41
1
10
92.1533598794598
20
8.305509020503
30
0
41
1
10
92.7959849665788
20
8.40109652531342
30
0
41
1
10
93.2241286627545
20
8.46145249078188
30
0
41
1
10
93.8658640437286
20
8.54698909922604
30
0
41
1
10
94.0796840430336
20
8.57467939847393
30
0
41
1
10
94.5072238619253
20
8.62831949872367
30
0
41
1
10
94.7209789577046
20
8.65423360386177
30
0
41
1
10
95.7897650522639
20
8.77923034889233
30
0
41
1
10
96.6446690834509
20
8.86482459404837
30
0
41
1
10
97.7125826078471
20
8.95431675818807
30
0
41
1
10
97.9261061008228
20
8.97135052572736
30
0
41
1
10
98.3531180597343
20
9.00362083395439
30
0
41
1
10
98.5666159571648
20
9.0188508895958
30
0
41
1
10
99.2073024353291
20
9.06171568220742
30
0
41
1
10
99.6346113070055
20
9.08657824506179
30
0
41
1
10
100.489358227046
20
9.12904261237037
30
0
41
1
10
100.916821577341
20
9.14663084487287
30
0
41
1
10
101.558081242104
20
9.16753545473495
30
0
41
1
10
101.771845285194
20
9.17358985164219
30
0
41
1
10
102.19938496182
20
9.18385883943941
30
0
41
1
10
102.413159120649
20
9.18807129614117
30
0
41
1
10
103.054787092386
20
9.19789668800217
30
0
41
1
10
103.482887785213
20
9.20071954490012
30
0
41
1
10
104.125445561753
20
9.19940794425276
30
0
41
1
10
104.339698904364
20
9.19804523834225
30
0
41
1
10
104.76832874757
20
9.19346405203675
30
0
41
1
10
104.982709674258
20
9.19024494834329
30
0
41
1
10
105.41120639308
20
9.18195064814722
30
0
41
1
10
105.625370317843
20
9.17687570020047
30
0
41
1
10
106.053474061344
20
9.16484800684356
30
0
41
1
10
106.267424922012
20
9.15789547458709
30
0
41
1
10
106.909193218404
20
9.13428031908475
30
0
41
1
10
107.337018829869
20
9.114902347103
30
0
41
1
10
108.192394402493
20
9.06889688744991
30
0
41
1
10
108.619956414178
20
9.0422711290407
30
0
41
1
10
109.261045096503
20
8.99686249809272
30
0
41
1
10
109.47469856952
20
8.98081364057998
30
0
41
1
10
109.901908650542
20
8.9468750419941
30
0
41
1
10
110.115453187854
20
8.92897639610104
30
0
41
1
10
110.756034199207
20
8.87256645541626
30
0
41
1
10
111.183193094102
20
8.83147269514416
30
0
41
1
10
112.037678398764
20
8.74236917757651
30
0
41
1
10
112.464981127737
20
8.69434048120397
30
0
41
1
10
113.105953128185
20
8.61701051974381
30
0
41
1
10
113.319618180322
20
8.59035677009001
30
0
41
1
10
113.746934133376
20
8.53525571039137
30
0
41
1
10
113.96056470003
20
8.50678571570111
30
0
41
1
10
114.387855585065
20
8.44808337038813
30
0
41
1
10
114.601525281962
20
8.41786083999025
30
0
41
1
10
115.029056657664
20
8.3558474041667
30
0
41
1
10
115.24290833061
20
8.32404700206769
30
0
41
1
10
115.884622030732
20
8.22615734245278
30
0
41
1
10
116.312664434552
20
8.1576072998387
30
0
41
1
10
116.955021073884
20
8.04975909176616
30
0
41
1
10
117.169188246354
20
8.01297101488657
30
0
41
1
10
117.597608299929
20
7.93769140091672
30
0
41
1
10
117.811915736187
20
7.89918975996841
30
0
41
1
10
118.240348474892
20
7.82050029437033
30
0
41
1
10
118.454394879572
20
7.78032555343478
30
0
41
1
10
118.882318777344
20
7.69862726516928
30
0
41
1
10
119.096183309627
20
7.65708174229508
30
0
41
1
10
119.737462078916
20
7.5303310998232
30
0
41
1
10
120.164559557687
20
7.44301041883628
30
0
41
1
10
121.017804324693
20
7.26256349175
30
0
41
1
10
121.443979823236
20
7.1694933622334
30
0
41
1
10
122.082405585946
20
7.02527204970801
30
0
41
1
10
122.295078675702
20
6.97643530192181
30
0
41
1
10
122.720288039756
20
6.87751097173705
30
0
41
1
10
122.932839236553
20
6.82745504981841
30
0
41
1
10
123.995352454448
20
6.57428607373771
30
0
41
1
10
124.844322973833
20
6.3619859158737
30
0
41
1
10
125.903829277924
20
6.08355370503474
30
0
41
1
10
126.115635036836
20
6.02718899362964
30
0
41
1
10
126.539120656807
20
5.91324717648067
30
0
41
1
10
126.75083353209
20
5.85574595295842
30
0
41
1
10
127.385955971037
20
5.68183361372857
30
0
41
1
10
127.809310231806
20
5.56392630657877
30
0
41
1
10
128.655760195745
20
5.32388763449998
30
0
41
1
10
129.078859830233
20
5.2017649653813
30
0
41
1
10
129.71326187562
20
5.01526955544369
30
0
41
1
10
129.924667683963
20
4.95250149891916
30
0
41
1
10
130.347404702081
20
4.82587339718586
30
0
41
1
10
130.558747435126
20
4.76204176396831
30
0
41
1
10
131.192907802991
20
4.56953013466483
30
0
41
1
10
131.615836642678
20
4.43978735071235
30
0
41
1
10
132.461732625626
20
4.17682848270042
30
0
41
1
10
132.884729153143
20
4.04368719837942
30
0
41
1
10
133.519230964165
20
3.84129446623587
30
0
41
1
10
133.73073268644
20
3.77338288208787
30
0
41
1
10
134.153728506099
20
3.6366319196305
30
0
41
1
10
134.365208355419
20
3.56775253265715
30
0
41
1
10
134.999862729406
20
3.36033835910092
30
0
41
1
10
135.423265362567
20
3.22107119887053
30
0
41
1
10
136.27052124279
20
2.9401712790237
30
0
41
1
10
136.694368951737
20
2.79852190512762
30
0
41
1
10
137.330418464069
20
2.58408581420744
30
0
41
1
10
137.542486579515
20
2.5122953987451
30
0
41
1
10
137.966676247339
20
2.36793763506378
30
0
41
1
10
138.178788731339
20
2.295342376197
30
0
41
1
10
138.603181374192
20
2.14970527575787
30
0
41
1
10
138.815470285497
20
2.076689909267
30
0
41
1
10
139.240312960947
20
1.93051101871458
30
0
41
1
10
139.452846502353
20
1.85728704324663
30
0
41
1
10
140.090728281594
20
1.63704558063424
30
0
41
1
10
140.516373618134
20
1.48950835172164
30
0
41
1
10
141.368375642121
20
1.19277303927268
30
0
41
1
10
141.794721813413
20
1.04354126760995
30
0
41
1
10
142.434748997063
20
0.818313014810172
30
0
41
1
10
142.648201279827
20
0.74308720648736
30
0
41
1
10
143.075443494015
20
0.592721831423773
30
0
41
1
10
143.502990919691
20
0.442338407064227
30
0
41
1
10
143.931113063102
20
0.291806435404197
30
0
41
1
10
144.359507040988
20
0.141146816119601
30
0
41
1
10
144.573906607907
20
0.06572737412219
30
0
41
1
10
145.216779114422
20
-0.160512603528389
30
0
41
1
10
145.645050184352
20
-0.311322292755619
30
0
41
1
10
146.286846495398
20
-0.537923833813721
30
0
41
1
10
146.500696967083
20
-0.613462676509869
30
0
41
1
10
146.928381415058
20
-0.764124461984522
30
0
41
1
10
147.142229223072
20
-0.839207860311063
30
0
41
1
10
147.783698858438
20
-1.0639843955083
30
0
41
1
10
148.211239993305
20
-1.21322391417627
30
0
41
1
10
149.066039505854
20
-1.5106943948058
30
0
41
1
10
149.493295247431
20
-1.65893297351812
30
0
41
1
10
150.13389344005
20
-1.88073136026594
30
0
41
1
10
150.347362321375
20
-1.95461604029021
30
0
41
1
10
150.77433892726
20
-2.10182054926199
30
0
41
1
10
150.987862840941
20
-2.17509560212159
30
0
41
1
10
151.628513234046
20
-2.39402324832932
30
0
41
1
10
152.055716132867
20
-2.5387855467512
30
0
41
1
10
152.910184650138
20
-2.82633283680343
30
0
41
1
10
153.337472597926
20
-2.96905667064615
30
0
41
1
10
154.191984395033
20
-3.25285557953518
30
0
41
1
10
154.619143804667
20
-3.39409838393828
30
0
41
1
10
155.474306859249
20
-3.6724766462047
30
0
41
1
10
155.902171520544
20
-3.80999118207924
30
0
41
1
10
156.758315123951
20
-4.08208073310834
30
0
41
1
10
157.186606493443
20
-4.2166225967847
30
0
41
1
10
157.829305878762
20
-4.41634293654039
30
0
41
1
10
158.043610453936
20
-4.48258681661292
30
0
41
1
10
158.471963345724
20
-4.61423851555389
30
0
41
1
10
158.686073050258
20
-4.67959636069548
30
0
41
1
10
159.328396857781
20
-4.87378818125799
30
0
41
1
10
159.756534156324
20
-5.00092660091252
30
0
41
1
10
160.612504502615
20
-5.25097201283074
30
0
41
1
10
161.040335275932
20
-5.37388301365817
30
0
41
1
10
161.681802640458
20
-5.55518260386955
30
0
41
1
10
161.895564390992
20
-5.61513689598496
30
0
41
1
10
162.322970246038
20
-5.73406918086678
30
0
41
1
10
162.536629950377
20
-5.79301083628229
30
0
41
1
10
163.177702201435
20
-5.96776931875795
30
0
41
1
10
163.605237383762
20
-6.08146504560162
30
0
41
1
10
164.460309335196
20
-6.30395212155133
30
0
41
1
10
164.887876752091
20
-6.41267528262074
30
0
41
1
10
165.529205817897
20
-6.57210759653066
30
0
41
1
10
165.74297835708
20
-6.62464269229082
30
0
41
1
10
166.170505091827
20
-6.72850794352138
30
0
41
1
10
166.384242904323
20
-6.77986904056613
30
0
41
1
10
167.025633701713
20
-6.93173588138873
30
0
41
1
10
167.453524142354
20
-7.02991824023127
30
0
41
1
10
168.309740825443
20
-7.22050353957167
30
0
41
1
10
168.7380608426
20
-7.31291669439531
30
0
41
1
10
169.380800873128
20
-7.44730171292903
30
0
41
1
10
169.595139023963
20
-7.49138930603217
30
0
41
1
10
170.023636642087
20
-7.57816519920081
30
0
41
1
10
170.237764738711
20
-7.62086650646879
30
0
41
1
10
170.665918266058
20
-7.70466003734265
30
0
41
1
10
170.879953402289
20
-7.74573715615492
30
0
41
1
10
171.308028546523
20
-7.82612995240814
30
0
41
1
10
171.522046805559
20
-7.86548078136036
30
0
41
1
10
172.163985393416
20
-7.98110022687015
30
0
41
1
10
172.59180702032
20
-8.05491149111145
30
0
41
1
10
173.44709340378
20
-8.1961228017615
30
0
41
1
10
173.874544676027
20
-8.26353966762929
30
0
41
1
10
174.515418112642
20
-8.35984839206142
30
0
41
1
10
174.729022695069
20
-8.39110927594001
30
0
41
1
10
175.156316690064
20
-8.45180942605003
30
0
41
1
10
175.369988486802
20
-8.48127058533191
30
0
41
1
10
176.011048867952
20
-8.56703599916847
30
0
41
1
10
176.438478084346
20
-8.62073009081266
30
0
41
1
10
177.293333886932
20
-8.72127463429894
30
0
41
1
10
177.720775539401
20
-8.7681122475943
30
0
41
1
10
178.361821255886
20
-8.83327101735586
30
0
41
1
10
178.575505036167
20
-8.8541203209632
30
0
41
1
10
179.003024209059
20
-8.89396336097357
30
0
41
1
10
179.216872607897
20
-8.91294955006182
30
0
41
1
10
180.28639698259
20
-9.00335321399928
30
0
41
1
10
181.142915092627
20
-9.06124327631315
30
0
41
1
10
182
20
-9.10469582670785
30
0
0
SPLINE
5
D2
100
AcDbEntity
8
1
62
256
6
ByLayer
370
18
48
1
60
0
100
AcDbSpline
70
4
71
3
72
233
73
229
40
0
40
0
40
0
40
0
40
0.0015789614053801
40
0.0015789614053801
40
0.0080501130417968
40
0.0080501130417968
40
0.0145212646782135
40
0.0145212646782135
40
0.0274635679510462
40
0.0274635679510462
40
0.0404058712238788
40
0.0404058712238788
40
0.0468770228602955
40
0.0468770228602955
40
0.0533481744967123
40
0.0533481744967123
40
0.0662904777695464
40
0.0662904777695464
40
0.0792327810423805
40
0.0792327810423805
40
0.0857039326787976
40
0.0857039326787976
40
0.0921750843152147
40
0.0921750843152147
40
0.105117387588049
40
0.105117387588049
40
0.118059690860883
40
0.118059690860883
40
0.1245308424973
40
0.1245308424973
40
0.131001994133716
40
0.131001994133716
40
0.14394429740655
40
0.14394429740655
40
0.150415449042966
40
0.150415449042966
40
0.156886600679383
40
0.156886600679383
40
0.1633577523158
40
0.1633577523158
40
0.169828903952217
40
0.169828903952217
40
0.18277120722505
40
0.18277120722505
40
0.195713510497883
40
0.195713510497883
40
0.2021846621343
40
0.2021846621343
40
0.208655813770717
40
0.208655813770717
40
0.22159811704355
40
0.22159811704355
40
0.228069268679965
40
0.228069268679965
40
0.234540420316381
40
0.234540420316381
40
0.241011571952797
40
0.241011571952797
40
0.247482723589213
40
0.247482723589213
40
0.260425026862046
40
0.260425026862046
40
0.273367330134879
40
0.273367330134879
40
0.279838481771295
40
0.279838481771295
40
0.286309633407711
40
0.286309633407711
40
0.299251936680543
40
0.299251936680543
40
0.305723088316958
40
0.305723088316958
40
0.312194239953374
40
0.312194239953374
40
0.325136543226207
40
0.325136543226207
40
0.331607694862624
40
0.331607694862624
40
0.338078846499041
40
0.338078846499041
40
0.351021149771873
40
0.351021149771873
40
0.363963453044706
40
0.363963453044706
40
0.376905756317539
40
0.376905756317539
40
0.383376907953955
40
0.383376907953955
40
0.389848059590371
40
0.389848059590371
40
0.402790362863203
40
0.402790362863203
40
0.409261514499619
40
0.409261514499619
40
0.415732666136035
40
0.415732666136035
40
0.428674969408868
40
0.428674969408868
40
0.435146121045285
40
0.435146121045285
40
0.441617272681701
40
0.441617272681701
40
0.454559575954534
40
0.454559575954534
40
0.461030727590951
40
0.461030727590951
40
0.467501879227367
40
0.467501879227367
40
0.473973030863784
40
0.473973030863784
40
0.480444182500201
40
0.480444182500201
40
0.486915334136617
40
0.486915334136617
40
0.493386485773034
40
0.493386485773034
40
0.506328789045868
40
0.506328789045868
40
0.512799940682285
40
0.512799940682285
40
0.519271092318702
40
0.519271092318702
40
0.532213395591537
40
0.532213395591537
40
0.545155698864371
40
0.545155698864371
40
0.551626850500789
40
0.551626850500789
40
0.558098002137206
40
0.558098002137206
40
0.564569153773623
40
0.564569153773623
40
0.57104030541004
40
0.57104030541004
40
0.583982608682875
40
0.583982608682875
40
0.590453760319292
40
0.590453760319292
40
0.59692491195571
40
0.59692491195571
40
0.609867215228546
40
0.609867215228546
40
0.622809518501381
40
0.622809518501381
40
0.629280670137799
40
0.629280670137799
40
0.635751821774216
40
0.635751821774216
40
0.642222973410634
40
0.642222973410634
40
0.648694125047051
40
0.648694125047051
40
0.661636428319885
40
0.661636428319885
40
0.668107579956302
40
0.668107579956302
40
0.67457873159272
40
0.67457873159272
40
0.687521034865553
40
0.687521034865553
40
0.700463338138386
40
0.700463338138386
40
0.706934489774803
40
0.706934489774803
40
0.713405641411219
40
0.713405641411219
40
0.726347944684052
40
0.726347944684052
40
0.739290247956884
40
0.739290247956884
40
0.752232551229717
40
0.752232551229717
40
0.758703702866133
40
0.758703702866133
40
0.76517485450255
40
0.76517485450255
40
0.778117157775382
40
0.778117157775382
40
0.791059461048215
40
0.791059461048215
40
0.797530612684632
40
0.797530612684632
40
0.804001764321048
40
0.804001764321048
40
0.816944067593882
40
0.816944067593882
40
0.829886370866717
40
0.829886370866717
40
0.836357522503134
40
0.836357522503134
40
0.842828674139551
40
0.842828674139551
40
0.855770977412386
40
0.855770977412386
40
0.862242129048803
40
0.862242129048803
40
0.86871328068522
40
0.86871328068522
40
0.875184432321637
40
0.875184432321637
40
0.881655583958054
40
0.881655583958054
40
0.894597887230887
40
0.894597887230887
40
0.907540190503721
40
0.907540190503721
40
0.914011342140137
40
0.914011342140137
40
0.920482493776554
40
0.920482493776554
40
0.933424797049388
40
0.933424797049388
40
0.939895948685805
40
0.939895948685805
40
0.946367100322222
40
0.946367100322222
40
0.952838251958639
40
0.952838251958639
40
0.959309403595056
40
0.959309403595056
40
0.97225170686789
40
0.97225170686789
40
0.985194010140724
40
0.985194010140724
40
0.991665161777141
40
0.991665161777141
40
0.998136313413559
40
1
40
1
40
1
40
1
41
1
10
166.367335606965
20
-6.7800041186002
30
0
41
1
10
166.314009449087
20
-6.79271432933964
30
0
41
1
10
166.260688753247
20
-6.80538037039588
30
0
41
1
10
165.988868928227
20
-6.86973236134369
30
0
41
1
10
165.770464473247
20
-6.92073875847166
30
0
41
1
10
165.33385078035
20
-7.02129408065946
30
0
41
1
10
165.115619022622
20
-7.07079730561716
30
0
41
1
10
164.461074540926
20
-7.2168558028022
30
0
41
1
10
164.024955957047
20
-7.31105037458599
30
0
41
1
10
163.1533139028
20
-7.49332020298934
30
0
41
1
10
162.717791014171
20
-7.58139368475486
30
0
41
1
10
162.064948830446
20
-7.70887499487822
30
0
41
1
10
161.847385636177
20
-7.75055830464734
30
0
41
1
10
161.412277757961
20
-7.83217822512094
30
0
41
1
10
161.19474413391
20
-7.87213330663471
30
0
41
1
10
160.542208702654
20
-7.98945416824037
30
0
41
1
10
160.107264533725
20
-8.0642675022564
30
0
41
1
10
159.237633898351
20
-8.20725006500857
30
0
41
1
10
158.803010585157
20
-8.27549398456486
30
0
41
1
10
158.151029355157
20
-8.37253691921956
30
0
41
1
10
157.933704226757
20
-8.40401183569213
30
0
41
1
10
157.49908843395
20
-8.46525012052112
30
0
41
1
10
157.281791764158
20
-8.49500483950251
30
0
41
1
10
156.629767953726
20
-8.58149104213413
30
0
41
1
10
156.194957044783
20
-8.63550971851922
30
0
41
1
10
155.325216720524
20
-8.73643025022878
30
0
41
1
10
154.890277377404
20
-8.7833204327728
30
0
41
1
10
154.237798245176
20
-8.84828214116175
30
0
41
1
10
154.020294485526
20
-8.86903899478042
30
0
41
1
10
153.58512737126
20
-8.90864711483215
30
0
41
1
10
153.36747452483
20
-8.92750806892838
30
0
41
1
10
152.714312728747
20
-8.98127356202542
30
0
41
1
10
152.278596023917
20
-9.0133607469389
30
0
41
1
10
151.624659213215
20
-9.05588373205521
30
0
41
1
10
151.406622692614
20
-9.06912437722968
30
0
41
1
10
150.970455873766
20
-9.09373803570841
30
0
41
1
10
150.752318186601
20
-9.10510608587359
30
0
41
1
10
150.315842702998
20
-9.12591905326366
30
0
41
1
10
150.097514748586
20
-9.13536948112127
30
0
41
1
10
149.660704726398
20
-9.15236306223784
30
0
41
1
10
149.44223468902
20
-9.15990862174056
30
0
41
1
10
148.786465077499
20
-9.17963449048324
30
0
41
1
10
148.348790728464
20
-9.18891103770989
30
0
41
1
10
147.472603849571
20
-9.19974180942555
30
0
41
1
10
147.034082438493
20
-9.2012923910055
30
0
41
1
10
146.375683275866
20
-9.19774651615325
30
0
41
1
10
146.156125250878
20
-9.19558295304378
30
0
41
1
10
145.716705838727
20
-9.18929268085731
30
0
41
1
10
145.496858011912
20
-9.18516787992243
30
0
41
1
10
144.837683016408
20
-9.1698844612504
30
0
41
1
10
144.398445629528
20
-9.15581712390664
30
0
41
1
10
143.73994683989
20
-9.12892794198916
30
0
41
1
10
143.520509164197
20
-9.11899888900734
30
0
41
1
10
143.081782238349
20
-9.09719568334199
30
0
41
1
10
142.862500564547
20
-9.08531679208221
30
0
41
1
10
142.42398664421
20
-9.05965408284226
30
0
41
1
10
142.20475839708
20
-9.0458699906373
30
0
41
1
10
141.766385317195
20
-9.01638578553525
30
0
41
1
10
141.547253595305
20
-9.00067729705884
30
0
41
1
10
140.889912742456
20
-8.95071527015853
30
0
41
1
10
140.451667584382
20
-8.91368962313754
30
0
41
1
10
139.575280586455
20
-8.83216160295189
30
0
41
1
10
139.137137494523
20
-8.78765806197018
30
0
41
1
10
138.480035017989
20
-8.71523328157454
30
0
41
1
10
138.261029829219
20
-8.69013591441794
30
0
41
1
10
137.822996340656
20
-8.63809763680692
30
0
41
1
10
137.603943423889
20
-8.6111813010962
30
0
41
1
10
136.946660456099
20
-8.52776947732079
30
0
41
1
10
136.508312894264
20
-8.46860747867922
30
0
41
1
10
135.850585807164
20
-8.37451355432663
30
0
41
1
10
135.631310687002
20
-8.34225488534628
30
0
41
1
10
135.192718949743
20
-8.27591353511241
30
0
41
1
10
134.973413545868
20
-8.24181561543466
30
0
41
1
10
134.31533911879
20
-8.13689269233794
30
0
41
1
10
133.876377128256
20
-8.06349231472194
30
0
41
1
10
133.217635034597
20
-7.94809452988451
30
0
41
1
10
132.99797196251
20
-7.90879171941424
30
0
41
1
10
132.558449014529
20
-7.82856591907651
30
0
41
1
10
132.338552369171
20
-7.78762350719057
30
0
41
1
10
131.679172038642
20
-7.66238568879848
30
0
41
1
10
131.239874140205
20
-7.57566530268281
30
0
41
1
10
130.361903936089
20
-7.39568268308167
30
0
41
1
10
129.923289474004
20
-7.30230990190654
30
0
41
1
10
129.046128210825
20
-7.10999250104797
30
0
41
1
10
128.60762990303
20
-7.01097266365943
30
0
41
1
10
127.950032450466
20
-6.85813088850674
30
0
41
1
10
127.730858648056
20
-6.80646402428249
30
0
41
1
10
127.292585929689
20
-6.70164282722669
30
0
41
1
10
127.073496259704
20
-6.64846985964183
30
0
41
1
10
126.416296305476
20
-6.48679631343421
30
0
41
1
10
125.978154981625
20
-6.3763463049942
30
0
41
1
10
125.321024456165
20
-6.20647590042242
30
0
41
1
10
125.101975173156
20
-6.14919236564876
30
0
41
1
10
124.663787240112
20
-6.03347563760016
30
0
41
1
10
124.44466007991
20
-5.97501857549952
30
0
41
1
10
123.787213951638
20
-5.79778006280455
30
0
41
1
10
123.348833507129
20
-5.67712561420009
30
0
41
1
10
122.691173478483
20
-5.49230047780867
30
0
41
1
10
122.471940987719
20
-5.43004537113549
30
0
41
1
10
122.03344117612
20
-5.30425629682483
30
0
41
1
10
121.81415914845
20
-5.24075608289877
30
0
41
1
10
121.156057313589
20
-5.04882074053515
30
0
41
1
10
120.717033272672
20
-4.91883265669151
30
0
41
1
10
120.058089367401
20
-4.72075121092385
30
0
41
1
10
119.838372628094
20
-4.65420922615183
30
0
41
1
10
119.398823379492
20
-4.52003640205263
30
0
41
1
10
119.178954727053
20
-4.45237977231972
30
0
41
1
10
118.739476279304
20
-4.31608106678286
30
0
41
1
10
118.519811080141
20
-4.24748289581751
30
0
41
1
10
118.080586076431
20
-4.10950156335687
30
0
41
1
10
117.861034161996
20
-4.04009801489164
30
0
41
1
10
117.422083214398
20
-3.90038193692703
30
0
41
1
10
117.202678919739
20
-3.8300827912193
30
0
41
1
10
116.763895812
20
-3.68891318293157
30
0
41
1
10
116.544528532792
20
-3.61801256961027
30
0
41
1
10
115.886532939213
20
-3.40427794735825
30
0
41
1
10
115.44801835154
20
-3.2603916910015
30
0
41
1
10
114.790510432743
20
-3.04235772704368
30
0
41
1
10
114.571385164118
20
-2.96931200530489
30
0
41
1
10
114.133227895648
20
-2.82246879313297
30
0
41
1
10
113.914194266875
20
-2.74867529579996
30
0
41
1
10
113.25701721242
20
-2.5267581290629
30
0
41
1
10
112.818845099135
20
-2.37796984113638
30
0
41
1
10
111.942424403761
20
-2.07863259097996
30
0
41
1
10
111.504169834937
20
-1.92810113561765
30
0
41
1
10
110.846849701347
20
-1.70064289258798
30
0
41
1
10
110.62774019118
20
-1.62458287812459
30
0
41
1
10
110.189431061386
20
-1.47222044962732
30
0
41
1
10
109.970241994153
20
-1.39588844902443
30
0
41
1
10
109.531824461485
20
-1.24283780956259
30
0
41
1
10
109.31260668033
20
-1.16608816832323
30
0
41
1
10
108.874025030737
20
-1.01250694786435
30
0
41
1
10
108.654663646823
20
-0.93566869586968
30
0
41
1
10
107.996401478686
20
-0.704916271641338
30
0
41
1
10
107.55733297491
20
-0.550735252819976
30
0
41
1
10
106.898436671293
20
-0.318800062925874
30
0
41
1
10
106.678754929083
20
-0.241379618483791
30
0
41
1
10
106.239297673097
20
-0.0863017740133216
30
0
41
1
10
106.019482560526
20
-0.0085951905518868
30
0
41
1
10
105.360571876887
20
0.224036144843296
30
0
41
1
10
104.921775992454
20
0.378582446656452
30
0
41
1
10
104.045150223556
20
0.68669030812967
30
0
41
1
10
103.607311605479
20
0.840224960107946
30
0
41
1
10
102.951374948809
20
1.07011271668165
30
0
41
1
10
102.732870165619
20
1.14668386280567
30
0
41
1
10
102.296038860663
20
1.29938412159467
30
0
41
1
10
102.077719380696
20
1.37553630906268
30
0
41
1
10
101.641296726135
20
1.52752279952688
30
0
41
1
10
101.423206233118
20
1.60339582553704
30
0
41
1
10
100.987183879197
20
1.75464636385939
30
0
41
1
10
100.769237440278
20
1.82997975623692
30
0
41
1
10
100.115610096253
20
2.05516938073529
30
0
41
1
10
99.6801554294066
20
2.20425984759072
30
0
41
1
10
99.0274745289629
20
2.42651884908645
30
0
41
1
10
98.8099966063884
20
2.50037193659594
30
0
41
1
10
98.3752116204297
20
2.64762742770557
30
0
41
1
10
98.1579147839959
20
2.72105908987328
30
0
41
1
10
97.5061850095066
20
2.94039746834318
30
0
41
1
10
97.071821975347
20
3.08508920022123
30
0
41
1
10
96.2033464162205
20
3.37145677473876
30
0
41
1
10
95.7692275468891
20
3.51311630247031
30
0
41
1
10
95.1183263854718
20
3.72359357729994
30
0
41
1
10
94.9014179311633
20
3.79345015462323
30
0
41
1
10
94.4676389770954
20
3.93234056008384
30
0
41
1
10
94.2507560702986
20
4.00134150930842
30
0
41
1
10
93.6001529382867
20
4.20708344318163
30
0
41
1
10
93.1665463258336
20
4.34273900076758
30
0
41
1
10
92.2990900671749
20
4.60973428786227
30
0
41
1
10
91.8652911070145
20
4.74121249001678
30
0
41
1
10
90.9976589425844
20
5.00040719820598
30
0
41
1
10
90.5638268879624
20
5.12812518722697
30
0
41
1
10
89.9130444350053
20
5.31683075326913
30
0
41
1
10
89.6960876606492
20
5.37919574037943
30
0
41
1
10
89.2620360341695
20
5.50266149563609
30
0
41
1
10
89.0449519594814
20
5.5637887383393
30
0
41
1
10
88.3935302000697
20
5.74537006170098
30
0
41
1
10
87.9590155575872
20
5.86400810681593
30
0
41
1
10
87.0896160454717
20
6.09666918783094
30
0
41
1
10
86.6547915878567
20
6.21082454831418
30
0
41
1
10
86.0020400410649
20
6.37803318452924
30
0
41
1
10
85.7843800434738
20
6.4331214861655
30
0
41
1
10
85.3489365934998
20
6.54206209795174
30
0
41
1
10
85.1311466485697
20
6.59589933693539
30
0
41
1
10
84.4774128712678
20
6.75516733452091
30
0
41
1
10
84.0411543846322
20
6.85846560686599
30
0
41
1
10
83.167894667982
20
7.05956609351645
30
0
41
1
10
82.730884074119
20
7.15734783488762
30
0
41
1
10
82.0748211561559
20
7.29987514193843
30
0
41
1
10
81.8560411602122
20
7.34668969908537
30
0
41
1
10
81.4181689193376
20
7.4386772761107
30
0
41
1
10
81.1990874192272
20
7.4838720794958
30
0
41
1
10
80.5414110485626
20
7.61706942368772
30
0
41
1
10
80.1023799235844
20
7.70267854759791
30
0
41
1
10
79.4430096409151
20
7.82637770933397
30
0
41
1
10
79.2231584616953
20
7.86681581917418
30
0
41
1
10
78.7837806018599
20
7.94604728142036
30
0
41
1
10
78.5641792862382
20
7.98483268861173
30
0
41
1
10
78.125067804001
20
8.06062304038213
30
0
41
1
10
77.9055679748805
20
8.09764419365894
30
0
41
1
10
77.4667094348403
20
8.16998114292062
30
0
41
1
10
77.2473614677642
20
8.20530972362641
30
0
41
1
10
76.5893701121051
20
8.30852757178153
30
0
41
1
10
76.1507915724268
20
8.37367642779265
30
0
41
1
10
75.2739559932271
20
8.49689151682912
30
0
41
1
10
74.8356889837861
20
8.55494368546599
30
0
41
1
10
74.1785524317072
20
8.63669960497759
30
0
41
1
10
73.9595620326394
20
8.66307338750616
30
0
41
1
10
73.5215463870184
20
8.71392147566254
30
0
41
1
10
73.302522733481
20
8.73839898989249
30
0
41
1
10
72.6454082086419
20
8.80900959076905
30
0
41
1
10
72.2072702960639
20
8.8523207228989
30
0
41
1
10
71.5500166955802
20
8.91169583257806
30
0
41
1
10
71.3309269041791
20
8.93055696493605
30
0
41
1
10
70.892761355801
20
8.96642745660287
30
0
41
1
10
70.6736891933422
20
8.98343760962297
30
0
41
1
10
70.2354517751683
20
9.01553176000311
30
0
41
1
10
70.0162941365347
20
9.030621949932
30
0
41
1
10
69.5779278972548
20
9.05890245768302
30
0
41
1
10
69.3587330118563
20
9.0720986582308
30
0
41
1
10
68.7009781391544
20
9.10878255052248
30
0
41
1
10
68.2621813738259
20
9.12934469812819
30
0
41
1
10
67.3841569211544
20
9.16276652016438
30
0
41
1
10
66.9449236909598
20
9.17562196305937
30
0
41
1
10
66.2857750438808
20
9.18907548953413
30
0
41
1
10
66.065974903511
20
9.19258861540138
30
0
41
1
10
65.6265619485114
20
9.1976448286585
30
0
41
1
10
65.343640068539
20
9.19963224534925
30
0
41
1
10
65.0607938752322
20
9.19999891176533
30
0
41
1
10
64.9975527475597
20
9.19999994553285
30
0
0
SPLINE
5
D3
100
AcDbEntity
8
1
62
256
6
ByLayer
370
18
48
1
60
0
100
AcDbSpline
70
4
71
3
72
14
73
10
40
0
40
0
40
0
40
0
40
0.25
40
0.25
40
0.5
40
0.5
40
0.75
40
0.75
40
1
40
1
40
1
40
1
41
1
10
13.944526604193
20
3.45597402902979
30
0
41
1
10
13.6078915738439
20
3.56973173131399
30
0
41
1
10
13.2738021517405
20
3.68788346460047
30
0
41
1
10
12.6095001028928
20
3.92977902066519
30
0
41
1
10
12.2792808651761
20
4.05351307029312
30
0
41
1
10
11.6221245980899
20
4.3048264139577
30
0
41
1
10
11.2951859137244
20
4.43240867882017
30
0
41
1
10
10.6447661263364
20
4.69127099916122
30
0
41
1
10
10.3212876286952
20
4.82256391183881
30
0
41
1
10
10
20
4.95630344235198
30
0
0
SPLINE
5
D4
100
AcDbEntity
8
1
62
256
6
ByLayer
370
18
48
1
60
0
100
AcDbSpline
70
4
71
4
72
13
73
8
40
0
40
0
40
0
40
0
40
0
40
0.617280544009351
40
0.617280544009351
40
0.617280544009351
40
1
40
1
40
1
40
1
40
1
41
0.996827628610383
10
18.0694929669956
20
9.10811326895559
30
0
41
0.994721668755302
10
17.9465540361697
20
7.96902318618442
30
0
41
0.994145119994475
10
17.7262276337072
20
6.75220628250409
30
0
41
1
10
17.4181211565787
20
5.61924880811657
30
0
41
1
10
16.8866811379841
20
4.11348121570811
30
0
41
0.997749319218
10
16.6574605737004
20
3.56359098720794
30
0
41
0.996176255724816
10
16.4114026280199
20
3.08342769423291
30
0
41
0.995669156224806
10
16.1607624912357
20
2.69479429411616
30
0
0
SPLINE
5
D5
100
AcDbEntity
8
1
62
256
6
ByLayer
370
18
48
1
60
0
100
AcDbSpline
70
4
71
3
72
25
73
21
40
0
40
0
40
0
40
0
40
0.125000000000011
40
0.125000000000011
40
0.250000000000022
40
0.250000000000022
40
0.375000000000034
40
0.375000000000034
40
0.406250000000035
40
0.406250000000035
40
0.437500000000037
40
0.500000000000035
40
0.500000000000035
40
0.625000000000026
40
0.625000000000026
40
0.750000000000017
40
0.750000000000017
40
0.875000000000009
40
0.875000000000009
40
1
40
1
40
1
40
1
41
1
10
10
20
8.93801660111009
30
0
41
1
10
10.3384089249044
20
8.92059361436353
30
0
41
1
10
10.6780247159693
20
8.9064185409058
30
0
41
1
10
11.359481473813
20
8.88567803043736
30
0
41
1
10
11.7013239153994
20
8.87910862151344
30
0
41
1
10
12.3871113099237
20
8.87384313892622
30
0
41
1
10
12.7310574113304
20
8.87514619754037
30
0
41
1
10
13.1622422886134
20
8.88137980307681
30
0
41
1
10
13.2485901042406
20
8.8828562452162
30
0
41
1
10
13.4207387739705
20
8.88623575787599
30
0
41
1
10
13.6783747137916
20
8.89194709017741
30
0
41
1
10
13.934303047355
20
8.89947432106143
30
0
41
1
10
14.4440218771837
20
8.91661656063815
30
0
41
1
10
14.7809829733578
20
8.93083725275662
30
0
41
1
10
15.4499430341398
20
8.96281372967198
30
0
41
1
10
15.7819410616647
20
8.98056237030244
30
0
41
1
10
16.4417555643335
20
9.01733557919994
30
0
41
1
10
16.7695732735562
20
9.03635194479125
30
0
41
1
10
17.4218501114673
20
9.07343748287522
30
0
41
1
10
17.7463127526387
20
9.09149987053402
30
0
41
1
10
18.0694929669955
20
9.10811326895563
30
0
0
SPLINE
5
D6
100
AcDbEntity
8
1
62
256
6
ByLayer
370
18
48
1
60
0
100
AcDbSpline
70
4
71
3
72
107
73
103
40
0
40
0
40
0
40
0
40
0.0624999999999949
40
0.0624999999999949
40
0.0937499999999923
40
0.0937499999999923
40
0.12499999999999
40
0.12499999999999
40
0.156249999999987
40
0.156249999999987
40
0.187499999999985
40
0.187499999999985
40
0.195312499999984
40
0.195312499999984
40
0.203124999999984
40
0.203124999999984
40
0.218749999999983
40
0.218749999999983
40
0.249999999999979
40
0.249999999999979
40
0.281249999999976
40
0.281249999999976
40
0.296874999999974
40
0.296874999999974
40
0.304687499999974
40
0.304687499999974
40
0.312499999999973
40
0.312499999999973
40
0.34374999999997
40
0.34374999999997
40
0.374999999999968
40
0.374999999999968
40
0.378906249999967
40
0.378906249999967
40
0.382812499999967
40
0.382812499999967
40
0.390624999999967
40
0.390624999999967
40
0.406249999999967
40
0.406249999999967
40
0.421874999999967
40
0.421874999999967
40
0.437499999999967
40
0.437499999999967
40
0.445312499999967
40
0.445312499999967
40
0.453124999999967
40
0.453124999999967
40
0.468749999999967
40
0.468749999999967
40
0.499999999999967
40
0.499999999999967
40
0.503906249999967
40
0.503906249999967
40
0.507812499999967
40
0.515624999999967
40
0.515624999999967
40
0.531249999999967
40
0.531249999999967
40
0.546874999999966
40
0.546874999999966
40
0.554687499999966
40
0.554687499999966
40
0.558593749999967
40
0.558593749999967
40
0.562499999999967
40
0.562499999999967
40
0.593749999999967
40
0.593749999999967
40
0.609374999999968
40
0.609374999999968
40
0.617187499999968
40
0.621093749999968
40
0.621093749999968
40
0.624999999999969
40
0.624999999999969
40
0.656249999999972
40
0.656249999999972
40
0.687499999999976
40
0.687499999999976
40
0.71874999999998
40
0.71874999999998
40
0.726562499999981
40
0.726562499999981
40
0.734374999999982
40
0.749999999999984
40
0.749999999999984
40
0.781249999999987
40
0.781249999999987
40
0.81249999999999
40
0.81249999999999
40
0.843749999999992
40
0.843749999999992
40
0.874999999999993
40
0.874999999999993
40
0.906249999999995
40
0.906249999999995
40
0.937499999999997
40
0.937499999999997
40
0.968749999999998
40
0.968749999999998
40
1
40
1
40
1
40
1
41
1
10
10
20
8.93801660111006
30
0
41
1
10
9.59083554660214
20
9.09155907907302
30
0
41
1
10
9.18845659987028
20
9.24604813495836
30
0
41
1
10
8.59501617189892
20
9.47694606090087
30
0
41
1
10
8.39889265384392
20
9.55376580489161
30
0
41
1
10
8.01004837710914
20
9.70663380450364
30
0
41
1
10
7.8173273044759
20
9.78268296876928
30
0
41
1
10
7.43534038672681
20
9.93343795298225
30
0
41
1
10
7.24607405238052
20
10.0081452482015
30
0
41
1
10
6.87109083830379
20
10.155515943107
30
0
41
1
10
6.68537315009874
20
10.2281818214926
30
0
41
1
10
6.45554118619305
20
10.3171826623258
30
0
41
1
10
6.40969073719853
20
10.3348906823837
30
0
41
1
10
6.31822499070751
20
10.3701059772261
30
0
41
1
10
6.27256953946429
20
10.3876285913136
30
0
41
1
10
6.13626737199803
20
10.4397519082138
30
0
41
1
10
6.04640557632109
20
10.4738626891914
30
0
41
1
10
5.77989957017158
20
10.57407488207
30
0
41
1
10
5.60632669230688
20
10.6380669973206
30
0
41
1
10
5.26786353811931
20
10.7591039567649
30
0
41
1
10
5.10296853873629
20
10.8161558169532
30
0
41
1
10
4.86273257686855
20
10.8952225381913
30
0
41
1
10
4.78384118077406
20
10.9204889943708
30
0
41
1
10
4.66739351241552
20
10.9565442160295
30
0
41
1
10
4.62885532618608
20
10.9682655621072
30
0
41
1
10
4.55279818444865
20
10.9909444651544
30
0
41
1
10
4.51524235085833
20
11.0019138623448
30
0
41
1
10
4.32986619159794
20
11.0548357958066
30
0
41
1
10
4.18922228288912
20
11.091044996894
30
0
41
1
10
3.92473015744844
20
11.148834636519
30
0
41
1
10
3.80086045174068
20
11.1704381018105
30
0
41
1
10
3.67241085123891
20
11.1845555499153
30
0
41
1
10
3.65829114512675
20
11.1859816250719
30
0
41
1
10
3.63036376376272
20
11.1885398325576
30
0
41
1
10
3.61654316634497
20
11.1896728442925
30
0
41
1
10
3.57566056759563
20
11.1926099261454
30
0
41
1
10
3.54921134889449
20
11.1939509565852
30
0
41
1
10
3.47231858742782
20
11.196070058055
30
0
41
1
10
3.42432646212296
20
11.1949466429314
30
0
41
1
10
3.33515723427956
20
11.1872913681245
30
0
41
1
10
3.29397913652696
20
11.1807603440004
30
0
41
1
10
3.21883505032116
20
11.1618650280137
30
0
41
1
10
3.18486753126211
20
11.1495019853346
30
0
41
1
10
3.13974300995633
20
11.1261735468291
30
0
41
1
10
3.12564236821564
20
11.1175714010556
30
0
41
1
10
3.09972220880553
20
11.0988840708023
30
0
41
1
10
3.08787705349926
20
11.0887931649763
30
0
41
1
10
3.05567814029703
20
11.0562730111737
30
0
41
1
10
3.03865657229417
20
11.0315985147619
30
0
41
1
10
3.00101553364141
20
10.9484688946355
30
0
41
1
10
2.99374058520704
20
10.8809490145527
30
0
41
1
10
3.00686948558192
20
10.7904987160898
30
0
41
1
10
3.00862931146276
20
10.7802303887896
30
0
41
1
10
3.01273313904227
20
10.759374706987
30
0
41
1
10
3.01975939486743
20
10.7276272417765
30
0
41
1
10
3.02935795511129
20
10.6945107442293
30
0
41
1
10
3.05189612262626
20
10.6265062424489
30
0
41
1
10
3.07137189335947
20
10.578809787913
30
0
41
1
10
3.11887059823391
20
10.4789323650843
30
0
41
1
10
3.14689448153553
20
10.4267509626557
30
0
41
1
10
3.19517470161878
20
10.3452499445921
30
0
41
1
10
3.21230976795422
20
10.3175443935941
30
0
41
1
10
3.23956161358152
20
10.2751919126879
30
0
41
1
10
3.24889976312443
20
10.2609491248772
30
0
41
1
10
3.26799268764091
20
10.2323439994498
30
0
41
1
10
3.27775836457909
20
10.2179645728348
30
0
41
1
10
3.36757501105649
20
10.087879509159
30
0
41
1
10
3.46101591757144
20
9.96751640302628
30
0
41
1
10
3.61855816729974
20
9.78132597330423
30
0
41
1
10
3.67398555130836
20
9.71831520573335
30
0
41
1
10
3.76123217824701
20
9.62251463196688
30
0
41
1
10
3.8058827963406
20
9.57429286289624
30
0
41
1
10
3.85203202343055
20
9.52561141550208
30
0
41
1
10
3.88312691333269
20
9.49305728687904
30
0
41
1
10
3.8988448576379
20
9.47672418334753
30
0
41
1
10
4.04127379969481
20
9.32979198350071
30
0
41
1
10
4.17552484105448
20
9.19880052656012
30
0
41
1
10
4.45657676373264
20
8.93653180431602
30
0
41
1
10
4.6033954825096
20
8.80525213473692
30
0
41
1
10
4.90769215037346
20
8.54269418317799
30
0
41
1
10
5.06517879331673
20
8.41141475436274
30
0
41
1
10
5.26777840070463
20
8.24740912148161
30
0
41
1
10
5.30861685031039
20
8.21458817805257
30
0
41
1
10
5.39055150388964
20
8.14919220361293
30
0
41
1
10
5.51392829627136
20
8.05139490329046
30
0
41
1
10
5.63865587845021
20
7.95444501864463
30
0
41
1
10
5.88973709230405
20
7.76156916601437
30
0
41
1
10
6.05928791180054
20
7.63434893650799
30
0
41
1
10
6.40192575932298
20
7.38211907092548
30
0
41
1
10
6.57501424365856
20
7.25710976995308
30
0
41
1
10
6.92407671151216
20
7.00883287455537
30
0
41
1
10
7.10005114541474
20
6.88556500180886
30
0
41
1
10
7.45434205846072
20
6.6403476293024
30
0
41
1
10
7.63265837791246
20
6.51839741753659
30
0
41
1
10
7.99119386782104
20
6.27545308564046
30
0
41
1
10
8.17141252334162
20
6.15445796457951
30
0
41
1
10
8.53342881195249
20
5.9131488540153
30
0
41
1
10
8.71522578765021
20
5.79283373524726
30
0
41
1
10
9.08020856853534
20
5.55272959958043
30
0
41
1
10
9.26340279884147
20
5.43293363778588
30
0
41
1
10
9.63110679186167
20
5.1938902689545
30
0
41
1
10
9.81533608902961
20
5.07482429011964
30
0
41
1
10
10
20
4.95630344235198
30
0
0
SPLINE
5
D7
100
AcDbEntity
8
1
62
256
6
ByLayer
370
18
48
1
60
0
100
AcDbSpline
70
4
71
3
72
26
73
22
40
0
40
0
40
0
40
0
40
0.223701117298399
40
0.223701117298399
40
0.335551675947599
40
0.335551675947599
40
0.447402234596798
40
0.447402234596798
40
0.559252793245998
40
0.559252793245998
40
0.671103351895197
40
0.671103351895197
40
0.6990659915575
40
0.6990659915575
40
0.727028631219803
40
0.727028631219803
40
0.782953910544406
40
0.782953910544406
40
0.894804469193608
40
0.894804469193608
40
1
40
1
40
1
40
1
41
1
10
10
20
-8.93801660111006
30
0
41
1
10
9.59083554660208
20
-9.09155907907302
30
0
41
1
10
9.18845659987022
20
-9.24604813495836
30
0
41
1
10
8.59501617189892
20
-9.47694606090087
30
0
41
1
10
8.39889265384392
20
-9.55376580489164
30
0
41
1
10
8.01004837710911
20
-9.70663380450364
30
0
41
1
10
7.8173273044759
20
-9.78268296876931
30
0
41
1
10
7.43534038672681
20
-9.93343795298225
30
0
41
1
10
7.24607405238049
20
-10.0081452482015
30
0
41
1
10
6.87109083830376
20
-10.1555159431069
30
0
41
1
10
6.68537315009871
20
-10.2281818214926
30
0
41
1
10
6.45554118619307
20
-10.3171826623258
30
0
41
1
10
6.40969073719853
20
-10.3348906823837
30
0
41
1
10
6.31822499070754
20
-10.3701059772261
30
0
41
1
10
6.27256953946426
20
-10.3876285913136
30
0
41
1
10
6.13626737199794
20
-10.4397519082138
30
0
41
1
10
6.04640557632109
20
-10.4738626891914
30
0
41
1
10
5.77989957017158
20
-10.5740748820701
30
0
41
1
10
5.60632669230682
20
-10.6380669973206
30
0
41
1
10
5.27793269531477
20
-10.7555031507213
30
0
41
1
10
5.12260615881209
20
-10.8093544552039
30
0
41
1
10
4.97144919706076
20
-10.8594122218884
30
0
0
SPLINE
5
D8
100
AcDbEntity
8
SK1
62
256
6
ByLayer
370
18
48
1
60
0
100
AcDbSpline
70
4
71
3
72
34
73
30
40
0
40
0
40
0
40
0
40
0.125000000000001
40
0.125000000000001
40
0.250000000000002
40
0.250000000000002
40
0.375000000000003
40
0.375000000000003
40
0.437500000000004
40
0.437500000000004
40
0.500000000000005
40
0.500000000000005
40
0.625000000000005
40
0.625000000000005
40
0.656250000000005
40
0.656250000000005
40
0.687500000000005
40
0.687500000000005
40
0.750000000000005
40
0.750000000000005
40
0.812500000000005
40
0.812500000000005
40
0.843750000000004
40
0.843750000000004
40
0.875000000000004
40
0.875000000000004
40
0.937500000000002
40
0.937500000000002
40
1
40
1
40
1
40
1
41
1
10
-52.5003287739481
20
-3.62059097355461
30
0
41
1
10
-52.4791023107682
20
-3.69580949914169
30
0
41
1
10
-52.456173666836
20
-3.7701328086529
30
0
41
1
10
-52.4062202513366
20
-3.91675156331095
30
0
41
1
10
-52.3792000011183
20
-3.98904864238443
30
0
41
1
10
-52.3201140822394
20
-4.13128549106548
30
0
41
1
10
-52.2880578558644
20
-4.20122868864783
30
0
41
1
10
-52.2351342019209
20
-4.30400502578081
30
0
41
1
10
-52.2166821098451
20
-4.33790583931534
30
0
41
1
10
-52.1779019271959
20
-4.40490146665846
30
0
41
1
10
-52.1575385793023
20
-4.43805147836142
30
0
41
1
10
-52.093380094742
20
-4.53574061166557
30
0
41
1
10
-52.0468993353633
20
-4.59806703723407
30
0
41
1
10
-51.9825062567773
20
-4.67139689881651
30
0
41
1
10
-51.9693089720826
20
-4.68583123022111
30
0
41
1
10
-51.9422155209833
20
-4.71419608571787
30
0
41
1
10
-51.9282893124733
20
-4.72815494045494
30
0
41
1
10
-51.8855899983215
20
-4.7689776324583
30
0
41
1
10
-51.8559681934236
20
-4.79473829352929
30
0
41
1
10
-51.7940523105194
20
-4.84293492664423
30
0
41
1
10
-51.7617609635258
20
-4.86537421079322
30
0
41
1
10
-51.710934585781
20
-4.89608972183805
30
0
41
1
10
-51.693592788252
20
-4.9058359097269
30
0
41
1
10
-51.6580214478988
20
-4.92423937407065
30
0
41
1
10
-51.6397301965266
20
-4.93292309713041
30
0
41
1
10
-51.583780125377
20
-4.9569645106269
30
0
41
1
10
-51.5455987975117
20
-4.97010157811332
30
0
41
1
10
-51.4673083175319
20
-4.99008231274206
30
0
41
1
10
-51.4272005227822
20
-4.99693051090844
30
0
41
1
10
-51.3860020460815
20
-5.00022676868039
30
0
0
SPLINE
5
D9
100
AcDbEntity
8
SK1
62
256
6
ByLayer
370
18
48
1
60
0
100
AcDbSpline
70
4
71
3
72
34
73
30
40
0
40
0
40
0
40
0
40
0.0625000000000001
40
0.0625000000000001
40
0.125
40
0.125
40
0.1875
40
0.1875
40
0.25
40
0.25
40
0.28125
40
0.28125
40
0.312499999999999
40
0.312499999999999
40
0.374999999999998
40
0.374999999999998
40
0.499999999999995
40
0.499999999999995
40
0.531249999999995
40
0.531249999999995
40
0.562499999999995
40
0.562499999999995
40
0.624999999999996
40
0.624999999999996
40
0.749999999999997
40
0.749999999999997
40
0.874999999999999
40
0.874999999999999
40
1
40
1
40
1
40
1
41
1
10
-51.3860020460815
20
5.00022676868039
30
0
41
1
10
-51.4271597094618
20
4.99693377635018
30
0
41
1
10
-51.4672462826171
20
4.9900941818546
30
0
41
1
10
-51.5455242136708
20
4.97012456894885
30
0
41
1
10
-51.5837142752675
20
4.95699014998107
30
0
41
1
10
-51.658355568598
20
4.92492253812571
30
0
41
1
10
-51.6938849422845
20
4.90639169663621
30
0
41
1
10
-51.7618166387264
20
4.86534206803361
30
0
41
1
10
-51.7942559781117
20
4.84279931421437
30
0
41
1
10
-51.8409760500773
20
4.80639681369991
30
0
41
1
10
-51.8562248159031
20
4.79382938651
30
0
41
1
10
-51.8861176712827
20
4.76788296468004
30
0
41
1
10
-51.9007110618413
20
4.75454548912128
30
0
41
1
10
-51.9432559764382
20
4.71379512925466
30
0
41
1
10
-51.9701014783725
20
4.68554212638855
30
0
41
1
10
-52.0468805903312
20
4.59805033156974
30
0
41
1
10
-52.0930959781036
20
4.5361050376323
30
0
41
1
10
-52.146279276313
20
4.45521167958731
30
0
41
1
10
-52.1566830990007
20
4.43885754119347
30
0
41
1
10
-52.1770537162702
20
4.4058167491863
30
0
41
1
10
-52.1870311208955
20
4.38911114781021
30
0
41
1
10
-52.2162315231511
20
4.33872068618709
30
0
41
1
10
-52.2347469485042
20
4.30473232112985
30
0
41
1
10
-52.2878314108395
20
4.20171722667834
30
0
41
1
10
-52.3199565384223
20
4.13164670884206
30
0
41
1
10
-52.3791390929746
20
3.98921323503126
30
0
41
1
10
-52.4061866509714
20
3.91684682729945
30
0
41
1
10
-52.4561716481468
20
3.77014208810513
30
0
41
1
10
-52.4791043925606
20
3.69580212206003
30
0
41
1
10
-52.5003287739482
20
3.62059097355464
30
0
0
SPLINE
5
DA
100
AcDbEntity
8
SK1
62
256
6
ByLayer
370
18
48
1
60
0
100
AcDbSpline
70
4
71
3
72
32
73
28
40
0
40
0
40
0
40
0
40
0.124999999999982
40
0.124999999999982
40
0.249999999999963
40
0.249999999999963
40
0.374999999999945
40
0.374999999999945
40
0.406249999999941
40
0.406249999999941
40
0.437499999999938
40
0.499999999999932
40
0.499999999999932
40
0.624999999999931
40
0.624999999999931
40
0.656249999999931
40
0.656249999999931
40
0.68749999999993
40
0.68749999999993
40
0.749999999999941
40
0.749999999999941
40
0.874999999999977
40
0.874999999999977
40
0.906249999999979
40
0.906249999999979
40
0.937499999999981
40
1
40
1
40
1
40
1
41
1
10
-14.0157764695459
20
6.59242894057729
30
0
41
1
10
-14.0458287908144
20
6.6375753796253
30
0
41
1
10
-14.0777095790597
20
6.68135165141678
30
0
41
1
10
-14.1456160664485
20
6.76590887596987
30
0
41
1
10
-14.1816386907667
20
6.80669170869109
30
0
41
1
10
-14.2584995514322
20
6.88489663469755
30
0
41
1
10
-14.2993317458756
20
6.92232243783545
30
0
41
1
10
-14.35399779722
20
6.96665617585003
30
0
41
1
10
-14.3651284778382
20
6.97541075031074
30
0
41
1
10
-14.3876400333972
20
6.9925614515505
30
0
41
1
10
-14.4218166346372
20
7.01777898878851
30
0
41
1
10
-14.4572545898122
20
7.04143848131534
30
0
41
1
10
-14.529923003083
20
7.08656817107874
30
0
41
1
10
-14.5807455844469
20
7.11375097789289
30
0
41
1
10
-14.6477689594914
20
7.14354340177493
30
0
41
1
10
-14.6613494138678
20
7.1492913738704
30
0
41
1
10
-14.6888796972728
20
7.1603468035685
30
0
41
1
10
-14.7028224503024
20
7.16564964334611
30
0
41
1
10
-14.7448319317882
20
7.18073146134719
30
0
41
1
10
-14.7732044950192
20
7.1897362156873
30
0
41
1
10
-14.8594560991353
20
7.21351895535656
30
0
41
1
10
-14.9184624466539
20
7.22508541231923
30
0
41
1
10
-14.9943023139084
20
7.23365556703433
30
0
41
1
10
-15.009604540326
20
7.23507501753883
30
0
41
1
10
-15.0401948935638
20
7.23728819114979
30
0
41
1
10
-15.0861089470591
20
7.23967813447453
30
0
41
1
10
-15.1321084232236
20
7.23928527151031
30
0
41
1
10
-15.1628130403699
20
7.23777548279986
30
0
0
SPLINE
5
DB
100
AcDbEntity
8
SK1
62
256
6
ByLayer
370
18
48
1
60
0
100
AcDbSpline
70
4
71
3
72
24
73
20
40
0
40
0
40
0
40
0
40
0.124999999999998
40
0.124999999999998
40
0.249999999999995
40
0.249999999999995
40
0.374999999999993
40
0.374999999999993
40
0.49999999999999
40
0.49999999999999
40
0.624999999999988
40
0.624999999999988
40
0.749999999999985
40
0.749999999999985
40
0.812499999999989
40
0.812499999999989
40
0.874999999999992
40
0.874999999999992
40
1
40
1
40
1
40
1
41
1
10
-15.1628130403699
20
-7.23777548279986
30
0
41
1
10
-15.1013368482927
20
-7.2407983526281
30
0
41
1
10
-15.0406973758297
20
-7.23880609117487
30
0
41
1
10
-14.920978556398
20
-7.22545942224767
30
0
41
1
10
-14.8618998887329
20
-7.21410077871741
30
0
41
1
10
-14.7452745335612
20
-7.18212437688828
30
0
41
1
10
-14.6895699451789
20
-7.16201960319464
30
0
41
1
10
-14.5827589175342
20
-7.11474711952985
30
0
41
1
10
-14.5316211412475
20
-7.08755690757022
30
0
41
1
10
-14.4334554488588
20
-7.02672282100497
30
0
41
1
10
-14.38751619038
20
-6.99376703919228
30
0
41
1
10
-14.3007925764322
20
-6.92357765523022
30
0
41
1
10
-14.2600161652162
20
-6.88633798514746
30
0
41
1
10
-14.2021759714483
20
-6.82763631844753
30
0
41
1
10
-14.1834523029509
20
-6.80759363972547
30
0
41
1
10
-14.1470479748901
20
-6.76660288333122
30
0
41
1
10
-14.1293429656042
20
-6.74562348347595
30
0
41
1
10
-14.0779142754528
20
-6.68164973874727
30
0
41
1
10
-14.0458764161971
20
-6.63764692539442
30
0
41
1
10
-14.0157764695459
20
-6.59242894057729
30
0
0
SPLINE
5
DC
100
AcDbEntity
8
1
62
256
6
ByLayer
370
13
48
1
60
0
100
AcDbSpline
70
4
71
3
72
22
73
18
40
0
40
0
40
0
40
0
40
0.125
40
0.125
40
0.25
40
0.25
40
0.375
40
0.375
40
0.5
40
0.5
40
0.625
40
0.625
40
0.75
40
0.75
40
0.875
40
0.875
40
1
40
1
40
1
40
1
41
1
10
182
20
4.95111144795348
30
0
41
1
10
182.067348571717
20
5.30643299503478
30
0
41
1
10
182.134697143433
20
5.6502349356586
30
0
41
1
10
182.269394286867
20
6.30479728291331
30
0
41
1
10
182.336742858583
20
6.61552846721591
30
0
41
1
10
182.471440002017
20
7.19536820954852
30
0
41
1
10
182.538788573733
20
7.46445546032336
30
0
41
1
10
182.673485717167
20
7.95468915083831
30
0
41
1
10
182.740834288883
20
8.17582592064628
30
0
41
1
10
182.875531432317
20
8.56658009089003
30
0
41
1
10
182.942880004033
20
8.73620030921657
30
0
41
1
10
183.077577147467
20
9.02318559666131
30
0
41
1
10
183.144925719183
20
9.14056395946147
30
0
41
1
10
183.279622862617
20
9.32492066593102
30
0
41
1
10
183.346971434333
20
9.39191888883082
30
0
41
1
10
183.481668577767
20
9.47944750948753
30
0
41
1
10
183.549017149483
20
9.5
30
0
41
1
10
183.6163657212
20
9.5
30
0
0
SPLINE
5
DD
100
AcDbEntity
8
1
62
256
6
ByLayer
370
13
48
1
60
0
100
AcDbSpline
70
4
71
3
72
85
73
81
40
0
40
0
40
0
40
0
40
0.0312499999999991
40
0.0312499999999991
40
0.0624999999999983
40
0.0624999999999983
40
0.0937499999999974
40
0.0937499999999974
40
0.124999999999997
40
0.124999999999997
40
0.156249999999996
40
0.156249999999996
40
0.187499999999995
40
0.187499999999995
40
0.218749999999994
40
0.218749999999994
40
0.249999999999993
40
0.249999999999993
40
0.281249999999992
40
0.281249999999992
40
0.296874999999992
40
0.296874999999992
40
0.304687499999992
40
0.308593749999992
40
0.308593749999992
40
0.312499999999992
40
0.312499999999992
40
0.343749999999994
40
0.343749999999994
40
0.374999999999996
40
0.374999999999996
40
0.406249999999997
40
0.406249999999997
40
0.437499999999999
40
0.437499999999999
40
0.468750000000001
40
0.468750000000001
40
0.500000000000003
40
0.500000000000003
40
0.531250000000005
40
0.531250000000005
40
0.562500000000007
40
0.562500000000007
40
0.593750000000009
40
0.593750000000009
40
0.60937500000001
40
0.60937500000001
40
0.617187500000011
40
0.621093750000011
40
0.621093750000011
40
0.625000000000011
40
0.625000000000011
40
0.65625000000001
40
0.65625000000001
40
0.68750000000001
40
0.68750000000001
40
0.71875000000001
40
0.71875000000001
40
0.750000000000009
40
0.750000000000009
40
0.781250000000009
40
0.781250000000009
40
0.812500000000008
40
0.812500000000008
40
0.843750000000008
40
0.843750000000008
40
0.875000000000007
40
0.875000000000007
40
0.906250000000007
40
0.906250000000007
40
0.921875000000007
40
0.921875000000007
40
0.929687500000007
40
0.933593750000007
40
0.933593750000007
40
0.937500000000006
40
0.937500000000006
40
0.968750000000003
40
0.968750000000003
40
1
40
1
40
1
40
1
41
1
10
183.982569338675
20
9.5
30
0
41
1
10
184.066524686965
20
9.5
30
0
41
1
10
184.150480035254
20
9.46801877891789
30
0
41
1
10
184.318390731833
20
9.33007991268011
30
0
41
1
10
184.402346080123
20
9.22405656906352
30
0
41
1
10
184.570256776702
20
8.93172123449568
30
0
41
1
10
184.654212124992
20
8.74535787624569
30
0
41
1
10
184.822122821571
20
8.29168746423122
30
0
41
1
10
184.90607816986
20
8.02436305568943
30
0
41
1
10
185.073988866439
20
7.41487692217945
30
0
41
1
10
185.157944214729
20
7.07274372368593
30
0
41
1
10
185.325854911308
20
6.32637355410824
30
0
41
1
10
185.409810259597
20
5.92220719658607
30
0
41
1
10
185.577720956177
20
5.06961245549189
30
0
41
1
10
185.661676304466
20
4.62127724899787
30
0
41
1
10
185.829587001045
20
3.700750195052
30
0
41
1
10
185.913542349335
20
3.22864769144212
30
0
41
1
10
186.081453045914
20
2.28071450131495
30
0
41
1
10
186.165408394203
20
1.80494802164282
30
0
41
1
10
186.291341416638
20
1.10160868332167
30
0
41
1
10
186.333319090782
20
0.868853917304222
30
0
41
1
10
186.396285602
20
0.523611032858213
30
0
41
1
10
186.427768857608
20
0.351958783065442
30
0
41
1
10
186.459252113217
20
0.181984801825791
30
0
41
1
10
186.480240950289
20
0.0690646563001849
30
0
41
1
10
186.490735368825
20
0.0129328850601667
30
0
41
1
10
186.585185135651
20
-0.493451620141371
30
0
41
1
10
186.669140483941
20
-0.956774819216491
30
0
41
1
10
186.83705118052
20
-1.89622377067818
30
0
41
1
10
186.921006528809
20
-2.37231708483176
30
0
41
1
10
187.088917225389
20
-3.31967363310619
30
0
41
1
10
187.172872573678
20
-3.79087063325054
30
0
41
1
10
187.340783270257
20
-4.70825686039859
30
0
41
1
10
187.424738618547
20
-5.15435574853345
30
0
41
1
10
187.592649315125
20
-6.00122292115756
30
0
41
1
10
187.676604663415
20
-6.40189869388462
30
0
41
1
10
187.844515359994
20
-7.14028890368419
30
0
41
1
10
187.928470708284
20
-7.47793498159706
30
0
41
1
10
188.096381404863
20
-8.07784059483714
30
0
41
1
10
188.180336753152
20
-8.34007462560993
30
0
41
1
10
188.348247449731
20
-8.78340399754197
30
0
41
1
10
188.432202798021
20
-8.96451936971749
30
0
41
1
10
188.6001134946
20
-9.24660819792192
30
0
41
1
10
188.68406884289
20
-9.34763456070104
30
0
41
1
10
188.810001865324
20
-9.44401114770062
30
0
41
1
10
188.851979539469
20
-9.46698105171623
30
0
41
1
10
188.914946050686
20
-9.48859209401635
30
0
41
1
10
188.946429306294
20
-9.49618908571375
30
0
41
1
10
188.977912561903
20
-9.49915902579585
30
0
41
1
10
188.998901398975
20
-9.50013246055192
30
0
41
1
10
189.009395817512
20
-9.50011868361526
30
0
41
1
10
189.103845584337
20
-9.49548615140964
30
0
41
1
10
189.187800932627
20
-9.45902285729886
30
0
41
1
10
189.355711629206
20
-9.31157797163189
30
0
41
1
10
189.439666977495
20
-9.20053100144983
30
0
41
1
10
189.607577674074
20
-8.89791946619724
30
0
41
1
10
189.691533022364
20
-8.70630515799192
30
0
41
1
10
189.859443718943
20
-8.24231612170266
30
0
41
1
10
189.943399067233
20
-7.96992676708496
30
0
41
1
10
190.111309763812
20
-7.35093882389049
30
0
41
1
10
190.195265112101
20
-7.00437176814586
30
0
41
1
10
190.36317580868
20
-6.25014961480463
30
0
41
1
10
190.44713115697
20
-5.84256730126134
30
0
41
1
10
190.615041853549
20
-4.98440493086736
30
0
41
1
10
190.698997201838
20
-4.53391860297432
30
0
41
1
10
190.866907898418
20
-3.61041979946117
30
0
41
1
10
190.950863246707
20
-3.13749558206499
30
0
41
1
10
191.118773943286
20
-2.1891420400674
30
0
41
1
10
191.202729291576
20
-1.71377485903824
30
0
41
1
10
191.32866231401
20
-1.01177865870758
30
0
41
1
10
191.370639988155
20
-0.779594887172436
30
0
41
1
10
191.433606499372
20
-0.435367524711239
30
0
41
1
10
191.465089754981
20
-0.264262762298756
30
0
41
1
10
191.496573010589
20
-0.0948908122508669
30
0
41
1
10
191.517561847662
20
0.017616425009038
30
0
41
1
10
191.528056266198
20
0.0737657331719674
30
0
41
1
10
191.622506033023
20
0.582005430846863
30
0
41
1
10
191.706461381313
20
1.04660634068617
30
0
41
1
10
191.874372077892
20
1.98758862207862
30
0
41
1
10
191.958327426182
20
2.46393535404988
30
0
41
1
10
192.042282774471
20
2.93724647202504
30
0
0
SPLINE
5
DE
100
AcDbEntity
8
1
62
256
6
ByLayer
370
13
48
1
60
0
100
AcDbSpline
70
4
71
3
72
14
73
10
40
0
40
0
40
0
40
0
40
0.25
40
0.25
40
0.5
40
0.5
40
0.75
40
0.75
40
1
40
1
40
1
40
1
41
1
10
182
20
7.28644875635405
30
0
41
1
10
182.093393626005
20
7.66141994819645
30
0
41
1
10
182.18678725201
20
7.99307682630075
30
0
41
1
10
182.37357450402
20
8.55764168040528
30
0
41
1
10
182.466968130025
20
8.79055382707062
30
0
41
1
10
182.653755382035
20
9.15588683787018
30
0
41
1
10
182.74714900804
20
9.28838452147164
30
0
41
1
10
182.93393626005
20
9.46038584859181
30
0
41
1
10
183.027329886055
20
9.5
30
0
41
1
10
183.12072351206
20
9.5
30
0
0
SPLINE
5
DF
100
AcDbEntity
8
1
62
256
6
ByLayer
370
13
48
1
60
0
100
AcDbSpline
70
4
71
3
72
86
73
82
40
0
40
0
40
0
40
0
40
0.03125
40
0.03125
40
0.0625
40
0.0625
40
0.09375
40
0.09375
40
0.125
40
0.125
40
0.15625
40
0.15625
40
0.1875
40
0.1875
40
0.21875
40
0.21875
40
0.25
40
0.25
40
0.28125
40
0.28125
40
0.2890625
40
0.2890625
40
0.296875
40
0.296875
40
0.3125
40
0.3125
40
0.34375
40
0.34375
40
0.375
40
0.375
40
0.40625
40
0.40625
40
0.4375
40
0.4375
40
0.46875
40
0.46875
40
0.5
40
0.5
40
0.53125
40
0.53125
40
0.5625
40
0.5625
40
0.578125
40
0.578125
40
0.5859375
40
0.5859375
40
0.58984375
40
0.58984375
40
0.59375
40
0.59375
40
0.625
40
0.625
40
0.65625
40
0.65625
40
0.6875
40
0.6875
40
0.71875
40
0.71875
40
0.75
40
0.75
40
0.78125
40
0.78125
40
0.8125
40
0.8125
40
0.84375
40
0.84375
40
0.875
40
0.875
40
0.87890625
40
0.87890625
40
0.8828125
40
0.8828125
40
0.890625
40
0.890625
40
0.90625
40
0.90625
40
0.9375
40
0.9375
40
0.96875
40
0.96875
40
1
40
1
40
1
40
1
41
1
10
183.486927129535
20
9.5
30
0
41
1
10
183.576045417503
20
9.5
30
0
41
1
10
183.665163705471
20
9.46394606337904
30
0
41
1
10
183.843400281407
20
9.30786610280683
30
0
41
1
10
183.932518569375
20
9.18775210167107
30
0
41
1
10
184.110755145311
20
8.85652940478664
30
0
41
1
10
184.19987343328
20
8.64535593550289
30
0
41
1
10
184.378110009216
20
8.13240693455822
30
0
41
1
10
184.467228297184
20
7.83061882729325
30
0
41
1
10
184.64546487312
20
7.14551415746402
30
0
41
1
10
184.734583161088
20
6.76225131724954
30
0
41
1
10
184.912819737024
20
5.9313664674726
30
0
41
1
10
185.001938024993
20
5.48385232869552
30
0
41
1
10
185.180174600929
20
4.54723208321951
30
0
41
1
10
185.269292888897
20
4.05825352887732
30
0
41
1
10
185.447529464833
20
3.06339077382503
30
0
41
1
10
185.536647752801
20
2.55761491007598
30
0
41
1
10
185.714884328737
20
1.55208029962014
30
0
41
1
10
185.804002616705
20
1.0523858981517
30
0
41
1
10
185.915400476665
20
0.443086164041063
30
0
41
1
10
185.937680048657
20
0.321979244710491
30
0
41
1
10
185.982239192641
20
0.0815051592693692
30
0
41
1
10
186.004518764633
20
-0.0373041792718709
30
0
41
1
10
186.07135748061
20
-0.397367682399477
30
0
41
1
10
186.115916624593
20
-0.640955088423226
30
0
41
1
10
186.249594056546
20
-1.3794484847987
30
0
41
1
10
186.338712344514
20
-1.88223710881556
30
0
41
1
10
186.51694892045
20
-2.889265167404
30
0
41
1
10
186.606067208418
20
-3.39342958322584
30
0
41
1
10
186.784303784354
20
-4.37970561373328
30
0
41
1
10
186.873422072322
20
-4.86170185913861
30
0
41
1
10
187.051658648258
20
-5.77906487476599
30
0
41
1
10
187.140776936226
20
-6.21430489798311
30
0
41
1
10
187.319013512163
20
-7.01626779949348
30
0
41
1
10
187.408131800131
20
-7.38289229004283
30
0
41
1
10
187.586368376067
20
-8.0319575314503
30
0
41
1
10
187.675486664035
20
-8.31435902800365
30
0
41
1
10
187.853723239971
20
-8.78769780570522
30
0
41
1
10
187.942841527939
20
-8.97866107988537
30
0
41
1
10
188.121078103875
20
-9.27042496090991
30
0
41
1
10
188.210196391844
20
-9.37129809896953
30
0
41
1
10
188.343873823796
20
-9.46122213401804
30
0
41
1
10
188.38843296778
20
-9.48101305412339
30
0
41
1
10
188.455271683756
20
-9.49653002466439
30
0
41
1
10
188.477551255748
20
-9.49934268242714
30
0
41
1
10
188.510970613736
20
-9.50017494474159
30
0
41
1
10
188.522110399732
20
-9.49989167090101
30
0
41
1
10
188.544389971724
20
-9.49818563041833
30
0
41
1
10
188.55552975772
20
-9.49676165927778
30
0
41
1
10
188.655787831684
20
-9.4786927748454
30
0
41
1
10
188.744906119652
20
-9.42511080227263
30
0
41
1
10
188.923142695588
20
-9.23191355085964
30
0
41
1
10
189.012260983556
20
-9.0922127416095
30
0
41
1
10
189.190497559493
20
-8.72120002992352
30
0
41
1
10
189.27961584746
20
-8.48983257218759
30
0
41
1
10
189.457852423397
20
-7.93773023387067
30
0
41
1
10
189.546970711365
20
-7.61699692232528
30
0
41
1
10
189.725207287301
20
-6.89713231530644
30
0
41
1
10
189.814325575269
20
-6.49806861091912
30
0
41
1
10
189.992562151205
20
-5.64021047630948
30
0
41
1
10
190.081680439173
20
-5.18153166779442
30
0
41
1
10
190.259917015109
20
-4.22796520216875
30
0
41
1
10
190.349035303078
20
-3.73320395615988
30
0
41
1
10
190.527271879014
20
-2.7320647834151
30
0
41
1
10
190.616390166982
20
-2.22578694433091
30
0
41
1
10
190.794626742918
20
-1.22374599173079
30
0
41
1
10
190.883745030886
20
-0.728036398836508
30
0
41
1
10
190.98400310485
20
-0.186013482837467
30
0
41
1
10
190.995142890846
20
-0.12600256006732
30
0
41
1
10
191.017422462838
20
-0.0064358735008625
30
0
41
1
10
191.028562248834
20
0.0530879517383767
30
0
41
1
10
191.061981606822
20
0.232790882224805
30
0
41
1
10
191.084261178814
20
0.353489807190044
30
0
41
1
10
191.15109989479
20
0.717935168078753
30
0
41
1
10
191.195659038774
20
0.964040930257823
30
0
41
1
10
191.329336470727
20
1.70865139575326
30
0
41
1
10
191.418454758695
20
2.21358829182037
30
0
41
1
10
191.596691334631
20
3.22002088024303
30
0
41
1
10
191.685809622599
20
3.72143125668731
30
0
41
1
10
191.864046198535
20
4.69678027283587
30
0
41
1
10
191.953164486503
20
5.17059794281744
30
0
41
1
10
192.042282774471
20
5.61851958224659
30
0
0
SPLINE
5
E0
100
AcDbEntity
8
1
62
256
6
ByLayer
370
13
48
1
60
0
100
AcDbSpline
70
4
71
3
72
12
73
8
40
0
40
0
40
0
40
0
40
0.249999999999999
40
0.249999999999999
40
0.499999999999998
40
0.499999999999998
40
1
40
1
40
1
40
1
41
1
10
182
20
8.83864427679757
30
0
41
1
10
182.052090108577
20
8.95340212072861
30
0
41
1
10
182.104180217153
20
9.05254734361375
30
0
41
1
10
182.208360434306
20
9.220230690666
30
0
41
1
10
182.260450542883
20
9.28877389007582
30
0
41
1
10
182.416720868613
20
9.45064374598996
30
0
41
1
10
182.520901085766
20
9.5
30
0
41
1
10
182.625081302919
20
9.5
30
0
0
SPLINE
5
E1
100
AcDbEntity
8
1
62
256
6
ByLayer
370
13
48
1
60
0
100
AcDbSpline
70
4
71
3
72
82
73
78
40
0
40
0
40
0
40
0
40
0.0312500000000003
40
0.0312500000000003
40
0.0625000000000005
40
0.0625000000000005
40
0.0937500000000008
40
0.0937500000000008
40
0.125000000000001
40
0.125000000000001
40
0.156250000000001
40
0.156250000000001
40
0.187500000000002
40
0.187500000000002
40
0.218750000000002
40
0.218750000000002
40
0.250000000000002
40
0.250000000000002
40
0.265625000000002
40
0.265625000000002
40
0.273437500000002
40
0.273437500000002
40
0.281250000000002
40
0.281250000000002
40
0.312500000000002
40
0.312500000000002
40
0.343750000000002
40
0.343750000000002
40
0.375000000000002
40
0.375000000000002
40
0.406250000000002
40
0.406250000000002
40
0.437500000000002
40
0.437500000000002
40
0.468750000000002
40
0.468750000000002
40
0.500000000000002
40
0.500000000000002
40
0.531250000000002
40
0.531250000000002
40
0.546875000000002
40
0.546875000000002
40
0.554687500000002
40
0.554687500000002
40
0.562500000000002
40
0.562500000000002
40
0.593750000000002
40
0.593750000000002
40
0.625000000000002
40
0.625000000000002
40
0.656250000000002
40
0.656250000000002
40
0.687500000000002
40
0.687500000000002
40
0.718750000000001
40
0.718750000000001
40
0.750000000000001
40
0.750000000000001
40
0.781250000000001
40
0.781250000000001
40
0.812500000000001
40
0.812500000000001
40
0.828125000000001
40
0.828125000000001
40
0.835937500000001
40
0.835937500000001
40
0.843750000000001
40
0.843750000000001
40
0.875000000000001
40
0.875000000000001
40
0.906250000000001
40
0.906250000000001
40
0.9375
40
0.9375
40
0.96875
40
0.96875
40
1
40
1
40
1
40
1
41
1
10
182.991284920395
20
9.5
30
0
41
1
10
183.085566148041
20
9.5
30
0
41
1
10
183.179847375688
20
9.45962534302274
30
0
41
1
10
183.368409830981
20
9.28421594969211
30
0
41
1
10
183.462691058628
20
9.14906551772197
30
0
41
1
10
183.651253513921
20
8.77643462218524
30
0
41
1
10
183.745534741568
20
8.53887476466377
30
0
41
1
10
183.934097196861
20
7.96331518096136
30
0
41
1
10
184.028378424508
20
7.62531367233487
30
0
41
1
10
184.216940879801
20
6.86168451607332
30
0
41
1
10
184.311222107447
20
6.43614731862741
30
0
41
1
10
184.499784562741
20
5.51987224367153
30
0
41
1
10
184.594065790387
20
5.02929007489763
30
0
41
1
10
184.782628245681
20
4.01112636974855
30
0
41
1
10
184.876909473327
20
3.48371004107099
30
0
41
1
10
185.065471928621
20
2.42081318792287
30
0
41
1
10
185.159753156267
20
1.88545484588491
30
0
41
1
10
185.301174997737
20
1.09524967701697
30
0
41
1
10
185.348315611561
20
0.83394576250285
30
0
41
1
10
185.419026532296
20
0.447042478395531
30
0
41
1
10
185.442596839207
20
0.318913495835972
30
0
41
1
10
185.48973745303
20
0.064609834861443
30
0
41
1
10
185.513307759942
20
-0.0610356224679549
30
0
41
1
10
185.6311592945
20
-0.696702789485613
30
0
41
1
10
185.725440522147
20
-1.22115957129103
30
0
41
1
10
185.91400297744
20
-2.28162718050908
30
0
41
1
10
186.008284205087
20
-2.81756591374921
30
0
41
1
10
186.19684666038
20
-3.87468660532363
30
0
41
1
10
186.291127888027
20
-4.39573215523879
30
0
41
1
10
186.47969034332
20
-5.3939095180761
30
0
41
1
10
186.573971570967
20
-5.87087288481442
30
0
41
1
10
186.76253402626
20
-6.75361318361584
30
0
41
1
10
186.856815253906
20
-7.15924600942137
30
0
41
1
10
187.0453777092
20
-7.87885437155882
30
0
41
1
10
187.139658936846
20
-8.19276140944933
30
0
41
1
10
187.32822139214
20
-8.71861390233209
30
0
41
1
10
187.422502619786
20
-8.93058318146657
30
0
41
1
10
187.61106507508
20
-9.25311590897755
30
0
41
1
10
187.705346302726
20
-9.36377203584172
30
0
41
1
10
187.846768144196
20
-9.46086170820661
30
0
41
1
10
187.89390875802
20
-9.48180287558765
30
0
41
1
10
187.964619678754
20
-9.4973908931585
30
0
41
1
10
187.988189985666
20
-9.4999519988549
30
0
41
1
10
188.035330599489
20
-9.50004666379763
30
0
41
1
10
188.058900906401
20
-9.49758252398772
30
0
41
1
10
188.176752440959
20
-9.47209853314891
30
0
41
1
10
188.271033668606
20
-9.40937918588338
30
0
41
1
10
188.459596123899
20
-9.18664214419883
30
0
41
1
10
188.553877351546
20
-9.02651346511851
30
0
41
1
10
188.742439806839
20
-8.6034113815505
30
0
41
1
10
188.836721034486
20
-8.34037454288145
30
0
41
1
10
189.025283489779
20
-7.71601858003581
30
0
41
1
10
189.119564717426
20
-7.35472069637731
30
0
41
1
10
189.308127172719
20
-6.54926934943384
30
0
41
1
10
189.402408400365
20
-6.10522656611283
30
0
41
1
10
189.590970855659
20
-5.15857459564117
30
0
41
1
10
189.685252083305
20
-4.65612912636587
30
0
41
1
10
189.873814538599
20
-3.62153206876536
30
0
41
1
10
189.968095766245
20
-3.08953909603153
30
0
41
1
10
190.156658221539
20
-2.02421447441301
30
0
41
1
10
190.250939449185
20
-1.49098929969321
30
0
41
1
10
190.392361290655
20
-0.707953043917883
30
0
41
1
10
190.439501904478
20
-0.449695202846442
30
0
41
1
10
190.510212825213
20
-0.0681845900782605
30
0
41
1
10
190.533783132125
20
0.0574619535328793
30
0
41
1
10
190.580923745948
20
0.311691979589369
30
0
41
1
10
190.60449405286
20
0.439786617846892
30
0
41
1
10
190.722345587418
20
1.08446737840694
30
0
41
1
10
190.816626815065
20
1.61393286482689
30
0
41
1
10
191.005189270358
20
2.67837353310756
30
0
41
1
10
191.099470498005
20
3.21325953775775
30
0
41
1
10
191.288032953298
20
4.26115506086535
30
0
41
1
10
191.382314180945
20
4.77401596204948
30
0
41
1
10
191.570876636238
20
5.74869362897468
30
0
41
1
10
191.665157863885
20
6.21034232305715
30
0
41
1
10
191.853720319178
20
7.05658113395788
30
0
41
1
10
191.948001546825
20
7.44104205103042
30
0
41
1
10
192.042282774471
20
7.77788689124887
30
0
0
SPLINE
5
E2
100
AcDbEntity
8
1
62
256
6
ByLayer
370
13
48
1
60
0
100
AcDbSpline
70
4
71
3
72
8
73
4
40
0
40
0
40
0
40
0
40
1
40
1
40
1
40
1
41
1
10
182
20
9.47400250646544
30
0
41
1
10
182.043146364593
20
9.49157582673951
30
0
41
1
10
182.086292729186
20
9.5
30
0
41
1
10
182.129439093779
20
9.5
30
0
0
SPLINE
5
E3
100
AcDbEntity
8
1
62
256
6
ByLayer
370
13
48
1
60
0
100
AcDbSpline
70
4
71
3
72
120
73
116
40
0
40
0
40
0
40
0
40
0.0312499999999983
40
0.0312499999999983
40
0.0624999999999966
40
0.0624999999999966
40
0.0781249999999959
40
0.0781249999999959
40
0.0937499999999952
40
0.0937499999999952
40
0.109374999999994
40
0.109374999999994
40
0.124999999999994
40
0.124999999999994
40
0.140624999999993
40
0.140624999999993
40
0.156249999999992
40
0.156249999999992
40
0.171874999999992
40
0.171874999999992
40
0.187499999999991
40
0.187499999999991
40
0.218749999999989
40
0.218749999999989
40
0.249999999999988
40
0.249999999999988
40
0.257812499999987
40
0.257812499999987
40
0.261718749999987
40
0.261718749999987
40
0.265624999999987
40
0.265624999999987
40
0.281249999999987
40
0.281249999999987
40
0.312499999999986
40
0.312499999999986
40
0.343749999999985
40
0.343749999999985
40
0.359374999999984
40
0.359374999999984
40
0.374999999999984
40
0.374999999999984
40
0.390624999999983
40
0.390624999999983
40
0.406249999999983
40
0.406249999999983
40
0.421874999999982
40
0.421874999999982
40
0.437499999999982
40
0.437499999999982
40
0.453124999999981
40
0.453124999999981
40
0.468749999999981
40
0.468749999999981
40
0.499999999999979
40
0.499999999999979
40
0.515624999999979
40
0.515624999999979
40
0.523437499999978
40
0.523437499999978
40
0.527343749999978
40
0.527343749999978
40
0.531249999999978
40
0.531249999999978
40
0.562499999999979
40
0.562499999999979
40
0.59374999999998
40
0.59374999999998
40
0.609374999999981
40
0.609374999999981
40
0.624999999999981
40
0.624999999999981
40
0.640624999999982
40
0.640624999999982
40
0.656249999999982
40
0.656249999999982
40
0.671874999999983
40
0.671874999999983
40
0.687499999999983
40
0.687499999999983
40
0.703124999999984
40
0.703124999999984
40
0.718749999999984
40
0.718749999999984
40
0.749999999999985
40
0.749999999999985
40
0.781249999999986
40
0.781249999999986
40
0.789062499999987
40
0.789062499999987
40
0.796874999999987
40
0.796874999999987
40
0.812499999999989
40
0.812499999999989
40
0.843749999999991
40
0.843749999999991
40
0.859374999999992
40
0.859374999999992
40
0.874999999999992
40
0.874999999999992
40
0.890624999999993
40
0.890624999999993
40
0.906249999999994
40
0.906249999999994
40
0.921874999999995
40
0.921874999999995
40
0.937499999999996
40
0.937499999999996
40
0.953124999999997
40
0.953124999999997
40
0.968749999999998
40
0.968749999999998
40
0.984374999999999
40
0.984374999999999
40
1
40
1
40
1
40
1
41
1
10
182.495642711254
20
9.5
30
0
41
1
10
182.59508687858
20
9.5
30
0
41
1
10
182.694531045905
20
9.4550555949202
30
0
41
1
10
182.893419380555
20
9.25911927134752
30
0
41
1
10
182.99286354788
20
9.10797767599664
30
0
41
1
10
183.142029798868
20
8.79556532191046
30
0
41
1
10
183.191751882531
20
8.6772239996528
30
0
41
1
10
183.291196049856
20
8.41223584580206
30
0
41
1
10
183.340918133518
20
8.26558760158019
30
0
41
1
10
183.440362300844
20
7.94491258672144
30
0
41
1
10
183.490084384506
20
7.77088635011617
30
0
41
1
10
183.589528551831
20
7.39722743203205
30
0
41
1
10
183.639250635494
20
7.19759733828514
30
0
41
1
10
183.738694802819
20
6.77530122487195
30
0
41
1
10
183.788416886482
20
6.55263968233882
30
0
41
1
10
183.887861053807
20
6.08754274407622
30
0
41
1
10
183.937583137469
20
5.84511329093019
30
0
41
1
10
184.037027304795
20
5.34427597815056
30
0
41
1
10
184.086749388457
20
5.08587491042573
30
0
41
1
10
184.186193555782
20
4.55722962635878
30
0
41
1
10
184.235915639445
20
4.28699235020272
30
0
41
1
10
184.385081890433
20
3.46491528601129
30
0
41
1
10
184.484526057758
20
2.90185487619118
30
0
41
1
10
184.683414392408
20
1.77823886877283
30
0
41
1
10
184.782858559733
20
1.21781039472199
30
0
41
1
10
184.90716376889
20
0.535518963597895
30
0
41
1
10
184.932024810721
20
0.399953474079865
30
0
41
1
10
184.969316373468
20
0.198193373138651
30
0
41
1
10
184.981746894384
20
0.131204427397648
30
0
41
1
10
185.006607936215
20
-0.0022063634665699
30
0
41
1
10
185.019038457131
20
-0.068640760375672
30
0
41
1
10
185.081191061709
20
-0.403160823127195
30
0
41
1
10
185.130913145372
20
-0.675228560574595
30
0
41
1
10
185.280079396359
20
-1.50073174045406
30
0
41
1
10
185.379523563685
20
-2.06369345531408
30
0
41
1
10
185.578411898335
20
-3.187160131583
30
0
41
1
10
185.67785606566
20
-3.74752255068111
30
0
41
1
10
185.827022316648
20
-4.56117176464826
30
0
41
1
10
185.87674440031
20
-4.82787654406937
30
0
41
1
10
185.976188567635
20
-5.34803141251385
30
0
41
1
10
186.025910651298
20
-5.60147453278907
30
0
41
1
10
186.125354818623
20
-6.09106205764252
30
0
41
1
10
186.175076902286
20
-6.32719988116173
30
0
41
1
10
186.274521069611
20
-6.7785395329559
30
0
41
1
10
186.324243153274
20
-6.99373585354883
30
0
41
1
10
186.423687320599
20
-7.40014591182563
30
0
41
1
10
186.473409404262
20
-7.59135577677699
30
0
41
1
10
186.572853571587
20
-7.94747975535881
30
0
41
1
10
186.622575655249
20
-8.11239197217716
30
0
41
1
10
186.722019822574
20
-8.41442853514337
30
0
41
1
10
186.771741906237
20
-8.5515530311977
30
0
41
1
10
186.871186073562
20
-8.797369298056
30
0
41
1
10
186.920908157225
20
-8.90606307395055
30
0
41
1
10
187.070074408212
20
-9.18974897551738
30
0
41
1
10
187.169518575538
20
-9.32205108689888
30
0
41
1
10
187.318684826525
20
-9.44248980031247
30
0
41
1
10
187.368406910188
20
-9.46971336760018
30
0
41
1
10
187.442990035682
20
-9.4926413199874
30
0
41
1
10
187.467851077513
20
-9.49730260627163
30
0
41
1
10
187.50514264026
20
-9.50003130130548
30
0
41
1
10
187.517573161176
20
-9.50023342952503
30
0
41
1
10
187.542434203007
20
-9.49923815099638
30
0
41
1
10
187.554864723922
20
-9.49803535307854
30
0
41
1
10
187.666739412164
20
-9.48070328969263
30
0
41
1
10
187.766183579489
20
-9.41876704677836
30
0
41
1
10
187.965071914139
20
-9.18675098800935
30
0
41
1
10
188.064516081464
20
-9.01652614977749
30
0
41
1
10
188.213682332452
20
-8.67528737000151
30
0
41
1
10
188.263404416115
20
-8.54730912401567
30
0
41
1
10
188.36284858344
20
-8.26326605599419
30
0
41
1
10
188.412570667102
20
-8.10720045295722
30
0
41
1
10
188.512014834427
20
-7.76819719306553
30
0
41
1
10
188.56173691809
20
-7.58526076683808
30
0
41
1
10
188.661181085415
20
-7.19456664167393
30
0
41
1
10
188.710903169078
20
-6.98681220245214
30
0
41
1
10
188.810347336403
20
-6.54930153988474
30
0
41
1
10
188.860069420066
20
-6.31955034887079
30
0
41
1
10
188.959513587391
20
-5.84150873490859
30
0
41
1
10
189.009235671053
20
-5.59322461785698
30
0
41
1
10
189.108679838378
20
-5.08205054252136
30
0
41
1
10
189.158401922041
20
-4.81916750556692
30
0
41
1
10
189.257846089366
20
-4.28299873908497
30
0
41
1
10
189.307568173029
20
-4.00971984384282
30
0
41
1
10
189.456734424017
20
-3.18067488398094
30
0
41
1
10
189.556178591342
20
-2.61587053206577
30
0
41
1
10
189.755066925992
20
-1.49382751034372
30
0
41
1
10
189.854511093317
20
-0.936700099228744
30
0
41
1
10
189.978816302474
20
-0.260836802845546
30
0
41
1
10
190.003677344305
20
-0.126742955347339
30
0
41
1
10
190.053399427968
20
0.139412436615515
30
0
41
1
10
190.078260469799
20
0.273646869091095
30
0
41
1
10
190.152843595293
20
0.679355861185826
30
0
41
1
10
190.202565678955
20
0.953852805956132
30
0
41
1
10
190.351731929943
20
1.78508674907002
30
0
41
1
10
190.451176097268
20
2.34977520184967
30
0
41
1
10
190.600342348256
20
3.19092827284606
30
0
41
1
10
190.650064431919
20
3.47027540155852
30
0
41
1
10
190.749508599244
20
4.02277598150857
30
0
41
1
10
190.799230682907
20
4.29592330047112
30
0
41
1
10
190.898674850232
20
4.83176120535657
30
0
41
1
10
190.948396933894
20
5.09444495036087
30
0
41
1
10
191.047841101219
20
5.60515535253305
30
0
41
1
10
191.097563184882
20
5.85317509260989
30
0
41
1
10
191.197007352207
20
6.3306287925395
30
0
41
1
10
191.24672943587
20
6.56005646184653
30
0
41
1
10
191.346173603195
20
6.99686986475314
30
0
41
1
10
191.395895686857
20
7.20425059081009
30
0
41
1
10
191.495339854183
20
7.59415842144585
30
0
41
1
10
191.545061937845
20
7.77668229722164
30
0
41
1
10
191.64450610517
20
8.11483449051514
30
0
41
1
10
191.694228188833
20
8.27046161018416
30
0
41
1
10
191.793672356158
20
8.55361523029117
30
0
41
1
10
191.843394439821
20
8.68114254209286
30
0
41
1
10
191.942838607146
20
8.90773381551338
30
0
41
1
10
191.992560690808
20
9.00680032856647
30
0
41
1
10
192.042282774471
20
9.09184911579331
30
0
0
SPLINE
5
E4
100
AcDbEntity
8
1
62
256
6
ByLayer
370
13
48
1
60
0
100
AcDbSpline
70
4
71
3
72
118
73
114
40
0
40
0
40
0
40
0
40
0.0312499999999998
40
0.0312499999999998
40
0.0468749999999998
40
0.0468749999999998
40
0.0624999999999997
40
0.0624999999999997
40
0.0781249999999996
40
0.0781249999999996
40
0.0937499999999995
40
0.0937499999999995
40
0.109374999999999
40
0.109374999999999
40
0.124999999999999
40
0.124999999999999
40
0.140624999999999
40
0.140624999999999
40
0.156249999999999
40
0.156249999999999
40
0.171874999999999
40
0.171874999999999
40
0.187499999999999
40
0.187499999999999
40
0.203124999999999
40
0.203124999999999
40
0.218749999999999
40
0.218749999999999
40
0.249999999999999
40
0.249999999999999
40
0.281249999999999
40
0.281249999999999
40
0.296874999999999
40
0.296874999999999
40
0.312499999999999
40
0.312499999999999
40
0.328124999999999
40
0.328124999999999
40
0.343749999999999
40
0.343749999999999
40
0.359374999999999
40
0.359374999999999
40
0.374999999999999
40
0.374999999999999
40
0.390624999999999
40
0.390624999999999
40
0.40625
40
0.40625
40
0.421875
40
0.421875
40
0.4375
40
0.4375
40
0.453125
40
0.453125
40
0.46875
40
0.46875
40
0.5
40
0.5
40
0.53125
40
0.53125
40
0.546875
40
0.546875
40
0.5625
40
0.5625
40
0.578125
40
0.578125
40
0.59375
40
0.59375
40
0.609375
40
0.609375
40
0.625
40
0.625
40
0.640625
40
0.640625
40
0.65625
40
0.65625
40
0.671875
40
0.671875
40
0.6875
40
0.6875
40
0.703125
40
0.703125
40
0.71875
40
0.71875
40
0.75
40
0.75
40
0.78125
40
0.78125
40
0.796875
40
0.796875
40
0.8125
40
0.8125
40
0.828125
40
0.828125
40
0.84375
40
0.84375
40
0.859375
40
0.859375
40
0.875
40
0.875
40
0.890625
40
0.890625
40
0.90625
40
0.90625
40
0.921875
40
0.921875
40
0.9375
40
0.9375
40
0.953125
40
0.953125
40
0.96875
40
0.96875
40
1
40
1
40
1
40
1
41
1
10
182.000000502114
20
9.5
30
0
41
1
10
182.104607609118
20
9.5
30
0
41
1
10
182.209214716121
20
9.4502357059398
30
0
41
1
10
182.366125376627
20
9.2869836714541
30
0
41
1
10
182.418428930129
20
9.21785234322078
30
0
41
1
10
182.523036037133
20
9.04872793843882
30
0
41
1
10
182.575339590635
20
8.94872969776333
30
0
41
1
10
182.679946697638
20
8.7172481613118
30
0
41
1
10
182.73225025114
20
8.58576135813001
30
0
41
1
10
182.836857358144
20
8.29163499223009
30
0
41
1
10
182.889160911646
20
8.12899423162813
30
0
41
1
10
182.993768018649
20
7.77392080109237
30
0
41
1
10
183.046071572151
20
7.58148964422978
30
0
41
1
10
183.150678679155
20
7.16922135257397
30
0
41
1
10
183.202982232657
20
6.94938847654984
30
0
41
1
10
183.307589339661
20
6.48564092249165
30
0
41
1
10
183.359892893162
20
6.2417328746082
30
0
41
1
10
183.464500000166
20
5.73393221250811
30
0
41
1
10
183.516803553668
20
5.47004786794085
30
0
41
1
10
183.621410660672
20
4.92693826104127
30
0
41
1
10
183.673714214174
20
4.64772195449007
30
0
41
1
10
183.778321321177
20
4.07887625216944
30
0
41
1
10
183.830624874679
20
3.78925550633303
30
0
41
1
10
183.935231981683
20
3.20454502782144
30
0
41
1
10
183.987535535185
20
2.90946278646825
30
0
41
1
10
184.092142642188
20
2.31854444788456
30
0
41
1
10
184.14444619569
20
2.0227140968257
30
0
41
1
10
184.301356856196
20
1.14052065270099
30
0
41
1
10
184.4059639632
20
0.559793528597083
30
0
41
1
10
184.615178177207
20
-0.559792185094238
30
0
41
1
10
184.719785284211
20
-1.14051925235393
30
0
41
1
10
184.876695944716
20
-2.02271267973495
30
0
41
1
10
184.928999498218
20
-2.318543028427
30
0
41
1
10
185.033606605222
20
-2.90946136951771
30
0
41
1
10
185.085910158724
20
-3.20454361574784
30
0
41
1
10
185.190517265728
20
-3.78925411179625
30
0
41
1
10
185.242820819229
20
-4.07887487029495
30
0
41
1
10
185.347427926233
20
-4.64772060590505
30
0
41
1
10
185.399731479735
20
-4.9269369330847
30
0
41
1
10
185.504338586739
20
-5.47004658897117
30
0
41
1
10
185.556642140241
20
-5.73393096189659
30
0
41
1
10
185.661249247244
20
-6.24173168777634
30
0
41
1
10
185.713552800746
20
-6.48563977107929
30
0
41
1
10
185.81815990775
20
-6.9493874019737
30
0
41
1
10
185.870463461252
20
-7.16922031941121
30
0
41
1
10
185.975070568255
20
-7.58148869850447
30
0
41
1
10
186.027374121757
20
-7.77391990138696
30
0
41
1
10
186.131981228761
20
-8.1289934269808
30
0
41
1
10
186.184284782263
20
-8.29163423661652
30
0
41
1
10
186.288891889267
20
-8.58576070193675
30
0
41
1
10
186.341195442768
20
-8.71724755550096
30
0
41
1
10
186.445802549772
20
-8.94872919246248
30
0
41
1
10
186.498106103274
20
-9.04872748326233
30
0
41
1
10
186.602713210278
20
-9.21785198659987
30
0
41
1
10
186.65501676378
20
-9.28698336326238
30
0
41
1
10
186.811927424285
20
-9.45023553871312
30
0
41
1
10
186.916534531289
20
-9.49999992083323
30
0
41
1
10
187.125748745296
20
-9.50000007916657
30
0
41
1
10
187.2303558523
20
-9.45023587316632
30
0
41
1
10
187.387266512806
20
-9.28698397964556
30
0
41
1
10
187.439570066308
20
-9.21785269984144
30
0
41
1
10
187.544177173311
20
-9.04872839361505
30
0
41
1
10
187.596480726813
20
-8.94873020306389
30
0
41
1
10
187.701087833817
20
-8.71724876712236
30
0
41
1
10
187.753391387319
20
-8.58576201432302
30
0
41
1
10
187.857998494322
20
-8.2916357478434
30
0
41
1
10
187.910302047824
20
-8.1289950362752
30
0
41
1
10
188.014909154828
20
-7.77392170079756
30
0
41
1
10
188.06721270833
20
-7.58149058995485
30
0
41
1
10
188.171819815333
20
-7.16922238573653
30
0
41
1
10
188.224123368835
20
-6.94938955112579
30
0
41
1
10
188.328730475839
20
-6.48564207390382
30
0
41
1
10
188.381034029341
20
-6.24173406143993
30
0
41
1
10
188.485641136345
20
-5.73393346311946
30
0
41
1
10
188.537944689847
20
-5.47004914691044
30
0
41
1
10
188.64255179685
20
-4.92693958899778
30
0
41
1
10
188.694855350352
20
-4.64772330307497
30
0
41
1
10
188.799462457356
20
-4.07887763404386
30
0
41
1
10
188.851766010858
20
-3.78925690086979
30
0
41
1
10
188.956373117861
20
-3.20454643989501
30
0
41
1
10
189.008676671363
20
-2.90946420341876
30
0
41
1
10
189.113283778367
20
-2.31854586734212
30
0
41
1
10
189.165587331869
20
-2.0227155139165
30
0
41
1
10
189.322497992374
20
-1.14052205304807
30
0
41
1
10
189.427105099378
20
-0.559794904891902
30
0
41
1
10
189.636319313386
20
0.559790874383197
30
0
41
1
10
189.740926420389
20
1.14051785200695
30
0
41
1
10
189.897837080895
20
2.02271126264418
30
0
41
1
10
189.950140634397
20
2.31854160896944
30
0
41
1
10
190.0547477414
20
2.90945995256717
30
0
41
1
10
190.107051294902
20
3.20454220367418
30
0
41
1
10
190.211658401906
20
3.78925271725939
30
0
41
1
10
190.263961955408
20
4.07887348842038
30
0
41
1
10
190.368569062411
20
4.64771925731995
30
0
41
1
10
190.420872615913
20
4.92693560512799
30
0
41
1
10
190.525479722917
20
5.47004531000135
30
0
41
1
10
190.577783276419
20
5.73392971128496
30
0
41
1
10
190.682390383423
20
6.24173050094427
30
0
41
1
10
190.734693936925
20
6.48563861966679
30
0
41
1
10
190.839301043928
20
6.94938632739738
30
0
41
1
10
190.89160459743
20
7.16921928624825
30
0
41
1
10
190.996211704434
20
7.58148775277897
30
0
41
1
10
191.048515257936
20
7.77391900168132
30
0
41
1
10
191.153122364939
20
8.12899262233324
30
0
41
1
10
191.205425918441
20
8.29163348100272
30
0
41
1
10
191.310033025445
20
8.58576004574323
30
0
41
1
10
191.362336578947
20
8.71724694968992
30
0
41
1
10
191.466943685951
20
8.94872868716143
30
0
41
1
10
191.519247239453
20
9.04872702808558
30
0
41
1
10
191.623854346456
20
9.21785162997872
30
0
41
1
10
191.676157899958
20
9.28698305507044
30
0
41
1
10
191.833068560464
20
9.45023537148617
30
0
41
1
10
191.937675667467
20
9.49999984166627
30
0
41
1
10
192.042282774471
20
9.49999999999963
30
0
0
SPLINE
5
E5
100
AcDbEntity
8
1
62
256
6
ByLayer
370
13
48
1
60
0
100
AcDbSpline
70
4
71
3
72
119
73
115
40
0
40
0
40
0
40
0
40
0.0156250000000004
40
0.0156250000000004
40
0.0312500000000008
40
0.0312500000000008
40
0.0468750000000012
40
0.0468750000000012
40
0.0625000000000016
40
0.0625000000000016
40
0.078125000000002
40
0.078125000000002
40
0.0937500000000024
40
0.0937500000000024
40
0.109375000000003
40
0.109375000000003
40
0.125000000000003
40
0.125000000000003
40
0.140625000000003
40
0.140625000000003
40
0.156250000000004
40
0.156250000000004
40
0.187500000000004
40
0.187500000000004
40
0.203125000000005
40
0.203125000000005
40
0.210937500000005
40
0.210937500000005
40
0.218750000000005
40
0.218750000000005
40
0.250000000000005
40
0.250000000000005
40
0.281250000000006
40
0.281250000000006
40
0.296875000000006
40
0.296875000000006
40
0.312500000000006
40
0.312500000000006
40
0.328125000000006
40
0.328125000000006
40
0.343750000000006
40
0.343750000000006
40
0.359375000000006
40
0.359375000000006
40
0.375000000000006
40
0.375000000000006
40
0.390625000000006
40
0.390625000000006
40
0.406250000000006
40
0.406250000000006
40
0.437500000000006
40
0.437500000000006
40
0.468750000000007
40
0.468750000000007
40
0.472656250000007
40
0.472656250000007
40
0.476562500000007
40
0.476562500000007
40
0.484375000000007
40
0.484375000000007
40
0.500000000000006
40
0.500000000000006
40
0.531250000000005
40
0.531250000000005
40
0.546875000000004
40
0.546875000000004
40
0.562500000000004
40
0.562500000000004
40
0.578125000000003
40
0.578125000000003
40
0.593750000000002
40
0.593750000000002
40
0.609375000000002
40
0.609375000000002
40
0.625000000000001
40
0.625000000000001
40
0.640625
40
0.640625
40
0.656249999999999
40
0.656249999999999
40
0.687499999999998
40
0.687499999999998
40
0.718749999999997
40
0.718749999999997
40
0.734374999999996
40
0.734374999999996
40
0.738281249999996
40
0.738281249999996
40
0.742187499999996
40
0.749999999999996
40
0.749999999999996
40
0.781249999999996
40
0.781249999999996
40
0.812499999999997
40
0.812499999999997
40
0.828124999999997
40
0.828124999999997
40
0.843749999999997
40
0.843749999999997
40
0.859374999999997
40
0.859374999999997
40
0.874999999999998
40
0.874999999999998
40
0.890624999999998
40
0.890624999999998
40
0.906249999999998
40
0.906249999999998
40
0.921874999999999
40
0.921874999999999
40
0.937499999999999
40
0.937499999999999
40
0.968749999999999
40
0.968749999999999
40
1
40
1
40
1
40
1
41
1
10
182
20
9.09185083350695
30
0
41
1
10
182.049722088893
20
9.00680222566353
30
0
41
1
10
182.099444177786
20
8.90773589170996
30
0
41
1
10
182.198888355572
20
8.68114497081038
30
0
41
1
10
182.248610444465
20
8.55361783241864
30
0
41
1
10
182.348054622251
20
8.2704645481449
30
0
41
1
10
182.397776711144
20
8.11483759088637
30
0
41
1
10
182.497220888929
20
7.77668570631053
30
0
41
1
10
182.546942977822
20
7.59416197682927
30
0
41
1
10
182.646387155608
20
7.20425441814302
30
0
41
1
10
182.696109244501
20
6.99687381773046
30
0
41
1
10
182.795553422287
20
6.56006064187306
30
0
41
1
10
182.84527551118
20
6.33063307396378
30
0
41
1
10
182.944719688966
20
5.85317955019693
30
0
41
1
10
182.994441777859
20
5.60515988488257
30
0
41
1
10
183.093885955645
20
5.0944496045654
30
0
41
1
10
183.143608044538
20
4.8317659066557
30
0
41
1
10
183.243052222324
20
4.29592806861768
30
0
41
1
10
183.292774311217
20
4.02278076941406
30
0
41
1
10
183.392218489002
20
3.47028020321014
30
0
41
1
10
183.441940577895
20
3.19093306849382
30
0
41
1
10
183.591106844574
20
2.34977994470384
30
0
41
1
10
183.69055102236
20
1.78509141017926
30
0
41
1
10
183.839717289039
20
0.953857295643559
30
0
41
1
10
183.889439377932
20
0.679360285656088
30
0
41
1
10
183.964022511271
20
0.273651186477252
30
0
41
1
10
183.988883555718
20
0.139416716763975
30
0
41
1
10
184.03860564461
20
-0.126738752293335
30
0
41
1
10
184.063466689057
20
-0.260832544067142
30
0
41
1
10
184.187771911289
20
-0.93669580576065
30
0
41
1
10
184.287216089075
20
-1.49382322025139
30
0
41
1
10
184.486104444647
20
-2.61586632401787
30
0
41
1
10
184.585548622433
20
-3.18067075478186
30
0
41
1
10
184.734714889112
20
-4.00971589103946
30
0
41
1
10
184.784436978005
20
-4.2829948546607
30
0
41
1
10
184.883881155791
20
-4.81916377591509
30
0
41
1
10
184.933603244684
20
-5.08204689926126
30
0
41
1
10
185.03304742247
20
-5.59322116330162
30
0
41
1
10
185.082769511362
20
-5.84150538266135
30
0
41
1
10
185.182213689148
20
-6.31954721421531
30
0
41
1
10
185.231935778041
20
-6.54929852050515
30
0
41
1
10
185.331379955827
20
-6.98680942299103
30
0
41
1
10
185.38110204472
20
-7.19456398684588
30
0
41
1
10
185.480546222506
20
-7.58525836663301
30
0
41
1
10
185.530268311399
20
-7.76819492284028
30
0
41
1
10
185.629712489185
20
-8.10719844393739
30
0
41
1
10
185.679434578078
20
-8.26326417819061
30
0
41
1
10
185.778878755864
20
-8.5473075059746
30
0
41
1
10
185.828600844757
20
-8.67528588049927
30
0
41
1
10
185.977767111435
20
-9.01652503669038
30
0
41
1
10
186.077211289221
20
-9.18675011321133
30
0
41
1
10
186.276099644793
20
-9.41876660364113
30
0
41
1
10
186.375543822579
20
-9.48070303994021
30
0
41
1
10
186.487418522588
20
-9.49803529131435
30
0
41
1
10
186.499849044811
20
-9.49923810971626
30
0
41
1
10
186.524710089258
20
-9.50023342840277
30
0
41
1
10
186.537140611481
20
-9.50003131983766
30
0
41
1
10
186.574432178151
20
-9.49730268459462
30
0
41
1
10
186.599293222597
20
-9.49264143858534
30
0
41
1
10
186.673876355937
20
-9.46971360794592
30
0
41
1
10
186.723598444829
20
-9.44249012306446
30
0
41
1
10
186.872764711508
20
-9.32205165763347
30
0
41
1
10
186.972208889294
20
-9.18974971267187
30
0
41
1
10
187.121375155973
20
-8.90606404823706
30
0
41
1
10
187.171097244866
20
-8.79737034927712
30
0
41
1
10
187.270541422652
20
-8.55155422960925
30
0
41
1
10
187.320263511545
20
-8.41442980380455
30
0
41
1
10
187.419707689331
20
-8.11239337234395
30
0
41
1
10
187.469429778224
20
-7.9474812167756
30
0
41
1
10
187.56887395601
20
-7.59135734972674
30
0
41
1
10
187.618596044903
20
-7.40014753505346
30
0
41
1
10
187.718040222688
20
-6.99373756489896
30
0
41
1
10
187.767762311581
20
-6.77854128214727
30
0
41
1
10
187.867206489367
20
-6.32720169276226
30
0
41
1
10
187.91692857826
20
-6.09106389381026
30
0
41
1
10
188.016372756046
20
-5.60147640466377
30
0
41
1
10
188.066094844939
20
-5.34803329552989
30
0
41
1
10
188.165539022725
20
-4.82787843645906
30
0
41
1
10
188.215261111618
20
-4.56117365527382
30
0
41
1
10
188.364427378297
20
-3.74752441831876
30
0
41
1
10
188.463871556082
20
-3.18716196016456
30
0
41
1
10
188.662759911654
20
-2.06369517211704
30
0
41
1
10
188.76220408944
20
-1.50073338470315
30
0
41
1
10
188.911370356119
20
-0.675230083026577
30
0
41
1
10
188.961092445012
20
-0.403162302819851
30
0
41
1
10
189.023245056128
20
-0.0686421850797387
30
0
41
1
10
189.035675578351
20
-0.002207776876844
30
0
41
1
10
189.060536622798
20
0.131203020029972
30
0
41
1
10
189.097828189467
20
0.332169331588801
30
0
41
1
10
189.135119756137
20
0.535517577232469
30
0
41
1
10
189.25942497837
20
1.21780905012324
30
0
41
1
10
189.358869156156
20
1.77823757019567
30
0
41
1
10
189.557757511727
20
2.90185369266928
30
0
41
1
10
189.657201689513
20
3.46491417152455
30
0
41
1
10
189.806367956192
20
4.28699135088223
30
0
41
1
10
189.856090045085
20
4.55722866732003
30
0
41
1
10
189.955534222871
20
5.08587403436246
30
0
41
1
10
190.005256311764
20
5.34427514477761
30
0
41
1
10
190.104700489549
20
5.8451125437837
30
0
41
1
10
190.154422578443
20
6.08754204046178
30
0
41
1
10
190.253866756228
20
6.55263906499482
30
0
41
1
10
190.303588845121
20
6.77530065026215
30
0
41
1
10
190.403033022907
20
7.19759684676472
30
0
41
1
10
190.4527551118
20
7.39722698086302
30
0
41
1
10
190.552199289586
20
7.7708859758622
30
0
41
1
10
190.601921378479
20
7.94491224902828
30
0
41
1
10
190.701365556265
20
8.26558733209043
30
0
41
1
10
190.751087645158
20
8.41223560795331
30
0
41
1
10
190.850531822944
20
8.67722381938282
30
0
41
1
10
190.900253911837
20
8.79556516757799
30
0
41
1
10
191.049420178516
20
9.10797759030291
30
0
41
1
10
191.148864356301
20
9.25911921902667
30
0
41
1
10
191.347752711873
20
9.45505558540833
30
0
41
1
10
191.447196889659
20
9.5
30
0
41
1
10
191.546641067445
20
9.5
30
0
0
SPLINE
5
E6
100
AcDbEntity
8
1
62
256
6
ByLayer
370
13
48
1
60
0
100
AcDbSpline
70
4
71
3
72
8
73
4
40
0
40
0
40
0
40
0
40
1
40
1
40
1
40
1
41
1
10
191.91284468492
20
9.5
30
0
41
1
10
191.955990714771
20
9.5
30
0
41
1
10
191.999136744621
20
9.49157595756463
30
0
41
1
10
192.042282774471
20
9.47400291548144
30
0
0
SPLINE
5
E7
100
AcDbEntity
8
1
62
256
6
ByLayer
370
13
48
1
60
0
100
AcDbSpline
70
4
71
3
72
82
73
78
40
0
40
0
40
0
40
0
40
0.0312500000000002
40
0.0312500000000002
40
0.0625000000000004
40
0.0625000000000004
40
0.0937500000000006
40
0.0937500000000006
40
0.125000000000001
40
0.125000000000001
40
0.156250000000001
40
0.156250000000001
40
0.164062500000001
40
0.164062500000001
40
0.171875000000001
40
0.171875000000001
40
0.187500000000001
40
0.187500000000001
40
0.218750000000001
40
0.218750000000001
40
0.250000000000001
40
0.250000000000001
40
0.281250000000002
40
0.281250000000002
40
0.312500000000002
40
0.312500000000002
40
0.343750000000002
40
0.343750000000002
40
0.375000000000002
40
0.375000000000002
40
0.406250000000003
40
0.406250000000003
40
0.437500000000003
40
0.437500000000003
40
0.445312500000003
40
0.445312500000003
40
0.453125000000003
40
0.453125000000003
40
0.468750000000003
40
0.468750000000003
40
0.500000000000003
40
0.500000000000003
40
0.531250000000003
40
0.531250000000003
40
0.562500000000003
40
0.562500000000003
40
0.593750000000003
40
0.593750000000003
40
0.625000000000003
40
0.625000000000003
40
0.656250000000003
40
0.656250000000003
40
0.687500000000003
40
0.687500000000003
40
0.718750000000003
40
0.718750000000003
40
0.726562500000003
40
0.726562500000003
40
0.734375000000003
40
0.734375000000003
40
0.750000000000003
40
0.750000000000003
40
0.781250000000003
40
0.781250000000003
40
0.812500000000002
40
0.812500000000002
40
0.843750000000002
40
0.843750000000002
40
0.875000000000002
40
0.875000000000002
40
0.906250000000001
40
0.906250000000001
40
0.937500000000001
40
0.937500000000001
40
0.96875
40
0.96875
40
1
40
1
40
1
40
1
41
1
10
182
20
7.77789047912052
30
0
41
1
10
182.094281238107
20
7.44104593674882
30
0
41
1
10
182.188562476215
20
7.0565852836009
30
0
41
1
10
182.377124952429
20
6.21034690537405
30
0
41
1
10
182.471406190537
20
5.74869837988382
30
0
41
1
10
182.659968666751
20
4.77402094397689
30
0
41
1
10
182.754249904859
20
4.26116010528136
30
0
41
1
10
182.942812381073
20
3.21326460851182
30
0
41
1
10
183.037093619181
20
2.67837856793639
30
0
41
1
10
183.225656095395
20
1.61393775057047
30
0
41
1
10
183.319937333503
20
1.08447215125273
30
0
41
1
10
183.437788881137
20
0.439791218465388
30
0
41
1
10
183.461359190664
20
0.311696544211173
30
0
41
1
10
183.508499809718
20
0.0574664434824115
30
0
41
1
10
183.532070119244
20
-0.0681801119754084
30
0
41
1
10
183.602781047825
20
-0.44969069828889
30
0
41
1
10
183.649921666878
20
-0.707948528789473
30
0
41
1
10
183.791343524039
20
-1.49098477673201
30
0
41
1
10
183.885624762147
20
-2.02420997836026
30
0
41
1
10
184.074187238362
20
-3.08953472707466
30
0
41
1
10
184.168468476469
20
-3.62152780011923
30
0
41
1
10
184.357030952683
20
-4.65612513007116
30
0
41
1
10
184.451312190791
20
-5.15857077138736
30
0
41
1
10
184.639874667006
20
-6.10522314307929
30
0
41
1
10
184.734155905113
20
-6.5492661554261
30
0
41
1
10
184.922718381328
20
-7.3547179921872
30
0
41
1
10
185.016999619435
20
-7.71601613638765
30
0
41
1
10
185.20556209565
20
-8.34037262228631
30
0
41
1
10
185.299843333757
20
-8.6034097232353
30
0
41
1
10
185.488405809972
20
-9.02651230678535
30
0
41
1
10
185.582687048079
20
-9.18664122344822
30
0
41
1
10
185.771249524294
20
-9.40937869798211
30
0
41
1
10
185.865530762401
20
-9.47209824052365
30
0
41
1
10
185.983382310035
20
-9.49758244445812
30
0
41
1
10
186.006952619562
20
-9.5000466253245
30
0
41
1
10
186.054093238616
20
-9.49995203956431
30
0
41
1
10
186.077663548143
20
-9.49739097388138
30
0
41
1
10
186.148374476723
20
-9.48180307734071
30
0
41
1
10
186.195515095777
20
-9.46086199197524
30
0
41
1
10
186.336936952938
20
-9.36377256707905
30
0
41
1
10
186.431218191045
20
-9.25311660717512
30
0
41
1
10
186.61978066726
20
-8.93058420098268
30
0
41
1
10
186.714061905367
20
-8.71861507607039
30
0
41
1
10
186.902624381582
20
-8.19276286121269
30
0
41
1
10
186.996905619689
20
-7.87885594696854
30
0
41
1
10
187.185468095904
20
-7.15924778738096
30
0
41
1
10
187.279749334011
20
-6.753615040375
30
0
41
1
10
187.468311810226
20
-5.87087484779252
30
0
41
1
10
187.562593048333
20
-5.39391150847544
30
0
41
1
10
187.751155524547
20
-4.39573415183889
30
0
41
1
10
187.845436762655
20
-3.87468858080396
30
0
41
1
10
188.03399923887
20
-2.81756780883498
30
0
41
1
10
188.128280476977
20
-2.28162901646093
30
0
41
1
10
188.316842953192
20
-1.22116126517616
30
0
41
1
10
188.411124191299
20
-0.696704400554722
30
0
41
1
10
188.528975738933
20
-0.061037123975126
30
0
41
1
10
188.55254604846
20
0.0646083470172982
30
0
41
1
10
188.599686667514
20
0.31891202104697
30
0
41
1
10
188.623256977041
20
0.447041010861568
30
0
41
1
10
188.693967905621
20
0.833944318937682
30
0
41
1
10
188.741108524675
20
1.09524825237744
30
0
41
1
10
188.882530381836
20
1.88545348676331
30
0
41
1
10
188.976811619943
20
2.4208118842823
30
0
41
1
10
189.165374096158
20
3.48370886816554
30
0
41
1
10
189.259655334265
20
4.0111252720769
30
0
41
1
10
189.44821781048
20
5.02928913915389
30
0
41
1
10
189.542499048587
20
5.51987139454423
30
0
41
1
10
189.731061524802
20
6.43614664281341
30
0
41
1
10
189.825342762909
20
6.8616839268484
30
0
41
1
10
190.013905239124
20
7.62531324484357
30
0
41
1
10
190.108186477231
20
7.96331482852676
30
0
41
1
10
190.296748953446
20
8.53887454236184
30
0
41
1
10
190.391030191553
20
8.77643445492967
30
0
41
1
10
190.579592667768
20
9.14906543691214
30
0
41
1
10
190.673873905875
20
9.28421590031215
30
0
41
1
10
190.86243638209
20
9.45962533401655
30
0
41
1
10
190.956717620197
20
9.5
30
0
41
1
10
191.050998858305
20
9.5
30
0
0
SPLINE
5
E8
100
AcDbEntity
8
1
62
256
6
ByLayer
370
13
48
1
60
0
100
AcDbSpline
70
4
71
3
72
12
73
8
40
0
40
0
40
0
40
0
40
0.500000000000002
40
0.500000000000002
40
0.750000000000001
40
0.750000000000001
40
1
40
1
40
1
40
1
41
1
10
191.41720247578
20
9.5
30
0
41
1
10
191.521382525562
20
9.5
30
0
41
1
10
191.625562575344
20
9.45064390563397
30
0
41
1
10
191.781832650016
20
9.2887745904122
30
0
41
1
10
191.833922674907
20
9.22023162106757
30
0
41
1
10
191.938102724689
20
9.05254883774461
30
0
41
1
10
191.99019274958
20
8.95340394855825
30
0
41
1
10
192.042282774471
20
8.83864648917478
30
0
0
SPLINE
5
E9
100
AcDbEntity
8
1
62
256
6
ByLayer
370
13
48
1
60
0
100
AcDbSpline
70
4
71
3
72
86
73
82
40
0
40
0
40
0
40
0
40
0.0312499999999981
40
0.0312499999999981
40
0.0624999999999962
40
0.0624999999999962
40
0.0937499999999943
40
0.0937499999999943
40
0.109374999999994
40
0.109374999999994
40
0.117187499999993
40
0.117187499999993
40
0.121093749999993
40
0.121093749999993
40
0.124999999999993
40
0.124999999999993
40
0.156249999999994
40
0.156249999999994
40
0.187499999999995
40
0.187499999999995
40
0.218749999999997
40
0.218749999999997
40
0.249999999999998
40
0.249999999999998
40
0.281249999999999
40
0.281249999999999
40
0.312500000000001
40
0.312500000000001
40
0.343750000000002
40
0.343750000000002
40
0.375000000000003
40
0.375000000000003
40
0.406250000000005
40
0.406250000000005
40
0.410156250000005
40
0.410156250000005
40
0.414062500000005
40
0.414062500000005
40
0.421875000000005
40
0.421875000000005
40
0.437500000000004
40
0.437500000000004
40
0.468750000000003
40
0.468750000000003
40
0.500000000000002
40
0.500000000000002
40
0.531250000000001
40
0.531250000000001
40
0.5625
40
0.5625
40
0.59375
40
0.59375
40
0.624999999999999
40
0.624999999999999
40
0.656249999999998
40
0.656249999999998
40
0.687499999999997
40
0.687499999999997
40
0.703124999999997
40
0.703124999999997
40
0.710937499999996
40
0.710937499999996
40
0.718749999999996
40
0.718749999999996
40
0.749999999999997
40
0.749999999999997
40
0.781249999999997
40
0.781249999999997
40
0.812499999999997
40
0.812499999999997
40
0.843749999999998
40
0.843749999999998
40
0.874999999999998
40
0.874999999999998
40
0.906249999999999
40
0.906249999999999
40
0.937499999999999
40
0.937499999999999
40
0.968749999999999
40
0.968749999999999
40
1
40
1
40
1
40
1
41
1
10
182
20
5.61852462964467
30
0
41
1
10
182.089118298429
20
5.17060313154351
30
0
41
1
10
182.178236596858
20
4.6967855532391
30
0
41
1
10
182.356473193715
20
3.72143662353108
30
0
41
1
10
182.445591492144
20
3.22002624200081
30
0
41
1
10
182.623828089001
20
2.21359356222419
30
0
41
1
10
182.71294638743
20
1.70865658010021
30
0
41
1
10
182.846623835074
20
0.964045942096277
30
0
41
1
10
182.891182984288
20
0.717940115214589
30
0
41
1
10
182.958021708109
20
0.35349464876731
30
0
41
1
10
182.980301282717
20
0.23279568719849
30
0
41
1
10
183.013720644627
20
0.0530926999633436
30
0
41
1
10
183.024860431931
20
-0.0064311417749821
30
0
41
1
10
183.047140006538
20
-0.125997818340323
30
0
41
1
10
183.058279793842
20
-0.186008736516868
30
0
41
1
10
183.158537879574
20
-0.728031614957899
30
0
41
1
10
183.247656178003
20
-1.22374120158321
30
0
41
1
10
183.425892774861
20
-2.22578220728795
30
0
41
1
10
183.515011073289
20
-2.73206010587089
30
0
41
1
10
183.693247670147
20
-3.7331994676282
30
0
41
1
10
183.782365968576
20
-4.22796084321453
30
0
41
1
10
183.960602565433
20
-5.18152763202005
30
0
41
1
10
184.049720863862
20
-5.64020663409164
30
0
41
1
10
184.22795746072
20
-6.49806520306311
30
0
41
1
10
184.317075759149
20
-6.89712914810039
30
0
41
1
10
184.495312356006
20
-7.61699425918414
30
0
41
1
10
184.584430654435
20
-7.93772783393902
30
0
41
1
10
184.762667251293
20
-8.4898306949338
30
0
41
1
10
184.851785549721
20
-8.72119841196709
30
0
41
1
10
185.030022146579
20
-9.09221161594581
30
0
41
1
10
185.119140445008
20
-9.23191265811204
30
0
41
1
10
185.297377041865
20
-9.42511033436836
30
0
41
1
10
185.386495340294
20
-9.47869249888444
30
0
41
1
10
185.486753426026
20
-9.49676157287942
30
0
41
1
10
185.49789321333
20
-9.49818556472133
30
0
41
1
10
185.520172787937
20
-9.49989164588135
30
0
41
1
10
185.531312575241
20
-9.50017493955446
30
0
41
1
10
185.564731937152
20
-9.49934273676078
30
0
41
1
10
185.587011511759
20
-9.49653011906867
30
0
41
1
10
185.653850235581
20
-9.48101326966034
30
0
41
1
10
185.698409384795
20
-9.46122243154554
30
0
41
1
10
185.832086832438
20
-9.37129864388419
30
0
41
1
10
185.921205130867
20
-9.27042567271235
30
0
41
1
10
186.099441727724
20
-8.97866211469241
30
0
41
1
10
186.188560026153
20
-8.78769899652295
30
0
41
1
10
186.366796623011
20
-8.3143605040909
30
0
41
1
10
186.45591492144
20
-8.03195913667008
30
0
41
1
10
186.634151518297
20
-7.38289411325195
30
0
41
1
10
186.723269816726
20
-7.0162697114645
30
0
41
1
10
186.901506413584
20
-6.21430693965905
30
0
41
1
10
186.990624712013
20
-5.7790669573651
30
0
41
1
10
187.16886130887
20
-4.86170397606455
30
0
41
1
10
187.257979607299
20
-4.37970772412424
30
0
41
1
10
187.436216204156
20
-3.39343164052426
30
0
41
1
10
187.525334502585
20
-2.88926717825302
30
0
41
1
10
187.703571099443
20
-1.88223899873245
30
0
41
1
10
187.792689397872
20
-1.37945030033876
30
0
41
1
10
187.926366845515
20
-0.640956781185508
30
0
41
1
10
187.970925994729
20
-0.397369332365173
30
0
41
1
10
188.037764718551
20
-0.0373057633530607
30
0
41
1
10
188.060044293158
20
0.0815035861127456
30
0
41
1
10
188.104603442373
20
0.321977684685095
30
0
41
1
10
188.126883016979
20
0.443084611269114
30
0
41
1
10
188.238280890015
20
1.05238438511782
30
0
41
1
10
188.327399188444
20
1.55207882962335
30
0
41
1
10
188.505635785302
20
2.55761354735935
30
0
41
1
10
188.594754083731
20
3.06338947535994
30
0
41
1
10
188.772990680588
20
4.05825237502404
30
0
41
1
10
188.862108979017
20
4.54723100969204
30
0
41
1
10
189.040345575875
20
5.483851423293
30
0
41
1
10
189.129463874304
20
5.93136564979542
30
0
41
1
10
189.307700471161
20
6.76225067198681
30
0
41
1
10
189.39681876959
20
7.14551359680434
30
0
41
1
10
189.575055366448
20
7.83061842294126
30
0
41
1
10
189.664173664876
20
8.13240660184903
30
0
41
1
10
189.842410261734
20
8.64535572632215
30
0
41
1
10
189.931528560163
20
8.8565292474766
30
0
41
1
10
190.10976515702
20
9.18775202570743
30
0
41
1
10
190.198883455449
20
9.30786605634751
30
0
41
1
10
190.377120052307
20
9.46394605487632
30
0
41
1
10
190.466238350736
20
9.5
30
0
41
1
10
190.555356649164
20
9.5
30
0
0
SPLINE
5
EA
100
AcDbEntity
8
1
62
256
6
ByLayer
370
13
48
1
60
0
100
AcDbSpline
70
4
71
3
72
14
73
10
40
0
40
0
40
0
40
0
40
0.25
40
0.25
40
0.5
40
0.5
40
0.75
40
0.75
40
1
40
1
40
1
40
1
41
1
10
190.92156026664
20
9.5
30
0
41
1
10
191.014953808959
20
9.5
30
0
41
1
10
191.108347351278
20
9.4603859199477
30
0
41
1
10
191.295134435917
20
9.28838491248274
30
0
41
1
10
191.388527978236
20
9.15588747766117
30
0
41
1
10
191.575315062875
20
8.7905551514263
30
0
41
1
10
191.668708605194
20
8.55764344078764
30
0
41
1
10
191.855495689833
20
7.99307961883926
30
0
41
1
10
191.948889232152
20
7.66142333665073
30
0
41
1
10
192.042282774471
20
7.2864527882835
30
0
0
SPLINE
5
EB
100
AcDbEntity
8
1
62
256
6
ByLayer
370
13
48
1
60
0
100
AcDbSpline
70
4
71
3
72
85
73
81
40
0
40
0
40
0
40
0
40
0.0312500000000022
40
0.0312500000000022
40
0.0625000000000043
40
0.0625000000000043
40
0.0664062500000045
40
0.0664062500000045
40
0.0703125000000046
40
0.0781250000000052
40
0.0781250000000052
40
0.0937500000000062
40
0.0937500000000062
40
0.125000000000008
40
0.125000000000008
40
0.15625000000001
40
0.15625000000001
40
0.187500000000013
40
0.187500000000013
40
0.218750000000015
40
0.218750000000015
40
0.250000000000017
40
0.250000000000017
40
0.281250000000019
40
0.281250000000019
40
0.312500000000021
40
0.312500000000021
40
0.343750000000023
40
0.343750000000023
40
0.375000000000026
40
0.375000000000026
40
0.378906250000026
40
0.378906250000026
40
0.382812500000026
40
0.390625000000026
40
0.390625000000026
40
0.406250000000025
40
0.406250000000025
40
0.437500000000024
40
0.437500000000024
40
0.468750000000023
40
0.468750000000023
40
0.500000000000022
40
0.500000000000022
40
0.531250000000021
40
0.531250000000021
40
0.562500000000019
40
0.562500000000019
40
0.593750000000018
40
0.593750000000018
40
0.625000000000017
40
0.625000000000017
40
0.656250000000016
40
0.656250000000016
40
0.687500000000014
40
0.687500000000014
40
0.691406250000014
40
0.691406250000014
40
0.695312500000015
40
0.703125000000014
40
0.703125000000014
40
0.718750000000014
40
0.718750000000014
40
0.750000000000012
40
0.750000000000012
40
0.781250000000011
40
0.781250000000011
40
0.812500000000009
40
0.812500000000009
40
0.843750000000008
40
0.843750000000008
40
0.875000000000006
40
0.875000000000006
40
0.906250000000005
40
0.906250000000005
40
0.937500000000003
40
0.937500000000003
40
0.968750000000002
40
0.968750000000002
40
1
40
1
40
1
40
1
41
1
10
182
20
2.93725213351533
30
0
41
1
10
182.08395535875
20
2.46394098181543
30
0
41
1
10
182.1679107175
20
1.9875941767184
30
0
41
1
10
182.335821435001
20
1.0466116898308
30
0
41
1
10
182.419776793751
20
0.582010647776457
30
0
41
1
10
182.514226572345
20
0.073770780388088
30
0
41
1
10
182.524720992189
20
0.0176214454199055
30
0
41
1
10
182.545709831877
20
-0.0948857815891131
30
0
41
1
10
182.577193091408
20
-0.264257717404547
30
0
41
1
10
182.608676350939
20
-0.435362469126432
30
0
41
1
10
182.671642870002
20
-0.779589815206947
30
0
41
1
10
182.713620549377
20
-1.01177358249763
30
0
41
1
10
182.839553587503
20
-1.71376979208287
30
0
41
1
10
182.923508946253
20
-2.18913700881595
30
0
41
1
10
183.091419663753
20
-3.1374906875877
30
0
41
1
10
183.175375022503
20
-3.61041500612851
30
0
41
1
10
183.343285740004
20
-4.53391407591383
30
0
41
1
10
183.427241098754
20
-4.98440056893892
30
0
41
1
10
183.595151816255
20
-5.84256332297986
30
0
41
1
10
183.679107175005
20
-6.25014585495509
30
0
41
1
10
183.847017892506
20
-7.00436847987203
30
0
41
1
10
183.930973251256
20
-7.35093578861216
30
0
41
1
10
184.098883968756
20
-7.96992424936317
30
0
41
1
10
184.182839327506
20
-8.24231386838281
30
0
41
1
10
184.350750045007
20
-8.70630342225823
30
0
41
1
10
184.434705403757
20
-8.89791798353397
30
0
41
1
10
184.602616121258
20
-9.2005299955849
30
0
41
1
10
184.686571480008
20
-9.31157718945457
30
0
41
1
10
184.854482197509
20
-9.45902248207565
30
0
41
1
10
184.938437556259
20
-9.49548595947888
30
0
41
1
10
185.032887334853
20
-9.50011867297351
30
0
41
1
10
185.043381754696
20
-9.50013246959767
30
0
41
1
10
185.064370594384
20
-9.49915907460354
30
0
41
1
10
185.095853853915
20
-9.4961891944335
30
0
41
1
10
185.127337113447
20
-9.48859226337524
30
0
41
1
10
185.190303632509
20
-9.46698134308929
30
0
41
1
10
185.232281311885
20
-9.44401152140378
30
0
41
1
10
185.35821435001
20
-9.34763518224807
30
0
41
1
10
185.44216970876
20
-9.24660898589457
30
0
41
1
10
185.610080426261
20
-8.96452047972738
30
0
41
1
10
185.694035785011
20
-8.78340526307846
30
0
41
1
10
185.861946502512
20
-8.34007617721946
30
0
41
1
10
185.945901861262
20
-8.07784227689345
30
0
41
1
10
186.113812578762
20
-7.4779368874124
30
0
41
1
10
186.197767937512
20
-7.14029090273368
30
0
41
1
10
186.365678655013
20
-6.4019008349388
30
0
41
1
10
186.449634013763
20
-6.00122511095782
30
0
41
1
10
186.617544731264
20
-5.15435799050499
30
0
41
1
10
186.701500090014
20
-4.70825910583307
30
0
41
1
10
186.869410807514
20
-3.79087284570912
30
0
41
1
10
186.953366166265
20
-3.31967580920593
30
0
41
1
10
187.121276883765
20
-2.37231915814365
30
0
41
1
10
187.205232242516
20
-1.89622577764891
30
0
41
1
10
187.373142960016
20
-0.956776675025736
30
0
41
1
10
187.457098318766
20
-0.493453391197363
30
0
41
1
10
187.55154809736
20
0.0129312135994724
30
0
41
1
10
187.562042517204
20
0.06906298590539
30
0
41
1
10
187.583031356892
20
0.181983137706169
30
0
41
1
10
187.614514616423
20
0.351957128842599
30
0
41
1
10
187.645997875954
20
0.523609389994562
30
0
41
1
10
187.708964395017
20
0.868852299122352
30
0
41
1
10
187.750942074392
20
1.10160708421793
30
0
41
1
10
187.876875112517
20
1.80494648755862
30
0
41
1
10
187.960830471268
20
2.28071302106093
30
0
41
1
10
188.128741188768
20
3.22864633703065
30
0
41
1
10
188.212696547519
20
3.70074891264474
30
0
41
1
10
188.380607265019
20
4.62127612278283
30
0
41
1
10
188.464562623769
20
5.06961141342362
30
0
41
1
10
188.63247334127
20
5.92220632647766
30
0
41
1
10
188.71642870002
20
6.32637277174817
30
0
41
1
10
188.884339417521
20
7.0727431110968
30
0
41
1
10
188.968294776271
20
7.41487639154772
30
0
41
1
10
189.136205493771
20
8.02436267502836
30
0
41
1
10
189.220160852522
20
8.29168715154222
30
0
41
1
10
189.388071570022
20
8.74535768019476
30
0
41
1
10
189.472026928772
20
8.93172108710561
30
0
41
1
10
189.639937646273
20
9.22405649790628
30
0
41
1
10
189.723893005023
20
9.33007986912037
30
0
41
1
10
189.891803722523
20
9.46801877091667
30
0
41
1
10
189.975759081274
20
9.5
30
0
41
1
10
190.059714440024
20
9.5
30
0
0
SPLINE
5
EC
100
AcDbEntity
8
1
62
256
6
ByLayer
370
13
48
1
60
0
100
AcDbSpline
70
4
71
3
72
22
73
18
40
0
40
0
40
0
40
0
40
0.125
40
0.125
40
0.25
40
0.25
40
0.375
40
0.375
40
0.5
40
0.5
40
0.625
40
0.625
40
0.75
40
0.75
40
0.875
40
0.875
40
1
40
1
40
1
40
1
41
1
10
190.425918057499
20
9.5
30
0
41
1
10
190.493266587373
20
9.5
30
0
41
1
10
190.560615117247
20
9.47944753508563
30
0
41
1
10
190.695312176994
20
9.39191902637404
30
0
41
1
10
190.762660706868
20
9.32492088988948
30
0
41
1
10
190.897357766616
20
9.14056442273417
30
0
41
1
10
190.96470629649
20
9.02318621288904
30
0
41
1
10
191.099403356237
20
8.73620129769233
30
0
41
1
10
191.166751886111
20
8.56658129868364
30
0
41
1
10
191.301448945859
20
8.17582762610118
30
0
41
1
10
191.368797475733
20
7.95469113461576
30
0
41
1
10
191.503494535481
20
7.46445804518751
30
0
41
1
10
191.570843065354
20
7.19537111710775
30
0
41
1
10
191.705540125102
20
6.61553204410708
30
0
41
1
10
191.772888654976
20
6.30480120633734
30
0
41
1
10
191.907585714723
20
5.65023955233593
30
0
41
1
10
191.974934244597
20
5.30643795831904
30
0
41
1
10
192.042282774471
20
4.95111674611903
30
0
0
SPLINE
5
ED
100
AcDbEntity
8
1
62
256
6
ByLayer
370
13
48
1
60
0
100
AcDbSpline
70
4
71
3
72
82
73
78
40
0
40
0
40
0
40
0
40
0.0078125000000001
40
0.0078125000000001
40
0.0156250000000002
40
0.0156250000000002
40
0.0312500000000004
40
0.0312500000000004
40
0.0625000000000004
40
0.0625000000000004
40
0.0937500000000005
40
0.0937500000000005
40
0.125000000000001
40
0.125000000000001
40
0.156250000000001
40
0.156250000000001
40
0.187500000000001
40
0.187500000000001
40
0.218750000000001
40
0.218750000000001
40
0.250000000000001
40
0.250000000000001
40
0.281250000000001
40
0.281250000000001
40
0.312500000000001
40
0.312500000000001
40
0.328125000000001
40
0.328125000000001
40
0.335937500000001
40
0.335937500000001
40
0.343750000000001
40
0.343750000000001
40
0.375000000000001
40
0.375000000000001
40
0.406250000000001
40
0.406250000000001
40
0.437500000000001
40
0.437500000000001
40
0.468750000000001
40
0.468750000000001
40
0.500000000000001
40
0.500000000000001
40
0.531250000000001
40
0.531250000000001
40
0.562500000000001
40
0.562500000000001
40
0.593750000000001
40
0.593750000000001
40
0.625000000000001
40
0.625000000000001
40
0.656250000000001
40
0.656250000000001
40
0.664062500000001
40
0.664062500000001
40
0.671875000000001
40
0.671875000000001
40
0.687500000000001
40
0.687500000000001
40
0.718750000000001
40
0.718750000000001
40
0.750000000000001
40
0.750000000000001
40
0.78125
40
0.78125
40
0.8125
40
0.8125
40
0.84375
40
0.84375
40
0.875
40
0.875
40
0.90625
40
0.90625
40
0.9375
40
0.9375
40
0.96875
40
0.96875
40
1
40
1
40
1
40
1
41
1
10
182
20
0.173813299758223
30
0
41
1
10
182.019698104768
20
0.0676273884924683
30
0
41
1
10
182.039396209536
20
-0.0374495961088428
30
0
41
1
10
182.078792419072
20
-0.249558814461949
30
0
41
1
10
182.09849052384
20
-0.35630718938134
30
0
41
1
10
182.157584838143
20
-0.678396399516885
30
0
41
1
10
182.196981047679
20
-0.895587917407681
30
0
41
1
10
182.315169676287
20
-1.55241922583198
30
0
41
1
10
182.393962095358
20
-1.99740524337236
30
0
41
1
10
182.551546933502
20
-2.8877949605972
30
0
41
1
10
182.630339352574
20
-3.33315711064486
30
0
41
1
10
182.787924190717
20
-4.20810236630621
30
0
41
1
10
182.866716609789
20
-4.63762425820207
30
0
41
1
10
183.024301447932
20
-5.46387524531789
30
0
41
1
10
183.103093867004
20
-5.86053519705456
30
0
41
1
10
183.260678705147
20
-6.60523966017189
30
0
41
1
10
183.339471124219
20
-6.95322383088541
30
0
41
1
10
183.497055962362
20
-7.58795447435773
30
0
41
1
10
183.575848381434
20
-7.87466474525885
30
0
41
1
10
183.733433219578
20
-8.37892843328481
30
0
41
1
10
183.812225638649
20
-8.59647734385419
30
0
41
1
10
183.969810476793
20
-8.9598325783808
30
0
41
1
10
184.048602895864
20
-9.10566334051632
30
0
41
1
10
184.206187734008
20
-9.32801099586757
30
0
41
1
10
184.284980153079
20
-9.40457072809232
30
0
41
1
10
184.403168781687
20
-9.47221606207353
30
0
41
1
10
184.442564991223
20
-9.48692537939374
30
0
41
1
10
184.501659305527
20
-9.49801479702825
30
0
41
1
10
184.521357410295
20
-9.49988326871949
30
0
41
1
10
184.560753619831
20
-9.50010612523783
30
0
41
1
10
184.580451724598
20
-9.4984648321396
30
0
41
1
10
184.678942248438
20
-9.48114111385306
30
0
41
1
10
184.75773466751
20
-9.43801051949004
30
0
41
1
10
184.915319505653
20
-9.28541653938791
30
0
41
1
10
184.994111924725
20
-9.17590595597804
30
0
41
1
10
185.151696762868
20
-8.88589337940141
30
0
41
1
10
185.23048918194
20
-8.70535585153647
30
0
41
1
10
185.388074020083
20
-8.27314599707103
30
0
41
1
10
185.466866439155
20
-8.02146230074479
30
0
41
1
10
185.624451277299
20
-7.4520817118856
30
0
41
1
10
185.70324369637
20
-7.1344049600757
30
0
41
1
10
185.860828534514
20
-6.44331392983867
30
0
41
1
10
185.939620953585
20
-6.06994908273245
30
0
41
1
10
186.097205791729
20
-5.28184900017894
30
0
41
1
10
186.1759982108
20
-4.8671805394896
30
0
41
1
10
186.333583048944
20
-4.01313460961532
30
0
41
1
10
186.412375468016
20
-3.57382434674227
30
0
41
1
10
186.569960306159
20
-2.68737374001711
30
0
41
1
10
186.648752725231
20
-2.24028608003047
30
0
41
1
10
186.806337563374
20
-1.35352567126696
30
0
41
1
10
186.885129982446
20
-0.913883115212315
30
0
41
1
10
186.983620506285
20
-0.376679647262989
30
0
41
1
10
187.003318611053
20
-0.269848400912593
30
0
41
1
10
187.042714820589
20
-0.0575638068526416
30
0
41
1
10
187.062412925357
20
0.0475045380130723
30
0
41
1
10
187.121507239661
20
0.36580012657754
30
0
41
1
10
187.160903449197
20
0.580769387945423
30
0
41
1
10
187.279092077804
20
1.23200976224376
30
0
41
1
10
187.357884496876
20
1.6747095444783
30
0
41
1
10
187.515469335019
20
2.56413524973777
30
0
41
1
10
187.594261754091
20
3.01082525251033
30
0
41
1
10
187.751846592235
20
3.89249125866468
30
0
41
1
10
187.830639011306
20
4.3274100185638
30
0
41
1
10
187.98822384945
20
5.16854407490399
30
0
41
1
10
188.067016268521
20
5.57469071278919
30
0
41
1
10
188.224601106665
20
6.34197658990061
30
0
41
1
10
188.303393525736
20
6.70305177588838
30
0
41
1
10
188.46097836388
20
7.36663283135905
30
0
41
1
10
188.539770782952
20
7.66909558598863
30
0
41
1
10
188.697355621095
20
8.20629949248746
30
0
41
1
10
188.776148040167
20
8.44102833353409
30
0
41
1
10
188.93373287831
20
8.83888252352696
30
0
41
1
10
189.012525297382
20
9.00202605569447
30
0
41
1
10
189.170110135525
20
9.2579989790477
30
0
41
1
10
189.248902554597
20
9.35086794767324
30
0
41
1
10
189.40648739274
20
9.47184441818308
30
0
41
1
10
189.485279811812
20
9.5
30
0
41
1
10
189.564072230884
20
9.5
30
0
0
SPLINE
5
EE
100
AcDbEntity
8
1
62
256
6
ByLayer
370
13
48
1
60
0
100
AcDbSpline
70
4
71
3
72
22
73
18
40
0
40
0
40
0
40
0
40
0.125
40
0.125
40
0.25
40
0.25
40
0.375
40
0.375
40
0.5
40
0.5
40
0.625
40
0.625
40
0.75
40
0.75
40
0.875
40
0.875
40
1
40
1
40
1
40
1
41
1
10
189.930275848359
20
9.5
30
0
41
1
10
190.018276136947
20
9.5
30
0
41
1
10
190.106276425535
20
9.46484898593351
30
0
41
1
10
190.282277002711
20
9.31279783279527
30
0
41
1
10
190.370277291299
20
9.19581497471788
30
0
41
1
10
190.546277868475
20
8.87322713499873
30
0
41
1
10
190.634278157063
20
8.66756040349765
30
0
41
1
10
190.810278734239
20
8.16773523571365
30
0
41
1
10
190.898279022827
20
7.87356275723917
30
0
41
1
10
191.074279600003
20
7.2050946709744
30
0
41
1
10
191.162279888591
20
6.83084644125907
30
0
41
1
10
191.338280465767
20
6.01836654669131
30
0
41
1
10
191.426280754355
20
5.58023380472994
30
0
41
1
10
191.602281331531
20
4.66163844677737
30
0
41
1
10
191.690281620119
20
4.18129557604178
30
0
41
1
10
191.866282197295
20
3.20203461821427
30
0
41
1
10
191.954282485883
20
2.70322106534681
30
0
41
1
10
192.042282774471
20
2.20629809614562
30
0
0
SPLINE
5
EF
100
AcDbEntity
8
1
62
256
6
ByLayer
370
13
48
1
60
0
100
AcDbSpline
70
4
71
3
72
78
73
74
40
0
40
0
40
0
40
0
40
0.0312499999999998
40
0.0312499999999998
40
0.0624999999999997
40
0.0624999999999997
40
0.0937499999999995
40
0.0937499999999995
40
0.124999999999999
40
0.124999999999999
40
0.156249999999999
40
0.156249999999999
40
0.187499999999999
40
0.187499999999999
40
0.218749999999999
40
0.218749999999999
40
0.249999999999999
40
0.249999999999999
40
0.281249999999999
40
0.281249999999999
40
0.289062499999998
40
0.289062499999998
40
0.296874999999998
40
0.296874999999998
40
0.312499999999998
40
0.312499999999998
40
0.343749999999998
40
0.343749999999998
40
0.374999999999998
40
0.374999999999998
40
0.406249999999998
40
0.406249999999998
40
0.437499999999998
40
0.437499999999998
40
0.468749999999998
40
0.468749999999998
40
0.499999999999997
40
0.499999999999997
40
0.531249999999997
40
0.531249999999997
40
0.562499999999997
40
0.562499999999997
40
0.593749999999997
40
0.593749999999997
40
0.624999999999997
40
0.624999999999997
40
0.640624999999997
40
0.640624999999997
40
0.648437499999997
40
0.648437499999997
40
0.656249999999997
40
0.656249999999997
40
0.687499999999997
40
0.687499999999997
40
0.718749999999998
40
0.718749999999998
40
0.749999999999998
40
0.749999999999998
40
0.781249999999998
40
0.781249999999998
40
0.812499999999999
40
0.812499999999999
40
0.843749999999999
40
0.843749999999999
40
0.874999999999999
40
0.874999999999999
40
0.906249999999999
40
0.906249999999999
40
0.9375
40
0.9375
40
0.96875
40
0.96875
40
1
40
1
40
1
40
1
41
1
10
182
20
-2.57191640183444
30
0
41
1
10
182.073629479393
20
-2.98788947158707
30
0
41
1
10
182.147258958786
20
-3.40335228070623
30
0
41
1
10
182.294517917573
20
-4.2200202659252
30
0
41
1
10
182.368147396966
20
-4.62118143841471
30
0
41
1
10
182.515406355752
20
-5.39536900355751
30
0
41
1
10
182.589035835145
20
-5.76834605691977
30
0
41
1
10
182.736294793932
20
-6.47314396500497
30
0
41
1
10
182.809924273325
20
-6.80492057774003
30
0
41
1
10
182.957183232111
20
-7.41659754756097
30
0
41
1
10
183.030812711504
20
-7.69646866213066
30
0
41
1
10
183.178071670291
20
-8.19705420024778
30
0
41
1
10
183.251701149684
20
-8.41776011382194
30
0
41
1
10
183.39896010847
20
-8.79675763394732
30
0
41
1
10
183.472589587863
20
-8.95506118108986
30
0
41
1
10
183.61984854665
20
-9.20996084178694
30
0
41
1
10
183.693478026043
20
-9.30658385809539
30
0
41
1
10
183.840736984829
20
-9.44218604960068
30
0
41
1
10
183.914366464222
20
-9.48119910326159
30
0
41
1
10
184.006403313464
20
-9.49798597551569
30
0
41
1
10
184.024810683312
20
-9.49974881147276
30
0
41
1
10
184.061625423009
20
-9.50020119272074
30
0
41
1
10
184.080032792857
20
-9.49889823503264
30
0
41
1
10
184.135254902402
20
-9.49023268438765
30
0
41
1
10
184.172069642098
20
-9.47810782988952
30
0
41
1
10
184.282513861188
20
-9.42139105929556
30
0
41
1
10
184.356143340581
20
-9.35637974756253
30
0
41
1
10
184.503402299367
20
-9.16653252085777
30
0
41
1
10
184.577031778761
20
-9.04166493444393
30
0
41
1
10
184.724290737547
20
-8.72947191348257
30
0
41
1
10
184.79792021694
20
-8.54212558987808
30
0
41
1
10
184.945179175726
20
-8.1060220946425
30
0
41
1
10
185.01880865512
20
-7.85726203888083
30
0
41
1
10
185.166067613906
20
-7.30344058920417
30
0
41
1
10
185.239697093299
20
-6.99839764872286
30
0
41
1
10
185.386956052085
20
-6.3409566679272
30
0
41
1
10
185.460585531479
20
-5.98859585419754
30
0
41
1
10
185.607844490265
20
-5.24845088139313
30
0
41
1
10
185.681473969658
20
-4.86071468161725
30
0
41
1
10
185.828732928444
20
-4.0634229642242
30
0
41
1
10
185.902362407838
20
-3.65391549850719
30
0
41
1
10
186.049621366624
20
-2.82687543933898
30
0
41
1
10
186.123250846017
20
-2.40938157644476
30
0
41
1
10
186.270509804803
20
-1.57901758309478
30
0
41
1
10
186.344139284197
20
-1.16617147349871
30
0
41
1
10
186.454583503286
20
-0.558279444531252
30
0
41
1
10
186.491398242983
20
-0.357526361268526
30
0
41
1
10
186.546620352528
20
-0.0600194673276633
30
0
41
1
10
186.565027722376
20
0.0381883094399029
30
0
41
1
10
186.601842462073
20
0.236348045859955
30
0
41
1
10
186.620249831921
20
0.336034970874721
30
0
41
1
10
186.712286681162
20
0.837183715604908
30
0
41
1
10
186.785916160555
20
1.24688695406806
30
0
41
1
10
186.933175119342
20
2.07402281025415
30
0
41
1
10
187.006804598735
20
2.491435650456
30
0
41
1
10
187.154063557521
20
3.32186203632045
30
0
41
1
10
187.227693036914
20
3.73484047220239
30
0
41
1
10
187.374951995701
20
4.54281521296846
30
0
41
1
10
187.448581475094
20
4.93776517622422
30
0
41
1
10
187.59584043388
20
5.69588855033365
30
0
41
1
10
187.669469913273
20
6.05901291610701
30
0
41
1
10
187.81672887206
20
6.74094665509261
30
0
41
1
10
187.890358351453
20
7.05971495629717
30
0
41
1
10
188.037617310239
20
7.64304771313346
30
0
41
1
10
188.111246789632
20
7.90758816641997
30
0
41
1
10
188.258505748419
20
8.37623398522371
30
0
41
1
10
188.332135227812
20
8.58033660945554
30
0
41
1
10
188.479394186598
20
8.92594483249229
30
0
41
1
10
188.553023665991
20
9.06746708798718
30
0
41
1
10
188.700282624777
20
9.28960053487003
30
0
41
1
10
188.773912104171
20
9.37024131420731
30
0
41
1
10
188.921171062957
20
9.4754238492153
30
0
41
1
10
188.99480054235
20
9.5
30
0
41
1
10
189.068430021743
20
9.5
30
0
0
SPLINE
5
F0
100
AcDbEntity
8
1
62
256
6
ByLayer
370
13
48
1
60
0
100
AcDbSpline
70
4
71
3
72
42
73
38
40
0
40
0
40
0
40
0
40
0.0625
40
0.0625
40
0.125
40
0.125
40
0.1875
40
0.1875
40
0.25
40
0.25
40
0.3125
40
0.3125
40
0.375
40
0.375
40
0.4375
40
0.4375
40
0.5
40
0.5
40
0.5625
40
0.5625
40
0.625
40
0.625
40
0.6875
40
0.6875
40
0.75
40
0.75
40
0.8125
40
0.8125
40
0.875
40
0.875
40
0.9375
40
0.9375
40
0.953125
40
0.953125
40
0.96875
40
0.96875
40
1
40
1
40
1
40
1
41
1
10
189.434633639219
20
9.5
30
0
41
1
10
189.48895966287
20
9.5
30
0
41
1
10
189.543285686521
20
9.48663780916118
30
0
41
1
10
189.651937733823
20
9.43034056125825
30
0
41
1
10
189.706263757474
20
9.38739795032009
30
0
41
1
10
189.814915804776
20
9.26962585855176
30
0
41
1
10
189.869241828427
20
9.19478910096956
30
0
41
1
10
189.97789387573
20
9.0116890084409
30
0
41
1
10
190.032219899381
20
8.9034196203657
30
0
41
1
10
190.140871946683
20
8.65289261739312
30
0
41
1
10
190.195197970334
20
8.51063115122713
30
0
41
1
10
190.303850017636
20
8.19268872539138
30
0
41
1
10
190.358176041287
20
8.01700692719123
30
0
41
1
10
190.466828088589
20
7.63399619531873
30
0
41
1
10
190.521154112241
20
7.42666987490077
30
0
41
1
10
190.629806159543
20
6.98332072139502
30
0
41
1
10
190.684132183194
20
6.74730387520401
30
0
41
1
10
190.792784230496
20
6.25057270690729
30
0
41
1
10
190.847110254147
20
5.98986712018976
30
0
41
1
10
190.955762301449
20
5.44858214509765
30
0
41
1
10
191.0100883251
20
5.1680131758493
30
0
41
1
10
191.118740372402
20
4.59235794071085
30
0
41
1
10
191.173066396054
20
4.29728249120402
30
0
41
1
10
191.281718443356
20
3.69817998978357
30
0
41
1
10
191.336044467007
20
3.39416290528217
30
0
41
1
10
191.444696514309
20
2.78263555466793
30
0
41
1
10
191.49902253796
20
2.47513342893981
30
0
41
1
10
191.607674585262
20
1.86171204469198
30
0
41
1
10
191.662000608913
20
1.55579852514583
30
0
41
1
10
191.770652656216
20
0.950038006080035
30
0
41
1
10
191.824978679867
20
0.650194196986604
30
0
41
1
10
191.892886209431
20
0.281529210939595
30
0
41
1
10
191.906467715343
20
0.208101328054226
30
0
41
1
10
191.933630727169
20
0.0619068135892746
30
0
41
1
10
191.947212233082
20
-0.0106345743311067
30
0
41
1
10
191.98795675082
20
-0.229456724282954
30
0
41
1
10
192.015119762645
20
-0.376685261860302
30
0
41
1
10
192.042282774471
20
-0.525053555360074
30
0
0
SPLINE
5
F1
100
AcDbEntity
8
1
62
256
6
ByLayer
370
13
48
1
60
0
100
AcDbSpline
70
4
71
3
72
79
73
75
40
0
40
0
40
0
40
0
40
0.0312499999999984
40
0.0312499999999984
40
0.0624999999999969
40
0.0624999999999969
40
0.0937499999999953
40
0.0937499999999953
40
0.124999999999994
40
0.124999999999994
40
0.156249999999992
40
0.156249999999992
40
0.187499999999991
40
0.187499999999991
40
0.218749999999989
40
0.218749999999989
40
0.234374999999988
40
0.234374999999988
40
0.238281249999988
40
0.238281249999988
40
0.242187499999989
40
0.249999999999989
40
0.249999999999989
40
0.281249999999989
40
0.281249999999989
40
0.312499999999988
40
0.312499999999988
40
0.343749999999988
40
0.343749999999988
40
0.374999999999988
40
0.374999999999988
40
0.406249999999987
40
0.406249999999987
40
0.437499999999987
40
0.437499999999987
40
0.468749999999987
40
0.468749999999987
40
0.499999999999986
40
0.499999999999986
40
0.531249999999986
40
0.531249999999986
40
0.562499999999985
40
0.562499999999985
40
0.593749999999985
40
0.593749999999985
40
0.609374999999985
40
0.609374999999985
40
0.617187499999985
40
0.617187499999985
40
0.624999999999985
40
0.624999999999985
40
0.656249999999987
40
0.656249999999987
40
0.687499999999988
40
0.687499999999988
40
0.718749999999989
40
0.718749999999989
40
0.74999999999999
40
0.74999999999999
40
0.781249999999991
40
0.781249999999991
40
0.812499999999993
40
0.812499999999993
40
0.843749999999994
40
0.843749999999994
40
0.874999999999995
40
0.874999999999995
40
0.906249999999996
40
0.906249999999996
40
0.937499999999998
40
0.937499999999998
40
0.968749999999999
40
0.968749999999999
40
1
40
1
40
1
40
1
41
1
10
182
20
-5.2888569345692
30
0
41
1
10
182.068466539715
20
-5.64205961767703
30
0
41
1
10
182.136933079429
20
-5.98163437987773
30
0
41
1
10
182.273866158858
20
-6.62342833445712
30
0
41
1
10
182.342332698573
20
-6.92561809483215
30
0
41
1
10
182.479265778002
20
-7.48436686712134
30
0
41
1
10
182.547732317717
20
-7.74090690038844
30
0
41
1
10
182.684665397146
20
-8.20272054528945
30
0
41
1
10
182.753131936861
20
-8.40798874621439
30
0
41
1
10
182.89006501629
20
-8.76463740116859
30
0
41
1
10
182.958531556005
20
-8.91602571105457
30
0
41
1
10
183.095464635434
20
-9.16526652141286
30
0
41
1
10
183.163931175148
20
-9.26313690460452
30
0
41
1
10
183.300864254578
20
-9.40826618444257
30
0
41
1
10
183.369330794292
20
-9.45554822533134
30
0
41
1
10
183.472030603864
20
-9.49215926372133
30
0
41
1
10
183.506263873722
20
-9.49865713097478
30
0
41
1
10
183.549055461043
20
-9.50010091150779
30
0
41
1
10
183.557613778507
20
-9.50005754897768
30
0
41
1
10
183.574730413436
20
-9.49930426548238
30
0
41
1
10
183.600405365829
20
-9.49717075561753
30
0
41
1
10
183.626080318222
20
-9.49197349028515
30
0
41
1
10
183.711663492865
20
-9.4676145395228
30
0
41
1
10
183.78013003258
20
-9.42555968255579
30
0
41
1
10
183.917063112009
20
-9.29133206356278
30
0
41
1
10
183.985529651724
20
-9.19913588311229
30
0
41
1
10
184.122462731153
20
-8.96144800059912
30
0
41
1
10
184.190929270868
20
-8.81593760256268
30
0
41
1
10
184.327862350297
20
-8.47094617034455
30
0
41
1
10
184.396328890011
20
-8.27145599375996
30
0
41
1
10
184.533261969441
20
-7.82076825232392
30
0
41
1
10
184.601728509155
20
-7.56957458232401
30
0
41
1
10
184.738661588585
20
-7.02077157359744
30
0
41
1
10
184.807128128299
20
-6.72317983254973
30
0
41
1
10
184.944061207728
20
-6.08957779044465
30
0
41
1
10
185.012527747443
20
-5.7535960291562
30
0
41
1
10
185.149460826872
20
-5.05321041630177
30
0
41
1
10
185.217927366587
20
-4.68884055375656
30
0
41
1
10
185.354860446016
20
-3.9427133668801
30
0
41
1
10
185.423326985731
20
-3.56098900882873
30
0
41
1
10
185.56026006516
20
-2.79119618294703
30
0
41
1
10
185.628726604874
20
-2.40315419860335
30
0
41
1
10
185.765659684304
20
-1.63086697491681
30
0
41
1
10
185.834126224018
20
-1.24663863953344
30
0
41
1
10
185.93682603359
20
-0.679577214957135
30
0
41
1
10
185.971059303448
20
-0.492089847175009
30
0
41
1
10
186.022409208234
20
-0.21382779806234
30
0
41
1
10
186.039525843162
20
-0.121567660010811
30
0
41
1
10
186.07375911302
20
0.0618648863733142
30
0
41
1
10
186.090875747948
20
0.15369760124824
30
0
41
1
10
186.176458922592
20
0.616383885366872
30
0
41
1
10
186.244925462306
20
0.994689575211851
30
0
41
1
10
186.381858541735
20
1.76009778248115
30
0
41
1
10
186.45032508145
20
2.14718904938792
30
0
41
1
10
186.587258160879
20
2.92085169015772
30
0
41
1
10
186.655724700594
20
3.30740168343792
30
0
41
1
10
186.792657780023
20
4.06935705719198
30
0
41
1
10
186.861124319738
20
4.4447325222695
30
0
41
1
10
186.998057399167
20
5.17318446488406
30
0
41
1
10
187.066523938882
20
5.52622674358486
30
0
41
1
10
187.203457018311
20
6.19930899257733
30
0
41
1
10
187.271923558025
20
6.5193166133875
30
0
41
1
10
187.408856637455
20
7.11710048824204
30
0
41
1
10
187.477323177169
20
7.3948525321824
30
0
41
1
10
187.614256256598
20
7.90124245245011
30
0
41
1
10
187.682722796313
20
8.12986870094917
30
0
41
1
10
187.819655875742
20
8.5340227047279
30
0
41
1
10
187.888122415457
20
8.70955265335141
30
0
41
1
10
188.025055494886
20
9.00657119653548
30
0
41
1
10
188.093522034601
20
9.12807374111853
30
0
41
1
10
188.23045511403
20
9.31888312936806
30
0
41
1
10
188.298921653745
20
9.3882113900959
30
0
41
1
10
188.435854733174
20
9.47875783647598
30
0
41
1
10
188.504321272888
20
9.5
30
0
41
1
10
188.572787812603
20
9.5
30
0
0
SPLINE
5
F2
100
AcDbEntity
8
1
62
256
6
ByLayer
370
13
48
1
60
0
100
AcDbSpline
70
4
71
3
72
42
73
38
40
0
40
0
40
0
40
0
40
0.0625000000000004
40
0.0625000000000004
40
0.125000000000001
40
0.125000000000001
40
0.187500000000001
40
0.187500000000001
40
0.250000000000002
40
0.250000000000002
40
0.312500000000002
40
0.312500000000002
40
0.375000000000002
40
0.375000000000002
40
0.437500000000003
40
0.437500000000003
40
0.500000000000003
40
0.500000000000003
40
0.562500000000004
40
0.562500000000004
40
0.625000000000004
40
0.625000000000004
40
0.687500000000004
40
0.687500000000004
40
0.750000000000005
40
0.750000000000005
40
0.781250000000004
40
0.781250000000004
40
0.796875000000004
40
0.796875000000004
40
0.812500000000004
40
0.812500000000004
40
0.875000000000003
40
0.875000000000003
40
0.937500000000001
40
0.937500000000001
40
1
40
1
40
1
40
1
41
1
10
188.938991430078
20
9.5
30
0
41
1
10
189.003643333087
20
9.5
30
0
41
1
10
189.068295236095
20
9.48106389627745
30
0
41
1
10
189.197599042111
20
9.40059404794391
30
0
41
1
10
189.262250945119
20
9.33904227833753
30
0
41
1
10
189.391554751136
20
9.16976830709069
30
0
41
1
10
189.456206654144
20
9.06202961298899
30
0
41
1
10
189.58551046016
20
8.79852453600935
30
0
41
1
10
189.650162363168
20
8.64274647248948
30
0
41
1
10
189.779466169185
20
8.2834565205456
30
0
41
1
10
189.844118072193
20
8.0799407967466
30
0
41
1
10
189.973421878209
20
7.62786433321304
30
0
41
1
10
190.038073781217
20
7.37930941367046
30
0
41
1
10
190.167377587234
20
6.8422139257714
30
0
41
1
10
190.232029490242
20
6.55368865487762
30
0
41
1
10
190.361333296258
20
5.94376277035315
30
0
41
1
10
190.425985199267
20
5.62238460067309
30
0
41
1
10
190.555289005283
20
4.95533703932838
30
0
41
1
10
190.619940908291
20
4.60969334186984
30
0
41
1
10
190.749244714308
20
3.90343439931692
30
0
41
1
10
190.813896617316
20
3.54284375884103
30
0
41
1
10
190.943200423332
20
2.81597495770811
30
0
41
1
10
191.00785232634
20
2.44971671082018
30
0
41
1
10
191.137156132357
20
1.72008044496235
30
0
41
1
10
191.201808035365
20
1.35671556805113
30
0
41
1
10
191.298785889877
20
0.819340275700711
30
0
41
1
10
191.331111841381
20
0.641483133425368
30
0
41
1
10
191.379600768637
20
0.377182672912937
30
0
41
1
10
191.395763744389
20
0.289495976721867
30
0
41
1
10
191.428089695893
20
0.115037575760141
30
0
41
1
10
191.444252671645
20
0.0285568473975957
30
0
41
1
10
191.525067550406
20
-0.404999736455352
30
0
41
1
10
191.589719453414
20
-0.759593990233583
30
0
41
1
10
191.71902325943
20
-1.47827430161834
30
0
41
1
10
191.783675162438
20
-1.84235360389027
30
0
41
1
10
191.912978968455
20
-2.57251458941695
30
0
41
1
10
191.977630871463
20
-2.93858232376854
30
0
41
1
10
192.042282774471
20
-3.3013195355187
30
0
0
SPLINE
5
F3
100
AcDbEntity
8
1
62
256
6
ByLayer
370
13
48
1
60
0
100
AcDbSpline
70
4
71
3
72
78
73
74
40
0
40
0
40
0
40
0
40
0.0312499999999993
40
0.0312499999999993
40
0.0624999999999985
40
0.0624999999999985
40
0.0937499999999978
40
0.0937499999999978
40
0.124999999999997
40
0.124999999999997
40
0.156249999999996
40
0.156249999999996
40
0.171874999999996
40
0.171874999999996
40
0.179687499999996
40
0.179687499999996
40
0.187499999999996
40
0.187499999999996
40
0.218749999999996
40
0.218749999999996
40
0.249999999999996
40
0.249999999999996
40
0.281249999999996
40
0.281249999999996
40
0.312499999999995
40
0.312499999999995
40
0.343749999999995
40
0.343749999999995
40
0.374999999999995
40
0.374999999999995
40
0.406249999999994
40
0.406249999999994
40
0.437499999999994
40
0.437499999999994
40
0.468749999999994
40
0.468749999999994
40
0.499999999999993
40
0.499999999999993
40
0.531249999999993
40
0.531249999999993
40
0.562499999999992
40
0.562499999999992
40
0.578124999999992
40
0.578124999999992
40
0.585937499999992
40
0.585937499999992
40
0.593749999999992
40
0.593749999999992
40
0.624999999999993
40
0.624999999999993
40
0.656249999999993
40
0.656249999999993
40
0.687499999999994
40
0.687499999999994
40
0.718749999999994
40
0.718749999999994
40
0.749999999999995
40
0.749999999999995
40
0.781249999999996
40
0.781249999999996
40
0.812499999999996
40
0.812499999999996
40
0.843749999999997
40
0.843749999999997
40
0.874999999999997
40
0.874999999999997
40
0.906249999999998
40
0.906249999999998
40
0.937499999999999
40
0.937499999999999
40
0.968749999999999
40
0.968749999999999
40
1
40
1
40
1
40
1
41
1
10
182
20
-7.539325853485
30
0
41
1
10
182.063303600036
20
-7.7797595255995
30
0
41
1
10
182.126607200072
20
-7.99954801282976
30
0
41
1
10
182.253214400144
20
-8.39427913838949
30
0
41
1
10
182.31651800018
20
-8.5692212910094
30
0
41
1
10
182.443125200252
20
-8.87291205087274
30
0
41
1
10
182.506428800289
20
-9.00166803501517
30
0
41
1
10
182.633036000361
20
-9.21375670445883
30
0
41
1
10
182.696339600397
20
-9.29710241764187
30
0
41
1
10
182.822946800469
20
-9.42094307759319
30
0
41
1
10
182.886250400505
20
-9.46145387442576
30
0
41
1
10
182.981205800559
20
-9.49302982450286
30
0
41
1
10
183.012857600577
20
-9.49869916101153
30
0
41
1
10
183.060335300604
20
-9.50035089317021
30
0
41
1
10
183.076161200613
20
-9.49977026318305
30
0
41
1
10
183.107813000631
20
-9.49629414918118
30
0
41
1
10
183.12363890064
20
-9.49339530599457
30
0
41
1
10
183.202768400685
20
-9.47291731394824
30
0
41
1
10
183.266072000721
20
-9.43734699705786
30
0
41
1
10
183.392679200793
20
-9.3238007702619
30
0
41
1
10
183.45598280083
20
-9.24580885999762
30
0
41
1
10
183.582590000902
20
-9.04465230139201
30
0
41
1
10
183.645893600938
20
-8.92147412954722
30
0
41
1
10
183.77250080101
20
-8.62892581616791
30
0
41
1
10
183.835804401046
20
-8.45954747589624
30
0
41
1
10
183.962411601118
20
-8.07566433068365
30
0
41
1
10
184.025715201154
20
-7.86115898222846
30
0
41
1
10
184.152322401226
20
-7.3903113479827
30
0
41
1
10
184.215626001262
20
-7.13397719792465
30
0
41
1
10
184.342233201335
20
-6.58487400389006
30
0
41
1
10
184.405536801371
20
-6.29212099896043
30
0
41
1
10
184.532144001443
20
-5.67732717466714
30
0
41
1
10
184.595447601479
20
-5.35530778910979
30
0
41
1
10
184.722054801551
20
-4.69030000868526
30
0
41
1
10
184.785358401587
20
-4.34733485661152
30
0
41
1
10
184.911965601659
20
-3.64924137883125
30
0
41
1
10
184.975269201695
20
-3.29413443212397
30
0
41
1
10
185.101876401767
20
-2.58036700416156
30
0
41
1
10
185.165180001804
20
-2.22172320316224
30
0
41
1
10
185.291787201876
20
-1.50871470347315
30
0
41
1
10
185.355090801912
20
-1.15436052023617
30
0
41
1
10
185.450046201966
20
-0.631021094046588
30
0
41
1
10
185.481698001984
20
-0.457929688127479
30
0
41
1
10
185.529175702011
20
-0.200848887208139
30
0
41
1
10
185.54500160202
20
-0.115580638122566
30
0
41
1
10
185.576653402038
20
0.0540263493748228
30
0
41
1
10
185.592479302047
20
0.138890672593362
30
0
41
1
10
185.671608802092
20
0.566317532651055
30
0
41
1
10
185.734912402128
20
0.915277012493306
30
0
41
1
10
185.8615196022
20
1.62137779299763
30
0
41
1
10
185.924823202236
20
1.97851214074746
30
0
41
1
10
186.051430402308
20
2.69377080833203
30
0
41
1
10
186.114734002345
20
3.05188181737628
30
0
41
1
10
186.241341202417
20
3.76086935051902
30
0
41
1
10
186.304644802453
20
4.11172686169192
30
0
41
1
10
186.431252002525
20
4.79743915563785
30
0
41
1
10
186.494555602561
20
5.13227132384546
30
0
41
1
10
186.621162802633
20
5.77725490314594
30
0
41
1
10
186.684466402669
20
6.08738339518541
30
0
41
1
10
186.811073602741
20
6.67506855049768
30
0
41
1
10
186.874377202778
20
6.95260575196141
30
0
41
1
10
187.00098440285
20
7.46865455534873
30
0
41
1
10
187.064288002886
20
7.70715337583189
30
0
41
1
10
187.190895202958
20
8.14060413741302
30
0
41
1
10
187.254198802994
20
8.33555177346213
30
0
41
1
10
187.380806003066
20
8.67957299356445
30
0
41
1
10
187.444109603102
20
8.82865070507509
30
0
41
1
10
187.570716803174
20
9.08079974457445
30
0
41
1
10
187.63402040321
20
9.18388194827628
30
0
41
1
10
187.760627603283
20
9.34586958491806
30
0
41
1
10
187.823931203318
20
9.40478998182664
30
0
41
1
10
187.950538403391
20
9.48184707582146
30
0
41
1
10
188.013842003427
20
9.5
30
0
41
1
10
188.077145603463
20
9.5
30
0
0
SPLINE
5
F4
100
AcDbEntity
8
1
62
256
6
ByLayer
370
13
48
1
60
0
100
AcDbSpline
70
4
71
3
72
44
73
40
40
0
40
0
40
0
40
0
40
0.0624999999999997
40
0.0624999999999997
40
0.124999999999999
40
0.124999999999999
40
0.187499999999999
40
0.187499999999999
40
0.249999999999999
40
0.249999999999999
40
0.312499999999999
40
0.312499999999999
40
0.374999999999999
40
0.374999999999999
40
0.437499999999998
40
0.437499999999998
40
0.499999999999998
40
0.499999999999998
40
0.562499999999998
40
0.562499999999998
40
0.624999999999998
40
0.624999999999998
40
0.687499999999998
40
0.687499999999998
40
0.695312499999997
40
0.695312499999997
40
0.703124999999997
40
0.703124999999997
40
0.718749999999997
40
0.718749999999997
40
0.749999999999997
40
0.749999999999997
40
0.812499999999998
40
0.812499999999998
40
0.874999999999999
40
0.874999999999999
40
0.937499999999999
40
0.937499999999999
40
1
40
1
40
1
40
1
41
1
10
188.443349220938
20
9.5
30
0
41
1
10
188.518327003303
20
9.5
30
0
41
1
10
188.593304785669
20
9.47451278915281
30
0
41
1
10
188.743260350399
20
9.36531780789034
30
0
41
1
10
188.818238132764
20
9.28157240970924
30
0
41
1
10
188.968193697495
20
9.05084485806466
30
0
41
1
10
189.04317147986
20
8.90383068505599
30
0
41
1
10
189.193127044591
20
8.54492806265912
30
0
41
1
10
189.268104826956
20
8.33302240331207
30
0
41
1
10
189.418060391687
20
7.84685189540713
30
0
41
1
10
189.493038174052
20
7.57259176488725
30
0
41
1
10
189.642993738782
20
6.96859109086412
30
0
41
1
10
189.717971521148
20
6.63887882165594
30
0
41
1
10
189.867927085878
20
5.93472111115776
30
0
41
1
10
189.942904868244
20
5.56032213821601
30
0
41
1
10
190.092860432974
20
4.78025819809278
30
0
41
1
10
190.167838215339
20
4.3746471741857
30
0
41
1
10
190.31779378007
20
3.546795026273
30
0
41
1
10
190.392771562435
20
3.1246033122419
30
0
41
1
10
190.542727127166
20
2.27779848453685
30
0
41
1
10
190.617704909531
20
1.85322120760361
30
0
41
1
10
190.767660474262
20
1.01411729278124
30
0
41
1
10
190.842638256627
20
0.599609164039748
30
0
41
1
10
190.926988261788
20
0.144515824337873
30
0
41
1
10
190.936360484583
20
0.0941040584123698
30
0
41
1
10
190.955104930175
20
-0.0063949641774173
30
0
41
1
10
190.96447715297
20
-0.0565117482609878
30
0
41
1
10
190.992593821357
20
-0.20766261070932
30
0
41
1
10
191.011338266949
20
-0.309065869125419
30
0
41
1
10
191.067571603723
20
-0.614981745688425
30
0
41
1
10
191.105060494905
20
-0.821205907388048
30
0
41
1
10
191.217527168453
20
-1.44490469779882
30
0
41
1
10
191.292504950818
20
-1.86748114272294
30
0
41
1
10
191.442460515549
20
-2.71453967328114
30
0
41
1
10
191.517438297914
20
-3.13899137445981
30
0
41
1
10
191.667393862645
20
-3.97606091215872
30
0
41
1
10
191.74237164501
20
-4.38863296507475
30
0
41
1
10
191.892327209741
20
-5.18729470054063
30
0
41
1
10
191.967304992106
20
-5.57333065921205
30
0
41
1
10
192.042282774471
20
-5.93911007408067
30
0
0
SPLINE
5
F5
100
AcDbEntity
8
1
62
256
6
ByLayer
370
13
48
1
60
0
100
AcDbSpline
70
4
71
3
72
77
73
73
40
0
40
0
40
0
40
0
40
0.0312500000000017
40
0.0312500000000017
40
0.0625000000000035
40
0.0625000000000035
40
0.0937500000000052
40
0.0937500000000052
40
0.101562500000005
40
0.101562500000005
40
0.109375000000006
40
0.125000000000005
40
0.125000000000005
40
0.156250000000005
40
0.156250000000005
40
0.187500000000005
40
0.187500000000005
40
0.218750000000005
40
0.218750000000005
40
0.250000000000005
40
0.250000000000005
40
0.281250000000004
40
0.281250000000004
40
0.312500000000004
40
0.312500000000004
40
0.343750000000004
40
0.343750000000004
40
0.375000000000004
40
0.375000000000004
40
0.406250000000003
40
0.406250000000003
40
0.437500000000003
40
0.437500000000003
40
0.468750000000003
40
0.468750000000003
40
0.500000000000003
40
0.500000000000003
40
0.531250000000002
40
0.531250000000002
40
0.546875000000002
40
0.546875000000002
40
0.554687500000002
40
0.554687500000002
40
0.562500000000003
40
0.562500000000003
40
0.593750000000002
40
0.593750000000002
40
0.625000000000002
40
0.625000000000002
40
0.656250000000002
40
0.656250000000002
40
0.687500000000002
40
0.687500000000002
40
0.718750000000001
40
0.718750000000001
40
0.750000000000001
40
0.750000000000001
40
0.781250000000001
40
0.781250000000001
40
0.812500000000001
40
0.812500000000001
40
0.843750000000001
40
0.843750000000001
40
0.875000000000001
40
0.875000000000001
40
0.90625
40
0.90625
40
0.9375
40
0.9375
40
0.96875
40
0.96875
40
1
40
1
40
1
40
1
41
1
10
182
20
-8.97321984143338
30
0
41
1
10
182.058140660358
20
-9.08693591495475
30
0
41
1
10
182.116281320715
20
-9.18128668556912
30
0
41
1
10
182.23256264143
20
-9.33267120279064
30
0
41
1
10
182.290703301788
20
-9.38971468616509
30
0
41
1
10
182.406984622503
20
-9.46903517918287
30
0
41
1
10
182.46512528286
20
-9.49132279731055
30
0
41
1
10
182.537801108307
20
-9.49955434840768
30
0
41
1
10
182.552336273396
20
-9.50022190125432
30
0
41
1
10
182.581406603575
20
-9.49965017439857
30
0
41
1
10
182.625012098843
20
-9.49591401888532
30
0
41
1
10
182.668617594112
20
-9.48328078424024
30
0
41
1
10
182.755828584648
20
-9.44550322544717
30
0
41
1
10
182.813969245005
20
-9.40360969582264
30
0
41
1
10
182.93025056572
20
-9.28349139285297
30
0
41
1
10
182.988391226078
20
-9.20525632799445
30
0
41
1
10
183.104672546793
20
-9.01050989461211
30
0
41
1
10
183.16281320715
20
-8.89398999649302
30
0
41
1
10
183.279094527866
20
-8.62200753907518
30
0
41
1
10
183.337235188223
20
-8.46653978060715
30
0
41
1
10
183.453516508938
20
-8.11748589783465
30
0
41
1
10
183.511657169295
20
-7.92389917840441
30
0
41
1
10
183.627938490011
20
-7.50101371916713
30
0
41
1
10
183.686079150368
20
-7.27171959695474
30
0
41
1
10
183.802360471083
20
-6.78134895704244
30
0
41
1
10
183.860501131441
20
-6.52028197039647
30
0
41
1
10
183.976782452156
20
-5.97160417210458
30
0
41
1
10
184.034923112513
20
-5.68400659211812
30
0
41
1
10
184.151204433228
20
-5.08846814996713
30
0
41
1
10
184.209345093586
20
-4.78054235123858
30
0
41
1
10
184.325626414301
20
-4.15107783394058
30
0
41
1
10
184.383767074659
20
-3.82955392574618
30
0
41
1
10
184.500048395374
20
-3.17969716161247
30
0
41
1
10
184.558189055731
20
-2.85137703138994
30
0
41
1
10
184.674470376446
20
-2.1943856561123
30
0
41
1
10
184.732611036804
20
-1.86572381978189
30
0
41
1
10
184.848892357519
20
-1.21382456909728
30
0
41
1
10
184.907033017876
20
-0.890592750397673
30
0
41
1
10
184.994244008413
20
-0.413463533381844
30
0
41
1
10
185.023314338591
20
-0.255699283351248
30
0
41
1
10
185.066919833859
20
-0.0213556140146238
30
0
41
1
10
185.081454998949
20
0.0562502549924488
30
0
41
1
10
185.110525329128
20
0.212706789414682
30
0
41
1
10
185.125060494217
20
0.291313833085212
30
0
41
1
10
185.197736319664
20
0.686086267627189
30
0
41
1
10
185.255876980021
20
1.00750250880085
30
0
41
1
10
185.372158300736
20
1.65688563595563
30
0
41
1
10
185.430298961094
20
1.98484773442189
30
0
41
1
10
185.546580281809
20
2.64173292521281
30
0
41
1
10
185.604720942166
20
2.97064740307013
30
0
41
1
10
185.721002262882
20
3.62310692805784
30
0
41
1
10
185.779142923239
20
3.94663987610619
30
0
41
1
10
185.895424243954
20
4.58157789543642
30
0
41
1
10
185.953564904312
20
4.89296846267052
30
0
41
1
10
186.069846225027
20
5.49683923795055
30
0
41
1
10
186.127986885384
20
5.78930426371673
30
0
41
1
10
186.244268206099
20
6.34896999012966
30
0
41
1
10
186.302408866457
20
6.61615689838049
30
0
41
1
10
186.418690187172
20
7.11978375332632
30
0
41
1
10
186.476830847529
20
7.35621325266601
30
0
41
1
10
186.593112168245
20
7.79408485619194
30
0
41
1
10
186.651252828602
20
7.99552124006408
30
0
41
1
10
186.767534149317
20
8.36065554639427
30
0
41
1
10
186.825674809675
20
8.52435297791308
30
0
41
1
10
186.94195613039
20
8.81284189366588
30
0
41
1
10
187.000096790747
20
8.93763768718458
30
0
41
1
10
187.116378111462
20
9.14867964520812
30
0
41
1
10
187.17451877182
20
9.23493375825942
30
0
41
1
10
187.290800092535
20
9.37058354434231
30
0
41
1
10
187.348940752892
20
9.41998926689078
30
0
41
1
10
187.465222073607
20
9.48469219000748
30
0
41
1
10
187.523362733965
20
9.5
30
0
41
1
10
187.581503394323
20
9.5
30
0
0
SPLINE
5
F6
100
AcDbEntity
8
1
62
256
6
ByLayer
370
13
48
1
60
0
100
AcDbSpline
70
4
71
3
72
44
73
40
40
0
40
0
40
0
40
0
40
0.0625000000000003
40
0.0625000000000003
40
0.125000000000001
40
0.125000000000001
40
0.187500000000001
40
0.187500000000001
40
0.250000000000001
40
0.250000000000001
40
0.312500000000002
40
0.312500000000002
40
0.375000000000002
40
0.375000000000002
40
0.437500000000002
40
0.437500000000002
40
0.500000000000002
40
0.500000000000002
40
0.562500000000003
40
0.562500000000003
40
0.593750000000003
40
0.593750000000003
40
0.609375000000002
40
0.609375000000002
40
0.617187500000002
40
0.617187500000002
40
0.625000000000002
40
0.625000000000002
40
0.687500000000002
40
0.687500000000002
40
0.750000000000001
40
0.750000000000001
40
0.812500000000001
40
0.812500000000001
40
0.875
40
0.875
40
0.9375
40
0.9375
40
1
40
1
40
1
40
1
41
1
10
187.947707011798
20
9.5
30
0
41
1
10
188.03301067352
20
9.5
30
0
41
1
10
188.118314335243
20
9.46697905263866
30
0
41
1
10
188.288921658687
20
9.32441671236734
30
0
41
1
10
188.374225320409
20
9.2148042831968
30
0
41
1
10
188.544832643854
20
8.91255695725494
30
0
41
1
10
188.630136305577
20
8.71986733602853
30
0
41
1
10
188.800743629021
20
8.25104531612416
30
0
41
1
10
188.886047290744
20
7.9748963544771
30
0
41
1
10
189.056654614188
20
7.34596738549877
30
0
41
1
10
189.141958275911
20
6.9932215175084
30
0
41
1
10
189.312565599356
20
6.22491260329201
30
0
41
1
10
189.397869261078
20
5.80942891367172
30
0
41
1
10
189.568476584523
20
4.93471725810281
30
0
41
1
10
189.653780246245
20
4.47559099988393
30
0
41
1
10
189.82438756969
20
3.53510884326209
30
0
41
1
10
189.909691231412
20
3.05384754260601
30
0
41
1
10
190.080298554857
20
2.08999377121234
30
0
41
1
10
190.165602216579
20
1.60746631593165
30
0
41
1
10
190.293557709163
20
0.896036366239315
30
0
41
1
10
190.336209540024
20
0.660923129541402
30
0
41
1
10
190.400187286316
20
0.312653141087907
30
0
41
1
10
190.421513201746
20
0.197294188548142
30
0
41
1
10
190.453502074892
20
0.0255008908396803
30
0
41
1
10
190.464165032607
20
-0.0314575100915988
30
0
41
1
10
190.485490948038
20
-0.146015167308377
30
0
41
1
10
190.496153905753
20
-0.203500961283794
30
0
41
1
10
190.592120525191
20
-0.722626820232733
30
0
41
1
10
190.677424186913
20
-1.19673228294746
30
0
41
1
10
190.848031510358
20
-2.15522921021409
30
0
41
1
10
190.93333517208
20
-2.63957896363348
30
0
41
1
10
191.103942495525
20
-3.59942571148582
30
0
41
1
10
191.189246157248
20
-4.07484469041478
30
0
41
1
10
191.359853480692
20
-4.99540502978803
30
0
41
1
10
191.445157142415
20
-5.44044581221175
30
0
41
1
10
191.615764465859
20
-6.27928636004881
30
0
41
1
10
191.701068127582
20
-6.67298947004537
30
0
41
1
10
191.871675451026
20
-7.39172240682211
30
0
41
1
10
191.956979112749
20
-7.71668812922542
30
0
41
1
10
192.042282774471
20
-8.00162524027493
30
0
0
SPLINE
5
F7
100
AcDbEntity
8
1
62
256
6
ByLayer
370
13
48
1
60
0
100
AcDbSpline
70
4
71
3
72
77
73
73
40
0
40
0
40
0
40
0
40
0.0078124999999998
40
0.0078124999999998
40
0.0156249999999996
40
0.0156249999999996
40
0.0312499999999998
40
0.0312499999999998
40
0.0625000000000001
40
0.0625000000000001
40
0.0937500000000004
40
0.0937500000000004
40
0.125000000000001
40
0.125000000000001
40
0.156250000000001
40
0.156250000000001
40
0.187500000000001
40
0.187500000000001
40
0.218750000000002
40
0.218750000000002
40
0.250000000000002
40
0.250000000000002
40
0.281250000000002
40
0.281250000000002
40
0.312500000000003
40
0.312500000000003
40
0.343750000000003
40
0.343750000000003
40
0.375000000000003
40
0.375000000000003
40
0.406250000000003
40
0.406250000000003
40
0.437500000000004
40
0.437500000000004
40
0.468750000000004
40
0.468750000000004
40
0.500000000000004
40
0.500000000000004
40
0.507812500000004
40
0.507812500000004
40
0.515625000000004
40
0.531250000000004
40
0.531250000000004
40
0.562500000000003
40
0.562500000000003
40
0.593750000000003
40
0.593750000000003
40
0.625000000000003
40
0.625000000000003
40
0.656250000000003
40
0.656250000000003
40
0.687500000000002
40
0.687500000000002
40
0.718750000000002
40
0.718750000000002
40
0.750000000000002
40
0.750000000000002
40
0.781250000000002
40
0.781250000000002
40
0.812500000000001
40
0.812500000000001
40
0.843750000000001
40
0.843750000000001
40
0.875000000000001
40
0.875000000000001
40
0.906250000000001
40
0.906250000000001
40
0.9375
40
0.9375
40
0.96875
40
0.96875
40
1
40
1
40
1
40
1
41
1
10
182
20
-9.49359248464728
30
0
41
1
10
182.01324443017
20
-9.49623404696638
30
0
41
1
10
182.026488860339
20
-9.49804728230865
30
0
41
1
10
182.052977720679
20
-9.50005979087072
30
0
41
1
10
182.066222150849
20
-9.50026289193684
30
0
41
1
10
182.105955441358
20
-9.49848752178085
30
0
41
1
10
182.132444301697
20
-9.49409775583251
30
0
41
1
10
182.211910882716
20
-9.47080180906812
30
0
41
1
10
182.264888603395
20
-9.44175241932834
30
0
41
1
10
182.370844044753
20
-9.35423672044621
30
0
41
1
10
182.423821765432
20
-9.29576378671038
30
0
41
1
10
182.52977720679
20
-9.14761853626135
30
0
41
1
10
182.582754927469
20
-9.05794026077308
30
0
41
1
10
182.688710368827
20
-8.84640368755041
30
0
41
1
10
182.741688089506
20
-8.72454092446722
30
0
41
1
10
182.847643530864
20
-8.44861618039755
30
0
41
1
10
182.900621251543
20
-8.29455200072977
30
0
41
1
10
183.006576692901
20
-7.95526951622097
30
0
41
1
10
183.05955441358
20
-7.77005183080411
30
0
41
1
10
183.165509854938
20
-7.37059725904336
30
0
41
1
10
183.218487575617
20
-7.15636399223797
30
0
41
1
10
183.324443016975
20
-6.70203972328051
30
0
41
1
10
183.377420737653
20
-6.4619550745301
30
0
41
1
10
183.483376179011
20
-5.9599649704243
30
0
41
1
10
183.53635389969
20
-5.69806791106419
30
0
41
1
10
183.642309341048
20
-5.15714107145405
30
0
41
1
10
183.695287061727
20
-4.87812073990153
30
0
41
1
10
183.801242503085
20
-4.30801486258591
30
0
41
1
10
183.854220223764
20
-4.01693872481266
30
0
41
1
10
183.960175665122
20
-3.42788104642384
30
0
41
1
10
184.013153385801
20
-3.12990788292569
30
0
41
1
10
184.119108827159
20
-2.53203781285205
30
0
41
1
10
184.172086547838
20
-2.2321475272596
30
0
41
1
10
184.278041989196
20
-1.63501922100357
30
0
41
1
10
184.331019709875
20
-1.33778568581693
30
0
41
1
10
184.436975151233
20
-0.749973493928508
30
0
41
1
10
184.489952871912
20
-0.459397148856994
30
0
41
1
10
184.556175022761
20
-0.102415645777398
30
0
41
1
10
184.569419452931
20
-0.0315055577259216
30
0
41
1
10
184.59590831327
20
0.110488863838242
30
0
41
1
10
184.635641603779
20
0.324453427615993
30
0
41
1
10
184.675374894288
20
0.541134459961569
30
0
41
1
10
184.754841475307
20
0.977516544850545
30
0
41
1
10
184.807819195986
20
1.27248537653878
30
0
41
1
10
184.913774637344
20
1.86678886004157
30
0
41
1
10
184.966752358023
20
2.16611992440391
30
0
41
1
10
185.072707799381
20
2.76479319834891
30
0
41
1
10
185.12568552006
20
3.06412963103412
30
0
41
1
10
185.231640961418
20
3.65797673896407
30
0
41
1
10
185.284618682097
20
3.95247968341178
30
0
41
1
10
185.390574123455
20
4.53154456646783
30
0
41
1
10
185.443551844134
20
4.81609740949278
30
0
41
1
10
185.549507285492
20
5.3701235355187
30
0
41
1
10
185.602485006171
20
5.63958725586792
30
0
41
1
10
185.708440447529
20
6.15855690923078
30
0
41
1
10
185.761418168208
20
6.40805388742089
30
0
41
1
10
185.867373609566
20
6.8827542010668
30
0
41
1
10
185.920351330245
20
7.1079502471799
30
0
41
1
10
186.026306771602
20
7.53050288469154
30
0
41
1
10
186.079284492281
20
7.72785468536216
30
0
41
1
10
186.18523993364
20
8.09214720983218
30
0
41
1
10
186.238217654319
20
8.25908608987254
30
0
41
1
10
186.344173095676
20
8.56105618814644
30
0
41
1
10
186.397150816355
20
8.69608850592687
30
0
41
1
10
186.503106257713
20
8.93383465075351
30
0
41
1
10
186.556083978392
20
9.03655210469739
30
0
41
1
10
186.66203941975
20
9.21027058512291
30
0
41
1
10
186.715017140429
20
9.2812770627045
30
0
41
1
10
186.820972581787
20
9.39304943477029
30
0
41
1
10
186.873950302466
20
9.43382177963898
30
0
41
1
10
186.979905743824
20
9.48729373222153
30
0
41
1
10
187.032883464503
20
9.5
30
0
41
1
10
187.085861185182
20
9.5
30
0
0
SPLINE
5
F8
100
AcDbEntity
8
1
62
256
6
ByLayer
370
13
48
1
60
0
100
AcDbSpline
70
4
71
3
72
42
73
38
40
0
40
0
40
0
40
0
40
0.0624999999999999
40
0.0624999999999999
40
0.125
40
0.125
40
0.1875
40
0.1875
40
0.25
40
0.25
40
0.3125
40
0.3125
40
0.375
40
0.375
40
0.437499999999999
40
0.437499999999999
40
0.499999999999999
40
0.499999999999999
40
0.531249999999999
40
0.531249999999999
40
0.546874999999999
40
0.546874999999999
40
0.562499999999999
40
0.562499999999999
40
0.624999999999999
40
0.624999999999999
40
0.687499999999999
40
0.687499999999999
40
0.749999999999999
40
0.749999999999999
40
0.8125
40
0.8125
40
0.875
40
0.875
40
0.9375
40
0.9375
40
1
40
1
40
1
40
1
41
1
10
187.452064802657
20
9.5
30
0
41
1
10
187.547694343737
20
9.5
30
0
41
1
10
187.643323884816
20
9.45845601161841
30
0
41
1
10
187.834582966975
20
9.27780185284527
30
0
41
1
10
187.930212508055
20
9.13856775097904
30
0
41
1
10
188.121471590214
20
8.754709003004
30
0
41
1
10
188.217101131293
20
8.5100010216895
30
0
41
1
10
188.408360213452
20
7.91756022902905
30
0
41
1
10
188.503989754531
20
7.56982975034848
30
0
41
1
10
188.69524883669
20
6.78527244480321
30
0
41
1
10
188.79087837777
20
6.34854788441507
30
0
41
1
10
188.982137459929
20
5.40993618972655
30
0
41
1
10
189.077767001008
20
4.90821902169304
30
0
41
1
10
189.269026083167
20
3.86931031276788
30
0
41
1
10
189.364655624246
20
3.33229399504069
30
0
41
1
10
189.555914706405
20
2.25279904174229
30
0
41
1
10
189.651544247485
20
1.71044489020778
30
0
41
1
10
189.794988559104
20
0.912052367427293
30
0
41
1
10
189.842803329644
20
0.648398874326034
30
0
41
1
10
189.914525485453
20
0.258544041863786
30
0
41
1
10
189.938432870723
20
0.129526418350395
30
0
41
1
10
189.986247641263
20
-0.126366421049283
30
0
41
1
10
190.010155026533
20
-0.255349968301857
30
0
41
1
10
190.129691952882
20
-0.905031180692504
30
0
41
1
10
190.225321493962
20
-1.44001705207185
30
0
41
1
10
190.416580576121
20
-2.51834659291492
30
0
41
1
10
190.5122101172
20
-3.06160225492937
30
0
41
1
10
190.703469199359
20
-4.12830740614797
30
0
41
1
10
190.799098740438
20
-4.65160189433348
30
0
41
1
10
190.990357822597
20
-5.64791171402175
30
0
41
1
10
191.085987363677
20
-6.12074614955549
30
0
41
1
10
191.277246445835
20
-6.98858584640496
30
0
41
1
10
191.372875986915
20
-7.38344817518481
30
0
41
1
10
191.564135069074
20
-8.07582712716271
30
0
41
1
10
191.659764610153
20
-8.37329013778782
30
0
41
1
10
191.851023692312
20
-8.86250278213913
30
0
41
1
10
191.946653233392
20
-9.05429711739228
30
0
41
1
10
192.042282774471
20
-9.19468641820743
30
0
0
SPLINE
5
F9
100
AcDbEntity
8
1
62
256
6
ByLayer
370
13
48
1
60
0
100
AcDbSpline
70
4
71
3
72
42
73
38
40
0
40
0
40
0
40
0
40
0.0625000000000013
40
0.0625000000000013
40
0.125000000000003
40
0.125000000000003
40
0.187500000000004
40
0.187500000000004
40
0.250000000000005
40
0.250000000000005
40
0.312500000000007
40
0.312500000000007
40
0.375000000000008
40
0.375000000000008
40
0.437500000000009
40
0.437500000000009
40
0.453125000000009
40
0.453125000000009
40
0.468750000000009
40
0.468750000000009
40
0.500000000000009
40
0.500000000000009
40
0.562500000000008
40
0.562500000000008
40
0.625000000000007
40
0.625000000000007
40
0.687500000000006
40
0.687500000000006
40
0.750000000000005
40
0.750000000000005
40
0.812500000000003
40
0.812500000000003
40
0.875000000000002
40
0.875000000000002
40
0.937500000000001
40
0.937500000000001
40
1
40
1
40
1
40
1
41
1
10
182
20
-9.19468789246656
30
0
41
1
10
182.095629562001
20
-9.05429891791496
30
0
41
1
10
182.191259124002
20
-8.86250490001638
30
0
41
1
10
182.382518248003
20
-8.37329283616046
30
0
41
1
10
182.478147810004
20
-8.07583008834229
30
0
41
1
10
182.669406934006
20
-7.38345157598226
30
0
41
1
10
182.765036496007
20
-6.98858942375935
30
0
41
1
10
182.956295620009
20
-6.12074997682731
30
0
41
1
10
183.05192518201
20
-5.64791561461311
30
0
41
1
10
183.243184306011
20
-4.65160584060359
30
0
41
1
10
183.338813868012
20
-4.12831132496115
30
0
41
1
10
183.530072992014
20
-3.06160603729921
30
0
41
1
10
183.625702554015
20
-2.51835026659299
30
0
41
1
10
183.816961678017
20
-1.44002045576374
30
0
41
1
10
183.912591240017
20
-0.905034423350457
30
0
41
1
10
184.032128192518
20
-0.25535299526851
30
0
41
1
10
184.056035583019
20
-0.126369371769727
30
0
41
1
10
184.103850364019
20
0.129523490841365
30
0
41
1
10
184.12775775452
20
0.25854112742374
30
0
41
1
10
184.19947992602
20
0.648396003547646
30
0
41
1
10
184.247294707021
20
0.912049531712483
30
0
41
1
10
184.390739050022
20
1.71044217753035
30
0
41
1
10
184.486368612023
20
2.25279643519232
30
0
41
1
10
184.677627736024
20
3.33229164207751
30
0
41
1
10
184.773257298025
20
3.86930810723342
30
0
41
1
10
184.964516422027
20
4.90821713604319
30
0
41
1
10
185.060145984028
20
5.40993447637746
30
0
41
1
10
185.25140510803
20
6.34854651758212
30
0
41
1
10
185.347034670031
20
6.78527125195887
30
0
41
1
10
185.538293794032
20
7.56982888348748
30
0
41
1
10
185.633923356033
20
7.91755951397173
30
0
41
1
10
185.825182480035
20
8.51000057024172
30
0
41
1
10
185.920812042036
20
8.75470866329349
30
0
41
1
10
186.112071166038
20
9.13856758681561
30
0
41
1
10
186.207700728038
20
9.2778017525531
30
0
41
1
10
186.39895985204
20
9.45845599334237
30
0
41
1
10
186.494589414041
20
9.5
30
0
41
1
10
186.590218976042
20
9.5
30
0
0
SPLINE
5
FA
100
AcDbEntity
8
1
62
256
6
ByLayer
370
13
48
1
60
0
100
AcDbSpline
70
4
71
3
72
78
73
74
40
0
40
0
40
0
40
0
40
0.0312500000000002
40
0.0312500000000002
40
0.0625000000000004
40
0.0625000000000004
40
0.0937500000000005
40
0.0937500000000005
40
0.125000000000001
40
0.125000000000001
40
0.156250000000001
40
0.156250000000001
40
0.187500000000001
40
0.187500000000001
40
0.218750000000001
40
0.218750000000001
40
0.250000000000001
40
0.250000000000001
40
0.281250000000002
40
0.281250000000002
40
0.312500000000002
40
0.312500000000002
40
0.343750000000002
40
0.343750000000002
40
0.375000000000002
40
0.375000000000002
40
0.406250000000003
40
0.406250000000003
40
0.437500000000003
40
0.437500000000003
40
0.468750000000003
40
0.468750000000003
40
0.484375000000003
40
0.484375000000003
40
0.492187500000003
40
0.492187500000003
40
0.500000000000004
40
0.500000000000004
40
0.531250000000003
40
0.531250000000003
40
0.562500000000003
40
0.562500000000003
40
0.593750000000003
40
0.593750000000003
40
0.625000000000002
40
0.625000000000002
40
0.656250000000002
40
0.656250000000002
40
0.687500000000002
40
0.687500000000002
40
0.718750000000002
40
0.718750000000002
40
0.750000000000001
40
0.750000000000001
40
0.781250000000001
40
0.781250000000001
40
0.812500000000001
40
0.812500000000001
40
0.843750000000001
40
0.843750000000001
40
0.875000000000001
40
0.875000000000001
40
0.90625
40
0.90625
40
0.9375
40
0.9375
40
0.96875
40
0.96875
40
0.984375
40
0.984375
40
0.9921875
40
0.9921875
40
1
40
1
40
1
40
1
41
1
10
186.956422593517
20
9.5
30
0
41
1
10
187.009400303735
20
9.5
30
0
41
1
10
187.062378013954
20
9.48729373724612
30
0
41
1
10
187.16833343439
20
9.43382180628927
30
0
41
1
10
187.221311144609
20
9.39304947802825
30
0
41
1
10
187.327266565045
20
9.28127715186659
30
0
41
1
10
187.380244275263
20
9.21027070358758
30
0
41
1
10
187.4861996957
20
9.03655229494677
30
0
41
1
10
187.539177405918
20
8.93383488348954
30
0
41
1
10
187.645132826355
20
8.69608883652049
30
0
41
1
10
187.698110536573
20
8.56105657411283
30
0
41
1
10
187.80406595701
20
8.25908659828826
30
0
41
1
10
187.857043667228
20
8.09214778532277
30
0
41
1
10
187.962999087664
20
7.72785540463573
30
0
41
1
10
188.015976797883
20
7.53050368066783
30
0
41
1
10
188.121932218319
20
7.10795120334041
30
0
41
1
10
188.174909928537
20
6.88275524070025
30
0
41
1
10
188.280865348974
20
6.4080550973531
30
0
41
1
10
188.333843059192
20
6.15855820597824
30
0
41
1
10
188.439798479629
20
5.63958872589413
30
0
41
1
10
188.492776189847
20
5.37012509199749
30
0
41
1
10
188.598731610283
20
4.81609913486923
30
0
41
1
10
188.651709320502
20
4.5315463742798
30
0
41
1
10
188.757664740938
20
3.95248164879342
30
0
41
1
10
188.810642451156
20
3.6579787794729
30
0
41
1
10
188.916597871593
20
3.06413181181421
30
0
41
1
10
188.969575581812
20
2.76479544426948
30
0
41
1
10
189.075531002248
20
2.16612228871148
30
0
41
1
10
189.128508712466
20
1.86679127759535
30
0
41
1
10
189.234464132903
20
1.27248788760701
30
0
41
1
10
189.287441843121
20
0.977519096189525
30
0
41
1
10
189.366908408449
20
0.541137061752607
30
0
41
1
10
189.393397263558
20
0.396683055353122
30
0
41
1
10
189.433130546221
20
0.181813252282552
30
0
41
1
10
189.446374973776
20
0.11049150743446
30
0
41
1
10
189.472863828885
20
-0.0315029022351041
30
0
41
1
10
189.48610825644
20
-0.102412960983344
30
0
41
1
10
189.552330394212
20
-0.459394354385893
30
0
41
1
10
189.605308104431
20
-0.749970614427866
30
0
41
1
10
189.711263524867
20
-1.33778264593119
30
0
41
1
10
189.764241235086
20
-1.63501610577154
30
0
41
1
10
189.870196655522
20
-2.23214427557224
30
0
41
1
10
189.92317436574
20
-2.53203450006791
30
0
41
1
10
190.029129786177
20
-3.12990446672401
30
0
41
1
10
190.082107496395
20
-3.42787758791545
30
0
41
1
10
190.188062916832
20
-4.01693520458085
30
0
41
1
10
190.24104062705
20
-4.30801132295136
30
0
41
1
10
190.346996047486
20
-4.87811718761253
30
0
41
1
10
190.399973757705
20
-5.15713752592495
30
0
41
1
10
190.505929178141
20
-5.69806440722076
30
0
41
1
10
190.55890688836
20
-5.95996150151373
30
0
41
1
10
190.664862308796
20
-6.46195170413094
30
0
41
1
10
190.717840019014
20
-6.70203641646094
30
0
41
1
10
190.823795439451
20
-7.15636084003967
30
0
41
1
10
190.876773149669
20
-7.37059419788139
30
0
41
1
10
190.982728570106
20
-7.77004897639395
30
0
41
1
10
191.035706280324
20
-7.95526677751539
30
0
41
1
10
191.14166170076
20
-8.29454951397943
30
0
41
1
10
191.194639410979
20
-8.44861382988321
30
0
41
1
10
191.300594831415
20
-8.72453886188046
30
0
41
1
10
191.353572541633
20
-8.84640177663928
30
0
41
1
10
191.45952796207
20
-9.05793866309071
30
0
41
1
10
191.512505672289
20
-9.1476171001172
30
0
41
1
10
191.618461092725
20
-9.29576267792686
30
0
41
1
10
191.671438802943
20
-9.35423577747304
30
0
41
1
10
191.77739422338
20
-9.44175180706202
30
0
41
1
10
191.830371933598
20
-9.47080136169012
30
0
41
1
10
191.909838498925
20
-9.4940975517286
30
0
41
1
10
191.936327354035
20
-9.49848739809812
30
0
41
1
10
191.976060636698
20
-9.50026288752096
30
0
41
1
10
191.989305064253
20
-9.50005982590122
30
0
41
1
10
192.015793919362
20
-9.49804739867679
30
0
41
1
10
192.029038346917
20
-9.49623420486586
30
0
41
1
10
192.042282774471
20
-9.49359268493606
30
0
0
SPLINE
5
FB
100
AcDbEntity
8
1
62
256
6
ByLayer
370
13
48
1
60
0
100
AcDbSpline
70
4
71
3
72
44
73
40
40
0
40
0
40
0
40
0
40
0.0624999999999992
40
0.0624999999999992
40
0.124999999999998
40
0.124999999999998
40
0.187499999999998
40
0.187499999999998
40
0.249999999999997
40
0.249999999999997
40
0.312499999999996
40
0.312499999999996
40
0.374999999999995
40
0.374999999999995
40
0.382812499999995
40
0.382812499999995
40
0.390624999999995
40
0.390624999999995
40
0.406249999999995
40
0.406249999999995
40
0.437499999999995
40
0.437499999999995
40
0.499999999999996
40
0.499999999999996
40
0.562499999999996
40
0.562499999999996
40
0.624999999999997
40
0.624999999999997
40
0.687499999999997
40
0.687499999999997
40
0.749999999999998
40
0.749999999999998
40
0.812499999999998
40
0.812499999999998
40
0.874999999999999
40
0.874999999999999
40
0.937499999999999
40
0.937499999999999
40
1
40
1
40
1
40
1
41
1
10
182
20
-8.00162859466488
30
0
41
1
10
182.085303682644
20
-7.71669172561417
30
0
41
1
10
182.170607365287
20
-7.39172621009348
30
0
41
1
10
182.341214730575
20
-6.67299359915268
30
0
41
1
10
182.426518413219
20
-6.27929060802578
30
0
41
1
10
182.597125778506
20
-5.44045020499877
30
0
41
1
10
182.68242946115
20
-4.99540944856778
30
0
41
1
10
182.853036826438
20
-4.07484907685787
30
0
41
1
10
182.938340509082
20
-3.5994300397567
30
0
41
1
10
183.108947874369
20
-2.63958311013249
30
0
41
1
10
183.194251557013
20
-2.15523323330308
30
0
41
1
10
183.3648589223
20
-1.1967360174732
30
0
41
1
10
183.450162604944
20
-0.72263038975899
30
0
41
1
10
183.546129247919
20
-0.203504334689427
30
0
41
1
10
183.556792208249
20
-0.146018518775122
30
0
41
1
10
183.57811812891
20
-0.0314608174257671
30
0
41
1
10
183.58878108924
20
0.025497598298017
30
0
41
1
10
183.620769970232
20
0.197290914343029
30
0
41
1
10
183.642095890893
20
0.312649880417325
30
0
41
1
10
183.706073652876
20
0.660919913451266
30
0
41
1
10
183.748725494197
20
0.896033185183484
30
0
41
1
10
183.876681018163
20
1.60746325590625
30
0
41
1
10
183.961984700807
20
2.08999081332621
30
0
41
1
10
184.132592066095
20
3.05384482705921
30
0
41
1
10
184.217895748738
20
3.53510626790671
30
0
41
1
10
184.388503114026
20
4.47558873135901
30
0
41
1
10
184.47380679667
20
4.93471515613658
30
0
41
1
10
184.644414161957
20
5.80942715409401
30
0
41
1
10
184.729717844601
20
6.22491101940906
30
0
41
1
10
184.900325209889
20
6.9932202748802
30
0
41
1
10
184.985628892532
20
7.3459663082896
30
0
41
1
10
185.15623625782
20
7.97489558068622
30
0
41
1
10
185.241539940464
20
8.25104468024048
30
0
41
1
10
185.412147305751
20
8.71986693707012
30
0
41
1
10
185.497450988395
20
8.91255665730009
30
0
41
1
10
185.668058353683
20
9.2148041383798
30
0
41
1
10
185.753362036326
20
9.32441662373753
30
0
41
1
10
185.923969401614
20
9.46697903637471
30
0
41
1
10
186.009273084258
20
9.5
30
0
41
1
10
186.094576766901
20
9.5
30
0
0
SPLINE
5
FC
100
AcDbEntity
8
1
62
256
6
ByLayer
370
13
48
1
60
0
100
AcDbSpline
70
4
71
3
72
78
73
74
40
0
40
0
40
0
40
0
40
0.0312499999999995
40
0.0312499999999995
40
0.0624999999999991
40
0.0624999999999991
40
0.0937499999999986
40
0.0937499999999986
40
0.124999999999998
40
0.124999999999998
40
0.156249999999998
40
0.156249999999998
40
0.187499999999997
40
0.187499999999997
40
0.218749999999997
40
0.218749999999997
40
0.249999999999996
40
0.249999999999996
40
0.281249999999995
40
0.281249999999995
40
0.312499999999995
40
0.312499999999995
40
0.343749999999994
40
0.343749999999994
40
0.374999999999994
40
0.374999999999994
40
0.406249999999993
40
0.406249999999993
40
0.437499999999993
40
0.437499999999993
40
0.445312499999993
40
0.445312499999993
40
0.453124999999993
40
0.453124999999993
40
0.468749999999992
40
0.468749999999992
40
0.499999999999993
40
0.499999999999993
40
0.531249999999993
40
0.531249999999993
40
0.562499999999994
40
0.562499999999994
40
0.593749999999994
40
0.593749999999994
40
0.624999999999994
40
0.624999999999994
40
0.656249999999995
40
0.656249999999995
40
0.687499999999995
40
0.687499999999995
40
0.718749999999996
40
0.718749999999996
40
0.749999999999996
40
0.749999999999996
40
0.781249999999997
40
0.781249999999997
40
0.812499999999997
40
0.812499999999997
40
0.843749999999997
40
0.843749999999997
40
0.874999999999998
40
0.874999999999998
40
0.890624999999998
40
0.890624999999998
40
0.898437499999998
40
0.898437499999998
40
0.906249999999999
40
0.906249999999999
40
0.937499999999999
40
0.937499999999999
40
0.96875
40
0.96875
40
1
40
1
40
1
40
1
41
1
10
186.460780384377
20
9.5
30
0
41
1
10
186.518921034273
20
9.5
30
0
41
1
10
186.577061684171
20
9.48469219552507
30
0
41
1
10
186.693342983964
20
9.41998929629739
30
0
41
1
10
186.751483633861
20
9.37058359212986
30
0
41
1
10
186.867764933655
20
9.23493385690915
30
0
41
1
10
186.925905583551
20
9.14867977634765
30
0
41
1
10
187.042186883345
20
8.93763789778245
30
0
41
1
10
187.100327533242
20
8.81284215123785
30
0
41
1
10
187.216608833035
20
8.52435334320276
30
0
41
1
10
187.274749482932
20
8.36065597242833
30
0
41
1
10
187.391030782726
20
7.99552179945849
30
0
41
1
10
187.449171432623
20
7.7940854881972
30
0
41
1
10
187.565452732416
20
7.35621403873998
30
0
41
1
10
187.623593382313
20
7.11978462084741
30
0
41
1
10
187.739874682107
20
6.61615793373056
30
0
41
1
10
187.798015332004
20
6.34897111184699
30
0
41
1
10
187.914296631797
20
5.78930555869067
30
0
41
1
10
187.972437281694
20
5.49684061979801
30
0
41
1
10
188.088718581488
20
4.89297001434272
30
0
41
1
10
188.146859231385
20
4.58157953004567
30
0
41
1
10
188.263140531178
20
3.94664166865255
30
0
41
1
10
188.321281181075
20
3.62310879559422
30
0
41
1
10
188.437562480869
20
2.97064940943687
30
0
41
1
10
188.495703130765
20
2.64173499541513
30
0
41
1
10
188.611984430559
20
1.98484991896149
30
0
41
1
10
188.670125080456
20
1.65688787099734
30
0
41
1
10
188.786406380249
20
1.00750483042168
30
0
41
1
10
188.844547030146
20
0.686088625329461
30
0
41
1
10
188.917222842517
20
0.291316226825359
30
0
41
1
10
188.931758004992
20
0.212709189911436
30
0
41
1
10
188.96082832994
20
0.05625266810776
30
0
41
1
10
188.975363492414
20
-0.0213531905943114
30
0
41
1
10
189.018968979837
20
-0.255696793780061
30
0
41
1
10
189.048039304785
20
-0.413461000409995
30
0
41
1
10
189.13525027963
20
-0.890590090251578
30
0
41
1
10
189.193390929527
20
-1.213821828194
30
0
41
1
10
189.309672229321
20
-1.86572093075569
30
0
41
1
10
189.367812879218
20
-2.19438269973639
30
0
41
1
10
189.484094179011
20
-2.85137395924048
30
0
41
1
10
189.542234828908
20
-3.17969404105887
30
0
41
1
10
189.658516128702
20
-3.82955073247294
30
0
41
1
10
189.716656778598
20
-4.15107461637245
30
0
41
1
10
189.832938078392
20
-4.78053911334382
30
0
41
1
10
189.891078728289
20
-5.08846491605817
30
0
41
1
10
190.007360028083
20
-5.68400339704297
30
0
41
1
10
190.065500677979
20
-5.97160101188811
30
0
41
1
10
190.181781977773
20
-6.52027891134503
30
0
41
1
10
190.23992262767
20
-6.78134596429845
30
0
41
1
10
190.356203927463
20
-7.27171676665898
30
0
41
1
10
190.41434457736
20
-7.50101098500309
30
0
41
1
10
190.530625877154
20
-7.92389666264174
30
0
41
1
10
190.588766527051
20
-8.11748350432413
30
0
41
1
10
190.705047826844
20
-8.46653765236897
30
0
41
1
10
190.763188476741
20
-8.62200555383492
30
0
41
1
10
190.879469776535
20
-8.89398831158437
30
0
41
1
10
190.937610426431
20
-9.01050836701427
30
0
41
1
10
191.053891726225
20
-9.20525512255372
30
0
41
1
10
191.112032376122
20
-9.28349035223889
30
0
41
1
10
191.228313675916
20
-9.4036089858804
30
0
41
1
10
191.286454325813
20
-9.44550268133614
30
0
41
1
10
191.373665300658
20
-9.48328048534867
30
0
41
1
10
191.402735625606
20
-9.49170272293816
30
0
41
1
10
191.446341113029
20
-9.49840449335551
30
0
41
1
10
191.460876275503
20
-9.49965011699268
30
0
41
1
10
191.489946600451
20
-9.50022192316911
30
0
41
1
10
191.504481762926
20
-9.49955441029178
30
0
41
1
10
191.577157575297
20
-9.49132306516512
30
0
41
1
10
191.635298225193
20
-9.46903562702383
30
0
41
1
10
191.751579524987
20
-9.38971552274734
30
0
41
1
10
191.809720174884
20
-9.33267224813653
30
0
41
1
10
191.926001474677
20
-9.18128817328082
30
0
41
1
10
191.984142124574
20
-9.08693763626817
30
0
41
1
10
192.042282774471
20
-8.97322180558004
30
0
0
SPLINE
5
FD
100
AcDbEntity
8
1
62
256
6
ByLayer
370
13
48
1
60
0
100
AcDbSpline
70
4
71
3
72
44
73
40
40
0
40
0
40
0
40
0
40
0.0624999999999993
40
0.0624999999999993
40
0.124999999999999
40
0.124999999999999
40
0.187499999999998
40
0.187499999999998
40
0.249999999999998
40
0.249999999999998
40
0.281249999999998
40
0.281249999999998
40
0.296874999999998
40
0.296874999999998
40
0.304687499999998
40
0.304687499999998
40
0.312499999999998
40
0.312499999999998
40
0.374999999999998
40
0.374999999999998
40
0.437499999999998
40
0.437499999999998
40
0.499999999999998
40
0.499999999999998
40
0.562499999999998
40
0.562499999999998
40
0.624999999999999
40
0.624999999999999
40
0.687499999999999
40
0.687499999999999
40
0.749999999999999
40
0.749999999999999
40
0.812499999999999
40
0.812499999999999
40
0.875
40
0.875
40
0.9375
40
0.9375
40
1
40
1
40
1
40
1
41
1
10
182
20
-5.9391149732111
30
0
41
1
10
182.074977803287
20
-5.57333563655362
30
0
41
1
10
182.149955606573
20
-5.18729971534873
30
0
41
1
10
182.299911213147
20
-4.38863797871966
30
0
41
1
10
182.374889016434
20
-3.97606588725952
30
0
41
1
10
182.524844623007
20
-3.1389962093682
30
0
41
1
10
182.599822426294
20
-2.71454440665391
30
0
41
1
10
182.749778032867
20
-1.86748562734886
30
0
41
1
10
182.824755836154
20
-1.44490903531857
30
0
41
1
10
182.937222541084
20
-0.821210003844044
30
0
41
1
10
182.974711442727
20
-0.614985758387036
30
0
41
1
10
183.030944795192
20
-0.309069752700907
30
0
41
1
10
183.049689246014
20
-0.207666450661577
30
0
41
1
10
183.077805922246
20
-0.0565155220958218
30
0
41
1
10
183.087178147657
20
-0.0063987138468633
30
0
41
1
10
183.105922598479
20
0.0941003206707762
30
0
41
1
10
183.11529482389
20
0.144512092847378
30
0
41
1
10
183.199644852587
20
0.599605491411353
30
0
41
1
10
183.274622655874
20
1.01411369113487
30
0
41
1
10
183.424578262447
20
1.85321778507048
30
0
41
1
10
183.499556065734
20
2.27779517015759
30
0
41
1
10
183.649511672307
20
3.12460024684114
30
0
41
1
10
183.724489475594
20
3.54679210168811
30
0
41
1
10
183.874445082167
20
4.3746445547778
30
0
41
1
10
183.949422885454
20
4.78025574299926
30
0
41
1
10
184.099378492027
20
5.56032002234193
30
0
41
1
10
184.174356295314
20
5.93471917011132
30
0
41
1
10
184.324311901887
20
6.63887722597892
30
0
41
1
10
184.399289705174
20
6.96858966564184
30
0
41
1
10
184.549245311748
20
7.57259066204972
30
0
41
1
10
184.624223115034
20
7.84685094442958
30
0
41
1
10
184.774178721608
20
8.33302172638662
30
0
41
1
10
184.849156524894
20
8.54492750789248
30
0
41
1
10
184.999112131468
20
8.90383033850514
30
0
41
1
10
185.074089934755
20
9.05084459757867
30
0
41
1
10
185.224045541328
20
9.28157228390884
30
0
41
1
10
185.299023344615
20
9.36531773074941
30
0
41
1
10
185.448978951188
20
9.47451277488608
30
0
41
1
10
185.523956754474
20
9.5
30
0
41
1
10
185.598934557761
20
9.5
30
0
0
SPLINE
5
FE
100
AcDbEntity
8
1
62
256
6
ByLayer
370
13
48
1
60
0
100
AcDbSpline
70
4
71
3
72
77
73
73
40
0
40
0
40
0
40
0
40
0.03125
40
0.03125
40
0.0625
40
0.0625
40
0.09375
40
0.09375
40
0.125
40
0.125
40
0.15625
40
0.15625
40
0.1875
40
0.1875
40
0.21875
40
0.21875
40
0.25
40
0.25
40
0.28125
40
0.28125
40
0.3125
40
0.3125
40
0.34375
40
0.34375
40
0.375
40
0.375
40
0.40625
40
0.40625
40
0.414062500000001
40
0.414062500000001
40
0.421875000000001
40
0.437500000000001
40
0.437500000000001
40
0.468750000000001
40
0.468750000000001
40
0.500000000000001
40
0.500000000000001
40
0.531250000000001
40
0.531250000000001
40
0.562500000000001
40
0.562500000000001
40
0.593750000000001
40
0.593750000000001
40
0.625000000000001
40
0.625000000000001
40
0.656250000000002
40
0.656250000000002
40
0.687500000000002
40
0.687500000000002
40
0.718750000000002
40
0.718750000000002
40
0.750000000000002
40
0.750000000000002
40
0.781250000000002
40
0.781250000000002
40
0.812500000000002
40
0.812500000000002
40
0.820312500000002
40
0.820312500000002
40
0.828125000000001
40
0.828125000000001
40
0.843750000000001
40
0.843750000000001
40
0.875000000000001
40
0.875000000000001
40
0.906250000000001
40
0.906250000000001
40
0.937500000000001
40
0.937500000000001
40
0.96875
40
0.96875
40
1
40
1
40
1
40
1
41
1
10
185.965138175237
20
9.5
30
0
41
1
10
186.028441764812
20
9.5
30
0
41
1
10
186.091745354387
20
9.48184708183311
30
0
41
1
10
186.218352533538
20
9.40479001401528
30
0
41
1
10
186.281656123113
20
9.34586963728546
30
0
41
1
10
186.408263302264
20
9.18388205651644
30
0
41
1
10
186.47156689184
20
9.08079988852009
30
0
41
1
10
186.59817407099
20
8.82865093613063
30
0
41
1
10
186.661477660566
20
8.6795732760306
30
0
41
1
10
186.788084839716
20
8.33555217317641
30
0
41
1
10
186.851388429291
20
8.14060460296298
30
0
41
1
10
186.977995608442
20
7.70715398467647
30
0
41
1
10
187.041299198018
20
7.46865524164139
30
0
41
1
10
187.167906377168
20
6.95260660062519
30
0
41
1
10
187.231209966744
20
6.67506948406609
30
0
41
1
10
187.357817145894
20
6.08738450099057
30
0
41
1
10
187.42112073547
20
5.77725609626106
30
0
41
1
10
187.547727914621
20
5.13227268868403
30
0
41
1
10
187.611031504196
20
4.79744060486897
30
0
41
1
10
187.737638683347
20
4.11172847187646
30
0
41
1
10
187.800942272922
20
3.76087103724905
30
0
41
1
10
187.927549452073
20
3.05188364538176
30
0
41
1
10
187.990853041648
20
2.69377270105994
30
0
41
1
10
188.117460220799
20
1.97851414842603
30
0
41
1
10
188.180763810374
20
1.62137985090482
30
0
41
1
10
188.307370989525
20
0.915279155095902
30
0
41
1
10
188.3706745791
20
0.566319709727082
30
0
41
1
10
188.44980406607
20
0.138892882928758
30
0
41
1
10
188.465629963463
20
0.0540285553707918
30
0
41
1
10
188.497281758251
20
-0.115578387826474
30
0
41
1
10
188.544759450432
20
-0.371381668959259
30
0
41
1
10
188.592237142614
20
-0.631018713935276
30
0
41
1
10
188.687192526977
20
-1.15435801612946
30
0
41
1
10
188.750496116552
20
-1.50871212177344
30
0
41
1
10
188.877103295703
20
-2.22172048285839
30
0
41
1
10
188.940406885278
20
-2.58036422287114
30
0
41
1
10
189.067014064429
20
-3.29413155192404
30
0
41
1
10
189.130317654005
20
-3.64923846073714
30
0
41
1
10
189.256924833155
20
-4.34733189146547
30
0
41
1
10
189.320228422731
20
-4.69029703440887
30
0
41
1
10
189.446835601881
20
-5.35530482930713
30
0
41
1
10
189.510139191457
20
-5.67732423848801
30
0
41
1
10
189.636746370607
20
-6.29211814435754
30
0
41
1
10
189.700049960183
20
-6.58487120724593
30
0
41
1
10
189.826657139333
20
-7.13397455031807
30
0
41
1
10
189.889960728909
20
-7.39030879144531
30
0
41
1
10
190.01656790806
20
-7.86115663698519
30
0
41
1
10
190.079871497635
20
-8.07566210564215
30
0
41
1
10
190.206478676786
20
-8.459545514198
30
0
41
1
10
190.269782266361
20
-8.62892399758007
30
0
41
1
10
190.396389445512
20
-8.92147261249065
30
0
41
1
10
190.459693035087
20
-9.04465094272433
30
0
41
1
10
190.586300214238
20
-9.24580782535023
30
0
41
1
10
190.649603803813
20
-9.32379990121925
30
0
41
1
10
190.776210982964
20
-9.43734645886286
30
0
41
1
10
190.839514572539
20
-9.47291694097854
30
0
41
1
10
190.918644059508
20
-9.49339513528986
30
0
41
1
10
190.934469956902
20
-9.49629401871954
30
0
41
1
10
190.96612175169
20
-9.49977021270144
30
0
41
1
10
190.981947649084
20
-9.50035088201824
30
0
41
1
10
191.029425341265
20
-9.49869927010826
30
0
41
1
10
191.061077136053
20
-9.49303001789778
30
0
41
1
10
191.156032520416
20
-9.46145433291954
30
0
41
1
10
191.219336109991
20
-9.42094372918635
30
0
41
1
10
191.345943289142
20
-9.29710348504383
30
0
41
1
10
191.409246878718
20
-9.21375799457678
30
0
41
1
10
191.535854057868
20
-9.001669793979
30
0
41
1
10
191.599157647443
20
-8.8729140559567
30
0
41
1
10
191.725764826594
20
-8.56922380247272
30
0
41
1
10
191.78906841617
20
-8.39428191008375
30
0
41
1
10
191.91567559532
20
-7.99955130733753
30
0
41
1
10
191.978979184896
20
-7.77976308264556
30
0
41
1
10
192.042282774471
20
-7.53932966764691
30
0
0
SPLINE
5
FF
100
AcDbEntity
8
1
62
256
6
ByLayer
370
13
48
1
60
0
100
AcDbSpline
70
4
71
3
72
41
73
37
40
0
40
0
40
0
40
0
40
0.0625000000000014
40
0.0625000000000014
40
0.125000000000003
40
0.125000000000003
40
0.187500000000004
40
0.187500000000004
40
0.203125000000004
40
0.203125000000004
40
0.218750000000004
40
0.250000000000005
40
0.250000000000005
40
0.312500000000004
40
0.312500000000004
40
0.375000000000004
40
0.375000000000004
40
0.437500000000003
40
0.437500000000003
40
0.500000000000003
40
0.500000000000003
40
0.562500000000002
40
0.562500000000002
40
0.625000000000002
40
0.625000000000002
40
0.687500000000002
40
0.687500000000002
40
0.750000000000001
40
0.750000000000001
40
0.812500000000001
40
0.812500000000001
40
0.875000000000001
40
0.875000000000001
40
0.9375
40
0.9375
40
1
40
1
40
1
40
1
41
1
10
182
20
-3.30132516986086
30
0
41
1
10
182.064651923929
20
-2.9385878755968
30
0
41
1
10
182.129303847859
20
-2.57252003306209
30
0
41
1
10
182.258607695718
20
-1.84235879288326
30
0
41
1
10
182.323259619648
20
-1.47827934419979
30
0
41
1
10
182.452563467507
20
-0.759598715411528
30
0
41
1
10
182.517215391437
20
-0.405004290683877
30
0
41
1
10
182.598030296349
20
0.0285525142793688
30
0
41
1
10
182.614193277331
20
0.115033243824115
30
0
41
1
10
182.646519239296
20
0.289491671056282
30
0
41
1
10
182.695008182243
20
0.552550299018179
30
0
41
1
10
182.74349712519
20
0.819336063884066
30
0
41
1
10
182.840475011085
20
1.35671147123102
30
0
41
1
10
182.905126935014
20
1.72007644101868
30
0
41
1
10
183.034430782874
20
2.44971292309953
30
0
41
1
10
183.099082706803
20
2.81597129333855
30
0
41
1
10
183.228386554662
20
3.54284036674571
30
0
41
1
10
183.293038478592
20
3.90343115613212
30
0
41
1
10
183.422342326451
20
4.60969041430906
30
0
41
1
10
183.486994250381
20
4.95533427845047
30
0
41
1
10
183.61629809824
20
5.62238218097593
30
0
41
1
10
183.68095002217
20
5.9437605251097
30
0
41
1
10
183.810253870029
20
6.55368675529508
30
0
41
1
10
183.874905793959
20
6.84221219734766
30
0
41
1
10
184.004209641818
20
7.37930801361003
30
0
41
1
10
184.068861565747
20
7.62786309031563
30
0
41
1
10
184.198165413606
20
8.07993984525757
30
0
41
1
10
184.262817337536
20
8.28345570327642
30
0
41
1
10
184.392121185395
20
8.64274589455925
30
0
41
1
10
184.456773109325
20
8.79852406319267
30
0
41
1
10
184.586076957184
20
9.06202931837095
30
0
41
1
10
184.650728881114
20
9.16976808557027
30
0
41
1
10
184.780032728973
20
9.33904217119454
30
0
41
1
10
184.844684652902
20
9.40059398210522
30
0
41
1
10
184.973988500762
20
9.48106388399574
30
0
41
1
10
185.038640424691
20
9.5
30
0
41
1
10
185.103292348621
20
9.5
30
0
0
SPLINE
5
100
100
AcDbEntity
8
1
62
256
6
ByLayer
370
13
48
1
60
0
100
AcDbSpline
70
4
71
3
72
79
73
75
40
0
40
0
40
0
40
0
40
0.0312499999999991
40
0.0312499999999991
40
0.0624999999999981
40
0.0624999999999981
40
0.0937499999999972
40
0.0937499999999972
40
0.124999999999996
40
0.124999999999996
40
0.156249999999995
40
0.156249999999995
40
0.187499999999995
40
0.187499999999995
40
0.218749999999994
40
0.218749999999994
40
0.249999999999993
40
0.249999999999993
40
0.281249999999992
40
0.281249999999992
40
0.312499999999991
40
0.312499999999991
40
0.34374999999999
40
0.34374999999999
40
0.374999999999989
40
0.374999999999989
40
0.382812499999989
40
0.382812499999989
40
0.390624999999988
40
0.390624999999988
40
0.406249999999988
40
0.406249999999988
40
0.437499999999987
40
0.437499999999987
40
0.468749999999986
40
0.468749999999986
40
0.499999999999986
40
0.499999999999986
40
0.531249999999985
40
0.531249999999985
40
0.562499999999984
40
0.562499999999984
40
0.593749999999983
40
0.593749999999983
40
0.624999999999982
40
0.624999999999982
40
0.656249999999981
40
0.656249999999981
40
0.68749999999998
40
0.68749999999998
40
0.718749999999979
40
0.718749999999979
40
0.749999999999978
40
0.749999999999978
40
0.757812499999978
40
0.761718749999978
40
0.761718749999978
40
0.765624999999979
40
0.765624999999979
40
0.78124999999998
40
0.78124999999998
40
0.812499999999983
40
0.812499999999983
40
0.843749999999986
40
0.843749999999986
40
0.874999999999989
40
0.874999999999989
40
0.906249999999991
40
0.906249999999991
40
0.937499999999994
40
0.937499999999994
40
0.968749999999997
40
0.968749999999997
40
1
40
1
40
1
40
1
41
1
10
185.469495966096
20
9.5
30
0
41
1
10
185.53796249535
20
9.5
30
0
41
1
10
185.606429024604
20
9.47875784298284
30
0
41
1
10
185.743362083112
20
9.38821142509164
30
0
41
1
10
185.811828612366
20
9.31888318636399
30
0
41
1
10
185.948761670873
20
9.12807385904028
30
0
41
1
10
186.017228200127
20
9.00657135339765
30
0
41
1
10
186.154161258635
20
8.70955290491099
30
0
41
1
10
186.222627787889
20
8.5340230120506
30
0
41
1
10
186.359560846397
20
8.12986913461404
30
0
41
1
10
186.428027375651
20
7.90124295668761
30
0
41
1
10
186.564960434159
20
7.39485318848222
30
0
41
1
10
186.633426963413
20
7.11710122601212
30
0
41
1
10
186.77036002192
20
6.51931751960871
30
0
41
1
10
186.838826551174
20
6.19930998575103
30
0
41
1
10
186.975759609682
20
5.52622790999584
30
0
41
1
10
187.044226138936
20
5.17318571754973
30
0
41
1
10
187.181159197444
20
4.44473394073344
30
0
41
1
10
187.249625726698
20
4.06935855517514
30
0
41
1
10
187.386558785205
20
3.30740332868447
30
0
41
1
10
187.455025314459
20
2.92085340313503
30
0
41
1
10
187.591958372967
20
2.14719088254924
30
0
41
1
10
187.660424902221
20
1.76009966809443
30
0
41
1
10
187.797357960729
20
0.994691548732874
30
0
41
1
10
187.865824489983
20
0.616385894352078
30
0
41
1
10
187.95140765155
20
0.153699643909278
30
0
41
1
10
187.968524283864
20
0.0618669241238763
30
0
41
1
10
188.002757548491
20
-0.121565577957512
30
0
41
1
10
188.019874180804
20
-0.213825694051025
30
0
41
1
10
188.071224077745
20
-0.492087678026792
30
0
41
1
10
188.105457342372
20
-0.679575003365358
30
0
41
1
10
188.208157136253
20
-1.24663630488294
30
0
41
1
10
188.276623665506
20
-1.63086456391415
30
0
41
1
10
188.413556724014
20
-2.40315165383802
30
0
41
1
10
188.482023253268
20
-2.79119358080598
30
0
41
1
10
188.618956311776
20
-3.56098631836807
30
0
41
1
10
188.68742284103
20
-3.94271064551518
30
0
41
1
10
188.824355899538
20
-4.68883780323657
30
0
41
1
10
188.892822428792
20
-5.05320766756594
30
0
41
1
10
189.029755487299
20
-5.7535933204357
30
0
41
1
10
189.098222016553
20
-6.08957511997545
30
0
41
1
10
189.235155075061
20
-6.72317727552871
30
0
41
1
10
189.303621604315
20
-7.02076909177157
30
0
41
1
10
189.440554662823
20
-7.56957228474002
30
0
41
1
10
189.509021192076
20
-7.82076606376259
30
0
41
1
10
189.645954250584
20
-8.27145405080017
30
0
41
1
10
189.714420779838
20
-8.47094436392408
30
0
41
1
10
189.851353838346
20
-8.81593608826586
30
0
41
1
10
189.9198203676
20
-8.96144664184229
30
0
41
1
10
190.056753426108
20
-9.19913484505622
30
0
41
1
10
190.125219955362
20
-9.29133119062897
30
0
41
1
10
190.26215301387
20
-9.42555914043115
30
0
41
1
10
190.330619543124
20
-9.4676141630593
30
0
41
1
10
190.416202704691
20
-9.49197331643745
30
0
41
1
10
190.441877653161
20
-9.49717064222634
30
0
41
1
10
190.467552601631
20
-9.49930421194082
30
0
41
1
10
190.484669233945
20
-9.5000575351892
30
0
41
1
10
190.493227550101
20
-9.50010091741422
30
0
41
1
10
190.536019130885
20
-9.49865723705094
30
0
41
1
10
190.570252395512
20
-9.49215945440403
30
0
41
1
10
190.672952189393
20
-9.45554868300968
30
0
41
1
10
190.741418718647
20
-9.40826683780676
30
0
41
1
10
190.878351777155
20
-9.26313798078533
30
0
41
1
10
190.946818306409
20
-9.16526782473105
30
0
41
1
10
191.083751364917
20
-8.91602749224953
30
0
41
1
10
191.15221789417
20
-8.76463943308454
30
0
41
1
10
191.289150952678
20
-8.40799129152515
30
0
41
1
10
191.357617481932
20
-8.20272335322844
30
0
41
1
10
191.49455054044
20
-7.74091023103949
30
0
41
1
10
191.563017069694
20
-7.48437045779008
30
0
41
1
10
191.699950128201
20
-6.92562218735665
30
0
41
1
10
191.768416657455
20
-6.62343266874771
30
0
41
1
10
191.905349715963
20
-5.98163916488247
30
0
41
1
10
191.973816245217
20
-5.64206461156999
30
0
41
1
10
192.042282774471
20
-5.2888621151443
30
0
0
SPLINE
5
101
100
AcDbEntity
8
1
62
256
6
ByLayer
370
13
48
1
60
0
100
AcDbSpline
70
4
71
3
72
42
73
38
40
0
40
0
40
0
40
0
40
0.031250000000002
40
0.031250000000002
40
0.0468750000000025
40
0.0468750000000025
40
0.062500000000003
40
0.062500000000003
40
0.125000000000003
40
0.125000000000003
40
0.187500000000003
40
0.187500000000003
40
0.250000000000003
40
0.250000000000003
40
0.312500000000002
40
0.312500000000002
40
0.375000000000002
40
0.375000000000002
40
0.437500000000002
40
0.437500000000002
40
0.500000000000002
40
0.500000000000002
40
0.562500000000002
40
0.562500000000002
40
0.625000000000002
40
0.625000000000002
40
0.687500000000001
40
0.687500000000001
40
0.750000000000001
40
0.750000000000001
40
0.812500000000001
40
0.812500000000001
40
0.875000000000001
40
0.875000000000001
40
0.9375
40
0.9375
40
1
40
1
40
1
40
1
41
1
10
182
20
-0.525059040600382
30
0
41
1
10
182.027163022286
20
-0.376690661921657
30
0
41
1
10
182.054326044572
20
-0.229462037338095
30
0
41
1
10
182.095070578002
20
-0.01063975494273
30
0
41
1
10
182.108652089145
20
0.0619016494465257
30
0
41
1
10
182.135815111431
20
0.208096189156521
30
0
41
1
10
182.149396622574
20
0.281524085500393
30
0
41
1
10
182.21730417829
20
0.650189143051705
30
0
41
1
10
182.271630222863
20
0.95003302288444
30
0
41
1
10
182.380282312008
20
1.55579371042984
30
0
41
1
10
182.43460835658
20
1.86170732772351
30
0
41
1
10
182.543260445725
20
2.47512893278682
30
0
41
1
10
182.597586490298
20
2.78263118158461
30
0
41
1
10
182.706238579443
20
3.39415880020408
30
0
41
1
10
182.760564624015
20
3.69817602963553
30
0
41
1
10
182.86921671316
20
4.29727883760603
30
0
41
1
10
182.923542757733
20
4.59235444871965
30
0
41
1
10
183.032194846878
20
5.16801001714538
30
0
41
1
10
183.08652089145
20
5.44857915805443
30
0
41
1
10
183.195172980595
20
5.9898644789869
30
0
41
1
10
183.249499025168
20
6.25057023986045
30
0
41
1
10
183.358151114313
20
6.74730175115877
30
0
41
1
10
183.412477158885
20
6.98331876617164
30
0
41
1
10
183.52112924803
20
7.42666824463399
30
0
41
1
10
183.575455292603
20
7.63399472116672
30
0
41
1
10
183.684107381748
20
8.01700574632923
30
0
41
1
10
183.73843342632
20
8.19268768169147
30
0
41
1
10
183.847085515465
20
8.51063035829097
30
0
41
1
10
183.901411560038
20
8.65289193805384
30
0
41
1
10
184.010063649183
20
8.90341914194332
30
0
41
1
10
184.064389693755
20
9.01168861734183
30
0
41
1
10
184.173041782901
20
9.19478885744761
30
0
41
1
10
184.227367827473
20
9.26962567529324
30
0
41
1
10
184.336019916618
20
9.38739786144825
30
0
41
1
10
184.390345961191
20
9.43034050652309
30
0
41
1
10
184.498998050336
20
9.48663779885467
30
0
41
1
10
184.553324094908
20
9.5
30
0
41
1
10
184.607650139481
20
9.5
30
0
0
SPLINE
5
102
100
AcDbEntity
8
1
62
256
6
ByLayer
370
13
48
1
60
0
100
AcDbSpline
70
4
71
3
72
78
73
74
40
0
40
0
40
0
40
0
40
0.0312499999999997
40
0.0312499999999997
40
0.0624999999999995
40
0.0624999999999995
40
0.0937499999999992
40
0.0937499999999992
40
0.124999999999999
40
0.124999999999999
40
0.156249999999999
40
0.156249999999999
40
0.187499999999998
40
0.187499999999998
40
0.218749999999998
40
0.218749999999998
40
0.249999999999998
40
0.249999999999998
40
0.281249999999998
40
0.281249999999998
40
0.312499999999997
40
0.312499999999997
40
0.343749999999997
40
0.343749999999997
40
0.351562499999997
40
0.351562499999997
40
0.359374999999997
40
0.359374999999997
40
0.374999999999997
40
0.374999999999997
40
0.406249999999997
40
0.406249999999997
40
0.437499999999997
40
0.437499999999997
40
0.468749999999997
40
0.468749999999997
40
0.499999999999997
40
0.499999999999997
40
0.531249999999997
40
0.531249999999997
40
0.562499999999997
40
0.562499999999997
40
0.593749999999998
40
0.593749999999998
40
0.624999999999998
40
0.624999999999998
40
0.656249999999998
40
0.656249999999998
40
0.687499999999998
40
0.687499999999998
40
0.703124999999998
40
0.703124999999998
40
0.710937499999999
40
0.710937499999999
40
0.718749999999999
40
0.718749999999999
40
0.749999999999999
40
0.749999999999999
40
0.781249999999999
40
0.781249999999999
40
0.812499999999999
40
0.812499999999999
40
0.84375
40
0.84375
40
0.875
40
0.875
40
0.90625
40
0.90625
40
0.9375
40
0.9375
40
0.96875
40
0.96875
40
1
40
1
40
1
40
1
41
1
10
184.973853756956
20
9.5
30
0
41
1
10
185.047483225888
20
9.5
30
0
41
1
10
185.121112694821
20
9.47542385621873
30
0
41
1
10
185.268371632686
20
9.37024135203441
30
0
41
1
10
185.342001101618
20
9.28960059654162
30
0
41
1
10
185.489260039483
20
9.06746721566967
30
0
41
1
10
185.562889508415
20
8.92594500235961
30
0
41
1
10
185.71014844628
20
8.58033688150044
30
0
41
1
10
185.783777915213
20
8.37623431726598
30
0
41
1
10
185.931036853078
20
7.90758863335682
30
0
41
1
10
186.00466632201
20
7.64304825495341
30
0
41
1
10
186.151925259875
20
7.05971565760871
30
0
41
1
10
186.225554728808
20
6.74094744098133
30
0
41
1
10
186.372813666672
20
6.05901387412857
30
0
41
1
10
186.446443135605
20
5.69588959587065
30
0
41
1
10
186.59370207347
20
4.93776639256242
30
0
41
1
10
186.667331542402
20
4.54281651255522
30
0
41
1
10
186.814590480267
20
3.73484192759594
30
0
41
1
10
186.8882199492
20
3.32186356424808
30
0
41
1
10
187.035478887065
20
2.49143730800469
30
0
41
1
10
187.109108355997
20
2.07402452488299
30
0
41
1
10
187.256367293862
20
1.24688876483262
30
0
41
1
10
187.329996762794
20
0.83718556543343
30
0
41
1
10
187.42203359896
20
0.336036857996731
30
0
41
1
10
187.440440966193
20
0.236349939868546
30
0
41
1
10
187.477255700659
20
0.0381902160883385
30
0
41
1
10
187.495663067892
20
-0.0600175449815481
30
0
41
1
10
187.550885169592
20
-0.357524373046658
30
0
41
1
10
187.587699904058
20
-0.55827741332584
30
0
41
1
10
187.698144107457
20
-1.1661693176562
30
0
41
1
10
187.771773576389
20
-1.57901534989915
30
0
41
1
10
187.919032514254
20
-2.40937920874254
30
0
41
1
10
187.992661983186
20
-2.8268730145295
30
0
41
1
10
188.139920921051
20
-3.65391298833748
30
0
41
1
10
188.213550389984
20
-4.06342042585445
30
0
41
1
10
188.360809327849
20
-4.86071212269786
30
0
41
1
10
188.434438796781
20
-5.24844833016906
30
0
41
1
10
188.581697734646
20
-5.98859335802354
30
0
41
1
10
188.655327203579
20
-6.34095421912934
30
0
41
1
10
188.802586141443
20
-6.99839533390735
30
0
41
1
10
188.876215610376
20
-7.30343836098385
30
0
41
1
10
189.023474548241
20
-7.85726001823429
30
0
41
1
10
189.097104017173
20
-8.10602019493371
30
0
41
1
10
189.244362955038
20
-8.54212395796606
30
0
41
1
10
189.31799242397
20
-8.72947042837205
30
0
41
1
10
189.465251361835
20
-9.04166375831369
30
0
41
1
10
189.538880830768
20
-9.16653150684957
30
0
41
1
10
189.686139768633
20
-9.35637906233086
30
0
41
1
10
189.759769237565
20
-9.42139054067613
30
0
41
1
10
189.870213440964
20
-9.47810755737774
30
0
41
1
10
189.90702817543
20
-9.49023249329019
30
0
41
1
10
189.962250277129
20
-9.49889816437698
30
0
41
1
10
189.980657644362
20
-9.50020116173266
30
0
41
1
10
190.017472378829
20
-9.49974886000521
30
0
41
1
10
190.035879746062
20
-9.49798606500923
30
0
41
1
10
190.127916582227
20
-9.48119940352956
30
0
41
1
10
190.20154605116
20
-9.44218653776466
30
0
41
1
10
190.348804989025
20
-9.30658475703231
30
0
41
1
10
190.422434457957
20
-9.20996196361472
30
0
41
1
10
190.569693395822
20
-8.9550627753238
30
0
41
1
10
190.643322864755
20
-8.79675947767601
30
0
41
1
10
190.790581802619
20
-8.41776247000521
30
0
41
1
10
190.864211271552
20
-8.19705681933129
30
0
41
1
10
191.011470209417
20
-7.69647180371186
30
0
41
1
10
191.085099678349
20
-7.41660094865065
30
0
41
1
10
191.232358616214
20
-6.80492447644679
30
0
41
1
10
191.305988085147
20
-6.47314810172489
30
0
41
1
10
191.453247023011
20
-5.76835063170572
30
0
41
1
10
191.526876491944
20
-5.39537377832181
30
0
41
1
10
191.674135429809
20
-4.62118656280515
30
0
41
1
10
191.747764898741
20
-4.22002553992999
30
0
41
1
10
191.895023836606
20
-3.40335779711091
30
0
41
1
10
191.968653305539
20
-2.98789508078923
30
0
41
1
10
192.042282774471
20
-2.57192207526737
30
0
0
SPLINE
5
103
100
AcDbEntity
8
1
62
256
6
ByLayer
370
13
48
1
60
0
100
AcDbSpline
70
4
71
3
72
22
73
18
40
0
40
0
40
0
40
0
40
0.125
40
0.125
40
0.25
40
0.25
40
0.375
40
0.375
40
0.5
40
0.5
40
0.625
40
0.625
40
0.75
40
0.75
40
0.875
40
0.875
40
1
40
1
40
1
40
1
41
1
10
182
20
2.206292425436
30
0
41
1
10
182.088000330431
20
2.70321561752067
30
0
41
1
10
182.176000660862
20
3.20202943449919
30
0
41
1
10
182.352001321723
20
4.18129098164806
30
0
41
1
10
182.440001652154
20
4.66163417744761
30
0
41
1
10
182.616002313016
20
5.58023021204397
30
0
41
1
10
182.704002643447
20
6.01836330529628
30
0
41
1
10
182.880003304308
20
6.83084388781924
30
0
41
1
10
182.968003634739
20
7.20509245387319
30
0
41
1
10
183.144004295601
20
7.87356116017847
30
0
41
1
10
183.232004626032
20
8.16773392212718
30
0
41
1
10
183.408005286894
20
8.66755957814786
30
0
41
1
10
183.496005617324
20
8.87322651436145
30
0
41
1
10
183.672006278186
20
9.19581467504023
30
0
41
1
10
183.760006608617
20
9.31279764947672
30
0
41
1
10
183.936007269479
20
9.46484895235773
30
0
41
1
10
184.02400759991
20
9.5
30
0
41
1
10
184.11200793034
20
9.5
30
0
0
SPLINE
5
104
100
AcDbEntity
8
1
62
256
6
ByLayer
370
13
48
1
60
0
100
AcDbSpline
70
4
71
3
72
82
73
78
40
0
40
0
40
0
40
0
40
0.0312499999999996
40
0.0312499999999996
40
0.0624999999999991
40
0.0624999999999991
40
0.0937499999999987
40
0.0937499999999987
40
0.124999999999998
40
0.124999999999998
40
0.156249999999998
40
0.156249999999998
40
0.187499999999997
40
0.187499999999997
40
0.218749999999997
40
0.218749999999997
40
0.249999999999996
40
0.249999999999996
40
0.281249999999996
40
0.281249999999996
40
0.312499999999995
40
0.312499999999995
40
0.328124999999995
40
0.328124999999995
40
0.335937499999995
40
0.335937499999995
40
0.343749999999995
40
0.343749999999995
40
0.374999999999995
40
0.374999999999995
40
0.406249999999996
40
0.406249999999996
40
0.437499999999996
40
0.437499999999996
40
0.468749999999996
40
0.468749999999996
40
0.499999999999996
40
0.499999999999996
40
0.531249999999997
40
0.531249999999997
40
0.562499999999997
40
0.562499999999997
40
0.593749999999997
40
0.593749999999997
40
0.624999999999997
40
0.624999999999997
40
0.656249999999997
40
0.656249999999997
40
0.664062499999997
40
0.664062499999997
40
0.671874999999997
40
0.671874999999997
40
0.687499999999997
40
0.687499999999997
40
0.718749999999998
40
0.718749999999998
40
0.749999999999998
40
0.749999999999998
40
0.781249999999998
40
0.781249999999998
40
0.812499999999998
40
0.812499999999998
40
0.843749999999998
40
0.843749999999998
40
0.874999999999999
40
0.874999999999999
40
0.906249999999999
40
0.906249999999999
40
0.937499999999999
40
0.937499999999999
40
0.968749999999999
40
0.968749999999999
40
0.984375
40
0.984375
40
0.9921875
40
0.9921875
40
1
40
1
40
1
40
1
41
1
10
184.478211547816
20
9.5
30
0
41
1
10
184.557003956427
20
9.5
30
0
41
1
10
184.635796365038
20
9.47184442568457
30
0
41
1
10
184.79338118226
20
9.3508679883553
30
0
41
1
10
184.872173590871
20
9.25799904544033
30
0
41
1
10
185.029758408093
20
9.00202619320413
30
0
41
1
10
185.108550816704
20
8.83888270646517
30
0
41
1
10
185.266135633926
20
8.44102862597839
30
0
41
1
10
185.344928042537
20
8.20629984901046
30
0
41
1
10
185.502512859759
20
7.66909608531464
30
0
41
1
10
185.58130526837
20
7.36663340938401
30
0
41
1
10
185.738890085592
20
6.70305251934769
30
0
41
1
10
185.817682494203
20
6.34197742004861
30
0
41
1
10
185.975267311424
20
5.57469171624905
30
0
41
1
10
186.054059720035
20
5.16854516493413
30
0
41
1
10
186.211644537258
20
4.32741127363317
30
0
41
1
10
186.290436945868
20
3.89249259216146
30
0
41
1
10
186.448021763091
20
3.01082672827468
30
0
41
1
10
186.526814171701
20
2.56413678932321
30
0
41
1
10
186.684398988924
20
1.67471119312708
30
0
41
1
10
186.763191397534
20
1.23201145613908
30
0
41
1
10
186.881380010451
20
0.58077113481491
30
0
41
1
10
186.920776214757
20
0.365801888642977
30
0
41
1
10
186.979870521215
20
0.0475063192249934
30
0
41
1
10
186.999568623368
20
-0.0575620109670467
30
0
41
1
10
187.038964827673
20
-0.269846561124069
30
0
41
1
10
187.058662929826
20
-0.376677785774433
30
0
41
1
10
187.157153440589
20
-0.913881146834797
30
0
41
1
10
187.2359458492
20
-1.35352362249662
30
0
41
1
10
187.393530666422
20
-2.24028389056065
30
0
41
1
10
187.472323075033
20
-2.68737149029846
30
0
41
1
10
187.629907892255
20
-3.57382200663798
30
0
41
1
10
187.708700300866
20
-4.01313223944345
30
0
41
1
10
187.866285118089
20
-4.8671781474649
30
0
41
1
10
187.945077526699
20
-5.2818466164282
30
0
41
1
10
188.102662343922
20
-6.06994675811188
30
0
41
1
10
188.181454752532
20
-6.44331165610024
30
0
41
1
10
188.339039569754
20
-7.13440282975296
30
0
41
1
10
188.417831978365
20
-7.45207967407663
30
0
41
1
10
188.575416795587
20
-8.02146048332884
30
0
41
1
10
188.654209204198
20
-8.27314430747504
30
0
41
1
10
188.81179402142
20
-8.70535444253349
30
0
41
1
10
188.890586430031
20
-8.88589212309438
30
0
41
1
10
189.048171247253
20
-9.17590501761757
30
0
41
1
10
189.126963655864
20
-9.28541576620853
30
0
41
1
10
189.284548473086
20
-9.43801007713876
30
0
41
1
10
189.363340881697
20
-9.48114083710402
30
0
41
1
10
189.461831392461
20
-9.49846475642934
30
0
41
1
10
189.481529494614
20
-9.50010608934468
30
0
41
1
10
189.520925698919
20
-9.49988331215602
30
0
41
1
10
189.540623801072
20
-9.49801488141483
30
0
41
1
10
189.59971810753
20
-9.48692559046233
30
0
41
1
10
189.639114311836
20
-9.47221636271652
30
0
41
1
10
189.757302924752
20
-9.40457131226842
30
0
41
1
10
189.836095333363
20
-9.32801178900323
30
0
41
1
10
189.993680150585
20
-9.10566458422579
30
0
41
1
10
190.072472559196
20
-8.9598340636966
30
0
41
1
10
190.230057376418
20
-8.59647933182339
30
0
41
1
10
190.308849785029
20
-8.37893068223894
30
0
41
1
10
190.466434602251
20
-7.87466751736616
30
0
41
1
10
190.545227010862
20
-7.58795750852414
30
0
41
1
10
190.702811828084
20
-6.95322736967461
30
0
41
1
10
190.781604236695
20
-6.6052434413987
30
0
41
1
10
190.939189053917
20
-5.86053942422578
30
0
41
1
10
191.017981462528
20
-5.46387967589408
30
0
41
1
10
191.17556627975
20
-4.63762904204557
30
0
41
1
10
191.254358688361
20
-4.2081072999662
30
0
41
1
10
191.411943505583
20
-3.33316228292864
30
0
41
1
10
191.490735914194
20
-2.88780022170565
30
0
41
1
10
191.648320731416
20
-1.9974106212299
30
0
41
1
10
191.727113140027
20
-1.55242463167761
30
0
41
1
10
191.845301752944
20
-0.895593324349363
30
0
41
1
10
191.884697957249
20
-0.67840180005183
30
0
41
1
10
191.943792263707
20
-0.356312571038501
30
0
41
1
10
191.96349036586
20
-0.249564188283586
30
0
41
1
10
192.002886570166
20
-0.0374549513389866
30
0
41
1
10
192.022584672318
20
0.0676220124451277
30
0
41
1
10
192.042282774471
20
0.173807886299244
30
0
0
SPLINE
5
105
100
AcDbEntity
8
1
62
256
6
ByLayer
370
13
48
1
60
0
100
AcDbSpline
70
4
71
3
72
8
73
4
40
0
40
0
40
0
40
0
40
1
40
1
40
1
40
1
41
1
10
192.042282774471
20
-5.23253570907679
30
0
41
1
10
193.194855182981
20
-3.49749599714386
30
0
41
1
10
194.34742759149
20
-1.7533069827193
30
0
41
1
10
195.5
20
-2.842E-13
30
0
0
SPLINE
5
106
100
AcDbEntity
8
1
62
256
6
ByLayer
370
13
48
1
60
0
100
AcDbSpline
70
4
71
3
72
8
73
4
40
0
40
0
40
0
40
0
40
1
40
1
40
1
40
1
41
1
10
192.042282774471
20
6.89877637676372
30
0
41
1
10
193.194855182981
20
4.59165654281458
30
0
41
1
10
194.34742759149
20
2.29205068549902
30
0
41
1
10
195.5
20
3.695E-13
30
0
0
SPLINE
5
107
100
AcDbEntity
8
1
62
256
6
ByLayer
370
13
48
1
60
0
100
AcDbSpline
70
4
71
3
72
8
73
4
40
0
40
0
40
0
40
0
40
1
40
1
40
1
40
1
41
1
10
192.042282774471
20
1.01411989506767
30
0
41
1
10
193.194855182981
20
0.686966802300674
30
0
41
1
10
194.34742759149
20
0.348924794816042
30
0
41
1
10
195.5
20
0
30
0
0
SPLINE
5
108
100
AcDbEntity
8
1
62
256
6
ByLayer
370
13
48
1
60
0
100
AcDbSpline
70
4
71
3
72
8
73
4
40
0
40
0
40
0
40
0
40
1
40
1
40
1
40
1
41
1
10
192.042282774471
20
8.5603670697804
30
0
41
1
10
193.194855182981
20
5.71165937886138
30
0
41
1
10
194.34742759149
20
2.85818662180577
30
0
41
1
10
195.5
20
-8.53E-14
30
0
0
SPLINE
5
109
100
AcDbEntity
8
1
62
256
6
ByLayer
370
13
48
1
60
0
100
AcDbSpline
70
4
71
3
72
8
73
4
40
0
40
0
40
0
40
0
40
1
40
1
40
1
40
1
41
1
10
192.042282774471
20
-4.78309183490441
30
0
41
1
10
193.194855182981
20
-3.17926752165081
30
0
41
1
10
194.34742759149
20
-1.58489406458827
30
0
41
1
10
195.5
20
5.68E-14
30
0
0
SPLINE
5
10A
100
AcDbEntity
8
1
62
256
6
ByLayer
370
13
48
1
60
0
100
AcDbSpline
70
4
71
3
72
8
73
4
40
0
40
0
40
0
40
0
40
1
40
1
40
1
40
1
41
1
10
192.042282774471
20
5.47812915254229
30
0
41
1
10
193.194855182981
20
3.66103173443511
30
0
41
1
10
194.34742759149
20
1.83497774986276
30
0
41
1
10
195.5
20
-5.68E-14
30
0
0
SPLINE
5
10B
100
AcDbEntity
8
1
62
256
6
ByLayer
370
13
48
1
60
0
100
AcDbSpline
70
4
71
3
72
8
73
4
40
0
40
0
40
0
40
0
40
1
40
1
40
1
40
1
41
1
10
192.042282774471
20
-6.19407852079303
30
0
41
1
10
193.194855182981
20
-4.13768767417056
30
0
41
1
10
194.34742759149
20
-2.07298247483965
30
0
41
1
10
195.5
20
5.68E-14
30
0
0
SPLINE
5
10C
100
AcDbEntity
8
1
62
256
6
ByLayer
370
13
48
1
60
0
100
AcDbSpline
70
4
71
3
72
8
73
4
40
0
40
0
40
0
40
0
40
1
40
1
40
1
40
1
41
1
10
192.042282774471
20
7.25160877191277
30
0
41
1
10
193.194855182981
20
4.84147931639114
30
0
41
1
10
194.34742759149
20
2.42426192853228
30
0
41
1
10
195.5
20
2.84E-14
30
0
0
SPLINE
5
10D
100
AcDbEntity
8
1
62
256
6
ByLayer
370
13
48
1
60
0
100
AcDbSpline
70
4
71
3
72
8
73
4
40
0
40
0
40
0
40
0
40
1
40
1
40
1
40
1
41
1
10
192.042282774471
20
2.8536568655243
30
0
41
1
10
193.194855182981
20
1.89199413875019
30
0
41
1
10
194.34742759149
20
0.940769518095948
30
0
41
1
10
195.5
20
1.421E-13
30
0
0
SPLINE
5
10E
100
AcDbEntity
8
1
62
256
6
ByLayer
370
13
48
1
60
0
100
AcDbSpline
70
4
71
3
72
8
73
4
40
0
40
0
40
0
40
0
40
1
40
1
40
1
40
1
41
1
10
192.042282774471
20
9.47819306928184
30
0
41
1
10
193.194855182981
20
6.31953684838899
30
0
41
1
10
194.34742759149
20
3.16012027059298
30
0
41
1
10
195.5
20
0
30
0
0
SPLINE
5
10F
100
AcDbEntity
8
1
62
256
6
ByLayer
370
13
48
1
60
0
100
AcDbSpline
70
4
71
3
72
8
73
4
40
0
40
0
40
0
40
0
40
1
40
1
40
1
40
1
41
1
10
192.042282774471
20
7.97009139761687
30
0
41
1
10
193.194855182981
20
5.31935292432649
30
0
41
1
10
194.34742759149
20
2.66263989844899
30
0
41
1
10
195.5
20
5.68E-14
30
0
0
SPLINE
5
110
100
AcDbEntity
8
1
62
256
6
ByLayer
370
13
48
1
60
0
100
AcDbSpline
70
4
71
3
72
8
73
4
40
0
40
0
40
0
40
0
40
1
40
1
40
1
40
1
41
1
10
192.042282774471
20
3.35358213568708
30
0
41
1
10
193.194855182981
20
2.24596593751414
30
0
41
1
10
194.34742759149
20
1.12809852274728
30
0
41
1
10
195.5
20
-2.84E-14
30
0
0
SPLINE
5
111
100
AcDbEntity
8
1
62
256
6
ByLayer
370
13
48
1
60
0
100
AcDbSpline
70
4
71
3
72
8
73
4
40
0
40
0
40
0
40
0
40
1
40
1
40
1
40
1
41
1
10
192.042282774471
20
9.203788779413
30
0
41
1
10
193.194855182981
20
6.13314628639566
30
0
41
1
10
194.34742759149
20
3.06519835889301
30
0
41
1
10
195.5
20
5.116E-13
30
0
0
SPLINE
5
112
100
AcDbEntity
8
1
62
256
6
ByLayer
370
13
48
1
60
0
100
AcDbSpline
70
4
71
3
72
8
73
4
40
0
40
0
40
0
40
0
40
1
40
1
40
1
40
1
41
1
10
192.042282774471
20
-4.18682228637476
30
0
41
1
10
193.194855182981
20
-2.80104357172129
30
0
41
1
10
194.34742759149
20
-1.40542778054555
30
0
41
1
10
195.5
20
-2.274E-13
30
0
0
SPLINE
5
113
100
AcDbEntity
8
1
62
256
6
ByLayer
370
13
48
1
60
0
100
AcDbSpline
70
4
71
3
72
8
73
4
40
0
40
0
40
0
40
0
40
1
40
1
40
1
40
1
41
1
10
192.042282774471
20
3.9776384698271
30
0
41
1
10
193.194855182981
20
2.64181551973601
30
0
41
1
10
194.34742759149
20
1.31592812363471
30
0
41
1
10
195.5
20
2.274E-13
30
0
0
SPLINE
5
114
100
AcDbEntity
8
1
62
256
6
ByLayer
370
13
48
1
60
0
100
AcDbSpline
70
4
71
3
72
8
73
4
40
0
40
0
40
0
40
0
40
1
40
1
40
1
40
1
41
1
10
192.042282774471
20
-1.91125240638931
30
0
41
1
10
193.194855182981
20
-1.28489382974024
30
0
41
1
10
194.34742759149
20
-0.647805864480915
30
0
41
1
10
195.5
20
-1.137E-13
30
0
0
SPLINE
5
115
100
AcDbEntity
8
1
62
256
6
ByLayer
370
13
48
1
60
0
100
AcDbSpline
70
4
71
3
72
8
73
4
40
0
40
0
40
0
40
0
40
1
40
1
40
1
40
1
41
1
10
192.042282774471
20
8.31780704197882
30
0
41
1
10
193.194855182981
20
5.53991489128802
30
0
41
1
10
194.34742759149
20
2.76729598016783
30
0
41
1
10
195.5
20
4.547E-13
30
0
0
SPLINE
5
116
100
AcDbEntity
8
1
62
256
6
ByLayer
370
13
48
1
60
0
100
AcDbSpline
70
4
71
3
72
8
73
4
40
0
40
0
40
0
40
0
40
1
40
1
40
1
40
1
41
1
10
192.042282774471
20
4.45166036612261
30
0
41
1
10
193.194855182981
20
2.97744644959596
30
0
41
1
10
194.34742759149
20
1.49355077108967
30
0
41
1
10
195.5
20
-5.68E-14
30
0
0
SPLINE
5
117
100
AcDbEntity
8
1
62
256
6
ByLayer
370
13
48
1
60
0
100
AcDbSpline
70
4
71
3
72
8
73
4
40
0
40
0
40
0
40
0
40
1
40
1
40
1
40
1
41
1
10
192.042282774471
20
-9.38646110416789
30
0
41
1
10
193.194855182981
20
-6.25595295607297
30
0
41
1
10
194.34742759149
20
-3.12711388761031
30
0
41
1
10
195.5
20
1.137E-13
30
0
0
SPLINE
5
118
100
AcDbEntity
8
1
62
256
6
ByLayer
370
13
48
1
60
0
100
AcDbSpline
70
4
71
3
72
8
73
4
40
0
40
0
40
0
40
0
40
1
40
1
40
1
40
1
41
1
10
192.042282774471
20
9.42769296584189
30
0
41
1
10
193.194855182981
20
6.28378027931919
30
0
41
1
10
194.34742759149
20
3.1411971741291
30
0
41
1
10
195.5
20
5.116E-13
30
0
0
SPLINE
5
119
100
AcDbEntity
8
1
62
256
6
ByLayer
370
13
48
1
60
0
100
AcDbSpline
70
4
71
3
72
8
73
4
40
0
40
0
40
0
40
0
40
1
40
1
40
1
40
1
41
1
10
192.042282774471
20
-8.71797216817009
30
0
41
1
10
193.194855182981
20
-5.80763104393964
30
0
41
1
10
194.34742759149
20
-2.90162295816816
30
0
41
1
10
195.5
20
8.53E-14
30
0
0
SPLINE
5
11A
100
AcDbEntity
8
1
62
256
6
ByLayer
370
13
48
1
60
0
100
AcDbSpline
70
4
71
3
72
8
73
4
40
0
40
0
40
0
40
0
40
1
40
1
40
1
40
1
41
1
10
192.042282774471
20
-9.45341612600029
30
0
41
1
10
193.194855182981
20
-6.303360420606
30
0
41
1
10
194.34742759149
20
-3.15220287259481
30
0
41
1
10
195.5
20
-5.116E-13
30
0
0
SPLINE
5
11B
100
AcDbEntity
8
1
62
256
6
ByLayer
370
13
48
1
60
0
100
AcDbSpline
70
4
71
3
72
8
73
4
40
0
40
0
40
0
40
0
40
1
40
1
40
1
40
1
41
1
10
192.042282774471
20
-7.49078961338387
30
0
41
1
10
193.194855182981
20
-4.98712551594514
30
0
41
1
10
194.34742759149
20
-2.49018073184328
30
0
41
1
10
195.5
20
8.53E-14
30
0
0
SPLINE
5
11C
100
AcDbEntity
8
1
62
256
6
ByLayer
370
13
48
1
60
0
100
AcDbSpline
70
4
71
3
72
8
73
4
40
0
40
0
40
0
40
0
40
1
40
1
40
1
40
1
41
1
10
192.042282774471
20
-6.69098934445853
30
0
41
1
10
193.194855182981
20
-4.45288668936931
30
0
41
1
10
194.34742759149
20
-2.22254359068711
30
0
41
1
10
195.5
20
8.53E-14
30
0
0
SPLINE
5
11D
100
AcDbEntity
8
1
62
256
6
ByLayer
370
13
48
1
60
0
100
AcDbSpline
70
4
71
3
72
8
73
4
40
0
40
0
40
0
40
0
40
1
40
1
40
1
40
1
41
1
10
192.042282774471
20
0.486800604162028
30
0
41
1
10
193.194855182981
20
0.313598682973406
30
0
41
1
10
194.34742759149
20
0.151330866694138
30
0
41
1
10
195.5
20
2.84E-14
30
0
0
SPLINE
5
11E
100
AcDbEntity
8
1
62
256
6
ByLayer
370
13
48
1
60
0
100
AcDbSpline
70
4
71
3
72
8
73
4
40
0
40
0
40
0
40
0
40
1
40
1
40
1
40
1
41
1
10
192.042282774471
20
-5.78355776778153
30
0
41
1
10
193.194855182981
20
-3.84701869213225
30
0
41
1
10
194.34742759149
20
-1.91915459567409
30
0
41
1
10
195.5
20
5.68E-14
30
0
0
SPLINE
5
11F
100
AcDbEntity
8
1
62
256
6
ByLayer
370
13
48
1
60
0
100
AcDbSpline
70
4
71
3
72
8
73
4
40
0
40
0
40
0
40
0
40
1
40
1
40
1
40
1
41
1
10
192.042282774471
20
6.01659758168273
30
0
41
1
10
193.194855182981
20
4.00259144796431
30
0
41
1
10
194.34742759149
20
1.99704694875226
30
0
41
1
10
195.5
20
3.411E-13
30
0
0
SPLINE
5
120
100
AcDbEntity
8
1
62
256
6
ByLayer
370
13
48
1
60
0
100
AcDbSpline
70
4
71
3
72
8
73
4
40
0
40
0
40
0
40
0
40
1
40
1
40
1
40
1
41
1
10
192.042282774471
20
-9.49631753473784
30
0
41
1
10
193.194855182981
20
-6.3305735162775
30
0
41
1
10
194.34742759149
20
-3.16511541596563
30
0
41
1
10
195.5
20
1.137E-13
30
0
0
SPLINE
5
121
100
AcDbEntity
8
1
62
256
6
ByLayer
370
13
48
1
60
0
100
AcDbSpline
70
4
71
3
72
8
73
4
40
0
40
0
40
0
40
0
40
1
40
1
40
1
40
1
41
1
10
192.042282774471
20
-3.07375960711184
30
0
41
1
10
193.194855182981
20
-2.05953353715108
30
0
41
1
10
194.34742759149
20
-1.03494085592851
30
0
41
1
10
195.5
20
-1.705E-13
30
0
0
SPLINE
5
122
100
AcDbEntity
8
1
62
256
6
ByLayer
370
13
48
1
60
0
100
AcDbSpline
70
4
71
3
72
8
73
4
40
0
40
0
40
0
40
0
40
1
40
1
40
1
40
1
41
1
10
192.042282774471
20
-9.25844699035699
30
0
41
1
10
193.194855182981
20
-6.17475141913121
30
0
41
1
10
194.34742759149
20
-3.08858396877227
30
0
41
1
10
195.5
20
-5.116E-13
30
0
0
SPLINE
5
123
100
AcDbEntity
8
1
62
256
6
ByLayer
370
13
48
1
60
0
100
AcDbSpline
70
4
71
3
72
8
73
4
40
0
40
0
40
0
40
0
40
1
40
1
40
1
40
1
41
1
10
192.042282774471
20
-8.42724635113032
30
0
41
1
10
193.194855182981
20
-5.62321869697584
30
0
41
1
10
194.34742759149
20
-2.81411977745341
30
0
41
1
10
195.5
20
6.537E-13
30
0
0
SPLINE
5
124
100
AcDbEntity
8
1
62
256
6
ByLayer
370
13
48
1
60
0
100
AcDbSpline
70
4
71
3
72
8
73
4
40
0
40
0
40
0
40
0
40
1
40
1
40
1
40
1
41
1
10
192.042282774471
20
9.01294060925133
30
0
41
1
10
193.194855182981
20
6.01208803525154
30
0
41
1
10
194.34742759149
20
3.00775653245736
30
0
41
1
10
195.5
20
-2.84E-14
30
0
0
SPLINE
5
125
100
AcDbEntity
8
1
62
256
6
ByLayer
370
13
48
1
60
0
100
AcDbSpline
70
4
71
3
72
8
73
4
40
0
40
0
40
0
40
0
40
1
40
1
40
1
40
1
41
1
10
192.042282774471
20
-1.39033249499604
30
0
41
1
10
193.194855182981
20
-0.916056787380143
30
0
41
1
10
194.34742759149
20
-0.452609873542684
30
0
41
1
10
195.5
20
2.84E-14
30
0
0
SPLINE
5
126
100
AcDbEntity
8
1
62
256
6
ByLayer
370
13
48
1
60
0
100
AcDbSpline
70
4
71
3
72
8
73
4
40
0
40
0
40
0
40
0
40
1
40
1
40
1
40
1
41
1
10
192.042282774471
20
1.68377131421175
30
0
41
1
10
193.194855182981
20
1.11173812501741
30
0
41
1
10
194.34742759149
20
0.550477686615125
30
0
41
1
10
195.5
20
8.53E-14
30
0
0
SPLINE
5
127
100
AcDbEntity
8
1
62
256
6
ByLayer
370
13
48
1
60
0
100
AcDbSpline
70
4
71
3
72
8
73
4
40
0
40
0
40
0
40
0
40
1
40
1
40
1
40
1
41
1
10
192.042282774471
20
9.32053191447829
30
0
41
1
10
193.194855182981
20
6.21580619574343
30
0
41
1
10
194.34742759149
20
3.1089436476326
30
0
41
1
10
195.5
20
-2.84E-14
30
0
0
SPLINE
5
128
100
AcDbEntity
8
1
62
256
6
ByLayer
370
13
48
1
60
0
100
AcDbSpline
70
4
71
3
72
8
73
4
40
0
40
0
40
0
40
0
40
1
40
1
40
1
40
1
41
1
10
192.042282774471
20
-7.05598333621441
30
0
41
1
10
193.194855182981
20
-4.71132047439866
30
0
41
1
10
194.34742759149
20
-2.35931195440133
30
0
41
1
10
195.5
20
-3.979E-13
30
0
0
SPLINE
5
129
100
AcDbEntity
8
1
62
256
6
ByLayer
370
13
48
1
60
0
100
AcDbSpline
70
4
71
3
72
8
73
4
40
0
40
0
40
0
40
0
40
1
40
1
40
1
40
1
41
1
10
192.042282774471
20
8.8318323735588
30
0
41
1
10
193.194855182981
20
5.88385445358424
30
0
41
1
10
194.34742759149
20
2.93989273850423
30
0
41
1
10
195.5
20
4.832E-13
30
0
0
SPLINE
5
12A
100
AcDbEntity
8
1
62
256
6
ByLayer
370
13
48
1
60
0
100
AcDbSpline
70
4
71
3
72
8
73
4
40
0
40
0
40
0
40
0
40
1
40
1
40
1
40
1
41
1
10
192.042282774471
20
-3.70568504877161
30
0
41
1
10
193.194855182981
20
-2.46037462855836
30
0
41
1
10
194.34742759149
20
-1.22513891498826
30
0
41
1
10
195.5
20
2.84E-14
30
0
0
SPLINE
5
12B
100
AcDbEntity
8
1
62
256
6
ByLayer
370
13
48
1
60
0
100
AcDbSpline
70
4
71
3
72
8
73
4
40
0
40
0
40
0
40
0
40
1
40
1
40
1
40
1
41
1
10
192.042282774471
20
-2.56866858350438
30
0
41
1
10
193.194855182981
20
-1.70190412964436
30
0
41
1
10
194.34742759149
20
-0.845676171068618
30
0
41
1
10
195.5
20
2.84E-14
30
0
0
SPLINE
5
12C
100
AcDbEntity
8
1
62
256
6
ByLayer
370
13
48
1
60
0
100
AcDbSpline
70
4
71
3
72
8
73
4
40
0
40
0
40
0
40
0
40
1
40
1
40
1
40
1
41
1
10
192.042282774471
20
-8.91454640287287
30
0
41
1
10
193.194855182981
20
-5.94681531727244
30
0
41
1
10
194.34742759149
20
-2.97528207868993
30
0
41
1
10
195.5
20
6.821E-13
30
0
0
SPLINE
5
12D
100
AcDbEntity
8
1
62
256
6
ByLayer
370
13
48
1
60
0
100
AcDbSpline
70
4
71
3
72
8
73
4
40
0
40
0
40
0
40
0
40
1
40
1
40
1
40
1
41
1
10
192.042282774471
20
-8.17009298107754
30
0
41
1
10
193.194855182981
20
-5.44114140185113
30
0
41
1
10
194.34742759149
20
-2.71776080596374
30
0
41
1
10
195.5
20
8.53E-14
30
0
0
SPLINE
5
12E
100
AcDbEntity
8
1
62
256
6
ByLayer
370
13
48
1
60
0
100
AcDbSpline
70
4
71
3
72
8
73
4
40
0
40
0
40
0
40
0
40
1
40
1
40
1
40
1
41
1
10
192.042282774471
20
2.20155815637426
30
0
41
1
10
193.194855182981
20
1.47835679951837
30
0
41
1
10
194.34742759149
20
0.744499672605826
30
0
41
1
10
195.5
20
5.68E-14
30
0
0
SPLINE
5
12F
100
AcDbEntity
8
1
62
256
6
ByLayer
370
13
48
1
60
0
100
AcDbSpline
70
4
71
3
72
8
73
4
40
0
40
0
40
0
40
0
40
1
40
1
40
1
40
1
41
1
10
192.042282774471
20
-0.718000784273642
30
0
41
1
10
193.194855182981
20
-0.48958530997632
30
0
41
1
10
194.34742759149
20
-0.25025026275074
30
0
41
1
10
195.5
20
-2.84E-14
30
0
0
SPLINE
5
130
100
AcDbEntity
8
1
62
256
6
ByLayer
370
13
48
1
60
0
100
AcDbSpline
70
4
71
3
72
8
73
4
40
0
40
0
40
0
40
0
40
1
40
1
40
1
40
1
41
1
10
192.042282774471
20
-0.189631506927668
30
0
41
1
10
193.194855182981
20
-0.115473748356464
30
0
41
1
10
194.34742759149
20
-0.0522628899951485
30
0
41
1
10
195.5
20
0
30
0
0
SPLINE
5
131
100
AcDbEntity
8
1
62
256
6
ByLayer
370
13
48
1
60
0
100
AcDbSpline
70
4
71
3
72
8
73
4
40
0
40
0
40
0
40
0
40
1
40
1
40
1
40
1
41
1
10
192.042282774471
20
5.03763575010379
30
0
41
1
10
193.194855182981
20
3.34914063528339
30
0
41
1
10
194.34742759149
20
1.66991869892226
30
0
41
1
10
195.5
20
2.842E-13
30
0
0
SPLINE
5
132
100
AcDbEntity
8
1
62
256
6
ByLayer
370
13
48
1
60
0
100
AcDbSpline
70
4
71
3
72
8
73
4
40
0
40
0
40
0
40
0
40
1
40
1
40
1
40
1
41
1
10
192.042282774471
20
7.66998140024057
30
0
41
1
10
193.194855182981
20
5.10686021403859
30
0
41
1
10
194.34742759149
20
2.5501844767096
30
0
41
1
10
195.5
20
4.263E-13
30
0
0
SPLINE
5
133
100
AcDbEntity
8
1
62
256
6
ByLayer
370
13
48
1
60
0
100
AcDbSpline
70
4
71
3
72
8
73
4
40
0
40
0
40
0
40
0
40
1
40
1
40
1
40
1
41
1
10
192.042282774471
20
-7.80438554763305
30
0
41
1
10
193.194855182981
20
-5.20916693604622
30
0
41
1
10
194.34742759149
20
-2.60768952312063
30
0
41
1
10
195.5
20
-4.263E-13
30
0
0
SPLINE
5
134
100
AcDbEntity
8
1
62
256
6
ByLayer
370
13
48
1
60
0
100
AcDbSpline
70
4
71
3
72
8
73
4
40
0
40
0
40
0
40
0
40
1
40
1
40
1
40
1
41
1
10
192.042282774471
20
-9.12561398570534
30
0
41
1
10
193.194855182981
20
-6.0806990869167
30
0
41
1
10
194.34742759149
20
-3.03880958041586
30
0
41
1
10
195.5
20
-5.116E-13
30
0
0
SPLINE
5
135
100
AcDbEntity
8
1
62
256
6
ByLayer
370
13
48
1
60
0
100
AcDbSpline
70
4
71
3
72
8
73
4
40
0
40
0
40
0
40
0
40
1
40
1
40
1
40
1
41
1
10
192.042282774471
20
6.41647670989315
30
0
41
1
10
193.194855182981
20
4.28572563370909
30
0
41
1
10
194.34742759149
20
2.1468872619736
30
0
41
1
10
195.5
20
2.84E-14
30
0
0
LINE
5
7D
100
AcDbEntity
8
4
62
256
6
ByLayer
370
18
48
0.05
60
0
100
AcDbLine
10
-5
20
0
30
0
11
200.5
21
0
31
0
39
0
210
0
220
0
230
1
0
LINE
5
7F
100
AcDbEntity
8
81
62
256
6
ByLayer
370
18
48
1
60
0
100
AcDbLine
10
195.5
20
0
30
0
11
200.5
21
0
31
0
39
0
210
0
220
0
230
1
0
LINE
5
80
100
AcDbEntity
8
SK4
62
256
6
ByLayer
370
18
48
0.05
60
0
100
AcDbLine
10
-61
20
0
30
0
11
200.5
21
0
31
0
39
0
210
0
220
0
230
1
0
LINE
5
82
100
AcDbEntity
8
80
62
256
6
ByLayer
370
18
48
1
60
0
100
AcDbLine
10
0
20
0
30
0
11
-5
21
0
31
0
39
0
210
0
220
0
230
1
0
LINE
5
83
100
AcDbEntity
8
1
62
256
6
ByLayer
370
18
48
1
60
0
100
AcDbLine
10
64.995336
20
9.2
30
0
11
21.76229
21
9.2
31
0
39
0
210
0
220
0
230
1
0
LINE
5
84
100
AcDbEntity
8
1
62
256
6
ByLayer
370
18
48
1
60
0
100
AcDbLine
10
103.761888
20
-9.2
30
0
11
146.99489
21
-9.2
31
0
39
0
210
0
220
0
230
1
0
LINE
5
85
100
AcDbEntity
8
1
62
256
6
ByLayer
370
18
48
1
60
0
100
AcDbLine
10
146.99489
20
9.2
30
0
11
103.761888
21
9.2
31
0
39
0
210
0
220
0
230
1
0
LINE
5
86
100
AcDbEntity
8
1
62
256
6
ByLayer
370
18
48
1
60
0
100
AcDbLine
10
21.76229
20
-9.2
30
0
11
64.995336
21
-9.2
31
0
39
0
210
0
220
0
230
1
0
LINE
5
87
100
AcDbEntity
8
1
62
256
6
ByLayer
370
18
48
1
60
0
100
AcDbLine
10
195.5
20
0
30
0
11
192.042283
21
9.5
31
0
39
0
210
0
220
0
230
1
0
LINE
5
88
100
AcDbEntity
8
1
62
256
6
ByLayer
370
18
48
1
60
0
100
AcDbLine
10
192.042283
20
-9.5
30
0
11
195.5
21
0
31
0
39
0
210
0
220
0
230
1
0
LINE
5
89
100
AcDbEntity
8
1
62
256
6
ByLayer
370
18
48
1
60
0
100
AcDbLine
10
4.982988
20
10.855614
30
0
11
0
21
12.5
31
0
39
0
210
0
220
0
230
1
0
LINE
5
8A
100
AcDbEntity
8
1
62
256
6
ByLayer
370
18
48
1
60
0
100
AcDbLine
10
0
20
-12.5
30
0
11
4.982988
21
-10.855614
31
0
39
0
210
0
220
0
230
1
0
LINE
5
8B
100
AcDbEntity
8
1
62
256
6
ByLayer
370
18
48
1
60
0
100
AcDbLine
10
182
20
-9.5
30
0
11
192.042283
21
-9.5
31
0
39
0
210
0
220
0
230
1
0
LINE
5
8C
100
AcDbEntity
8
1
62
256
6
ByLayer
370
18
48
1
60
0
100
AcDbLine
10
195.5
20
0
30
0
11
192.042283
21
9.5
31
0
39
0
210
0
220
0
230
1
0
LINE
5
8D
100
AcDbEntity
8
1
62
256
6
ByLayer
370
18
48
1
60
0
100
AcDbLine
10
192.042283
20
-9.5
30
0
11
195.5
21
0
31
0
39
0
210
0
220
0
230
1
0
LINE
5
8E
100
AcDbEntity
8
SK1
62
256
6
ByLayer
370
18
48
1
60
0
100
AcDbLine
10
-56
20
-11.5
30
0
11
-55
21
-12.5
31
0
39
0
210
0
220
0
230
1
0
LINE
5
90
100
AcDbEntity
8
SK1
62
256
6
ByLayer
370
18
48
1
60
0
100
AcDbLine
10
-55
20
12.5
30
0
11
-56
21
11.5
31
0
39
0
210
0
220
0
230
1
0
LINE
5
91
100
AcDbEntity
8
SK1
62
256
6
ByLayer
370
18
48
1
60
0
100
AcDbLine
10
-55
20
-12.5
30
0
11
0
21
-12.5
31
0
39
0
210
0
220
0
230
1
0
LINE
5
92
100
AcDbEntity
8
SK1
62
256
6
ByLayer
370
18
48
1
60
0
100
AcDbLine
10
0
20
12.5
30
0
11
-55
21
12.5
31
0
39
0
210
0
220
0
230
1
0
LINE
5
93
100
AcDbEntity
8
1
62
256
6
ByLayer
370
18
48
1
60
0
100
AcDbLine
10
0
20
12.5
30
0
11
0
21
-12.5
31
0
39
0
210
0
220
0
230
1
0
LINE
5
94
100
AcDbEntity
8
1
62
256
6
ByLayer
370
18
48
1
60
0
100
AcDbLine
10
192.042283
20
9.5
30
0
11
192.042283
21
9.198336
31
0
39
0
210
0
220
0
230
1
0
LINE
5
95
100
AcDbEntity
8
1
62
256
6
ByLayer
370
18
48
1
60
0
100
AcDbLine
10
192.042283
20
-9.5
30
0
11
192.042283
21
-1.355664
31
0
39
0
210
0
220
0
230
1
0
LINE
5
96
100
AcDbEntity
8
1
62
256
6
ByLayer
370
18
48
1
60
0
100
AcDbLine
10
10
20
-8.938017
30
0
11
10
21
4.956303
31
0
39
0
210
0
220
0
230
1
0
LINE
5
97
100
AcDbEntity
8
SK1
62
256
6
ByLayer
370
13
48
1
60
0
100
AcDbLine
10
-15.162813
20
-7.237775
30
0
11
-15.162813
21
7.237775
31
0
39
0
210
0
220
0
230
1
0
LINE
5
98
100
AcDbEntity
8
SK1
62
256
6
ByLayer
370
13
48
1
60
0
100
AcDbLine
10
-51.386002
20
5.000227
30
0
11
-51.386002
21
-5.000227
31
0
39
0
210
0
220
0
230
1
0
LINE
5
99
100
AcDbEntity
8
SK1
62
256
6
ByLayer
370
18
48
1
60
0
100
AcDbLine
10
-56
20
-11.5
30
0
11
-56
21
11.5
31
0
39
0
210
0
220
0
230
1
0
LINE
5
9A
100
AcDbEntity
8
SK1
62
256
6
ByLayer
370
13
48
1
60
0
100
AcDbLine
10
-52.500329
20
-3.620591
30
0
11
-52.500329
21
3.620591
31
0
39
0
210
0
220
0
230
1
0
LINE
5
9B
100
AcDbEntity
8
SK1
62
256
6
ByLayer
370
18
48
1
60
0
100
AcDbLine
10
-55
20
-12.5
30
0
11
-55
21
12.5
31
0
39
0
210
0
220
0
230
1
0
LINE
5
9C
100
AcDbEntity
8
SK1
62
256
6
ByLayer
370
18
48
1
60
0
100
AcDbLine
10
0
20
12.5
30
0
11
0
21
-12.5
31
0
39
0
210
0
220
0
230
1
0
LINE
5
9D
100
AcDbEntity
8
SK1
62
256
6
ByLayer
370
13
48
1
60
0
100
AcDbLine
10
-14.015776
20
6.592429
30
0
11
-14.015776
21
-6.592429
31
0
39
0
210
0
220
0
230
1
0
LINE
5
9E
100
AcDbEntity
8
1
62
256
6
ByLayer
370
18
48
1
60
0
100
AcDbLine
10
192.042283
20
9.5
30
0
11
192.042283
21
-9.5
31
0
39
0
210
0
220
0
230
1
0
LINE
5
9F
100
AcDbEntity
8
1
62
256
6
ByLayer
370
18
48
1
60
0
100
AcDbLine
10
192.042283
20
9.5
30
0
11
192.042283
21
-9.5
31
0
39
0
210
0
220
0
230
1
0
LINE
5
A0
100
AcDbEntity
8
1
62
256
6
ByLayer
370
18
48
1
60
0
100
AcDbLine
10
192.042283
20
9.5
30
0
11
192.042283
21
-9.5
31
0
39
0
210
0
220
0
230
1
0
LINE
5
A1
100
AcDbEntity
8
1
62
256
6
ByLayer
370
18
48
1
60
0
100
AcDbLine
10
182
20
9.5
30
0
11
182
21
-9.5
31
0
39
0
210
0
220
0
230
1
0
LINE
5
A2
100
AcDbEntity
8
1
62
256
6
ByLayer
370
18
48
1
60
0
100
AcDbLine
10
182
20
9.5
30
0
11
182
21
-9.5
31
0
39
0
210
0
220
0
230
1
0
LINE
5
A3
100
AcDbEntity
8
1
62
256
6
ByLayer
370
18
48
1
60
0
100
AcDbLine
10
192.042283
20
9.5
30
0
11
192.042283
21
-9.5
31
0
39
0
210
0
220
0
230
1
0
LINE
5
A4
100
AcDbEntity
8
1
62
256
6
ByLayer
370
18
48
1
60
0
100
AcDbLine
10
182
20
9.5
30
0
11
182
21
-9.5
31
0
39
0
210
0
220
0
230
1
0
LINE
5
A5
100
AcDbEntity
8
1
62
256
6
ByLayer
370
18
48
1
60
0
100
AcDbLine
10
192.042283
20
9.5
30
0
11
192.042283
21
-9.5
31
0
39
0
210
0
220
0
230
1
0
LINE
5
A6
100
AcDbEntity
8
SK2
62
256
6
ByLayer
370
13
48
1
60
0
100
AcDbLine
10
-62.5
20
-12.5
30
0
11
-62.5
21
41.524569
31
0
39
0
210
0
220
0
230
1
0
LINE
5
A8
100
AcDbEntity
8
SK2
62
256
6
ByLayer
370
13
48
1
60
0
100
AcDbLine
10
-57.5875
20
12.5
30
0
11
-64.5
21
12.5
31
0
39
0
210
0
220
0
230
1
0
LINE
5
A9
100
AcDbEntity
8
SK2
62
256
6
ByLayer
370
13
48
1
60
0
100
AcDbLine
10
-57.5875
20
-12.5
30
0
11
-64.5
21
-12.5
31
0
39
0
210
0
220
0
230
1
0
LINE
5
AA
100
AcDbEntity
8
1
62
256
6
ByLayer
370
18
48
1
60
1
100
AcDbLine
10
-62.5
20
12.5
30
0
11
-62.039216
21
9.000002
31
0
39
0
210
0
220
0
230
1
0
LINE
5
AB
100
AcDbEntity
8
1
62
256
6
ByLayer
370
18
48
1
60
1
100
AcDbLine
10
-62.039216
20
9.000002
30
0
11
-62.960784
21
8.999998
31
0
39
0
210
0
220
0
230
1
0
LINE
5
AC
100
AcDbEntity
8
1
62
256
6
ByLayer
370
18
48
1
60
1
100
AcDbLine
10
-62.960784
20
8.999998
30
0
11
-62.5
21
12.5
31
0
39
0
210
0
220
0
230
1
0
LINE
5
AD
100
AcDbEntity
8
1
62
256
6
ByLayer
370
18
48
1
60
1
100
AcDbLine
10
-62.5
20
-12.5
30
0
11
-62.960784
21
-9.000002
31
0
39
0
210
0
220
0
230
1
0
LINE
5
AE
100
AcDbEntity
8
1
62
256
6
ByLayer
370
18
48
1
60
1
100
AcDbLine
10
-62.960784
20
-9.000002
30
0
11
-62.039216
21
-8.999998
31
0
39
0
210
0
220
0
230
1
0
LINE
5
AF
100
AcDbEntity
8
1
62
256
6
ByLayer
370
18
48
1
60
1
100
AcDbLine
10
-62.039216
20
-8.999998
30
0
11
-62.5
21
-12.5
31
0
39
0
210
0
220
0
230
1
0
LINE
5
B0
100
AcDbEntity
8
2
62
256
6
ByLayer
370
13
48
1
60
0
100
AcDbLine
10
203
20
-9.5
30
0
11
203
21
37.774683
31
0
39
0
210
0
220
0
230
1
0
LINE
5
B2
100
AcDbEntity
8
2
62
256
6
ByLayer
370
13
48
1
60
0
100
AcDbLine
10
193.629783
20
9.5
30
0
11
205
21
9.5
31
0
39
0
210
0
220
0
230
1
0
LINE
5
B3
100
AcDbEntity
8
2
62
256
6
ByLayer
370
13
48
1
60
0
100
AcDbLine
10
193.629783
20
-9.5
30
0
11
205
21
-9.5
31
0
39
0
210
0
220
0
230
1
0
LINE
5
B4
100
AcDbEntity
8
1
62
256
6
ByLayer
370
18
48
1
60
1
100
AcDbLine
10
203
20
9.5
30
0
11
203.460784
21
6.000002
31
0
39
0
210
0
220
0
230
1
0
LINE
5
B5
100
AcDbEntity
8
1
62
256
6
ByLayer
370
18
48
1
60
1
100
AcDbLine
10
203.460784
20
6.000002
30
0
11
202.539216
21
5.999998
31
0
39
0
210
0
220
0
230
1
0
LINE
5
B6
100
AcDbEntity
8
1
62
256
6
ByLayer
370
18
48
1
60
1
100
AcDbLine
10
202.539216
20
5.999998
30
0
11
203
21
9.5
31
0
39
0
210
0
220
0
230
1
0
LINE
5
B7
100
AcDbEntity
8
1
62
256
6
ByLayer
370
18
48
1
60
1
100
AcDbLine
10
203
20
-9.5
30
0
11
202.539216
21
-6.000002
31
0
39
0
210
0
220
0
230
1
0
LINE
5
B8
100
AcDbEntity
8
1
62
256
6
ByLayer
370
18
48
1
60
1
100
AcDbLine
10
202.539216
20
-6.000002
30
0
11
203.460784
21
-5.999998
31
0
39
0
210
0
220
0
230
1
0
LINE
5
B9
100
AcDbEntity
8
1
62
256
6
ByLayer
370
18
48
1
60
1
100
AcDbLine
10
203.460784
20
-5.999998
30
0
11
203
21
-9.5
31
0
39
0
210
0
220
0
230
1
0
LINE
5
BA
100
AcDbEntity
8
SK2
62
256
6
ByLayer
370
13
48
1
60
0
100
AcDbLine
10
196.042957
20
-1.491762
30
0
11
202.682423
21
-19.733545
31
0
39
0
210
0
220
0
230
1
0
LINE
5
BB
100
AcDbEntity
8
SK2
62
256
6
ByLayer
370
13
48
1
60
0
100
AcDbLine
10
196.042957
20
1.491762
30
0
11
202.682423
21
19.733545
31
0
39
0
210
0
220
0
230
1
0
LINE
5
BC
100
AcDbEntity
8
1
62
256
6
ByLayer
370
18
48
1
60
1
100
AcDbLine
10
201.998383
20
-17.85416
30
0
11
205.051575
21
-16.082064
31
0
39
0
210
0
220
0
230
1
0
LINE
5
BD
100
AcDbEntity
8
1
62
256
6
ByLayer
370
18
48
1
60
1
100
AcDbLine
10
205.051575
20
-16.082064
30
0
11
205.406196
21
-16.93267
31
0
39
0
210
0
220
0
230
1
0
LINE
5
BE
100
AcDbEntity
8
1
62
256
6
ByLayer
370
18
48
1
60
1
100
AcDbLine
10
205.406196
20
-16.93267
30
0
11
201.998383
21
-17.85416
31
0
39
0
210
0
220
0
230
1
0
LINE
5
BF
100
AcDbEntity
8
1
62
256
6
ByLayer
370
18
48
1
60
1
100
AcDbLine
10
201.998383
20
17.85416
30
0
11
205.406193
21
16.932671
31
0
39
0
210
0
220
0
230
1
0
LINE
5
C0
100
AcDbEntity
8
1
62
256
6
ByLayer
370
18
48
1
60
1
100
AcDbLine
10
205.406193
20
16.932671
30
0
11
205.051579
21
16.082063
31
0
39
0
210
0
220
0
230
1
0
LINE
5
C1
100
AcDbEntity
8
1
62
256
6
ByLayer
370
18
48
1
60
1
100
AcDbLine
10
205.051579
20
16.082063
30
0
11
201.998383
21
17.85416
31
0
39
0
210
0
220
0
230
1
0
LINE
5
13A
100
AcDbEntity
8
1
62
256
6
ByLayer
370
18
48
1
60
1
100
AcDbLine
10
-62.5
20
12.5
30
0
11
-62.039216
21
9.000002
31
0
39
0
210
0
220
0
230
1
0
LINE
5
13B
100
AcDbEntity
8
1
62
256
6
ByLayer
370
18
48
1
60
1
100
AcDbLine
10
-62.039216
20
9.000002
30
0
11
-62.960784
21
8.999998
31
0
39
0
210
0
220
0
230
1
0
LINE
5
13C
100
AcDbEntity
8
1
62
256
6
ByLayer
370
18
48
1
60
1
100
AcDbLine
10
-62.960784
20
8.999998
30
0
11
-62.5
21
12.5
31
0
39
0
210
0
220
0
230
1
0
LINE
5
13E
100
AcDbEntity
8
1
62
256
6
ByLayer
370
18
48
1
60
1
100
AcDbLine
10
-62.5
20
-12.5
30
0
11
-62.960784
21
-9.000002
31
0
39
0
210
0
220
0
230
1
0
LINE
5
13F
100
AcDbEntity
8
1
62
256
6
ByLayer
370
18
48
1
60
1
100
AcDbLine
10
-62.960784
20
-9.000002
30
0
11
-62.039216
21
-8.999998
31
0
39
0
210
0
220
0
230
1
0
LINE
5
140
100
AcDbEntity
8
1
62
256
6
ByLayer
370
18
48
1
60
1
100
AcDbLine
10
-62.039216
20
-8.999998
30
0
11
-62.5
21
-12.5
31
0
39
0
210
0
220
0
230
1
0
LINE
5
144
100
AcDbEntity
8
1
62
256
6
ByLayer
370
18
48
1
60
1
100
AcDbLine
10
203
20
9.5
30
0
11
203.460784
21
6.000002
31
0
39
0
210
0
220
0
230
1
0
LINE
5
145
100
AcDbEntity
8
1
62
256
6
ByLayer
370
18
48
1
60
1
100
AcDbLine
10
203.460784
20
6.000002
30
0
11
202.539216
21
5.999998
31
0
39
0
210
0
220
0
230
1
0
LINE
5
146
100
AcDbEntity
8
1
62
256
6
ByLayer
370
18
48
1
60
1
100
AcDbLine
10
202.539216
20
5.999998
30
0
11
203
21
9.5
31
0
39
0
210
0
220
0
230
1
0
LINE
5
148
100
AcDbEntity
8
1
62
256
6
ByLayer
370
18
48
1
60
1
100
AcDbLine
10
203
20
-9.5
30
0
11
202.539216
21
-6.000002
31
0
39
0
210
0
220
0
230
1
0
LINE
5
149
100
AcDbEntity
8
1
62
256
6
ByLayer
370
18
48
1
60
1
100
AcDbLine
10
202.539216
20
-6.000002
30
0
11
203.460784
21
-5.999998
31
0
39
0
210
0
220
0
230
1
0
LINE
5
14A
100
AcDbEntity
8
1
62
256
6
ByLayer
370
18
48
1
60
1
100
AcDbLine
10
203.460784
20
-5.999998
30
0
11
203
21
-9.5
31
0
39
0
210
0
220
0
230
1
0
LINE
5
14D
100
AcDbEntity
8
1
62
256
6
ByLayer
370
18
48
1
60
1
100
AcDbLine
10
201.998383
20
-17.85416
30
0
11
205.051575
21
-16.082064
31
0
39
0
210
0
220
0
230
1
0
LINE
5
14E
100
AcDbEntity
8
1
62
256
6
ByLayer
370
18
48
1
60
1
100
AcDbLine
10
205.051575
20
-16.082064
30
0
11
205.406196
21
-16.93267
31
0
39
0
210
0
220
0
230
1
0
LINE
5
14F
100
AcDbEntity
8
1
62
256
6
ByLayer
370
18
48
1
60
1
100
AcDbLine
10
205.406196
20
-16.93267
30
0
11
201.998383
21
-17.85416
31
0
39
0
210
0
220
0
230
1
0
LINE
5
151
100
AcDbEntity
8
1
62
256
6
ByLayer
370
18
48
1
60
1
100
AcDbLine
10
201.998383
20
17.85416
30
0
11
205.406193
21
16.932671
31
0
39
0
210
0
220
0
230
1
0
LINE
5
152
100
AcDbEntity
8
1
62
256
6
ByLayer
370
18
48
1
60
1
100
AcDbLine
10
205.406193
20
16.932671
30
0
11
205.051579
21
16.082063
31
0
39
0
210
0
220
0
230
1
0
LINE
5
153
100
AcDbEntity
8
1
62
256
6
ByLayer
370
18
48
1
60
1
100
AcDbLine
10
205.051579
20
16.082063
30
0
11
201.998383
21
17.85416
31
0
39
0
210
0
220
0
230
1
0
MTEXT
5
136
100
AcDbEntity
8
SK2
62
256
6
ByLayer
370
18
48
1
60
0
100
AcDbMText
10
-63.841114
20
24.158438
30
0
210
0
220
0
230
1
1
%%c
40
3
41
0
44
1.084337
50
90
71
7
72
5
7
iso_b_vert
0
MTEXT
5
139
100
AcDbEntity
8
SK2
62
256
6
ByLayer
370
18
48
1
60
0
100
AcDbMText
10
-63.841114
20
30.135
30
0
210
0
220
0
230
1
1
\W0.7513;25.000
40
3
41
0
44
1.084337
50
90
71
7
72
5
7
iso_b_vert
0
MTEXT
5
142
100
AcDbEntity
8
2
62
256
6
ByLayer
370
18
48
1
60
0
100
AcDbMText
10
201.658886
20
21.158438
30
0
210
0
220
0
230
1
1
%%c
40
3
41
0
44
1.084337
50
90
71
7
72
5
7
iso_b_vert
0
MTEXT
5
143
100
AcDbEntity
8
2
62
256
6
ByLayer
370
18
48
1
60
0
100
AcDbMText
10
201.658886
20
27.135
30
0
210
0
220
0
230
1
1
\W0.7022;19.000
40
3
41
0
44
1.084337
50
90
71
7
72
5
7
iso_b_vert
0
MTEXT
5
14C
100
AcDbEntity
8
SK2
62
256
6
ByLayer
370
18
48
1
60
0
100
AcDbMText
10
215.409114
20
3.734657
30
0
210
0
220
0
230
1
1
\W0.7071;140%%d
40
3
41
0
44
1.084337
50
270
71
7
72
5
7
iso_b_vert
0
MTEXT
5
155
100
AcDbEntity
8
SK6
62
256
6
ByLayer
370
18
48
1
60
0
100
AcDbMText
10
46.212746
20
-67.114886
30
0
210
0
220
0
230
1
1
\W0.7358;H85819.0
40
3
41
0
44
1.084337
50
0
71
7
72
5
7
iso_b_vert
0
HATCH
5
13D
100
AcDbEntity
8
SK2
62
256
6
ByLayer
370
13
48
1
60
0
100
AcDbHatch
10
0
20
0
30
0
210
0
220
0
230
1
2
ANSI31
70
0
71
0
91
1
92
5
93
3
72
1
10
-62.5
20
12.5
11
-62.0392162584472
21
9.00000169255318
72
1
10
-62.0392162584472
20
9.00000169255318
11
-62.9607837415528
21
8.99999830744682
72
1
10
-62.9607837415528
20
8.99999830744682
11
-62.5
21
12.5
97
0
75
0
76
1
52
0
41
0.0062
77
0
78
1
53
45
43
0
44
0
45
-0.0139193969876572
46
0.0139193969876572
79
0
47
0
98
1
10
0
20
0
0
HATCH
5
141
100
AcDbEntity
8
SK2
62
256
6
ByLayer
370
13
48
1
60
0
100
AcDbHatch
10
0
20
0
30
0
210
0
220
0
230
1
2
ANSI31
70
0
71
0
91
1
92
5
93
3
72
1
10
-62.5
20
-12.5
11
-62.9607837415528
21
-9.00000169255318
72
1
10
-62.9607837415528
20
-9.00000169255318
11
-62.0392162584472
21
-8.99999830744682
72
1
10
-62.0392162584472
20
-8.99999830744682
11
-62.5
21
-12.5
97
0
75
0
76
1
52
0
41
0.0062
77
0
78
1
53
45
43
0
44
0
45
-0.0139193969876572
46
0.0139193969876572
79
0
47
0
98
1
10
0
20
0
0
HATCH
5
147
100
AcDbEntity
8
2
62
256
6
ByLayer
370
13
48
1
60
0
100
AcDbHatch
10
0
20
0
30
0
210
0
220
0
230
1
2
ANSI31
70
0
71
0
91
1
92
5
93
3
72
1
10
203
20
9.5
11
203.460783741553
21
6.00000169255318
72
1
10
203.460783741553
20
6.00000169255318
11
202.539216258447
21
5.99999830744682
72
1
10
202.539216258447
20
5.99999830744682
11
203
21
9.5
97
0
75
0
76
1
52
0
41
0.0062
77
0
78
1
53
45
43
0
44
0
45
-0.0139193969876572
46
0.0139193969876572
79
0
47
0
98
1
10
0
20
0
0
HATCH
5
14B
100
AcDbEntity
8
2
62
256
6
ByLayer
370
13
48
1
60
0
100
AcDbHatch
10
0
20
0
30
0
210
0
220
0
230
1
2
ANSI31
70
0
71
0
91
1
92
5
93
3
72
1
10
203
20
-9.5
11
202.539216258447
21
-6.00000169255318
72
1
10
202.539216258447
20
-6.00000169255318
11
203.460783741553
21
-5.99999830744682
72
1
10
203.460783741553
20
-5.99999830744682
11
203
21
-9.5
97
0
75
0
76
1
52
0
41
0.0062
77
0
78
1
53
45
43
0
44
0
45
-0.0139193969876572
46
0.0139193969876572
79
0
47
0
98
1
10
0
20
0
0
HATCH
5
150
100
AcDbEntity
8
SK2
62
256
6
ByLayer
370
13
48
1
60
0
100
AcDbHatch
10
0
20
0
30
0
210
0
220
0
230
1
2
ANSI31
70
0
71
0
91
1
92
5
93
3
72
1
10
201.998382723188
20
-17.8541597949322
11
205.051575425693
21
-16.0820638240608
72
1
10
205.051575425693
20
-16.0820638240608
11
205.406195833975
21
-16.9326700737196
72
1
10
205.406195833975
20
-16.9326700737196
11
201.998382723188
21
-17.8541597949322
97
0
75
0
76
1
52
0
41
0.0062
77
0
78
1
53
45
43
0
44
0
45
-0.0139193969876572
46
0.0139193969876572
79
0
47
0
98
1
10
0
20
0
0
HATCH
5
154
100
AcDbEntity
8
SK2
62
256
6
ByLayer
370
13
48
1
60
0
100
AcDbHatch
10
0
20
0
30
0
210
0
220
0
230
1
2
ANSI31
70
0
71
0
91
1
92
5
93
3
72
1
10
201.998382723188
20
17.8541597949322
11
205.406192709519
21
16.9326713763016
72
1
10
205.406192709519
20
16.9326713763016
11
205.051578550149
21
16.0820625214788
72
1
10
205.051578550149
20
16.0820625214788
11
201.998382723188
21
17.8541597949322
97
0
75
0
76
1
52
0
41
0.0062
77
0
78
1
53
45
43
0
44
0
45
-0.0139193969876572
46
0.0139193969876572
79
0
47
0
98
1
10
0
20
0
0
DIMENSION
5
158
100
AcDbEntity
8
SK2
62
256
6
ByLayer
370
18
48
1
60
0
100
AcDbDimension
2
_U0
10
195.5
20
-46.058728
30
0
11
69.75
21
-46.058728
31
0
70
32
71
1
72
1
41
1
210
0
220
0
230
1
3
Standard
100
AcDbAlignedDimension
13
-56
23
-12.5
33
0
14
195.5
24
0
34
0
50
0
100
AcDbRotatedDimension
1001
ACAD
1000
DSTYLE
1002
{
1070
   371
1070
    13
1070
   372
1070
    13
1070
     3
1000

1070
   170
1070
     0
1070
   144
1040
1.0
1070
   277
1070
     2
1070
   284
1070
     8
1070
   278
1070
    46
1070
   146
1040
1.166667
1070
   345
1005
16
1070
   347
1005
16
1070
   346
1005
16
1070
   344
1005
0
1070
   343
1005
0
1070
   172
1070
     1
1070
    76
1070
     0
1070
    75
1070
     0
1070
   282
1070
     0
1070
   281
1070
     0
1070
    71
1070
     0
1070
    74
1070
     0
1070
   279
1070
     0
1070
   173
1070
     1
1070
   340
1005
137
1070
   271
1070
     2
1070
   272
1070
     3
1070
    77
1070
     1
1070
    73
1070
     1
1070
   171
1070
     3
1070
   274
1070
     4
1070
   177
1070
     2
1070
   176
1070
     2
1070
   178
1070
     2
1070
    78
1070
     8
1070
    48
1040
-0.1
1070
    41
1040
3.5
1070
   147
1040
1.5
1070
    42
1040
1.5875
1070
    44
1040
2.0
1070
   140
1040
3.0
1002
}
1001
ACAD_DSTYLE_DIM_LINETYPE
1070
   380
1005
16
1001
ACAD_DSTYLE_DIM_EXT1_LINETYPE
1070
   381
1005
16
1001
ACAD_DSTYLE_DIM_EXT2_LINETYPE
1070
   382
1005
16
0
DIMENSION
5
171
100
AcDbEntity
8
SK2
62
256
6
ByLayer
370
18
48
1
60
0
100
AcDbDimension
2
_U1
10
3
20
-36.058728
30
0
11
99.25
21
-36.058728
31
0
70
32
71
1
72
1
41
1
210
0
220
0
230
1
3
Standard
100
AcDbAlignedDimension
13
195.5
23
0
33
0
14
3
24
-9.5
34
0
50
0
100
AcDbRotatedDimension
1001
ACAD
1000
DSTYLE
1002
{
1070
   371
1070
    13
1070
   372
1070
    13
1070
     3
1000

1070
   170
1070
     0
1070
   144
1040
1.0
1070
   277
1070
     2
1070
   284
1070
     8
1070
   278
1070
    46
1070
   146
1040
1.166667
1070
   345
1005
16
1070
   347
1005
16
1070
   346
1005
16
1070
   344
1005
0
1070
   343
1005
0
1070
   172
1070
     1
1070
    76
1070
     0
1070
    75
1070
     0
1070
   282
1070
     0
1070
   281
1070
     0
1070
    71
1070
     0
1070
    74
1070
     0
1070
   279
1070
     0
1070
   173
1070
     1
1070
   340
1005
137
1070
   271
1070
     2
1070
   272
1070
     3
1070
    77
1070
     1
1070
    73
1070
     1
1070
   171
1070
     3
1070
   274
1070
     4
1070
   177
1070
     2
1070
   176
1070
     2
1070
   178
1070
     2
1070
    78
1070
     8
1070
    48
1040
-0.1
1070
    41
1040
3.5
1070
   147
1040
1.5
1070
    42
1040
1.5875
1070
    44
1040
2.0
1070
   140
1040
3.0
1002
}
1001
ACAD_DSTYLE_DIM_LINETYPE
1070
   380
1005
16
1001
ACAD_DSTYLE_DIM_EXT1_LINETYPE
1070
   381
1005
16
1001
ACAD_DSTYLE_DIM_EXT2_LINETYPE
1070
   382
1005
16
0
DIMENSION
5
189
100
AcDbEntity
8
SK2
62
256
6
ByLayer
370
18
48
1
60
0
100
AcDbDimension
2
_U2
10
0
20
-36.058728
30
0
11
-28
21
-36.058728
31
0
70
32
71
1
72
1
41
1
210
0
220
0
230
1
3
Standard
100
AcDbAlignedDimension
13
-56
23
-12.5
33
0
14
0
24
-12.5
34
0
50
0
100
AcDbRotatedDimension
1001
ACAD
1000
DSTYLE
1002
{
1070
   371
1070
    13
1070
   372
1070
    13
1070
     3
1000

1070
   170
1070
     0
1070
   144
1040
1.0
1070
   277
1070
     2
1070
   284
1070
     8
1070
   278
1070
    46
1070
   146
1040
1.166667
1070
   345
1005
16
1070
   347
1005
16
1070
   346
1005
16
1070
   344
1005
0
1070
   343
1005
0
1070
   172
1070
     1
1070
    76
1070
     0
1070
    75
1070
     0
1070
   282
1070
     0
1070
   281
1070
     0
1070
    71
1070
     0
1070
    74
1070
     0
1070
   279
1070
     0
1070
   173
1070
     1
1070
   340
1005
137
1070
   271
1070
     2
1070
   272
1070
     3
1070
    77
1070
     1
1070
    73
1070
     1
1070
   171
1070
     3
1070
   274
1070
     4
1070
   177
1070
     2
1070
   176
1070
     2
1070
   178
1070
     2
1070
    78
1070
     8
1070
    48
1040
-0.1
1070
    41
1040
3.5
1070
   147
1040
1.5
1070
    42
1040
1.5875
1070
    44
1040
2.0
1070
   140
1040
3.0
1002
}
1001
ACAD_DSTYLE_DIM_LINETYPE
1070
   380
1005
16
1001
ACAD_DSTYLE_DIM_EXT1_LINETYPE
1070
   381
1005
16
1001
ACAD_DSTYLE_DIM_EXT2_LINETYPE
1070
   382
1005
16
0
DIMENSION
5
1A1
100
AcDbEntity
8
SK2
62
256
6
ByLayer
370
18
48
1
60
0
100
AcDbDimension
2
_U3
10
28
20
33.058728
30
0
11
111.75
21
33.058728
31
0
70
32
71
1
72
1
41
1
210
0
220
0
230
1
3
Standard
100
AcDbAlignedDimension
13
195.5
23
0
33
0
14
28
24
9.5
34
0
50
0
100
AcDbRotatedDimension
1001
ACAD
1000
DSTYLE
1002
{
1070
   371
1070
    13
1070
   372
1070
    13
1070
     3
1000

1070
   170
1070
     0
1070
   144
1040
1.0
1070
   277
1070
     2
1070
   284
1070
     8
1070
   278
1070
    46
1070
   146
1040
1.166667
1070
   345
1005
16
1070
   347
1005
16
1070
   346
1005
16
1070
   344
1005
0
1070
   343
1005
0
1070
   172
1070
     1
1070
    76
1070
     0
1070
    75
1070
     0
1070
   282
1070
     0
1070
   281
1070
     0
1070
    71
1070
     0
1070
    74
1070
     0
1070
   279
1070
     0
1070
   173
1070
     1
1070
   340
1005
137
1070
   271
1070
     2
1070
   272
1070
     3
1070
    77
1070
     1
1070
    73
1070
     1
1070
   171
1070
     3
1070
   274
1070
     4
1070
   177
1070
     2
1070
   176
1070
     2
1070
   178
1070
     2
1070
    78
1070
     8
1070
    48
1040
-0.1
1070
    41
1040
3.5
1070
   147
1040
1.5
1070
    42
1040
1.5875
1070
    44
1040
2.0
1070
   140
1040
3.0
1002
}
1001
ACAD_DSTYLE_DIM_LINETYPE
1070
   380
1005
16
1001
ACAD_DSTYLE_DIM_EXT1_LINETYPE
1070
   381
1005
16
1001
ACAD_DSTYLE_DIM_EXT2_LINETYPE
1070
   382
1005
16
0
ENDSEC
0
SECTION
2
OBJECTS
0
DICTIONARY
5
229
330
0
100
AcDbDictionary
280
0
281
1
3
ACAD_GROUP
350
22a
3
ACAD_MLINESTYLE
350
22b
0
DICTIONARY
5
22a
330
0
100
AcDbDictionary
280
0
281
1
0
DICTIONARY
5
22b
330
0
100
AcDbDictionary
280
0
281
1
3
Standard
350
18
0
MLINESTYLE
5
18
330
22b
100
AcDbMlineStyle
2
Standard
70
0
3

62
256
51
90
52
90
71
2
49
-0.5
62
256
6
ByLayer
49
0.5
62
256
6
ByLayer
0
RASTERVARIABLES
5
217
330

100
AcDbRasterVariables
90
0
70
1
71
1
72
1
0
ENDSEC
0
EOF
