0
SECTION
2
HEADER
9
$ACADVER
1
AC1015
9
$DWGCODEPAGE
3
ANSI_1252
9
$HANDSEED
5
22f
9
$ANGBASE
50
0
9
$ANGDIR
70
0
9
$ATTMODE
70
1
9
$AUNITS
70
0
9
$AUPREC
70
0
9
$CECOLOR
62
256
9
$CELTSCALE
40
1
9
$CELTYPE
6
ByLayer
9
$CELWEIGHT
370
18
9
$CLAYER
8
0
9
$CMLJUST
70
0
9
$CMLSCALE
40
1
9
$CMLSTYLE
2
Standard
9
$DIMSTYLE
2
Standard
9
$TEXTSIZE
40
0.2
9
$TEXTSTYLE
7
Standard
9
$LUNITS
70
2
9
$LUPREC
70
4
9
$EXTNAMES
290
1
9
$INSUNITS
70
4
9
$LTSCALE
40
1
9
$LWDISPLAY
290
1
9
$PDMODE
70
0
9
$PDSIZE
40
0
9
$PLINEGEN
70
0
0
ENDSEC
0
SECTION
2
CLASSES
0
CLASS
1
RASTERVARIABLES
2
AcDbRasterVariables
3
ISM
90
0
280
0
281
0
0
ENDSEC
0
SECTION
2
TABLES
0
TABLE
2
VPORT
5
225
100
AcDbSymbolTable
0
VPORT
5
1
100
AcDbSymbolTableRecord
100
AcDbViewportTableRecord
2
*Active
70
0
10
0
20
0
11
1
21
1
12
-1
22
1
13
0
23
0
14
0.5
24
0.5
15
10
25
10
16
0
26
0
36
1
17
0
27
0
37
0
0
ENDTAB
0
TABLE
2
LTYPE
5
226
100
AcDbSymbolTable
0
LTYPE
5
14
100
AcDbSymbolTableRecord
100
AcDbLinetypeTableRecord
70
0
2
ByBlock
3

72
65
73
0
40
0
0
LTYPE
5
15
100
AcDbSymbolTableRecord
100
AcDbLinetypeTableRecord
70
0
2
ByLayer
3

72
65
73
0
40
0
0
LTYPE
5
16
100
AcDbSymbolTableRecord
100
AcDbLinetypeTableRecord
70
0
2
Continuous
3
Solid line
72
65
73
0
40
0
0
LTYPE
5
6E
100
AcDbSymbolTableRecord
100
AcDbLinetypeTableRecord
70
0
2
CENTER
3
____ _ ____ _ ____ _ ____
72
65
73
4
40
47.5
49
22
74
0
49
-8.5
74
0
49
8.5
74
0
49
-8.5
74
0
0
LTYPE
5
6F
100
AcDbSymbolTableRecord
100
AcDbLinetypeTableRecord
70
0
2
DASHED
3
__ __ __ __ __ __ __ __ __
72
65
73
2
40
25.72
49
12.86
74
0
49
-12.86
74
0
0
ENDTAB
0
TABLE
2
LAYER
5
227
100
AcDbSymbolTable
0
LAYER
5
10
100
AcDbSymbolTableRecord
100
AcDbLayerTableRecord
2
0
70
0
62
7
6
Continuous
290
1
370
-3
390
0
0
LAYER
5
71
100
AcDbSymbolTableRecord
100
AcDbLayerTableRecord
2
80
70
0
62
-6
6
Continuous
290
1
370
-3
390
0
0
LAYER
5
73
100
AcDbSymbolTableRecord
100
AcDbLayerTableRecord
2
81
70
0
62
-3
6
Continuous
290
1
370
-3
390
0
0
LAYER
5
75
100
AcDbSymbolTableRecord
100
AcDbLayerTableRecord
2
1
70
0
62
4
6
Continuous
290
1
370
-3
390
0
0
LAYER
5
7F
100
AcDbSymbolTableRecord
100
AcDbLayerTableRecord
2
4
70
0
62
-2
6
CENTER
290
1
370
-3
390
0
0
LAYER
5
B2
100
AcDbSymbolTableRecord
100
AcDbLayerTableRecord
2
2
70
0
62
7
6
Continuous
290
1
370
-3
390
0
0
LAYER
5
154
100
AcDbSymbolTableRecord
100
AcDbLayerTableRecord
2
Defpoints
70
0
62
7
6
Continuous
290
0
370
-3
390
0
0
LAYER
5
211
100
AcDbSymbolTableRecord
100
AcDbLayerTableRecord
2
SK4
70
0
62
2
6
CENTER
290
1
370
-3
390
0
0
LAYER
5
212
100
AcDbSymbolTableRecord
100
AcDbLayerTableRecord
2
SK1
70
0
62
4
6
Continuous
290
1
370
-3
390
0
0
LAYER
5
213
100
AcDbSymbolTableRecord
100
AcDbLayerTableRecord
2
SK2
70
0
62
7
6
Continuous
290
1
370
-3
390
0
0
LAYER
5
214
100
AcDbSymbolTableRecord
100
AcDbLayerTableRecord
2
SK6
70
0
62
5
6
Continuous
290
1
370
-3
390
0
0
ENDTAB
0
TABLE
2
STYLE
5
228
100
AcDbSymbolTable
0
STYLE
5
11
100
AcDbSymbolTableRecord
100
AcDbTextStyleTableRecord
2
Standard
3
txt
70
0
71
0
40
0
41
1
42
0
50
0
0
STYLE
5
130
100
AcDbSymbolTableRecord
100
AcDbTextStyleTableRecord
2
iso_b_vert
3
simplex.shx
70
0
71
0
40
0
41
1
42
0
50
0
0
STYLE
5
131
100
AcDbSymbolTableRecord
100
AcDbTextStyleTableRecord
2
DWGDirectTextStyle
3
simplex
70
0
71
0
40
0
41
1
42
0
50
0
0
ENDTAB
0
TABLE
2
DIMSTYLE
5
229
100
AcDbSymbolTable
100
AcDbDimStyleTable
0
DIMSTYLE
105
27
100
AcDbSymbolTableRecord
100
AcDbDimStyleTableRecord
2
Standard
70
0
3
<>
41
0.18
42
0.0625
44
0.18
140
0.18
147
0.09
73
0
74
0
77
1
271
2
275
0
278
52
280
0
340
11
0
ENDTAB
0
TABLE
2
VIEW
5
22a
100
AcDbSymbolTable
0
ENDTAB
0
TABLE
2
UCS
5
22b
100
AcDbSymbolTable
0
ENDTAB
0
TABLE
2
APPID
5
22c
100
AcDbSymbolTable
0
APPID
5
12
100
AcDbSymbolTableRecord
100
AcDbRegAppTableRecord
2
ACAD
70
0
0
APPID
5
150
100
AcDbSymbolTableRecord
100
AcDbRegAppTableRecord
2
ACAD_DSTYLE_DIMBREAK
70
0
0
APPID
5
1D0
100
AcDbSymbolTableRecord
100
AcDbRegAppTableRecord
2
ACAD_DSTYLE_DIM_LINETYPE
70
0
0
APPID
5
1D1
100
AcDbSymbolTableRecord
100
AcDbRegAppTableRecord
2
ACAD_DSTYLE_DIM_EXT1_LINETYPE
70
0
0
APPID
5
1D2
100
AcDbSymbolTableRecord
100
AcDbRegAppTableRecord
2
ACAD_DSTYLE_DIM_EXT2_LINETYPE
70
0
0
APPID
5
20D
100
AcDbSymbolTableRecord
100
AcDbRegAppTableRecord
2
ACAD_MLEADERVER
70
0
0
ENDTAB
0
TABLE
2
BLOCK_RECORD
5
22d
100
AcDbSymbolTable
0
BLOCK_RECORD
5
1F
100
AcDbSymbolTableRecord
100
AcDbBlockTableRecord
2
*Model_Space
340
0
70
0
0
BLOCK_RECORD
5
1B
100
AcDbSymbolTableRecord
100
AcDbBlockTableRecord
2
*Paper_Space
340
0
70
0
0
BLOCK_RECORD
5
23
100
AcDbSymbolTableRecord
100
AcDbBlockTableRecord
2
*Paper_Space0
340
0
70
0
0
BLOCK_RECORD
5
155
100
AcDbSymbolTableRecord
100
AcDbBlockTableRecord
2
*D1
340
0
70
0
0
BLOCK_RECORD
5
161
100
AcDbSymbolTableRecord
100
AcDbBlockTableRecord
2
_U0
340
0
70
0
0
BLOCK_RECORD
5
16D
100
AcDbSymbolTableRecord
100
AcDbBlockTableRecord
2
*D3
340
0
70
0
0
BLOCK_RECORD
5
179
100
AcDbSymbolTableRecord
100
AcDbBlockTableRecord
2
_U1
340
0
70
0
0
BLOCK_RECORD
5
185
100
AcDbSymbolTableRecord
100
AcDbBlockTableRecord
2
*D5
340
0
70
0
0
BLOCK_RECORD
5
191
100
AcDbSymbolTableRecord
100
AcDbBlockTableRecord
2
_U2
340
0
70
0
0
BLOCK_RECORD
5
19D
100
AcDbSymbolTableRecord
100
AcDbBlockTableRecord
2
*D7
340
0
70
0
0
BLOCK_RECORD
5
1A9
100
AcDbSymbolTableRecord
100
AcDbBlockTableRecord
2
_U3
340
0
70
0
0
ENDTAB
0
ENDSEC
0
SECTION
2
BLOCKS
0
BLOCK
5
20
100
AcDbEntity
8
0
100
AcDbBlockBegin
2
*Model_Space
70
0
10
0
20
0
30
0
3
*Model_Space
0
ENDBLK
5
21
100
AcDbEntity
8
0
100
AcDbBlockEnd
0
BLOCK
5
1C
100
AcDbEntity
8
0
100
AcDbBlockBegin
2
*Paper_Space
70
0
10
0
20
0
30
0
3
*Paper_Space
0
ENDBLK
5
1D
100
AcDbEntity
8
0
100
AcDbBlockEnd
0
BLOCK
5
24
100
AcDbEntity
8
0
100
AcDbBlockBegin
2
*Paper_Space0
70
0
10
0
20
0
30
0
3
*Paper_Space0
0
ENDBLK
5
25
100
AcDbEntity
8
0
100
AcDbBlockEnd
0
BLOCK
5
156
100
AcDbEntity
8
0
100
AcDbBlockBegin
2
*D1
70
1
10
0
20
0
30
0
3
*D1
0
LINE
5
158
100
AcDbEntity
8
0
62
256
6
ByLayer
370
-2
48
1
60
0
100
AcDbLine
10
-50
20
-11.5875
30
0
11
-50
21
-48.643657
31
0
39
0
210
0
220
0
230
1
0
LINE
5
159
100
AcDbEntity
8
0
62
256
6
ByLayer
370
-2
48
1
60
0
100
AcDbLine
10
176.5
20
-1.5875
30
0
11
176.5
21
-48.643657
31
0
39
0
210
0
220
0
230
1
0
LINE
5
15A
100
AcDbEntity
8
0
62
256
6
ByLayer
370
-2
48
1
60
0
100
AcDbLine
10
-46.5
20
-46.643657
30
0
11
173
21
-46.643657
31
0
39
0
210
0
220
0
230
1
0
SOLID
5
15B
100
AcDbEntity
8
0
62
256
6
ByLayer
370
-1
48
1
60
0
100
AcDbTrace
10
-46.5
20
-46.060323
30
0
11
-46.5
21
-47.22699
31
0
12
-50
22
-46.643657
32
0
13
-50
23
-46.643657
33
0
39
0
210
0
220
0
230
1
0
SOLID
5
15C
100
AcDbEntity
8
0
62
256
6
ByLayer
370
-1
48
1
60
0
100
AcDbTrace
10
173
20
-47.22699
30
0
11
173
21
-46.060323
31
0
12
176.5
22
-46.643657
32
0
13
176.5
23
-46.643657
33
0
39
0
210
0
220
0
230
1
0
MTEXT
5
15D
100
AcDbEntity
8
0
62
256
6
ByLayer
370
18
48
1
60
0
100
AcDbMText
10
63.25
20
-40.643657
30
0
210
0
220
0
230
1
1
\A1;226.5
40
3
41
0
44
1
50
0
71
5
72
5
7
iso_b_vert
0
POINT
5
15E
100
AcDbEntity
8
Defpoints
62
0
6
ByLayer
370
-1
48
1
60
0
100
AcDbPoint
10
-50
20
-10
30
0
39
0
210
0
220
0
230
1
50
360
0
POINT
5
15F
100
AcDbEntity
8
Defpoints
62
0
6
ByLayer
370
-1
48
1
60
0
100
AcDbPoint
10
176.5
20
0
30
0
39
0
210
0
220
0
230
1
50
360
0
POINT
5
160
100
AcDbEntity
8
Defpoints
62
0
6
ByLayer
370
-1
48
1
60
0
100
AcDbPoint
10
176.5
20
-46.643657
30
0
39
0
210
0
220
0
230
1
50
360
0
ENDBLK
5
157
100
AcDbEntity
8
0
100
AcDbBlockEnd
0
BLOCK
5
168
100
AcDbEntity
8
0
100
AcDbBlockBegin
2
_U0
70
0
10
0
20
0
30
0
3
_U0
0
MTEXT
5
162
100
AcDbEntity
8
SK2
62
256
6
ByLayer
370
18
48
1
60
0
100
AcDbMText
10
57.646716
20
-45.758542
30
0
210
0
220
0
230
1
1
\W0.7513;226.50
40
3
41
0
44
1.084337
50
0
71
7
72
5
7
iso_b_vert
0
LINE
5
163
100
AcDbEntity
8
SK2
62
256
6
ByLayer
370
13
48
1
60
0
100
AcDbLine
10
-50
20
-11.5875
30
0
11
-50
21
-48.643657
31
0
39
0
210
0
220
0
230
1
0
LINE
5
164
100
AcDbEntity
8
SK2
62
256
6
ByLayer
370
13
48
1
60
0
100
AcDbLine
10
176.5
20
-1.5875
30
0
11
176.5
21
-48.643657
31
0
39
0
210
0
220
0
230
1
0
LINE
5
165
100
AcDbEntity
8
SK2
62
256
6
ByLayer
370
13
48
1
60
0
100
AcDbLine
10
-50
20
-46.643657
30
0
11
176.5
21
-46.643657
31
0
39
0
210
0
220
0
230
1
0
SOLID
5
166
100
AcDbEntity
8
SK2
62
256
6
ByLayer
370
18
48
1
60
0
100
AcDbTrace
10
-50
20
-46.643657
30
0
11
-46.500002
21
-46.182873
31
0
12
-46.499998
22
-47.104441
32
0
13
-46.499998
23
-47.104441
33
0
39
0
210
0
220
0
230
1
0
SOLID
5
167
100
AcDbEntity
8
SK2
62
256
6
ByLayer
370
18
48
1
60
0
100
AcDbTrace
10
176.5
20
-46.643657
30
0
11
173.000002
21
-47.104441
31
0
12
172.999998
22
-46.182873
32
0
13
172.999998
23
-46.182873
33
0
39
0
210
0
220
0
230
1
0
ENDBLK
5
169
100
AcDbEntity
8
0
100
AcDbBlockEnd
0
BLOCK
5
16E
100
AcDbEntity
8
0
100
AcDbBlockBegin
2
*D3
70
1
10
0
20
0
30
0
3
*D3
0
LINE
5
170
100
AcDbEntity
8
0
62
256
6
ByLayer
370
-2
48
1
60
0
100
AcDbLine
10
176.5
20
-1.5875
30
0
11
176.5
21
-38.643657
31
0
39
0
210
0
220
0
230
1
0
LINE
5
171
100
AcDbEntity
8
0
62
256
6
ByLayer
370
-2
48
1
60
0
100
AcDbLine
10
3
20
-10.5875
30
0
11
3
21
-38.643657
31
0
39
0
210
0
220
0
230
1
0
LINE
5
172
100
AcDbEntity
8
0
62
256
6
ByLayer
370
-2
48
1
60
0
100
AcDbLine
10
173
20
-36.643657
30
0
11
6.5
21
-36.643657
31
0
39
0
210
0
220
0
230
1
0
SOLID
5
173
100
AcDbEntity
8
0
62
256
6
ByLayer
370
-1
48
1
60
0
100
AcDbTrace
10
173
20
-37.22699
30
0
11
173
21
-36.060323
31
0
12
176.5
22
-36.643657
32
0
13
176.5
23
-36.643657
33
0
39
0
210
0
220
0
230
1
0
SOLID
5
174
100
AcDbEntity
8
0
62
256
6
ByLayer
370
-1
48
1
60
0
100
AcDbTrace
10
6.5
20
-36.060323
30
0
11
6.5
21
-37.22699
31
0
12
3
22
-36.643657
32
0
13
3
23
-36.643657
33
0
39
0
210
0
220
0
230
1
0
MTEXT
5
175
100
AcDbEntity
8
0
62
256
6
ByLayer
370
18
48
1
60
0
100
AcDbMText
10
89.75
20
-30.643657
30
0
210
0
220
0
230
1
1
\A1;173.5
40
3
41
0
44
1
50
0
71
5
72
5
7
iso_b_vert
0
POINT
5
176
100
AcDbEntity
8
Defpoints
62
0
6
ByLayer
370
-1
48
1
60
0
100
AcDbPoint
10
176.5
20
0
30
0
39
0
210
0
220
0
230
1
50
360
0
POINT
5
177
100
AcDbEntity
8
Defpoints
62
0
6
ByLayer
370
-1
48
1
60
0
100
AcDbPoint
10
3
20
-9
30
0
39
0
210
0
220
0
230
1
50
360
0
POINT
5
178
100
AcDbEntity
8
Defpoints
62
0
6
ByLayer
370
-1
48
1
60
0
100
AcDbPoint
10
3
20
-36.643657
30
0
39
0
210
0
220
0
230
1
50
360
0
ENDBLK
5
16F
100
AcDbEntity
8
0
100
AcDbBlockEnd
0
BLOCK
5
180
100
AcDbEntity
8
0
100
AcDbBlockBegin
2
_U1
70
0
10
0
20
0
30
0
3
_U1
0
MTEXT
5
17A
100
AcDbEntity
8
SK2
62
256
6
ByLayer
370
18
48
1
60
0
100
AcDbMText
10
84.521658
20
-35.758542
30
0
210
0
220
0
230
1
1
\W0.7022;173.50
40
3
41
0
44
1.084337
50
0
71
7
72
5
7
iso_b_vert
0
LINE
5
17B
100
AcDbEntity
8
SK2
62
256
6
ByLayer
370
13
48
1
60
0
100
AcDbLine
10
176.5
20
-1.5875
30
0
11
176.5
21
-38.643657
31
0
39
0
210
0
220
0
230
1
0
LINE
5
17C
100
AcDbEntity
8
SK2
62
256
6
ByLayer
370
13
48
1
60
0
100
AcDbLine
10
3
20
-10.5875
30
0
11
3
21
-38.643657
31
0
39
0
210
0
220
0
230
1
0
LINE
5
17D
100
AcDbEntity
8
SK2
62
256
6
ByLayer
370
13
48
1
60
0
100
AcDbLine
10
176.5
20
-36.643657
30
0
11
3
21
-36.643657
31
0
39
0
210
0
220
0
230
1
0
SOLID
5
17E
100
AcDbEntity
8
SK2
62
256
6
ByLayer
370
18
48
1
60
0
100
AcDbTrace
10
176.5
20
-36.643657
30
0
11
173.000002
21
-37.104441
31
0
12
172.999998
22
-36.182873
32
0
13
172.999998
23
-36.182873
33
0
39
0
210
0
220
0
230
1
0
SOLID
5
17F
100
AcDbEntity
8
SK2
62
256
6
ByLayer
370
18
48
1
60
0
100
AcDbTrace
10
3
20
-36.643657
30
0
11
6.499998
21
-36.182873
31
0
12
6.500002
22
-37.104441
32
0
13
6.500002
23
-37.104441
33
0
39
0
210
0
220
0
230
1
0
ENDBLK
5
181
100
AcDbEntity
8
0
100
AcDbBlockEnd
0
BLOCK
5
186
100
AcDbEntity
8
0
100
AcDbBlockBegin
2
*D5
70
1
10
0
20
0
30
0
3
*D5
0
LINE
5
188
100
AcDbEntity
8
0
62
256
6
ByLayer
370
-2
48
1
60
0
100
AcDbLine
10
-50
20
-11.5875
30
0
11
-50
21
-38.643657
31
0
39
0
210
0
220
0
230
1
0
LINE
5
189
100
AcDbEntity
8
0
62
256
6
ByLayer
370
-2
48
1
60
0
100
AcDbLine
10
0
20
-11.5875
30
0
11
0
21
-38.643657
31
0
39
0
210
0
220
0
230
1
0
LINE
5
18A
100
AcDbEntity
8
0
62
256
6
ByLayer
370
-2
48
1
60
0
100
AcDbLine
10
-46.5
20
-36.643657
30
0
11
-3.5
21
-36.643657
31
0
39
0
210
0
220
0
230
1
0
SOLID
5
18B
100
AcDbEntity
8
0
62
256
6
ByLayer
370
-1
48
1
60
0
100
AcDbTrace
10
-46.5
20
-36.060323
30
0
11
-46.5
21
-37.22699
31
0
12
-50
22
-36.643657
32
0
13
-50
23
-36.643657
33
0
39
0
210
0
220
0
230
1
0
SOLID
5
18C
100
AcDbEntity
8
0
62
256
6
ByLayer
370
-1
48
1
60
0
100
AcDbTrace
10
-3.5
20
-37.22699
30
0
11
-3.5
21
-36.060323
31
0
12
0
22
-36.643657
32
0
13
0
23
-36.643657
33
0
39
0
210
0
220
0
230
1
0
MTEXT
5
18D
100
AcDbEntity
8
0
62
256
6
ByLayer
370
18
48
1
60
0
100
AcDbMText
10
-25
20
-30.643657
30
0
210
0
220
0
230
1
1
\A1;50
40
3
41
0
44
1
50
0
71
5
72
5
7
iso_b_vert
0
POINT
5
18E
100
AcDbEntity
8
Defpoints
62
0
6
ByLayer
370
-1
48
1
60
0
100
AcDbPoint
10
-50
20
-10
30
0
39
0
210
0
220
0
230
1
50
360
0
POINT
5
18F
100
AcDbEntity
8
Defpoints
62
0
6
ByLayer
370
-1
48
1
60
0
100
AcDbPoint
10
0
20
-10
30
0
39
0
210
0
220
0
230
1
50
360
0
POINT
5
190
100
AcDbEntity
8
Defpoints
62
0
6
ByLayer
370
-1
48
1
60
0
100
AcDbPoint
10
0
20
-36.643657
30
0
39
0
210
0
220
0
230
1
50
360
0
ENDBLK
5
187
100
AcDbEntity
8
0
100
AcDbBlockEnd
0
BLOCK
5
198
100
AcDbEntity
8
0
100
AcDbBlockBegin
2
_U2
70
0
10
0
20
0
30
0
3
_U2
0
MTEXT
5
192
100
AcDbEntity
8
SK2
62
256
6
ByLayer
370
18
48
1
60
0
100
AcDbMText
10
-29.48237
20
-35.758542
30
0
210
0
220
0
230
1
1
\W0.7468;50.00
40
3
41
0
44
1.084337
50
0
71
7
72
5
7
iso_b_vert
0
LINE
5
193
100
AcDbEntity
8
SK2
62
256
6
ByLayer
370
13
48
1
60
0
100
AcDbLine
10
-50
20
-11.5875
30
0
11
-50
21
-38.643657
31
0
39
0
210
0
220
0
230
1
0
LINE
5
194
100
AcDbEntity
8
SK2
62
256
6
ByLayer
370
13
48
1
60
0
100
AcDbLine
10
0
20
-11.5875
30
0
11
0
21
-38.643657
31
0
39
0
210
0
220
0
230
1
0
LINE
5
195
100
AcDbEntity
8
SK2
62
256
6
ByLayer
370
13
48
1
60
0
100
AcDbLine
10
-50
20
-36.643657
30
0
11
0
21
-36.643657
31
0
39
0
210
0
220
0
230
1
0
SOLID
5
196
100
AcDbEntity
8
SK2
62
256
6
ByLayer
370
18
48
1
60
0
100
AcDbTrace
10
-50
20
-36.643657
30
0
11
-46.500002
21
-36.182873
31
0
12
-46.499998
22
-37.104441
32
0
13
-46.499998
23
-37.104441
33
0
39
0
210
0
220
0
230
1
0
SOLID
5
197
100
AcDbEntity
8
SK2
62
256
6
ByLayer
370
18
48
1
60
0
100
AcDbTrace
10
0
20
-36.643657
30
0
11
-3.499998
21
-37.104441
31
0
12
-3.500002
22
-36.182873
32
0
13
-3.500002
23
-36.182873
33
0
39
0
210
0
220
0
230
1
0
ENDBLK
5
199
100
AcDbEntity
8
0
100
AcDbBlockEnd
0
BLOCK
5
19E
100
AcDbEntity
8
0
100
AcDbBlockBegin
2
*D7
70
1
10
0
20
0
30
0
3
*D7
0
LINE
5
1A0
100
AcDbEntity
8
0
62
256
6
ByLayer
370
-2
48
1
60
0
100
AcDbLine
10
176.5
20
1.5875
30
0
11
176.5
21
35.643657
31
0
39
0
210
0
220
0
230
1
0
LINE
5
1A1
100
AcDbEntity
8
0
62
256
6
ByLayer
370
-2
48
1
60
0
100
AcDbLine
10
18
20
10.5875
30
0
11
18
21
35.643657
31
0
39
0
210
0
220
0
230
1
0
LINE
5
1A2
100
AcDbEntity
8
0
62
256
6
ByLayer
370
-2
48
1
60
0
100
AcDbLine
10
173
20
33.643657
30
0
11
21.5
21
33.643657
31
0
39
0
210
0
220
0
230
1
0
SOLID
5
1A3
100
AcDbEntity
8
0
62
256
6
ByLayer
370
-1
48
1
60
0
100
AcDbTrace
10
173
20
33.060323
30
0
11
173
21
34.22699
31
0
12
176.5
22
33.643657
32
0
13
176.5
23
33.643657
33
0
39
0
210
0
220
0
230
1
0
SOLID
5
1A4
100
AcDbEntity
8
0
62
256
6
ByLayer
370
-1
48
1
60
0
100
AcDbTrace
10
21.5
20
34.22699
30
0
11
21.5
21
33.060323
31
0
12
18
22
33.643657
32
0
13
18
23
33.643657
33
0
39
0
210
0
220
0
230
1
0
MTEXT
5
1A5
100
AcDbEntity
8
0
62
256
6
ByLayer
370
18
48
1
60
0
100
AcDbMText
10
97.25
20
39.643657
30
0
210
0
220
0
230
1
1
\A1;158.5
40
3
41
0
44
1
50
0
71
5
72
5
7
iso_b_vert
0
POINT
5
1A6
100
AcDbEntity
8
Defpoints
62
0
6
ByLayer
370
-1
48
1
60
0
100
AcDbPoint
10
176.5
20
0
30
0
39
0
210
0
220
0
230
1
50
360
0
POINT
5
1A7
100
AcDbEntity
8
Defpoints
62
0
6
ByLayer
370
-1
48
1
60
0
100
AcDbPoint
10
18
20
9
30
0
39
0
210
0
220
0
230
1
50
360
0
POINT
5
1A8
100
AcDbEntity
8
Defpoints
62
0
6
ByLayer
370
-1
48
1
60
0
100
AcDbPoint
10
18
20
33.643657
30
0
39
0
210
0
220
0
230
1
50
360
0
ENDBLK
5
19F
100
AcDbEntity
8
0
100
AcDbBlockEnd
0
BLOCK
5
1B0
100
AcDbEntity
8
0
100
AcDbBlockBegin
2
_U3
70
0
10
0
20
0
30
0
3
_U3
0
MTEXT
5
1AA
100
AcDbEntity
8
SK2
62
256
6
ByLayer
370
18
48
1
60
0
100
AcDbMText
10
92.021658
20
34.528771
30
0
210
0
220
0
230
1
1
\W0.7022;158.50
40
3
41
0
44
1.084337
50
0
71
7
72
5
7
iso_b_vert
0
LINE
5
1AB
100
AcDbEntity
8
SK2
62
256
6
ByLayer
370
13
48
1
60
0
100
AcDbLine
10
176.5
20
1.5875
30
0
11
176.5
21
35.643657
31
0
39
0
210
0
220
0
230
1
0
LINE
5
1AC
100
AcDbEntity
8
SK2
62
256
6
ByLayer
370
13
48
1
60
0
100
AcDbLine
10
18
20
10.5875
30
0
11
18
21
35.643657
31
0
39
0
210
0
220
0
230
1
0
LINE
5
1AD
100
AcDbEntity
8
SK2
62
256
6
ByLayer
370
13
48
1
60
0
100
AcDbLine
10
176.5
20
33.643657
30
0
11
18
21
33.643657
31
0
39
0
210
0
220
0
230
1
0
SOLID
5
1AE
100
AcDbEntity
8
SK2
62
256
6
ByLayer
370
18
48
1
60
0
100
AcDbTrace
10
176.5
20
33.643657
30
0
11
173.000002
21
33.182873
31
0
12
172.999998
22
34.104441
32
0
13
172.999998
23
34.104441
33
0
39
0
210
0
220
0
230
1
0
SOLID
5
1AF
100
AcDbEntity
8
SK2
62
256
6
ByLayer
370
18
48
1
60
0
100
AcDbTrace
10
18
20
33.643657
30
0
11
21.499998
21
34.104441
31
0
12
21.500002
22
33.182873
32
0
13
21.500002
23
33.182873
33
0
39
0
210
0
220
0
230
1
0
ENDBLK
5
1B1
100
AcDbEntity
8
0
100
AcDbBlockEnd
0
ENDSEC
0
SECTION
2
ENTITIES
0
ARC
5
C3
100
AcDbEntity
8
SK2
62
256
6
ByLayer
370
13
48
1
60
0
100
AcDbCircle
39
0
10
176.5
20
0
30
0
40
18.9999999999999
210
0
220
0
230
1
100
AcDbArc
50
290
51
70
0
ELLIPSE
5
C4
100
AcDbEntity
8
SK1
62
256
6
ByLayer
370
18
48
1
60
0
100
AcDbEllipse
10
209.817277
20
0
30
0
11
286.362532830084
21
-3.24477297310427E-13
31
0
210
0
220
0
230
1
40
0.034921
41
2.47357625657654
42
2.64710298745217
0
ELLIPSE
5
C5
100
AcDbEntity
8
SK1
62
256
6
ByLayer
370
18
48
1
60
0
100
AcDbEllipse
10
-22.723687
20
0
30
0
11
10.7236871002449
21
-1.21510065339267E-14
31
0
210
0
220
0
230
1
40
0.932515
41
-0.59537570803654
42
0.595375708036542
0
ELLIPSE
5
C6
100
AcDbEntity
8
SK1
62
256
6
ByLayer
370
18
48
1
60
0
100
AcDbEllipse
10
209.817277
20
0
30
0
11
286.362532824103
21
-3.2447729730365E-13
31
0
210
0
220
0
230
1
40
0.034921
41
-2.64710298745053
42
-2.47357625657208
0
ELLIPSE
5
C7
100
AcDbEntity
8
SK1
62
256
6
ByLayer
370
18
48
1
60
0
100
AcDbEllipse
10
-34.674849
20
0
30
0
11
-1.83690953073338E-15
21
-9.99999999999897
31
0
210
0
220
0
230
1
40
0.932515
41
-1.94446667349865
42
-1.19712598009114
0
POINT
5
70
100
AcDbEntity
8
80
62
256
6
ByLayer
370
18
48
1
60
0
100
AcDbPoint
10
0
20
0
30
0
39
0
210
0
220
0
230
1
50
360
0
POINT
5
72
100
AcDbEntity
8
81
62
256
6
ByLayer
370
18
48
1
60
0
100
AcDbPoint
10
176.5
20
0
30
0
39
0
210
0
220
0
230
1
50
360
0
POINT
5
74
100
AcDbEntity
8
1
62
256
6
ByLayer
370
18
48
1
60
1
100
AcDbPoint
10
-50
20
-10
30
0
39
0
210
0
220
0
230
1
50
360
0
POINT
5
76
100
AcDbEntity
8
1
62
256
6
ByLayer
370
18
48
1
60
1
100
AcDbPoint
10
176.5
20
0
30
0
39
0
210
0
220
0
230
1
50
360
0
POINT
5
77
100
AcDbEntity
8
1
62
256
6
ByLayer
370
18
48
1
60
1
100
AcDbPoint
10
176.5
20
0
30
0
39
0
210
0
220
0
230
1
50
360
0
POINT
5
78
100
AcDbEntity
8
1
62
256
6
ByLayer
370
18
48
1
60
1
100
AcDbPoint
10
3
20
-9
30
0
39
0
210
0
220
0
230
1
50
360
0
POINT
5
79
100
AcDbEntity
8
1
62
256
6
ByLayer
370
18
48
1
60
1
100
AcDbPoint
10
-50
20
-10
30
0
39
0
210
0
220
0
230
1
50
360
0
POINT
5
7A
100
AcDbEntity
8
1
62
256
6
ByLayer
370
18
48
1
60
1
100
AcDbPoint
10
0
20
-10
30
0
39
0
210
0
220
0
230
1
50
360
0
POINT
5
7B
100
AcDbEntity
8
1
62
256
6
ByLayer
370
18
48
1
60
1
100
AcDbPoint
10
176.5
20
0
30
0
39
0
210
0
220
0
230
1
50
360
0
POINT
5
7C
100
AcDbEntity
8
1
62
256
6
ByLayer
370
18
48
1
60
1
100
AcDbPoint
10
18
20
9
30
0
39
0
210
0
220
0
230
1
50
360
0
SPLINE
5
C8
100
AcDbEntity
8
1
62
256
6
ByLayer
370
18
48
1
60
0
100
AcDbSpline
70
4
71
3
72
14
73
10
40
0
40
0
40
0
40
0
40
0.356188770223499
40
0.356188770223499
40
0.534283155335249
40
0.534283155335249
40
0.712377540446999
40
0.712377540446999
40
1
40
1
40
1
40
1
41
1
10
163.6
20
-8.91434225380721
30
0
41
1
10
164.001697695199
20
-8.93429841603393
30
0
41
1
10
164.403151127939
20
-8.9507399017059
30
0
41
1
10
165.004915097385
20
-8.97011907406542
30
0
41
1
10
165.205422521055
20
-8.97569934420397
30
0
41
1
10
165.60635688131
20
-8.98507681706431
30
0
41
1
10
165.806817260677
20
-8.98886871725068
30
0
41
1
10
166.331040094036
20
-8.99645296537548
30
0
41
1
10
166.654795274257
20
-8.99881745396746
30
0
41
1
10
166.978511934846
20
-8.99887615476351
30
0
0
SPLINE
5
C9
100
AcDbEntity
8
1
62
256
6
ByLayer
370
18
48
1
60
0
100
AcDbSpline
70
4
71
3
72
201
73
197
40
0
40
0
40
0
40
0
40
0.0012406908924995
40
0.0012406908924995
40
0.0074441648621107
40
0.0074441648621107
40
0.0198511128013327
40
0.0198511128013327
40
0.0260545867709438
40
0.0260545867709438
40
0.0322580607405549
40
0.0322580607405549
40
0.0446650086797769
40
0.0446650086797769
40
0.057071956618999
40
0.057071956618999
40
0.0694789045582202
40
0.0694789045582202
40
0.0756823785278313
40
0.0756823785278313
40
0.0818858524974423
40
0.0818858524974423
40
0.106699748375885
40
0.106699748375885
40
0.119106696315106
40
0.119106696315106
40
0.131513644254328
40
0.131513644254328
40
0.143920592193549
40
0.143920592193549
40
0.156327540132771
40
0.156327540132771
40
0.162531014102382
40
0.162531014102382
40
0.168734488071993
40
0.168734488071993
40
0.181141436011214
40
0.181141436011214
40
0.193548383950436
40
0.193548383950436
40
0.205955331889658
40
0.205955331889658
40
0.218362279828879
40
0.218362279828879
40
0.230769227768101
40
0.230769227768101
40
0.236972701737712
40
0.236972701737712
40
0.243176175707322
40
0.243176175707322
40
0.255583123646544
40
0.255583123646544
40
0.267990071585766
40
0.267990071585766
40
0.280397019524987
40
0.280397019524987
40
0.292803967464209
40
0.292803967464209
40
0.29900744143382
40
0.29900744143382
40
0.305210915403431
40
0.305210915403431
40
0.311414389373042
40
0.311414389373042
40
0.317617863342653
40
0.317617863342653
40
0.330024811281876
40
0.330024811281876
40
0.342431759221098
40
0.342431759221098
40
0.354838707160321
40
0.354838707160321
40
0.367245655099543
40
0.367245655099543
40
0.379652603038766
40
0.379652603038766
40
0.392059550977988
40
0.392059550977988
40
0.3982630249476
40
0.3982630249476
40
0.404466498917211
40
0.416873446856434
40
0.416873446856434
40
0.429280394795657
40
0.429280394795657
40
0.435483868765269
40
0.435483868765269
40
0.441687342734881
40
0.441687342734881
40
0.454094290674104
40
0.454094290674104
40
0.466501238613327
40
0.466501238613327
40
0.47270471258294
40
0.47270471258294
40
0.478908186552552
40
0.478908186552552
40
0.491315134491775
40
0.491315134491775
40
0.503722082430998
40
0.503722082430998
40
0.516129030370221
40
0.516129030370221
40
0.528535978309444
40
0.528535978309444
40
0.540942926248668
40
0.540942926248668
40
0.547146400218279
40
0.547146400218279
40
0.55334987418789
40
0.55334987418789
40
0.565756822127112
40
0.565756822127112
40
0.578163770066335
40
0.578163770066335
40
0.590570718005557
40
0.590570718005557
40
0.596774191975168
40
0.596774191975168
40
0.60297766594478
40
0.60297766594478
40
0.615384613884003
40
0.615384613884003
40
0.621588087853615
40
0.621588087853615
40
0.627791561823227
40
0.627791561823227
40
0.640198509762452
40
0.640198509762452
40
0.652605457701676
40
0.652605457701676
40
0.665012405640901
40
0.665012405640901
40
0.677419353580126
40
0.677419353580126
40
0.689826301519351
40
0.689826301519351
40
0.702233249458576
40
0.702233249458576
40
0.708436723428188
40
0.708436723428188
40
0.7146401973978
40
0.727047145337026
40
0.727047145337026
40
0.739454093276252
40
0.739454093276252
40
0.751861041215477
40
0.751861041215477
40
0.764267989154703
40
0.764267989154703
40
0.776674937093929
40
0.776674937093929
40
0.782878411063542
40
0.782878411063542
40
0.789081885033155
40
0.789081885033155
40
0.801488832972382
40
0.801488832972382
40
0.81389578091161
40
0.81389578091161
40
0.826302728850837
40
0.826302728850837
40
0.83250620282045
40
0.83250620282045
40
0.838709676790063
40
0.838709676790063
40
0.844913150759677
40
0.844913150759677
40
0.85111662472929
40
0.85111662472929
40
0.857320098698903
40
0.857320098698903
40
0.863523572668516
40
0.863523572668516
40
0.875930520607743
40
0.875930520607743
40
0.88833746854697
40
0.88833746854697
40
0.900744416486196
40
0.900744416486196
40
0.913151364425423
40
0.913151364425423
40
0.925558312364649
40
0.925558312364649
40
0.937965260303875
40
0.937965260303875
40
0.944168734273488
40
0.944168734273488
40
0.950372208243101
40
0.962779156182326
40
0.962779156182326
40
0.97518610412155
40
0.97518610412155
40
0.987593052060775
40
0.987593052060775
40
1
40
1
40
1
40
1
41
1
10
71.204685102582
20
6.40031783537358
30
0
41
1
10
71.2427913419183
20
6.40942555647382
30
0
41
1
10
71.2809005508078
20
6.41851173734744
30
0
41
1
10
71.5095760342472
20
6.47289571896164
30
0
41
1
10
71.7002454787573
20
6.51760866449075
30
0
41
1
10
72.2725985115381
20
6.64987824063644
30
0
41
1
10
72.6546062710286
20
6.73561075336013
30
0
41
1
10
73.2281929346476
20
6.86070961533829
30
0
41
1
10
73.4194845567252
20
6.90182504526302
30
0
41
1
10
73.8022465018747
20
6.98290995615926
30
0
41
1
10
73.993766797813
20
7.02289477945581
30
0
41
1
10
74.5681958139012
20
7.14103454533921
30
0
41
1
10
74.9508350687367
20
7.21731711826834
30
0
41
1
10
75.7158245694646
20
7.36437820191293
30
0
41
1
10
76.0982240507194
20
7.43508614348443
30
0
41
1
10
76.8627937884672
20
7.57098573630668
30
0
41
1
10
77.2449281663036
20
7.63623079588177
30
0
41
1
10
77.8178496571184
20
7.73010454969813
30
0
41
1
10
78.0087772997555
20
7.76072890126929
30
0
41
1
10
78.3905333140013
20
7.82064502665864
30
0
41
1
10
78.58135407865
20
7.84994480870398
30
0
41
1
10
79.5355767138065
20
7.99264883778315
30
0
41
1
10
80.299229568496
20
8.09488875256622
30
0
41
1
10
81.4443753480761
20
8.23130144435748
30
0
41
1
10
81.8260156047554
20
8.27394544611704
30
0
41
1
10
82.5894543423211
20
8.35325926349461
30
0
41
1
10
82.9712780427213
20
8.38990910268737
30
0
41
1
10
83.7353700939495
20
8.45705278157649
30
0
41
1
10
84.1175817151169
20
8.48759557511258
30
0
41
1
10
84.8821973355919
20
8.54269681205716
30
0
41
1
10
85.2646008742364
20
8.56725238957591
30
0
41
1
10
85.8383613697725
20
8.59952575588375
30
0
41
1
10
86.0296673567567
20
8.60950982704773
30
0
41
1
10
86.4124748322986
20
8.62789669431123
30
0
41
1
10
86.6039907588705
20
8.63630709848093
30
0
41
1
10
87.1785781888996
20
8.65919562535856
30
0
41
1
10
87.5614535195544
20
8.67132588272267
30
0
41
1
10
88.3267195350288
20
8.68938570972728
30
0
41
1
10
88.7090778339542
20
8.69531538605594
30
0
41
1
10
89.4733960044477
20
8.70091949649157
30
0
41
1
10
89.8553740587628
20
8.70058796532248
30
0
41
1
10
90.6193407907556
20
8.69370557674804
30
0
41
1
10
91.0013264718779
20
8.6871674750671
30
0
41
1
10
91.7650909905045
20
8.66790184450912
30
0
41
1
10
92.1468807348609
20
8.65517314303304
30
0
41
1
10
92.7193832278746
20
8.63138672219023
30
0
41
1
10
92.9101744092344
20
8.6226695156916
30
0
41
1
10
93.2917859103621
20
8.60369606014905
30
0
41
1
10
93.4826263857305
20
8.59344931145097
30
0
41
1
10
94.0552422057881
20
8.56044152616064
30
0
41
1
10
94.4371049600197
20
8.53541329381787
30
0
41
1
10
95.2009457472838
20
8.47927002950638
30
0
41
1
10
95.5829120468343
20
8.44814629909692
30
0
41
1
10
96.3468907058504
20
8.37970626641948
30
0
41
1
10
96.7289322360992
20
8.34240263912113
30
0
41
1
10
97.4934655846384
20
8.26189098203483
30
0
41
1
10
97.8760058814758
20
8.21873504479129
30
0
41
1
10
98.4501569274977
20
8.1496123050056
30
0
41
1
10
98.6415911093725
20
8.12583287634041
30
0
41
1
10
99.0245509668176
20
8.07678175804944
30
0
41
1
10
99.2161165509608
20
8.05150488046783
30
0
41
1
10
99.5990673367256
20
7.99947944650657
30
0
41
1
10
99.7904638452759
20
7.97272964492157
30
0
41
1
10
100.173092780346
20
7.9177424238905
30
0
41
1
10
100.364329117453
20
7.88950825018566
30
0
41
1
10
100.938027002179
20
7.80286582247942
30
0
41
1
10
101.320425718903
20
7.74246167658211
30
0
41
1
10
102.084967823594
20
7.61626778513414
30
0
41
1
10
102.467112369347
20
7.55047955821314
30
0
41
1
10
103.231022759243
20
7.41332862160945
30
0
41
1
10
103.612779512862
20
7.34194447389669
30
0
41
1
10
104.376218118848
20
7.19403100577927
30
0
41
1
10
104.757931355445
20
7.1175538571361
30
0
41
1
10
105.521527554776
20
6.95990515553075
30
0
41
1
10
105.903353343937
20
6.87864249251805
30
0
41
1
10
106.66693684022
20
6.71101527528029
30
0
41
1
10
107.048682130567
20
6.62462483294004
30
0
41
1
10
107.621291360294
20
6.49124353582286
30
0
41
1
10
107.81219572256
20
6.44621872496802
30
0
41
1
10
108.194126572473
20
6.35514967066814
30
0
41
1
10
108.767176877659
20
6.21696044251186
30
0
41
1
10
109.340617456427
20
6.07390444378697
30
0
41
1
10
110.105430584145
20
5.87857455350408
30
0
41
1
10
110.487916889252
20
5.77853946022236
30
0
41
1
10
111.061911867819
20
5.62520632945532
30
0
41
1
10
111.253291586748
20
5.57355722215993
30
0
41
1
10
111.63619264597
20
5.46928449745249
30
0
41
1
10
111.827719515682
20
5.41666128135665
30
0
41
1
10
112.40209335219
20
5.25762538773134
30
0
41
1
10
112.784875660525
20
5.14996013995275
30
0
41
1
10
113.549978275098
20
4.93090458255293
30
0
41
1
10
113.932310284096
20
4.81954081561128
30
0
41
1
10
114.505435813264
20
4.64962258234411
30
0
41
1
10
114.696403235984
20
4.59247331970101
30
0
41
1
10
115.078337187018
20
4.47751816624401
30
0
41
1
10
115.269309513335
20
4.41972736632874
30
0
41
1
10
115.842218439918
20
4.24536321435616
30
0
41
1
10
116.224146624957
20
4.12779853973282
30
0
41
1
10
116.987859985236
20
3.88973332810832
30
0
41
1
10
117.369628007904
20
3.76918795843034
30
0
41
1
10
118.132977619798
20
3.52502820061361
30
0
41
1
10
118.514588612942
20
3.40148717634659
30
0
41
1
10
119.278036306973
20
3.15241586772305
30
0
41
1
10
119.659919102792
20
3.02701290943688
30
0
41
1
10
120.423861337045
20
2.77411020203599
30
0
41
1
10
120.805904034094
20
2.64656419939416
30
0
41
1
10
121.379031595342
20
2.45346706269501
30
0
41
1
10
121.570083147482
20
2.38880039153401
30
0
41
1
10
121.952208967309
20
2.25887315566419
30
0
41
1
10
122.143297846956
20
2.19365298280974
30
0
41
1
10
122.716827097827
20
1.99774597466239
30
0
41
1
10
123.099470690072
20
1.86664854595398
30
0
41
1
10
123.865213275653
20
1.60312119834774
30
0
41
1
10
124.248454086512
20
1.47064467355011
30
0
41
1
10
125.014110138516
20
1.20439889996379
30
0
41
1
10
125.396624534928
20
1.07060786809964
30
0
41
1
10
125.970169074461
20
0.869627746441296
30
0
41
1
10
126.161313858864
20
0.802588600739881
30
0
41
1
10
126.543577294183
20
0.668555415253849
30
0
41
1
10
126.734699307915
20
0.601571061676594
30
0
41
1
10
127.307996657869
20
0.400598934416621
30
0
41
1
10
127.690089311045
20
0.266551411484642
30
0
41
1
10
128.262989683823
20
0.0651495442167516
30
0
41
1
10
128.453918336063
20
-0.0020347465589907
30
0
41
1
10
128.835692282455
20
-0.136523841121232
30
0
41
1
10
129.026526672869
20
-0.203859957533041
30
0
41
1
10
129.598998332342
20
-0.405779180547938
30
0
41
1
10
129.980730714544
20
-0.539909758167965
30
0
41
1
10
130.744306005278
20
-0.807380545971881
30
0
41
1
10
131.126138473347
20
-0.940750760243418
30
0
41
1
10
131.889769671743
20
-1.20711278307857
30
0
41
1
10
132.271535326095
20
-1.34019837052713
30
0
41
1
10
133.035198526039
20
-1.60551432430185
30
0
41
1
10
133.41711146733
20
-1.73770071102166
30
0
41
1
10
134.181448476872
20
-2.00014400947194
30
0
41
1
10
134.563835343732
20
-2.13050722993736
30
0
41
1
10
135.328861317443
20
-2.39003823713924
30
0
41
1
10
135.711512612497
20
-2.51917140272764
30
0
41
1
10
136.285659133616
20
-2.71202453816477
30
0
41
1
10
136.477094687047
20
-2.77619698861696
30
0
41
1
10
136.86001884549
20
-2.9037987401629
30
0
41
1
10
137.434317125383
20
-3.09409796929063
30
0
41
1
10
138.008282745014
20
-3.28131976316627
30
0
41
1
10
138.773157021877
20
-3.52855642490678
30
0
41
1
10
139.155365361634
20
-3.65103631627193
30
0
41
1
10
139.919355992537
20
-3.89361467910493
30
0
41
1
10
140.301165783116
20
-4.01363717045297
30
0
41
1
10
141.064772758325
20
-4.25023803057243
30
0
41
1
10
141.446609486688
20
-4.366722626593
30
0
41
1
10
142.210169521663
20
-4.59653868012188
30
0
41
1
10
142.591887195495
20
-4.70988252079772
30
0
41
1
10
143.164325838812
20
-4.87764249063412
30
0
41
1
10
143.355111108797
20
-4.93319708958697
30
0
41
1
10
143.736652141447
20
-5.043509064842
30
0
41
1
10
143.927430659246
20
-5.09821244963567
30
0
41
1
10
144.499922463132
20
-5.26066257830274
30
0
41
1
10
144.881738905691
20
-5.3668768136605
30
0
41
1
10
145.64555687748
20
-5.5754414602948
30
0
41
1
10
146.027557934216
20
-5.67779285457789
30
0
41
1
10
146.791628662651
20
-5.87886113794056
30
0
41
1
10
147.173713111153
20
-5.97754034754908
30
0
41
1
10
147.747161813516
20
-6.12223228946223
30
0
41
1
10
147.938366175464
20
-6.16990667617404
30
0
41
1
10
148.320930798716
20
-6.26404989249562
30
0
41
1
10
148.512290733796
20
-6.31051987976306
30
0
41
1
10
148.895136452786
20
-6.40231904067338
30
0
41
1
10
149.086621193523
20
-6.44765025960953
30
0
41
1
10
149.469694774466
20
-6.53721327304464
30
0
41
1
10
149.661236029367
20
-6.5814305280214
30
0
41
1
10
150.044087379939
20
-6.66869473309953
30
0
41
1
10
150.235431976674
20
-6.71174978148426
30
0
41
1
10
150.617951954076
20
-6.79671381513626
30
0
41
1
10
150.809114721911
20
-6.83864509672969
30
0
41
1
10
151.382485821595
20
-6.96246271481692
30
0
41
1
10
151.764656379082
20
-7.0422377276461
30
0
41
1
10
152.52873789221
20
-7.19651597513194
30
0
41
1
10
152.910647212854
20
-7.27102212950891
30
0
41
1
10
153.674080508697
20
-7.41496809035181
30
0
41
1
10
154.055574069855
20
-7.48444742972049
30
0
41
1
10
154.818375884209
20
-7.61799640723549
30
0
41
1
10
155.19970120162
20
-7.68204044185879
30
0
41
1
10
155.962519276715
20
-7.80427938728195
30
0
41
1
10
156.343965021094
20
-7.86254592182749
30
0
41
1
10
157.10675998802
20
-7.97359269717046
30
0
41
1
10
157.488120754553
20
-8.02635684427236
30
0
41
1
10
158.060066705976
20
-8.10136328027022
30
0
41
1
10
158.250703185649
20
-8.12566941071555
30
0
41
1
10
158.632102260177
20
-8.17273541254366
30
0
41
1
10
159.204351703129
20
-8.24105745531466
30
0
41
1
10
159.77697885579
20
-8.30266804233526
30
0
41
1
10
160.540697103791
20
-8.37896001779183
30
0
41
1
10
160.922638480741
20
-8.41419554019109
30
0
41
1
10
161.686755371129
20
-8.47872892041534
30
0
41
1
10
162.068956614701
20
-8.50800250365438
30
0
41
1
10
162.834001725597
20
-8.5603328274814
30
0
41
1
10
163.216875075535
20
-8.58338441640058
30
0
41
1
10
163.6
20
-8.60338033280468
30
0
0
SPLINE
5
CA
100
AcDbEntity
8
1
62
256
6
ByLayer
370
18
48
1
60
0
100
AcDbSpline
70
4
71
3
72
191
73
187
40
0
40
0
40
0
40
0
40
0.0188452633895191
40
0.0188452633895191
40
0.0249718133795863
40
0.0249718133795863
40
0.0310983633696535
40
0.0433514633497887
40
0.0433514633497887
40
0.0556045633299239
40
0.0556045633299239
40
0.0678576633100591
40
0.0678576633100591
40
0.0923638632703302
40
0.0923638632703302
40
0.098490413260398
40
0.098490413260398
40
0.104616963250466
40
0.1168700632306
40
0.1168700632306
40
0.129123163210735
40
0.129123163210735
40
0.14137626319087
40
0.14137626319087
40
0.165882463151139
40
0.165882463151139
40
0.178135563131274
40
0.178135563131274
40
0.190388663111409
40
0.190388663111409
40
0.202641763091543
40
0.202641763091543
40
0.208768313081611
40
0.208768313081611
40
0.214894863071679
40
0.214894863071679
40
0.227147963051814
40
0.227147963051814
40
0.239401063031948
40
0.239401063031948
40
0.245527613022016
40
0.245527613022016
40
0.251654163012083
40
0.251654163012083
40
0.263907262992218
40
0.263907262992218
40
0.276160362972353
40
0.276160362972353
40
0.288413462952487
40
0.288413462952487
40
0.300666562932622
40
0.300666562932622
40
0.312919662912757
40
0.312919662912757
40
0.319046212902824
40
0.319046212902824
40
0.325172762892891
40
0.325172762892891
40
0.337425862873024
40
0.337425862873024
40
0.349678962853158
40
0.349678962853158
40
0.361932062833291
40
0.361932062833291
40
0.374185162813424
40
0.374185162813424
40
0.386438262793557
40
0.386438262793557
40
0.39869136277369
40
0.39869136277369
40
0.410944462753824
40
0.410944462753824
40
0.423197562733957
40
0.423197562733957
40
0.43545066271409
40
0.43545066271409
40
0.447703762694223
40
0.447703762694223
40
0.459956862674357
40
0.459956862674357
40
0.466083412664423
40
0.466083412664423
40
0.47220996265449
40
0.47220996265449
40
0.478336512644557
40
0.478336512644557
40
0.484463062634623
40
0.484463062634623
40
0.496716162614757
40
0.496716162614757
40
0.508969262594891
40
0.508969262594891
40
0.521222362575025
40
0.521222362575025
40
0.533475462555159
40
0.533475462555159
40
0.545728562535293
40
0.545728562535293
40
0.55185511252536
40
0.55185511252536
40
0.557981662515427
40
0.57023476249556
40
0.57023476249556
40
0.582487862475694
40
0.582487862475694
40
0.594740962455827
40
0.594740962455827
40
0.600867512445894
40
0.600867512445894
40
0.606994062435961
40
0.606994062435961
40
0.619247162416095
40
0.619247162416095
40
0.625373712406161
40
0.625373712406161
40
0.631500262396228
40
0.631500262396228
40
0.643753362376361
40
0.643753362376361
40
0.656006462356494
40
0.656006462356494
40
0.668259562336628
40
0.668259562336628
40
0.680512662316761
40
0.680512662316761
40
0.692765762296894
40
0.692765762296894
40
0.705018862277027
40
0.705018862277027
40
0.717271962257161
40
0.717271962257161
40
0.723398512247227
40
0.723398512247227
40
0.729525062237294
40
0.729525062237294
40
0.741778162217428
40
0.741778162217428
40
0.754031262197562
40
0.754031262197562
40
0.766284362177696
40
0.766284362177696
40
0.772410912167763
40
0.772410912167763
40
0.77853746215783
40
0.77853746215783
40
0.803043662118099
40
0.803043662118099
40
0.815296762098234
40
0.815296762098234
40
0.827549862078368
40
0.827549862078368
40
0.839802962058502
40
0.839802962058502
40
0.845929512048569
40
0.845929512048569
40
0.852056062038636
40
0.852056062038636
40
0.858182612028703
40
0.858182612028703
40
0.86430916201877
40
0.86430916201877
40
0.876562261998904
40
0.876562261998904
40
0.888815361979037
40
0.888815361979037
40
0.901068461959171
40
0.901068461959171
40
0.913321561939304
40
0.913321561939304
40
0.919448111929371
40
0.919448111929371
40
0.925574661919438
40
0.925574661919438
40
0.950080861879706
40
0.950080861879706
40
0.96233396185984
40
0.96233396185984
40
0.974587061839974
40
0.974587061839974
40
0.980713611830042
40
0.980713611830042
40
0.986840161820109
40
0.986840161820109
40
0.999093261800243
40
0.999093261800243
40
1
40
1
40
1
40
1
41
1
10
148.911590250402
20
-6.40552221480564
30
0
41
1
10
148.309334111994
20
-6.54874679623506
30
0
41
1
10
147.707806082424
20
-6.68602615136396
30
0
41
1
10
146.911810278125
20
-6.86032877199688
30
0
41
1
10
146.716600107201
20
-6.90246538308998
30
0
41
1
10
146.326234065351
20
-6.98530113954496
30
0
41
1
10
145.740796202322
20
-7.10745543958538
30
0
41
1
10
145.155716725684
20
-7.22340423455162
30
0
41
1
10
144.375981981022
20
-7.37260101612924
30
0
41
1
10
143.986314024921
20
-7.44451783982302
30
0
41
1
10
143.207285278616
20
-7.58282652483274
30
0
41
1
10
142.817918289556
20
-7.64920467402507
30
0
41
1
10
141.649808985401
20
-7.83939887744572
30
0
41
1
10
140.87106690049
20
-7.95435283168572
30
0
41
1
10
139.897944130716
20
-8.08359679378955
30
0
41
1
10
139.703343463185
20
-8.1087288698298
30
0
41
1
10
139.314091642914
20
-8.15744973130131
30
0
41
1
10
138.730107197223
20
-8.22818574842697
30
0
41
1
10
138.145822205542
20
-8.29194418506552
30
0
41
1
10
137.366565982644
20
-8.37081644531168
30
0
41
1
10
136.976841089275
20
-8.40718814228833
30
0
41
1
10
136.197169562264
20
-8.47373791946978
30
0
41
1
10
135.807213285428
20
-8.50390366188282
30
0
41
1
10
134.636577719725
20
-8.58478006759765
30
0
41
1
10
133.855003964524
20
-8.62585893816043
30
0
41
1
10
132.681241618272
20
-8.66823587547756
30
0
41
1
10
132.289798798764
20
-8.67914573248697
30
0
41
1
10
131.505997783433
20
-8.6943657629642
30
0
41
1
10
131.113675926913
20
-8.69869644088865
30
0
41
1
10
130.32824111016
20
-8.7007988096241
30
0
41
1
10
129.935132303572
20
-8.69856975231247
30
0
41
1
10
129.344887600187
20
-8.69025260173382
30
0
41
1
10
129.147994639796
20
-8.68664955068243
30
0
41
1
10
128.754433271002
20
-8.67779130866563
30
0
41
1
10
128.557720281644
20
-8.67253555085608
30
0
41
1
10
127.967724788621
20
-8.65430699416308
30
0
41
1
10
127.57455327887
20
-8.63888393339823
30
0
41
1
10
126.788499079671
20
-8.6015646521856
30
0
41
1
10
126.395637535546
20
-8.57966165893129
30
0
41
1
10
125.806627979469
20
-8.5419217215557
30
0
41
1
10
125.610338796425
20
-8.52852684938907
30
0
41
1
10
125.21785953336
20
-8.50009842905851
30
0
41
1
10
125.021663690513
20
-8.48506702473733
30
0
41
1
10
124.433039319199
20
-8.43763238490632
30
0
41
1
10
124.040614809638
20
-8.40286922123371
30
0
41
1
10
123.255803017286
20
-8.32706752820476
30
0
41
1
10
122.863418685834
20
-8.28602632205659
30
0
41
1
10
122.078732245986
20
-8.19761038759549
30
0
41
1
10
121.686429520632
20
-8.15023031155178
30
0
41
1
10
120.90167146226
20
-8.04933263073667
30
0
41
1
10
120.509180745402
20
-7.99585473192204
30
0
41
1
10
119.723859480087
20
-7.88300123584503
30
0
41
1
10
119.3310609464
20
-7.82359155909217
30
0
41
1
10
118.741696204271
20
-7.7299338453621
30
0
41
1
10
118.545213040145
20
-7.69795739435662
30
0
41
1
10
118.152195465268
20
-7.63247393231089
30
0
41
1
10
117.955671003997
20
-7.59895181425702
30
0
41
1
10
117.365879533816
20
-7.4962792227773
30
0
41
1
10
116.972368281428
20
-7.42505449355588
30
0
41
1
10
116.18481390499
20
-7.27700837001828
30
0
41
1
10
115.791273211624
20
-7.20027601137232
30
0
41
1
10
115.004707700158
20
-7.04132980041123
30
0
41
1
10
114.611693758464
20
-6.95909352520459
30
0
41
1
10
113.825996296967
20
-6.78944750969197
30
0
41
1
10
113.433287613175
20
-6.70208274368537
30
0
41
1
10
112.647945798214
20
-6.52267993342406
30
0
41
1
10
112.255348686009
20
-6.43057847768182
30
0
41
1
10
111.470367791809
20
-6.24145263969754
30
0
41
1
10
111.078004679047
20
-6.14438470373449
30
0
41
1
10
110.293421418936
20
-5.94543239433477
30
0
41
1
10
109.901058443397
20
-5.84384467483454
30
0
41
1
10
109.116175197802
20
-5.63651247222836
30
0
41
1
10
108.723667507146
20
-5.5307418194279
30
0
41
1
10
107.938569566075
20
-5.31487493909259
30
0
41
1
10
107.545995161862
20
-5.20473952493708
30
0
41
1
10
106.76062291585
20
-4.9804321875134
30
0
41
1
10
106.367811615073
20
-4.86629015307523
30
0
41
1
10
105.581661612312
20
-4.63470446506193
30
0
41
1
10
105.188354694167
20
-4.51718883368886
30
0
41
1
10
104.598104466992
20
-4.33817933458519
30
0
41
1
10
104.401304973832
20
-4.27805579291035
30
0
41
1
10
104.007612126636
20
-4.15688278395976
30
0
41
1
10
103.810782749042
20
-4.09584607402067
30
0
41
1
10
103.417341061339
20
-3.97295368394973
30
0
41
1
10
103.220684512682
20
-3.9111279014501
30
0
41
1
10
102.827417064608
20
-3.78693681989068
30
0
41
1
10
102.630816404283
20
-3.72454483099764
30
0
41
1
10
102.04112227242
20
-3.53646004940293
30
0
41
1
10
101.648137592005
20
-3.40985654094052
30
0
41
1
10
100.862511157278
20
-3.1540847592959
30
0
41
1
10
100.469885556082
20
-3.02487207257226
30
0
41
1
10
99.6848832884125
20
-2.7641287021913
30
0
41
1
10
99.2924999919934
20
-2.63261497519989
30
0
41
1
10
98.5076523832074
20
-2.36817725015004
30
0
41
1
10
98.1152028510469
20
-2.23521485973248
30
0
41
1
10
97.3303428251319
20
-1.96755695096979
30
0
41
1
10
96.9379276581143
20
-1.83287420480767
30
0
41
1
10
96.349360833121
20
-1.6294657243115
30
0
41
1
10
96.153185364018
20
-1.56141994860764
30
0
41
1
10
95.760735220639
20
-1.42519936622315
30
0
41
1
10
95.171932007753
20
-1.22061670515865
30
0
41
1
10
94.5827728524299
20
-1.01520807098063
30
0
41
1
10
93.796969380595
20
-0.740427924832915
30
0
41
1
10
93.4039511956095
20
-0.60254994099995
30
0
41
1
10
92.6176057699356
20
-0.326026440051123
30
0
41
1
10
92.2242704101155
20
-0.187403302659902
30
0
41
1
10
91.6337954736696
20
0.0204050489942347
30
0
41
1
10
91.4368984510223
20
0.0896397421157076
30
0
41
1
10
91.0432913532841
20
0.227956347073899
30
0
41
1
10
90.8465396689799
20
0.297055199897642
30
0
41
1
10
90.2564564796679
20
0.504222773454842
30
0
41
1
10
89.8632941135204
20
0.642154997862178
30
0
41
1
10
89.2739240352891
20
0.848879001568577
30
0
41
1
10
89.0775398601359
20
0.917787313865574
30
0
41
1
10
88.6848247887368
20
1.05533862570269
30
0
41
1
10
88.4884797390884
20
1.12394109986084
30
0
41
1
10
87.8994823802058
20
1.32923371226613
30
0
41
1
10
87.506870445319
20
1.46541713566825
30
0
41
1
10
86.7218115741397
20
1.73660330301672
30
0
41
1
10
86.3293730256814
20
1.87162929393415
30
0
41
1
10
85.5446521775172
20
2.14046836559882
30
0
41
1
10
85.1523599651654
20
2.27425225039423
30
0
41
1
10
84.3676272319534
20
2.53975737709922
30
0
41
1
10
83.9751523640844
20
2.67138571027925
30
0
41
1
10
83.1900419402791
20
2.93255600981149
30
0
41
1
10
82.7974130287873
20
3.06211603236088
30
0
41
1
10
82.0120505166445
20
3.31929135235731
30
0
41
1
10
81.6193671089336
20
3.44703819748813
30
0
41
1
10
80.8334200048904
20
3.69930499169979
30
0
41
1
10
80.4401980577588
20
3.82393960784239
30
0
41
1
10
79.8500358762129
20
4.00875986381607
30
0
41
1
10
79.6532605864074
20
4.07001200001196
30
0
41
1
10
79.2596050544789
20
4.19181666649123
30
0
41
1
10
79.0627018113708
20
4.25238006201732
30
0
41
1
10
78.4723286561105
20
4.43285386861726
30
0
41
1
10
78.0790424031152
20
4.55158643752227
30
0
41
1
10
77.2928040180336
20
4.78524486251712
30
0
41
1
10
76.8998116430486
20
4.90007534297044
30
0
41
1
10
76.1140627548986
20
5.12573564175995
30
0
41
1
10
75.7213259042989
20
5.23661303855198
30
0
41
1
10
75.1324611480436
20
5.40007399058146
30
0
41
1
10
74.9362135211164
20
5.4540859421881
30
0
41
1
10
74.5438020032413
20
5.56116048639421
30
0
41
1
10
74.3476299276716
20
5.61420397493998
30
0
41
1
10
73.366670784974
20
5.87637049703991
30
0
41
1
10
72.5817619986114
20
6.07676700337248
30
0
41
1
10
71.4044900754412
20
6.36402656244624
30
0
41
1
10
71.0120764015477
20
6.45753672150582
30
0
41
1
10
70.2270332838908
20
6.63959247275696
30
0
41
1
10
69.8343674719717
20
6.7280710260388
30
0
41
1
10
69.0486425128077
20
6.89975538378209
30
0
41
1
10
68.6556143409898
20
6.98301961073443
30
0
41
1
10
68.0658620835453
20
7.10410077138712
30
0
41
1
10
67.8692426151821
20
7.1438242296222
30
0
41
1
10
67.4759380530869
20
7.22199900528977
30
0
41
1
10
67.2792622198028
20
7.26046465041819
30
0
41
1
10
66.8857442033027
20
7.33595431968402
30
0
41
1
10
66.6888601510214
20
7.37298539664599
30
0
41
1
10
66.2952179907898
20
7.44556550264278
30
0
41
1
10
66.0984441218147
20
7.481117924903
30
0
41
1
10
65.508274056543
20
7.58558771822388
30
0
41
1
10
65.1150315645612
20
7.65232284039175
30
0
41
1
10
64.328997793819
20
7.78003644301145
30
0
41
1
10
63.9362162594112
20
7.84102233872201
30
0
41
1
10
63.1509120517636
20
7.95696982269095
30
0
41
1
10
62.7583627509692
20
8.01189958455163
30
0
41
1
10
61.9732759947926
20
8.11549569947809
30
0
41
1
10
61.580774534302
20
8.16420657790525
30
0
41
1
10
60.9921335081013
20
8.23269183282841
30
0
41
1
10
60.7959376353698
20
8.25475543226449
30
0
41
1
10
60.4035872212522
20
8.29735253107359
30
0
41
1
10
60.2074413161955
20
8.31789291241972
30
0
41
1
10
59.2266955810497
20
8.41665021708397
30
0
41
1
10
58.4416285673204
20
8.48274176603647
30
0
41
1
10
57.2635642145212
20
8.56277129097006
30
0
41
1
10
56.8708175751482
20
8.58626094639669
30
0
41
1
10
56.0850295759455
20
8.62673465295174
30
0
41
1
10
55.6919732710408
20
8.64371021258549
30
0
41
1
10
55.1019443615383
20
8.6642195439652
30
0
41
1
10
54.9052012796999
20
8.67023376522502
30
0
41
1
10
54.5115945389171
20
8.68062121033054
30
0
41
1
10
54.3146728225087
20
8.68499536064272
30
0
41
1
10
53.7241901699374
20
8.6956430186178
30
0
41
1
10
53.3310566791297
20
8.6994437867389
30
0
41
1
10
52.9093917988299
20
8.69998030989569
30
0
41
1
10
52.8803407492975
20
8.69999916798457
30
0
41
1
10
52.8512920612235
20
8.69999993786567
30
0
0
SPLINE
5
CB
100
AcDbEntity
8
1
62
256
6
ByLayer
370
18
48
1
60
0
100
AcDbSpline
70
4
71
3
72
22
73
18
40
0
40
0
40
0
40
0
40
0.125000000000005
40
0.125000000000005
40
0.250000000000009
40
0.250000000000009
40
0.375000000000014
40
0.375000000000014
40
0.437500000000013
40
0.437500000000013
40
0.500000000000011
40
0.500000000000011
40
0.750000000000006
40
0.750000000000006
40
0.875000000000003
40
0.875000000000003
40
1
40
1
40
1
40
1
41
1
10
173.224267891609
20
-1.28416447108299
30
0
41
1
10
172.822656126632
20
-1.13953947970296
30
0
41
1
10
172.421336674147
20
-0.994287325034946
30
0
41
1
10
171.619023419934
20
-0.70325069658054
30
0
41
1
10
171.217995834933
20
-0.557560142050534
30
0
41
1
10
170.416012339467
20
-0.266349512625681
30
0
41
1
10
170.015097063522
20
-0.120716349033017
30
0
41
1
10
169.41389282163
20
0.097924730639221
30
0
41
1
10
169.213518856766
20
0.170835106940558
30
0
41
1
10
168.812832809769
20
0.316734851243808
30
0
41
1
10
168.612532978061
20
0.38975801949195
30
0
41
1
10
167.610947017934
20
0.754403207097482
30
0
41
1
10
166.809221065364
20
1.04412175070257
30
0
41
1
10
165.606343200947
20
1.47680110748615
30
0
41
1
10
165.205346370324
20
1.62073937706694
30
0
41
1
10
164.403019940067
20
1.90733013027031
30
0
41
1
10
164.001657949806
20
2.04989391284937
30
0
41
1
10
163.6
20
2.19146074021972
30
0
0
SPLINE
5
CC
100
AcDbEntity
8
1
62
256
6
ByLayer
370
18
48
1
60
0
100
AcDbSpline
70
4
71
3
72
86
73
82
40
0
40
0
40
0
40
0
40
0.0312499999999971
40
0.0312499999999971
40
0.0624999999999943
40
0.0624999999999943
40
0.124999999999989
40
0.124999999999989
40
0.140624999999987
40
0.140624999999987
40
0.148437499999986
40
0.148437499999986
40
0.156249999999985
40
0.187499999999982
40
0.187499999999982
40
0.24999999999998
40
0.24999999999998
40
0.281249999999979
40
0.281249999999979
40
0.296874999999979
40
0.296874999999979
40
0.312499999999978
40
0.312499999999978
40
0.343749999999976
40
0.343749999999976
40
0.374999999999974
40
0.374999999999974
40
0.406249999999971
40
0.406249999999971
40
0.437499999999969
40
0.437499999999969
40
0.445312499999968
40
0.445312499999968
40
0.453124999999968
40
0.468749999999966
40
0.468749999999966
40
0.499999999999965
40
0.499999999999965
40
0.531249999999963
40
0.531249999999963
40
0.539062499999962
40
0.539062499999962
40
0.546874999999961
40
0.56249999999996
40
0.56249999999996
40
0.593749999999957
40
0.593749999999957
40
0.624999999999954
40
0.624999999999954
40
0.632812499999954
40
0.632812499999954
40
0.640624999999953
40
0.656249999999953
40
0.656249999999953
40
0.687499999999953
40
0.687499999999953
40
0.718749999999953
40
0.718749999999953
40
0.726562499999954
40
0.726562499999954
40
0.734374999999955
40
0.734374999999955
40
0.749999999999957
40
0.749999999999957
40
0.781249999999962
40
0.781249999999962
40
0.812499999999966
40
0.84374999999997
40
0.84374999999997
40
0.851562499999971
40
0.851562499999971
40
0.859374999999972
40
0.874999999999976
40
0.874999999999976
40
0.906249999999982
40
0.937499999999988
40
0.968749999999994
40
0.968749999999994
40
0.984374999999997
40
0.984374999999997
40
1
40
1
40
1
40
1
41
1
10
173.224267891604
20
8.71424427767073
30
0
41
1
10
173.280482217559
20
8.5748463204983
30
0
41
1
10
173.336784593725
20
8.43335877333348
30
0
41
1
10
173.449660820107
20
8.14653440585826
30
0
41
1
10
173.506234571495
20
8.00119684639822
30
0
41
1
10
173.67646331432
20
7.55976716799017
30
0
41
1
10
173.790641265129
20
7.25828880607833
30
0
41
1
10
173.934350670506
20
6.87311872262731
30
0
41
1
10
173.963140660937
20
6.79566610927117
30
0
41
1
10
174.006395946006
20
6.67886443963545
30
0
41
1
10
174.020836050716
20
6.63979965924031
30
0
41
1
10
174.049687951839
20
6.56160157827426
30
0
41
1
10
174.121711663411
20
6.36602906541043
30
0
41
1
10
174.193212287387
20
6.17007612120022
30
0
41
1
10
174.363739137244
20
5.69905346113549
30
0
41
1
10
174.476048505328
20
5.38407973474051
30
0
41
1
10
174.641344306332
20
4.90983347113047
30
0
41
1
10
174.69590274203
20
4.75144904876962
30
0
41
1
10
174.776626867384
20
4.51331318510847
30
0
41
1
10
174.803347858353
20
4.43384081083843
30
0
41
1
10
174.856343296698
20
4.27468278460972
30
0
41
1
10
174.882629449096
20
4.19495926148659
30
0
41
1
10
174.96030659249
20
3.95658192935451
30
0
41
1
10
175.010654843679
20
3.79835087462402
30
0
41
1
10
175.107559959258
20
3.48300047702068
30
0
41
1
10
175.154123162499
20
3.32588215285745
30
0
41
1
10
175.242046193642
20
3.01242875233049
30
0
41
1
10
175.283413435291
20
2.85609433218968
30
0
41
1
10
175.358817249758
20
2.54378542230694
30
0
41
1
10
175.392857206447
20
2.38780964978147
30
0
41
1
10
175.428930867337
20
2.19274202757521
30
0
41
1
10
175.435823863794
20
2.15369744431999
30
0
41
1
10
175.448882739442
20
2.07570391560142
30
0
41
1
10
175.467337570913
20
1.95912328987129
30
0
41
1
10
175.482193366966
20
1.84378773556176
30
0
41
1
10
175.506622539573
20
1.61484139623681
30
0
41
1
10
175.515813420747
20
1.46450236402461
30
0
41
1
10
175.518286133235
20
1.1689443215561
30
0
41
1
10
175.511553555779
20
1.02372777602955
30
0
41
1
10
175.493256315503
20
0.845880548034216
30
0
41
1
10
175.489102712704
20
0.810459039661538
30
0
41
1
10
175.479858030459
20
0.740157897347729
30
0
41
1
10
175.464629122726
20
0.635828005647141
30
0
41
1
10
175.445550650018
20
0.534822042029191
30
0
41
1
10
175.402901693148
20
0.337134308529954
30
0
41
1
10
175.368504340539
20
0.211100048042283
30
0
41
1
10
175.290882591029
20
-0.0299051859698523
30
0
41
1
10
175.247664725259
20
-0.144879423637718
30
0
41
1
10
175.189561222549
20
-0.281789079519569
30
0
41
1
10
175.177724463392
20
-0.308851579538469
30
0
41
1
10
175.153711005172
20
-0.362193629637318
30
0
41
1
10
175.117241205481
20
-0.44090050422264
30
0
41
1
10
175.079562233875
20
-0.515765827241182
30
0
41
1
10
175.002884746205
20
-0.660528519316614
30
0
41
1
10
174.950024484311
20
-0.750426854058844
30
0
41
1
10
174.841845816375
20
-0.91744631180498
30
0
41
1
10
174.786520097232
20
-0.994565033038612
30
0
41
1
10
174.716159538189
20
-1.08299097778848
30
0
41
1
10
174.70202636111
20
-1.1002766082278
30
0
41
1
10
174.673643135545
20
-1.13404546634291
30
0
41
1
10
174.659382894838
20
-1.15053926265574
30
0
41
1
10
174.616616272305
20
-1.198609371299
30
0
41
1
10
174.588071360635
20
-1.22884108804649
30
0
41
1
10
174.502379792373
20
-1.3142137123117
30
0
41
1
10
174.445180555141
20
-1.36404307364191
30
0
41
1
10
174.330742941525
20
-1.4498897808989
30
0
41
1
10
174.216263435848
20
-1.5219216063058
30
0
41
1
10
174.101667922296
20
-1.56636755220077
30
0
41
1
10
174.029950394029
20
-1.58534136934978
30
0
41
1
10
174.015592448643
20
-1.58869609114174
30
0
41
1
10
173.986993419744
20
-1.59449331462883
30
0
41
1
10
173.944226051808
20
-1.60183404128944
30
0
41
1
10
173.901838189469
20
-1.60515470974582
30
0
41
1
10
173.817531302414
20
-1.60652715437612
30
0
41
1
10
173.706372008837
20
-1.5943251862918
30
0
41
1
10
173.542796939658
20
-1.53468682097076
30
0
41
1
10
173.435471965833
20
-1.46731979042511
30
0
41
1
10
173.355480271424
20
-1.40621375074201
30
0
41
1
10
173.328972125016
20
-1.38413175938464
30
0
41
1
10
173.276355341536
20
-1.33665340065627
30
0
41
1
10
173.250228105951
20
-1.31124294705788
30
0
41
1
10
173.224267891604
20
-1.28416447108108
30
0
0
SPLINE
5
CD
100
AcDbEntity
8
1
62
256
6
ByLayer
370
18
48
1
60
0
100
AcDbSpline
70
4
71
3
72
20
73
16
40
0
40
0
40
0
40
0
40
0.0370726988707024
40
0.0370726988707024
40
0.229658159096562
40
0.229658159096562
40
0.422243619322421
40
0.422243619322421
40
0.614829079548281
40
0.614829079548281
40
0.80741453977414
40
0.80741453977414
40
0.90370726988707
40
0.90370726988707
40
1
40
1
40
1
40
1
41
1
10
166.978511855544
20
8.99887615474915
30
0
41
1
10
167.055682688299
20
8.99889014852496
30
0
41
1
10
167.13285133199
20
8.99877310479837
30
0
41
1
10
167.610879280801
20
8.99723743841952
30
0
41
1
10
168.011651388726
20
8.99241547257054
30
0
41
1
10
168.812983278084
20
8.97564630955901
30
0
41
1
10
169.213577492145
20
8.96369425887221
30
0
41
1
10
170.015053528249
20
8.93275714173313
30
0
41
1
10
170.415988306198
20
8.91380186578652
30
0
41
1
10
171.218048962699
20
8.86888725575099
30
0
41
1
10
171.619165933107
20
8.84292106467362
30
0
41
1
10
172.220924180298
20
8.79863301159449
30
0
41
1
10
172.421514015842
20
8.78297326609481
30
0
41
1
10
172.822772243443
20
8.7498901642507
30
0
41
1
10
173.023474231051
20
8.73248850721794
30
0
41
1
10
173.224267891609
20
8.71424427767028
30
0
0
SPLINE
5
CE
100
AcDbEntity
8
1
62
256
6
ByLayer
370
18
48
1
60
0
100
AcDbSpline
70
4
71
3
72
149
73
145
40
0
40
0
40
0
40
0
40
0.0315218762644913
40
0.0315218762644913
40
0.0472828143967369
40
0.0472828143967369
40
0.0551632834628594
40
0.0551632834628594
40
0.063043752528982
40
0.0788046906612276
40
0.0788046906612276
40
0.0945656287934733
40
0.0945656287934733
40
0.110326566925719
40
0.110326566925719
40
0.126087505057965
40
0.126087505057965
40
0.14184844319021
40
0.14184844319021
40
0.149728912256333
40
0.149728912256333
40
0.157609381322455
40
0.157609381322455
40
0.189131257586947
40
0.189131257586947
40
0.204892195719193
40
0.204892195719193
40
0.212772664785316
40
0.212772664785316
40
0.220653133851438
40
0.220653133851438
40
0.236414071983684
40
0.236414071983684
40
0.244294541049807
40
0.244294541049807
40
0.25217501011593
40
0.25217501011593
40
0.283696886380421
40
0.283696886380421
40
0.299457824512667
40
0.299457824512667
40
0.30733829357879
40
0.30733829357879
40
0.315218762644913
40
0.315218762644913
40
0.330979700777158
40
0.330979700777158
40
0.346740638909404
40
0.346740638909404
40
0.354621107975527
40
0.354621107975527
40
0.36250157704165
40
0.378262515173895
40
0.378262515173895
40
0.394023453306141
40
0.394023453306141
40
0.409784391438386
40
0.409784391438386
40
0.425545329570632
40
0.425545329570632
40
0.441306267702877
40
0.441306267702877
40
0.449186736769
40
0.449186736769
40
0.457067205835123
40
0.457067205835123
40
0.464947674901246
40
0.464947674901246
40
0.472828143967369
40
0.472828143967369
40
0.488589082099614
40
0.488589082099614
40
0.504350020231859
40
0.504350020231859
40
0.535871896496349
40
0.535871896496349
40
0.543752365562472
40
0.543752365562472
40
0.551632834628595
40
0.551632834628595
40
0.56739377276084
40
0.56739377276084
40
0.583154710893086
40
0.583154710893086
40
0.598915649025331
40
0.598915649025331
40
0.614676587157576
40
0.614676587157576
40
0.630437525289822
40
0.630437525289822
40
0.646198463422067
40
0.646198463422067
40
0.65407893248819
40
0.65407893248819
40
0.661959401554313
40
0.677720339686558
40
0.677720339686558
40
0.693481277818804
40
0.693481277818804
40
0.709242215951049
40
0.709242215951049
40
0.725003154083294
40
0.725003154083294
40
0.74076409221554
40
0.74076409221554
40
0.748644561281662
40
0.748644561281662
40
0.756525030347785
40
0.756525030347785
40
0.772285968480032
40
0.772285968480032
40
0.780166437546155
40
0.780166437546155
40
0.788046906612278
40
0.788046906612278
40
0.803807844744524
40
0.803807844744524
40
0.819568782876771
40
0.819568782876771
40
0.835329721009017
40
0.835329721009017
40
0.84321019007514
40
0.84321019007514
40
0.851090659141264
40
0.851090659141264
40
0.882612535405755
40
0.882612535405755
40
0.898373473538002
40
0.898373473538002
40
0.914134411670248
40
0.914134411670248
40
0.929895349802494
40
0.929895349802494
40
0.94565628793474
40
0.94565628793474
40
0.953536757000864
40
0.953536757000864
40
0.961417226066987
40
0.961417226066987
40
0.977178164199233
40
0.977178164199233
40
0.992939102331479
40
0.992939102331479
40
1
40
1
40
1
40
1
41
1
10
16.9688911842323
20
8.51943066384175
30
0
41
1
10
17.7346771848179
20
8.46462548104304
30
0
41
1
10
18.50014827575
20
8.39794463968261
30
0
41
1
10
19.6473005240135
20
8.28001146589327
30
0
41
1
10
20.0295100612939
20
8.23770452760181
30
0
41
1
10
20.6025107531262
20
8.16966572785293
30
0
41
1
10
20.7934689337364
20
8.14623090515479
30
0
41
1
10
21.1754424085853
20
8.09799734331807
30
0
41
1
10
21.7484454694329
20
8.02356034568368
30
0
41
1
10
22.3215042536774
20
7.94283785612416
30
0
41
1
10
23.0855103636822
20
7.82949364329352
30
0
41
1
10
23.4674493232803
20
7.7699263706655
30
0
41
1
10
24.2312873464932
20
7.64506344487833
30
0
41
1
10
24.6132109465989
20
7.57979480184522
30
0
41
1
10
25.3774345793702
20
7.44410782943601
30
0
41
1
10
25.7597593127899
20
7.3737371054965
30
0
41
1
10
26.5246230535517
20
7.22764456271668
30
0
41
1
10
26.9071669626468
20
7.15192738368793
30
0
41
1
10
27.4811096539128
20
7.03423328548524
30
0
41
1
10
27.6724361958796
20
6.99429928198307
30
0
41
1
10
28.0551773323073
20
6.91312593912949
30
0
41
1
10
28.2466490320009
20
6.8719288287682
30
0
41
1
10
29.2041007163489
20
6.66317791945499
30
0
41
1
10
29.9695797093037
20
6.48728311196547
30
0
41
1
10
31.1163976562457
20
6.2088601499693
30
0
41
1
10
31.4984660005536
20
6.11366600126033
30
0
41
1
10
32.0715166555742
20
5.96781348490669
30
0
41
1
10
32.2625272105114
20
5.91869128786908
30
0
41
1
10
32.6445758091871
20
5.81952785385619
30
0
41
1
10
32.835609014092
20
5.76947683707354
30
0
41
1
10
33.4086913248422
20
5.61782743434173
30
0
41
1
10
33.7907126421635
20
5.51471105724968
30
0
41
1
10
34.3636362330407
20
5.35687039518672
30
0
41
1
10
34.5545933835776
20
5.30373027942187
30
0
41
1
10
34.9364662128295
20
5.19637572704508
30
0
41
1
10
35.1273709334128
20
5.14213507476492
30
0
41
1
10
36.0821318225579
20
4.86902638599304
30
0
41
1
10
36.8466850158841
20
4.64446877472625
30
0
41
1
10
37.9938818677921
20
4.29676641488501
30
0
41
1
10
38.3763198886485
20
4.17898501003287
30
0
41
1
10
38.9502607488059
20
4.00003745994269
30
0
41
1
10
39.1416229561711
20
3.94001287177042
30
0
41
1
10
39.5244916566382
20
3.8193369574723
30
0
41
1
10
39.7160399231211
20
3.75868803433104
30
0
41
1
10
40.2905630836685
20
3.57596461734792
30
0
41
1
10
40.6734193799697
20
3.45303519356989
30
0
41
1
10
41.438669225778
20
3.20456557124518
30
0
41
1
10
41.8210654444452
20
3.07903187052076
30
0
41
1
10
42.3943091253564
20
2.88875362969529
30
0
41
1
10
42.5853548958176
20
2.8250601144793
30
0
41
1
10
42.9674811551252
20
2.69742827905458
30
0
41
1
10
43.5406798915263
20
2.50549700823302
30
0
41
1
10
44.1138356617279
20
2.31193256596296
30
0
41
1
10
44.8778830950966
20
2.05206021814334
30
0
41
1
10
45.2597950485399
20
1.92114172667462
30
0
41
1
10
46.0235319148656
20
1.657710154846
30
0
41
1
10
46.4053770570749
20
1.52525271560342
30
0
41
1
10
47.1693928459815
20
1.25990980429916
30
0
41
1
10
47.5515690620008
20
1.12704294767417
30
0
41
1
10
48.3160411161275
20
0.860304724740814
30
0
41
1
10
48.698347092018
20
0.726461634935589
30
0
41
1
10
49.2718696038047
20
0.524856291331048
30
0
41
1
10
49.4630424874237
20
0.457479637179205
30
0
41
1
10
49.8454868257625
20
0.322668204419187
30
0
41
1
10
50.0367817380942
20
0.255301885611573
30
0
41
1
10
50.419518587227
20
0.120654584259228
30
0
41
1
10
50.6109576344111
20
0.0533651994859952
30
0
41
1
10
50.9939610813724
20
-0.0811906678805485
30
0
41
1
10
51.185556245484
20
-0.148467962983517
30
0
41
1
10
51.7598763878715
20
-0.35010849279405
30
0
41
1
10
52.1423189975993
20
-0.484379479285906
30
0
41
1
10
52.9062763285089
20
-0.752775753785158
30
0
41
1
10
53.2878160362363
20
-0.886816585543897
30
0
41
1
10
54.431597010094
20
-1.28697632428694
30
0
41
1
10
55.1932155136366
20
-1.55050432056456
30
0
41
1
10
56.143585813017
20
-1.87755629815416
30
0
41
1
10
56.3335792253434
20
-1.942840899115
30
0
41
1
10
56.7133980872097
20
-2.07317510299208
30
0
41
1
10
56.9032204294983
20
-2.13823302147813
30
0
41
1
10
57.4726534640292
20
-2.33241464898785
30
0
41
1
10
57.8521926566471
20
-2.46066104897255
30
0
41
1
10
58.6109892835674
20
-2.71510945516013
30
0
41
1
10
58.9902478426923
20
-2.84130819967314
30
0
41
1
10
59.7483662077545
20
-3.09198694620233
30
0
41
1
10
60.1272089724844
20
-3.21651019115362
30
0
41
1
10
60.8847571386434
20
-3.46309594186914
30
0
41
1
10
61.263486391564
20
-3.58509405956778
30
0
41
1
10
62.0210825390714
20
-3.82591491195117
30
0
41
1
10
62.3998954798546
20
-3.944885365391
30
0
41
1
10
63.1574154794569
20
-4.18030227328401
30
0
41
1
10
63.5361244765686
20
-4.29674233493486
30
0
41
1
10
64.1041081565617
20
-4.46948442895749
30
0
41
1
10
64.2934450749375
20
-4.52668797617605
30
0
41
1
10
64.6722375354852
20
-4.64008962609776
30
0
41
1
10
65.2405633014607
20
-4.80878770219454
30
0
41
1
10
65.8092301639255
20
-4.97346848546266
30
0
41
1
10
66.5676402022941
20
-5.18975345094188
30
0
41
1
10
66.9469100218678
20
-5.29631884714132
30
0
41
1
10
67.705700335048
20
-5.50597528886013
30
0
41
1
10
68.0852410695347
20
-5.60901615930757
30
0
41
1
10
68.8449615832765
20
-5.81071874384335
30
0
41
1
10
69.2251535410367
20
-5.90935864003666
30
0
41
1
10
69.9859973525431
20
-6.10267881184487
30
0
41
1
10
70.3666572405095
20
-6.19733959927129
30
0
41
1
10
70.9379688218308
20
-6.33638049793521
30
0
41
1
10
71.1284500287701
20
-6.38225570210105
30
0
41
1
10
71.5095760342472
20
-6.47289571896161
30
0
41
1
10
71.7002454787573
20
-6.51760866449075
30
0
41
1
10
72.2725985115381
20
-6.64987824063641
30
0
41
1
10
72.6546062710286
20
-6.73561075336013
30
0
41
1
10
73.2281929346477
20
-6.86070961533829
30
0
41
1
10
73.4194845567253
20
-6.901825045263
30
0
41
1
10
73.8022465018747
20
-6.98290995615926
30
0
41
1
10
73.993766797813
20
-7.02289477945581
30
0
41
1
10
74.5681958139012
20
-7.14103454533921
30
0
41
1
10
74.9508350687367
20
-7.21731711826831
30
0
41
1
10
75.7158245694646
20
-7.36437820191293
30
0
41
1
10
76.0982240507194
20
-7.43508614348443
30
0
41
1
10
76.8627937884671
20
-7.57098573630665
30
0
41
1
10
77.2449281663036
20
-7.63623079588177
30
0
41
1
10
77.8178496571184
20
-7.73010454969813
30
0
41
1
10
78.0087772997555
20
-7.76072890126929
30
0
41
1
10
78.3905333140013
20
-7.82064502665864
30
0
41
1
10
78.5813540786501
20
-7.84994480870398
30
0
41
1
10
79.5355767138065
20
-7.99264883778315
30
0
41
1
10
80.299229568496
20
-8.09488875256619
30
0
41
1
10
81.444375348076
20
-8.23130144435751
30
0
41
1
10
81.8260156047555
20
-8.27394544611704
30
0
41
1
10
82.5894543423212
20
-8.35325926349461
30
0
41
1
10
82.9712780427214
20
-8.38990910268737
30
0
41
1
10
83.7353700939495
20
-8.45705278157649
30
0
41
1
10
84.1175817151169
20
-8.48759557511261
30
0
41
1
10
84.8821973355919
20
-8.54269681205716
30
0
41
1
10
85.2646008742364
20
-8.56725238957591
30
0
41
1
10
85.8383613697724
20
-8.59952575588375
30
0
41
1
10
86.0296673567568
20
-8.60950982704773
30
0
41
1
10
86.4124748322987
20
-8.62789669431126
30
0
41
1
10
86.6039907588705
20
-8.63630709848093
30
0
41
1
10
87.1785781888997
20
-8.65919562535856
30
0
41
1
10
87.5614535195545
20
-8.67132588272267
30
0
41
1
10
88.3267195350288
20
-8.68938570972725
30
0
41
1
10
88.7090778339542
20
-8.69531538605594
30
0
41
1
10
89.2624441259916
20
-8.69937276154647
30
0
41
1
10
89.4336149991771
20
-8.69999915896275
30
0
41
1
10
89.6047662938079
20
-8.69999878459041
30
0
0
SPLINE
5
CF
100
AcDbEntity
8
1
62
256
6
ByLayer
370
18
48
1
60
0
100
AcDbSpline
70
4
71
3
72
37
73
33
40
0
40
0
40
0
40
0
40
0.0249610297659697
40
0.0249610297659697
40
0.0639625885753325
40
0.0639625885753325
40
0.102964147384695
40
0.102964147384695
40
0.141965706194059
40
0.141965706194059
40
0.219968823812785
40
0.219968823812785
40
0.297971941431511
40
0.297971941431511
40
0.375975059050236
40
0.375975059050236
40
0.453978176668962
40
0.453978176668962
40
0.531981294287689
40
0.531981294287689
40
0.609984411906415
40
0.609984411906415
40
0.648985970715775
40
0.648985970715775
40
0.687987529525136
40
0.765990647143852
40
0.765990647143852
40
0.843993764762568
40
0.843993764762568
40
0.921996882381284
40
0.921996882381284
40
1
40
1
40
1
40
1
41
1
10
148.910473409106
20
6.40577078582737
30
0
41
1
10
149.033011896256
20
6.43488620124569
30
0
41
1
10
149.155574280312
20
6.46377156513856
30
0
41
1
10
149.469694774466
20
6.53721327304461
30
0
41
1
10
149.661236029367
20
6.58143052802137
30
0
41
1
10
150.044087379939
20
6.66869473309947
30
0
41
1
10
150.235431976674
20
6.71174978148426
30
0
41
1
10
150.617951954076
20
6.79671381513623
30
0
41
1
10
150.809114721911
20
6.83864509672966
30
0
41
1
10
151.382485821595
20
6.96246271481692
30
0
41
1
10
151.764656379082
20
7.0422377276461
30
0
41
1
10
152.52873789221
20
7.19651597513194
30
0
41
1
10
152.910647212854
20
7.27102212950891
30
0
41
1
10
153.674080508697
20
7.41496809035178
30
0
41
1
10
154.055574069855
20
7.48444742972049
30
0
41
1
10
154.818375884209
20
7.61799640723549
30
0
41
1
10
155.19970120162
20
7.68204044185876
30
0
41
1
10
155.962519276715
20
7.80427938728192
30
0
41
1
10
156.343965021094
20
7.86254592182746
30
0
41
1
10
157.106759988019
20
7.97359269717043
30
0
41
1
10
157.488120754553
20
8.02635684427233
30
0
41
1
10
158.060066705976
20
8.10136328027022
30
0
41
1
10
158.250703185649
20
8.12566941071552
30
0
41
1
10
158.632102260177
20
8.17273541254366
30
0
41
1
10
159.204351703129
20
8.24105745531463
30
0
41
1
10
159.77697885579
20
8.30266804233523
30
0
41
1
10
160.540697103791
20
8.37896001779183
30
0
41
1
10
160.922638480741
20
8.41419554019109
30
0
41
1
10
161.686755371129
20
8.47872892041534
30
0
41
1
10
162.068956614701
20
8.50800250365435
30
0
41
1
10
162.834001725597
20
8.5603328274814
30
0
41
1
10
163.216875075535
20
8.58338441640055
30
0
41
1
10
163.6
20
8.60338033280468
30
0
0
SPLINE
5
D0
100
AcDbEntity
8
1
62
256
6
ByLayer
370
18
48
1
60
0
100
AcDbSpline
70
4
71
3
72
60
73
56
40
0
40
0
40
0
40
0
40
0.0355088414201942
40
0.0355088414201942
40
0.0532632621302902
40
0.0532632621302902
40
0.0710176828403862
40
0.0710176828403862
40
0.142035365680763
40
0.142035365680763
40
0.213053048521141
40
0.213053048521141
40
0.248561889941329
40
0.248561889941329
40
0.284070731361518
40
0.284070731361518
40
0.319579572781707
40
0.319579572781707
40
0.337333993491801
40
0.337333993491801
40
0.355088414201895
40
0.355088414201895
40
0.390597255622086
40
0.390597255622086
40
0.426106097042277
40
0.426106097042277
40
0.497123779882659
40
0.497123779882659
40
0.514878200592753
40
0.514878200592753
40
0.532632621302847
40
0.568141462723036
40
0.568141462723036
40
0.603650304143225
40
0.603650304143225
40
0.639159145563413
40
0.639159145563413
40
0.71017682840379
40
0.71017682840379
40
0.727931249113885
40
0.727931249113885
40
0.745685669823979
40
0.781194511244166
40
0.781194511244166
40
0.816703352664352
40
0.816703352664352
40
0.852212194084538
40
0.852212194084538
40
0.923229876924909
40
0.923229876924909
40
0.958738718345095
40
0.958738718345095
40
0.994247559765282
40
0.994247559765282
40
1
40
1
40
1
40
1
41
1
10
163.6
20
2.01328870747517
30
0
41
1
10
163.206225925044
20
2.1479297741158
30
0
41
1
10
162.812657940065
20
2.28164710601934
30
0
41
1
10
162.222658276466
20
2.48096405980533
30
0
41
1
10
162.026049921953
20
2.54719146533728
30
0
41
1
10
161.632955515226
20
2.6792374913893
30
0
41
1
10
161.436479754906
20
2.74508409922265
30
0
41
1
10
160.454224346626
20
3.07278832159426
30
0
41
1
10
159.668572374858
20
3.3294242040933
30
0
41
1
10
158.097969026938
20
3.83280874495381
30
0
41
1
10
157.313112791339
20
4.07975764964758
30
0
41
1
10
156.135010362127
20
4.43927555898492
30
0
41
1
10
155.742209071996
20
4.5573950222408
30
0
41
1
10
154.956476850769
20
4.79036657921341
30
0
41
1
10
154.563557039029
20
4.90524446960245
30
0
41
1
10
153.777557057334
20
5.13162767180182
30
0
41
1
10
153.384333823379
20
5.24279371913232
30
0
41
1
10
152.794109335052
20
5.40638786449247
30
0
41
1
10
152.597307757874
20
5.46040471012304
30
0
41
1
10
152.20359224273
20
5.56742678001194
30
0
41
1
10
152.00669920998
20
5.62042633031348
30
0
41
1
10
151.416539848944
20
5.77774018682669
30
0
41
1
10
151.023587292109
20
5.88046946829007
30
0
41
1
10
150.238513639024
20
6.081300649143
30
0
41
1
10
149.84638380252
20
6.17937904482469
30
0
41
1
10
148.670794684051
20
6.46575405394449
30
0
41
1
10
147.888252800098
20
6.64651295844857
30
0
41
1
10
146.911810278125
20
6.8603287719969
30
0
41
1
10
146.7166001072
20
6.90246538309
30
0
41
1
10
146.326234065351
20
6.98530113954499
30
0
41
1
10
145.740796202322
20
7.10745543958541
30
0
41
1
10
145.155716725684
20
7.22340423455165
30
0
41
1
10
144.375981981022
20
7.37260101612927
30
0
41
1
10
143.986314024921
20
7.44451783982305
30
0
41
1
10
143.207285278616
20
7.58282652483274
30
0
41
1
10
142.817918289556
20
7.64920467402507
30
0
41
1
10
141.649808985401
20
7.83939887744574
30
0
41
1
10
140.87106690049
20
7.95435283168575
30
0
41
1
10
139.897944130715
20
8.08359679378958
30
0
41
1
10
139.703343463185
20
8.10872886982983
30
0
41
1
10
139.314091642914
20
8.15744973130134
30
0
41
1
10
138.730107197222
20
8.22818574842699
30
0
41
1
10
138.145822205542
20
8.29194418506552
30
0
41
1
10
137.366565982644
20
8.3708164453117
30
0
41
1
10
136.976841089275
20
8.40718814228833
30
0
41
1
10
136.197169562264
20
8.47373791946981
30
0
41
1
10
135.807213285428
20
8.50390366188282
30
0
41
1
10
134.636577719724
20
8.58478006759765
30
0
41
1
10
133.855003964524
20
8.62585893816043
30
0
41
1
10
132.681241618272
20
8.66823587547754
30
0
41
1
10
132.289798798764
20
8.67914573248697
30
0
41
1
10
131.505997783433
20
8.6943657629642
30
0
41
1
10
131.113675926913
20
8.69869644088865
30
0
41
1
10
130.657338210735
20
8.69991791735856
30
0
41
1
10
130.593707631051
20
8.7000021225609
30
0
41
1
10
130.530066795367
20
8.70000009006935
30
0
0
SPLINE
5
D1
100
AcDbEntity
8
1
62
256
6
ByLayer
370
18
48
1
60
0
100
AcDbSpline
70
4
71
3
72
117
73
113
40
0
40
0
40
0
40
0
40
0.010061006929396
40
0.010061006929396
40
0.0302638435226744
40
0.0302638435226744
40
0.0504666801159528
40
0.0504666801159528
40
0.0605680984125918
40
0.0605680984125918
40
0.0706695167092304
40
0.0706695167092304
40
0.0807709350058693
40
0.0807709350058693
40
0.0908723533025082
40
0.0908723533025082
40
0.111075189895785
40
0.111075189895785
40
0.131278026489062
40
0.131278026489062
40
0.151480863082339
40
0.151480863082339
40
0.171683699675617
40
0.171683699675617
40
0.181785117972255
40
0.181785117972255
40
0.191886536268893
40
0.191886536268893
40
0.232292209455446
40
0.232292209455446
40
0.252495046048723
40
0.252495046048723
40
0.272697882641999
40
0.272697882641999
40
0.282799300938637
40
0.282799300938637
40
0.292900719235274
40
0.292900719235274
40
0.31310355582855
40
0.31310355582855
40
0.323204974125189
40
0.323204974125189
40
0.333306392421828
40
0.333306392421828
40
0.353509229015104
40
0.353509229015104
40
0.373712065608381
40
0.373712065608381
40
0.393914902201658
40
0.393914902201658
40
0.434320575388212
40
0.434320575388212
40
0.444421993684851
40
0.444421993684851
40
0.454523411981489
40
0.474726248574766
40
0.474726248574766
40
0.494929085168044
40
0.494929085168044
40
0.515131921761321
40
0.515131921761321
40
0.555537594947877
40
0.555537594947877
40
0.575740431541154
40
0.575740431541154
40
0.595943268134432
40
0.595943268134432
40
0.616146104727709
40
0.616146104727709
40
0.636348941320986
40
0.636348941320986
40
0.656551777914264
40
0.656551777914264
40
0.676754614507541
40
0.676754614507541
40
0.68685603280418
40
0.68685603280418
40
0.696957451100819
40
0.696957451100819
40
0.717160287694097
40
0.717160287694097
40
0.727261705990737
40
0.727261705990737
40
0.737363124287376
40
0.737363124287376
40
0.757565960880654
40
0.757565960880654
40
0.777768797473932
40
0.777768797473932
40
0.79797163406721
40
0.79797163406721
40
0.80807305236385
40
0.80807305236385
40
0.818174470660489
40
0.818174470660489
40
0.838377307253768
40
0.838377307253768
40
0.858580143847047
40
0.858580143847047
40
0.878782980440325
40
0.878782980440325
40
0.898985817033604
40
0.898985817033604
40
0.919188653626883
40
0.919188653626883
40
0.929290071923523
40
0.929290071923523
40
0.939391490220162
40
0.939391490220162
40
0.959594326813441
40
0.959594326813441
40
1
40
1
40
1
40
1
41
1
10
71.2059160487077
20
-6.41075173085829
30
0
41
1
10
71.0104793381873
20
-6.4572852687958
30
0
41
1
10
70.8150304683859
20
-6.50323274072557
30
0
41
1
10
70.2270332838909
20
-6.63959247275696
30
0
41
1
10
69.8343674719716
20
-6.72807102603883
30
0
41
1
10
69.0486425128077
20
-6.89975538378212
30
0
41
1
10
68.6556143409897
20
-6.98301961073446
30
0
41
1
10
68.0658620835452
20
-7.10410077138715
30
0
41
1
10
67.8692426151822
20
-7.1438242296222
30
0
41
1
10
67.4759380530869
20
-7.2219990052898
30
0
41
1
10
67.2792622198028
20
-7.26046465041821
30
0
41
1
10
66.8857442033027
20
-7.33595431968402
30
0
41
1
10
66.6888601510214
20
-7.37298539664601
30
0
41
1
10
66.2952179907898
20
-7.44556550264278
30
0
41
1
10
66.0984441218148
20
-7.48111792490303
30
0
41
1
10
65.508274056543
20
-7.58558771822391
30
0
41
1
10
65.1150315645612
20
-7.65232284039178
30
0
41
1
10
64.328997793819
20
-7.78003644301148
30
0
41
1
10
63.9362162594111
20
-7.84102233872201
30
0
41
1
10
63.1509120517636
20
-7.95696982269095
30
0
41
1
10
62.7583627509691
20
-8.01189958455163
30
0
41
1
10
61.9732759947926
20
-8.11549569947809
30
0
41
1
10
61.5807745343021
20
-8.16420657790525
30
0
41
1
10
60.9921335081013
20
-8.23269183282844
30
0
41
1
10
60.7959376353698
20
-8.25475543226449
30
0
41
1
10
60.4035872212522
20
-8.29735253107361
30
0
41
1
10
60.2074413161955
20
-8.31789291241972
30
0
41
1
10
59.2266955810496
20
-8.416650217084
30
0
41
1
10
58.4416285673204
20
-8.4827417660365
30
0
41
1
10
57.2635642145212
20
-8.56277129097006
30
0
41
1
10
56.8708175751482
20
-8.58626094639669
30
0
41
1
10
56.0850295759454
20
-8.62673465295174
30
0
41
1
10
55.6919732710407
20
-8.64371021258549
30
0
41
1
10
55.1019443615382
20
-8.6642195439652
30
0
41
1
10
54.9052012796999
20
-8.67023376522505
30
0
41
1
10
54.5115945389171
20
-8.68062121033057
30
0
41
1
10
54.3146728225087
20
-8.68499536064272
30
0
41
1
10
53.7241901699375
20
-8.6956430186178
30
0
41
1
10
53.3310566791297
20
-8.6994437867389
30
0
41
1
10
52.742139642408
20
-8.70019312025562
30
0
41
1
10
52.5459468609181
20
-8.69961615236147
30
0
41
1
10
52.1537183089333
20
-8.69682179298979
30
0
41
1
10
51.9576912881247
20
-8.69460476671122
30
0
41
1
10
51.3698785225453
20
-8.68551039011348
30
0
41
1
10
50.9783618521182
20
-8.67619191197417
30
0
41
1
10
50.1960898851769
20
-8.65107344788458
30
0
41
1
10
49.8053496404425
20
-8.63526502640005
30
0
41
1
10
49.0245412296332
20
-8.5971918438334
30
0
41
1
10
48.6344673674958
20
-8.57492564343943
30
0
41
1
10
47.46479427754
20
-8.49873194493534
30
0
41
1
10
46.6858203537754
20
-8.43543229243502
30
0
41
1
10
45.7133927352488
20
-8.34051293481232
30
0
41
1
10
45.5189764527125
20
-8.3207312926082
30
0
41
1
10
45.1301632915216
20
-8.27967744512179
30
0
41
1
10
44.5469871344428
20
-8.21585073995405
30
0
41
1
10
43.9639645449474
20
-8.145309786469
30
0
41
1
10
43.1867925830547
20
-8.04525272962064
30
0
41
1
10
42.7983130986919
20
-7.99220888412168
30
0
41
1
10
42.0215115539962
20
-7.88012980079986
30
0
41
1
10
41.6331813582668
20
-7.82109972326029
30
0
41
1
10
40.467979183898
20
-7.63558966159223
30
0
41
1
10
39.6908206020608
20
-7.50085393397561
30
0
41
1
10
38.5249100665541
20
-7.28158265289957
30
0
41
1
10
38.1362744975701
20
-7.20556139374253
30
0
41
1
10
37.3584608200092
20
-7.04855453051917
30
0
41
1
10
36.9693335240126
20
-6.96749417403072
30
0
41
1
10
36.1906933868654
20
-6.80016938844875
30
0
41
1
10
35.8011856292279
20
-6.71389447412597
30
0
41
1
10
35.021796644882
20
-6.53606901461819
30
0
41
1
10
34.6319061973448
20
-6.44453117465596
30
0
41
1
10
33.8514867877665
20
-6.25667951240197
30
0
41
1
10
33.460921476431
20
-6.16044838811661
30
0
41
1
10
32.6790769624577
20
-5.96338903268079
30
0
41
1
10
32.2878142268924
20
-5.86252460466142
30
0
41
1
10
31.7004351800069
20
-5.70762286268885
30
0
41
1
10
31.5045620089518
20
-5.65538590759084
30
0
41
1
10
31.1126544348797
20
-5.54969526954892
30
0
41
1
10
30.91661121167
20
-5.49626232790868
30
0
41
1
10
30.3280754201688
20
-5.33454637892876
30
0
41
1
10
29.9352155049818
20
-5.22475427348706
30
0
41
1
10
29.3452069440995
20
-5.05699595934817
30
0
41
1
10
29.1483913444384
20
-5.00055545117689
30
0
41
1
10
28.7546383746798
20
-4.88666285202382
30
0
41
1
10
28.5578493582877
20
-4.82925353938549
30
0
41
1
10
27.9677494662214
20
-4.65562429621832
30
0
41
1
10
27.57470427882
20
-4.53800552893068
30
0
41
1
10
26.7890917178112
20
-4.29962944287749
30
0
41
1
10
26.3964878490576
20
-4.17896689379248
30
0
41
1
10
25.6115881698641
20
-3.93496188128302
30
0
41
1
10
25.2193214667569
20
-3.81154437473484
30
0
41
1
10
24.631234182478
20
-3.62419621369423
30
0
41
1
10
24.4352569354093
20
-3.56137708984502
30
0
41
1
10
24.0434120090966
20
-3.43498218183217
30
0
41
1
10
23.8475529950275
20
-3.37138284404742
30
0
41
1
10
23.2599840716204
20
-3.17986763134877
30
0
41
1
10
22.8682849311638
20
-3.05122973736962
30
0
41
1
10
22.0849635014754
20
-2.79191218947804
30
0
41
1
10
21.6933442569514
20
-2.66122416893194
30
0
41
1
10
20.9102318020749
20
-2.39766821809493
30
0
41
1
10
20.518747944446
20
-2.2647727768242
30
0
41
1
10
19.7357133887881
20
-1.99732867343315
30
0
41
1
10
19.3441365198195
20
-1.86285355791097
30
0
41
1
10
18.5606716980217
20
-1.59294844654431
30
0
41
1
10
18.1688195604554
20
-1.45741823446113
30
0
41
1
10
17.5809093418892
20
-1.25311706671977
30
0
41
1
10
17.3849165157207
20
-1.18485101895499
30
0
41
1
10
16.9928906481247
20
-1.04797004642711
30
0
41
1
10
16.7968658443513
20
-0.979330987482626
30
0
41
1
10
16.2086631781052
20
-0.77308437387299
30
0
41
1
10
15.8162643835012
20
-0.635419345801921
30
0
41
1
10
14.6382523682224
20
-0.222008690785003
30
0
41
1
10
13.8518556471585
20
0.0542346231191289
30
0
41
1
10
13.0646037482182
20
0.33178612134094
30
0
0
SPLINE
5
D2
100
AcDbEntity
8
1
62
256
6
ByLayer
370
18
48
1
60
0
100
AcDbSpline
70
4
71
3
72
94
73
90
40
0
40
0
40
0
40
0
40
0.0625000000000015
40
0.0625000000000015
40
0.0937500000000022
40
0.0937500000000022
40
0.125000000000003
40
0.125000000000003
40
0.156250000000004
40
0.156250000000004
40
0.187500000000004
40
0.187500000000004
40
0.195312500000004
40
0.195312500000004
40
0.203125000000004
40
0.218750000000002
40
0.218750000000002
40
0.25
40
0.25
40
0.281249999999998
40
0.281249999999998
40
0.296874999999997
40
0.296874999999997
40
0.312499999999996
40
0.312499999999996
40
0.343749999999993
40
0.343749999999993
40
0.374999999999991
40
0.374999999999991
40
0.38281249999999
40
0.38281249999999
40
0.39062499999999
40
0.39062499999999
40
0.406249999999989
40
0.406249999999989
40
0.437499999999988
40
0.437499999999988
40
0.441406249999988
40
0.441406249999988
40
0.445312499999988
40
0.453124999999988
40
0.453124999999988
40
0.468749999999988
40
0.468749999999988
40
0.499999999999987
40
0.499999999999987
40
0.515624999999987
40
0.515624999999987
40
0.531249999999987
40
0.531249999999987
40
0.546874999999986
40
0.546874999999986
40
0.550781249999986
40
0.550781249999986
40
0.554687499999986
40
0.554687499999986
40
0.562499999999987
40
0.562499999999987
40
0.593749999999988
40
0.593749999999988
40
0.609374999999989
40
0.609374999999989
40
0.62499999999999
40
0.62499999999999
40
0.656249999999992
40
0.656249999999992
40
0.687499999999994
40
0.687499999999994
40
0.718749999999996
40
0.718749999999996
40
0.734374999999996
40
0.734374999999996
40
0.749999999999997
40
0.749999999999997
40
0.781249999999997
40
0.781249999999997
40
0.812499999999998
40
0.812499999999998
40
0.843749999999998
40
0.843749999999998
40
0.874999999999999
40
0.874999999999999
40
0.906249999999999
40
0.906249999999999
40
0.937499999999999
40
0.937499999999999
40
0.96875
40
0.96875
40
1
40
1
40
1
40
1
41
1
10
10.0000000000007
20
8.67021415360529
30
0
41
1
10
9.59086222074282
20
8.71871543557543
30
0
41
1
10
9.18764007723058
20
8.76437775278069
30
0
41
1
10
8.59189132841095
20
8.82622015984717
30
0
41
1
10
8.39482406560489
20
8.8457120836716
30
0
41
1
10
8.00378664245545
20
8.88185976325113
30
0
41
1
10
7.80981606736225
20
8.89851688867202
30
0
41
1
10
7.42507066847773
20
8.92823890896858
30
0
41
1
10
7.23429523063504
20
8.94130608230597
30
0
41
1
10
6.8560872326305
20
8.96287311836758
30
0
41
1
10
6.66865368081966
20
8.97137688107847
30
0
41
1
10
6.43658782690213
20
8.97834986179006
30
0
41
1
10
6.39024305554025
20
8.97956149444025
30
0
41
1
10
6.29805003400978
20
8.98158753226676
30
0
41
1
10
6.16049127548661
20
8.9840321293222
30
0
41
1
10
6.02514601747009
20
8.98460948971143
30
0
41
1
10
5.75748067080875
20
8.98302321070116
30
0
41
1
10
5.58306185159671
20
8.97832562298086
30
0
41
1
10
5.2428485998598
20
8.9600140397292
30
0
41
1
10
5.07704896275999
20
8.94640926623666
30
0
41
1
10
4.83550034846763
20
8.91766663299592
30
0
41
1
10
4.75617905933956
20
8.90669125277122
30
0
41
1
10
4.6000902340823
20
8.88159110926244
30
0
41
1
10
4.52385646014045
20
8.86754944763794
30
0
41
1
10
4.30107234080177
20
8.82059798766448
30
0
41
1
10
4.1602885899878
20
8.78287320374289
30
0
41
1
10
3.8959057876701
20
8.69186712990748
30
0
41
1
10
3.77228337543167
20
8.63861197503567
30
0
41
1
10
3.63030508844776
20
8.55984455889126
30
0
41
1
10
3.60251558334298
20
8.54345652038279
30
0
41
1
10
3.54868553455259
20
8.50964929130038
30
0
41
1
10
3.52259159638248
20
8.49220268691795
30
0
41
1
10
3.44681779816085
20
8.43817913536014
30
0
41
1
10
3.39964246065699
20
8.39992064893542
30
0
41
1
10
3.26861084874631
20
8.27790800131055
30
0
41
1
10
3.19516532776297
20
8.18697223856347
30
0
41
1
10
3.13051897221783
20
8.07175742482826
30
0
41
1
10
3.12358559754477
20
8.05876925182369
30
0
41
1
10
3.11030552084316
20
8.03257393089396
30
0
41
1
10
3.09123457539437
20
7.99289968237017
30
0
41
1
10
3.07470435334682
20
7.95207949905469
30
0
41
1
10
3.04502446455484
20
7.86890259534178
30
0
41
1
10
3.02974137174707
20
7.81140372035537
30
0
41
1
10
2.9974870525615
20
7.63265634303698
30
0
41
1
10
2.99404162178735
20
7.50517837936761
30
0
41
1
10
3.01747283756012
20
7.30071330583036
30
0
41
1
10
3.02993777396091
20
7.23150503503885
30
0
41
1
10
3.06361365741503
20
7.09133134235643
30
0
41
1
10
3.08483004285824
20
7.02032940661198
30
0
41
1
10
3.13563054525352
20
6.87660760652042
30
0
41
1
10
3.16521557523817
20
6.80388762480754
30
0
41
1
10
3.20725707499776
20
6.71197573814882
30
0
41
1
10
3.21591863306222
20
6.69354273785115
30
0
41
1
10
3.23374494301243
20
6.65657693560519
30
0
41
1
10
3.24291992852972
20
6.63802410908019
30
0
41
1
10
3.27111735912871
20
6.58237065027345
30
0
41
1
10
3.29077913912431
20
6.54533504172471
30
0
41
1
10
3.39318938718049
20
6.36048785668385
30
0
41
1
10
3.48816427122972
20
6.21366419416464
30
0
41
1
10
3.64713418061083
20
5.9950287916817
30
0
41
1
10
3.70289087843057
20
5.92241793516956
30
0
41
1
10
3.81957066005003
20
5.77774198879115
30
0
41
1
10
3.88052727934382
20
5.70563973977869
30
0
41
1
10
4.07049037834827
20
5.49039878413117
30
0
41
1
10
4.204385209149
20
5.35074554941741
30
0
41
1
10
4.48400215873741
20
5.07791951330947
30
0
41
1
10
4.62974086786215
20
4.94475462662476
30
0
41
1
10
4.93120175709521
20
4.68405829877639
30
0
41
1
10
5.08693216057631
20
4.55653078433164
30
0
41
1
10
5.32695178554869
20
4.36894857504831
30
0
41
1
10
5.40803166801677
20
4.30704027728373
30
0
41
1
10
5.57218477289348
20
4.1843831787522
30
0
41
1
10
5.65487906972936
20
4.12391708708063
30
0
41
1
10
5.90456167596383
20
3.94492445959398
30
0
41
1
10
6.07318209910852
20
3.82876922272334
30
0
41
1
10
6.41399580028306
20
3.60169871018454
30
0
41
1
10
6.58619072814705
20
3.49078567608177
30
0
41
1
10
6.93353582974385
20
3.27328443959388
30
0
41
1
10
7.10868672049344
20
3.16669712883683
30
0
41
1
10
7.46142666592766
20
2.95707063177446
30
0
41
1
10
7.6390158712469
20
2.85403149905119
30
0
41
1
10
7.99620412126004
20
2.65085063785827
30
0
41
1
10
8.17580296885723
20
2.55070843594461
30
0
41
1
10
8.53667242392325
20
2.35280413566645
30
0
41
1
10
8.71794265648046
20
2.25504128892681
30
0
41
1
10
9.08191627702263
20
2.06153112073022
30
0
41
1
10
9.2646192692772
20
1.96578301993895
30
0
41
1
10
9.63133144851997
20
1.77611435956965
30
0
41
1
10
9.8153403628524
20
1.68219322208478
30
0
41
1
10
10
20
1.5891907811656
30
0
0
SPLINE
5
D3
100
AcDbEntity
8
1
62
256
6
ByLayer
370
18
48
1
60
0
100
AcDbSpline
70
4
71
3
72
14
73
10
40
0
40
0
40
0
40
0
40
0.250000000000004
40
0.250000000000004
40
0.500000000000003
40
0.500000000000003
40
0.750000000000002
40
0.750000000000002
40
1
40
1
40
1
40
1
41
1
10
13.0646037482181
20
0.331786121340997
30
0
41
1
10
12.8046512005642
20
0.426332282894606
30
0
41
1
10
12.5461602868177
20
0.524253735381564
30
0
41
1
10
12.0314992276146
20
0.725318431665698
30
0
41
1
10
11.7753269305942
20
0.828456740720554
30
0
41
1
10
11.2649063590496
20
1.03893837515548
30
0
41
1
10
11.0106568819081
20
1.14627921734811
30
0
41
1
10
10.5039484425388
20
1.36478941720594
30
0
41
1
10
10.2514894414191
20
1.47595919013952
30
0
41
1
10
10
20
1.5891907811656
30
0
0
SPLINE
5
D4
100
AcDbEntity
8
1
62
256
6
ByLayer
370
18
48
1
60
0
100
AcDbSpline
70
4
71
4
72
16
73
11
40
0
40
0
40
0
40
0
40
0
40
0.39963036448907
40
0.39963036448907
40
0.39963036448907
40
0.973141642373666
40
0.973141642373666
40
0.973141642373666
40
1
40
1
40
1
40
1
40
1
41
0.99679551798338
10
16.9688911842323
20
8.51943066384173
30
0
41
0.99471532976098
10
16.851810996654
20
7.59154687800509
30
0
41
0.99418985878938
10
16.643232132323
20
6.51161204247818
30
0
41
1
10
16.3524001543848
20
5.40235631710217
30
0
41
1
10
15.5985106971132
20
2.99918721819048
30
0
41
0.988033871712585
10
15.0167474662252
20
1.52222984397796
30
0
41
1
10
14.4349842353373
20
0.559166794248426
30
0
41
1
10
13.9698799596908
20
0.0910454026326022
30
0
41
0.999973756084304
10
13.9491722897036
20
0.0710215000708553
30
0
41
0.999924955373814
10
13.9285800295008
20
0.0519473726528903
30
0
41
0.999856939643086
10
13.9081185080528
20
0.033851181726165
30
0
0
SPLINE
5
D5
100
AcDbEntity
8
1
62
256
6
ByLayer
370
18
48
1
60
0
100
AcDbSpline
70
4
71
3
72
25
73
21
40
0
40
0
40
0
40
0
40
0.12499999999999
40
0.12499999999999
40
0.24999999999998
40
0.24999999999998
40
0.37499999999997
40
0.37499999999997
40
0.49999999999996
40
0.49999999999996
40
0.562499999999958
40
0.562499999999958
40
0.59374999999996
40
0.59374999999996
40
0.624999999999961
40
0.749999999999974
40
0.749999999999974
40
0.874999999999987
40
0.874999999999987
40
1
40
1
40
1
40
1
41
1
10
10.0000000000002
20
8.67021415360469
30
0
41
1
10
10.2967802674888
20
8.67318100751615
30
0
41
1
10
10.5929400961851
20
8.67492946496597
30
0
41
1
10
11.1841180450633
20
8.67672929272021
30
0
41
1
10
11.4791356218411
20
8.67677496383482
30
0
41
1
10
12.0681070927857
20
8.67529635362544
30
0
41
1
10
12.3620605695344
20
8.67376782592319
30
0
41
1
10
12.9489763028077
20
8.66881538924866
30
0
41
1
10
13.241938222312
20
8.6653873254223
30
0
41
1
10
13.6806962712188
20
8.6583312648238
30
0
41
1
10
13.8268348917425
20
8.65565804324251
30
0
41
1
10
14.045880038481
20
8.65109012493659
30
0
41
1
10
14.1188625297419
20
8.64947435753953
30
0
41
1
10
14.2644532412081
20
8.64605128834955
30
0
41
1
10
14.6277002293593
20
8.63701103336945
30
0
41
1
10
14.9874333981567
20
8.62540398022088
30
0
41
1
10
15.5592242828507
20
8.60279209277755
30
0
41
1
10
15.8432297105086
20
8.58946289606126
30
0
41
1
10
16.4081819412283
20
8.55810130047684
30
0
41
1
10
16.6891310268409
20
8.54006848639128
30
0
41
1
10
16.9688911842323
20
8.51943066384166
30
0
0
SPLINE
5
D6
100
AcDbEntity
8
SK1
62
256
6
ByLayer
370
18
48
1
60
0
100
AcDbSpline
70
4
71
3
72
32
73
28
40
0
40
0
40
0
40
0
40
0.124999999999998
40
0.124999999999998
40
0.249999999999995
40
0.249999999999995
40
0.374999999999994
40
0.374999999999994
40
0.437499999999993
40
0.437499999999993
40
0.499999999999992
40
0.499999999999992
40
0.624999999999988
40
0.624999999999988
40
0.656249999999988
40
0.656249999999988
40
0.687499999999988
40
0.687499999999988
40
0.74999999999999
40
0.74999999999999
40
0.874999999999995
40
0.874999999999995
40
0.906249999999996
40
0.906249999999996
40
0.937499999999998
40
0.937499999999998
40
1
40
1
40
1
40
1
41
1
10
-43.3565069115799
20
-3.65034953143106
30
0
41
1
10
-43.3331458400142
20
-3.71424193668162
30
0
41
1
10
-43.3079887114829
20
-3.77702079626832
30
0
41
1
10
-43.2534212788423
20
-3.90009490817781
30
0
41
1
10
-43.2240149751524
20
-3.96039186522651
30
0
41
1
10
-43.1600568886594
20
-4.07814914960466
30
0
41
1
10
-43.1255132756746
20
-4.13561297938583
30
0
41
1
10
-43.0688646453433
20
-4.21928792338744
30
0
41
1
10
-43.0491724017425
20
-4.24675781820287
30
0
41
1
10
-43.0079384175976
20
-4.30075945417201
30
0
41
1
10
-42.9863407519915
20
-4.32734895814056
30
0
41
1
10
-42.9191284528728
20
-4.40464696643178
30
0
41
1
10
-42.8709653357112
20
-4.45314968312832
30
0
41
1
10
-42.8054200814028
20
-4.509129269905
30
0
41
1
10
-42.7920414880158
20
-4.52009075475445
30
0
41
1
10
-42.7647046009874
20
-4.54151368998052
30
0
41
1
10
-42.7507137384423
20
-4.55199803198428
30
0
41
1
10
-42.7080552923505
20
-4.58246627252342
30
0
41
1
10
-42.6787844981831
20
-4.60141919352105
30
0
41
1
10
-42.588250922941
20
-4.65388326760876
30
0
41
1
10
-42.5243097226538
20
-4.68306815187688
30
0
41
1
10
-42.4386823815538
20
-4.71050598268181
30
0
41
1
10
-42.4212064346087
20
-4.71554997578619
30
0
41
1
10
-42.3860524535981
20
-4.72455026306568
30
0
41
1
10
-42.3683576016114
20
-4.72851630488563
30
0
41
1
10
-42.3149119913326
20
-4.73878190613445
30
0
41
1
10
-42.2788010667419
20
-4.74345326345804
30
0
41
1
10
-42.2421801837133
20
-4.74582511601491
30
0
0
SPLINE
5
D7
100
AcDbEntity
8
SK1
62
256
6
ByLayer
370
18
48
1
60
0
100
AcDbSpline
70
4
71
3
72
32
73
28
40
0
40
0
40
0
40
0
40
0.125000000000003
40
0.125000000000003
40
0.156250000000003
40
0.156250000000003
40
0.187500000000004
40
0.187500000000004
40
0.250000000000005
40
0.250000000000005
40
0.312500000000005
40
0.312500000000005
40
0.343750000000005
40
0.343750000000005
40
0.375000000000006
40
0.375000000000006
40
0.500000000000003
40
0.500000000000003
40
0.625
40
0.625
40
0.6875
40
0.6875
40
0.749999999999999
40
0.749999999999999
40
0.875
40
0.875
40
1
40
1
40
1
40
1
41
1
10
-42.2421801837133
20
4.74582511601491
30
0
41
1
10
-42.3153322469605
20
4.74108722075121
30
0
41
1
10
-42.3858382182456
20
4.7272872503076
30
0
41
1
10
-42.4711061087408
20
4.70015187597528
30
0
41
1
10
-42.48801508965
20
4.69422552159887
30
0
41
1
10
-42.5215500807622
20
4.68139247012627
30
0
41
1
10
-42.538108088977
20
4.67450874413797
30
0
41
1
10
-42.5867495214037
20
4.65272655031879
30
0
41
1
10
-42.6179919315484
20
4.63663028483114
30
0
41
1
10
-42.6784054316375
20
4.60165673094545
30
0
41
1
10
-42.707575323895
20
4.58277786641952
30
0
41
1
10
-42.7499378830322
20
4.55256723042981
30
0
41
1
10
-42.7638261651476
20
4.54218093900309
30
0
41
1
10
-42.7911594285605
20
4.52080182261719
30
0
41
1
10
-42.8046315534326
20
4.50978473494575
30
0
41
1
10
-42.8704332773146
20
4.45367358335039
30
0
41
1
10
-42.9183823606968
20
4.40538606397868
30
0
41
1
10
-43.007200043589
20
4.30347549467811
30
0
41
1
10
-43.0480454261384
20
4.2498368571521
30
0
41
1
10
-43.1050091824334
20
4.16599396786131
30
0
41
1
10
-43.1233071500575
20
4.13742383693679
30
0
41
1
10
-43.1584042823022
20
4.07953032751405
30
0
41
1
10
-43.1751994309136
20
4.05022195040382
30
0
41
1
10
-43.2235710813646
20
3.96130068776944
30
0
41
1
10
-43.2531438067293
20
3.90069540381026
30
0
41
1
10
-43.3079263511211
20
3.77718661911314
30
0
41
1
10
-43.3331314373585
20
3.7142813278675
30
0
41
1
10
-43.3565069115799
20
3.65034953143106
30
0
0
SPLINE
5
D8
100
AcDbEntity
8
SK1
62
256
6
ByLayer
370
18
48
1
60
0
100
AcDbSpline
70
4
71
3
72
30
73
26
40
0
40
0
40
0
40
0
40
0.124999999999979
40
0.124999999999979
40
0.249999999999958
40
0.249999999999958
40
0.374999999999936
40
0.374999999999936
40
0.437499999999926
40
0.437499999999926
40
0.499999999999916
40
0.499999999999916
40
0.624999999999908
40
0.624999999999908
40
0.656249999999909
40
0.656249999999909
40
0.68749999999991
40
0.68749999999991
40
0.749999999999925
40
0.749999999999925
40
0.874999999999955
40
0.874999999999955
40
0.937499999999978
40
0.937499999999978
40
1
40
1
40
1
40
1
41
1
10
-13.8451406288876
20
5.60819856978108
30
0
41
1
10
-13.8759395902576
20
5.65059861248182
30
0
41
1
10
-13.9086043985849
20
5.69152013904011
30
0
41
1
10
-13.97811386775
20
5.77019024979575
30
0
41
1
10
-14.014955839279
20
5.80794050815649
30
0
41
1
10
-14.0934302354091
20
5.87995203844818
30
0
41
1
10
-14.1350574932389
20
5.91421654427231
30
0
41
1
10
-14.2017568377706
20
5.9626308553903
30
0
41
1
10
-14.2245427507748
20
5.97815093867467
30
0
41
1
10
-14.271111369383
20
6.00780504420359
30
0
41
1
10
-14.2949186549204
20
6.02195716348245
30
0
41
1
10
-14.3679929543377
20
6.06230994483028
30
0
41
1
10
-14.4189025587777
20
6.08641928516369
30
0
41
1
10
-14.4856782999412
20
6.11265441828212
30
0
41
1
10
-14.4991911565357
20
6.11770540783806
30
0
41
1
10
-14.5265457311327
20
6.12740066932034
30
0
41
1
10
-14.5403907312758
20
6.13204445753533
30
0
41
1
10
-14.5820565255816
20
6.14522762072318
30
0
41
1
10
-14.6101298025697
20
6.1530644585383
30
0
41
1
10
-14.6952537679042
20
6.17368858860661
30
0
41
1
10
-14.7532042147282
20
6.18360487337517
30
0
41
1
10
-14.8420639597241
20
6.19236276786617
30
0
41
1
10
-14.8721089186227
20
6.1942576600421
30
0
41
1
10
-14.9321260265236
20
6.19588455534111
30
0
41
1
10
-14.9621459212296
20
6.19562887243728
30
0
41
1
10
-14.9921771997116
20
6.19429975368809
30
0
0
SPLINE
5
D9
100
AcDbEntity
8
SK1
62
256
6
ByLayer
370
18
48
1
60
0
100
AcDbSpline
70
4
71
3
72
29
73
25
40
0
40
0
40
0
40
0
40
0.125000000000045
40
0.125000000000045
40
0.25000000000009
40
0.25000000000009
40
0.281250000000093
40
0.281250000000093
40
0.312500000000097
40
0.375000000000092
40
0.375000000000092
40
0.500000000000084
40
0.500000000000084
40
0.562500000000073
40
0.562500000000073
40
0.625000000000062
40
0.625000000000062
40
0.750000000000038
40
0.750000000000038
40
0.875000000000015
40
0.875000000000015
40
0.937500000000008
40
0.937500000000008
40
1
40
1
40
1
40
1
41
1
10
-14.9921771997116
20
-6.19429975368809
30
0
41
1
10
-14.9320573843484
20
-6.19696052531805
30
0
41
1
10
-14.8726744232101
20
-6.19530622075879
30
0
41
1
10
-14.7552923361598
20
-6.18388224594813
30
0
41
1
10
-14.6972937188803
20
-6.17410945589265
30
0
41
1
10
-14.6256493001772
20
-6.15684175670819
30
0
41
1
10
-14.6113371248737
20
-6.15312631775188
30
0
41
1
10
-14.5830607924918
20
-6.14526136952958
30
0
41
1
10
-14.5410867139313
20
-6.13279564418732
30
0
41
1
10
-14.500383626949
20
-6.118393573753
30
0
41
1
10
-14.4205661285236
20
-6.08714648466275
30
0
41
1
10
-14.3694669105832
20
-6.06306708368854
30
0
41
1
10
-14.2956992221607
20
-6.02241573888855
30
0
41
1
10
-14.2715415923124
20
-6.00806907471573
30
0
41
1
10
-14.2247924605031
20
-5.97831973436635
30
0
41
1
10
-14.2021202056678
20
-5.96287721339851
30
0
41
1
10
-14.1360355381032
20
-5.91496059376203
30
0
41
1
10
-14.0945476428777
20
-5.88090305019935
30
0
41
1
10
-14.0160214797599
20
-5.80899071657845
30
0
41
1
10
-13.9789867514485
20
-5.77113330484545
30
0
41
1
10
-13.9264169069796
20
-5.7117020344985
30
0
41
1
10
-13.9093970751005
20
-5.69145219620981
30
0
41
1
10
-13.8764815896183
20
-5.65032851626569
30
0
41
1
10
-13.8605603440826
20
-5.62942644739971
30
0
41
1
10
-13.845140628887
20
-5.60819856978154
30
0
0
SPLINE
5
DA
100
AcDbEntity
8
1
62
256
6
ByLayer
370
13
48
1
60
0
100
AcDbSpline
70
4
71
3
72
40
73
36
40
0
40
0
40
0
40
0
40
0.0625000000000004
40
0.0625000000000004
40
0.125000000000001
40
0.125000000000001
40
0.187500000000001
40
0.187500000000001
40
0.250000000000002
40
0.250000000000002
40
0.312500000000002
40
0.312500000000002
40
0.343750000000003
40
0.343750000000003
40
0.375000000000003
40
0.375000000000003
40
0.437500000000003
40
0.437500000000003
40
0.500000000000002
40
0.500000000000002
40
0.562500000000002
40
0.562500000000002
40
0.625000000000002
40
0.625000000000002
40
0.687500000000001
40
0.687500000000001
40
0.750000000000001
40
0.750000000000001
40
0.812500000000001
40
0.812500000000001
40
0.875000000000001
40
0.875000000000001
40
0.9375
40
0.9375
40
1
40
1
40
1
40
1
41
1
10
163.6
20
-6.61090328596956
30
0
41
1
10
163.676387729135
20
-6.28978811385383
30
0
41
1
10
163.75277545827
20
-5.94060105492235
30
0
41
1
10
163.905550916541
20
-5.19947718787748
30
0
41
1
10
163.981938645676
20
-4.80760551371054
30
0
41
1
10
164.134714103946
20
-3.99721691554714
30
0
41
1
10
164.211101833082
20
-3.57876849948599
30
0
41
1
10
164.363877291352
20
-2.73187869069176
30
0
41
1
10
164.440265020487
20
-2.30349306934829
30
0
41
1
10
164.593040478758
20
-1.45200642117334
30
0
41
1
10
164.669428207893
20
-1.02893900086838
30
0
41
1
10
164.784009801596
20
-0.407701385946325
30
0
41
1
10
164.822203666163
20
-0.202824975915064
30
0
41
1
10
164.898591395299
20
0.201275053649937
30
0
41
1
10
164.936785259866
20
0.406124123430146
30
0
41
1
10
165.051366853569
20
1.02732806677059
30
0
41
1
10
165.127754582704
20
1.45037999538977
30
0
41
1
10
165.280530040975
20
2.30185359203958
30
0
41
1
10
165.35691777011
20
2.73024168424914
30
0
41
1
10
165.509693228381
20
3.57715716003366
30
0
41
1
10
165.586080957516
20
3.99562879633629
30
0
41
1
10
165.738856415786
20
4.80608520877928
30
0
41
1
10
165.815244144921
20
5.19800148393162
30
0
41
1
10
165.968019603192
20
5.93923392558884
30
0
41
1
10
166.044407332327
20
6.28848494238468
30
0
41
1
10
166.197182790597
20
6.93085804276399
30
0
41
1
10
166.273570519733
20
7.2239352936011
30
0
41
1
10
166.426345978003
20
7.74472910985889
30
0
41
1
10
166.502733707138
20
7.97243181340215
30
0
41
1
10
166.655509165409
20
8.35845459445338
30
0
41
1
10
166.731896894544
20
8.5167919594507
30
0
41
1
10
166.884672352814
20
8.76521093260379
30
0
41
1
10
166.96106008195
20
8.85533188904668
30
0
41
1
10
167.11383554022
20
8.97270231717488
30
0
41
1
10
167.190223269355
20
9
30
0
41
1
10
167.26661099849
20
9
30
0
0
SPLINE
5
DB
100
AcDbEntity
8
1
62
256
6
ByLayer
370
13
48
1
60
0
100
AcDbSpline
70
4
71
3
72
78
73
74
40
0
40
0
40
0
40
0
40
0.0312499999999986
40
0.0312499999999986
40
0.0624999999999972
40
0.0624999999999972
40
0.0937499999999958
40
0.0937499999999958
40
0.124999999999994
40
0.124999999999994
40
0.156249999999993
40
0.156249999999993
40
0.187499999999992
40
0.187499999999992
40
0.21874999999999
40
0.21874999999999
40
0.249999999999989
40
0.249999999999989
40
0.281249999999987
40
0.281249999999987
40
0.312499999999986
40
0.312499999999986
40
0.343749999999985
40
0.343749999999985
40
0.374999999999983
40
0.374999999999983
40
0.406249999999982
40
0.406249999999982
40
0.43749999999998
40
0.43749999999998
40
0.45312499999998
40
0.45312499999998
40
0.46093749999998
40
0.46093749999998
40
0.46874999999998
40
0.46874999999998
40
0.49999999999998
40
0.49999999999998
40
0.531249999999981
40
0.531249999999981
40
0.562499999999982
40
0.562499999999982
40
0.593749999999983
40
0.593749999999983
40
0.624999999999984
40
0.624999999999984
40
0.656249999999984
40
0.656249999999984
40
0.687499999999985
40
0.687499999999985
40
0.718749999999986
40
0.718749999999986
40
0.749999999999987
40
0.749999999999987
40
0.781249999999988
40
0.781249999999988
40
0.812499999999989
40
0.812499999999989
40
0.843749999999989
40
0.843749999999989
40
0.87499999999999
40
0.87499999999999
40
0.906249999999991
40
0.906249999999991
40
0.921874999999992
40
0.921874999999992
40
0.929687499999992
40
0.929687499999992
40
0.937499999999993
40
0.937499999999993
40
0.968749999999996
40
0.968749999999996
40
1
40
1
40
1
40
1
41
1
10
168.068243511959
20
9
30
0
41
1
10
168.121952099247
20
9
30
0
41
1
10
168.175660686535
20
8.98652782403636
30
0
41
1
10
168.283077861111
20
8.9296843557587
30
0
41
1
10
168.336786448399
20
8.88630470172052
30
0
41
1
10
168.444203622975
20
8.76727207103957
30
0
41
1
10
168.497912210263
20
8.69161109781794
30
0
41
1
10
168.605329384839
20
8.50648702235731
30
0
41
1
10
168.659037972126
20
8.39701741013198
30
0
41
1
10
168.766455146702
20
8.14381475687682
30
0
41
1
10
168.82016373399
20
8.00007783444266
30
0
41
1
10
168.927580908566
20
7.67910699794666
30
0
41
1
10
168.981289495854
20
7.50187274126267
30
0
41
1
10
169.08870667043
20
7.1159679623882
30
0
41
1
10
169.142415257718
20
6.90730106444562
30
0
41
1
10
169.249832432294
20
6.46183788788778
30
0
41
1
10
169.303541019582
20
6.22504898406984
30
0
41
1
10
169.410958194158
20
5.72772834684767
30
0
41
1
10
169.464666781446
20
5.46720687318981
30
0
41
1
10
169.572083956022
20
4.9276188427713
30
0
41
1
10
169.62579254331
20
4.64856408536897
30
0
41
1
10
169.733209717886
20
4.07758195976658
30
0
41
1
10
169.786918305174
20
3.78566640032068
30
0
41
1
10
169.89433547975
20
3.19474975937973
30
0
41
1
10
169.948044067038
20
2.89575910533128
30
0
41
1
10
170.055461241614
20
2.29625528327821
30
0
41
1
10
170.109169828902
20
1.99575016429409
30
0
41
1
10
170.216587003478
20
1.39827575503048
30
0
41
1
10
170.270295590766
20
1.10131165291102
30
0
41
1
10
170.350858471698
20
0.66178266980674
30
0
41
1
10
170.377712765342
20
0.5162532308089
30
0
41
1
10
170.417994205808
20
0.299780190617014
30
0
41
1
10
170.43142135263
20
0.22792562492404
30
0
41
1
10
170.458275646274
20
0.0848762736171125
30
0
41
1
10
170.471702793096
20
0.0139049064111987
30
0
41
1
10
170.538838527206
20
-0.342164837254586
30
0
41
1
10
170.592547114493
20
-0.632520952710536
30
0
41
1
10
170.699964289069
20
-1.22058936636409
30
0
41
1
10
170.753672876358
20
-1.51829895756333
30
0
41
1
10
170.861090050933
20
-2.11662326881239
30
0
41
1
10
170.914798638221
20
-2.4172324072758
30
0
41
1
10
171.022215812797
20
-3.01622181538451
30
0
41
1
10
171.075924400085
20
-3.31459367686398
30
0
41
1
10
171.183341574661
20
-3.90350208766836
30
0
41
1
10
171.237050161949
20
-4.1940279555339
30
0
41
1
10
171.344467336525
20
-4.76145452092126
30
0
41
1
10
171.398175923813
20
-5.03834332394854
30
0
41
1
10
171.505593098389
20
-5.5728657213092
30
0
41
1
10
171.559301685677
20
-5.83048763473889
30
0
41
1
10
171.666718860253
20
-6.32136547854367
30
0
41
1
10
171.720427447541
20
-6.55461146630685
30
0
41
1
10
171.827844622117
20
-6.99247618831325
30
0
41
1
10
171.881553209405
20
-7.19708801438634
30
0
41
1
10
171.988970383981
20
-7.57453008985993
30
0
41
1
10
172.042678971269
20
-7.74735725018121
30
0
41
1
10
172.150096145845
20
-8.05933504602098
30
0
41
1
10
172.203804733133
20
-8.19848653712378
30
0
41
1
10
172.311221907709
20
-8.44251076749885
30
0
41
1
10
172.364930494997
20
-8.54738780194555
30
0
41
1
10
172.472347669573
20
-8.723473847154
30
0
41
1
10
172.526056256861
20
-8.79468963589375
30
0
41
1
10
172.633473431436
20
-8.90510673140562
30
0
41
1
10
172.687182018725
20
-8.9443161459472
30
0
41
1
10
172.767744899656
20
-8.98097078792517
30
0
41
1
10
172.7945991933
20
-8.98950133545856
30
0
41
1
10
172.834880633766
20
-8.99703782292625
30
0
41
1
10
172.848307780588
20
-8.99867368019878
30
0
41
1
10
172.875162074232
20
-9.00024082662193
30
0
41
1
10
172.888589221054
20
-9.00017873036202
30
0
41
1
10
172.955724955164
20
-8.99562625729189
30
0
41
1
10
173.009433542452
20
-8.97829973085558
30
0
41
1
10
173.116850717028
20
-8.91338849362538
30
0
41
1
10
173.170559304316
20
-8.86579541109131
30
0
41
1
10
173.224267891604
20
-8.80193578258306
30
0
0
SPLINE
5
DC
100
AcDbEntity
8
1
62
256
6
ByLayer
370
13
48
1
60
0
100
AcDbSpline
70
4
71
3
72
42
73
38
40
0
40
0
40
0
40
0
40
0.0625000000000027
40
0.0625000000000027
40
0.125000000000005
40
0.125000000000005
40
0.187500000000008
40
0.187500000000008
40
0.21875000000001
40
0.21875000000001
40
0.23437500000001
40
0.23437500000001
40
0.25000000000001
40
0.25000000000001
40
0.312500000000009
40
0.312500000000009
40
0.375000000000008
40
0.375000000000008
40
0.437500000000008
40
0.437500000000008
40
0.500000000000007
40
0.500000000000007
40
0.562500000000006
40
0.562500000000006
40
0.625000000000005
40
0.625000000000005
40
0.687500000000004
40
0.687500000000004
40
0.750000000000003
40
0.750000000000003
40
0.812500000000003
40
0.812500000000003
40
0.875000000000002
40
0.875000000000002
40
0.937500000000001
40
0.937500000000001
40
1
40
1
40
1
40
1
41
1
10
163.6
20
-4.1990084489681
30
0
41
1
10
163.666044573972
20
-3.84505914025522
30
0
41
1
10
163.732089147943
20
-3.48223700105757
30
0
41
1
10
163.864178295886
20
-2.74949281768539
30
0
41
1
10
163.930222869857
20
-2.3795974875159
30
0
41
1
10
164.0623120178
20
-1.64261797187052
30
0
41
1
10
164.128356591772
20
-1.27555124047987
30
0
41
1
10
164.227423452729
20
-0.733388059407275
30
0
41
1
10
164.260445739715
20
-0.554060057171739
30
0
41
1
10
164.309979170193
20
-0.287818948551177
30
0
41
1
10
164.326490313686
20
-0.199529472051495
30
0
41
1
10
164.359512600672
20
-0.0239646393648627
30
0
41
1
10
164.376023744165
20
0.0631438355805471
30
0
41
1
10
164.458579461629
20
0.50280674206266
30
0
41
1
10
164.5246240356
20
0.86260972851403
30
0
41
1
10
164.656713183543
20
1.59123967130142
30
0
41
1
10
164.722757757515
20
1.96005632092991
30
0
41
1
10
164.854846905458
20
2.6978205184831
30
0
41
1
10
164.920891479429
20
3.06674777038691
30
0
41
1
10
165.052980627372
20
3.79452825179385
30
0
41
1
10
165.119025201343
20
4.15335260581006
30
0
41
1
10
165.251114349286
20
4.85015625010971
30
0
41
1
10
165.317158923258
20
5.18810215521273
30
0
41
1
10
165.449248071201
20
5.83276397537637
30
0
41
1
10
165.515292645172
20
6.13944801180582
30
0
41
1
10
165.647381793115
20
6.71259085658428
30
0
41
1
10
165.713426367087
20
6.97902556319659
30
0
41
1
10
165.845515515029
20
7.4649275208939
30
0
41
1
10
165.911560089001
20
7.68438295353477
30
0
41
1
10
166.043649236944
20
8.07239090276423
30
0
41
1
10
166.109693810915
20
8.24094522482065
30
0
41
1
10
166.241782958858
20
8.52617433243773
30
0
41
1
10
166.30782753283
20
8.64286257826871
30
0
41
1
10
166.439916680773
20
8.8261023174
30
0
41
1
10
166.505961254744
20
8.89267470383348
30
0
41
1
10
166.638050402687
20
8.97961181413584
30
0
41
1
10
166.704094976658
20
9
30
0
41
1
10
166.77013955063
20
9
30
0
0
SPLINE
5
DD
100
AcDbEntity
8
1
62
256
6
ByLayer
370
13
48
1
60
0
100
AcDbSpline
70
4
71
3
72
77
73
73
40
0
40
0
40
0
40
0
40
0.0312500000000006
40
0.0312500000000006
40
0.0625000000000013
40
0.0625000000000013
40
0.0937500000000019
40
0.0937500000000019
40
0.125000000000003
40
0.125000000000003
40
0.156250000000003
40
0.156250000000003
40
0.187500000000004
40
0.187500000000004
40
0.218750000000004
40
0.218750000000004
40
0.250000000000005
40
0.250000000000005
40
0.281250000000005
40
0.281250000000005
40
0.312500000000006
40
0.312500000000006
40
0.343750000000007
40
0.343750000000007
40
0.375000000000007
40
0.375000000000007
40
0.406250000000008
40
0.406250000000008
40
0.421875000000008
40
0.421875000000008
40
0.429687500000008
40
0.429687500000008
40
0.437500000000008
40
0.437500000000008
40
0.468750000000007
40
0.468750000000007
40
0.500000000000007
40
0.500000000000007
40
0.531250000000007
40
0.531250000000007
40
0.562500000000006
40
0.562500000000006
40
0.593750000000006
40
0.593750000000006
40
0.625000000000005
40
0.625000000000005
40
0.656250000000005
40
0.656250000000005
40
0.687500000000004
40
0.687500000000004
40
0.718750000000004
40
0.718750000000004
40
0.750000000000003
40
0.750000000000003
40
0.781250000000003
40
0.781250000000003
40
0.812500000000002
40
0.812500000000002
40
0.843750000000002
40
0.843750000000002
40
0.851562500000002
40
0.851562500000002
40
0.859375000000002
40
0.875000000000002
40
0.875000000000002
40
0.906250000000002
40
0.906250000000002
40
0.937500000000001
40
0.937500000000001
40
0.968750000000001
40
0.968750000000001
40
1
40
1
40
1
40
1
41
1
10
167.571772064098
20
9
30
0
41
1
10
167.630652228968
20
9
30
0
41
1
10
167.689532393838
20
8.98380335542595
30
0
41
1
10
167.807292723578
20
8.91515563717172
30
0
41
1
10
167.866172888447
20
8.86269132276882
30
0
41
1
10
167.983933218187
20
8.71851824697524
30
0
41
1
10
168.042813383057
20
8.62679714970099
30
0
41
1
10
168.160573712797
20
8.40240748637362
30
0
41
1
10
168.219453877667
20
8.26972965351894
30
0
41
1
10
168.337214207406
20
7.96334315992962
30
0
41
1
10
168.396094372276
20
7.78963038611823
30
0
41
1
10
168.513854702016
20
7.40291877429976
30
0
41
1
10
168.572734866886
20
7.18992239491246
30
0
41
1
10
168.690495196626
20
6.72824585563765
30
0
41
1
10
168.749375361495
20
6.47957496774592
30
0
41
1
10
168.867135691235
20
5.95183287209971
30
0
41
1
10
168.926015856105
20
5.67277660821878
30
0
41
1
10
169.043776185845
20
5.09085939770054
30
0
41
1
10
169.102656350714
20
4.78801676442254
30
0
41
1
10
169.220416680454
20
4.16592591684403
30
0
41
1
10
169.279296845324
20
3.84669651499078
30
0
41
1
10
169.397057175064
20
3.19946643544679
30
0
41
1
10
169.455937339934
20
2.87148236841125
30
0
41
1
10
169.573697669673
20
2.21407108896255
30
0
41
1
10
169.632577834543
20
1.88465636047957
30
0
41
1
10
169.750338164283
20
1.23096272167254
30
0
41
1
10
169.809218329153
20
0.906691308095162
30
0
41
1
10
169.897538576457
20
0.428281865884827
30
0
41
1
10
169.926978658892
20
0.270136116958412
30
0
41
1
10
169.971138782545
20
0.0353372519254265
30
0
41
1
10
169.985858823762
20
-0.042330243377279
30
0
41
1
10
170.015298906197
20
-0.198910867542168
30
0
41
1
10
170.030018947415
20
-0.27760286865535
30
0
41
1
10
170.103619153502
20
-0.672896215896827
30
0
41
1
10
170.162499318372
20
-0.995043767507866
30
0
41
1
10
170.280259648111
20
-1.64593266574872
30
0
41
1
10
170.339139812981
20
-1.97466773614315
30
0
41
1
10
170.456900142721
20
-2.63239579591618
30
0
41
1
10
170.515780307591
20
-2.96137747346751
30
0
41
1
10
170.633540637331
20
-3.6124253931724
30
0
41
1
10
170.692420802201
20
-3.93447588714159
30
0
41
1
10
170.81018113194
20
-4.56405990958325
30
0
41
1
10
170.86906129681
20
-4.87157493288166
30
0
41
1
10
170.98682162655
20
-5.46457969218315
30
0
41
1
10
171.04570179142
20
-5.75005072432796
30
0
41
1
10
171.163462121159
20
-6.29212114553118
30
0
41
1
10
171.222342286029
20
-6.54870452845509
30
0
41
1
10
171.340102615769
20
-7.0273471829739
30
0
41
1
10
171.398982780639
20
-7.24939565093695
30
0
41
1
10
171.516743110379
20
-7.6549210651078
30
0
41
1
10
171.575623275248
20
-7.8383938702431
30
0
41
1
10
171.693383604988
20
-8.16455423121806
30
0
41
1
10
171.752263769858
20
-8.30724439875939
30
0
41
1
10
171.870024099598
20
-8.55148140393226
30
0
41
1
10
171.928904264467
20
-8.65303643460561
30
0
41
1
10
172.046664594207
20
-8.81633307544766
30
0
41
1
10
172.105544759077
20
-8.87808648212209
30
0
41
1
10
172.223305088817
20
-8.96448974082256
30
0
41
1
10
172.282185253686
20
-8.98915279810802
30
0
41
1
10
172.355785459774
20
-8.99910833781499
30
0
41
1
10
172.370505500991
20
-9.00005771429076
30
0
41
1
10
172.399945583426
20
-8.99993687023363
30
0
41
1
10
172.444105707078
20
-8.9967214103512
30
0
41
1
10
172.488265830731
20
-8.98411008538514
30
0
41
1
10
172.576586078036
20
-8.94563478779835
30
0
41
1
10
172.635466242905
20
-8.90228189982625
30
0
41
1
10
172.753226572645
20
-8.77695302536026
30
0
41
1
10
172.812106737515
20
-8.69496429309925
30
0
41
1
10
172.929867067255
20
-8.49031468403382
30
0
41
1
10
172.988747232125
20
-8.36764359212773
30
0
41
1
10
173.106507561864
20
-8.08112815369319
30
0
41
1
10
173.165387726734
20
-7.91727827861996
30
0
41
1
10
173.224267891604
20
-7.73348735886583
30
0
0
SPLINE
5
DE
100
AcDbEntity
8
1
62
256
6
ByLayer
370
13
48
1
60
0
100
AcDbSpline
70
4
71
3
72
42
73
38
40
0
40
0
40
0
40
0
40
0.0624999999999972
40
0.0624999999999972
40
0.0937499999999953
40
0.0937499999999953
40
0.109374999999995
40
0.109374999999995
40
0.124999999999994
40
0.124999999999994
40
0.187499999999995
40
0.187499999999995
40
0.249999999999995
40
0.249999999999995
40
0.312499999999996
40
0.312499999999996
40
0.374999999999996
40
0.374999999999996
40
0.437499999999996
40
0.437499999999996
40
0.499999999999997
40
0.499999999999997
40
0.562499999999997
40
0.562499999999997
40
0.624999999999998
40
0.624999999999998
40
0.687499999999998
40
0.687499999999998
40
0.749999999999998
40
0.749999999999998
40
0.812499999999999
40
0.812499999999999
40
0.874999999999999
40
0.874999999999999
40
0.9375
40
0.9375
40
1
40
1
40
1
40
1
41
1
10
163.6
20
-1.45365067828109
30
0
41
1
10
163.655701418808
20
-1.14499009599919
30
0
41
1
10
163.711402837615
20
-0.838916352676677
30
0
41
1
10
163.794954965827
20
-0.38712889528
30
0
41
1
10
163.822805675231
20
-0.237746411135646
30
0
41
1
10
163.864581739337
20
-0.0158560870116276
30
0
41
1
10
163.878507094038
20
0.0576475183173102
30
0
41
1
10
163.906357803442
20
0.205846681348987
30
0
41
1
10
163.920283158144
20
0.280304296015032
30
0
41
1
10
163.989909931654
20
0.654234082097901
30
0
41
1
10
164.045611350462
20
0.958668465431884
30
0
41
1
10
164.157014188077
20
1.57371708154682
30
0
41
1
10
164.212715606885
20
1.88432677066649
30
0
41
1
10
164.3241184445
20
2.50643249883149
30
0
41
1
10
164.379819863308
20
2.81792037608506
30
0
41
1
10
164.491222700923
20
3.43578916390419
30
0
41
1
10
164.546924119731
20
3.74215862085185
30
0
41
1
10
164.658326957346
20
4.3433936129172
30
0
41
1
10
164.714028376154
20
4.63824542556921
30
0
41
1
10
164.825431213769
20
5.2100268532605
30
0
41
1
10
164.881132632577
20
5.48694211065163
30
0
41
1
10
164.992535470192
20
6.01683889820629
30
0
41
1
10
165.048236889
20
6.26980739052195
30
0
41
1
10
165.159639726615
20
6.74662454024369
30
0
41
1
10
165.215341145423
20
6.97046332652963
30
0
41
1
10
165.326743983039
20
7.3850108860002
30
0
41
1
10
165.382445401846
20
7.57571425921023
30
0
41
1
10
165.493848239461
20
7.92139019735021
30
0
41
1
10
165.549549658269
20
8.07636230635879
30
0
41
1
10
165.660952495884
20
8.34947312229258
30
0
41
1
10
165.716653914692
20
8.4676159103366
30
0
41
1
10
165.828056752308
20
8.66740694522244
30
0
41
1
10
165.883758171115
20
8.74906271223293
30
0
41
1
10
165.995161008731
20
8.87748121108999
30
0
41
1
10
166.050862427539
20
8.92425344811119
30
0
41
1
10
166.162265265154
20
8.98550782566267
30
0
41
1
10
166.217966683961
20
9
30
0
41
1
10
166.273668102769
20
9
30
0
0
SPLINE
5
DF
100
AcDbEntity
8
1
62
256
6
ByLayer
370
13
48
1
60
0
100
AcDbSpline
70
4
71
3
72
77
73
73
40
0
40
0
40
0
40
0
40
0.031250000000001
40
0.031250000000001
40
0.0625000000000021
40
0.0625000000000021
40
0.0937500000000031
40
0.0937500000000031
40
0.125000000000004
40
0.125000000000004
40
0.156250000000005
40
0.156250000000005
40
0.187500000000006
40
0.187500000000006
40
0.218750000000007
40
0.218750000000007
40
0.250000000000008
40
0.250000000000008
40
0.28125000000001
40
0.28125000000001
40
0.312500000000011
40
0.312500000000011
40
0.343750000000012
40
0.343750000000012
40
0.375000000000013
40
0.375000000000013
40
0.390625000000013
40
0.390625000000013
40
0.398437500000014
40
0.398437500000014
40
0.406250000000014
40
0.406250000000014
40
0.437500000000013
40
0.437500000000013
40
0.468750000000012
40
0.468750000000012
40
0.500000000000012
40
0.500000000000012
40
0.531250000000011
40
0.531250000000011
40
0.562500000000011
40
0.562500000000011
40
0.59375000000001
40
0.59375000000001
40
0.625000000000009
40
0.625000000000009
40
0.656250000000009
40
0.656250000000009
40
0.687500000000008
40
0.687500000000008
40
0.718750000000008
40
0.718750000000008
40
0.750000000000007
40
0.750000000000007
40
0.781250000000006
40
0.781250000000006
40
0.789062500000006
40
0.789062500000006
40
0.796875000000006
40
0.812500000000006
40
0.812500000000006
40
0.843750000000005
40
0.843750000000005
40
0.875000000000004
40
0.875000000000004
40
0.906250000000003
40
0.906250000000003
40
0.937500000000002
40
0.937500000000002
40
0.968750000000001
40
0.968750000000001
40
1
40
1
40
1
40
1
41
1
10
167.075300616238
20
9
30
0
41
1
10
167.139352358689
20
9
30
0
41
1
10
167.203404101141
20
8.98082645502276
30
0
41
1
10
167.331507586045
20
8.8992041170128
30
0
41
1
10
167.395559328496
20
8.83673517817724
30
0
41
1
10
167.5236628134
20
8.6648592819385
30
0
41
1
10
167.587714555852
20
8.55543413716214
30
0
41
1
10
167.715818040755
20
8.28787490189762
30
0
41
1
10
167.779869783207
20
8.12972850722568
30
0
41
1
10
167.90797326811
20
7.76532053470865
30
0
41
1
10
167.972025010562
20
7.55905605543077
30
0
41
1
10
168.100128495465
20
7.10161112040052
30
0
41
1
10
168.164180237917
20
6.85043904238495
30
0
41
1
10
168.292283722821
20
6.30890654019723
30
0
41
1
10
168.356335465272
20
6.01856511441966
30
0
41
1
10
168.484438950176
20
5.40653408463993
30
0
41
1
10
168.548490692627
20
5.08487085947795
30
0
41
1
10
168.676594177531
20
4.41945346450694
30
0
41
1
10
168.740645919983
20
4.07572815139847
30
0
41
1
10
168.868749404886
20
3.3760123547215
30
0
41
1
10
168.932801147338
20
3.02004814217997
30
0
41
1
10
169.060904632241
20
2.30540283851565
30
0
41
1
10
169.124956374693
20
1.94674162053172
30
0
41
1
10
169.253059859596
20
1.23526779722101
30
0
41
1
10
169.317111602048
20
0.882466875387536
30
0
41
1
10
169.413189215726
20
0.362980223990974
30
0
41
1
10
169.445215086952
20
0.191424674549182
30
0
41
1
10
169.493253893791
20
-0.0629515548494624
30
0
41
1
10
169.509266829404
20
-0.14792437527305
30
0
41
1
10
169.541292700629
20
-0.319078318123587
30
0
41
1
10
169.557305636242
20
-0.405111164883977
30
0
41
1
10
169.637370314307
20
-0.837321343201495
30
0
41
1
10
169.701422056759
20
-1.18970000112725
30
0
41
1
10
169.829525541662
20
-1.90066624133041
30
0
41
1
10
169.893577284114
20
-2.2592424999873
30
0
41
1
10
170.021680769017
20
-2.97410960886751
30
0
41
1
10
170.085732511469
20
-3.33038091627333
30
0
41
1
10
170.213835996372
20
-4.031131994605
30
0
41
1
10
170.277887738824
20
-4.37558570386659
30
0
41
1
10
170.405991223728
20
-5.0428764866308
30
0
41
1
10
170.47004296618
20
-5.3656847150491
30
0
41
1
10
170.598146451083
20
-5.98038040581207
30
0
41
1
10
170.662198193535
20
-6.27224127535516
30
0
41
1
10
170.790301678438
20
-6.81711092292897
30
0
41
1
10
170.85435342089
20
-7.07010030263379
30
0
41
1
10
170.982456905793
20
-7.53137667490071
30
0
41
1
10
171.046508648245
20
-7.73965480028681
30
0
41
1
10
171.174612133149
20
-8.10817420293071
30
0
41
1
10
171.2386638756
20
-8.26841791981514
30
0
41
1
10
171.366767360504
20
-8.54014669119013
30
0
41
1
10
171.430819102956
20
-8.65164371085916
30
0
41
1
10
171.558922587859
20
-8.82754479585083
30
0
41
1
10
171.622974330311
20
-8.89196687786773
30
0
41
1
10
171.751077815214
20
-8.97730705214093
30
0
41
1
10
171.815129557666
20
-8.99824528088632
30
0
41
1
10
171.895194235731
20
-9.00030604455105
30
0
41
1
10
171.911207171344
20
-8.99952488972082
30
0
41
1
10
171.943233042569
20
-8.9955061597671
30
0
41
1
10
171.991271849408
20
-8.985788353629
30
0
41
1
10
172.039310656247
20
-8.96463475018891
30
0
41
1
10
172.135388269925
20
-8.90619429235068
30
0
41
1
10
172.199440012376
20
-8.84567165045709
30
0
41
1
10
172.32754349728
20
-8.67781075818942
30
0
41
1
10
172.391595239732
20
-8.57045415717013
30
0
41
1
10
172.519698724635
20
-8.30706219433895
30
0
41
1
10
172.583750467087
20
-8.15101419603275
30
0
41
1
10
172.71185395199
20
-7.79072465859295
30
0
41
1
10
172.775905694442
20
-7.58647975983033
30
0
41
1
10
172.904009179346
20
-7.1328828490071
30
0
41
1
10
172.968060921797
20
-6.8835387240394
30
0
41
1
10
173.096164406701
20
-6.34536861151159
30
0
41
1
10
173.160216149152
20
-6.05656121628738
30
0
41
1
10
173.224267891604
20
-5.751893937825
30
0
0
SPLINE
5
E0
100
AcDbEntity
8
1
62
256
6
ByLayer
370
13
48
1
60
0
100
AcDbSpline
70
4
71
3
72
22
73
18
40
0
40
0
40
0
40
0
40
0.125
40
0.125
40
0.25
40
0.25
40
0.375
40
0.375
40
0.5
40
0.5
40
0.625
40
0.625
40
0.75
40
0.75
40
0.875
40
0.875
40
1
40
1
40
1
40
1
41
1
10
163.6
20
1.23947186011671
30
0
41
1
10
163.690716527288
20
1.74002131816147
30
0
41
1
10
163.781433054576
20
2.24907793201919
30
0
41
1
10
163.962866109151
20
3.26045947711779
30
0
41
1
10
164.053582636439
20
3.76266798882062
30
0
41
1
10
164.235015691015
20
4.73274064544472
30
0
41
1
10
164.325732218303
20
5.20044563499198
30
0
41
1
10
164.507165272879
20
6.07438841495537
30
0
41
1
10
164.597881800167
20
6.48047499967473
30
0
41
1
10
164.779314854742
20
7.20941825658906
30
0
41
1
10
164.87003138203
20
7.53218621587641
30
0
41
1
10
165.051464436606
20
8.08188572436197
30
0
41
1
10
165.142180963894
20
8.30881793410282
30
0
41
1
10
165.323614018469
20
8.66478216450645
30
0
41
1
10
165.414330545757
20
8.79389043710003
30
0
41
1
10
165.595763600333
20
8.96144348601919
30
0
41
1
10
165.686480127621
20
9
30
0
41
1
10
165.777196654909
20
9
30
0
0
SPLINE
5
E1
100
AcDbEntity
8
1
62
256
6
ByLayer
370
13
48
1
60
0
100
AcDbSpline
70
4
71
3
72
80
73
76
40
0
40
0
40
0
40
0
40
0.0312499999999996
40
0.0312499999999996
40
0.0624999999999992
40
0.0624999999999992
40
0.0937499999999989
40
0.0937499999999989
40
0.124999999999999
40
0.124999999999999
40
0.156249999999998
40
0.156249999999998
40
0.187499999999998
40
0.187499999999998
40
0.218749999999997
40
0.218749999999997
40
0.249999999999997
40
0.249999999999997
40
0.281249999999997
40
0.281249999999997
40
0.312499999999996
40
0.312499999999996
40
0.343749999999996
40
0.343749999999996
40
0.359374999999995
40
0.359374999999995
40
0.367187499999995
40
0.367187499999995
40
0.374999999999995
40
0.374999999999995
40
0.406249999999994
40
0.406249999999994
40
0.437499999999994
40
0.437499999999994
40
0.468749999999993
40
0.468749999999993
40
0.499999999999993
40
0.499999999999993
40
0.531249999999992
40
0.531249999999992
40
0.562499999999992
40
0.562499999999992
40
0.593749999999991
40
0.593749999999991
40
0.624999999999991
40
0.624999999999991
40
0.65624999999999
40
0.65624999999999
40
0.68749999999999
40
0.68749999999999
40
0.718749999999989
40
0.718749999999989
40
0.722656249999989
40
0.722656249999989
40
0.726562499999989
40
0.726562499999989
40
0.73437499999999
40
0.73437499999999
40
0.749999999999991
40
0.749999999999991
40
0.781249999999992
40
0.781249999999992
40
0.812499999999993
40
0.812499999999993
40
0.843749999999994
40
0.843749999999994
40
0.874999999999995
40
0.874999999999995
40
0.906249999999996
40
0.906249999999996
40
0.937499999999998
40
0.937499999999998
40
0.968749999999999
40
0.968749999999999
40
1
40
1
40
1
40
1
41
1
10
166.578829168377
20
9
30
0
41
1
10
166.648052488411
20
9
30
0
41
1
10
166.717275808444
20
8.97759647509923
30
0
41
1
10
166.855722448512
20
8.88181649103336
30
0
41
1
10
166.924945768545
20
8.80841040312711
30
0
41
1
10
167.063392408612
20
8.60624752169227
30
0
41
1
10
167.132615728646
20
8.47746496375757
30
0
41
1
10
167.271062368713
20
8.16287007583151
30
0
41
1
10
167.340285688747
20
7.9770425883996
30
0
41
1
10
167.478732328814
20
7.55001752821002
30
0
41
1
10
167.547955648848
20
7.30882092287519
30
0
41
1
10
167.686402288915
20
6.77628787316107
30
0
41
1
10
167.755625608948
20
6.48497042714888
30
0
41
1
10
167.894072249016
20
5.86069990867926
30
0
41
1
10
167.963295569049
20
5.52778086152677
30
0
41
1
10
168.101742209117
20
4.83127346928873
30
0
41
1
10
168.17096552915
20
4.46772697607713
30
0
41
1
10
168.309412169217
20
3.72222395405404
30
0
41
1
10
168.378635489251
20
3.34030822952042
30
0
41
1
10
168.517082129318
20
2.57034453954395
30
0
41
1
10
168.586305449352
20
2.18232882109371
30
0
41
1
10
168.724752089419
20
1.41133905538112
30
0
41
1
10
168.793975409453
20
1.02838461737247
30
0
41
1
10
168.897810389503
20
0.46469420732376
30
0
41
1
10
168.93242204952
20
0.278571055710387
30
0
41
1
10
168.984339539545
20
0.0027558841346149
30
0
41
1
10
169.001645369554
20
-0.0885980718412043
30
0
41
1
10
169.03625702957
20
-0.273162884571519
30
0
41
1
10
169.053562859579
20
-0.365988515956957
30
0
41
1
10
169.140092009621
20
-0.832541598991696
30
0
41
1
10
169.209315329654
20
-1.21363037890831
30
0
41
1
10
169.347761969722
20
-1.98263151378274
30
0
41
1
10
169.416985289755
20
-2.37052655749164
30
0
41
1
10
169.555431929823
20
-3.14227261988663
30
0
41
1
10
169.624655249856
20
-3.52609338554626
30
0
41
1
10
169.763101889923
20
-4.27754968633647
30
0
41
1
10
169.832325209957
20
-4.64514543240085
30
0
41
1
10
169.970771850024
20
-5.35180471815909
30
0
41
1
10
170.039995170058
20
-5.69082595552041
30
0
41
1
10
170.178441810125
20
-6.32904513382175
30
0
41
1
10
170.247665130159
20
-6.62820710454193
30
0
41
1
10
170.386111770226
20
-7.17768142896259
30
0
41
1
10
170.455335090259
20
-7.42797184738339
30
0
41
1
10
170.593781730327
20
-7.87383739561886
30
0
41
1
10
170.66300505036
20
-8.06940846210065
30
0
41
1
10
170.801451690428
20
-8.4035305682105
30
0
41
1
10
170.870675010461
20
-8.54209431165211
30
0
41
1
10
171.009121650528
20
-8.76331952791352
30
0
41
1
10
171.078344970562
20
-8.84600541854542
30
0
41
1
10
171.216791610629
20
-8.95943598584378
30
0
41
1
10
171.286014930663
20
-8.99021008623888
30
0
41
1
10
171.363891165701
20
-8.99897231125166
30
0
41
1
10
171.372544080705
20
-8.99958768773331
30
0
41
1
10
171.389849910713
20
-9.00011505621831
30
0
41
1
10
171.398502825717
20
-9.00002898728553
30
0
41
1
10
171.42446157073
20
-8.99871434064843
30
0
41
1
10
171.441767400739
20
-8.99642450488989
30
0
41
1
10
171.493684890764
20
-8.98516093634649
30
0
41
1
10
171.528296550781
20
-8.97179018515166
30
0
41
1
10
171.632131530831
20
-8.91295460372845
30
0
41
1
10
171.701354850865
20
-8.84869676689198
30
0
41
1
10
171.839801490932
20
-8.66541349423369
30
0
41
1
10
171.909024810965
20
-8.54636115247436
30
0
41
1
10
172.047471451033
20
-8.25129134954491
30
0
41
1
10
172.116694771066
20
-8.07525644676645
30
0
41
1
10
172.255141411134
20
-7.66727686002795
30
0
41
1
10
172.324364731167
20
-7.43533010743508
30
0
41
1
10
172.462811371234
20
-6.92014858177103
30
0
41
1
10
172.532034691268
20
-6.63692977948236
30
0
41
1
10
172.670481331335
20
-6.02718990823738
30
0
41
1
10
172.739704651369
20
-5.70070070008737
30
0
41
1
10
172.878151291436
20
-5.01503901411525
30
0
41
1
10
172.94737461147
20
-4.65590766729204
30
0
41
1
10
173.085821251537
20
-3.9170898689537
30
0
41
1
10
173.155044571571
20
-3.53744500950953
30
0
41
1
10
173.224267891604
20
-3.15370342357318
30
0
0
SPLINE
5
E2
100
AcDbEntity
8
1
62
256
6
ByLayer
370
13
48
1
60
0
100
AcDbSpline
70
4
71
3
72
22
73
18
40
0
40
0
40
0
40
0
40
0.125
40
0.125
40
0.25
40
0.25
40
0.375
40
0.375
40
0.5
40
0.5
40
0.625
40
0.625
40
0.75
40
0.75
40
0.875
40
0.875
40
1
40
1
40
1
40
1
41
1
10
163.6
20
3.99046204085482
30
0
41
1
10
163.67003021696
20
4.36923681826289
30
0
41
1
10
163.740060433921
20
4.7391853433744
30
0
41
1
10
163.880120867841
20
5.44877114907811
30
0
41
1
10
163.950151084802
20
5.78836382975197
30
0
41
1
10
164.090211518722
20
6.4257205698521
30
0
41
1
10
164.160241735683
20
6.72344771626115
30
0
41
1
10
164.300302169603
20
7.26804291393213
30
0
41
1
10
164.370332386564
20
7.51488977091864
30
0
41
1
10
164.510392820484
20
7.95208044057446
30
0
41
1
10
164.580423037445
20
8.14242234199889
30
0
41
1
10
164.720483471365
20
8.46470094935239
30
0
41
1
10
164.790513688326
20
8.59665319584519
30
0
41
1
10
164.930574122246
20
8.80377577771674
30
0
41
1
10
165.000604339207
20
8.87897322566135
30
0
41
1
10
165.140664773127
20
8.97706964654199
30
0
41
1
10
165.210694990088
20
9
30
0
41
1
10
165.280725207048
20
9
30
0
0
SPLINE
5
E3
100
AcDbEntity
8
1
62
256
6
ByLayer
370
13
48
1
60
0
100
AcDbSpline
70
4
71
3
72
81
73
77
40
0
40
0
40
0
40
0
40
0.0312500000000007
40
0.0312500000000007
40
0.0625000000000013
40
0.0625000000000013
40
0.093750000000002
40
0.093750000000002
40
0.125000000000003
40
0.125000000000003
40
0.156250000000003
40
0.156250000000003
40
0.187500000000004
40
0.187500000000004
40
0.218750000000005
40
0.218750000000005
40
0.250000000000005
40
0.250000000000005
40
0.281250000000006
40
0.281250000000006
40
0.312500000000007
40
0.312500000000007
40
0.328125000000007
40
0.328125000000007
40
0.335937500000007
40
0.335937500000007
40
0.339843750000007
40
0.339843750000007
40
0.343750000000008
40
0.343750000000008
40
0.375000000000007
40
0.375000000000007
40
0.406250000000007
40
0.406250000000007
40
0.437500000000007
40
0.437500000000007
40
0.468750000000007
40
0.468750000000007
40
0.500000000000007
40
0.500000000000007
40
0.531250000000007
40
0.531250000000007
40
0.562500000000007
40
0.562500000000007
40
0.593750000000007
40
0.593750000000007
40
0.625000000000007
40
0.625000000000007
40
0.656250000000007
40
0.656250000000007
40
0.671875000000007
40
0.671875000000007
40
0.675781250000007
40
0.675781250000007
40
0.679687500000008
40
0.687500000000008
40
0.687500000000008
40
0.718750000000007
40
0.718750000000007
40
0.750000000000006
40
0.750000000000006
40
0.781250000000005
40
0.781250000000005
40
0.812500000000004
40
0.812500000000004
40
0.843750000000004
40
0.843750000000004
40
0.875000000000003
40
0.875000000000003
40
0.906250000000002
40
0.906250000000002
40
0.937500000000001
40
0.937500000000001
40
0.968750000000001
40
0.968750000000001
40
1
40
1
40
1
40
1
41
1
10
166.082357720516
20
9
30
0
41
1
10
166.156752618132
20
9
30
0
41
1
10
166.231147515747
20
8.97411268654582
30
0
41
1
10
166.379937310978
20
8.86297986936106
30
0
41
1
10
166.454332208594
20
8.77769204723603
30
0
41
1
10
166.603122003825
20
8.54264212955826
30
0
41
1
10
166.67751690144
20
8.39284482932925
30
0
41
1
10
166.826306696672
20
8.02741039222209
30
0
41
1
10
166.900701594287
20
7.81175620647849
30
0
41
1
10
167.049491389518
20
7.31781897969174
30
0
41
1
10
167.123886287133
20
7.03954507649135
30
0
41
1
10
167.272676082364
20
6.42830037614544
30
0
41
1
10
167.34707097998
20
6.09536569314599
30
0
41
1
10
167.495860775211
20
5.38676812022735
30
0
41
1
10
167.570255672826
20
5.01116047388788
30
0
41
1
10
167.719045468057
20
4.23181384718214
30
0
41
1
10
167.793440365673
20
3.82813554842647
30
0
41
1
10
167.942230160904
20
3.008077555347
30
0
41
1
10
168.016625058519
20
2.59174998753409
30
0
41
1
10
168.16541485375
20
1.76091256060067
30
0
41
1
10
168.239809751366
20
1.34643703060939
30
0
41
1
10
168.351402097789
20
0.735298214235058
30
0
41
1
10
168.388599546597
20
0.533327069138608
30
0
41
1
10
168.444395719808
20
0.233926008538532
30
0
41
1
10
168.462994444212
20
0.134716777850059
30
0
41
1
10
168.490892530818
20
-0.013106075265398
30
0
41
1
10
168.50019189302
20
-0.0622822930192228
30
0
41
1
10
168.518790617424
20
-0.161163344775076
30
0
41
1
10
168.528089979626
20
-0.210764650357902
30
0
41
1
10
168.611784239443
20
-0.658545150581574
30
0
41
1
10
168.686179137059
20
-1.06642914151354
30
0
41
1
10
168.83496893229
20
-1.89128982715369
30
0
41
1
10
168.909363829905
20
-2.30824367050414
30
0
41
1
10
169.058153625136
20
-3.13789396825519
30
0
41
1
10
169.132548522752
20
-3.55054757748451
30
0
41
1
10
169.281338317983
20
-4.3565132004498
30
0
41
1
10
169.355733215598
20
-4.74976782749218
30
0
41
1
10
169.504523010829
20
-5.50164882840494
30
0
41
1
10
169.578917908445
20
-5.86021506317823
30
0
41
1
10
169.727707703676
20
-6.52904392198684
30
0
41
1
10
169.802102601291
20
-6.83925824491283
30
0
41
1
10
169.950892396522
20
-7.40100249880336
30
0
41
1
10
170.025287294138
20
-7.65250767891561
30
0
41
1
10
170.174077089369
20
-8.09088308921957
30
0
41
1
10
170.248471986984
20
-8.27775627285419
30
0
41
1
10
170.397261782215
20
-8.5856819651263
30
0
41
1
10
170.471656679831
20
-8.70676076756357
30
0
41
1
10
170.620446475062
20
-8.88621399514534
30
0
41
1
10
170.694841372677
20
-8.94462811230301
30
0
41
1
10
170.806433719101
20
-8.9900111737966
30
0
41
1
10
170.843631167908
20
-8.99812073935593
30
0
41
1
10
170.890127978918
20
-9.00010584044222
30
0
41
1
10
170.89942734112
20
-9.0000976128733
30
0
41
1
10
170.918026065524
20
-8.99927016004855
30
0
41
1
10
170.945924152129
20
-8.99680655046828
30
0
41
1
10
170.973822238735
20
-8.99060247922222
30
0
41
1
10
171.066815860755
20
-8.96129952961164
30
0
41
1
10
171.14121075837
20
-8.91017111282895
30
0
41
1
10
171.290000553601
20
-8.74592192469794
30
0
41
1
10
171.364395451217
20
-8.63276059819771
30
0
41
1
10
171.513185246448
20
-8.34084138865259
30
0
41
1
10
171.587580144063
20
-8.16205497376231
30
0
41
1
10
171.736369939294
20
-7.73946077548359
30
0
41
1
10
171.81076483691
20
-7.49564679431094
30
0
41
1
10
171.959554632141
20
-6.94831027269979
30
0
41
1
10
172.033949529756
20
-6.64480913417285
30
0
41
1
10
172.182739324987
20
-5.98793395108464
30
0
41
1
10
172.257134222603
20
-5.63460583437828
30
0
41
1
10
172.405924017834
20
-4.89140458625877
30
0
41
1
10
172.480318915449
20
-4.50159092696478
30
0
41
1
10
172.62910871068
20
-3.70060906163596
30
0
41
1
10
172.703503608296
20
-3.28949931556204
30
0
41
1
10
172.852293403527
20
-2.46115229759994
30
0
41
1
10
172.926688301142
20
-2.04396008605579
30
0
41
1
10
173.075478096373
20
-1.21711529104147
30
0
41
1
10
173.149872993989
20
-0.807488067191684
30
0
41
1
10
173.224267891604
20
-0.407147166145535
30
0
0
SPLINE
5
E4
100
AcDbEntity
8
1
62
256
6
ByLayer
370
13
48
1
60
0
100
AcDbSpline
70
4
71
3
72
20
73
16
40
0
40
0
40
0
40
0
40
0.125
40
0.125
40
0.25
40
0.25
40
0.375
40
0.375
40
0.5
40
0.5
40
0.625
40
0.625
40
0.75
40
0.75
40
1
40
1
40
1
40
1
41
1
10
163.6
20
6.44572424608228
30
0
41
1
10
163.649343906633
20
6.65914173043595
30
0
41
1
10
163.698687813266
20
6.86129466217034
30
0
41
1
10
163.797375626531
20
7.24016723322754
30
0
41
1
10
163.846719533164
20
7.4168833958702
30
0
41
1
10
163.94540734643
20
7.74281317680456
30
0
41
1
10
163.994751253063
20
7.89202569932689
30
0
41
1
10
164.093439066328
20
8.1617943944108
30
0
41
1
10
164.142782972961
20
8.28235179062099
30
0
41
1
10
164.241470786227
20
8.49456939708472
30
0
41
1
10
164.290814692859
20
8.58623278856902
30
0
41
1
10
164.389502506125
20
8.74126678739589
30
0
41
1
10
164.438846412758
20
8.80464196984323
30
0
41
1
10
164.586878132656
20
8.95432477934048
30
0
41
1
10
164.685565945922
20
9
30
0
41
1
10
164.784253759187
20
9
30
0
0
SPLINE
5
E5
100
AcDbEntity
8
1
62
256
6
ByLayer
370
13
48
1
60
0
100
AcDbSpline
70
4
71
3
72
85
73
81
40
0
40
0
40
0
40
0
40
0.0312500000000007
40
0.0312500000000007
40
0.0625000000000014
40
0.0625000000000014
40
0.0937500000000021
40
0.0937500000000021
40
0.125000000000003
40
0.125000000000003
40
0.156250000000003
40
0.156250000000003
40
0.187500000000004
40
0.187500000000004
40
0.218750000000005
40
0.218750000000005
40
0.250000000000006
40
0.250000000000006
40
0.281250000000006
40
0.281250000000006
40
0.312500000000007
40
0.312500000000007
40
0.316406250000007
40
0.316406250000007
40
0.320312500000007
40
0.328125000000007
40
0.328125000000007
40
0.343750000000007
40
0.343750000000007
40
0.375000000000007
40
0.375000000000007
40
0.406250000000007
40
0.406250000000007
40
0.437500000000007
40
0.437500000000007
40
0.468750000000007
40
0.468750000000007
40
0.500000000000007
40
0.500000000000007
40
0.531250000000007
40
0.531250000000007
40
0.562500000000007
40
0.562500000000007
40
0.593750000000007
40
0.593750000000007
40
0.625000000000007
40
0.625000000000007
40
0.628906250000007
40
0.628906250000007
40
0.632812500000007
40
0.632812500000007
40
0.640625000000007
40
0.640625000000007
40
0.656250000000006
40
0.656250000000006
40
0.687500000000005
40
0.687500000000005
40
0.718750000000004
40
0.718750000000004
40
0.750000000000003
40
0.750000000000003
40
0.781250000000003
40
0.781250000000003
40
0.812500000000002
40
0.812500000000002
40
0.843750000000001
40
0.843750000000001
40
0.875
40
0.875
40
0.906249999999999
40
0.906249999999999
40
0.937499999999998
40
0.937499999999998
40
0.945312499999998
40
0.945312499999998
40
0.953124999999998
40
0.953124999999998
40
0.968749999999999
40
0.968749999999999
40
1
40
1
40
1
40
1
41
1
10
165.585886272656
20
9
30
0
41
1
10
165.665452747853
20
9
30
0
41
1
10
165.745019223051
20
8.97037427471872
30
0
41
1
10
165.904152173445
20
8.8426817931863
30
0
41
1
10
165.983718648643
20
8.74455611874421
30
0
41
1
10
166.142851599038
20
8.47400939861254
30
0
41
1
10
166.222418074235
20
8.3015418285336
30
0
41
1
10
166.381551024629
20
7.88155093312497
30
0
41
1
10
166.461117499827
20
7.63401079721774
30
0
41
1
10
166.620250450222
20
7.06922323883055
30
0
41
1
10
166.699816925419
20
6.75199950328781
30
0
41
1
10
166.858949875814
20
6.05922997365394
30
0
41
1
10
166.938516351011
20
5.68374571682796
30
0
41
1
10
167.097649301406
20
4.89057362538082
30
0
41
1
10
167.177215776603
20
4.47296867177405
30
0
41
1
10
167.336348726998
20
3.61416575870302
30
0
41
1
10
167.415915202195
20
3.17304893132658
30
0
41
1
10
167.57504815259
20
2.28577411489292
30
0
41
1
10
167.654614627788
20
1.8396761612729
30
0
41
1
10
167.813747578182
20
0.958747577608392
30
0
41
1
10
167.89331405338
20
0.523947102943197
30
0
41
1
10
167.982826337977
20
0.048272134896223
30
0
41
1
10
167.992772147377
20
-0.0042695071944365
30
0
41
1
10
168.012663766176
20
-0.109767888262439
30
0
41
1
10
168.042501194375
20
-0.268577647690023
30
0
41
1
10
168.072338622574
20
-0.42898135227702
30
0
41
1
10
168.132013478972
20
-0.751644712567241
30
0
41
1
10
168.171796716571
20
-0.969235832738349
30
0
41
1
10
168.291146429367
20
-1.62701982754246
30
0
41
1
10
168.370712904564
20
-2.07232285317232
30
0
41
1
10
168.529845854959
20
-2.96080231849356
30
0
41
1
10
168.609412330156
20
-3.4039232192317
30
0
41
1
10
168.768545280551
20
-4.26976247140561
30
0
41
1
10
168.848111755748
20
-4.69240198839057
30
0
41
1
10
169.007244706143
20
-5.49851879926558
30
0
41
1
10
169.08681118134
20
-5.8819119188083
30
0
41
1
10
169.245944131735
20
-6.5928165004064
30
0
41
1
10
169.325510606933
20
-6.92026161588277
30
0
41
1
10
169.484643557327
20
-7.50693888653123
30
0
41
1
10
169.564210032525
20
-7.76614073006266
30
0
41
1
10
169.72334298292
20
-8.20989886212681
30
0
41
1
10
169.802909458117
20
-8.39446592488463
30
0
41
1
10
169.962042408512
20
-8.68871876352688
30
0
41
1
10
170.041608883709
20
-8.79844741295273
30
0
41
1
10
170.200741834104
20
-8.94813390205093
30
0
41
1
10
170.280308309301
20
-8.98814985974127
30
0
41
1
10
170.369820593898
20
-8.99891292870794
30
0
41
1
10
170.379766403298
20
-8.99963478241094
30
0
41
1
10
170.399658022097
20
-9.00015017377655
30
0
41
1
10
170.409603831497
20
-8.99994662757905
30
0
41
1
10
170.439441259696
20
-8.99793366837483
30
0
41
1
10
170.459332878495
20
-8.99471717859262
30
0
41
1
10
170.519007734893
20
-8.97921238068264
30
0
41
1
10
170.558790972492
20
-8.96106325402164
30
0
41
1
10
170.678140685288
20
-8.88149348211616
30
0
41
1
10
170.757707160485
20
-8.79481801914662
30
0
41
1
10
170.91684011088
20
-8.54780330608921
30
0
41
1
10
170.996406586078
20
-8.38741434113055
30
0
41
1
10
171.155539536472
20
-7.9913072582473
30
0
41
1
10
171.23510601167
20
-7.75556658481204
30
0
41
1
10
171.394238962064
20
-7.21310109944829
30
0
41
1
10
171.473805437262
20
-6.90639328348874
30
0
41
1
10
171.632938387657
20
-6.23247080738224
30
0
41
1
10
171.712504862854
20
-5.86531243706762
30
0
41
1
10
171.871637813249
20
-5.08598340979066
30
0
41
1
10
171.951204288446
20
-4.67389372724543
30
0
41
1
10
172.110337238841
20
-3.823086236553
30
0
41
1
10
172.189903714038
20
-3.3844513490082
30
0
41
1
10
172.349036664433
20
-2.49927784253572
30
0
41
1
10
172.42860313963
20
-2.05280353130033
30
0
41
1
10
172.587736090025
20
-1.16873444825117
30
0
41
1
10
172.667302565223
20
-0.731174711989041
30
0
41
1
10
172.766760659219
20
-0.198100784621659
30
0
41
1
10
172.786652278019
20
-0.0922883630031208
30
0
41
1
10
172.826435515617
20
0.118287716804673
30
0
41
1
10
172.846327134417
20
0.224337489105238
30
0
41
1
10
172.906001990815
20
0.544517760744384
30
0
41
1
10
172.945785228414
20
0.760686983633036
30
0
41
1
10
173.065134941209
20
1.41502403590323
30
0
41
1
10
173.144701416407
20
1.85912691691453
30
0
41
1
10
173.224267891604
20
2.30353042216649
30
0
0
SPLINE
5
E6
100
AcDbEntity
8
1
62
256
6
ByLayer
370
13
48
1
60
0
100
AcDbSpline
70
4
71
3
72
14
73
10
40
0
40
0
40
0
40
0
40
0.25
40
0.25
40
0.5
40
0.5
40
0.75
40
0.75
40
1
40
1
40
1
40
1
41
1
10
163.6
20
8.16470333634658
30
0
41
1
10
163.657315192611
20
8.30958960331154
30
0
41
1
10
163.714630385221
20
8.43500418848956
30
0
41
1
10
163.829260770442
20
8.64709863202012
30
0
41
1
10
163.886575963053
20
8.73378687894154
30
0
41
1
10
164.001206348274
20
8.8700829697313
30
0
41
1
10
164.058521540884
20
8.91970168787469
30
0
41
1
10
164.173151926106
20
8.98465441614314
30
0
41
1
10
164.230467118716
20
9
30
0
41
1
10
164.287782311327
20
9
30
0
0
SPLINE
5
E7
100
AcDbEntity
8
1
62
256
6
ByLayer
370
13
48
1
60
0
100
AcDbSpline
70
4
71
3
72
84
73
80
40
0
40
0
40
0
40
0
40
0.0312499999999998
40
0.0312499999999998
40
0.0624999999999996
40
0.0624999999999996
40
0.0937499999999995
40
0.0937499999999995
40
0.124999999999999
40
0.124999999999999
40
0.156249999999999
40
0.156249999999999
40
0.187499999999999
40
0.187499999999999
40
0.218749999999999
40
0.218749999999999
40
0.249999999999999
40
0.249999999999999
40
0.281249999999998
40
0.281249999999998
40
0.289062499999999
40
0.292968749999999
40
0.292968749999999
40
0.296874999999999
40
0.296874999999999
40
0.312499999999999
40
0.312499999999999
40
0.343749999999998
40
0.343749999999998
40
0.374999999999998
40
0.374999999999998
40
0.406249999999998
40
0.406249999999998
40
0.437499999999998
40
0.437499999999998
40
0.468749999999998
40
0.468749999999998
40
0.499999999999997
40
0.499999999999997
40
0.531249999999997
40
0.531249999999997
40
0.562499999999997
40
0.562499999999997
40
0.578124999999997
40
0.578124999999997
40
0.585937499999997
40
0.589843749999997
40
0.589843749999997
40
0.593749999999997
40
0.593749999999997
40
0.624999999999997
40
0.624999999999997
40
0.656249999999996
40
0.656249999999996
40
0.687499999999996
40
0.687499999999996
40
0.718749999999996
40
0.718749999999996
40
0.749999999999996
40
0.749999999999996
40
0.781249999999996
40
0.781249999999996
40
0.812499999999996
40
0.812499999999996
40
0.843749999999996
40
0.843749999999996
40
0.874999999999995
40
0.874999999999995
40
0.882812499999996
40
0.882812499999996
40
0.890624999999996
40
0.890624999999996
40
0.906249999999996
40
0.906249999999996
40
0.937499999999998
40
0.937499999999998
40
0.968749999999999
40
0.968749999999999
40
1
40
1
40
1
40
1
41
1
10
165.089414824795
20
9
30
0
41
1
10
165.174152877575
20
9
30
0
41
1
10
165.258890930354
20
8.96638033532787
30
0
41
1
10
165.428367035912
20
8.82091025139022
30
0
41
1
10
165.513105088691
20
8.70897963105
30
0
41
1
10
165.68258119425
20
8.40032304705582
30
0
41
1
10
165.767319247029
20
8.20353751869604
30
0
41
1
10
165.936795352588
20
7.72538531365902
30
0
41
1
10
166.021533405367
20
7.44400582393405
30
0
41
1
10
166.191009510926
20
6.80483971365385
30
0
41
1
10
166.275747563705
20
6.44710016763835
30
0
41
1
10
166.445223669263
20
5.67086479606891
30
0
41
1
10
166.529961722043
20
5.25246580298176
30
0
41
1
10
166.699437827601
20
4.37581737555266
30
0
41
1
10
166.78417588038
20
3.91768413184559
30
0
41
1
10
166.953651985939
20
2.98440182132657
30
0
41
1
10
167.038390038718
20
2.50935315899474
30
0
41
1
10
167.207866144277
20
1.56362317053566
30
0
41
1
10
167.292604197056
20
1.09300325879579
30
0
41
1
10
167.39852676303
20
0.518352474402093
30
0
41
1
10
167.430303532822
20
0.346961560011238
30
0
41
1
10
167.462080302615
20
0.177326827129605
30
0
41
1
10
167.483264815809
20
0.0646526259905045
30
0
41
1
10
167.493857072407
20
0.00866453101915
30
0
41
1
10
167.546818355394
20
-0.272103668850065
30
0
41
1
10
167.589187381783
20
-0.500144503204268
30
0
41
1
10
167.716294460952
20
-1.19193404898937
30
0
41
1
10
167.801032513732
20
-1.66349258195328
30
0
41
1
10
167.97050861929
20
-2.60970481816847
30
0
41
1
10
168.055246672069
20
-3.08429399522288
30
0
41
1
10
168.224722777628
20
-4.01506178262048
30
0
41
1
10
168.309460830407
20
-4.47113790547144
30
0
41
1
10
168.478936935966
20
-5.34209178637445
30
0
41
1
10
168.563674988745
20
-5.75685351519672
30
0
41
1
10
168.733151094303
20
-6.52449808261056
30
0
41
1
10
168.817889147083
20
-6.87728677173783
30
0
41
1
10
168.987365252641
20
-7.50570483527409
30
0
41
1
10
169.07210330542
20
-7.78129132049861
30
0
41
1
10
169.241579410979
20
-8.24757896221493
30
0
41
1
10
169.326317463758
20
-8.43829689343204
30
0
41
1
10
169.495793569317
20
-8.73507633660438
30
0
41
1
10
169.580531622096
20
-8.84119978637244
30
0
41
1
10
169.707638701265
20
-8.94208958920723
30
0
41
1
10
169.750007727654
20
-8.96604942713068
30
0
41
1
10
169.813561267239
20
-8.98845836170005
30
0
41
1
10
169.845338037031
20
-8.99628300417402
30
0
41
1
10
169.877114806823
20
-8.99924298178044
30
0
41
1
10
169.898299320018
20
-9.00015930348306
30
0
41
1
10
169.908891576616
20
-9.00009227827394
30
0
41
1
10
170.004221885992
20
-8.9947415317051
30
0
41
1
10
170.088959938772
20
-8.95592259900417
30
0
41
1
10
170.25843604433
20
-8.79941199071391
30
0
41
1
10
170.343174097109
20
-8.68164067092155
30
0
41
1
10
170.512650202668
20
-8.36107405809335
30
0
41
1
10
170.597388255447
20
-8.15822170990023
30
0
41
1
10
170.766864361006
20
-7.66824683648517
30
0
41
1
10
170.851602413785
20
-7.38111553015253
30
0
41
1
10
171.021078519343
20
-6.73132172561259
30
0
41
1
10
171.105816572123
20
-6.368710435613
30
0
41
1
10
171.275292677681
20
-5.58406912322877
30
0
41
1
10
171.36003073046
20
-5.16213845784119
30
0
41
1
10
171.529506836019
20
-4.28001628246253
30
0
41
1
10
171.614244888798
20
-3.81994094199024
30
0
41
1
10
171.783720994357
20
-2.88436653739669
30
0
41
1
10
171.868459047136
20
-2.40896567637972
30
0
41
1
10
172.037935152694
20
-1.46391226614276
30
0
41
1
10
172.122673205474
20
-0.994317999728196
30
0
41
1
10
172.228595771448
20
-0.421600177656757
30
0
41
1
10
172.249780284643
20
-0.307758527738173
30
0
41
1
10
172.292149311032
20
-0.0816954166653829
30
0
41
1
10
172.313333824227
20
0.0299905159832861
30
0
41
1
10
172.376887363812
20
0.368333173912333
30
0
41
1
10
172.419256390201
20
0.597208223071959
30
0
41
1
10
172.54636346937
20
1.29109272755716
30
0
41
1
10
172.631101522149
20
1.76350115772823
30
0
41
1
10
172.800577627708
20
2.70999857468758
30
0
41
1
10
172.885315680487
20
3.18401994992212
30
0
41
1
10
173.054791786046
20
4.11204982097902
30
0
41
1
10
173.139529838825
20
4.56595387111901
30
0
41
1
10
173.224267891604
20
4.99847384717529
30
0
0
SPLINE
5
E8
100
AcDbEntity
8
1
62
256
6
ByLayer
370
13
48
1
60
0
100
AcDbSpline
70
4
71
3
72
8
73
4
40
0
40
0
40
0
40
0
40
1
40
1
40
1
40
1
41
1
10
163.6
20
8.94055202976068
30
0
41
1
10
163.663770287822
20
8.98099497365803
30
0
41
1
10
163.727540575644
20
9
30
0
41
1
10
163.791310863466
20
9
30
0
0
SPLINE
5
E9
100
AcDbEntity
8
1
62
256
6
ByLayer
370
13
48
1
60
0
100
AcDbSpline
70
4
71
3
72
85
73
81
40
0
40
0
40
0
40
0
40
0.0312499999999987
40
0.0312499999999987
40
0.0624999999999974
40
0.0624999999999974
40
0.0937499999999962
40
0.0937499999999962
40
0.124999999999995
40
0.124999999999995
40
0.156249999999994
40
0.156249999999994
40
0.187499999999992
40
0.187499999999992
40
0.218749999999991
40
0.218749999999991
40
0.24999999999999
40
0.24999999999999
40
0.265624999999989
40
0.265624999999989
40
0.273437499999989
40
0.277343749999989
40
0.277343749999989
40
0.281249999999989
40
0.281249999999989
40
0.31249999999999
40
0.31249999999999
40
0.343749999999991
40
0.343749999999991
40
0.374999999999992
40
0.374999999999992
40
0.406249999999993
40
0.406249999999993
40
0.437499999999994
40
0.437499999999994
40
0.468749999999994
40
0.468749999999994
40
0.499999999999995
40
0.499999999999995
40
0.531249999999996
40
0.531249999999996
40
0.546874999999997
40
0.546874999999997
40
0.554687499999997
40
0.554687499999997
40
0.558593749999997
40
0.558593749999997
40
0.562499999999997
40
0.562499999999997
40
0.593749999999997
40
0.593749999999997
40
0.624999999999998
40
0.624999999999998
40
0.656249999999998
40
0.656249999999998
40
0.687499999999998
40
0.687499999999998
40
0.718749999999999
40
0.718749999999999
40
0.749999999999999
40
0.749999999999999
40
0.781249999999999
40
0.781249999999999
40
0.8125
40
0.8125
40
0.828125
40
0.828125
40
0.8359375
40
0.8359375
40
0.84375
40
0.84375
40
0.875
40
0.875
40
0.90625
40
0.90625
40
0.9375
40
0.9375
40
0.96875
40
0.96875
40
1
40
1
40
1
40
1
41
1
10
164.592943376935
20
9
30
0
41
1
10
164.682853007296
20
9
30
0
41
1
10
164.772762637657
20
8.96212987037484
30
0
41
1
10
164.952581898379
20
8.79765369708994
30
0
41
1
10
165.04249152874
20
8.67094065176394
30
0
41
1
10
165.222310789463
20
8.32156449448243
30
0
41
1
10
165.312220419824
20
8.09882745132893
30
0
41
1
10
165.492039680546
20
7.5590462086887
30
0
41
1
10
165.581949310907
20
7.24199910247904
30
0
41
1
10
165.761768571629
20
6.52538464060063
30
0
41
1
10
165.851678201991
20
6.12589931653019
30
0
41
1
10
166.031497462713
20
5.26517152959559
30
0
41
1
10
166.121407093074
20
4.80407206678547
30
0
41
1
10
166.301226353796
20
3.84635116663441
30
0
41
1
10
166.391135984158
20
3.34988295993551
30
0
41
1
10
166.57095524488
20
2.34847982303998
30
0
41
1
10
166.660864875241
20
1.84365975274915
30
0
41
1
10
166.795729320783
20
1.09784154081615
30
0
41
1
10
166.840684135963
20
0.851100239977939
30
0
41
1
10
166.908116358734
20
0.485588615862525
30
0
41
1
10
166.941832470119
20
0.303978296673364
30
0
41
1
10
166.975548581505
20
0.124381589300469
30
0
41
1
10
166.998025989095
20
0.0051277104229541
30
0
41
1
10
167.00926469289
20
-0.0542332905772867
30
0
41
1
10
167.110413027046
20
-0.592046921818024
30
0
41
1
10
167.200322657408
20
-1.08538614738751
30
0
41
1
10
167.38014191813
20
-2.08398837685002
30
0
41
1
10
167.470051548491
20
-2.58918791503822
30
0
41
1
10
167.649870809213
20
-3.58718787764477
30
0
41
1
10
167.739780439575
20
-4.07986497196669
30
0
41
1
10
167.919599700297
20
-5.02564880206438
30
0
41
1
10
168.009509330658
20
-5.47860026161229
30
0
41
1
10
168.18932859138
20
-6.31923057072063
30
0
41
1
10
168.279238221741
20
-6.70677312701363
30
0
41
1
10
168.459057482464
20
-7.39693487286223
30
0
41
1
10
168.548967112825
20
-7.6994849499153
30
0
41
1
10
168.728786373547
20
-8.20931121041326
30
0
41
1
10
168.818696003908
20
-8.4166034439188
30
0
41
1
10
168.998515264631
20
-8.73569192152812
30
0
41
1
10
169.088424894992
20
-8.84757018957291
30
0
41
1
10
169.223289340533
20
-8.95001407099841
30
0
41
1
10
169.268244155714
20
-8.97332447698514
30
0
41
1
10
169.335676378485
20
-8.99321950026032
30
0
41
1
10
169.358153786075
20
-8.9973417679646
30
0
41
1
10
169.39186989746
20
-8.99992725601621
30
0
41
1
10
169.403108601256
20
-9.00019113064712
30
0
41
1
10
169.425586008846
20
-8.99954108057653
30
0
41
1
10
169.436824712641
20
-8.99862296032876
30
0
41
1
10
169.537973046797
20
-8.98489394835698
30
0
41
1
10
169.627882677159
20
-8.9336333683039
30
0
41
1
10
169.807701937881
20
-8.74074082874824
30
0
41
1
10
169.897611568242
20
-8.59900433169844
30
0
41
1
10
170.077430828964
20
-8.21919145784767
30
0
41
1
10
170.167340459325
20
-7.98105026184544
30
0
41
1
10
170.347159720047
20
-7.41165835079562
30
0
41
1
10
170.437069350409
20
-7.08041825947933
30
0
41
1
10
170.616888611131
20
-6.3381922989517
30
0
41
1
10
170.706798241492
20
-5.92730074644587
30
0
41
1
10
170.886617502214
20
-5.04769003342923
30
0
41
1
10
170.976527132576
20
-4.5791192236797
30
0
41
1
10
171.156346393298
20
-3.61083429767379
30
0
41
1
10
171.246256023659
20
-3.11127007922946
30
0
41
1
10
171.426075284381
20
-2.10776471728153
30
0
41
1
10
171.515984914742
20
-1.60392937299562
30
0
41
1
10
171.650849360284
20
-0.862035992063454
30
0
41
1
10
171.695804175465
20
-0.617007696711028
30
0
41
1
10
171.763236398235
20
-0.254577505105573
30
0
41
1
10
171.785713805826
20
-0.134616341389233
30
0
41
1
10
171.830668621007
20
0.103361942401705
30
0
41
1
10
171.853146028597
20
0.223002553836579
30
0
41
1
10
171.965533066548
20
0.826305339670341
30
0
41
1
10
172.055442696909
20
1.32295587802236
30
0
41
1
10
172.235261957632
20
2.32463376562495
30
0
41
1
10
172.325171587993
20
2.82958751553409
30
0
41
1
10
172.504990848715
20
3.82285809896243
30
0
41
1
10
172.594900479076
20
4.31104385313526
30
0
41
1
10
172.774719739798
20
5.24352679732442
30
0
41
1
10
172.86462937016
20
5.68766801777329
30
0
41
1
10
173.044448630882
20
6.50703297973084
30
0
41
1
10
173.134358261243
20
6.88212842305924
30
0
41
1
10
173.224267891604
20
7.21359936415945
30
0
0
SPLINE
5
EA
100
AcDbEntity
8
1
62
256
6
ByLayer
370
13
48
1
60
0
100
AcDbSpline
70
4
71
3
72
108
73
104
40
0
40
0
40
0
40
0
40
0.0312500000000012
40
0.0312500000000012
40
0.0625000000000023
40
0.0625000000000023
40
0.0937500000000035
40
0.0937500000000035
40
0.109375000000004
40
0.109375000000004
40
0.125000000000004
40
0.125000000000004
40
0.140625000000005
40
0.140625000000005
40
0.156250000000005
40
0.156250000000005
40
0.171875000000006
40
0.171875000000006
40
0.187500000000006
40
0.187500000000006
40
0.218750000000007
40
0.218750000000007
40
0.250000000000007
40
0.250000000000007
40
0.257812500000008
40
0.257812500000008
40
0.261718750000008
40
0.261718750000008
40
0.265625000000008
40
0.265625000000008
40
0.281250000000008
40
0.281250000000008
40
0.312500000000007
40
0.312500000000007
40
0.343750000000007
40
0.343750000000007
40
0.359375000000007
40
0.359375000000007
40
0.375000000000006
40
0.375000000000006
40
0.390625000000006
40
0.390625000000006
40
0.406250000000006
40
0.406250000000006
40
0.421875000000006
40
0.421875000000006
40
0.437500000000006
40
0.437500000000006
40
0.468750000000006
40
0.468750000000006
40
0.500000000000005
40
0.500000000000005
40
0.515625000000005
40
0.515625000000005
40
0.523437500000005
40
0.523437500000005
40
0.531250000000006
40
0.531250000000006
40
0.562500000000005
40
0.562500000000005
40
0.593750000000004
40
0.593750000000004
40
0.625000000000003
40
0.625000000000003
40
0.640625000000003
40
0.640625000000003
40
0.656250000000002
40
0.656250000000002
40
0.671875000000001
40
0.671875000000001
40
0.687500000000001
40
0.687500000000001
40
0.71875
40
0.71875
40
0.749999999999999
40
0.749999999999999
40
0.781249999999998
40
0.781249999999998
40
0.789062499999998
40
0.789062499999998
40
0.792968749999998
40
0.792968749999998
40
0.796874999999998
40
0.796874999999998
40
0.812499999999999
40
0.812499999999999
40
0.843749999999999
40
0.843749999999999
40
0.874999999999999
40
0.874999999999999
40
0.890624999999999
40
0.890624999999999
40
0.906249999999999
40
0.906249999999999
40
0.921874999999999
40
0.921874999999999
40
0.937499999999999
40
0.937499999999999
40
0.953124999999999
40
0.953124999999999
40
0.968749999999999
40
0.968749999999999
40
1
40
1
40
1
40
1
41
1
10
164.096471929074
20
9
30
0
41
1
10
164.191553137017
20
9
30
0
41
1
10
164.28663434496
20
8.95762178415183
30
0
41
1
10
164.476796760846
20
8.77290106407628
30
0
41
1
10
164.571877968789
20
8.63041835443107
30
0
41
1
10
164.762040384675
20
8.23772311680673
30
0
41
1
10
164.857121592618
20
7.98742166132831
30
0
41
1
10
164.999743404533
20
7.53388457968606
30
0
41
1
10
165.047284008504
20
7.36978924108908
30
0
41
1
10
165.142365216447
20
7.01742008811678
30
0
41
1
10
165.189905820419
20
6.82914866565253
30
0
41
1
10
165.284987028362
20
6.4308329681663
30
0
41
1
10
165.332527632333
20
6.22079285498208
30
0
41
1
10
165.427608840276
20
5.78199679125237
30
0
41
1
10
165.475149444248
20
5.5532463814535
30
0
41
1
10
165.570230652191
20
5.08059085228808
30
0
41
1
10
165.617771256162
20
4.83669208117192
30
0
41
1
10
165.712852464105
20
4.33762437163972
30
0
41
1
10
165.760393068077
20
4.08246193615705
30
0
41
1
10
165.903014879991
20
3.30608829924614
30
0
41
1
10
165.998096087934
20
2.77412418807325
30
0
41
1
10
166.18825850382
20
1.7120842070957
30
0
41
1
10
166.283339711764
20
1.18212878982166
30
0
41
1
10
166.402191221693
20
0.536635891081232
30
0
41
1
10
166.425961523678
20
0.408366752121282
30
0
41
1
10
166.461616976657
20
0.217443227942937
30
0
41
1
10
166.47350212765
20
0.154048499819339
30
0
41
1
10
166.497272429635
20
0.0277882443498356
30
0
41
1
10
166.509157580628
20
-0.0349518352227278
30
0
41
1
10
166.568583335593
20
-0.350702662532086
30
0
41
1
10
166.616123939564
20
-0.607546327522641
30
0
41
1
10
166.758745751479
20
-1.38702326741731
30
0
41
1
10
166.853826959422
20
-1.91881690980634
30
0
41
1
10
167.043989375308
20
-2.98077601587167
30
0
41
1
10
167.139070583251
20
-3.51080997720371
30
0
41
1
10
167.281692395165
20
-4.28113075110514
30
0
41
1
10
167.329232999137
20
-4.53375425455923
30
0
41
1
10
167.42431420708
20
-5.02671593182194
30
0
41
1
10
167.471854811051
20
-5.26704757986286
30
0
41
1
10
167.566936018994
20
-5.73160574617268
30
0
41
1
10
167.614476622966
20
-5.95582606433311
30
0
41
1
10
167.709557830909
20
-6.38471299356465
30
0
41
1
10
167.75709843488
20
-6.58937437254605
30
0
41
1
10
167.852179642823
20
-6.97624000836353
30
0
41
1
10
167.899720246795
20
-7.15844053412255
30
0
41
1
10
167.994801454738
20
-7.49816258511365
30
0
41
1
10
168.04234205871
20
-7.65568221245442
30
0
41
1
10
168.184963870624
20
-8.08904034137052
30
0
41
1
10
168.280045078567
20
-8.32529431036625
30
0
41
1
10
168.470207494453
20
-8.69030085060643
30
0
41
1
10
168.565288702396
20
-8.81915247492063
30
0
41
1
10
168.707910514311
20
-8.93849191248407
30
0
41
1
10
168.755451118282
20
-8.96602467271669
30
0
41
1
10
168.826762024239
20
-8.99032074236905
30
0
41
1
10
168.850532326225
20
-8.9955886742051
30
0
41
1
10
168.898072930196
20
-9.00072224937682
30
0
41
1
10
168.921843232182
20
-9.00062357595954
30
0
41
1
10
169.040694742111
20
-8.98676455782984
30
0
41
1
10
169.135775950054
20
-8.93215129363992
30
0
41
1
10
169.32593836594
20
-8.72142601236891
30
0
41
1
10
169.421019573883
20
-8.56517694580452
30
0
41
1
10
169.611181989769
20
-8.1447174760072
30
0
41
1
10
169.706263197712
20
-7.88042922821472
30
0
41
1
10
169.848885009627
20
-7.40696797363256
30
0
41
1
10
169.896425613598
20
-7.23640871679092
30
0
41
1
10
169.991506821541
20
-6.87166688156606
30
0
41
1
10
170.039047425513
20
-6.67748717903672
30
0
41
1
10
170.134128633456
20
-6.2680907682286
30
0
41
1
10
170.181669237427
20
-6.05287862588736
30
0
41
1
10
170.27675044537
20
-5.60462095761574
30
0
41
1
10
170.324291049342
20
-5.37158124207943
30
0
41
1
10
170.466912861256
20
-4.65120704096853
30
0
41
1
10
170.5619940692
20
-4.1425981408598
30
0
41
1
10
170.752156485085
20
-3.10043876321947
30
0
41
1
10
170.847237693029
20
-2.5670725659285
30
0
41
1
10
171.037400108915
20
-1.50590644892395
30
0
41
1
10
171.132481316858
20
-0.978215674585556
30
0
41
1
10
171.251332826786
20
-0.337239271521497
30
0
41
1
10
171.275103128772
20
-0.209957104618667
30
0
41
1
10
171.310758581751
20
-0.0206269868712923
30
0
41
1
10
171.322643732744
20
0.0421177538196389
30
0
41
1
10
171.346414034729
20
0.168458058458811
30
0
41
1
10
171.358299185722
20
0.231891469801326
30
0
41
1
10
171.417724940687
20
0.550283667841313
30
0
41
1
10
171.465265544658
20
0.808937747750662
30
0
41
1
10
171.607887356573
20
1.59273944834197
30
0
41
1
10
171.702968564516
20
2.12592854517561
30
0
41
1
10
171.893130980402
20
3.18682763784236
30
0
41
1
10
171.988212188345
20
3.71439544682863
30
0
41
1
10
172.13083400026
20
4.47785434875951
30
0
41
1
10
172.178374604231
20
4.7276687158826
30
0
41
1
10
172.273455812174
20
5.21399591980077
30
0
41
1
10
172.320996416146
20
5.45050225172318
30
0
41
1
10
172.416077624089
20
5.90647176689703
30
0
41
1
10
172.46361822806
20
6.12592894203021
30
0
41
1
10
172.558699436003
20
6.54447753994179
30
0
41
1
10
172.606240039974
20
6.74356407566978
30
0
41
1
10
172.701321247917
20
7.11863359099891
30
0
41
1
10
172.748861851889
20
7.29461329291354
30
0
41
1
10
172.843943059832
20
7.62144033790827
30
0
41
1
10
172.891483663804
20
7.77228628263137
30
0
41
1
10
173.034105475718
20
8.1852523152173
30
0
41
1
10
173.129186683661
20
8.40742598621799
30
0
41
1
10
173.224267891604
20
8.57614725576784
30
0
0
SPLINE
5
EB
100
AcDbEntity
8
1
62
256
6
ByLayer
370
13
48
1
60
0
100
AcDbSpline
70
4
71
3
72
118
73
114
40
0
40
0
40
0
40
0
40
0.0312499999999998
40
0.0312499999999998
40
0.0468749999999998
40
0.0468749999999998
40
0.0624999999999997
40
0.0624999999999997
40
0.0781249999999996
40
0.0781249999999996
40
0.0937499999999995
40
0.0937499999999995
40
0.109374999999999
40
0.109374999999999
40
0.124999999999999
40
0.124999999999999
40
0.140624999999999
40
0.140624999999999
40
0.156249999999999
40
0.156249999999999
40
0.171874999999999
40
0.171874999999999
40
0.187499999999999
40
0.187499999999999
40
0.203124999999999
40
0.203124999999999
40
0.218749999999999
40
0.218749999999999
40
0.249999999999998
40
0.249999999999998
40
0.281249999999998
40
0.281249999999998
40
0.296874999999998
40
0.296874999999998
40
0.312499999999998
40
0.312499999999998
40
0.328124999999998
40
0.328124999999998
40
0.343749999999998
40
0.343749999999998
40
0.359374999999997
40
0.359374999999997
40
0.374999999999997
40
0.374999999999997
40
0.390624999999997
40
0.390624999999997
40
0.406249999999997
40
0.406249999999997
40
0.421874999999997
40
0.421874999999997
40
0.437499999999996
40
0.437499999999996
40
0.453124999999996
40
0.453124999999996
40
0.468749999999996
40
0.468749999999996
40
0.499999999999996
40
0.499999999999996
40
0.531249999999996
40
0.531249999999996
40
0.546874999999996
40
0.546874999999996
40
0.562499999999996
40
0.562499999999996
40
0.578124999999996
40
0.578124999999996
40
0.593749999999996
40
0.593749999999996
40
0.609374999999997
40
0.609374999999997
40
0.624999999999997
40
0.624999999999997
40
0.640624999999997
40
0.640624999999997
40
0.656249999999997
40
0.656249999999997
40
0.671874999999997
40
0.671874999999997
40
0.687499999999997
40
0.687499999999997
40
0.703124999999997
40
0.703124999999997
40
0.718749999999997
40
0.718749999999997
40
0.749999999999998
40
0.749999999999998
40
0.781249999999998
40
0.781249999999998
40
0.796874999999998
40
0.796874999999998
40
0.812499999999998
40
0.812499999999998
40
0.828124999999998
40
0.828124999999998
40
0.843749999999999
40
0.843749999999999
40
0.859374999999999
40
0.859374999999999
40
0.874999999999999
40
0.874999999999999
40
0.890624999999999
40
0.890624999999999
40
0.906249999999999
40
0.906249999999999
40
0.921874999999999
40
0.921874999999999
40
0.937499999999999
40
0.937499999999999
40
0.953125
40
0.953125
40
0.96875
40
0.96875
40
1
40
1
40
1
40
1
41
1
10
163.600000481213
20
9
30
0
41
1
10
163.700253266738
20
9
30
0
41
1
10
163.800506052263
20
8.95285487931142
30
0
41
1
10
163.950885230551
20
8.79819505716702
30
0
41
1
10
164.001011623313
20
8.73270221989335
30
0
41
1
10
164.101264408838
20
8.5724790995736
30
0
41
1
10
164.1513908016
20
8.47774392419683
30
0
41
1
10
164.251643587125
20
8.2584456265059
30
0
41
1
10
164.301769979888
20
8.13387918138633
30
0
41
1
10
164.402022765413
20
7.85523315053376
30
0
41
1
10
164.452149158175
20
7.70115242996349
30
0
41
1
10
164.5524019437
20
7.36476707471908
30
0
41
1
10
164.602528336463
20
7.18246387348083
30
0
41
1
10
164.702781121987
20
6.79189391296481
30
0
41
1
10
164.75290751475
20
6.58363118831039
30
0
41
1
10
164.853160300275
20
6.14429140025524
30
0
41
1
10
164.903286693037
20
5.91322061804988
30
0
41
1
10
165.003539478562
20
5.43214630658662
30
0
41
1
10
165.053665871325
20
5.18215061173345
30
0
41
1
10
165.153918656849
20
4.66762572098648
30
0
41
1
10
165.204045049612
20
4.40310500951691
30
0
41
1
10
165.304297835137
20
3.86419855468685
30
0
41
1
10
165.354424227899
20
3.58982100599971
30
0
41
1
10
165.454677013424
20
3.03588476319925
30
0
41
1
10
165.504803406187
20
2.7563331661278
30
0
41
1
10
165.605056191711
20
2.19651579273275
30
0
41
1
10
165.655182584474
20
1.91625546015067
30
0
41
1
10
165.805561762761
20
1.08049324992726
30
0
41
1
10
165.905814548286
20
0.530330711302497
30
0
41
1
10
166.106320119336
20
-0.530329438510307
30
0
41
1
10
166.206572904861
20
-1.08049192328267
30
0
41
1
10
166.356952083148
20
-1.91625411764363
30
0
41
1
10
166.407078475911
20
-2.19651444798347
30
0
41
1
10
166.507331261436
20
-2.75633182375361
30
0
41
1
10
166.557457654198
20
-3.03588342544532
30
0
41
1
10
166.657710439723
20
-3.58981968485961
30
0
41
1
10
166.707836832485
20
-3.86419724554258
30
0
41
1
10
166.80808961801
20
-4.40310373191005
30
0
41
1
10
166.858216010773
20
-4.66762446292233
30
0
41
1
10
166.958468796298
20
-5.18214940007795
30
0
41
1
10
167.00859518906
20
-5.43214512179676
30
0
41
1
10
167.108847974585
20
-5.91321949368284
30
0
41
1
10
167.158974367347
20
-6.14429030944353
30
0
41
1
10
167.259227152872
20
-6.58363017029089
30
0
41
1
10
167.309353545635
20
-6.79189293417903
30
0
41
1
10
167.40960633116
20
-7.18246297753055
30
0
41
1
10
167.459732723922
20
-7.3647662223666
30
0
41
1
10
167.559985509447
20
-7.70115166766601
30
0
41
1
10
167.610111902209
20
-7.85523243468933
30
0
41
1
10
167.710364687735
20
-8.13387855972954
30
0
41
1
10
167.760491080497
20
-8.25844505257987
30
0
41
1
10
167.860743866022
20
-8.47774344549077
30
0
41
1
10
167.910870258784
20
-8.57247866835377
30
0
41
1
10
168.011123044309
20
-8.73270188204199
30
0
41
1
10
168.061249437072
20
-8.79819476519594
30
0
41
1
10
168.211628615359
20
-8.95285472088611
30
0
41
1
10
168.311881400884
20
-8.99999992499991
30
0
41
1
10
168.512386971934
20
-9.00000007499992
30
0
41
1
10
168.612639757459
20
-8.9528550377365
30
0
41
1
10
168.763018935746
20
-8.7981953491379
30
0
41
1
10
168.813145328509
20
-8.73270255774455
30
0
41
1
10
168.913398114033
20
-8.5724795307932
30
0
41
1
10
168.963524506796
20
-8.47774440290263
30
0
41
1
10
169.063777292321
20
-8.25844620043171
30
0
41
1
10
169.113903685083
20
-8.13387980304287
30
0
41
1
10
169.214156470608
20
-7.85523386637797
30
0
41
1
10
169.264282863371
20
-7.7011531922607
30
0
41
1
10
169.364535648895
20
-7.36476792707137
30
0
41
1
10
169.414662041658
20
-7.18246476943091
30
0
41
1
10
169.514914827183
20
-6.79189489175039
30
0
41
1
10
169.565041219945
20
-6.5836322063297
30
0
41
1
10
169.66529400547
20
-6.14429249106678
30
0
41
1
10
169.715420398233
20
-5.91322174241677
30
0
41
1
10
169.815673183757
20
-5.43214749137633
30
0
41
1
10
169.86579957652
20
-5.18215182338884
30
0
41
1
10
169.966052362045
20
-4.66762697905051
30
0
41
1
10
170.016178754807
20
-4.40310628712365
30
0
41
1
10
170.116431540332
20
-3.86419986383103
30
0
41
1
10
170.166557933095
20
-3.58982232713978
30
0
41
1
10
170.266810718619
20
-3.03588610095318
30
0
41
1
10
170.316937111382
20
-2.75633450850196
30
0
41
1
10
170.417189896907
20
-2.196517137482
30
0
41
1
10
170.467316289669
20
-1.91625680265773
30
0
41
1
10
170.617695467957
20
-1.08049457657185
30
0
41
1
10
170.717948253482
20
-0.530332015160752
30
0
41
1
10
170.918453824531
20
0.530328196784069
30
0
41
1
10
171.018706610056
20
1.08049059663816
30
0
41
1
10
171.169085788344
20
1.9162527751366
30
0
41
1
10
171.219212181106
20
2.19651310323422
30
0
41
1
10
171.319464966631
20
2.75633048137942
30
0
41
1
10
171.369591359393
20
3.03588208769133
30
0
41
1
10
171.469844144918
20
3.58981836371945
30
0
41
1
10
171.519970537681
20
3.86419593639826
30
0
41
1
10
171.620223323206
20
4.40310245430311
30
0
41
1
10
171.670349715968
20
4.6676232048581
30
0
41
1
10
171.770602501493
20
5.18214818842233
30
0
41
1
10
171.820728894255
20
5.4321439370068
30
0
41
1
10
171.92098167978
20
5.91321836931564
30
0
41
1
10
171.971108072543
20
6.14428921863168
30
0
41
1
10
172.071360858068
20
6.58362915227121
30
0
41
1
10
172.12148725083
20
6.79189195539308
30
0
41
1
10
172.221740036355
20
7.18246208158007
30
0
41
1
10
172.271866429118
20
7.36476537001386
30
0
41
1
10
172.372119214643
20
7.70115090536834
30
0
41
1
10
172.422245607405
20
7.85523171884469
30
0
41
1
10
172.52249839293
20
8.13387793807254
30
0
41
1
10
172.572624785692
20
8.25844447865359
30
0
41
1
10
172.672877571217
20
8.47774296678452
30
0
41
1
10
172.72300396398
20
8.57247823713371
30
0
41
1
10
172.823256749505
20
8.73270154419038
30
0
41
1
10
172.873383142267
20
8.79819447322464
30
0
41
1
10
173.023762320554
20
8.95285456246057
30
0
41
1
10
173.124015106079
20
8.99999984999963
30
0
41
1
10
173.224267891604
20
8.99999999999963
30
0
0
SPLINE
5
EC
100
AcDbEntity
8
1
62
256
6
ByLayer
370
13
48
1
60
0
100
AcDbSpline
70
4
71
3
72
107
73
103
40
0
40
0
40
0
40
0
40
0.0312500000000004
40
0.0312500000000004
40
0.0468750000000007
40
0.0468750000000007
40
0.0625000000000009
40
0.0625000000000009
40
0.0781250000000012
40
0.0781250000000012
40
0.0937500000000014
40
0.0937500000000014
40
0.109375000000002
40
0.109375000000002
40
0.125000000000002
40
0.125000000000002
40
0.156250000000002
40
0.156250000000002
40
0.187500000000003
40
0.187500000000003
40
0.203125000000003
40
0.203125000000003
40
0.207031250000003
40
0.207031250000003
40
0.210937500000003
40
0.210937500000003
40
0.218750000000003
40
0.218750000000003
40
0.250000000000004
40
0.250000000000004
40
0.281250000000005
40
0.281250000000005
40
0.312500000000005
40
0.312500000000005
40
0.328125000000005
40
0.328125000000005
40
0.343750000000006
40
0.343750000000006
40
0.359375000000006
40
0.359375000000006
40
0.375000000000006
40
0.375000000000006
40
0.406250000000007
40
0.406250000000007
40
0.437500000000008
40
0.437500000000008
40
0.468750000000008
40
0.468750000000008
40
0.476562500000008
40
0.476562500000008
40
0.484375000000008
40
0.484375000000008
40
0.500000000000008
40
0.500000000000008
40
0.531250000000008
40
0.531250000000008
40
0.562500000000008
40
0.562500000000008
40
0.578125000000008
40
0.578125000000008
40
0.593750000000007
40
0.593750000000007
40
0.609375000000007
40
0.609375000000007
40
0.625000000000007
40
0.625000000000007
40
0.640625000000007
40
0.640625000000007
40
0.656250000000007
40
0.656250000000007
40
0.687500000000007
40
0.687500000000007
40
0.718750000000007
40
0.718750000000007
40
0.734375000000006
40
0.734375000000006
40
0.738281250000006
40
0.738281250000006
40
0.742187500000006
40
0.750000000000006
40
0.750000000000006
40
0.781250000000006
40
0.781250000000006
40
0.812500000000005
40
0.812500000000005
40
0.828125000000005
40
0.828125000000005
40
0.843750000000004
40
0.843750000000004
40
0.859375000000004
40
0.859375000000004
40
0.875000000000003
40
0.875000000000003
40
0.890625000000003
40
0.890625000000003
40
0.906250000000002
40
0.906250000000002
40
0.937500000000002
40
0.937500000000002
40
0.968750000000001
40
0.968750000000001
40
1
40
1
40
1
40
1
41
1
10
163.6
20
8.57614896358893
30
0
41
1
10
163.695081217968
20
8.40742803364779
30
0
41
1
10
163.790162435937
20
8.18525469984107
30
0
41
1
10
163.932784262889
20
7.77228913979499
30
0
41
1
10
163.980324871873
20
7.62144334701944
30
0
41
1
10
164.075406089841
20
7.29461659004437
30
0
41
1
10
164.122946698826
20
7.11863702419021
30
0
41
1
10
164.218027916794
20
6.74356776093563
30
0
41
1
10
164.265568525778
20
6.54448134121213
30
0
41
1
10
164.360649743747
20
6.1259329520145
30
0
41
1
10
164.408190352731
20
5.90647586958463
30
0
41
1
10
164.503271570699
20
5.45050651443586
30
0
41
1
10
164.550812179683
20
5.21400024983333
30
0
41
1
10
164.645893397651
20
4.72767315437153
30
0
41
1
10
164.693434006635
20
4.4778588283873
30
0
41
1
10
164.836055833588
20
3.7144000113085
30
0
41
1
10
164.931137051556
20
3.18683220702889
30
0
41
1
10
165.121299487493
20
2.12593303667043
30
0
41
1
10
165.216380705461
20
1.59274385774279
30
0
41
1
10
165.359002532414
20
0.80894198923275
30
0
41
1
10
165.406543141398
20
0.550287845937021
30
0
41
1
10
165.465968902628
20
0.231895561639732
30
0
41
1
10
165.477854054874
20
0.168462132694373
30
0
41
1
10
165.501624359366
20
0.0421217922019537
30
0
41
1
10
165.513509511612
20
-0.0206229590277758
30
0
41
1
10
165.54916496835
20
-0.209953062849451
30
0
41
1
10
165.572935272842
20
-0.337235222192931
30
0
41
1
10
165.691786795303
20
-0.978211596705137
30
0
41
1
10
165.786868013271
20
-1.50590237808996
30
0
41
1
10
165.977030449208
20
-2.56706858079633
30
0
41
1
10
166.072111667176
20
-3.10043485690761
30
0
41
1
10
166.262274103113
20
-4.14259446514993
30
0
41
1
10
166.357355321081
20
-4.651203517075
30
0
41
1
10
166.499977148033
20
-5.37157799095451
30
0
41
1
10
166.547517757017
20
-5.6046178048064
30
0
41
1
10
166.642598974986
20
-6.05287568165332
30
0
41
1
10
166.69013958397
20
-6.26808793424684
30
0
41
1
10
166.785220801938
20
-6.67748457405122
30
0
41
1
10
166.832761410922
20
-6.87166439531549
30
0
41
1
10
166.927842628891
20
-7.23640647269906
30
0
41
1
10
166.975383237875
20
-7.40696585295498
30
0
41
1
10
167.118005064827
20
-7.88042747900732
30
0
41
1
10
167.213086282796
20
-8.14471597583525
30
0
41
1
10
167.403248718732
20
-8.56517591900123
30
0
41
1
10
167.4983299367
20
-8.72142520976104
30
0
41
1
10
167.688492372637
20
-8.93215089643755
30
0
41
1
10
167.783573590605
20
-8.98676434185555
30
0
41
1
10
167.902425113066
20
-9.00062355542715
30
0
41
1
10
167.926195417558
20
-9.00072226589168
30
0
41
1
10
167.973736026542
20
-8.99558876648663
30
0
41
1
10
167.997506331034
20
-8.99032087291047
30
0
41
1
10
168.06881724451
20
-8.96602491886034
30
0
41
1
10
168.116357853494
20
-8.93849223680223
30
0
41
1
10
168.258979680447
20
-8.81915303425535
30
0
41
1
10
168.354060898415
20
-8.6903015673463
30
0
41
1
10
168.544223334352
20
-8.32529532549415
30
0
41
1
10
168.63930455232
20
-8.08904149731231
30
0
41
1
10
168.781926379273
20
-7.65568355358479
30
0
41
1
10
168.829466988257
20
-7.49816398365078
30
0
41
1
10
168.924548206225
20
-7.15844203700436
30
0
41
1
10
168.972088815209
20
-6.97624155817883
30
0
41
1
10
169.067170033177
20
-6.58937600441047
30
0
41
1
10
169.114710642161
20
-6.38471466054204
30
0
41
1
10
169.20979186013
20
-5.95582778896483
30
0
41
1
10
169.257332469114
20
-5.73160749334519
30
0
41
1
10
169.352413687082
20
-5.26704935943749
30
0
41
1
10
169.399954296066
20
-5.02671772125947
30
0
41
1
10
169.495035514035
20
-4.53375605156521
30
0
41
1
10
169.542576123019
20
-4.28113254582007
30
0
41
1
10
169.685197949971
20
-3.51081174842193
30
0
41
1
10
169.78027916794
20
-2.98077774913597
30
0
41
1
10
169.970441603876
20
-1.91881853570302
30
0
41
1
10
170.065522821844
20
-1.38702482405788
30
0
41
1
10
170.208144648797
20
-0.607547768261185
30
0
41
1
10
170.255685257781
20
-0.350704062633582
30
0
41
1
10
170.315111019011
20
-0.0349531831143679
30
0
41
1
10
170.326996171257
20
0.0277869034974003
30
0
41
1
10
170.350766475749
20
0.154047164805064
30
0
41
1
10
170.386421932488
20
0.344230856925435
30
0
41
1
10
170.422077389226
20
0.536634576301481
30
0
41
1
10
170.540928911686
20
1.1821275151614
30
0
41
1
10
170.636010129654
20
1.71208297644944
30
0
41
1
10
170.826172565591
20
2.77412306712776
30
0
41
1
10
170.921253783559
20
3.30608724398783
30
0
41
1
10
171.063875610512
20
4.08246099030342
30
0
41
1
10
171.111416219496
20
4.33762346402671
30
0
41
1
10
171.206497437464
20
4.83669125228329
30
0
41
1
10
171.254038046448
20
5.08059006388007
30
0
41
1
10
171.349119264416
20
5.55324567476998
30
0
41
1
10
171.396659873401
20
5.78199612580895
30
0
41
1
10
171.491741091369
20
6.22079227123615
30
0
41
1
10
171.539281700353
20
6.43083242487381
30
0
41
1
10
171.634362918321
20
6.8291482009916
30
0
41
1
10
171.681903527306
20
7.01741966163041
30
0
41
1
10
171.776984745274
20
7.36978888735206
30
0
41
1
10
171.824525354258
20
7.53388426052115
30
0
41
1
10
171.96714718121
20
7.98742143888811
30
0
41
1
10
172.062228399179
20
8.23772294934784
30
0
41
1
10
172.252390835115
20
8.63041827345731
30
0
41
1
10
172.347472053084
20
8.77290101463544
30
0
41
1
10
172.53763448902
20
8.95762177516229
30
0
41
1
10
172.632715706989
20
9
30
0
41
1
10
172.727796924957
20
9
30
0
0
SPLINE
5
ED
100
AcDbEntity
8
1
62
256
6
ByLayer
370
13
48
1
60
0
100
AcDbSpline
70
4
71
3
72
85
73
81
40
0
40
0
40
0
40
0
40
0.0312499999999984
40
0.0312499999999984
40
0.0624999999999967
40
0.0624999999999967
40
0.093749999999995
40
0.093749999999995
40
0.124999999999993
40
0.124999999999993
40
0.156249999999992
40
0.156249999999992
40
0.164062499999991
40
0.164062499999991
40
0.171874999999991
40
0.171874999999991
40
0.187499999999991
40
0.187499999999991
40
0.218749999999991
40
0.218749999999991
40
0.249999999999991
40
0.249999999999991
40
0.281249999999991
40
0.281249999999991
40
0.312499999999991
40
0.312499999999991
40
0.343749999999991
40
0.343749999999991
40
0.374999999999991
40
0.374999999999991
40
0.40624999999999
40
0.40624999999999
40
0.43749999999999
40
0.43749999999999
40
0.44140624999999
40
0.44140624999999
40
0.44531249999999
40
0.44531249999999
40
0.45312499999999
40
0.45312499999999
40
0.46874999999999
40
0.46874999999999
40
0.49999999999999
40
0.49999999999999
40
0.53124999999999
40
0.53124999999999
40
0.56249999999999
40
0.56249999999999
40
0.59374999999999
40
0.59374999999999
40
0.624999999999989
40
0.624999999999989
40
0.656249999999989
40
0.656249999999989
40
0.687499999999989
40
0.687499999999989
40
0.718749999999989
40
0.718749999999989
40
0.722656249999989
40
0.722656249999989
40
0.72656249999999
40
0.73437499999999
40
0.73437499999999
40
0.74999999999999
40
0.74999999999999
40
0.781249999999991
40
0.781249999999991
40
0.812499999999993
40
0.812499999999993
40
0.843749999999994
40
0.843749999999994
40
0.874999999999995
40
0.874999999999995
40
0.906249999999996
40
0.906249999999996
40
0.937499999999998
40
0.937499999999998
40
0.968749999999999
40
0.968749999999999
40
1
40
1
40
1
40
1
41
1
10
163.6
20
7.21360291234842
30
0
41
1
10
163.689909640386
20
6.88213224301398
30
0
41
1
10
163.779819280773
20
6.50703703699605
30
0
41
1
10
163.959638561546
20
5.68767245721151
30
0
41
1
10
164.049548201932
20
5.24353138150948
30
0
41
1
10
164.229367482705
20
4.31104862674644
30
0
41
1
10
164.319277123091
20
3.82286291733931
30
0
41
1
10
164.499096403864
20
2.82959233271922
30
0
41
1
10
164.589006044251
20
2.32463853707446
30
0
41
1
10
164.768825325023
20
1.32296048862042
30
0
41
1
10
164.85873496541
20
0.826309835392067
30
0
41
1
10
164.971122015893
20
0.223006878828698
30
0
41
1
10
164.993599425989
20
0.103366191451329
30
0
41
1
10
165.038554246183
20
-0.134612072538289
30
0
41
1
10
165.061031656279
20
-0.254573227962453
30
0
41
1
10
165.128463886569
20
-0.617003399855861
30
0
41
1
10
165.173418706762
20
-0.862031688963583
30
0
41
1
10
165.308283167342
20
-1.60392507424555
30
0
41
1
10
165.398192807728
20
-2.10776045249844
30
0
41
1
10
165.578012088501
20
-3.11126595190163
30
0
41
1
10
165.667921728888
20
-3.61083027393829
30
0
41
1
10
165.84774100966
20
-4.57911547374783
30
0
41
1
10
165.937650650047
20
-5.04768645369191
30
0
41
1
10
166.11746993082
20
-5.92729755865739
30
0
41
1
10
166.207379571206
20
-6.33818933276049
30
0
41
1
10
166.387198851979
20
-7.08041576343484
30
0
41
1
10
166.477108492366
20
-7.41165610306487
30
0
41
1
10
166.656927773138
20
-7.98104850973957
30
0
41
1
10
166.746837413525
20
-8.21918995284597
30
0
41
1
10
166.926656694297
20
-8.59900329566059
30
0
41
1
10
167.016566334684
20
-8.74074001447138
30
0
41
1
10
167.196385615457
20
-8.93363295660762
30
0
41
1
10
167.286295255843
20
-8.98489371749852
30
0
41
1
10
167.387443601278
20
-8.99862290652024
30
0
41
1
10
167.398682306326
20
-8.99954104607932
30
0
41
1
10
167.421159716423
20
-9.00019113404818
30
0
41
1
10
167.432398421471
20
-8.9999272780644
30
0
41
1
10
167.466114536616
20
-8.99734184667932
30
0
41
1
10
167.488591946713
20
-8.99321961712118
30
0
41
1
10
167.556024177003
20
-8.97332470912048
30
0
41
1
10
167.600978997196
20
-8.95001438110626
30
0
41
1
10
167.735843457775
20
-8.84757073449134
30
0
41
1
10
167.825753098162
20
-8.73569262424888
30
0
41
1
10
168.005572378935
20
-8.41660444901913
30
0
41
1
10
168.095482019321
20
-8.20931235996082
30
0
41
1
10
168.275301300094
20
-7.69948635851082
30
0
41
1
10
168.36521094048
20
-7.39693639591431
30
0
41
1
10
168.545030221253
20
-6.70677483610285
30
0
41
1
10
168.63493986164
20
-6.31923235129963
30
0
41
1
10
168.814759142412
20
-5.47860213664327
30
0
41
1
10
168.904668782799
20
-5.02565070006605
30
0
41
1
10
169.084488063572
20
-4.07986687047554
30
0
41
1
10
169.174397703958
20
-3.58718975378767
30
0
41
1
10
169.354216984731
20
-2.58918971116617
30
0
41
1
10
169.444126625117
20
-2.08399011545995
30
0
41
1
10
169.62394590589
20
-1.08538774922036
30
0
41
1
10
169.713855546277
20
-0.592048444497948
30
0
41
1
10
169.815003891711
20
-0.0542347193876083
30
0
41
1
10
169.82624259676
20
0.0051262913936228
30
0
41
1
10
169.848720006856
20
0.124380176009595
30
0
41
1
10
169.882436122001
20
0.303976892501282
30
0
41
1
10
169.916152237146
20
0.485587222355775
30
0
41
1
10
169.983584467436
20
0.851098869880644
30
0
41
1
10
170.028539287629
20
1.0978401891046
30
0
41
1
10
170.163403748209
20
1.84365846441179
30
0
41
1
10
170.253313388595
20
2.34847858804591
30
0
41
1
10
170.433132669368
20
3.34988185006108
30
0
41
1
10
170.523042309754
20
3.84635012851561
30
0
41
1
10
170.702861590527
20
4.80407118269031
30
0
41
1
10
170.792771230914
20
5.26517072769488
30
0
41
1
10
170.972590511686
20
6.12589867881263
30
0
41
1
10
171.062500152073
20
6.52538408477147
30
0
41
1
10
171.242319432846
20
7.24199869944405
30
0
41
1
10
171.332229073232
20
7.55904587647862
30
0
41
1
10
171.512048354005
20
8.09882724184931
30
0
41
1
10
171.601957994391
20
8.32156433688181
30
0
41
1
10
171.781777275164
20
8.67094057562363
30
0
41
1
10
171.871686915551
20
8.79765365055971
30
0
41
1
10
172.051506196323
20
8.96212986188584
30
0
41
1
10
172.14141583671
20
9
30
0
41
1
10
172.231325477096
20
9
30
0
0
SPLINE
5
EE
100
AcDbEntity
8
1
62
256
6
ByLayer
370
13
48
1
60
0
100
AcDbSpline
70
4
71
3
72
8
73
4
40
0
40
0
40
0
40
0
40
1
40
1
40
1
40
1
41
1
10
173.032957990565
20
9
30
0
41
1
10
173.096727957578
20
9
30
0
41
1
10
173.160497924591
20
8.98099516531209
30
0
41
1
10
173.224267891604
20
8.94055264012752
30
0
0
SPLINE
5
EF
100
AcDbEntity
8
1
62
256
6
ByLayer
370
13
48
1
60
0
100
AcDbSpline
70
4
71
3
72
84
73
80
40
0
40
0
40
0
40
0
40
0.0312499999999978
40
0.0312499999999978
40
0.0624999999999956
40
0.0624999999999956
40
0.0937499999999934
40
0.0937499999999934
40
0.109374999999992
40
0.109374999999992
40
0.117187499999992
40
0.117187499999992
40
0.124999999999991
40
0.124999999999991
40
0.156249999999989
40
0.156249999999989
40
0.187499999999987
40
0.187499999999987
40
0.218749999999984
40
0.218749999999984
40
0.249999999999982
40
0.249999999999982
40
0.28124999999998
40
0.28124999999998
40
0.312499999999978
40
0.312499999999978
40
0.343749999999976
40
0.343749999999976
40
0.374999999999973
40
0.374999999999973
40
0.406249999999971
40
0.406249999999971
40
0.410156249999971
40
0.410156249999971
40
0.414062499999971
40
0.421874999999971
40
0.421874999999971
40
0.437499999999971
40
0.437499999999971
40
0.468749999999972
40
0.468749999999972
40
0.499999999999972
40
0.499999999999972
40
0.531249999999973
40
0.531249999999973
40
0.562499999999973
40
0.562499999999973
40
0.593749999999974
40
0.593749999999974
40
0.624999999999974
40
0.624999999999974
40
0.656249999999975
40
0.656249999999975
40
0.687499999999976
40
0.687499999999976
40
0.703124999999976
40
0.703124999999976
40
0.707031249999976
40
0.707031249999976
40
0.710937499999976
40
0.718749999999977
40
0.718749999999977
40
0.749999999999979
40
0.749999999999979
40
0.781249999999982
40
0.781249999999982
40
0.812499999999984
40
0.812499999999984
40
0.843749999999987
40
0.843749999999987
40
0.87499999999999
40
0.87499999999999
40
0.906249999999992
40
0.906249999999992
40
0.937499999999995
40
0.937499999999995
40
0.968749999999997
40
0.968749999999997
40
1
40
1
40
1
40
1
41
1
10
163.6
20
4.99847875959318
30
0
41
1
10
163.684738062805
20
4.56595889397116
30
0
41
1
10
163.769476125609
20
4.11205490723657
30
0
41
1
10
163.938952251218
20
3.18402507453698
30
0
41
1
10
164.023690314023
20
2.71000367441425
30
0
41
1
10
164.193166439632
20
1.76350613613082
30
0
41
1
10
164.277904502436
20
1.29109760971818
30
0
41
1
10
164.405011596643
20
0.597212924067208
30
0
41
1
10
164.447380628045
20
0.368337808409024
30
0
41
1
10
164.510934175149
20
0.0299950436945551
30
0
41
1
10
164.53211869085
20
-0.0816908916001182
30
0
41
1
10
164.574487722252
20
-0.307753986143268
30
0
41
1
10
164.595672237953
20
-0.421595629367062
30
0
41
1
10
164.701594816459
20
-0.994313426300437
30
0
41
1
10
164.786332879264
20
-1.46390769949483
30
0
41
1
10
164.955809004873
20
-2.40896118654948
30
0
41
1
10
165.040547067677
20
-2.88436211771193
30
0
41
1
10
165.210023193286
20
-3.8199367280946
30
0
41
1
10
165.294761256091
20
-4.28001220425111
30
0
41
1
10
165.4642373817
20
-5.16213470882363
30
0
41
1
10
165.548975444504
20
-5.58406556765723
30
0
41
1
10
165.718451570114
20
-6.3687073074108
30
0
41
1
10
165.803189632918
20
-6.73131883117696
30
0
41
1
10
165.972665758527
20
-7.38111312010867
30
0
41
1
10
166.057403821332
20
-7.66824467687806
30
0
41
1
10
166.226879946941
20
-8.15822004358702
30
0
41
1
10
166.311618009745
20
-8.36107263449239
30
0
41
1
10
166.481094135354
20
-8.68163970518719
30
0
41
1
10
166.565832198159
20
-8.79941124007655
30
0
41
1
10
166.735308323768
20
-8.9559222386429
30
0
41
1
10
166.820046386573
20
-8.99474134654889
30
0
41
1
10
166.915376707228
20
-9.00009226533453
30
0
41
1
10
166.925968965078
20
-9.00015930920728
30
0
41
1
10
166.947153480779
20
-8.99924302516456
30
0
41
1
10
166.978930254331
20
-8.9962831043172
30
0
41
1
10
167.010707027883
20
-8.98845851932577
30
0
41
1
10
167.074260574986
20
-8.96604970043964
30
0
41
1
10
167.116629606388
20
-8.94208994060278
30
0
41
1
10
167.243736700595
20
-8.84120037268687
30
0
41
1
10
167.3284747634
20
-8.73507708046935
30
0
41
1
10
167.497950889009
20
-8.43829794026252
30
0
41
1
10
167.582688951813
20
-8.24758015435839
30
0
41
1
10
167.752165077422
20
-7.78129277632465
30
0
41
1
10
167.836903140227
20
-7.50570640935464
30
0
41
1
10
168.006379265836
20
-6.87728854329617
30
0
41
1
10
168.091117328641
20
-6.52449993331157
30
0
41
1
10
168.26059345425
20
-5.75685547890595
30
0
41
1
10
168.345331517054
20
-5.3420937839397
30
0
41
1
10
168.514807642663
20
-4.47113992653334
30
0
41
1
10
168.599545705468
20
-4.01506379338571
30
0
41
1
10
168.769021831077
20
-3.08429594871475
30
0
41
1
10
168.853759893881
20
-2.60970672478467
30
0
41
1
10
169.02323601949
20
-1.66349436953772
30
0
41
1
10
169.107974082295
20
-1.19193576451295
30
0
41
1
10
169.235081176502
20
-0.50014610079154
30
0
41
1
10
169.277450207904
20
-0.272105225480914
30
0
41
1
10
169.330411497157
20
0.0086630267838643
30
0
41
1
10
169.341003755008
20
0.0646511233466356
30
0
41
1
10
169.362188270709
20
0.177325330438492
30
0
41
1
10
169.39396504426
20
0.346960072732287
30
0
41
1
10
169.425741817812
20
0.518350997995015
30
0
41
1
10
169.531664396318
20
1.09300182189412
30
0
41
1
10
169.616402459122
20
1.56362177582008
30
0
41
1
10
169.785878584731
20
2.50935186838825
30
0
41
1
10
169.870616647536
20
2.98440059264871
30
0
41
1
10
170.040092773145
20
3.91768304179269
30
0
41
1
10
170.124830835949
20
4.37581636216214
30
0
41
1
10
170.294306961559
20
5.2524649494942
30
0
41
1
10
170.379045024363
20
5.67086402575302
30
0
41
1
10
170.548521149972
20
6.4470995604191
30
0
41
1
10
170.633259212777
20
6.8048391862809
30
0
41
1
10
170.802735338386
20
7.44400544387733
30
0
41
1
10
170.88747340119
20
7.7253850010166
30
0
41
1
10
171.056949526799
20
8.20353732221082
30
0
41
1
10
171.141687589604
20
8.40032289930073
30
0
41
1
10
171.311163715213
20
8.70897955970386
30
0
41
1
10
171.395901778018
20
8.82091020774962
30
0
41
1
10
171.565377903627
20
8.96638032733716
30
0
41
1
10
171.650115966431
20
9
30
0
41
1
10
171.734854029236
20
9
30
0
0
SPLINE
5
F0
100
AcDbEntity
8
1
62
256
6
ByLayer
370
13
48
1
60
0
100
AcDbSpline
70
4
71
3
72
14
73
10
40
0
40
0
40
0
40
0
40
0.25
40
0.25
40
0.5
40
0.5
40
0.75
40
0.75
40
1
40
1
40
1
40
1
41
1
10
172.536486542704
20
9
30
0
41
1
10
172.593801655112
20
9
30
0
41
1
10
172.651116767521
20
8.98465445916653
30
0
41
1
10
172.765746992337
20
8.91970191751983
30
0
41
1
10
172.823062104746
20
8.87008334305574
30
0
41
1
10
172.937692329562
20
8.73378764994641
30
0
41
1
10
172.995007441971
20
8.64709965709756
30
0
41
1
10
173.109637666788
20
8.43500583449989
30
0
41
1
10
173.166952779196
20
8.30959161622636
30
0
41
1
10
173.224267891604
20
8.16470576924979
30
0
0
SPLINE
5
F1
100
AcDbEntity
8
1
62
256
6
ByLayer
370
13
48
1
60
0
100
AcDbSpline
70
4
71
3
72
85
73
81
40
0
40
0
40
0
40
0
40
0.0312499999999962
40
0.0312499999999962
40
0.0468749999999943
40
0.0468749999999943
40
0.0546874999999934
40
0.0546874999999934
40
0.0624999999999924
40
0.0624999999999924
40
0.0937499999999898
40
0.0937499999999898
40
0.124999999999987
40
0.124999999999987
40
0.156249999999984
40
0.156249999999984
40
0.187499999999982
40
0.187499999999982
40
0.218749999999979
40
0.218749999999979
40
0.249999999999976
40
0.249999999999976
40
0.281249999999974
40
0.281249999999974
40
0.312499999999971
40
0.312499999999971
40
0.343749999999968
40
0.343749999999968
40
0.359374999999967
40
0.359374999999967
40
0.367187499999966
40
0.367187499999966
40
0.371093749999966
40
0.371093749999966
40
0.374999999999966
40
0.374999999999966
40
0.406249999999966
40
0.406249999999966
40
0.437499999999966
40
0.437499999999966
40
0.468749999999967
40
0.468749999999967
40
0.499999999999967
40
0.499999999999967
40
0.531249999999967
40
0.531249999999967
40
0.562499999999967
40
0.562499999999967
40
0.593749999999967
40
0.593749999999967
40
0.624999999999968
40
0.624999999999968
40
0.656249999999968
40
0.656249999999968
40
0.671874999999968
40
0.671874999999968
40
0.679687499999968
40
0.683593749999968
40
0.683593749999968
40
0.687499999999968
40
0.687499999999968
40
0.718749999999972
40
0.718749999999972
40
0.749999999999975
40
0.749999999999975
40
0.781249999999978
40
0.781249999999978
40
0.812499999999981
40
0.812499999999981
40
0.843749999999984
40
0.843749999999984
40
0.874999999999988
40
0.874999999999988
40
0.906249999999991
40
0.906249999999991
40
0.937499999999994
40
0.937499999999994
40
0.968749999999997
40
0.968749999999997
40
1
40
1
40
1
40
1
41
1
10
163.6
20
2.30353579761928
30
0
41
1
10
163.679566485223
20
1.85913223506202
30
0
41
1
10
163.759132970445
20
1.41502926289468
30
0
41
1
10
163.878482698279
20
0.760692037585216
30
0
41
1
10
163.918265940891
20
0.544522750988477
30
0
41
1
10
163.977940804808
20
0.224342376629153
30
0
41
1
10
163.997832426113
20
0.118292568895356
30
0
41
1
10
164.037615668725
20
-0.0922835838572666
30
0
41
1
10
164.05750729003
20
-0.198095955860822
30
0
41
1
10
164.156965396559
20
-0.73116984703546
30
0
41
1
10
164.236531881781
20
-1.16872957856657
30
0
41
1
10
164.395664852227
20
-2.05279870991379
30
0
41
1
10
164.475231337449
20
-2.49927307426813
30
0
41
1
10
164.634364307895
20
-3.38444674868978
30
0
41
1
10
164.713930793117
20
-3.82308175111584
30
0
41
1
10
164.873063763563
20
-4.67388952942446
30
0
41
1
10
164.952630248785
20
-5.08597938468503
30
0
41
1
10
165.111763219231
20
-5.86530880300026
30
0
41
1
10
165.191329704453
20
-6.2324673915418
30
0
41
1
10
165.350462674898
20
-6.90639033082164
30
0
41
1
10
165.430029160121
20
-7.21309839158494
30
0
41
1
10
165.589162130567
20
-7.75556437147424
30
0
41
1
10
165.668728615789
20
-7.99130529449377
30
0
41
1
10
165.827861586234
20
-8.38741286116053
30
0
41
1
10
165.907428071457
20
-8.54780206023119
30
0
41
1
10
166.066561041902
20
-8.79481721084846
30
0
41
1
10
166.146127527125
20
-8.88149287724568
30
0
41
1
10
166.265477254959
20
-8.96106292483708
30
0
41
1
10
166.30526049757
20
-8.97921213853752
30
0
41
1
10
166.364935361487
20
-8.99471705937324
30
0
41
1
10
166.384826982793
20
-8.99793358886146
30
0
41
1
10
166.414664414752
20
-8.99994660570266
30
0
41
1
10
166.424610225404
20
-9.00015017066028
30
0
41
1
10
166.44450184671
20
-8.99963481689147
30
0
41
1
10
166.454447657363
20
-8.99891298207271
30
0
41
1
10
166.543959953238
20
-8.98815008376198
30
0
41
1
10
166.623526438461
20
-8.94813428285221
30
0
41
1
10
166.782659408906
20
-8.79844810718819
30
0
41
1
10
166.862225894129
20
-8.68871961436432
30
0
41
1
10
167.021358864574
20
-8.39446707612296
30
0
41
1
10
167.100925349797
20
-8.20990015708225
30
0
41
1
10
167.260058320242
20
-7.76614228666836
30
0
41
1
10
167.339624805465
20
-7.50694056098081
30
0
41
1
10
167.49875777591
20
-6.92026348962216
30
0
41
1
10
167.578324261133
20
-6.59281845552786
30
0
41
1
10
167.737457231578
20
-5.88191399447618
30
0
41
1
10
167.817023716801
20
-5.49852091408525
30
0
41
1
10
167.976156687246
20
-4.69240413949939
30
0
41
1
10
168.055723172469
20
-4.26976461969366
30
0
41
1
10
168.214856142914
20
-3.40392532563644
30
0
41
1
10
168.294422628137
20
-2.96080438591125
30
0
41
1
10
168.453555598582
20
-2.07232481585848
30
0
41
1
10
168.533122083805
20
-1.62702172456244
30
0
41
1
10
168.652471811639
20
-0.969237619267773
30
0
41
1
10
168.69225505425
20
-0.751646460270251
30
0
41
1
10
168.751929918167
20
-0.428983039702558
30
0
41
1
10
168.781767350126
20
-0.268579304466499
30
0
41
1
10
168.811604782084
20
-0.10976951379385
30
0
41
1
10
168.83149640339
20
-0.0042711117813212
30
0
41
1
10
168.841442214043
20
0.0482705337053346
30
0
41
1
10
168.930954509918
20
0.52394552819905
30
0
41
1
10
169.010520995141
20
0.958746036143197
30
0
41
1
10
169.169653965586
20
1.83967470584813
30
0
41
1
10
169.249220450809
20
2.28577271224509
30
0
41
1
10
169.408353421254
20
3.1730476508813
30
0
41
1
10
169.487919906477
20
3.61416454767328
30
0
41
1
10
169.647052876922
20
4.47296761043322
30
0
41
1
10
169.726619362145
20
4.89057264427373
30
0
41
1
10
169.88575233259
20
5.68374489903809
30
0
41
1
10
169.965318817813
20
6.05922923888807
30
0
41
1
10
170.124451788258
20
6.75199892873189
30
0
41
1
10
170.204018273481
20
7.06922274140217
30
0
41
1
10
170.363151243926
20
7.63401044069553
30
0
41
1
10
170.442717729149
20
7.88155064034549
30
0
41
1
10
170.601850699594
20
8.30154164504799
30
0
41
1
10
170.681417184816
20
8.47400926067459
30
0
41
1
10
170.840550155262
20
8.74455605215078
30
0
41
1
10
170.920116640485
20
8.8426817524134
30
0
41
1
10
171.07924961093
20
8.97037426722432
30
0
41
1
10
171.158816096152
20
9
30
0
41
1
10
171.238382581375
20
9
30
0
0
SPLINE
5
F2
100
AcDbEntity
8
1
62
256
6
ByLayer
370
13
48
1
60
0
100
AcDbSpline
70
4
71
3
72
20
73
16
40
0
40
0
40
0
40
0
40
0.25
40
0.25
40
0.375
40
0.375
40
0.5
40
0.5
40
0.624999999999999
40
0.624999999999999
40
0.75
40
0.75
40
0.875
40
0.875
40
1
40
1
40
1
40
1
41
1
10
172.040015094844
20
9
30
0
41
1
10
172.138702827907
20
9
30
0
41
1
10
172.23739056097
20
8.95432485406067
30
0
41
1
10
172.385422160565
20
8.80464229741847
30
0
41
1
10
172.434766027097
20
8.74126722255022
30
0
41
1
10
172.533453760161
20
8.5862334873602
30
0
41
1
10
172.582797626692
20
8.4945702519496
30
0
41
1
10
172.681485359756
20
8.28235300535124
30
0
41
1
10
172.730829226287
20
8.16179581294008
30
0
41
1
10
172.829516959351
20
7.89202756935592
30
0
41
1
10
172.878860825882
20
7.74281529453035
30
0
41
1
10
172.977548558946
20
7.41688604595828
30
0
41
1
10
173.026892425477
20
7.24017016796498
30
0
41
1
10
173.125580158541
20
6.86129819342568
30
0
41
1
10
173.174924025072
20
6.65914557353273
30
0
41
1
10
173.224267891604
20
6.44572840867588
30
0
0
SPLINE
5
F3
100
AcDbEntity
8
1
62
256
6
ByLayer
370
13
48
1
60
0
100
AcDbSpline
70
4
71
3
72
81
73
77
40
0
40
0
40
0
40
0
40
0.0312500000000001
40
0.0312500000000001
40
0.0625000000000002
40
0.0625000000000002
40
0.0937500000000003
40
0.0937500000000003
40
0.125
40
0.125
40
0.15625
40
0.15625
40
0.1875
40
0.1875
40
0.21875
40
0.21875
40
0.25
40
0.25
40
0.28125
40
0.28125
40
0.3125
40
0.3125
40
0.3203125
40
0.32421875
40
0.32421875
40
0.328125
40
0.328125
40
0.34375
40
0.34375
40
0.375
40
0.375
40
0.40625
40
0.40625
40
0.4375
40
0.4375
40
0.46875
40
0.46875
40
0.5
40
0.5
40
0.53125
40
0.53125
40
0.5625
40
0.5625
40
0.59375
40
0.59375
40
0.625
40
0.625
40
0.65625
40
0.65625
40
0.66015625
40
0.66015625
40
0.6640625
40
0.6640625
40
0.671875
40
0.671875
40
0.6875
40
0.6875
40
0.71875
40
0.71875
40
0.75
40
0.75
40
0.78125
40
0.78125
40
0.8125
40
0.8125
40
0.84375
40
0.84375
40
0.875
40
0.875
40
0.90625
40
0.90625
40
0.9375
40
0.9375
40
0.96875
40
0.96875
40
1
40
1
40
1
40
1
41
1
10
163.6
20
-0.407141987043559
30
0
41
1
10
163.674394907641
20
-0.807482863015935
30
0
41
1
10
163.748789815282
20
-1.21711008483763
30
0
41
1
10
163.897579630563
20
-2.04395492986234
30
0
41
1
10
163.971974538204
20
-2.4611471935136
30
0
41
1
10
164.120764353485
20
-3.28949437330201
30
0
41
1
10
164.195159261126
20
-3.70060422913647
30
0
41
1
10
164.343949076408
20
-4.5015863688221
30
0
41
1
10
164.418343984049
20
-4.89140019270437
30
0
41
1
10
164.56713379933
20
-5.63460181516089
30
0
41
1
10
164.641528706971
20
-5.98793014155214
30
0
41
1
10
164.790318522253
20
-6.6448057736699
30
0
41
1
10
164.864713429893
20
-6.94830715143766
30
0
41
1
10
165.013503245175
20
-7.49564416246537
30
0
41
1
10
165.087898152816
20
-7.73945839370276
30
0
41
1
10
165.236687968097
20
-8.162053084457
30
0
41
1
10
165.311082875738
20
-8.3408397416739
30
0
41
1
10
165.459872691019
20
-8.63275941281415
30
0
41
1
10
165.53426759866
20
-8.74592095854493
30
0
41
1
10
165.683057413942
20
-8.91017055174601
30
0
41
1
10
165.757452321582
20
-8.96129915437558
30
0
41
1
10
165.850445956134
20
-8.99060231240983
30
0
41
1
10
165.878344046499
20
-8.99680644441054
30
0
41
1
10
165.906242136864
20
-8.99927011205642
30
0
41
1
10
165.924840863774
20
-9.00009760299272
30
0
41
1
10
165.934140227229
20
-9.00010584921935
30
0
41
1
10
165.980637044505
20
-8.99812084227781
30
0
41
1
10
166.017834498325
20
-8.99001135330309
30
0
41
1
10
166.129426859786
20
-8.94462852386786
30
0
41
1
10
166.203821767427
20
-8.8862145645526
30
0
41
1
10
166.352611582709
20
-8.70676164911626
30
0
41
1
10
166.42700649035
20
-8.58568300093458
30
0
41
1
10
166.575796305631
20
-8.27775760227851
30
0
41
1
10
166.650191213272
20
-8.09088455793841
30
0
41
1
10
166.798981028553
20
-7.65250940021457
30
0
41
1
10
166.873375936194
20
-7.40100433332105
30
0
41
1
10
167.022165751476
20
-6.83926027105926
30
0
41
1
10
167.096560659117
20
-6.52904602649784
30
0
41
1
10
167.245350474398
20
-5.86021728489607
30
0
41
1
10
167.319745382039
20
-5.50165108895723
30
0
41
1
10
167.46853519732
20
-4.74977012641546
30
0
41
1
10
167.542930104961
20
-4.35651549894075
30
0
41
1
10
167.691719920243
20
-3.55054984061351
30
0
41
1
10
167.766114827884
20
-3.13789619651107
30
0
41
1
10
167.914904643165
20
-2.30824580251431
30
0
41
1
10
167.989299550806
20
-1.89129189785243
30
0
41
1
10
168.138089366088
20
-1.06643107244017
30
0
41
1
10
168.212484273728
20
-0.658547003095975
30
0
41
1
10
168.296178544824
20
-0.210766410074115
30
0
41
1
10
168.305477908279
20
-0.161165094116001
30
0
41
1
10
168.324076635189
20
-0.0622840214967937
30
0
41
1
10
168.333375998644
20
-0.0131077912220405
30
0
41
1
10
168.36127408901
20
0.134715070337734
30
0
41
1
10
168.37987281592
20
0.23392430721924
30
0
41
1
10
168.43566899665
20
0.533325388109233
30
0
41
1
10
168.472866450471
20
0.735296549017278
30
0
41
1
10
168.584458811932
20
1.34643541970857
30
0
41
1
10
168.658853719573
20
1.76091099516302
30
0
41
1
10
168.807643534854
20
2.5917485300067
30
0
41
1
10
168.882038442495
20
3.00807616026807
30
0
41
1
10
169.030828257777
20
3.82813429128797
30
0
41
1
10
169.105223165417
20
4.23181266551597
30
0
41
1
10
169.254012980699
20
5.01115945007328
30
0
41
1
10
169.32840788834
20
5.38676717875319
30
0
41
1
10
169.477197703621
20
6.09536491581954
30
0
41
1
10
169.551592611262
20
6.42829968057887
30
0
41
1
10
169.700382426544
20
7.03954453650971
30
0
41
1
10
169.774777334184
20
7.3178185134945
30
0
41
1
10
169.923567149466
20
7.81175587393403
30
0
41
1
10
169.997962057107
20
8.02741011952475
30
0
41
1
10
170.146751872388
20
8.39284465882091
30
0
41
1
10
170.221146780029
20
8.54264200139389
30
0
41
1
10
170.369936595311
20
8.77769198535177
30
0
41
1
10
170.444331502952
20
8.86297983143305
30
0
41
1
10
170.593121318233
20
8.97411267954584
30
0
41
1
10
170.667516225874
20
9
30
0
41
1
10
170.741911133514
20
9
30
0
0
SPLINE
5
F4
100
AcDbEntity
8
1
62
256
6
ByLayer
370
13
48
1
60
0
100
AcDbSpline
70
4
71
3
72
22
73
18
40
0
40
0
40
0
40
0
40
0.125
40
0.125
40
0.25
40
0.25
40
0.375
40
0.375
40
0.5
40
0.5
40
0.625
40
0.625
40
0.75
40
0.75
40
0.875
40
0.875
40
1
40
1
40
1
40
1
41
1
10
171.543543646983
20
9
30
0
41
1
10
171.613573823842
20
9
30
0
41
1
10
171.683604000702
20
8.97706967287789
30
0
41
1
10
171.82366435442
20
8.87897336784309
30
0
41
1
10
171.893694531279
20
8.80377600949751
30
0
41
1
10
172.033754884997
20
8.59665367568672
30
0
41
1
10
172.103785061857
20
8.46470158772374
30
0
41
1
10
172.243845415575
20
8.1424233645327
30
0
41
1
10
172.313875592434
20
7.95208168875931
30
0
41
1
10
172.453935946153
20
7.51489152689328
30
0
41
1
10
172.523966123012
20
7.26804495199599
30
0
41
1
10
172.66402647673
20
6.72345035593571
30
0
41
1
10
172.73405665359
20
6.42572352893504
30
0
41
1
10
172.874117007308
20
5.78836744007307
30
0
41
1
10
172.944147184167
20
5.4487750910817
30
0
41
1
10
173.084207537886
20
4.73918993424067
30
0
41
1
10
173.154237714745
20
4.36924172617074
30
0
41
1
10
173.224267891604
20
3.99046724636415
30
0
0
SPLINE
5
F5
100
AcDbEntity
8
1
62
256
6
ByLayer
370
13
48
1
60
0
100
AcDbSpline
70
4
71
3
72
80
73
76
40
0
40
0
40
0
40
0
40
0.0312499999999976
40
0.0312499999999976
40
0.0624999999999952
40
0.0624999999999952
40
0.0937499999999928
40
0.0937499999999928
40
0.12499999999999
40
0.12499999999999
40
0.156249999999988
40
0.156249999999988
40
0.187499999999986
40
0.187499999999986
40
0.218749999999983
40
0.218749999999983
40
0.249999999999981
40
0.249999999999981
40
0.265624999999979
40
0.265624999999979
40
0.273437499999979
40
0.273437499999979
40
0.277343749999979
40
0.277343749999979
40
0.281249999999978
40
0.281249999999978
40
0.312499999999979
40
0.312499999999979
40
0.34374999999998
40
0.34374999999998
40
0.374999999999981
40
0.374999999999981
40
0.406249999999982
40
0.406249999999982
40
0.437499999999983
40
0.437499999999983
40
0.468749999999984
40
0.468749999999984
40
0.499999999999985
40
0.499999999999985
40
0.531249999999986
40
0.531249999999986
40
0.562499999999987
40
0.562499999999987
40
0.593749999999988
40
0.593749999999988
40
0.624999999999989
40
0.624999999999989
40
0.632812499999989
40
0.632812499999989
40
0.640624999999989
40
0.640624999999989
40
0.65624999999999
40
0.65624999999999
40
0.687499999999991
40
0.687499999999991
40
0.718749999999991
40
0.718749999999991
40
0.749999999999992
40
0.749999999999992
40
0.781249999999993
40
0.781249999999993
40
0.812499999999994
40
0.812499999999994
40
0.843749999999995
40
0.843749999999995
40
0.874999999999996
40
0.874999999999996
40
0.906249999999997
40
0.906249999999997
40
0.937499999999998
40
0.937499999999998
40
0.968749999999999
40
0.968749999999999
40
1
40
1
40
1
40
1
41
1
10
163.6
20
-3.15369808833074
30
0
41
1
10
163.669223330059
20
-3.53743976800575
30
0
41
1
10
163.738446660118
20
-3.9170847479723
30
0
41
1
10
163.876893320236
20
-4.65590283732701
30
0
41
1
10
163.946116650294
20
-5.01503435463164
30
0
41
1
10
164.084563310412
20
-5.70069642247304
30
0
41
1
10
164.153786640471
20
-6.02718584195964
30
0
41
1
10
164.292233300589
20
-6.63692616316382
30
0
41
1
10
164.361456630648
20
-6.92014520399667
30
0
41
1
10
164.499903290766
20
-7.4353272178619
30
0
41
1
10
164.569126620825
20
-7.66727422002796
30
0
41
1
10
164.707573280942
20
-8.07525430082126
30
0
41
1
10
164.776796611001
20
-8.25128944801463
30
0
41
1
10
164.915243271119
20
-8.54635972078663
30
0
41
1
10
164.984466601178
20
-8.6654122879381
30
0
41
1
10
165.122913261296
20
-8.84869598238313
30
0
41
1
10
165.192136591355
20
-8.91295401561172
30
0
41
1
10
165.295971586443
20
-8.9717898657058
30
0
41
1
10
165.330583251472
20
-8.98516070217266
30
0
41
1
10
165.382500749017
20
-8.99642439196958
30
0
41
1
10
165.399806581531
20
-8.99871426703879
30
0
41
1
10
165.425765330304
20
-9.00002897096931
30
0
41
1
10
165.434418246561
20
-9.00011505860519
30
0
41
1
10
165.451724079075
20
-8.99958772773371
30
0
41
1
10
165.460376995333
20
-8.99897237013317
30
0
41
1
10
165.538253241649
20
-8.99021031566267
30
0
41
1
10
165.607476571708
20
-8.95943637129903
30
0
41
1
10
165.745923231826
20
-8.84600611731022
30
0
41
1
10
165.815146561885
20
-8.76332038392968
30
0
41
1
10
165.953593222002
20
-8.54209547409005
30
0
41
1
10
166.022816552061
20
-8.40353187977564
30
0
41
1
10
166.161263212179
20
-8.06941005389146
30
0
41
1
10
166.230486542238
20
-7.87383911845635
30
0
41
1
10
166.368933202356
20
-7.42797380518016
30
0
41
1
10
166.438156532415
20
-7.17768349062499
30
0
41
1
10
166.576603192533
20
-6.6282093400749
30
0
41
1
10
166.645826522591
20
-6.32904743933176
30
0
41
1
10
166.784273182709
20
-5.69082836394981
30
0
41
1
10
166.853496512768
20
-5.35180715953058
30
0
41
1
10
166.991943172886
20
-4.64514790344722
30
0
41
1
10
167.061166502945
20
-4.27755215414189
30
0
41
1
10
167.199613163063
20
-3.52609581508088
30
0
41
1
10
167.268836493121
20
-3.14227501443438
30
0
41
1
10
167.407283153239
20
-2.37052885721042
30
0
41
1
10
167.476506483298
20
-1.98263375370541
30
0
41
1
10
167.614953143416
20
-1.21363248244367
30
0
41
1
10
167.684176473475
20
-0.832543625973528
30
0
41
1
10
167.770705636048
20
-0.365990441682214
30
0
41
1
10
167.788011468563
20
-0.273164789765389
30
0
41
1
10
167.822623133593
20
-0.0885999355252807
30
0
41
1
10
167.839928966107
20
0.0027540408131301
30
0
41
1
10
167.891846463651
20
0.278569229946555
30
0
41
1
10
167.926458128681
20
0.46469239537123
30
0
41
1
10
168.030293123769
20
1.02838285326493
30
0
41
1
10
168.099516453828
20
1.41133733177708
30
0
41
1
10
168.237963113946
20
2.18232719493616
30
0
41
1
10
168.307186444005
20
2.57034297033456
30
0
41
1
10
168.445633104123
20
3.34030678795654
30
0
41
1
10
168.514856434181
20
3.72222258317891
30
0
41
1
10
168.653303094299
20
4.46772575572982
30
0
41
1
10
168.722526424358
20
4.83127232875714
30
0
41
1
10
168.860973084476
20
5.52777988375047
30
0
41
1
10
168.930196414535
20
5.86069901380893
30
0
41
1
10
169.068643074653
20
6.48496969463764
30
0
41
1
10
169.137866404712
20
6.77628722006807
30
0
41
1
10
169.276313064829
20
7.30882041910527
30
0
41
1
10
169.345536394888
20
7.55001709431875
30
0
41
1
10
169.483983055006
20
7.97704228016312
30
0
41
1
10
169.553206385065
20
8.16286982336018
30
0
41
1
10
169.691653045183
20
8.47746480617755
30
0
41
1
10
169.760876375242
20
8.60624740324326
30
0
41
1
10
169.899323035359
20
8.80841034590645
30
0
41
1
10
169.968546365418
20
8.8818164559265
30
0
41
1
10
170.106993025536
20
8.97759646859205
30
0
41
1
10
170.176216355595
20
9
30
0
41
1
10
170.245439685654
20
9
30
0
0
SPLINE
5
F6
100
AcDbEntity
8
1
62
256
6
ByLayer
370
13
48
1
60
0
100
AcDbSpline
70
4
71
3
72
22
73
18
40
0
40
0
40
0
40
0
40
0.125
40
0.125
40
0.25
40
0.25
40
0.375
40
0.375
40
0.5
40
0.5
40
0.625
40
0.625
40
0.75
40
0.75
40
0.875
40
0.875
40
1
40
1
40
1
40
1
41
1
10
171.047072199122
20
9
30
0
41
1
10
171.137788686309
20
9
30
0
41
1
10
171.228505173496
20
8.96144352028699
30
0
41
1
10
171.409938147869
20
8.79389062503196
30
0
41
1
10
171.500654635056
20
8.66478247207405
30
0
41
1
10
171.68208760943
20
8.30881857065597
30
0
41
1
10
171.772804096616
20
8.0818865703807
30
0
41
1
10
171.95423707099
20
7.53218755680234
30
0
41
1
10
172.044953558176
20
7.20941988283965
30
0
41
1
10
172.22638653255
20
6.48047724016368
30
0
41
1
10
172.317103019737
20
6.07439098401707
30
0
41
1
10
172.49853599411
20
5.20044886080737
30
0
41
1
10
172.589252481297
20
4.73274419902657
30
0
41
1
10
172.77068545567
20
3.76267215398505
30
0
41
1
10
172.861401942857
20
3.26046392580383
30
0
41
1
10
173.042834917231
20
2.24908287200907
30
0
41
1
10
173.133551404417
20
1.74002646586175
30
0
41
1
10
173.224267891604
20
1.23947717052974
30
0
0
SPLINE
5
F7
100
AcDbEntity
8
1
62
256
6
ByLayer
370
13
48
1
60
0
100
AcDbSpline
70
4
71
3
72
78
73
74
40
0
40
0
40
0
40
0
40
0.0312500000000004
40
0.0312500000000004
40
0.0625000000000008
40
0.0625000000000008
40
0.0937500000000011
40
0.0937500000000011
40
0.125000000000002
40
0.125000000000002
40
0.156250000000002
40
0.156250000000002
40
0.187500000000002
40
0.187500000000002
40
0.203125000000003
40
0.203125000000003
40
0.210937500000003
40
0.210937500000003
40
0.218750000000003
40
0.218750000000003
40
0.250000000000003
40
0.250000000000003
40
0.281250000000004
40
0.281250000000004
40
0.312500000000004
40
0.312500000000004
40
0.343750000000004
40
0.343750000000004
40
0.375000000000005
40
0.375000000000005
40
0.406250000000005
40
0.406250000000005
40
0.437500000000005
40
0.437500000000005
40
0.468750000000006
40
0.468750000000006
40
0.500000000000006
40
0.500000000000006
40
0.531250000000006
40
0.531250000000006
40
0.562500000000007
40
0.562500000000007
40
0.593750000000007
40
0.593750000000007
40
0.601562500000007
40
0.601562500000007
40
0.609375000000007
40
0.609375000000007
40
0.625000000000006
40
0.625000000000006
40
0.656250000000006
40
0.656250000000006
40
0.687500000000005
40
0.687500000000005
40
0.718750000000005
40
0.718750000000005
40
0.750000000000004
40
0.750000000000004
40
0.781250000000004
40
0.781250000000004
40
0.812500000000003
40
0.812500000000003
40
0.843750000000003
40
0.843750000000003
40
0.875000000000002
40
0.875000000000002
40
0.906250000000002
40
0.906250000000002
40
0.937500000000001
40
0.937500000000001
40
0.968750000000001
40
0.968750000000001
40
1
40
1
40
1
40
1
41
1
10
163.6
20
-5.75188935996329
30
0
41
1
10
163.664051752477
20
-6.05655684425477
30
0
41
1
10
163.728103504954
20
-6.34536446190646
30
0
41
1
10
163.856207009908
20
-6.88353503992195
30
0
41
1
10
163.920258762385
20
-7.13287940788916
30
0
41
1
10
164.048362267339
20
-7.58647681127999
30
0
41
1
10
164.112414019816
20
-7.79072195955084
30
0
41
1
10
164.24051752477
20
-8.1510119889717
30
0
41
1
10
164.304569277247
20
-8.30706022970514
30
0
41
1
10
164.432672782201
20
-8.57045265884244
30
0
41
1
10
164.496724534678
20
-8.67780948371686
30
0
41
1
10
164.624828039632
20
-8.8456707967878
30
0
41
1
10
164.688879792109
20
-8.90619363562809
30
0
41
1
10
164.784957420825
20
-8.96463436508185
30
0
41
1
10
164.816983297063
20
-8.9787368539738
30
0
41
1
10
164.865022111421
20
-8.99226633951051
30
0
41
1
10
164.88103504954
20
-8.99550602526449
30
0
41
1
10
164.913060925779
20
-8.99952483363296
30
0
41
1
10
164.929073863898
20
-9.00030602630684
30
0
41
1
10
165.009138554494
20
-8.99824545062302
30
0
41
1
10
165.073190306971
20
-8.97730737675403
30
0
41
1
10
165.201293811925
20
-8.8919675149792
30
0
41
1
10
165.265345564403
20
-8.82754559056755
30
0
41
1
10
165.393449069356
20
-8.6516448158323
30
0
41
1
10
165.457500821833
20
-8.54014794878583
30
0
41
1
10
165.585604326788
20
-8.26841946923491
30
0
41
1
10
165.649656079265
20
-8.10817589151532
30
0
41
1
10
165.777759584219
20
-7.73965674554586
30
0
41
1
10
165.841811336696
20
-7.531378737632
30
0
41
1
10
165.96991484165
20
-7.0701025717967
30
0
41
1
10
166.033966594126
20
-6.81711328102256
30
0
41
1
10
166.162070099081
20
-6.27224377834295
30
0
41
1
10
166.226121851558
20
-5.98038296475107
30
0
41
1
10
166.354225356512
20
-5.36568735151474
30
0
41
1
10
166.418277108989
20
-5.04287914467892
30
0
41
1
10
166.546380613943
20
-4.37558837242696
30
0
41
1
10
166.61043236642
20
-4.03113465211871
30
0
41
1
10
166.738535871374
20
-3.33038352342174
30
0
41
1
10
166.802587623851
20
-2.97411217673007
30
0
41
1
10
166.930691128805
20
-2.25924496716951
30
0
41
1
10
166.994742881282
20
-1.90066864715155
30
0
41
1
10
167.122846386236
20
-1.18970226903798
30
0
41
1
10
167.186898138713
20
-0.837323534590126
30
0
41
1
10
167.266962829309
20
-0.40511325534257
30
0
41
1
10
167.282975767428
20
-0.319080388130857
30
0
41
1
10
167.315001643667
20
-0.147926403944439
30
0
41
1
10
167.331014581786
20
-0.0629535511528445
30
0
41
1
10
167.379053396144
20
0.19142269497064
30
0
41
1
10
167.411079272382
20
0.362978257503556
30
0
41
1
10
167.507156901098
20
0.882464954097259
30
0
41
1
10
167.571208653575
20
1.23526591400551
30
0
41
1
10
167.699312158529
20
1.94673982890777
30
0
41
1
10
167.763363911006
20
2.30540110041369
30
0
41
1
10
167.89146741596
20
3.02004652462685
30
0
41
1
10
167.955519168437
20
3.37601080419159
30
0
41
1
10
168.083622673391
20
4.07572674493082
30
0
41
1
10
168.147674425868
20
4.41945213506457
30
0
41
1
10
168.275777930822
20
5.084869689318
30
0
41
1
10
168.339829683299
20
5.40653299671482
30
0
41
1
10
168.467933188253
20
6.01856419066766
30
0
41
1
10
168.53198494073
20
6.30890569835742
30
0
41
1
10
168.660088445684
20
6.85043835854782
30
0
41
1
10
168.724140198161
20
7.10161051263029
30
0
41
1
10
168.852243703115
20
7.55905558922242
30
0
41
1
10
168.916295455592
20
7.76532013397986
30
0
41
1
10
169.044398960546
20
8.1297282235156
30
0
41
1
10
169.108450713023
20
8.28787466972227
30
0
41
1
10
169.236554217977
20
8.55543399243587
30
0
41
1
10
169.300605970454
20
8.6648591731325
30
0
41
1
10
169.428709475408
20
8.83673512557272
30
0
41
1
10
169.492761227885
20
8.89920408470249
30
0
41
1
10
169.620864732839
20
8.98082644900686
30
0
41
1
10
169.684916485316
20
9
30
0
41
1
10
169.748968237793
20
9
30
0
0
SPLINE
5
F8
100
AcDbEntity
8
1
62
256
6
ByLayer
370
13
48
1
60
0
100
AcDbSpline
70
4
71
3
72
42
73
38
40
0
40
0
40
0
40
0
40
0.0625000000000002
40
0.0625000000000002
40
0.125000000000001
40
0.125000000000001
40
0.187500000000001
40
0.187500000000001
40
0.250000000000001
40
0.250000000000001
40
0.312500000000001
40
0.312500000000001
40
0.375000000000002
40
0.375000000000002
40
0.437500000000002
40
0.437500000000002
40
0.500000000000002
40
0.500000000000002
40
0.562500000000002
40
0.562500000000002
40
0.625000000000003
40
0.625000000000003
40
0.687500000000003
40
0.687500000000003
40
0.750000000000003
40
0.750000000000003
40
0.812500000000003
40
0.812500000000003
40
0.875000000000004
40
0.875000000000004
40
0.890625000000003
40
0.890625000000003
40
0.906250000000003
40
0.906250000000003
40
0.937500000000002
40
0.937500000000002
40
1
40
1
40
1
40
1
41
1
10
170.550600751262
20
9
30
0
41
1
10
170.606302150019
20
9
30
0
41
1
10
170.662003548776
20
8.98550783611344
30
0
41
1
10
170.77340634629
20
8.92425350380867
30
0
41
1
10
170.829107745048
20
8.87748130160142
30
0
41
1
10
170.940510542562
20
8.74906289907838
30
0
41
1
10
170.996211941319
20
8.66740719360408
30
0
41
1
10
171.107614738833
20
8.46761630921475
30
0
41
1
10
171.16331613759
20
8.34947361014153
30
0
41
1
10
171.274718935104
20
8.07636299823341
30
0
41
1
10
171.330420333862
20
7.92139100428105
30
0
41
1
10
171.441823131376
20
7.57571531874731
30
0
41
1
10
171.497524530133
20
7.38501208307761
30
0
41
1
10
171.608927327647
20
6.97046481545829
30
0
41
1
10
171.664628726404
20
6.74662618346304
30
0
41
1
10
171.776031523919
20
6.26980935168862
30
0
41
1
10
171.831732922676
20
6.01684102300194
30
0
41
1
10
171.94313572019
20
5.48694456371769
30
0
41
1
10
171.998837118947
20
5.21002947093794
30
0
41
1
10
172.110239916461
20
4.63824836506538
30
0
41
1
10
172.165941315219
20
4.34339670959389
30
0
41
1
10
172.277344112733
20
3.7421620168802
30
0
41
1
10
172.33304551149
20
3.4357927020846
30
0
41
1
10
172.444448309004
20
2.8179241774707
30
0
41
1
10
172.500149707761
20
2.50643642126121
30
0
41
1
10
172.611552505276
20
1.88433090994178
30
0
41
1
10
172.667253904033
20
1.57372131662436
30
0
41
1
10
172.778656701547
20
0.958672864796256
30
0
41
1
10
172.834358100304
20
0.654238549955409
30
0
41
1
10
172.903984848751
20
0.280308832318866
30
0
41
1
10
172.91791019844
20
0.205851230487838
30
0
41
1
10
172.945760897818
20
0.0576520914312653
30
0
41
1
10
172.959686247508
20
-0.015851496186059
30
0
41
1
10
173.001462296576
20
-0.237741694931998
30
0
41
1
10
173.029312995954
20
-0.38712409681105
30
0
41
1
10
173.11286509409
20
-0.83891131312788
30
0
41
1
10
173.168566492847
20
-1.14498490333045
30
0
41
1
10
173.224267891604
20
-1.45364534514596
30
0
0
SPLINE
5
F9
100
AcDbEntity
8
1
62
256
6
ByLayer
370
13
48
1
60
0
100
AcDbSpline
70
4
71
3
72
78
73
74
40
0
40
0
40
0
40
0
40
0.0312500000000025
40
0.0312500000000025
40
0.0625000000000051
40
0.0625000000000051
40
0.0937500000000076
40
0.0937500000000076
40
0.12500000000001
40
0.12500000000001
40
0.140625000000011
40
0.140625000000011
40
0.148437500000012
40
0.148437500000012
40
0.156250000000012
40
0.156250000000012
40
0.187500000000013
40
0.187500000000013
40
0.218750000000013
40
0.218750000000013
40
0.250000000000014
40
0.250000000000014
40
0.281250000000014
40
0.281250000000014
40
0.312500000000015
40
0.312500000000015
40
0.343750000000016
40
0.343750000000016
40
0.375000000000016
40
0.375000000000016
40
0.406250000000017
40
0.406250000000017
40
0.437500000000017
40
0.437500000000017
40
0.468750000000018
40
0.468750000000018
40
0.500000000000019
40
0.500000000000019
40
0.531250000000019
40
0.531250000000019
40
0.56250000000002
40
0.56250000000002
40
0.57031250000002
40
0.57031250000002
40
0.578125000000019
40
0.578125000000019
40
0.593750000000019
40
0.593750000000019
40
0.625000000000017
40
0.625000000000017
40
0.656250000000016
40
0.656250000000016
40
0.687500000000015
40
0.687500000000015
40
0.718750000000013
40
0.718750000000013
40
0.750000000000012
40
0.750000000000012
40
0.78125000000001
40
0.78125000000001
40
0.812500000000009
40
0.812500000000009
40
0.843750000000007
40
0.843750000000007
40
0.875000000000006
40
0.875000000000006
40
0.906250000000004
40
0.906250000000004
40
0.937500000000003
40
0.937500000000003
40
0.968750000000001
40
0.968750000000001
40
1
40
1
40
1
40
1
41
1
10
163.6
20
-7.73348435470635
30
0
41
1
10
163.658880174895
20
-7.91727552220758
30
0
41
1
10
163.71776034979
20
-8.0811256442839
30
0
41
1
10
163.835520699581
20
-8.36764156464182
30
0
41
1
10
163.894400874476
20
-8.49031289144313
30
0
41
1
10
164.012161224266
20
-8.69496294965199
30
0
41
1
10
164.071041399161
20
-8.77695189615127
30
0
41
1
10
164.188801748951
20
-8.90228117252013
30
0
41
1
10
164.247681923846
20
-8.94563424816056
30
0
41
1
10
164.336002186189
20
-8.9841098049159
30
0
41
1
10
164.365442273637
20
-8.99251743758123
30
0
41
1
10
164.409602404808
20
-8.99886473611616
30
0
41
1
10
164.424322448532
20
-8.99993682931176
30
0
41
1
10
164.45376253598
20
-9.00005774848233
30
0
41
1
10
164.468482579703
20
-8.99910840968374
30
0
41
1
10
164.542082798322
20
-8.98915305983621
30
0
41
1
10
164.600962973217
20
-8.96449015809728
30
0
41
1
10
164.718723323008
20
-8.87808721234381
30
0
41
1
10
164.777603497903
20
-8.81633396305696
30
0
41
1
10
164.895363847693
20
-8.65303763228175
30
0
41
1
10
164.954244022588
20
-8.55148275426706
30
0
41
1
10
165.072004372378
20
-8.30724604255775
30
0
41
1
10
165.130884547273
20
-8.16455601579526
30
0
41
1
10
165.248644897064
20
-7.83839591750709
30
0
41
1
10
165.307525071959
20
-7.65492323425269
30
0
41
1
10
165.425285421749
20
-7.24939803889984
30
0
41
1
10
165.484165596644
20
-7.02734966785138
30
0
41
1
10
165.601925946434
20
-6.54870717785442
30
0
41
1
10
165.66080612133
20
-6.29212386252493
30
0
41
1
10
165.77856647112
20
-5.75005354509671
30
0
41
1
10
165.837446646015
20
-5.46458254913216
30
0
41
1
10
165.955206995805
20
-4.8715778311327
30
0
41
1
10
166.0140871707
20
-4.5640628129679
30
0
41
1
10
166.131847520491
20
-3.93447877237466
30
0
41
1
10
166.190727695386
20
-3.61242825514083
30
0
41
1
10
166.308488045176
20
-2.96138026491011
30
0
41
1
10
166.367368220071
20
-2.63239854012196
30
0
41
1
10
166.485128569862
20
-1.97467036739016
30
0
41
1
10
166.544008744757
20
-1.64593523129682
30
0
41
1
10
166.661769094547
20
-0.995046189045439
30
0
41
1
10
166.720649269442
20
-0.672898559140862
30
0
41
1
10
166.794249488061
20
-0.277605109651972
30
0
41
1
10
166.808969531785
20
-0.198913087868988
30
0
41
1
10
166.838409619232
20
-0.0423324220045629
30
0
41
1
10
166.853129662956
20
0.035335087177117
30
0
41
1
10
166.897289794128
20
0.270133969983931
30
0
41
1
10
166.926729881575
20
0.428279732551687
30
0
41
1
10
167.015050143918
20
0.906689221133604
30
0
41
1
10
167.073930318813
20
1.23096067292391
30
0
41
1
10
167.191690668603
20
1.88465440236791
30
0
41
1
10
167.250570843498
20
2.21406918327887
30
0
41
1
10
167.368331193289
20
2.87148058025102
30
0
41
1
10
167.427211368184
20
3.19946471238035
30
0
41
1
10
167.544971717974
20
3.84669493202256
30
0
41
1
10
167.603851892869
20
4.16592440887183
30
0
41
1
10
167.721612242659
20
4.78801541253299
30
0
41
1
10
167.780492417554
20
5.09085812688309
30
0
41
1
10
167.898252767345
20
5.6727755011016
30
0
41
1
10
167.95713294224
20
5.95183184759247
30
0
41
1
10
168.07489329203
20
6.47957410526791
30
0
41
1
10
168.133773466925
20
6.72824507256067
30
0
41
1
10
168.251533816716
20
7.18992176305019
30
0
41
1
10
168.310413991611
20
7.40291821423668
30
0
41
1
10
168.428174341401
20
7.78962995852476
30
0
41
1
10
168.487054516296
20
7.96334279299859
30
0
41
1
10
168.604814866086
20
8.26972939444417
30
0
41
1
10
168.663695040981
20
8.40240727449208
30
0
41
1
10
168.781455390772
20
8.62679701772953
30
0
41
1
10
168.840335565667
20
8.71851814772637
30
0
41
1
10
168.958095915457
20
8.86269127473122
30
0
41
1
10
169.016976090352
20
8.91515560763258
30
0
41
1
10
169.134736440142
20
8.9838033499
30
0
41
1
10
169.193616615038
20
9
30
0
41
1
10
169.252496789933
20
9
30
0
0
SPLINE
5
FA
100
AcDbEntity
8
1
62
256
6
ByLayer
370
13
48
1
60
0
100
AcDbSpline
70
4
71
3
72
42
73
38
40
0
40
0
40
0
40
0
40
0.0624999999999994
40
0.0624999999999994
40
0.124999999999999
40
0.124999999999999
40
0.187499999999998
40
0.187499999999998
40
0.249999999999998
40
0.249999999999998
40
0.312499999999997
40
0.312499999999997
40
0.374999999999996
40
0.374999999999996
40
0.437499999999996
40
0.437499999999996
40
0.499999999999995
40
0.499999999999995
40
0.562499999999994
40
0.562499999999994
40
0.624999999999994
40
0.624999999999994
40
0.687499999999993
40
0.687499999999993
40
0.749999999999992
40
0.749999999999992
40
0.765624999999993
40
0.765624999999993
40
0.781249999999993
40
0.781249999999993
40
0.812499999999994
40
0.812499999999994
40
0.874999999999996
40
0.874999999999996
40
0.937499999999998
40
0.937499999999998
40
1
40
1
40
1
40
1
41
1
10
170.054129303401
20
9
30
0
41
1
10
170.120173857322
20
9
30
0
41
1
10
170.186218411243
20
8.97961182654592
30
0
41
1
10
170.318307519085
20
8.89267477060341
30
0
41
1
10
170.384352073006
20
8.8261024261551
30
0
41
1
10
170.516441180847
20
8.6428628032935
30
0
41
1
10
170.582485734768
20
8.5261746317756
30
0
41
1
10
170.71457484261
20
8.24094570482035
30
0
41
1
10
170.780619396531
20
8.07239148912402
30
0
41
1
10
170.912708504373
20
7.68438378072477
30
0
41
1
10
170.978753058294
20
7.4649284825407
30
0
41
1
10
171.110842166135
20
6.97902681428351
30
0
41
1
10
171.176886720056
20
6.71259226261608
30
0
41
1
10
171.308975827898
20
6.13944973779485
30
0
41
1
10
171.375020381819
20
5.83276586632223
30
0
41
1
10
171.507109489661
20
5.18810437425449
30
0
41
1
10
171.573154043582
20
4.85015863223219
30
0
41
1
10
171.705243151424
20
4.1533553007317
30
0
41
1
10
171.771287705344
20
3.79453109638757
30
0
41
1
10
171.903376813186
20
3.06675089138406
30
0
41
1
10
171.969421367107
20
2.6978237661869
30
0
41
1
10
172.101510474949
20
1.96005979258976
30
0
41
1
10
172.16755502887
20
1.59124324020942
30
0
41
1
10
172.299644136712
20
0.862613459394652
30
0
41
1
10
172.365688690633
20
0.502810537684951
30
0
41
1
10
172.448244383034
20
0.0631476918773046
30
0
41
1
10
172.464755521514
20
-0.0239607635451762
30
0
41
1
10
172.497777798474
20
-0.199525512778507
30
0
41
1
10
172.514288936955
20
-0.287814947951745
30
0
41
1
10
172.563822352395
20
-0.554055934099097
30
0
41
1
10
172.596844629356
20
-0.733383856690693
30
0
41
1
10
172.695911460237
20
-1.27554680742409
30
0
41
1
10
172.761956014158
20
-1.64261339669983
30
0
41
1
10
172.894045122
20
-2.379592665583
30
0
41
1
10
172.960089675921
20
-2.74948789117428
30
0
41
1
10
173.092178783762
20
-3.48223191710429
30
0
41
1
10
173.158223337683
20
-3.84505400351506
30
0
41
1
10
173.224267891604
20
-4.19900329108288
30
0
0
SPLINE
5
FB
100
AcDbEntity
8
1
62
256
6
ByLayer
370
13
48
1
60
0
100
AcDbSpline
70
4
71
3
72
76
73
72
40
0
40
0
40
0
40
0
40
0.0312500000000008
40
0.0312500000000008
40
0.0625000000000016
40
0.0625000000000016
40
0.0703125000000016
40
0.0703125000000016
40
0.0781250000000017
40
0.0937500000000018
40
0.0937500000000018
40
0.125000000000002
40
0.125000000000002
40
0.156250000000002
40
0.156250000000002
40
0.187500000000003
40
0.187500000000003
40
0.218750000000003
40
0.218750000000003
40
0.250000000000003
40
0.250000000000003
40
0.281250000000003
40
0.281250000000003
40
0.312500000000004
40
0.312500000000004
40
0.343750000000004
40
0.343750000000004
40
0.375000000000004
40
0.375000000000004
40
0.406250000000004
40
0.406250000000004
40
0.437500000000004
40
0.437500000000004
40
0.468750000000005
40
0.468750000000005
40
0.500000000000005
40
0.500000000000005
40
0.531250000000005
40
0.531250000000005
40
0.539062500000005
40
0.539062500000005
40
0.546875000000005
40
0.562500000000005
40
0.562500000000005
40
0.593750000000004
40
0.593750000000004
40
0.625000000000004
40
0.625000000000004
40
0.656250000000004
40
0.656250000000004
40
0.687500000000003
40
0.687500000000003
40
0.718750000000003
40
0.718750000000003
40
0.750000000000003
40
0.750000000000003
40
0.781250000000002
40
0.781250000000002
40
0.812500000000002
40
0.812500000000002
40
0.843750000000002
40
0.843750000000002
40
0.875000000000001
40
0.875000000000001
40
0.906250000000001
40
0.906250000000001
40
0.937500000000001
40
0.937500000000001
40
0.96875
40
0.96875
40
1
40
1
40
1
40
1
41
1
10
163.6
20
-8.80193463825378
30
0
41
1
10
163.653708597313
20
-8.86579447261809
30
0
41
1
10
163.707417194626
20
-8.91338774932171
30
0
41
1
10
163.814834389253
20
-8.97829934833356
30
0
41
1
10
163.868542986566
20
-8.99562604238986
30
0
41
1
10
163.935678733208
20
-9.00017870760686
30
0
41
1
10
163.949105882536
20
-9.00024084112258
30
0
41
1
10
163.975960181193
20
-8.99867377012689
30
0
41
1
10
164.016241629178
20
-8.99376681296621
30
0
41
1
10
164.056523077163
20
-8.98097110722054
30
0
41
1
10
164.137085973133
20
-8.94431669785683
30
0
41
1
10
164.190794570446
20
-8.90510744042385
30
0
41
1
10
164.298211765072
20
-8.79469065815701
30
0
41
1
10
164.351920362386
20
-8.7234750255422
30
0
41
1
10
164.459337557012
20
-8.54738928588969
30
0
41
1
10
164.513046154325
20
-8.44251240085799
30
0
41
1
10
164.620463348952
20
-8.19848845664015
30
0
41
1
10
164.674171946265
20
-8.05933710226091
30
0
41
1
10
164.781589140891
20
-7.747359561487
30
0
41
1
10
164.835297738205
20
-7.57453251948957
30
0
41
1
10
164.942714932831
20
-7.19709065741228
30
0
41
1
10
164.996423530145
20
-6.99247892639667
30
0
41
1
10
165.103840724771
20
-6.55461436773714
30
0
41
1
10
165.157549322084
20
-6.32136844825465
30
0
41
1
10
165.264966516711
20
-5.83049071244619
30
0
41
1
10
165.318675114024
20
-5.57286883873132
30
0
41
1
10
165.426092308651
20
-5.03834649230569
30
0
41
1
10
165.479800905964
20
-4.76145770050564
30
0
41
1
10
165.58721810059
20
-4.19403113092102
30
0
41
1
10
165.640926697904
20
-3.90350524764406
30
0
41
1
10
165.74834389253
20
-3.31459678267089
30
0
41
1
10
165.802052489843
20
-3.01622488245039
30
0
41
1
10
165.90946968447
20
-2.41723537782789
30
0
41
1
10
165.963178281783
20
-2.1166261816085
30
0
41
1
10
166.07059547641
20
-1.51830174063062
30
0
41
1
10
166.124304073723
20
-1.22059207747304
30
0
41
1
10
166.23172126835
20
-0.632523510524379
30
0
41
1
10
166.285429865663
20
-0.342167313742408
30
0
41
1
10
166.352565612304
20
0.0139025346438473
30
0
41
1
10
166.365992761633
20
0.0848739044306228
30
0
41
1
10
166.392847060289
20
0.227923267913013
30
0
41
1
10
166.433128508274
20
0.443486173788358
30
0
41
1
10
166.473409956259
20
0.661780355485746
30
0
41
1
10
166.553972852229
20
1.10130938996164
30
0
41
1
10
166.607681449542
20
1.39827353298338
30
0
41
1
10
166.715098644169
20
1.99574803686821
30
0
41
1
10
166.768807241482
20
2.29625320957354
30
0
41
1
10
166.876224436108
20
2.89575715050051
30
0
41
1
10
166.929933033422
20
3.19474786970025
30
0
41
1
10
167.037350228048
20
3.78566465007123
30
0
41
1
10
167.091058825361
20
4.07758028379018
30
0
41
1
10
167.198476019988
20
4.6485625639487
30
0
41
1
10
167.252184617301
20
4.92761740162445
30
0
41
1
10
167.359601811928
20
5.46720559490078
30
0
41
1
10
167.413310409241
20
5.72772715113075
30
0
41
1
10
167.520727603867
20
6.22504795186219
30
0
41
1
10
167.574436201181
20
6.46183693660436
30
0
41
1
10
167.681853395807
20
6.9073002695697
30
0
41
1
10
167.73556199312
20
7.11596724298423
30
0
41
1
10
167.842979187747
20
7.5018721640684
30
0
41
1
10
167.89668778506
20
7.6791064874823
30
0
41
1
10
168.004104979687
20
8.00007744621766
30
0
41
1
10
168.057813577
20
8.14381442415791
30
0
41
1
10
168.165230771626
20
8.3970171756952
30
0
41
1
10
168.21893936894
20
8.50648683069772
30
0
41
1
10
168.326356563566
20
8.69161097847905
30
0
41
1
10
168.380065160879
20
8.76727198124905
30
0
41
1
10
168.487482355506
20
8.88630465819881
30
0
41
1
10
168.541190952819
20
8.92968432896456
30
0
41
1
10
168.648608147446
20
8.98652781899918
30
0
41
1
10
168.702316744759
20
9
30
0
41
1
10
168.756025342072
20
9
30
0
0
SPLINE
5
FC
100
AcDbEntity
8
1
62
256
6
ByLayer
370
13
48
1
60
0
100
AcDbSpline
70
4
71
3
72
40
73
36
40
0
40
0
40
0
40
0
40
0.0625
40
0.0625
40
0.125
40
0.125
40
0.1875
40
0.1875
40
0.25
40
0.25
40
0.3125
40
0.3125
40
0.375
40
0.375
40
0.437500000000001
40
0.437500000000001
40
0.500000000000001
40
0.500000000000001
40
0.5625
40
0.5625
40
0.625
40
0.625
40
0.65625
40
0.65625
40
0.6875
40
0.6875
40
0.75
40
0.75
40
0.8125
40
0.8125
40
0.875
40
0.875
40
0.9375
40
0.9375
40
1
40
1
40
1
40
1
41
1
10
169.557657855541
20
9
30
0
41
1
10
169.634045564625
20
9
30
0
41
1
10
169.71043327371
20
8.97270233155544
30
0
41
1
10
169.863208691879
20
8.85533196708968
30
0
41
1
10
169.939596400964
20
8.76521105999097
30
0
41
1
10
170.092371819133
20
8.51679222329949
30
0
41
1
10
170.168759528218
20
8.35845494546265
30
0
41
1
10
170.321534946387
20
7.97243237431604
30
0
41
1
10
170.397922655472
20
7.74472979351751
30
0
41
1
10
170.550698073641
20
7.22393625034289
30
0
41
1
10
170.627085782726
20
6.9308591497915
30
0
41
1
10
170.779861200895
20
6.28848636454694
30
0
41
1
10
170.85624890998
20
5.93923551250583
30
0
41
1
10
171.009024328149
20
5.19800339912427
30
0
41
1
10
171.085412037234
20
4.80608728738844
30
0
41
1
10
171.238187455403
20
3.99563118509576
30
0
41
1
10
171.314575164488
20
3.57715969544751
30
0
41
1
10
171.467350582657
20
2.7302444840777
30
0
41
1
10
171.543738291742
20
2.30185650959518
30
0
41
1
10
171.696513709911
20
1.45038311228581
30
0
41
1
10
171.772901418996
20
1.02733126529276
30
0
41
1
10
171.887482982623
20
0.406127415852467
30
0
41
1
10
171.925676837165
20
0.201278310753508
30
0
41
1
10
172.00206454625
20
-0.202821550621905
30
0
41
1
10
172.040258400792
20
-0.40769787821003
30
0
41
1
10
172.154839964419
20
-1.02893525405543
30
0
41
1
10
172.231227673503
20
-1.4520025259439
30
0
41
1
10
172.384003091673
20
-2.30348891851912
30
0
41
1
10
172.460390800758
20
-2.73187443279912
30
0
41
1
10
172.613166218927
20
-3.57876408787195
30
0
41
1
10
172.689553928011
20
-3.99721245741247
30
0
41
1
10
172.842329346181
20
-4.807601037854
30
0
41
1
10
172.918717055265
20
-5.19947274092905
30
0
41
1
10
173.071492473435
20
-5.9405967478763
30
0
41
1
10
173.147880182519
20
-6.28978391783846
30
0
41
1
10
173.224267891604
20
-6.61089924016335
30
0
0
SPLINE
5
FD
100
AcDbEntity
8
1
62
256
6
ByLayer
370
13
48
1
60
0
100
AcDbSpline
70
4
71
3
72
60
73
56
40
0
40
0
40
0
40
0
40
0.0625000000000004
40
0.0625000000000004
40
0.0937500000000005
40
0.0937500000000005
40
0.125000000000001
40
0.125000000000001
40
0.156250000000001
40
0.156250000000001
40
0.187500000000001
40
0.187500000000001
40
0.218750000000001
40
0.218750000000001
40
0.250000000000001
40
0.250000000000001
40
0.281250000000001
40
0.281250000000001
40
0.312500000000002
40
0.312500000000002
40
0.343750000000002
40
0.343750000000002
40
0.375000000000002
40
0.375000000000002
40
0.437500000000002
40
0.437500000000002
40
0.468750000000003
40
0.468750000000003
40
0.484375000000002
40
0.484375000000002
40
0.500000000000002
40
0.500000000000002
40
0.562500000000002
40
0.562500000000002
40
0.625000000000002
40
0.625000000000002
40
0.656250000000001
40
0.656250000000001
40
0.687500000000001
40
0.687500000000001
40
0.718750000000001
40
0.718750000000001
40
0.750000000000001
40
0.750000000000001
40
0.781250000000001
40
0.781250000000001
40
0.812500000000001
40
0.812500000000001
40
0.843750000000001
40
0.843750000000001
40
0.875
40
0.875
40
0.9375
40
0.9375
40
1
40
1
40
1
40
1
41
1
10
163.6
20
-8.96250256246594
30
0
41
1
10
163.697074039463
20
-8.91398783519361
30
0
41
1
10
163.794148078926
20
-8.8165988214096
30
0
41
1
10
163.93975913812
20
-8.58801543244911
30
0
41
1
10
163.988296157851
20
-8.49813544353091
30
0
41
1
10
164.085370197314
20
-8.29042751784525
30
0
41
1
10
164.133907217045
20
-8.17259662216122
30
0
41
1
10
164.230981256508
20
-7.90919015897211
30
0
41
1
10
164.279518276239
20
-7.76361339462937
30
0
41
1
10
164.376592315702
20
-7.44577126320783
30
0
41
1
10
164.425129335433
20
-7.27350679207825
30
0
41
1
10
164.522203374896
20
-6.90420369479068
30
0
41
1
10
164.570740394628
20
-6.70716812742268
30
0
41
1
10
164.66781443409
20
-6.29103633228613
30
0
41
1
10
164.716351453822
20
-6.07194509647439
30
0
41
1
10
164.813425493284
20
-5.61509255640135
30
0
41
1
10
164.861962513016
20
-5.37733767254016
30
0
41
1
10
164.959036552478
20
-4.88705213485875
30
0
41
1
10
165.00757357221
20
-4.63452863610277
30
0
41
1
10
165.104647611673
20
-4.11889740590641
30
0
41
1
10
165.153184631404
20
-3.85579680676358
30
0
41
1
10
165.250258670867
20
-3.32328288644874
30
0
41
1
10
165.298795690598
20
-3.05387598487474
30
0
41
1
10
165.444406749792
20
-2.24240464329517
30
0
41
1
10
165.541480789255
20
-1.69732290675907
30
0
41
1
10
165.687091848449
20
-0.89528507187427
30
0
41
1
10
165.73562886818
20
-0.630483689410653
30
0
41
1
10
165.808434397777
20
-0.239260196425505
30
0
41
1
10
165.832702907643
20
-0.110046715938069
30
0
41
1
10
165.881239927374
20
0.146927792090907
30
0
41
1
10
165.90550843724
20
0.276547286935426
30
0
41
1
10
166.026850986568
20
0.929527261353002
30
0
41
1
10
166.123925026031
20
1.46786306145555
30
0
41
1
10
166.318073104957
20
2.55108299620642
30
0
41
1
10
166.41514714442
20
3.09584773207919
30
0
41
1
10
166.560758203614
20
3.89369715064024
30
0
41
1
10
166.609295223345
20
4.15638903830575
30
0
41
1
10
166.706369262808
20
4.67099873238149
30
0
41
1
10
166.754906282539
20
4.92290938867851
30
0
41
1
10
166.851980322002
20
5.41177432888315
30
0
41
1
10
166.900517341733
20
5.64872147560789
30
0
41
1
10
166.997591381196
20
6.10378314048629
30
0
41
1
10
167.046128400927
20
6.32189129185383
30
0
41
1
10
167.14320244039
20
6.73591026125376
30
0
41
1
10
167.191739460121
20
6.93181617029254
30
0
41
1
10
167.288813499584
20
7.29874919106499
30
0
41
1
10
167.337350519316
20
7.46977334468616
30
0
41
1
10
167.434424558778
20
7.78506432713669
30
0
41
1
10
167.48296157851
20
7.92933036409426
30
0
41
1
10
167.580035617972
20
8.19008632514408
30
0
41
1
10
167.628572637704
20
8.30657753972031
30
0
41
1
10
167.774183696898
20
8.61413631794343
30
0
41
1
10
167.871257736361
20
8.76296122152525
30
0
41
1
10
168.065405815286
20
8.95581561042829
30
0
41
1
10
168.162479854749
20
9
30
0
41
1
10
168.259553894212
20
9
30
0
0
SPLINE
5
FE
100
AcDbEntity
8
1
62
256
6
ByLayer
370
13
48
1
60
0
100
AcDbSpline
70
4
71
3
72
42
73
38
40
0
40
0
40
0
40
0
40
0.0625
40
0.0625
40
0.125
40
0.125
40
0.1875
40
0.1875
40
0.25
40
0.25
40
0.3125
40
0.3125
40
0.375
40
0.375
40
0.4375
40
0.4375
40
0.5
40
0.5
40
0.5625
40
0.5625
40
0.578125
40
0.578125
40
0.59375
40
0.59375
40
0.625
40
0.625
40
0.6875
40
0.6875
40
0.75
40
0.75
40
0.8125
40
0.8125
40
0.875
40
0.875
40
0.9375
40
0.9375
40
1
40
1
40
1
40
1
41
1
10
169.06118640768
20
9
30
0
41
1
10
169.147917271928
20
9
30
0
41
1
10
169.234648136177
20
8.96477290177802
30
0
41
1
10
169.408109864674
20
8.81212507052342
30
0
41
1
10
169.494840728922
20
8.694614509974
30
0
41
1
10
169.668302457419
20
8.37057573285855
30
0
41
1
10
169.755033321667
20
8.16398254197964
30
0
41
1
10
169.928495050164
20
7.66248461316241
30
0
41
1
10
170.015225914413
20
7.36757004422324
30
0
41
1
10
170.188687642909
20
6.6988970636564
30
0
41
1
10
170.275418507158
20
6.3251976720934
30
0
41
1
10
170.448880235655
20
5.51647470742552
30
0
41
1
10
170.535611099903
20
5.08156444047475
30
0
41
1
10
170.7090728284
20
4.17332176453294
30
0
41
1
10
170.795803692648
20
3.70011952507045
30
0
41
1
10
170.969265421145
20
2.73976700813785
30
0
41
1
10
171.055996285394
20
2.25272349369942
30
0
41
1
10
171.229458013891
20
1.28703325293074
30
0
41
1
10
171.316188878139
20
0.808446099230025
30
0
41
1
10
171.424602458449
20
0.226491043308158
30
0
41
1
10
171.446285174511
20
0.110939920802764
30
0
41
1
10
171.489650606636
20
-0.118499991463324
30
0
41
1
10
171.511333322698
20
-0.234127978867406
30
0
41
1
10
171.576381470884
20
-0.58340625590705
30
0
41
1
10
171.619746903008
20
-0.819461781324321
30
0
41
1
10
171.749843199381
20
-1.53420019541093
30
0
41
1
10
171.836574063629
20
-2.01959841226386
30
0
41
1
10
172.010035792126
20
-2.9881269375251
30
0
41
1
10
172.096766656375
20
-3.47117228976401
30
0
41
1
10
172.270228384871
20
-4.4112404582977
30
0
41
1
10
172.35695924912
20
-4.86814034375547
30
0
41
1
10
172.530420977617
20
-5.7317471778756
30
0
41
1
10
172.617151841865
20
-6.13832707831045
30
0
41
1
10
172.790613570362
20
-6.88060543781833
30
0
41
1
10
172.87734443461
20
-7.21621443526774
30
0
41
1
10
173.050806163107
20
-7.80275009738816
30
0
41
1
10
173.137537027356
20
-8.05365260392239
30
0
41
1
10
173.224267891604
20
-8.25965139596644
30
0
0
SPLINE
5
FF
100
AcDbEntity
8
1
62
256
6
ByLayer
370
13
48
1
60
0
100
AcDbSpline
70
4
71
3
72
42
73
38
40
0
40
0
40
0
40
0
40
0.0625000000000012
40
0.0625000000000012
40
0.125000000000002
40
0.125000000000002
40
0.187500000000003
40
0.187500000000003
40
0.250000000000005
40
0.250000000000005
40
0.312500000000006
40
0.312500000000006
40
0.375000000000007
40
0.375000000000007
40
0.406250000000007
40
0.406250000000007
40
0.421875000000007
40
0.421875000000007
40
0.437500000000007
40
0.437500000000007
40
0.500000000000007
40
0.500000000000007
40
0.562500000000006
40
0.562500000000006
40
0.625000000000005
40
0.625000000000005
40
0.687500000000004
40
0.687500000000004
40
0.750000000000003
40
0.750000000000003
40
0.812500000000003
40
0.812500000000003
40
0.875000000000002
40
0.875000000000002
40
0.937500000000001
40
0.937500000000001
40
1
40
1
40
1
40
1
41
1
10
163.6
20
-8.25965368187232
30
0
41
1
10
163.686730884299
20
-8.05365517171219
30
0
41
1
10
163.773461768598
20
-7.80275292480744
30
0
41
1
10
163.946923537196
20
-7.21621770967002
30
0
41
1
10
164.033654421495
20
-6.88060889935889
30
0
41
1
10
164.207116190093
20
-6.13833082400583
30
0
41
1
10
164.293847074392
20
-5.73175102051079
30
0
41
1
10
164.46730884299
20
-4.86814428746069
30
0
41
1
10
164.554039727289
20
-4.41124440622732
30
0
41
1
10
164.727501495887
20
-3.47117616557782
30
0
41
1
10
164.814232380186
20
-2.98813073720649
30
0
41
1
10
164.987694148784
20
-2.01960200147133
30
0
41
1
10
165.074425033083
20
-1.53420365049712
30
0
41
1
10
165.204521359531
20
-0.81946501080705
30
0
41
1
10
165.247886801681
20
-0.583409406122087
30
0
41
1
10
165.312934964905
20
-0.234131006317597
30
0
41
1
10
165.33461768598
20
-0.118502977346282
30
0
41
1
10
165.377983128129
20
0.110937018998101
30
0
41
1
10
165.399665849204
20
0.226488123709544
30
0
41
1
10
165.508079454578
20
0.8084432476129
30
0
41
1
10
165.594810338876
20
1.28703047724969
30
0
41
1
10
165.768272107475
20
2.25272091139095
30
0
41
1
10
165.855002991773
20
2.73976454329196
30
0
41
1
10
166.028464760371
20
3.70011732758894
30
0
41
1
10
166.115195644671
20
4.17331971689364
30
0
41
1
10
166.288657413268
20
5.08156270867613
30
0
41
1
10
166.375388297567
20
5.51647314148238
30
0
41
1
10
166.548850066165
20
6.32519643361138
30
0
41
1
10
166.635580950464
20
6.69889598660603
30
0
41
1
10
166.809042719062
20
7.36756926625679
30
0
41
1
10
166.895773603361
20
7.66248397271889
30
0
41
1
10
167.069235371959
20
8.16398213899035
30
0
41
1
10
167.155966256258
20
8.37057542976564
30
0
41
1
10
167.329428024856
20
8.69461436359654
30
0
41
1
10
167.416158909155
20
8.81212498102033
30
0
41
1
10
167.589620677753
20
8.96477288541308
30
0
41
1
10
167.676351562052
20
9
30
0
41
1
10
167.763082446351
20
9
30
0
0
SPLINE
5
100
100
AcDbEntity
8
1
62
256
6
ByLayer
370
13
48
1
60
0
100
AcDbSpline
70
4
71
3
72
60
73
56
40
0
40
0
40
0
40
0
40
0.0624999999999989
40
0.0624999999999989
40
0.124999999999998
40
0.124999999999998
40
0.156249999999997
40
0.156249999999997
40
0.187499999999997
40
0.187499999999997
40
0.218749999999996
40
0.218749999999996
40
0.249999999999996
40
0.249999999999996
40
0.281249999999995
40
0.281249999999995
40
0.312499999999995
40
0.312499999999995
40
0.343749999999994
40
0.343749999999994
40
0.374999999999994
40
0.374999999999994
40
0.437499999999993
40
0.437499999999993
40
0.499999999999992
40
0.499999999999992
40
0.515624999999992
40
0.515624999999992
40
0.531249999999992
40
0.531249999999992
40
0.562499999999992
40
0.562499999999992
40
0.624999999999993
40
0.624999999999993
40
0.656249999999994
40
0.656249999999994
40
0.687499999999994
40
0.687499999999994
40
0.718749999999995
40
0.718749999999995
40
0.749999999999995
40
0.749999999999995
40
0.781249999999996
40
0.781249999999996
40
0.812499999999996
40
0.812499999999996
40
0.843749999999997
40
0.843749999999997
40
0.874999999999998
40
0.874999999999998
40
0.906249999999998
40
0.906249999999998
40
0.937499999999999
40
0.937499999999999
40
1
40
1
40
1
40
1
41
1
10
168.564714959819
20
9
30
0
41
1
10
168.661788979232
20
9
30
0
41
1
10
168.758862998644
20
8.9558156287944
30
0
41
1
10
168.953011037468
20
8.76296132266083
30
0
41
1
10
169.05008505688
20
8.61413648363597
30
0
41
1
10
169.195696085999
20
8.30657783802999
30
0
41
1
10
169.244233095705
20
8.19008667354487
30
0
41
1
10
169.341307115117
20
7.92933082357706
30
0
41
1
10
169.389844124823
20
7.7850648476097
30
0
41
1
10
169.486918144235
20
7.46977399642839
30
0
41
1
10
169.535455153941
20
7.29874991308273
30
0
41
1
10
169.632529173353
20
6.93181703985817
30
0
41
1
10
169.68106618306
20
6.73591120808572
30
0
41
1
10
169.778140202472
20
6.32189239738781
30
0
41
1
10
169.826677212178
20
6.10378432744807
30
0
41
1
10
169.92375123159
20
5.64872282644578
30
0
41
1
10
169.972288241296
20
5.41177576216072
30
0
41
1
10
170.069362260708
20
4.92291098463949
30
0
41
1
10
170.117899270414
20
4.67100040857807
30
0
41
1
10
170.214973289826
20
4.15639086975096
30
0
41
1
10
170.263510299532
20
3.89369905709199
30
0
41
1
10
170.409121328651
20
3.09584985179902
30
0
41
1
10
170.506195348063
20
2.55108524208958
30
0
41
1
10
170.700343386887
20
1.46786551407305
30
0
41
1
10
170.7974174063
20
0.92952979456237
30
0
41
1
10
170.918759930565
20
0.276549890571829
30
0
41
1
10
170.943028435418
20
0.146930408321083
30
0
41
1
10
170.991565445124
20
-0.110044077459889
30
0
41
1
10
171.015833949977
20
-0.239257489842487
30
0
41
1
10
171.088639464536
20
-0.630480860276521
30
0
41
1
10
171.137176474242
20
-0.895282163963515
30
0
41
1
10
171.282787503361
20
-1.6973197769295
30
0
41
1
10
171.379861522773
20
-2.24240138479374
30
0
41
1
10
171.525472551891
20
-3.05387258586455
30
0
41
1
10
171.574009561597
20
-3.32327944935145
30
0
41
1
10
171.671083581009
20
-3.85579331447269
30
0
41
1
10
171.719620590715
20
-4.11889389652012
30
0
41
1
10
171.816694610128
20
-4.63452511627867
30
0
41
1
10
171.865231619834
20
-4.88704862170144
30
0
41
1
10
171.962305639246
20
-5.37733419820122
30
0
41
1
10
172.010842648952
20
-5.61508911421967
30
0
41
1
10
172.107916668364
20
-6.07194174455529
30
0
41
1
10
172.15645367807
20
-6.29103303847347
30
0
41
1
10
172.253527697482
20
-6.7071649748593
30
0
41
1
10
172.302064707188
20
-6.90420062536637
30
0
41
1
10
172.399138726601
20
-7.27350391172044
30
0
41
1
10
172.447675736307
20
-7.44576848876937
30
0
41
1
10
172.544749755719
20
-7.76361085141428
30
0
41
1
10
172.593286765425
20
-7.90918774104983
30
0
41
1
10
172.690360784837
20
-8.17259446994532
30
0
41
1
10
172.738897794543
20
-8.29042550603032
30
0
41
1
10
172.835971813955
20
-8.49813372287844
30
0
41
1
10
172.884508823662
20
-8.58801386254592
30
0
41
1
10
173.03011985278
20
-8.81659771197843
30
0
41
1
10
173.127193872192
20
-8.91398704342868
30
0
41
1
10
173.224267891604
20
-8.96250208147197
30
0
0
SPLINE
5
101
100
AcDbEntity
8
1
62
256
6
ByLayer
370
13
48
1
60
0
100
AcDbSpline
70
4
71
3
72
8
73
4
40
0
40
0
40
0
40
0
40
1
40
1
40
1
40
1
41
1
10
173.224267891604
20
-8.8235638512505
30
0
41
1
10
174.316178594403
20
-5.88431222551299
30
0
41
1
10
175.408089297201
20
-2.94310849155505
30
0
41
1
10
176.5
20
1.137E-13
30
0
0
SPLINE
5
102
100
AcDbEntity
8
1
62
256
6
ByLayer
370
13
48
1
60
0
100
AcDbSpline
70
4
71
3
72
8
73
4
40
0
40
0
40
0
40
0
40
1
40
1
40
1
40
1
41
1
10
173.224267891604
20
3.24339375897071
30
0
41
1
10
174.316178594403
20
2.15309563131387
30
0
41
1
10
175.408089297201
20
1.07195859422629
30
0
41
1
10
176.5
20
1.705E-13
30
0
0
SPLINE
5
103
100
AcDbEntity
8
1
62
256
6
ByLayer
370
13
48
1
60
0
100
AcDbSpline
70
4
71
3
72
8
73
4
40
0
40
0
40
0
40
0
40
1
40
1
40
1
40
1
41
1
10
173.224267891604
20
-6.65108050033234
30
0
41
1
10
174.316178594403
20
-4.42743312782852
30
0
41
1
10
175.408089297201
20
-2.21039441141974
30
0
41
1
10
176.5
20
8.53E-14
30
0
0
SPLINE
5
104
100
AcDbEntity
8
1
62
256
6
ByLayer
370
13
48
1
60
0
100
AcDbSpline
70
4
71
3
72
8
73
4
40
0
40
0
40
0
40
0
40
1
40
1
40
1
40
1
41
1
10
173.224267891604
20
7.07451989595455
30
0
41
1
10
174.316178594403
20
4.7102718859623
30
0
41
1
10
175.408089297201
20
2.35208594609063
30
0
41
1
10
176.499999999999
20
1.3642E-12
30
0
0
SPLINE
5
105
100
AcDbEntity
8
1
62
256
6
ByLayer
370
13
48
1
60
0
100
AcDbSpline
70
4
71
3
72
8
73
4
40
0
40
0
40
0
40
0
40
1
40
1
40
1
40
1
41
1
10
173.224267891604
20
-3.79210506180209
30
0
41
1
10
174.316178594403
20
-2.53698232974858
30
0
41
1
10
175.408089297202
20
-1.2729405114012
30
0
41
1
10
176.5
20
3.126E-13
30
0
0
SPLINE
5
106
100
AcDbEntity
8
1
62
256
6
ByLayer
370
13
48
1
60
0
100
AcDbSpline
70
4
71
3
72
8
73
4
40
0
40
0
40
0
40
0
40
1
40
1
40
1
40
1
41
1
10
173.224267891604
20
-8.50774355382524
30
0
41
1
10
174.316178594403
20
-5.67503455164928
30
0
41
1
10
175.408089297201
20
-2.83910481271022
30
0
41
1
10
176.5
20
1.137E-13
30
0
0
SPLINE
5
107
100
AcDbEntity
8
1
62
256
6
ByLayer
370
13
48
1
60
0
100
AcDbSpline
70
4
71
3
72
8
73
4
40
0
40
0
40
0
40
0
40
1
40
1
40
1
40
1
41
1
10
173.224267891604
20
-3.75018542959532
30
0
41
1
10
174.316178594403
20
-2.49119020790232
30
0
41
1
10
175.408089297201
20
-1.2411217071751
30
0
41
1
10
176.5
20
5.68E-14
30
0
0
SPLINE
5
108
100
AcDbEntity
8
1
62
256
6
ByLayer
370
13
48
1
60
0
100
AcDbSpline
70
4
71
3
72
8
73
4
40
0
40
0
40
0
40
0
40
1
40
1
40
1
40
1
41
1
10
173.224267891604
20
-2.62410433125143
30
0
41
1
10
174.316178594403
20
-1.74000267928213
30
0
41
1
10
175.408089297201
20
-0.86529655938989
30
0
41
1
10
176.5
20
2.84E-14
30
0
0
SPLINE
5
109
100
AcDbEntity
8
1
62
256
6
ByLayer
370
13
48
1
60
0
100
AcDbSpline
70
4
71
3
72
8
73
4
40
0
40
0
40
0
40
0
40
1
40
1
40
1
40
1
41
1
10
173.224267891604
20
-4.80909568511953
30
0
41
1
10
174.316178594403
20
-3.1977571840111
30
0
41
1
10
175.408089297201
20
-1.59471670323103
30
0
41
1
10
176.5
20
5.68E-14
30
0
0
SPLINE
5
10A
100
AcDbEntity
8
1
62
256
6
ByLayer
370
13
48
1
60
0
100
AcDbSpline
70
4
71
3
72
8
73
4
40
0
40
0
40
0
40
0
40
1
40
1
40
1
40
1
41
1
10
173.224267891604
20
8.92918558100567
30
0
41
1
10
174.316178594403
20
5.95402073614366
30
0
41
1
10
175.408089297201
20
2.97760957130251
30
0
41
1
10
176.5
20
0
30
0
0
SPLINE
5
10B
100
AcDbEntity
8
1
62
256
6
ByLayer
370
13
48
1
60
0
100
AcDbSpline
70
4
71
3
72
8
73
4
40
0
40
0
40
0
40
0
40
1
40
1
40
1
40
1
41
1
10
173.224267891604
20
8.2947121867096
30
0
41
1
10
174.316178594403
20
5.52599459609672
30
0
41
1
10
175.408089297202
20
2.76107570640124
30
0
41
1
10
176.5
20
-6.821E-13
30
0
0
SPLINE
5
10C
100
AcDbEntity
8
1
62
256
6
ByLayer
370
13
48
1
60
0
100
AcDbSpline
70
4
71
3
72
8
73
4
40
0
40
0
40
0
40
0
40
1
40
1
40
1
40
1
41
1
10
173.224267891604
20
-1.49656689214302
30
0
41
1
10
174.316178594403
20
-1.00740164057061
30
0
41
1
10
175.408089297201
20
-0.508543316062969
30
0
41
1
10
176.5
20
-8.53E-14
30
0
0
SPLINE
5
10D
100
AcDbEntity
8
1
62
256
6
ByLayer
370
13
48
1
60
0
100
AcDbSpline
70
4
71
3
72
8
73
4
40
0
40
0
40
0
40
0
40
1
40
1
40
1
40
1
41
1
10
173.224267891604
20
-8.01868005683718
30
0
41
1
10
174.316178594403
20
-5.34132443941184
30
0
41
1
10
175.408089297201
20
-2.66841675449061
30
0
41
1
10
176.5
20
1.137E-13
30
0
0
SPLINE
5
10E
100
AcDbEntity
8
1
62
256
6
ByLayer
370
13
48
1
60
0
100
AcDbSpline
70
4
71
3
72
8
73
4
40
0
40
0
40
0
40
0
40
1
40
1
40
1
40
1
41
1
10
173.224267891604
20
8.68679614114046
30
0
41
1
10
174.316178594403
20
5.78862747395857
30
0
41
1
10
175.408089297201
20
2.89301322935884
30
0
41
1
10
176.5
20
4.832E-13
30
0
0
SPLINE
5
10F
100
AcDbEntity
8
1
62
256
6
ByLayer
370
13
48
1
60
0
100
AcDbSpline
70
4
71
3
72
8
73
4
40
0
40
0
40
0
40
0
40
1
40
1
40
1
40
1
41
1
10
173.224267891604
20
7.1029656758476
30
0
41
1
10
174.316178594403
20
4.74134545579761
30
0
41
1
10
175.408089297201
20
2.37367751676496
30
0
41
1
10
176.5
20
2.84E-14
30
0
0
SPLINE
5
110
100
AcDbEntity
8
1
62
256
6
ByLayer
370
13
48
1
60
0
100
AcDbSpline
70
4
71
3
72
8
73
4
40
0
40
0
40
0
40
0
40
1
40
1
40
1
40
1
41
1
10
173.224267891604
20
7.77739407088626
30
0
41
1
10
174.316178594403
20
5.18987468038384
30
0
41
1
10
175.408089297201
20
2.59739607213811
30
0
41
1
10
176.5
20
2.84E-14
30
0
0
SPLINE
5
111
100
AcDbEntity
8
1
62
256
6
ByLayer
370
13
48
1
60
0
100
AcDbSpline
70
4
71
3
72
8
73
4
40
0
40
0
40
0
40
0
40
1
40
1
40
1
40
1
41
1
10
173.224267891604
20
-8.81435094504982
30
0
41
1
10
174.316178594403
20
-5.87424824114359
30
0
41
1
10
175.408089297201
20
-2.93611549940979
30
0
41
1
10
176.5
20
1.137E-13
30
0
0
SPLINE
5
112
100
AcDbEntity
8
1
62
256
6
ByLayer
370
13
48
1
60
0
100
AcDbSpline
70
4
71
3
72
8
73
4
40
0
40
0
40
0
40
0
40
1
40
1
40
1
40
1
41
1
10
173.224267891604
20
2.13817466016576
30
0
41
1
10
174.316178594403
20
1.43499560935035
30
0
41
1
10
175.408089297201
20
0.722266881641048
30
0
41
1
10
176.5
20
-2.84E-14
30
0
0
SPLINE
5
113
100
AcDbEntity
8
1
62
256
6
ByLayer
370
13
48
1
60
0
100
AcDbSpline
70
4
71
3
72
8
73
4
40
0
40
0
40
0
40
0
40
1
40
1
40
1
40
1
41
1
10
173.224267891604
20
6.30131365415824
30
0
41
1
10
174.316178594403
20
4.20789238508593
30
0
41
1
10
175.408089297201
20
2.10744321853681
30
0
41
1
10
176.5
20
2.84E-14
30
0
0
SPLINE
5
114
100
AcDbEntity
8
1
62
256
6
ByLayer
370
13
48
1
60
0
100
AcDbSpline
70
4
71
3
72
8
73
4
40
0
40
0
40
0
40
0
40
1
40
1
40
1
40
1
41
1
10
173.224267891604
20
-8.03953817685323
30
0
41
1
10
174.316178594403
20
-5.3641094096746
30
0
41
1
10
175.408089297201
20
-2.68424896489844
30
0
41
1
10
176.5
20
1.137E-13
30
0
0
SPLINE
5
115
100
AcDbEntity
8
1
62
256
6
ByLayer
370
13
48
1
60
0
100
AcDbSpline
70
4
71
3
72
8
73
4
40
0
40
0
40
0
40
0
40
1
40
1
40
1
40
1
41
1
10
173.224267891604
20
-4.84805666500461
30
0
41
1
10
174.316178594403
20
-3.24031733647988
30
0
41
1
10
175.408089297201
20
-1.62428976306427
30
0
41
1
10
176.5
20
-2.842E-13
30
0
0
SPLINE
5
116
100
AcDbEntity
8
1
62
256
6
ByLayer
370
13
48
1
60
0
100
AcDbSpline
70
4
71
3
72
8
73
4
40
0
40
0
40
0
40
0
40
1
40
1
40
1
40
1
41
1
10
173.224267891604
20
-2.66823177903362
30
0
41
1
10
174.316178594403
20
-1.78820657228491
30
0
41
1
10
175.408089297201
20
-0.898791190618198
30
0
41
1
10
176.5
20
-1.421E-13
30
0
0
SPLINE
5
117
100
AcDbEntity
8
1
62
256
6
ByLayer
370
13
48
1
60
0
100
AcDbSpline
70
4
71
3
72
8
73
4
40
0
40
0
40
0
40
0
40
1
40
1
40
1
40
1
41
1
10
173.224267891604
20
-0.251949942445606
30
0
41
1
10
174.316178594403
20
-0.158143283457292
30
0
41
1
10
175.408089297201
20
-0.0741595362891019
30
0
41
1
10
176.5
20
0
30
0
0
SPLINE
5
118
100
AcDbEntity
8
1
62
256
6
ByLayer
370
13
48
1
60
0
100
AcDbSpline
70
4
71
3
72
8
73
4
40
0
40
0
40
0
40
0
40
1
40
1
40
1
40
1
41
1
10
173.224267891604
20
4.33539359497675
30
0
41
1
10
174.316178594403
20
2.88165052508569
30
0
41
1
10
175.408089297201
20
1.43651158873564
30
0
41
1
10
176.5
20
2.274E-13
30
0
0
SPLINE
5
119
100
AcDbEntity
8
1
62
256
6
ByLayer
370
13
48
1
60
0
100
AcDbSpline
70
4
71
3
72
8
73
4
40
0
40
0
40
0
40
0
40
1
40
1
40
1
40
1
41
1
10
173.224267891604
20
-0.2980964882004
30
0
41
1
10
174.316178594403
20
-0.208552796488419
30
0
41
1
10
175.408089297201
20
-0.109186749739962
30
0
41
1
10
176.5
20
-2.84E-14
30
0
0
SPLINE
5
11A
100
AcDbEntity
8
1
62
256
6
ByLayer
370
13
48
1
60
0
100
AcDbSpline
70
4
71
3
72
8
73
4
40
0
40
0
40
0
40
0
40
1
40
1
40
1
40
1
41
1
10
173.224267891604
20
-5.78186859718858
30
0
41
1
10
174.316178594403
20
-3.84704804692089
30
0
41
1
10
175.408089297201
20
-1.91974818768853
30
0
41
1
10
176.5
20
8.53E-14
30
0
0
SPLINE
5
11B
100
AcDbEntity
8
1
62
256
6
ByLayer
370
13
48
1
60
0
100
AcDbSpline
70
4
71
3
72
8
73
4
40
0
40
0
40
0
40
0
40
1
40
1
40
1
40
1
41
1
10
173.224267891604
20
-8.49257217082427
30
0
41
1
10
174.316178594403
20
-5.65846165292896
30
0
41
1
10
175.408089297201
20
-2.82758908034009
30
0
41
1
10
176.5
20
1.137E-13
30
0
0
SPLINE
5
11C
100
AcDbEntity
8
1
62
256
6
ByLayer
370
13
48
1
60
0
100
AcDbSpline
70
4
71
3
72
8
73
4
40
0
40
0
40
0
40
0
40
1
40
1
40
1
40
1
41
1
10
173.224267891604
20
6.26826683748544
30
0
41
1
10
174.316178594403
20
4.17179273973989
30
0
41
1
10
175.408089297201
20
2.08235926300949
30
0
41
1
10
176.5
20
3.411E-13
30
0
0
SPLINE
5
11D
100
AcDbEntity
8
1
62
256
6
ByLayer
370
13
48
1
60
0
100
AcDbSpline
70
4
71
3
72
8
73
4
40
0
40
0
40
0
40
0
40
1
40
1
40
1
40
1
41
1
10
173.224267891604
20
-8.97825289078185
30
0
41
1
10
174.316178594403
20
-5.9848191773066
30
0
41
1
10
175.408089297201
20
-2.99205215820933
30
0
41
1
10
176.5
20
1.137E-13
30
0
0
SPLINE
5
11E
100
AcDbEntity
8
1
62
256
6
ByLayer
370
13
48
1
60
0
100
AcDbSpline
70
4
71
3
72
8
73
4
40
0
40
0
40
0
40
0
40
1
40
1
40
1
40
1
41
1
10
173.224267891604
20
8.92328794442111
30
0
41
1
10
174.316178594403
20
5.94757828236123
30
0
41
1
10
175.408089297201
20
2.97313301141924
30
0
41
1
10
176.5
20
4.832E-13
30
0
0
SPLINE
5
11F
100
AcDbEntity
8
1
62
256
6
ByLayer
370
13
48
1
60
0
100
AcDbSpline
70
4
71
3
72
8
73
4
40
0
40
0
40
0
40
0
40
1
40
1
40
1
40
1
41
1
10
173.224267891604
20
0.951634886422738
30
0
41
1
10
174.316178594403
20
0.644195363741431
30
0
41
1
10
175.408089297202
20
0.326982015551778
30
0
41
1
10
176.5
20
-5.68E-14
30
0
0
SPLINE
5
120
100
AcDbEntity
8
1
62
256
6
ByLayer
370
13
48
1
60
0
100
AcDbSpline
70
4
71
3
72
8
73
4
40
0
40
0
40
0
40
0
40
1
40
1
40
1
40
1
41
1
10
173.224267891604
20
8.69875543133358
30
0
41
1
10
174.316178594403
20
5.80169155026061
30
0
41
1
10
175.408089297201
20
2.90209084510323
30
0
41
1
10
176.5
20
2.84E-14
30
0
0
SPLINE
5
121
100
AcDbEntity
8
1
62
256
6
ByLayer
370
13
48
1
60
0
100
AcDbSpline
70
4
71
3
72
8
73
4
40
0
40
0
40
0
40
0
40
1
40
1
40
1
40
1
41
1
10
173.224267891604
20
-1.45102201046512
30
0
41
1
10
174.316178594403
20
-0.957649372683761
30
0
41
1
10
175.408089297201
20
-0.473972791529945
30
0
41
1
10
176.5
20
2.84E-14
30
0
0
SPLINE
5
122
100
AcDbEntity
8
1
62
256
6
ByLayer
370
13
48
1
60
0
100
AcDbSpline
70
4
71
3
72
8
73
4
40
0
40
0
40
0
40
0
40
1
40
1
40
1
40
1
41
1
10
173.224267891604
20
5.38679666699801
30
0
41
1
10
174.316178594403
20
3.59907032707827
30
0
41
1
10
175.408089297201
20
1.80346179024238
30
0
41
1
10
176.5
20
2.84E-14
30
0
0
SPLINE
5
123
100
AcDbEntity
8
1
62
256
6
ByLayer
370
13
48
1
60
0
100
AcDbSpline
70
4
71
3
72
8
73
4
40
0
40
0
40
0
40
0
40
1
40
1
40
1
40
1
41
1
10
173.224267891604
20
4.37579493821283
30
0
41
1
10
174.316178594403
20
2.92578410009136
30
0
41
1
10
175.408089297201
20
1.46717794631601
30
0
41
1
10
176.5
20
-5.68E-14
30
0
0
SPLINE
5
124
100
AcDbEntity
8
1
62
256
6
ByLayer
370
13
48
1
60
0
100
AcDbSpline
70
4
71
3
72
8
73
4
40
0
40
0
40
0
40
0
40
1
40
1
40
1
40
1
41
1
10
173.224267891604
20
-6.68209613834358
30
0
41
1
10
174.316178594403
20
-4.46131395645659
30
0
41
1
10
175.408089297201
20
-2.23393661496203
30
0
41
1
10
176.5
20
8.53E-14
30
0
0
SPLINE
5
125
100
AcDbEntity
8
1
62
256
6
ByLayer
370
13
48
1
60
0
100
AcDbSpline
70
4
71
3
72
8
73
4
40
0
40
0
40
0
40
0
40
1
40
1
40
1
40
1
41
1
10
173.224267891604
20
5.34974072628418
30
0
41
1
10
174.316178594403
20
3.55859119921033
30
0
41
1
10
175.408089297201
20
1.77533473709599
30
0
41
1
10
176.499999999999
20
1.0232E-12
30
0
0
SPLINE
5
126
100
AcDbEntity
8
1
62
256
6
ByLayer
370
13
48
1
60
0
100
AcDbSpline
70
4
71
3
72
8
73
4
40
0
40
0
40
0
40
0
40
1
40
1
40
1
40
1
41
1
10
173.224267891604
20
0.90571322301912
30
0
41
1
10
174.316178594403
20
0.594031507446516
30
0
41
1
10
175.408089297201
20
0.292125497480015
30
0
41
1
10
176.5
20
5.68E-14
30
0
0
SPLINE
5
127
100
AcDbEntity
8
1
62
256
6
ByLayer
370
13
48
1
60
0
100
AcDbSpline
70
4
71
3
72
8
73
4
40
0
40
0
40
0
40
0
40
1
40
1
40
1
40
1
41
1
10
173.224267891604
20
-5.81717308143092
30
0
41
1
10
174.316178594403
20
-3.88561392069025
30
0
41
1
10
175.408089297201
20
-1.94654581002626
30
0
41
1
10
176.5
20
8.53E-14
30
0
0
SPLINE
5
128
100
AcDbEntity
8
1
62
256
6
ByLayer
370
13
48
1
60
0
100
AcDbSpline
70
4
71
3
72
8
73
4
40
0
40
0
40
0
40
0
40
1
40
1
40
1
40
1
41
1
10
173.224267891604
20
-7.40116264542658
30
0
41
1
10
174.316178594403
20
-4.92851695275641
30
0
41
1
10
175.408089297201
20
-2.46144951136085
30
0
41
1
10
176.5
20
1.137E-13
30
0
0
SPLINE
5
129
100
AcDbEntity
8
1
62
256
6
ByLayer
370
13
48
1
60
0
100
AcDbSpline
70
4
71
3
72
8
73
4
40
0
40
0
40
0
40
0
40
1
40
1
40
1
40
1
41
1
10
173.224267891604
20
2.0933003975974
30
0
41
1
10
174.316178594403
20
1.38597591163096
30
0
41
1
10
175.408089297201
20
0.688205385862489
30
0
41
1
10
176.5
20
1.137E-13
30
0
0
SPLINE
5
12A
100
AcDbEntity
8
1
62
256
6
ByLayer
370
13
48
1
60
0
100
AcDbSpline
70
4
71
3
72
8
73
4
40
0
40
0
40
0
40
0
40
1
40
1
40
1
40
1
41
1
10
173.224267891604
20
7.75405882978185
30
0
41
1
10
174.316178594403
20
5.16438375530379
30
0
41
1
10
175.408089297202
20
2.57968362025824
30
0
41
1
10
176.5
20
-6.537E-13
30
0
0
SPLINE
5
12B
100
AcDbEntity
8
1
62
256
6
ByLayer
370
13
48
1
60
0
100
AcDbSpline
70
4
71
3
72
8
73
4
40
0
40
0
40
0
40
0
40
1
40
1
40
1
40
1
41
1
10
173.224267891604
20
-7.42733390559766
30
0
41
1
10
174.316178594403
20
-4.95710588523352
30
0
41
1
10
175.408089297201
20
-2.48131462371751
30
0
41
1
10
176.5
20
1.137E-13
30
0
0
SPLINE
5
12C
100
AcDbEntity
8
1
62
256
6
ByLayer
370
13
48
1
60
0
100
AcDbSpline
70
4
71
3
72
8
73
4
40
0
40
0
40
0
40
0
40
1
40
1
40
1
40
1
41
1
10
173.224267891604
20
3.2864168625712
30
0
41
1
10
174.316178594403
20
2.20009316203056
30
0
41
1
10
175.408089297201
20
1.10461498071137
30
0
41
1
10
176.5
20
-5.68E-14
30
0
0
SPLINE
5
12D
100
AcDbEntity
8
1
62
256
6
ByLayer
370
13
48
1
60
0
100
AcDbSpline
70
4
71
3
72
8
73
4
40
0
40
0
40
0
40
0
40
1
40
1
40
1
40
1
41
1
10
173.224267891604
20
8.31251892360959
30
0
41
1
10
174.316178594403
20
5.54544629981842
30
0
41
1
10
175.408089297201
20
2.77459178575387
30
0
41
1
10
176.5
20
2.84E-14
30
0
0
SPLINE
5
12E
100
AcDbEntity
8
1
62
256
6
ByLayer
370
13
48
1
60
0
100
AcDbSpline
70
4
71
3
72
8
73
4
40
0
40
0
40
0
40
0
40
1
40
1
40
1
40
1
41
1
10
173.224267891604
20
-8.98134230469546
30
0
41
1
10
174.316178594403
20
-5.98819398788882
30
0
41
1
10
175.408089297201
20
-2.99439715627668
30
0
41
1
10
176.5
20
-5.116E-13
30
0
0
LINE
5
7D
100
AcDbEntity
8
80
62
256
6
ByLayer
370
18
48
1
60
0
100
AcDbLine
10
0
20
0
30
0
11
-5
21
0
31
0
39
0
210
0
220
0
230
1
0
LINE
5
7E
100
AcDbEntity
8
4
62
256
6
ByLayer
370
18
48
0.05
60
0
100
AcDbLine
10
-5
20
0
30
0
11
181.5
21
0
31
0
39
0
210
0
220
0
230
1
0
LINE
5
80
100
AcDbEntity
8
81
62
256
6
ByLayer
370
18
48
1
60
0
100
AcDbLine
10
176.5
20
0
30
0
11
181.5
21
0
31
0
39
0
210
0
220
0
230
1
0
LINE
5
81
100
AcDbEntity
8
SK4
62
256
6
ByLayer
370
18
48
0.05
60
0
100
AcDbLine
10
-55
20
0
30
0
11
181.5
21
0
31
0
39
0
210
0
220
0
230
1
0
LINE
5
83
100
AcDbEntity
8
1
62
256
6
ByLayer
370
18
48
1
60
0
100
AcDbLine
10
0
20
10
30
0
11
0
21
-10
31
0
39
0
210
0
220
0
230
1
0
LINE
5
84
100
AcDbEntity
8
1
62
256
6
ByLayer
370
18
48
1
60
0
100
AcDbLine
10
173.224268
20
9
30
0
11
173.224268
21
8.714244
31
0
39
0
210
0
220
0
230
1
0
LINE
5
85
100
AcDbEntity
8
1
62
256
6
ByLayer
370
18
48
1
60
0
100
AcDbLine
10
173.224268
20
-9
30
0
11
173.224268
21
-1.284164
31
0
39
0
210
0
220
0
230
1
0
LINE
5
86
100
AcDbEntity
8
1
62
256
6
ByLayer
370
18
48
1
60
0
100
AcDbLine
10
10
20
8.7
30
0
11
10
21
8.670214
31
0
39
0
210
0
220
0
230
1
0
LINE
5
87
100
AcDbEntity
8
1
62
256
6
ByLayer
370
18
48
1
60
0
100
AcDbLine
10
10
20
-8.7
30
0
11
10
21
1.589191
31
0
39
0
210
0
220
0
230
1
0
LINE
5
88
100
AcDbEntity
8
SK1
62
256
6
ByLayer
370
13
48
1
60
0
100
AcDbLine
10
-14.992177
20
-6.1943
30
0
11
-14.992177
21
6.1943
31
0
39
0
210
0
220
0
230
1
0
LINE
5
8A
100
AcDbEntity
8
SK1
62
256
6
ByLayer
370
13
48
1
60
0
100
AcDbLine
10
-42.24218
20
4.745825
30
0
11
-42.24218
21
-4.745825
31
0
39
0
210
0
220
0
230
1
0
LINE
5
8B
100
AcDbEntity
8
SK1
62
256
6
ByLayer
370
13
48
1
60
0
100
AcDbLine
10
-13.845141
20
5.608199
30
0
11
-13.845141
21
-5.608199
31
0
39
0
210
0
220
0
230
1
0
LINE
5
8C
100
AcDbEntity
8
SK1
62
256
6
ByLayer
370
18
48
1
60
0
100
AcDbLine
10
0
20
10
30
0
11
0
21
-10
31
0
39
0
210
0
220
0
230
1
0
LINE
5
8D
100
AcDbEntity
8
SK1
62
256
6
ByLayer
370
13
48
1
60
0
100
AcDbLine
10
-43.356507
20
-3.65035
30
0
11
-43.356507
21
3.65035
31
0
39
0
210
0
220
0
230
1
0
LINE
5
8E
100
AcDbEntity
8
SK1
62
256
6
ByLayer
370
18
48
1
60
0
100
AcDbLine
10
-50
20
-9
30
0
11
-50
21
9
31
0
39
0
210
0
220
0
230
1
0
LINE
5
8F
100
AcDbEntity
8
SK1
62
256
6
ByLayer
370
18
48
1
60
0
100
AcDbLine
10
-49
20
-10
30
0
11
-49
21
10
31
0
39
0
210
0
220
0
230
1
0
LINE
5
90
100
AcDbEntity
8
1
62
256
6
ByLayer
370
18
48
1
60
0
100
AcDbLine
10
52.849309
20
8.7
30
0
11
10
21
8.7
31
0
39
0
210
0
220
0
230
1
0
LINE
5
91
100
AcDbEntity
8
1
62
256
6
ByLayer
370
18
48
1
60
0
100
AcDbLine
10
89.604551
20
-8.7
30
0
11
130.53238
21
-8.7
31
0
39
0
210
0
220
0
230
1
0
LINE
5
92
100
AcDbEntity
8
1
62
256
6
ByLayer
370
18
48
1
60
0
100
AcDbLine
10
130.53238
20
8.7
30
0
11
89.604551
21
8.7
31
0
39
0
210
0
220
0
230
1
0
LINE
5
93
100
AcDbEntity
8
1
62
256
6
ByLayer
370
18
48
1
60
0
100
AcDbLine
10
10
20
-8.7
30
0
11
52.849309
21
-8.7
31
0
39
0
210
0
220
0
230
1
0
LINE
5
94
100
AcDbEntity
8
1
62
256
6
ByLayer
370
18
48
1
60
0
100
AcDbLine
10
176.5
20
0
30
0
11
173.224268
21
9
31
0
39
0
210
0
220
0
230
1
0
LINE
5
95
100
AcDbEntity
8
1
62
256
6
ByLayer
370
18
48
1
60
0
100
AcDbLine
10
173.224268
20
-9
30
0
11
176.5
21
0
31
0
39
0
210
0
220
0
230
1
0
LINE
5
96
100
AcDbEntity
8
1
62
256
6
ByLayer
370
18
48
1
60
0
100
AcDbLine
10
10
20
8.7
30
0
11
0
21
10
31
0
39
0
210
0
220
0
230
1
0
LINE
5
97
100
AcDbEntity
8
1
62
256
6
ByLayer
370
18
48
1
60
0
100
AcDbLine
10
0
20
-10
30
0
11
10
21
-8.7
31
0
39
0
210
0
220
0
230
1
0
LINE
5
98
100
AcDbEntity
8
1
62
256
6
ByLayer
370
18
48
1
60
0
100
AcDbLine
10
176.5
20
0
30
0
11
173.224268
21
9
31
0
39
0
210
0
220
0
230
1
0
LINE
5
99
100
AcDbEntity
8
1
62
256
6
ByLayer
370
18
48
1
60
0
100
AcDbLine
10
173.224268
20
-9
30
0
11
176.5
21
0
31
0
39
0
210
0
220
0
230
1
0
LINE
5
9A
100
AcDbEntity
8
1
62
256
6
ByLayer
370
18
48
1
60
0
100
AcDbLine
10
163.6
20
-9
30
0
11
173.224268
21
-9
31
0
39
0
210
0
220
0
230
1
0
LINE
5
9B
100
AcDbEntity
8
SK1
62
256
6
ByLayer
370
18
48
1
60
0
100
AcDbLine
10
-49
20
-10
30
0
11
0
21
-10
31
0
39
0
210
0
220
0
230
1
0
LINE
5
9C
100
AcDbEntity
8
SK1
62
256
6
ByLayer
370
18
48
1
60
0
100
AcDbLine
10
0
20
10
30
0
11
-49
21
10
31
0
39
0
210
0
220
0
230
1
0
LINE
5
9D
100
AcDbEntity
8
SK1
62
256
6
ByLayer
370
18
48
1
60
0
100
AcDbLine
10
-50
20
-9
30
0
11
-49
21
-10
31
0
39
0
210
0
220
0
230
1
0
LINE
5
9E
100
AcDbEntity
8
SK1
62
256
6
ByLayer
370
18
48
1
60
0
100
AcDbLine
10
-49
20
10
30
0
11
-50
21
9
31
0
39
0
210
0
220
0
230
1
0
LINE
5
9F
100
AcDbEntity
8
1
62
256
6
ByLayer
370
18
48
1
60
0
100
AcDbLine
10
173.224268
20
9
30
0
11
173.224268
21
-9
31
0
39
0
210
0
220
0
230
1
0
LINE
5
A0
100
AcDbEntity
8
1
62
256
6
ByLayer
370
18
48
1
60
0
100
AcDbLine
10
173.224268
20
9
30
0
11
173.224268
21
-9
31
0
39
0
210
0
220
0
230
1
0
LINE
5
A1
100
AcDbEntity
8
1
62
256
6
ByLayer
370
18
48
1
60
0
100
AcDbLine
10
173.224268
20
9
30
0
11
173.224268
21
-9
31
0
39
0
210
0
220
0
230
1
0
LINE
5
A2
100
AcDbEntity
8
1
62
256
6
ByLayer
370
18
48
1
60
0
100
AcDbLine
10
163.6
20
9
30
0
11
163.6
21
-9
31
0
39
0
210
0
220
0
230
1
0
LINE
5
A3
100
AcDbEntity
8
1
62
256
6
ByLayer
370
18
48
1
60
0
100
AcDbLine
10
163.6
20
9
30
0
11
163.6
21
-9
31
0
39
0
210
0
220
0
230
1
0
LINE
5
A4
100
AcDbEntity
8
1
62
256
6
ByLayer
370
18
48
1
60
0
100
AcDbLine
10
173.224268
20
9
30
0
11
173.224268
21
-9
31
0
39
0
210
0
220
0
230
1
0
LINE
5
A5
100
AcDbEntity
8
1
62
256
6
ByLayer
370
18
48
1
60
0
100
AcDbLine
10
163.6
20
9
30
0
11
163.6
21
-9
31
0
39
0
210
0
220
0
230
1
0
LINE
5
A6
100
AcDbEntity
8
1
62
256
6
ByLayer
370
18
48
1
60
0
100
AcDbLine
10
173.224268
20
9
30
0
11
173.224268
21
-9
31
0
39
0
210
0
220
0
230
1
0
LINE
5
A7
100
AcDbEntity
8
SK2
62
256
6
ByLayer
370
13
48
1
60
0
100
AcDbLine
10
-56.5
20
-10
30
0
11
-56.5
21
39.024569
31
0
39
0
210
0
220
0
230
1
0
LINE
5
A9
100
AcDbEntity
8
SK2
62
256
6
ByLayer
370
13
48
1
60
0
100
AcDbLine
10
-51.5875
20
10
30
0
11
-58.5
21
10
31
0
39
0
210
0
220
0
230
1
0
LINE
5
AA
100
AcDbEntity
8
SK2
62
256
6
ByLayer
370
13
48
1
60
0
100
AcDbLine
10
-51.5875
20
-10
30
0
11
-58.5
21
-10
31
0
39
0
210
0
220
0
230
1
0
LINE
5
AB
100
AcDbEntity
8
1
62
256
6
ByLayer
370
18
48
1
60
1
100
AcDbLine
10
-56.5
20
10
30
0
11
-56.039216
21
6.500002
31
0
39
0
210
0
220
0
230
1
0
LINE
5
AC
100
AcDbEntity
8
1
62
256
6
ByLayer
370
18
48
1
60
1
100
AcDbLine
10
-56.039216
20
6.500002
30
0
11
-56.960784
21
6.499998
31
0
39
0
210
0
220
0
230
1
0
LINE
5
AD
100
AcDbEntity
8
1
62
256
6
ByLayer
370
18
48
1
60
1
100
AcDbLine
10
-56.960784
20
6.499998
30
0
11
-56.5
21
10
31
0
39
0
210
0
220
0
230
1
0
LINE
5
AE
100
AcDbEntity
8
1
62
256
6
ByLayer
370
18
48
1
60
1
100
AcDbLine
10
-56.5
20
-10
30
0
11
-56.960784
21
-6.500002
31
0
39
0
210
0
220
0
230
1
0
LINE
5
AF
100
AcDbEntity
8
1
62
256
6
ByLayer
370
18
48
1
60
1
100
AcDbLine
10
-56.960784
20
-6.500002
30
0
11
-56.039216
21
-6.499998
31
0
39
0
210
0
220
0
230
1
0
LINE
5
B0
100
AcDbEntity
8
1
62
256
6
ByLayer
370
18
48
1
60
1
100
AcDbLine
10
-56.039216
20
-6.499998
30
0
11
-56.5
21
-10
31
0
39
0
210
0
220
0
230
1
0
LINE
5
B1
100
AcDbEntity
8
2
62
256
6
ByLayer
370
13
48
1
60
0
100
AcDbLine
10
184
20
-9
30
0
11
184
21
37.274683
31
0
39
0
210
0
220
0
230
1
0
LINE
5
B3
100
AcDbEntity
8
2
62
256
6
ByLayer
370
13
48
1
60
0
100
AcDbLine
10
174.811768
20
9
30
0
11
186
21
9
31
0
39
0
210
0
220
0
230
1
0
LINE
5
B4
100
AcDbEntity
8
2
62
256
6
ByLayer
370
13
48
1
60
0
100
AcDbLine
10
174.811768
20
-9
30
0
11
186
21
-9
31
0
39
0
210
0
220
0
230
1
0
LINE
5
B5
100
AcDbEntity
8
1
62
256
6
ByLayer
370
18
48
1
60
1
100
AcDbLine
10
184
20
9
30
0
11
184.460784
21
5.500002
31
0
39
0
210
0
220
0
230
1
0
LINE
5
B6
100
AcDbEntity
8
1
62
256
6
ByLayer
370
18
48
1
60
1
100
AcDbLine
10
184.460784
20
5.500002
30
0
11
183.539216
21
5.499998
31
0
39
0
210
0
220
0
230
1
0
LINE
5
B7
100
AcDbEntity
8
1
62
256
6
ByLayer
370
18
48
1
60
1
100
AcDbLine
10
183.539216
20
5.499998
30
0
11
184
21
9
31
0
39
0
210
0
220
0
230
1
0
LINE
5
B8
100
AcDbEntity
8
1
62
256
6
ByLayer
370
18
48
1
60
1
100
AcDbLine
10
184
20
-9
30
0
11
183.539216
21
-5.500002
31
0
39
0
210
0
220
0
230
1
0
LINE
5
B9
100
AcDbEntity
8
1
62
256
6
ByLayer
370
18
48
1
60
1
100
AcDbLine
10
183.539216
20
-5.500002
30
0
11
184.460784
21
-5.499998
31
0
39
0
210
0
220
0
230
1
0
LINE
5
BA
100
AcDbEntity
8
1
62
256
6
ByLayer
370
18
48
1
60
1
100
AcDbLine
10
184.460784
20
-5.499998
30
0
11
184
21
-9
31
0
39
0
210
0
220
0
230
1
0
LINE
5
BB
100
AcDbEntity
8
SK2
62
256
6
ByLayer
370
13
48
1
60
0
100
AcDbLine
10
177.042957
20
-1.491762
30
0
11
183.682423
21
-19.733545
31
0
39
0
210
0
220
0
230
1
0
LINE
5
BC
100
AcDbEntity
8
SK2
62
256
6
ByLayer
370
13
48
1
60
0
100
AcDbLine
10
177.042957
20
1.491762
30
0
11
183.682423
21
19.733545
31
0
39
0
210
0
220
0
230
1
0
LINE
5
BD
100
AcDbEntity
8
1
62
256
6
ByLayer
370
18
48
1
60
1
100
AcDbLine
10
182.998383
20
-17.85416
30
0
11
186.051575
21
-16.082064
31
0
39
0
210
0
220
0
230
1
0
LINE
5
BE
100
AcDbEntity
8
1
62
256
6
ByLayer
370
18
48
1
60
1
100
AcDbLine
10
186.051575
20
-16.082064
30
0
11
186.406196
21
-16.93267
31
0
39
0
210
0
220
0
230
1
0
LINE
5
BF
100
AcDbEntity
8
1
62
256
6
ByLayer
370
18
48
1
60
1
100
AcDbLine
10
186.406196
20
-16.93267
30
0
11
182.998383
21
-17.85416
31
0
39
0
210
0
220
0
230
1
0
LINE
5
C0
100
AcDbEntity
8
1
62
256
6
ByLayer
370
18
48
1
60
1
100
AcDbLine
10
182.998383
20
17.85416
30
0
11
186.406193
21
16.932671
31
0
39
0
210
0
220
0
230
1
0
LINE
5
C1
100
AcDbEntity
8
1
62
256
6
ByLayer
370
18
48
1
60
1
100
AcDbLine
10
186.406193
20
16.932671
30
0
11
186.051579
21
16.082063
31
0
39
0
210
0
220
0
230
1
0
LINE
5
C2
100
AcDbEntity
8
1
62
256
6
ByLayer
370
18
48
1
60
1
100
AcDbLine
10
186.051579
20
16.082063
30
0
11
182.998383
21
17.85416
31
0
39
0
210
0
220
0
230
1
0
LINE
5
133
100
AcDbEntity
8
1
62
256
6
ByLayer
370
18
48
1
60
1
100
AcDbLine
10
-56.5
20
10
30
0
11
-56.039216
21
6.500002
31
0
39
0
210
0
220
0
230
1
0
LINE
5
134
100
AcDbEntity
8
1
62
256
6
ByLayer
370
18
48
1
60
1
100
AcDbLine
10
-56.039216
20
6.500002
30
0
11
-56.960784
21
6.499998
31
0
39
0
210
0
220
0
230
1
0
LINE
5
135
100
AcDbEntity
8
1
62
256
6
ByLayer
370
18
48
1
60
1
100
AcDbLine
10
-56.960784
20
6.499998
30
0
11
-56.5
21
10
31
0
39
0
210
0
220
0
230
1
0
LINE
5
137
100
AcDbEntity
8
1
62
256
6
ByLayer
370
18
48
1
60
1
100
AcDbLine
10
-56.5
20
-10
30
0
11
-56.960784
21
-6.500002
31
0
39
0
210
0
220
0
230
1
0
LINE
5
138
100
AcDbEntity
8
1
62
256
6
ByLayer
370
18
48
1
60
1
100
AcDbLine
10
-56.960784
20
-6.500002
30
0
11
-56.039216
21
-6.499998
31
0
39
0
210
0
220
0
230
1
0
LINE
5
139
100
AcDbEntity
8
1
62
256
6
ByLayer
370
18
48
1
60
1
100
AcDbLine
10
-56.039216
20
-6.499998
30
0
11
-56.5
21
-10
31
0
39
0
210
0
220
0
230
1
0
LINE
5
13D
100
AcDbEntity
8
1
62
256
6
ByLayer
370
18
48
1
60
1
100
AcDbLine
10
184
20
9
30
0
11
184.460784
21
5.500002
31
0
39
0
210
0
220
0
230
1
0
LINE
5
13E
100
AcDbEntity
8
1
62
256
6
ByLayer
370
18
48
1
60
1
100
AcDbLine
10
184.460784
20
5.500002
30
0
11
183.539216
21
5.499998
31
0
39
0
210
0
220
0
230
1
0
LINE
5
13F
100
AcDbEntity
8
1
62
256
6
ByLayer
370
18
48
1
60
1
100
AcDbLine
10
183.539216
20
5.499998
30
0
11
184
21
9
31
0
39
0
210
0
220
0
230
1
0
LINE
5
141
100
AcDbEntity
8
1
62
256
6
ByLayer
370
18
48
1
60
1
100
AcDbLine
10
184
20
-9
30
0
11
183.539216
21
-5.500002
31
0
39
0
210
0
220
0
230
1
0
LINE
5
142
100
AcDbEntity
8
1
62
256
6
ByLayer
370
18
48
1
60
1
100
AcDbLine
10
183.539216
20
-5.500002
30
0
11
184.460784
21
-5.499998
31
0
39
0
210
0
220
0
230
1
0
LINE
5
143
100
AcDbEntity
8
1
62
256
6
ByLayer
370
18
48
1
60
1
100
AcDbLine
10
184.460784
20
-5.499998
30
0
11
184
21
-9
31
0
39
0
210
0
220
0
230
1
0
LINE
5
146
100
AcDbEntity
8
1
62
256
6
ByLayer
370
18
48
1
60
1
100
AcDbLine
10
182.998383
20
-17.85416
30
0
11
186.051575
21
-16.082064
31
0
39
0
210
0
220
0
230
1
0
LINE
5
147
100
AcDbEntity
8
1
62
256
6
ByLayer
370
18
48
1
60
1
100
AcDbLine
10
186.051575
20
-16.082064
30
0
11
186.406196
21
-16.93267
31
0
39
0
210
0
220
0
230
1
0
LINE
5
148
100
AcDbEntity
8
1
62
256
6
ByLayer
370
18
48
1
60
1
100
AcDbLine
10
186.406196
20
-16.93267
30
0
11
182.998383
21
-17.85416
31
0
39
0
210
0
220
0
230
1
0
LINE
5
14A
100
AcDbEntity
8
1
62
256
6
ByLayer
370
18
48
1
60
1
100
AcDbLine
10
182.998383
20
17.85416
30
0
11
186.406193
21
16.932671
31
0
39
0
210
0
220
0
230
1
0
LINE
5
14B
100
AcDbEntity
8
1
62
256
6
ByLayer
370
18
48
1
60
1
100
AcDbLine
10
186.406193
20
16.932671
30
0
11
186.051579
21
16.082063
31
0
39
0
210
0
220
0
230
1
0
LINE
5
14C
100
AcDbEntity
8
1
62
256
6
ByLayer
370
18
48
1
60
1
100
AcDbLine
10
186.051579
20
16.082063
30
0
11
182.998383
21
17.85416
31
0
39
0
210
0
220
0
230
1
0
MTEXT
5
12F
100
AcDbEntity
8
SK2
62
256
6
ByLayer
370
18
48
1
60
0
100
AcDbMText
10
-57.841114
20
21.658438
30
0
210
0
220
0
230
1
1
%%c
40
3
41
0
44
1.084337
50
90
71
7
72
5
7
iso_b_vert
0
MTEXT
5
132
100
AcDbEntity
8
SK2
62
256
6
ByLayer
370
18
48
1
60
0
100
AcDbMText
10
-57.841114
20
27.635
30
0
210
0
220
0
230
1
1
\W0.7513;20.000
40
3
41
0
44
1.084337
50
90
71
7
72
5
7
iso_b_vert
0
MTEXT
5
13B
100
AcDbEntity
8
2
62
256
6
ByLayer
370
18
48
1
60
0
100
AcDbMText
10
182.658886
20
20.658438
30
0
210
0
220
0
230
1
1
%%c
40
3
41
0
44
1.084337
50
90
71
7
72
5
7
iso_b_vert
0
MTEXT
5
13C
100
AcDbEntity
8
2
62
256
6
ByLayer
370
18
48
1
60
0
100
AcDbMText
10
182.658886
20
26.635
30
0
210
0
220
0
230
1
1
\W0.7022;18.000
40
3
41
0
44
1.084337
50
90
71
7
72
5
7
iso_b_vert
0
MTEXT
5
145
100
AcDbEntity
8
SK2
62
256
6
ByLayer
370
18
48
1
60
0
100
AcDbMText
10
196.409114
20
3.734657
30
0
210
0
220
0
230
1
1
\W0.7071;140%%d
40
3
41
0
44
1.084337
50
270
71
7
72
5
7
iso_b_vert
0
MTEXT
5
14E
100
AcDbEntity
8
SK6
62
256
6
ByLayer
370
18
48
1
60
0
100
AcDbMText
10
39.712746
20
-67.114886
30
0
210
0
220
0
230
1
1
\W0.7358;H85818.0
40
3
41
0
44
1.084337
50
0
71
7
72
5
7
iso_b_vert
0
HATCH
5
136
100
AcDbEntity
8
SK2
62
256
6
ByLayer
370
13
48
1
60
0
100
AcDbHatch
10
0
20
0
30
0
210
0
220
0
230
1
2
ANSI31
70
0
71
0
91
1
92
5
93
3
72
1
10
-56.5
20
10
11
-56.0392162584472
21
6.50000169255318
72
1
10
-56.0392162584472
20
6.50000169255318
11
-56.9607837415528
21
6.49999830744682
72
1
10
-56.9607837415528
20
6.49999830744682
11
-56.5
21
10
97
0
75
0
76
1
52
0
41
0.0062
77
0
78
1
53
45
43
0
44
0
45
-0.0139193969876572
46
0.0139193969876572
79
0
47
0
98
1
10
0
20
0
0
HATCH
5
13A
100
AcDbEntity
8
SK2
62
256
6
ByLayer
370
13
48
1
60
0
100
AcDbHatch
10
0
20
0
30
0
210
0
220
0
230
1
2
ANSI31
70
0
71
0
91
1
92
5
93
3
72
1
10
-56.5
20
-10
11
-56.9607837415528
21
-6.50000169255318
72
1
10
-56.9607837415528
20
-6.50000169255318
11
-56.0392162584472
21
-6.49999830744682
72
1
10
-56.0392162584472
20
-6.49999830744682
11
-56.5
21
-10
97
0
75
0
76
1
52
0
41
0.0062
77
0
78
1
53
45
43
0
44
0
45
-0.0139193969876572
46
0.0139193969876572
79
0
47
0
98
1
10
0
20
0
0
HATCH
5
140
100
AcDbEntity
8
2
62
256
6
ByLayer
370
13
48
1
60
0
100
AcDbHatch
10
0
20
0
30
0
210
0
220
0
230
1
2
ANSI31
70
0
71
0
91
1
92
5
93
3
72
1
10
184
20
9
11
184.460783741553
21
5.50000169255318
72
1
10
184.460783741553
20
5.50000169255318
11
183.539216258447
21
5.49999830744682
72
1
10
183.539216258447
20
5.49999830744682
11
184
21
9
97
0
75
0
76
1
52
0
41
0.0062
77
0
78
1
53
45
43
0
44
0
45
-0.0139193969876572
46
0.0139193969876572
79
0
47
0
98
1
10
0
20
0
0
HATCH
5
144
100
AcDbEntity
8
2
62
256
6
ByLayer
370
13
48
1
60
0
100
AcDbHatch
10
0
20
0
30
0
210
0
220
0
230
1
2
ANSI31
70
0
71
0
91
1
92
5
93
3
72
1
10
184
20
-9
11
183.539216258447
21
-5.50000169255318
72
1
10
183.539216258447
20
-5.50000169255318
11
184.460783741553
21
-5.49999830744682
72
1
10
184.460783741553
20
-5.49999830744682
11
184
21
-9
97
0
75
0
76
1
52
0
41
0.0062
77
0
78
1
53
45
43
0
44
0
45
-0.0139193969876572
46
0.0139193969876572
79
0
47
0
98
1
10
0
20
0
0
HATCH
5
149
100
AcDbEntity
8
SK2
62
256
6
ByLayer
370
13
48
1
60
0
100
AcDbHatch
10
0
20
0
30
0
210
0
220
0
230
1
2
ANSI31
70
0
71
0
91
1
92
5
93
3
72
1
10
182.998382723188
20
-17.8541597949322
11
186.051575425693
21
-16.0820638240607
72
1
10
186.051575425693
20
-16.0820638240607
11
186.406195833975
21
-16.9326700737196
72
1
10
186.406195833975
20
-16.9326700737196
11
182.998382723188
21
-17.8541597949322
97
0
75
0
76
1
52
0
41
0.0062
77
0
78
1
53
45
43
0
44
0
45
-0.0139193969876572
46
0.0139193969876572
79
0
47
0
98
1
10
0
20
0
0
HATCH
5
14D
100
AcDbEntity
8
SK2
62
256
6
ByLayer
370
13
48
1
60
0
100
AcDbHatch
10
0
20
0
30
0
210
0
220
0
230
1
2
ANSI31
70
0
71
0
91
1
92
5
93
3
72
1
10
182.998382723188
20
17.8541597949322
11
186.406192709519
21
16.9326713763016
72
1
10
186.406192709519
20
16.9326713763016
11
186.051578550149
21
16.0820625214788
72
1
10
186.051578550149
20
16.0820625214788
11
182.998382723188
21
17.8541597949322
97
0
75
0
76
1
52
0
41
0.0062
77
0
78
1
53
45
43
0
44
0
45
-0.0139193969876572
46
0.0139193969876572
79
0
47
0
98
1
10
0
20
0
0
DIMENSION
5
151
100
AcDbEntity
8
SK2
62
256
6
ByLayer
370
18
48
1
60
0
100
AcDbDimension
2
_U0
10
176.5
20
-46.643657
30
0
11
63.25
21
-46.643657
31
0
70
32
71
1
72
1
41
1
210
0
220
0
230
1
3
Standard
100
AcDbAlignedDimension
13
-50
23
-10
33
0
14
176.5
24
0
34
0
50
0
100
AcDbRotatedDimension
1001
ACAD
1000
DSTYLE
1002
{
1070
   371
1070
    13
1070
   372
1070
    13
1070
     3
1000

1070
   170
1070
     0
1070
   144
1040
1.0
1070
   277
1070
     2
1070
   284
1070
     8
1070
   278
1070
    46
1070
   146
1040
1.166667
1070
   345
1005
16
1070
   347
1005
16
1070
   346
1005
16
1070
   344
1005
0
1070
   343
1005
0
1070
   172
1070
     1
1070
    76
1070
     0
1070
    75
1070
     0
1070
   282
1070
     0
1070
   281
1070
     0
1070
    71
1070
     0
1070
    74
1070
     0
1070
   279
1070
     0
1070
   173
1070
     1
1070
   340
1005
130
1070
   271
1070
     2
1070
   272
1070
     3
1070
    77
1070
     1
1070
    73
1070
     1
1070
   171
1070
     3
1070
   274
1070
     4
1070
   177
1070
     2
1070
   176
1070
     2
1070
   178
1070
     2
1070
    78
1070
     8
1070
    48
1040
-0.1
1070
    41
1040
3.5
1070
   147
1040
1.5
1070
    42
1040
1.5875
1070
    44
1040
2.0
1070
   140
1040
3.0
1002
}
1001
ACAD_DSTYLE_DIM_LINETYPE
1070
   380
1005
16
1001
ACAD_DSTYLE_DIM_EXT1_LINETYPE
1070
   381
1005
16
1001
ACAD_DSTYLE_DIM_EXT2_LINETYPE
1070
   382
1005
16
0
DIMENSION
5
16A
100
AcDbEntity
8
SK2
62
256
6
ByLayer
370
18
48
1
60
0
100
AcDbDimension
2
_U1
10
3
20
-36.643657
30
0
11
89.75
21
-36.643657
31
0
70
32
71
1
72
1
41
1
210
0
220
0
230
1
3
Standard
100
AcDbAlignedDimension
13
176.5
23
0
33
0
14
3
24
-9
34
0
50
0
100
AcDbRotatedDimension
1001
ACAD
1000
DSTYLE
1002
{
1070
   371
1070
    13
1070
   372
1070
    13
1070
     3
1000

1070
   170
1070
     0
1070
   144
1040
1.0
1070
   277
1070
     2
1070
   284
1070
     8
1070
   278
1070
    46
1070
   146
1040
1.166667
1070
   345
1005
16
1070
   347
1005
16
1070
   346
1005
16
1070
   344
1005
0
1070
   343
1005
0
1070
   172
1070
     1
1070
    76
1070
     0
1070
    75
1070
     0
1070
   282
1070
     0
1070
   281
1070
     0
1070
    71
1070
     0
1070
    74
1070
     0
1070
   279
1070
     0
1070
   173
1070
     1
1070
   340
1005
130
1070
   271
1070
     2
1070
   272
1070
     3
1070
    77
1070
     1
1070
    73
1070
     1
1070
   171
1070
     3
1070
   274
1070
     4
1070
   177
1070
     2
1070
   176
1070
     2
1070
   178
1070
     2
1070
    78
1070
     8
1070
    48
1040
-0.1
1070
    41
1040
3.5
1070
   147
1040
1.5
1070
    42
1040
1.5875
1070
    44
1040
2.0
1070
   140
1040
3.0
1002
}
1001
ACAD_DSTYLE_DIM_LINETYPE
1070
   380
1005
16
1001
ACAD_DSTYLE_DIM_EXT1_LINETYPE
1070
   381
1005
16
1001
ACAD_DSTYLE_DIM_EXT2_LINETYPE
1070
   382
1005
16
0
DIMENSION
5
182
100
AcDbEntity
8
SK2
62
256
6
ByLayer
370
18
48
1
60
0
100
AcDbDimension
2
_U2
10
0
20
-36.643657
30
0
11
-25
21
-36.643657
31
0
70
32
71
1
72
1
41
1
210
0
220
0
230
1
3
Standard
100
AcDbAlignedDimension
13
-50
23
-10
33
0
14
0
24
-10
34
0
50
0
100
AcDbRotatedDimension
1001
ACAD
1000
DSTYLE
1002
{
1070
   371
1070
    13
1070
   372
1070
    13
1070
     3
1000

1070
   170
1070
     0
1070
   144
1040
1.0
1070
   277
1070
     2
1070
   284
1070
     8
1070
   278
1070
    46
1070
   146
1040
1.166667
1070
   345
1005
16
1070
   347
1005
16
1070
   346
1005
16
1070
   344
1005
0
1070
   343
1005
0
1070
   172
1070
     1
1070
    76
1070
     0
1070
    75
1070
     0
1070
   282
1070
     0
1070
   281
1070
     0
1070
    71
1070
     0
1070
    74
1070
     0
1070
   279
1070
     0
1070
   173
1070
     1
1070
   340
1005
130
1070
   271
1070
     2
1070
   272
1070
     3
1070
    77
1070
     1
1070
    73
1070
     1
1070
   171
1070
     3
1070
   274
1070
     4
1070
   177
1070
     2
1070
   176
1070
     2
1070
   178
1070
     2
1070
    78
1070
     8
1070
    48
1040
-0.1
1070
    41
1040
3.5
1070
   147
1040
1.5
1070
    42
1040
1.5875
1070
    44
1040
2.0
1070
   140
1040
3.0
1002
}
1001
ACAD_DSTYLE_DIM_LINETYPE
1070
   380
1005
16
1001
ACAD_DSTYLE_DIM_EXT1_LINETYPE
1070
   381
1005
16
1001
ACAD_DSTYLE_DIM_EXT2_LINETYPE
1070
   382
1005
16
0
DIMENSION
5
19A
100
AcDbEntity
8
SK2
62
256
6
ByLayer
370
18
48
1
60
0
100
AcDbDimension
2
_U3
10
18
20
33.643657
30
0
11
97.25
21
33.643657
31
0
70
32
71
1
72
1
41
1
210
0
220
0
230
1
3
Standard
100
AcDbAlignedDimension
13
176.5
23
0
33
0
14
18
24
9
34
0
50
0
100
AcDbRotatedDimension
1001
ACAD
1000
DSTYLE
1002
{
1070
   371
1070
    13
1070
   372
1070
    13
1070
     3
1000

1070
   170
1070
     0
1070
   144
1040
1.0
1070
   277
1070
     2
1070
   284
1070
     8
1070
   278
1070
    46
1070
   146
1040
1.166667
1070
   345
1005
16
1070
   347
1005
16
1070
   346
1005
16
1070
   344
1005
0
1070
   343
1005
0
1070
   172
1070
     1
1070
    76
1070
     0
1070
    75
1070
     0
1070
   282
1070
     0
1070
   281
1070
     0
1070
    71
1070
     0
1070
    74
1070
     0
1070
   279
1070
     0
1070
   173
1070
     1
1070
   340
1005
130
1070
   271
1070
     2
1070
   272
1070
     3
1070
    77
1070
     1
1070
    73
1070
     1
1070
   171
1070
     3
1070
   274
1070
     4
1070
   177
1070
     2
1070
   176
1070
     2
1070
   178
1070
     2
1070
    78
1070
     8
1070
    48
1040
-0.1
1070
    41
1040
3.5
1070
   147
1040
1.5
1070
    42
1040
1.5875
1070
    44
1040
2.0
1070
   140
1040
3.0
1002
}
1001
ACAD_DSTYLE_DIM_LINETYPE
1070
   380
1005
16
1001
ACAD_DSTYLE_DIM_EXT1_LINETYPE
1070
   381
1005
16
1001
ACAD_DSTYLE_DIM_EXT2_LINETYPE
1070
   382
1005
16
0
ENDSEC
0
SECTION
2
OBJECTS
0
DICTIONARY
5
222
330
0
100
AcDbDictionary
280
0
281
1
3
ACAD_GROUP
350
223
3
ACAD_MLINESTYLE
350
224
0
DICTIONARY
5
223
330
0
100
AcDbDictionary
280
0
281
1
0
DICTIONARY
5
224
330
0
100
AcDbDictionary
280
0
281
1
3
Standard
350
18
0
MLINESTYLE
5
18
330
224
100
AcDbMlineStyle
2
Standard
70
0
3

62
256
51
90
52
90
71
2
49
-0.5
62
256
6
ByLayer
49
0.5
62
256
6
ByLayer
0
RASTERVARIABLES
5
210
330

100
AcDbRasterVariables
90
0
70
1
71
1
72
1
0
ENDSEC
0
EOF
