0
SECTION
2
HEADER
9
$ACADVER
1
AC1015
9
$DWGCODEPAGE
3
ANSI_1252
9
$HANDSEED
5
223
9
$ANGBASE
50
0
9
$ANGDIR
70
0
9
$ATTMODE
70
1
9
$AUNITS
70
0
9
$AUPREC
70
0
9
$CECOLOR
62
256
9
$CELTSCALE
40
1
9
$CELTYPE
6
ByLayer
9
$CELWEIGHT
370
18
9
$CLAYER
8
0
9
$CMLJUST
70
0
9
$CMLSCALE
40
1
9
$CMLSTYLE
2
Standard
9
$DIMSTYLE
2
Standard
9
$TEXTSIZE
40
0.2
9
$TEXTSTYLE
7
Standard
9
$LUNITS
70
2
9
$LUPREC
70
4
9
$EXTNAMES
290
1
9
$INSUNITS
70
4
9
$LTSCALE
40
1
9
$LWDISPLAY
290
1
9
$PDMODE
70
0
9
$PDSIZE
40
0
9
$PLINEGEN
70
0
0
ENDSEC
0
SECTION
2
CLASSES
0
CLASS
1
RASTERVARIABLES
2
AcDbRasterVariables
3
ISM
90
0
280
0
281
0
0
ENDSEC
0
SECTION
2
TABLES
0
TABLE
2
VPORT
5
219
100
AcDbSymbolTable
0
VPORT
5
1
100
AcDbSymbolTableRecord
100
AcDbViewportTableRecord
2
*Active
70
0
10
0
20
0
11
1
21
1
12
-1
22
1
13
0
23
0
14
0.5
24
0.5
15
10
25
10
16
0
26
0
36
1
17
0
27
0
37
0
0
ENDTAB
0
TABLE
2
LTYPE
5
21a
100
AcDbSymbolTable
0
LTYPE
5
14
100
AcDbSymbolTableRecord
100
AcDbLinetypeTableRecord
70
0
2
ByBlock
3

72
65
73
0
40
0
0
LTYPE
5
15
100
AcDbSymbolTableRecord
100
AcDbLinetypeTableRecord
70
0
2
ByLayer
3

72
65
73
0
40
0
0
LTYPE
5
16
100
AcDbSymbolTableRecord
100
AcDbLinetypeTableRecord
70
0
2
Continuous
3
Solid line
72
65
73
0
40
0
0
LTYPE
5
6E
100
AcDbSymbolTableRecord
100
AcDbLinetypeTableRecord
70
0
2
CENTER
3
____ _ ____ _ ____ _ ____
72
65
73
4
40
47.5
49
22
74
0
49
-8.5
74
0
49
8.5
74
0
49
-8.5
74
0
0
LTYPE
5
6F
100
AcDbSymbolTableRecord
100
AcDbLinetypeTableRecord
70
0
2
DASHED
3
__ __ __ __ __ __ __ __ __
72
65
73
2
40
25.72
49
12.86
74
0
49
-12.86
74
0
0
ENDTAB
0
TABLE
2
LAYER
5
21b
100
AcDbSymbolTable
0
LAYER
5
10
100
AcDbSymbolTableRecord
100
AcDbLayerTableRecord
2
0
70
0
62
7
6
Continuous
290
1
370
-3
390
0
0
LAYER
5
71
100
AcDbSymbolTableRecord
100
AcDbLayerTableRecord
2
80
70
0
62
-6
6
Continuous
290
1
370
-3
390
0
0
LAYER
5
73
100
AcDbSymbolTableRecord
100
AcDbLayerTableRecord
2
81
70
0
62
-3
6
Continuous
290
1
370
-3
390
0
0
LAYER
5
75
100
AcDbSymbolTableRecord
100
AcDbLayerTableRecord
2
1
70
0
62
4
6
Continuous
290
1
370
-3
390
0
0
LAYER
5
82
100
AcDbSymbolTableRecord
100
AcDbLayerTableRecord
2
4
70
0
62
-2
6
CENTER
290
1
370
-3
390
0
0
LAYER
5
B1
100
AcDbSymbolTableRecord
100
AcDbLayerTableRecord
2
2
70
0
62
7
6
Continuous
290
1
370
-3
390
0
0
LAYER
5
148
100
AcDbSymbolTableRecord
100
AcDbLayerTableRecord
2
Defpoints
70
0
62
7
6
Continuous
290
0
370
-3
390
0
0
LAYER
5
205
100
AcDbSymbolTableRecord
100
AcDbLayerTableRecord
2
SK4
70
0
62
2
6
CENTER
290
1
370
-3
390
0
0
LAYER
5
206
100
AcDbSymbolTableRecord
100
AcDbLayerTableRecord
2
SK1
70
0
62
4
6
Continuous
290
1
370
-3
390
0
0
LAYER
5
207
100
AcDbSymbolTableRecord
100
AcDbLayerTableRecord
2
SK2
70
0
62
7
6
Continuous
290
1
370
-3
390
0
0
LAYER
5
208
100
AcDbSymbolTableRecord
100
AcDbLayerTableRecord
2
SK6
70
0
62
5
6
Continuous
290
1
370
-3
390
0
0
ENDTAB
0
TABLE
2
STYLE
5
21c
100
AcDbSymbolTable
0
STYLE
5
11
100
AcDbSymbolTableRecord
100
AcDbTextStyleTableRecord
2
Standard
3
txt
70
0
71
0
40
0
41
1
42
0
50
0
0
STYLE
5
124
100
AcDbSymbolTableRecord
100
AcDbTextStyleTableRecord
2
iso_b_vert
3
simplex.shx
70
0
71
0
40
0
41
1
42
0
50
0
0
STYLE
5
125
100
AcDbSymbolTableRecord
100
AcDbTextStyleTableRecord
2
DWGDirectTextStyle
3
simplex
70
0
71
0
40
0
41
1
42
0
50
0
0
ENDTAB
0
TABLE
2
DIMSTYLE
5
21d
100
AcDbSymbolTable
100
AcDbDimStyleTable
0
DIMSTYLE
105
27
100
AcDbSymbolTableRecord
100
AcDbDimStyleTableRecord
2
Standard
70
0
3
<>
41
0.18
42
0.0625
44
0.18
140
0.18
147
0.09
73
0
74
0
77
1
271
2
275
0
278
52
280
0
340
11
0
ENDTAB
0
TABLE
2
VIEW
5
21e
100
AcDbSymbolTable
0
ENDTAB
0
TABLE
2
UCS
5
21f
100
AcDbSymbolTable
0
ENDTAB
0
TABLE
2
APPID
5
220
100
AcDbSymbolTable
0
APPID
5
12
100
AcDbSymbolTableRecord
100
AcDbRegAppTableRecord
2
ACAD
70
0
0
APPID
5
144
100
AcDbSymbolTableRecord
100
AcDbRegAppTableRecord
2
ACAD_DSTYLE_DIMBREAK
70
0
0
APPID
5
1C4
100
AcDbSymbolTableRecord
100
AcDbRegAppTableRecord
2
ACAD_DSTYLE_DIM_LINETYPE
70
0
0
APPID
5
1C5
100
AcDbSymbolTableRecord
100
AcDbRegAppTableRecord
2
ACAD_DSTYLE_DIM_EXT1_LINETYPE
70
0
0
APPID
5
1C6
100
AcDbSymbolTableRecord
100
AcDbRegAppTableRecord
2
ACAD_DSTYLE_DIM_EXT2_LINETYPE
70
0
0
APPID
5
201
100
AcDbSymbolTableRecord
100
AcDbRegAppTableRecord
2
ACAD_MLEADERVER
70
0
0
ENDTAB
0
TABLE
2
BLOCK_RECORD
5
221
100
AcDbSymbolTable
0
BLOCK_RECORD
5
1F
100
AcDbSymbolTableRecord
100
AcDbBlockTableRecord
2
*Model_Space
340
0
70
0
0
BLOCK_RECORD
5
1B
100
AcDbSymbolTableRecord
100
AcDbBlockTableRecord
2
*Paper_Space
340
0
70
0
0
BLOCK_RECORD
5
23
100
AcDbSymbolTableRecord
100
AcDbBlockTableRecord
2
*Paper_Space0
340
0
70
0
0
BLOCK_RECORD
5
149
100
AcDbSymbolTableRecord
100
AcDbBlockTableRecord
2
*D1
340
0
70
0
0
BLOCK_RECORD
5
155
100
AcDbSymbolTableRecord
100
AcDbBlockTableRecord
2
_U0
340
0
70
0
0
BLOCK_RECORD
5
161
100
AcDbSymbolTableRecord
100
AcDbBlockTableRecord
2
*D3
340
0
70
0
0
BLOCK_RECORD
5
16D
100
AcDbSymbolTableRecord
100
AcDbBlockTableRecord
2
_U1
340
0
70
0
0
BLOCK_RECORD
5
179
100
AcDbSymbolTableRecord
100
AcDbBlockTableRecord
2
*D5
340
0
70
0
0
BLOCK_RECORD
5
185
100
AcDbSymbolTableRecord
100
AcDbBlockTableRecord
2
_U2
340
0
70
0
0
BLOCK_RECORD
5
191
100
AcDbSymbolTableRecord
100
AcDbBlockTableRecord
2
*D7
340
0
70
0
0
BLOCK_RECORD
5
19D
100
AcDbSymbolTableRecord
100
AcDbBlockTableRecord
2
_U3
340
0
70
0
0
ENDTAB
0
ENDSEC
0
SECTION
2
BLOCKS
0
BLOCK
5
20
100
AcDbEntity
8
0
100
AcDbBlockBegin
2
*Model_Space
70
0
10
0
20
0
30
0
3
*Model_Space
0
ENDBLK
5
21
100
AcDbEntity
8
0
100
AcDbBlockEnd
0
BLOCK
5
1C
100
AcDbEntity
8
0
100
AcDbBlockBegin
2
*Paper_Space
70
0
10
0
20
0
30
0
3
*Paper_Space
0
ENDBLK
5
1D
100
AcDbEntity
8
0
100
AcDbBlockEnd
0
BLOCK
5
24
100
AcDbEntity
8
0
100
AcDbBlockBegin
2
*Paper_Space0
70
0
10
0
20
0
30
0
3
*Paper_Space0
0
ENDBLK
5
25
100
AcDbEntity
8
0
100
AcDbBlockEnd
0
BLOCK
5
14A
100
AcDbEntity
8
0
100
AcDbBlockBegin
2
*D1
70
1
10
0
20
0
30
0
3
*D1
0
LINE
5
14C
100
AcDbEntity
8
0
62
256
6
ByLayer
370
-2
48
1
60
0
100
AcDbLine
10
-50
20
-11.5875
30
0
11
-50
21
-48.706439
31
0
39
0
210
0
220
0
230
1
0
LINE
5
14D
100
AcDbEntity
8
0
62
256
6
ByLayer
370
-2
48
1
60
0
100
AcDbLine
10
151.5
20
-1.5875
30
0
11
151.5
21
-48.706439
31
0
39
0
210
0
220
0
230
1
0
LINE
5
14E
100
AcDbEntity
8
0
62
256
6
ByLayer
370
-2
48
1
60
0
100
AcDbLine
10
-46.5
20
-46.706439
30
0
11
148
21
-46.706439
31
0
39
0
210
0
220
0
230
1
0
SOLID
5
14F
100
AcDbEntity
8
0
62
256
6
ByLayer
370
-1
48
1
60
0
100
AcDbTrace
10
-46.5
20
-46.123106
30
0
11
-46.5
21
-47.289773
31
0
12
-50
22
-46.706439
32
0
13
-50
23
-46.706439
33
0
39
0
210
0
220
0
230
1
0
SOLID
5
150
100
AcDbEntity
8
0
62
256
6
ByLayer
370
-1
48
1
60
0
100
AcDbTrace
10
148
20
-47.289773
30
0
11
148
21
-46.123106
31
0
12
151.5
22
-46.706439
32
0
13
151.5
23
-46.706439
33
0
39
0
210
0
220
0
230
1
0
MTEXT
5
151
100
AcDbEntity
8
0
62
256
6
ByLayer
370
18
48
1
60
0
100
AcDbMText
10
50.75
20
-40.706439
30
0
210
0
220
0
230
1
1
\A1;201.5
40
3
41
0
44
1
50
0
71
5
72
5
7
iso_b_vert
0
POINT
5
152
100
AcDbEntity
8
Defpoints
62
0
6
ByLayer
370
-1
48
1
60
0
100
AcDbPoint
10
-50
20
-10
30
0
39
0
210
0
220
0
230
1
50
360
0
POINT
5
153
100
AcDbEntity
8
Defpoints
62
0
6
ByLayer
370
-1
48
1
60
0
100
AcDbPoint
10
151.5
20
0
30
0
39
0
210
0
220
0
230
1
50
360
0
POINT
5
154
100
AcDbEntity
8
Defpoints
62
0
6
ByLayer
370
-1
48
1
60
0
100
AcDbPoint
10
151.5
20
-46.706439
30
0
39
0
210
0
220
0
230
1
50
360
0
ENDBLK
5
14B
100
AcDbEntity
8
0
100
AcDbBlockEnd
0
BLOCK
5
15C
100
AcDbEntity
8
0
100
AcDbBlockBegin
2
_U0
70
0
10
0
20
0
30
0
3
_U0
0
MTEXT
5
156
100
AcDbEntity
8
SK2
62
256
6
ByLayer
370
18
48
1
60
0
100
AcDbMText
10
45.521658
20
-45.821325
30
0
210
0
220
0
230
1
1
\W0.7022;201.50
40
3
41
0
44
1.084337
50
0
71
7
72
5
7
iso_b_vert
0
LINE
5
157
100
AcDbEntity
8
SK2
62
256
6
ByLayer
370
13
48
1
60
0
100
AcDbLine
10
-50
20
-11.5875
30
0
11
-50
21
-48.706439
31
0
39
0
210
0
220
0
230
1
0
LINE
5
158
100
AcDbEntity
8
SK2
62
256
6
ByLayer
370
13
48
1
60
0
100
AcDbLine
10
151.5
20
-1.5875
30
0
11
151.5
21
-48.706439
31
0
39
0
210
0
220
0
230
1
0
LINE
5
159
100
AcDbEntity
8
SK2
62
256
6
ByLayer
370
13
48
1
60
0
100
AcDbLine
10
-50
20
-46.706439
30
0
11
151.5
21
-46.706439
31
0
39
0
210
0
220
0
230
1
0
SOLID
5
15A
100
AcDbEntity
8
SK2
62
256
6
ByLayer
370
18
48
1
60
0
100
AcDbTrace
10
-50
20
-46.706439
30
0
11
-46.500002
21
-46.245656
31
0
12
-46.499998
22
-47.167223
32
0
13
-46.499998
23
-47.167223
33
0
39
0
210
0
220
0
230
1
0
SOLID
5
15B
100
AcDbEntity
8
SK2
62
256
6
ByLayer
370
18
48
1
60
0
100
AcDbTrace
10
151.5
20
-46.706439
30
0
11
148.000002
21
-47.167223
31
0
12
147.999998
22
-46.245656
32
0
13
147.999998
23
-46.245656
33
0
39
0
210
0
220
0
230
1
0
ENDBLK
5
15D
100
AcDbEntity
8
0
100
AcDbBlockEnd
0
BLOCK
5
162
100
AcDbEntity
8
0
100
AcDbBlockBegin
2
*D3
70
1
10
0
20
0
30
0
3
*D3
0
LINE
5
164
100
AcDbEntity
8
0
62
256
6
ByLayer
370
-2
48
1
60
0
100
AcDbLine
10
151.5
20
-1.5875
30
0
11
151.5
21
-38.706439
31
0
39
0
210
0
220
0
230
1
0
LINE
5
165
100
AcDbEntity
8
0
62
256
6
ByLayer
370
-2
48
1
60
0
100
AcDbLine
10
3
20
-9.0875
30
0
11
3
21
-38.706439
31
0
39
0
210
0
220
0
230
1
0
LINE
5
166
100
AcDbEntity
8
0
62
256
6
ByLayer
370
-2
48
1
60
0
100
AcDbLine
10
148
20
-36.706439
30
0
11
6.5
21
-36.706439
31
0
39
0
210
0
220
0
230
1
0
SOLID
5
167
100
AcDbEntity
8
0
62
256
6
ByLayer
370
-1
48
1
60
0
100
AcDbTrace
10
148
20
-37.289773
30
0
11
148
21
-36.123106
31
0
12
151.5
22
-36.706439
32
0
13
151.5
23
-36.706439
33
0
39
0
210
0
220
0
230
1
0
SOLID
5
168
100
AcDbEntity
8
0
62
256
6
ByLayer
370
-1
48
1
60
0
100
AcDbTrace
10
6.5
20
-36.123106
30
0
11
6.5
21
-37.289773
31
0
12
3
22
-36.706439
32
0
13
3
23
-36.706439
33
0
39
0
210
0
220
0
230
1
0
MTEXT
5
169
100
AcDbEntity
8
0
62
256
6
ByLayer
370
18
48
1
60
0
100
AcDbMText
10
77.25
20
-30.706439
30
0
210
0
220
0
230
1
1
\A1;148.5
40
3
41
0
44
1
50
0
71
5
72
5
7
iso_b_vert
0
POINT
5
16A
100
AcDbEntity
8
Defpoints
62
0
6
ByLayer
370
-1
48
1
60
0
100
AcDbPoint
10
151.5
20
0
30
0
39
0
210
0
220
0
230
1
50
360
0
POINT
5
16B
100
AcDbEntity
8
Defpoints
62
0
6
ByLayer
370
-1
48
1
60
0
100
AcDbPoint
10
3
20
-7.5
30
0
39
0
210
0
220
0
230
1
50
360
0
POINT
5
16C
100
AcDbEntity
8
Defpoints
62
0
6
ByLayer
370
-1
48
1
60
0
100
AcDbPoint
10
3
20
-36.706439
30
0
39
0
210
0
220
0
230
1
50
360
0
ENDBLK
5
163
100
AcDbEntity
8
0
100
AcDbBlockEnd
0
BLOCK
5
174
100
AcDbEntity
8
0
100
AcDbBlockBegin
2
_U1
70
0
10
0
20
0
30
0
3
_U1
0
MTEXT
5
16E
100
AcDbEntity
8
SK2
62
256
6
ByLayer
370
18
48
1
60
0
100
AcDbMText
10
71.863715
20
-35.821325
30
0
210
0
220
0
230
1
1
\W0.7237;148.50
40
3
41
0
44
1.084337
50
0
71
7
72
5
7
iso_b_vert
0
LINE
5
16F
100
AcDbEntity
8
SK2
62
256
6
ByLayer
370
13
48
1
60
0
100
AcDbLine
10
151.5
20
-1.5875
30
0
11
151.5
21
-38.706439
31
0
39
0
210
0
220
0
230
1
0
LINE
5
170
100
AcDbEntity
8
SK2
62
256
6
ByLayer
370
13
48
1
60
0
100
AcDbLine
10
3
20
-9.0875
30
0
11
3
21
-38.706439
31
0
39
0
210
0
220
0
230
1
0
LINE
5
171
100
AcDbEntity
8
SK2
62
256
6
ByLayer
370
13
48
1
60
0
100
AcDbLine
10
151.5
20
-36.706439
30
0
11
3
21
-36.706439
31
0
39
0
210
0
220
0
230
1
0
SOLID
5
172
100
AcDbEntity
8
SK2
62
256
6
ByLayer
370
18
48
1
60
0
100
AcDbTrace
10
151.5
20
-36.706439
30
0
11
148.000002
21
-37.167223
31
0
12
147.999998
22
-36.245656
32
0
13
147.999998
23
-36.245656
33
0
39
0
210
0
220
0
230
1
0
SOLID
5
173
100
AcDbEntity
8
SK2
62
256
6
ByLayer
370
18
48
1
60
0
100
AcDbTrace
10
3
20
-36.706439
30
0
11
6.499998
21
-36.245656
31
0
12
6.500002
22
-37.167223
32
0
13
6.500002
23
-37.167223
33
0
39
0
210
0
220
0
230
1
0
ENDBLK
5
175
100
AcDbEntity
8
0
100
AcDbBlockEnd
0
BLOCK
5
17A
100
AcDbEntity
8
0
100
AcDbBlockBegin
2
*D5
70
1
10
0
20
0
30
0
3
*D5
0
LINE
5
17C
100
AcDbEntity
8
0
62
256
6
ByLayer
370
-2
48
1
60
0
100
AcDbLine
10
-50
20
-11.5875
30
0
11
-50
21
-38.706439
31
0
39
0
210
0
220
0
230
1
0
LINE
5
17D
100
AcDbEntity
8
0
62
256
6
ByLayer
370
-2
48
1
60
0
100
AcDbLine
10
0
20
-11.5875
30
0
11
0
21
-38.706439
31
0
39
0
210
0
220
0
230
1
0
LINE
5
17E
100
AcDbEntity
8
0
62
256
6
ByLayer
370
-2
48
1
60
0
100
AcDbLine
10
-46.5
20
-36.706439
30
0
11
-3.5
21
-36.706439
31
0
39
0
210
0
220
0
230
1
0
SOLID
5
17F
100
AcDbEntity
8
0
62
256
6
ByLayer
370
-1
48
1
60
0
100
AcDbTrace
10
-46.5
20
-36.123106
30
0
11
-46.5
21
-37.289773
31
0
12
-50
22
-36.706439
32
0
13
-50
23
-36.706439
33
0
39
0
210
0
220
0
230
1
0
SOLID
5
180
100
AcDbEntity
8
0
62
256
6
ByLayer
370
-1
48
1
60
0
100
AcDbTrace
10
-3.5
20
-37.289773
30
0
11
-3.5
21
-36.123106
31
0
12
0
22
-36.706439
32
0
13
0
23
-36.706439
33
0
39
0
210
0
220
0
230
1
0
MTEXT
5
181
100
AcDbEntity
8
0
62
256
6
ByLayer
370
18
48
1
60
0
100
AcDbMText
10
-25
20
-30.706439
30
0
210
0
220
0
230
1
1
\A1;50
40
3
41
0
44
1
50
0
71
5
72
5
7
iso_b_vert
0
POINT
5
182
100
AcDbEntity
8
Defpoints
62
0
6
ByLayer
370
-1
48
1
60
0
100
AcDbPoint
10
-50
20
-10
30
0
39
0
210
0
220
0
230
1
50
360
0
POINT
5
183
100
AcDbEntity
8
Defpoints
62
0
6
ByLayer
370
-1
48
1
60
0
100
AcDbPoint
10
0
20
-10
30
0
39
0
210
0
220
0
230
1
50
360
0
POINT
5
184
100
AcDbEntity
8
Defpoints
62
0
6
ByLayer
370
-1
48
1
60
0
100
AcDbPoint
10
0
20
-36.706439
30
0
39
0
210
0
220
0
230
1
50
360
0
ENDBLK
5
17B
100
AcDbEntity
8
0
100
AcDbBlockEnd
0
BLOCK
5
18C
100
AcDbEntity
8
0
100
AcDbBlockBegin
2
_U2
70
0
10
0
20
0
30
0
3
_U2
0
MTEXT
5
186
100
AcDbEntity
8
SK2
62
256
6
ByLayer
370
18
48
1
60
0
100
AcDbMText
10
-29.48237
20
-35.821325
30
0
210
0
220
0
230
1
1
\W0.7468;50.00
40
3
41
0
44
1.084337
50
0
71
7
72
5
7
iso_b_vert
0
LINE
5
187
100
AcDbEntity
8
SK2
62
256
6
ByLayer
370
13
48
1
60
0
100
AcDbLine
10
-50
20
-11.5875
30
0
11
-50
21
-38.706439
31
0
39
0
210
0
220
0
230
1
0
LINE
5
188
100
AcDbEntity
8
SK2
62
256
6
ByLayer
370
13
48
1
60
0
100
AcDbLine
10
0
20
-11.5875
30
0
11
0
21
-38.706439
31
0
39
0
210
0
220
0
230
1
0
LINE
5
189
100
AcDbEntity
8
SK2
62
256
6
ByLayer
370
13
48
1
60
0
100
AcDbLine
10
-50
20
-36.706439
30
0
11
0
21
-36.706439
31
0
39
0
210
0
220
0
230
1
0
SOLID
5
18A
100
AcDbEntity
8
SK2
62
256
6
ByLayer
370
18
48
1
60
0
100
AcDbTrace
10
-50
20
-36.706439
30
0
11
-46.500002
21
-36.245656
31
0
12
-46.499998
22
-37.167223
32
0
13
-46.499998
23
-37.167223
33
0
39
0
210
0
220
0
230
1
0
SOLID
5
18B
100
AcDbEntity
8
SK2
62
256
6
ByLayer
370
18
48
1
60
0
100
AcDbTrace
10
0
20
-36.706439
30
0
11
-3.499998
21
-37.167223
31
0
12
-3.500002
22
-36.245656
32
0
13
-3.500002
23
-36.245656
33
0
39
0
210
0
220
0
230
1
0
ENDBLK
5
18D
100
AcDbEntity
8
0
100
AcDbBlockEnd
0
BLOCK
5
192
100
AcDbEntity
8
0
100
AcDbBlockBegin
2
*D7
70
1
10
0
20
0
30
0
3
*D7
0
LINE
5
194
100
AcDbEntity
8
0
62
256
6
ByLayer
370
-2
48
1
60
0
100
AcDbLine
10
151.5
20
1.5875
30
0
11
151.5
21
35.706439
31
0
39
0
210
0
220
0
230
1
0
LINE
5
195
100
AcDbEntity
8
0
62
256
6
ByLayer
370
-2
48
1
60
0
100
AcDbLine
10
18
20
9.0875
30
0
11
18
21
35.706439
31
0
39
0
210
0
220
0
230
1
0
LINE
5
196
100
AcDbEntity
8
0
62
256
6
ByLayer
370
-2
48
1
60
0
100
AcDbLine
10
148
20
33.706439
30
0
11
21.5
21
33.706439
31
0
39
0
210
0
220
0
230
1
0
SOLID
5
197
100
AcDbEntity
8
0
62
256
6
ByLayer
370
-1
48
1
60
0
100
AcDbTrace
10
148
20
33.123106
30
0
11
148
21
34.289773
31
0
12
151.5
22
33.706439
32
0
13
151.5
23
33.706439
33
0
39
0
210
0
220
0
230
1
0
SOLID
5
198
100
AcDbEntity
8
0
62
256
6
ByLayer
370
-1
48
1
60
0
100
AcDbTrace
10
21.5
20
34.289773
30
0
11
21.5
21
33.123106
31
0
12
18
22
33.706439
32
0
13
18
23
33.706439
33
0
39
0
210
0
220
0
230
1
0
MTEXT
5
199
100
AcDbEntity
8
0
62
256
6
ByLayer
370
18
48
1
60
0
100
AcDbMText
10
84.75
20
39.706439
30
0
210
0
220
0
230
1
1
\A1;133.5
40
3
41
0
44
1
50
0
71
5
72
5
7
iso_b_vert
0
POINT
5
19A
100
AcDbEntity
8
Defpoints
62
0
6
ByLayer
370
-1
48
1
60
0
100
AcDbPoint
10
151.5
20
0
30
0
39
0
210
0
220
0
230
1
50
360
0
POINT
5
19B
100
AcDbEntity
8
Defpoints
62
0
6
ByLayer
370
-1
48
1
60
0
100
AcDbPoint
10
18
20
7.5
30
0
39
0
210
0
220
0
230
1
50
360
0
POINT
5
19C
100
AcDbEntity
8
Defpoints
62
0
6
ByLayer
370
-1
48
1
60
0
100
AcDbPoint
10
18
20
33.706439
30
0
39
0
210
0
220
0
230
1
50
360
0
ENDBLK
5
193
100
AcDbEntity
8
0
100
AcDbBlockEnd
0
BLOCK
5
1A4
100
AcDbEntity
8
0
100
AcDbBlockBegin
2
_U3
70
0
10
0
20
0
30
0
3
_U3
0
MTEXT
5
19E
100
AcDbEntity
8
SK2
62
256
6
ByLayer
370
18
48
1
60
0
100
AcDbMText
10
79.521658
20
34.591554
30
0
210
0
220
0
230
1
1
\W0.7022;133.50
40
3
41
0
44
1.084337
50
0
71
7
72
5
7
iso_b_vert
0
LINE
5
19F
100
AcDbEntity
8
SK2
62
256
6
ByLayer
370
13
48
1
60
0
100
AcDbLine
10
151.5
20
1.5875
30
0
11
151.5
21
35.706439
31
0
39
0
210
0
220
0
230
1
0
LINE
5
1A0
100
AcDbEntity
8
SK2
62
256
6
ByLayer
370
13
48
1
60
0
100
AcDbLine
10
18
20
9.0875
30
0
11
18
21
35.706439
31
0
39
0
210
0
220
0
230
1
0
LINE
5
1A1
100
AcDbEntity
8
SK2
62
256
6
ByLayer
370
13
48
1
60
0
100
AcDbLine
10
151.5
20
33.706439
30
0
11
18
21
33.706439
31
0
39
0
210
0
220
0
230
1
0
SOLID
5
1A2
100
AcDbEntity
8
SK2
62
256
6
ByLayer
370
18
48
1
60
0
100
AcDbTrace
10
151.5
20
33.706439
30
0
11
148.000002
21
33.245656
31
0
12
147.999998
22
34.167223
32
0
13
147.999998
23
34.167223
33
0
39
0
210
0
220
0
230
1
0
SOLID
5
1A3
100
AcDbEntity
8
SK2
62
256
6
ByLayer
370
18
48
1
60
0
100
AcDbTrace
10
18
20
33.706439
30
0
11
21.499998
21
34.167223
31
0
12
21.500002
22
33.245656
32
0
13
21.500002
23
33.245656
33
0
39
0
210
0
220
0
230
1
0
ENDBLK
5
1A5
100
AcDbEntity
8
0
100
AcDbBlockEnd
0
ENDSEC
0
SECTION
2
ENTITIES
0
ARC
5
C2
100
AcDbEntity
8
SK2
62
256
6
ByLayer
370
13
48
1
60
0
100
AcDbCircle
39
0
10
151.5
20
0
30
0
40
19
210
0
220
0
230
1
100
AcDbArc
50
290
51
70
0
ELLIPSE
5
C3
100
AcDbEntity
8
SK1
62
256
6
ByLayer
370
18
48
1
60
0
100
AcDbEllipse
10
209.817277
20
0
30
0
11
286.362532830084
21
-3.24477297310427E-13
31
0
210
0
220
0
230
1
40
0.034921
41
2.47357625657654
42
2.64710298745217
0
ELLIPSE
5
C4
100
AcDbEntity
8
SK1
62
256
6
ByLayer
370
18
48
1
60
0
100
AcDbEllipse
10
-22.723687
20
0
30
0
11
10.7236871002449
21
-1.21510065339267E-14
31
0
210
0
220
0
230
1
40
0.932515
41
-0.59537570803654
42
0.595375708036542
0
ELLIPSE
5
C5
100
AcDbEntity
8
SK1
62
256
6
ByLayer
370
18
48
1
60
0
100
AcDbEllipse
10
209.817277
20
0
30
0
11
286.362532824103
21
-3.2447729730365E-13
31
0
210
0
220
0
230
1
40
0.034921
41
-2.64710298745053
42
-2.47357625657208
0
ELLIPSE
5
C6
100
AcDbEntity
8
SK1
62
256
6
ByLayer
370
18
48
1
60
0
100
AcDbEllipse
10
-34.674849
20
0
30
0
11
-1.83690953073338E-15
21
-9.99999999999897
31
0
210
0
220
0
230
1
40
0.932515
41
-1.94446667349865
42
-1.19712598009114
0
POINT
5
70
100
AcDbEntity
8
80
62
256
6
ByLayer
370
18
48
1
60
0
100
AcDbPoint
10
0
20
0
30
0
39
0
210
0
220
0
230
1
50
360
0
POINT
5
72
100
AcDbEntity
8
81
62
256
6
ByLayer
370
18
48
1
60
0
100
AcDbPoint
10
151.5
20
0
30
0
39
0
210
0
220
0
230
1
50
360
0
POINT
5
74
100
AcDbEntity
8
1
62
256
6
ByLayer
370
18
48
1
60
1
100
AcDbPoint
10
-50
20
-10
30
0
39
0
210
0
220
0
230
1
50
360
0
POINT
5
76
100
AcDbEntity
8
1
62
256
6
ByLayer
370
18
48
1
60
1
100
AcDbPoint
10
151.5
20
0
30
0
39
0
210
0
220
0
230
1
50
360
0
POINT
5
77
100
AcDbEntity
8
1
62
256
6
ByLayer
370
18
48
1
60
1
100
AcDbPoint
10
151.5
20
0
30
0
39
0
210
0
220
0
230
1
50
360
0
POINT
5
78
100
AcDbEntity
8
1
62
256
6
ByLayer
370
18
48
1
60
1
100
AcDbPoint
10
3
20
-7.5
30
0
39
0
210
0
220
0
230
1
50
360
0
POINT
5
79
100
AcDbEntity
8
1
62
256
6
ByLayer
370
18
48
1
60
1
100
AcDbPoint
10
-50
20
-10
30
0
39
0
210
0
220
0
230
1
50
360
0
POINT
5
7A
100
AcDbEntity
8
1
62
256
6
ByLayer
370
18
48
1
60
1
100
AcDbPoint
10
0
20
-10
30
0
39
0
210
0
220
0
230
1
50
360
0
POINT
5
7B
100
AcDbEntity
8
1
62
256
6
ByLayer
370
18
48
1
60
1
100
AcDbPoint
10
151.5
20
0
30
0
39
0
210
0
220
0
230
1
50
360
0
POINT
5
7C
100
AcDbEntity
8
1
62
256
6
ByLayer
370
18
48
1
60
1
100
AcDbPoint
10
18
20
7.5
30
0
39
0
210
0
220
0
230
1
50
360
0
SPLINE
5
C7
100
AcDbEntity
8
1
62
256
6
ByLayer
370
18
48
1
60
0
100
AcDbSpline
70
4
71
3
72
20
73
16
40
0
40
0
40
0
40
0
40
0.206430283491706
40
0.206430283491706
40
0.412860566983412
40
0.412860566983412
40
0.619290850475118
40
0.619290850475118
40
0.825721133966824
40
0.825721133966824
40
0.928936275712672
40
0.928936275712672
40
0.980543846585596
40
0.980543846585596
40
1
40
1
40
1
40
1
41
1
10
10
20
-7.19518791847264
30
0
41
1
10
10.2784096057664
20
-7.19401978587473
30
0
41
1
10
10.5561926265937
20
-7.19309283865746
30
0
41
1
10
11.1106126931475
20
-7.19221464782007
30
0
41
1
10
11.3872490833227
20
-7.19225848989879
30
0
41
1
10
11.9394579728036
20
-7.19322568305154
30
0
41
1
10
12.215029990551
20
-7.19414548418462
30
0
41
1
10
12.7651855790242
20
-7.19631463781118
30
0
41
1
10
13.0397687731528
20
-7.19756031680762
30
0
41
1
10
13.4509633570917
20
-7.19900065469426
30
0
41
1
10
13.5879149331581
20
-7.19940699901173
30
0
41
1
10
13.7931810873998
20
-7.1998046559182
30
0
41
1
10
13.8615427053297
20
-7.19990168430118
30
0
41
1
10
13.9554482072736
20
-7.19997433975107
30
0
41
1
10
13.9811390576101
20
-7.19998796433947
30
0
41
1
10
14.0068111499441
20
-7.19999484859198
30
0
0
SPLINE
5
C8
100
AcDbEntity
8
1
62
256
6
ByLayer
370
18
48
1
60
0
100
AcDbSpline
70
4
71
3
72
12
73
8
40
0
40
0
40
0
40
0
40
0.337467263308219
40
0.337467263308219
40
0.674934526616437
40
0.674934526616437
40
1
40
1
40
1
40
1
41
1
10
140.5
20
-7.4156655584901
30
0
41
1
10
140.845097504051
20
-7.43436569998889
30
0
41
1
10
141.189921565986
20
-7.44995059152009
30
0
41
1
10
141.879395888953
20
-7.47477749830873
30
0
41
1
10
142.22409904585
20
-7.48401658612144
30
0
41
1
10
142.900658429499
20
-7.49601201320669
30
0
41
1
10
143.232500056163
20
-7.49899563782148
30
0
41
1
10
143.564209631529
20
-7.49906291439035
30
0
0
SPLINE
5
C9
100
AcDbEntity
8
1
62
256
6
ByLayer
370
18
48
1
60
0
100
AcDbSpline
70
4
71
3
72
185
73
181
40
0
40
0
40
0
40
0
40
0.003028769059144
40
0.003028769059144
40
0.0093387135587701
40
0.0093387135587701
40
0.0156486580583961
40
0.0156486580583961
40
0.0282685470576487
40
0.0282685470576487
40
0.0408884360569012
40
0.0408884360569012
40
0.0535083250561538
40
0.0535083250561538
40
0.0661282140554063
40
0.0661282140554063
40
0.0724381585550328
40
0.0724381585550328
40
0.0787481030546593
40
0.0787481030546593
40
0.0913679920539119
40
0.103987881053164
40
0.103987881053164
40
0.116607770052417
40
0.116607770052417
40
0.129227659051669
40
0.129227659051669
40
0.141847548050922
40
0.141847548050922
40
0.148157492550549
40
0.148157492550549
40
0.154467437050175
40
0.154467437050175
40
0.160777381549801
40
0.160777381549801
40
0.167087326049427
40
0.179707215048679
40
0.179707215048679
40
0.192327104047931
40
0.192327104047931
40
0.204946993047183
40
0.204946993047183
40
0.217566882046435
40
0.217566882046435
40
0.230186771045687
40
0.230186771045687
40
0.242806660044939
40
0.242806660044939
40
0.268046438043444
40
0.268046438043444
40
0.274356382543069
40
0.274356382543069
40
0.280666327042695
40
0.280666327042695
40
0.293286216041947
40
0.293286216041947
40
0.305906105041199
40
0.305906105041199
40
0.312216049540824
40
0.312216049540824
40
0.31852599404045
40
0.31852599404045
40
0.331145883039701
40
0.331145883039701
40
0.343765772038952
40
0.343765772038952
40
0.356385661038203
40
0.356385661038203
40
0.369005550037455
40
0.369005550037455
40
0.381625439036706
40
0.381625439036706
40
0.394245328035957
40
0.394245328035957
40
0.400555272535582
40
0.400555272535582
40
0.406865217035208
40
0.406865217035208
40
0.413175161534834
40
0.413175161534834
40
0.419485106034459
40
0.419485106034459
40
0.43210499503371
40
0.43210499503371
40
0.444724884032962
40
0.444724884032962
40
0.469964662031464
40
0.469964662031464
40
0.476274606531089
40
0.476274606531089
40
0.482584551030715
40
0.482584551030715
40
0.495204440029965
40
0.507824329029215
40
0.507824329029215
40
0.520444218028465
40
0.520444218028465
40
0.533064107027715
40
0.533064107027715
40
0.545683996026965
40
0.545683996026965
40
0.551993940526591
40
0.551993940526591
40
0.558303885026216
40
0.558303885026216
40
0.564613829525841
40
0.564613829525841
40
0.570923774025466
40
0.583543663024716
40
0.583543663024716
40
0.596163552023966
40
0.596163552023966
40
0.608783441023216
40
0.608783441023216
40
0.621403330022466
40
0.621403330022466
40
0.634023219021716
40
0.634023219021716
40
0.646643108020967
40
0.646643108020967
40
0.671882886019468
40
0.671882886019468
40
0.684502775018719
40
0.684502775018719
40
0.69712266401797
40
0.69712266401797
40
0.709742553017222
40
0.709742553017222
40
0.722362442016473
40
0.722362442016473
40
0.728672386516098
40
0.728672386516098
40
0.734982331015724
40
0.747602220014975
40
0.747602220014975
40
0.760222109014226
40
0.760222109014226
40
0.772841998013477
40
0.772841998013477
40
0.785461887012729
40
0.785461887012729
40
0.79808177601198
40
0.79808177601198
40
0.810701665011231
40
0.810701665011231
40
0.823321554010482
40
0.823321554010482
40
0.829631498510108
40
0.829631498510108
40
0.835941443009734
40
0.835941443009734
40
0.848561332008986
40
0.848561332008986
40
0.861181221008239
40
0.861181221008239
40
0.873801110007491
40
0.873801110007491
40
0.880111054507116
40
0.880111054507116
40
0.886420999006742
40
0.886420999006742
40
0.899040888005993
40
0.899040888005993
40
0.911660777005244
40
0.911660777005244
40
0.924280666004495
40
0.924280666004495
40
0.936900555003746
40
0.936900555003746
40
0.949520444002998
40
0.949520444002998
40
0.962140333002249
40
0.962140333002249
40
0.968450277501874
40
0.968450277501874
40
0.9747602220015
40
0.9747602220015
40
0.98738011100075
40
0.98738011100075
40
1
40
1
40
1
40
1
41
1
10
63.7636351238037
20
5.2881778922378
30
0
41
1
10
63.8413813854552
20
5.30662189730867
30
0
41
1
10
63.9191525654182
20
5.32494730117827
30
0
41
1
10
64.1590216842994
20
5.38109074944961
30
0
41
1
10
64.3211828228276
20
5.41851443746125
30
0
41
1
10
64.6453236886658
20
5.49229202634658
30
0
41
1
10
64.8073495900021
20
5.52865678456752
30
0
41
1
10
65.2932743243343
20
5.6362185124751
30
0
41
1
10
65.6170020534422
20
5.70591676544404
30
0
41
1
10
66.2640460367053
20
5.84120664696931
30
0
41
1
10
66.5873853801235
20
5.90675225069336
30
0
41
1
10
67.2340000609925
20
6.0331550471559
30
0
41
1
10
67.5573103794036
20
6.09396427211175
30
0
41
1
10
68.2037986109551
20
6.21105888185863
30
0
41
1
10
68.5269680511043
20
6.26735518849341
30
0
41
1
10
69.0115727440432
20
6.34845575266522
30
0
41
1
10
69.1730789237407
20
6.37493650968236
30
0
41
1
10
69.4960565270822
20
6.42675475320127
30
0
41
1
10
69.6575336858052
20
6.45208386850598
30
0
41
1
10
70.1420782378491
20
6.52614581885572
30
0
41
1
10
70.7883812742334
20
6.6198488557807
30
0
41
1
10
71.4349385289133
20
6.70381759923742
30
0
41
1
10
72.0815218823611
20
6.78299670885272
30
0
41
1
10
72.4048241020238
20
6.82018627443509
30
0
41
1
10
73.0517261361759
20
6.88946656974136
30
0
41
1
10
73.3753517202693
20
6.92153674049666
30
0
41
1
10
74.0231002083526
20
6.98044658015425
30
0
41
1
10
74.3471759399433
20
7.0073279757091
30
0
41
1
10
74.8335160751511
20
7.04382383312341
30
0
41
1
10
74.9956209051096
20
7.05534568467255
30
0
41
1
10
75.3196458998948
20
7.07708946205921
30
0
41
1
10
75.4815847558896
20
7.08731597325465
30
0
41
1
10
75.8053590251355
20
7.10644975061595
30
0
41
1
10
75.9672034863008
20
7.11535213359943
30
0
41
1
10
76.2908834136708
20
7.131801882741
30
0
41
1
10
76.7763618427679
20
7.15445771098624
30
0
41
1
10
77.2616503086235
20
7.17113568088084
30
0
41
1
10
77.9084263816355
20
7.18810419589568
30
0
41
1
10
78.2316508430081
20
7.19395432005652
30
0
41
1
10
78.8779012849621
20
7.20032850723925
30
0
41
1
10
79.2009431028141
20
7.20084712900035
30
0
41
1
10
79.8471727939178
20
7.19657300016164
30
0
41
1
10
80.1703672339673
20
7.19179179433843
30
0
41
1
10
80.8167341507152
20
7.1769454237608
30
0
41
1
10
81.1399142227434
20
7.16687870655113
30
0
41
1
10
81.7862202802121
20
7.14139687969458
30
0
41
1
10
82.1093187292684
20
7.12595814598893
30
0
41
1
10
83.0793376366693
20
7.07190555215723
30
0
41
1
10
83.726748818484
20
7.02555618756969
30
0
41
1
10
84.5364342800989
20
6.95434922523927
30
0
41
1
10
84.6983993042958
20
6.93944526204612
30
0
41
1
10
85.0224193714758
20
6.90833226349454
30
0
41
1
10
85.1845083928199
20
6.89211905237826
30
0
41
1
10
85.6706689077322
20
6.84159853447528
30
0
41
1
10
85.9946493037973
20
6.80544748795202
30
0
41
1
10
86.6423798601781
20
6.72828661895633
30
0
41
1
10
86.9660927838742
20
6.6872410292726
30
0
41
1
10
87.4513797978194
20
6.62191208218391
30
0
41
1
10
87.6130958703631
20
6.59950936624989
30
0
41
1
10
87.9364296962879
20
6.55343890423012
30
0
41
1
10
88.0980429469238
20
6.52976491977731
30
0
41
1
10
88.5828490589971
20
6.45697872316327
30
0
41
1
10
88.9060754627333
20
6.40619139286326
30
0
41
1
10
89.5525195423123
20
6.30007942693933
30
0
41
1
10
89.8757270197706
20
6.24474183181579
30
0
41
1
10
90.5220076231552
20
6.12934724734595
30
0
41
1
10
90.845054802158
20
6.06924570223072
30
0
41
1
10
91.4911768031239
20
5.94452721385494
30
0
41
1
10
91.8142633119895
20
5.87992739564231
30
0
41
1
10
92.4607784433304
20
5.74675852552508
30
0
41
1
10
92.784174832017
20
5.67814295620798
30
0
41
1
10
93.4310907163809
20
5.53657755257387
30
0
41
1
10
93.7546198640228
20
5.4636432544759
30
0
41
1
10
94.2399893786851
20
5.35091280372072
30
0
41
1
10
94.4017926703379
20
5.31278133987948
30
0
41
1
10
94.7255205006945
20
5.23559350682666
30
0
41
1
10
94.8874537453939
20
5.19655566773383
30
0
41
1
10
95.2114503256846
20
5.1175813945643
30
0
41
1
10
95.3735125543897
20
5.07764273042557
30
0
41
1
10
95.6977505735456
20
4.99683462544257
30
0
41
1
10
95.8599011035971
20
4.95597125507953
30
0
41
1
10
96.3461001381561
20
4.83204482546304
30
0
41
1
10
96.6700065308413
20
4.74758508277881
30
0
41
1
10
97.3173618081152
20
4.57495621958498
30
0
41
1
10
97.6408350611337
20
4.48683835153872
30
0
41
1
10
98.6110854811459
20
4.21809909760063
30
0
41
1
10
99.257847218583
20
4.03348933215128
30
0
41
1
10
100.065694466203
20
3.79472133800368
30
0
41
1
10
100.227234522664
20
3.74656765784172
30
0
41
1
10
100.55026277927
20
3.64947327578554
30
0
41
1
10
100.711754648907
20
3.60054114655247
30
0
41
1
10
101.196318154188
20
3.45297850515973
30
0
41
1
10
101.842630927082
20
3.25417748840548
30
0
41
1
10
102.489164396002
20
3.05072474523041
30
0
41
1
10
103.135706011452
20
2.84466402551999
30
0
41
1
10
103.458968072195
20
2.74029160412053
30
0
41
1
10
104.105741913048
20
2.52955971550159
30
0
41
1
10
104.429273882481
20
2.42325588583117
30
0
41
1
10
105.076826086263
20
2.2093362502151
30
0
41
1
10
105.400799391845
20
2.10159325820203
30
0
41
1
10
105.886967724349
20
1.93854908246004
30
0
41
1
10
106.049106203934
20
1.88395302205015
30
0
41
1
10
106.373220395327
20
1.77435463144494
30
0
41
1
10
106.535158407177
20
1.71935158415059
30
0
41
1
10
106.858818858386
20
1.6090133129093
30
0
41
1
10
107.020546710001
20
1.55369612056731
30
0
41
1
10
107.343883183324
20
1.44304325430443
30
0
41
1
10
107.828688535775
20
1.27696852155688
30
0
41
1
10
108.312842682109
20
1.11041588506492
30
0
41
1
10
108.957710528014
20
0.887612751202255
30
0
41
1
10
109.279787888505
20
0.775778444884622
30
0
41
1
10
109.923306595968
20
0.551494833239673
30
0
41
1
10
110.24476557097
20
0.439102612406913
30
0
41
1
10
110.887367991684
20
0.214703069578349
30
0
41
1
10
111.208534201395
20
0.102764101335367
30
0
41
1
10
111.850442541966
20
-0.121085063614061
30
0
41
1
10
112.171185771238
20
-0.232991153826816
30
0
41
1
10
112.812203826338
20
-0.456903429547424
30
0
41
1
10
113.13242966038
20
-0.569055500943762
30
0
41
1
10
114.093091087005
20
-0.903575219991552
30
0
41
1
10
114.733416527394
20
-1.12431712687589
30
0
41
1
10
115.693126352964
20
-1.45384728749369
30
0
41
1
10
116.012905781657
20
-1.56340465064747
30
0
41
1
10
116.652478591378
20
-1.7811764337961
30
0
41
1
10
116.972298817999
20
-1.8893135178204
30
0
41
1
10
117.612131319661
20
-2.10374255586012
30
0
41
1
10
117.93209945837
20
-2.21016270426074
30
0
41
1
10
118.572044506379
20
-2.42168217501612
30
0
41
1
10
118.892009672412
20
-2.52681385197116
30
0
41
1
10
119.372007230207
20
-2.6833858808543
30
0
41
1
10
119.532030227201
20
-2.73534528591591
30
0
41
1
10
119.852197900075
20
-2.8385957948876
30
0
41
1
10
120.332605366778
20
-2.99254360145267
30
0
41
1
10
120.813414926278
20
-3.14389960465789
30
0
41
1
10
121.45475201427
20
-3.34367571082402
30
0
41
1
10
121.775526402751
20
-3.44260944574975
30
0
41
1
10
122.417397205475
20
-3.63825224663461
30
0
41
1
10
122.738509894573
20
-3.73491626704799
30
0
41
1
10
123.381375653173
20
-3.92516412416615
30
0
41
1
10
123.703141817625
20
-4.01871600364393
30
0
41
1
10
124.347176702168
20
-4.20311001832772
30
0
41
1
10
124.669450480326
20
-4.29393813257659
30
0
41
1
10
125.314474615759
20
-4.47293114953493
30
0
41
1
10
125.637190202707
20
-4.56118173300266
30
0
41
1
10
126.283566590615
20
-4.73380620557117
30
0
41
1
10
126.607187734728
20
-4.81828527651339
30
0
41
1
10
127.093193677978
20
-4.94244384181962
30
0
41
1
10
127.255345553925
20
-4.98341600235702
30
0
41
1
10
127.579534007135
20
-5.06445478766949
30
0
41
1
10
127.741552876541
20
-5.10451935451337
30
0
41
1
10
128.227373626732
20
-5.22336444686573
30
0
41
1
10
128.550950460384
20
-5.30076813191235
30
0
41
1
10
129.197771116195
20
-5.45136289635116
30
0
41
1
10
129.521050499178
20
-5.52448781962812
30
0
41
1
10
130.167405004115
20
-5.66634441008978
30
0
41
1
10
130.490439561899
20
-5.73515458751109
30
0
41
1
10
130.974718277912
20
-5.83529589302927
30
0
41
1
10
131.136100037771
20
-5.86816159202084
30
0
41
1
10
131.458768827432
20
-5.93286795797042
30
0
41
1
10
131.620049908811
20
-5.96471781847703
30
0
41
1
10
132.103843377594
20
-6.058570575863
30
0
41
1
10
132.426385327938
20
-6.11875225371742
30
0
41
1
10
133.071488910672
20
-6.23441237312969
30
0
41
1
10
133.394033430559
20
-6.28991838802031
30
0
41
1
10
134.039003285466
20
-6.39642946627194
30
0
41
1
10
134.361401788517
20
-6.44746565185315
30
0
41
1
10
135.006211984478
20
-6.54481530598301
30
0
41
1
10
135.328634959322
20
-6.59111218368292
30
0
41
1
10
135.973820639336
20
-6.67861381884796
30
0
41
1
10
136.296562377654
20
-6.71985187571275
30
0
41
1
10
136.942179571944
20
-6.79748539999122
30
0
41
1
10
137.265064670087
20
-6.83386873211757
30
0
41
1
10
137.749474546604
20
-6.88478217299365
30
0
41
1
10
137.910954753513
20
-6.9011447385158
30
0
41
1
10
138.234021992883
20
-6.93257429381802
30
0
41
1
10
138.395620576208
20
-6.94763256891562
30
0
41
1
10
138.880622531889
20
-6.99083925641898
30
0
41
1
10
139.204217749887
20
-7.01703413539394
30
0
41
1
10
139.851820346775
20
-7.06428657792989
30
0
41
1
10
140.175818815719
20
-7.08534823091716
30
0
41
1
10
140.5
20
-7.10382227883247
30
0
0
SPLINE
5
CA
100
AcDbEntity
8
1
62
256
6
ByLayer
370
18
48
1
60
0
100
AcDbSpline
70
4
71
3
72
165
73
161
40
0
40
0
40
0
40
0
40
0.0061261403146091
40
0.0061261403146091
40
0.0123266909359028
40
0.0247277921784894
40
0.0247277921784894
40
0.037128893421076
40
0.037128893421076
40
0.0495299946636626
40
0.0495299946636626
40
0.0743321971488348
40
0.0743321971488348
40
0.0867332983914205
40
0.0867332983914205
40
0.0991343996340062
40
0.0991343996340062
40
0.111535500876592
40
0.111535500876592
40
0.123936602119177
40
0.123936602119177
40
0.148738804604348
40
0.148738804604348
40
0.161139905846933
40
0.161139905846933
40
0.173541007089518
40
0.173541007089518
40
0.185942108332103
40
0.185942108332103
40
0.198343209574689
40
0.198343209574689
40
0.210744310817274
40
0.210744310817274
40
0.223145412059859
40
0.223145412059859
40
0.235546513302444
40
0.235546513302444
40
0.247947614545029
40
0.247947614545029
40
0.260348715787614
40
0.260348715787614
40
0.2727498170302
40
0.2727498170302
40
0.285150918272785
40
0.285150918272785
40
0.29755201951537
40
0.29755201951537
40
0.309953120757955
40
0.309953120757955
40
0.316153671379248
40
0.316153671379248
40
0.322354222000541
40
0.322354222000541
40
0.328554772621833
40
0.328554772621833
40
0.334755323243126
40
0.334755323243126
40
0.347156424485711
40
0.347156424485711
40
0.359557525728296
40
0.359557525728296
40
0.371958626970881
40
0.371958626970881
40
0.384359728213467
40
0.384359728213467
40
0.396760829456052
40
0.396760829456052
40
0.421563031941222
40
0.421563031941222
40
0.433964133183807
40
0.433964133183807
40
0.446365234426393
40
0.446365234426393
40
0.458766335668978
40
0.458766335668978
40
0.464966886290271
40
0.464966886290271
40
0.471167436911564
40
0.471167436911564
40
0.495969639396735
40
0.495969639396735
40
0.520771841881907
40
0.520771841881907
40
0.533172943124492
40
0.533172943124492
40
0.545574044367078
40
0.545574044367078
40
0.557975145609664
40
0.557975145609664
40
0.570376246852249
40
0.570376246852249
40
0.582777348094835
40
0.582777348094835
40
0.595178449337421
40
0.595178449337421
40
0.619980651822593
40
0.619980651822593
40
0.626181202443886
40
0.626181202443886
40
0.632381753065179
40
0.644782854307764
40
0.644782854307764
40
0.65718395555035
40
0.65718395555035
40
0.669585056792936
40
0.669585056792936
40
0.694387259278107
40
0.694387259278107
40
0.706788360520693
40
0.706788360520693
40
0.719189461763278
40
0.719189461763278
40
0.731590563005864
40
0.731590563005864
40
0.74399166424845
40
0.74399166424845
40
0.756392765491035
40
0.756392765491035
40
0.768793866733621
40
0.768793866733621
40
0.774994417354914
40
0.774994417354914
40
0.781194967976207
40
0.781194967976207
40
0.793596069218792
40
0.793596069218792
40
0.805997170461378
40
0.805997170461378
40
0.818398271703964
40
0.818398271703964
40
0.830799372946549
40
0.830799372946549
40
0.843200474189135
40
0.843200474189135
40
0.855601575431721
40
0.855601575431721
40
0.868002676674306
40
0.868002676674306
40
0.880403777916892
40
0.880403777916892
40
0.892804879159478
40
0.892804879159478
40
0.905205980402063
40
0.905205980402063
40
0.917607081644649
40
0.917607081644649
40
0.930008182887235
40
0.930008182887235
40
0.936208733508527
40
0.936208733508527
40
0.94240928412982
40
0.954810385372405
40
0.954810385372405
40
0.96721148661499
40
0.96721148661499
40
0.979612587857574
40
0.979612587857574
40
0.992013689100159
40
0.992013689100159
40
1
40
1
40
1
40
1
41
1
10
128.535651922585
20
-5.28301047413436
30
0
41
1
10
128.371661140336
20
-5.32200873317544
30
0
41
1
10
128.207702939349
20
-5.360515909795
30
0
41
1
10
127.877786577133
20
-5.43686876783684
30
0
41
1
10
127.379928586776
20
-5.55039839674902
30
0
41
1
10
126.882103443013
20
-5.65892378951685
30
0
41
1
10
126.218405489426
20
-5.79925573803411
30
0
41
1
10
125.886601481064
20
-5.86725348625973
30
0
41
1
10
125.222997945671
20
-5.99874465310791
30
0
41
1
10
124.891195339933
20
-6.06222971968282
30
0
41
1
10
123.895392255085
20
-6.24529115083573
30
0
41
1
10
123.231014362479
20
-6.35754896584257
30
0
41
1
10
122.233926763119
20
-6.51151788970262
30
0
41
1
10
121.901475327243
20
-6.56042002631713
30
0
41
1
10
121.235985258084
20
-6.65287103793591
30
0
41
1
10
120.903526823948
20
-6.69640353069045
30
0
41
1
10
120.239366922067
20
-6.77816310104944
30
0
41
1
10
119.907645409433
20
-6.81639762025003
30
0
41
1
10
119.244899354738
20
-6.88756308837546
30
0
41
1
10
118.913869805361
20
-6.92048403639632
30
0
41
1
10
117.92149634073
20
-7.01101923032829
30
0
41
1
10
117.260735528686
20
-7.06035409996278
30
0
41
1
10
116.271008127268
20
-7.11811909970567
30
0
41
1
10
115.941375690836
20
-7.13467130457565
30
0
41
1
10
115.282292781637
20
-7.16221126980693
30
0
41
1
10
114.952831950739
20
-7.17320533447963
30
0
41
1
10
114.294106326697
20
-7.18969746007841
30
0
41
1
10
113.964844185715
20
-7.19519569119751
30
0
41
1
10
113.30654259382
20
-7.20069215208093
30
0
41
1
10
112.977503702295
20
-7.20068583571685
30
0
41
1
10
112.319478190021
20
-7.19515062861512
30
0
41
1
10
111.990465777509
20
-7.18962475575373
30
0
41
1
10
111.332319058364
20
-7.17310715457947
30
0
41
1
10
111.00321139969
20
-7.16211347573781
30
0
41
1
10
110.344963139098
20
-7.13463745329338
30
0
41
1
10
110.015839826605
20
-7.118145412926
30
0
41
1
10
109.357479469411
20
-7.07965765902756
30
0
41
1
10
109.028153107075
20
-7.05770797798365
30
0
41
1
10
108.369158118391
20
-7.00845501608825
30
0
41
1
10
108.039504436868
20
-6.9811441266047
30
0
41
1
10
107.379915264209
20
-6.92111398156393
30
0
41
1
10
107.049990579213
20
-6.88838245800159
30
0
41
1
10
106.389758437046
20
-6.8175453271329
30
0
41
1
10
106.059444999575
20
-6.77944233906499
30
0
41
1
10
105.398188148958
20
-6.69810571339747
30
0
41
1
10
105.06726438412
20
-6.65485811512232
30
0
41
1
10
104.404880024334
20
-6.56312338364694
30
0
41
1
10
104.073417252105
20
-6.51463788561202
30
0
41
1
10
103.575820999624
20
-6.43792136613138
30
0
41
1
10
103.409887409323
20
-6.41168469579955
30
0
41
1
10
103.07781278019
20
-6.35798185089075
30
0
41
1
10
102.911671020146
20
-6.33051781984605
30
0
41
1
10
102.579182302752
20
-6.27436075386441
30
0
41
1
10
102.412787249438
20
-6.24565918139137
30
0
41
1
10
102.080051374903
20
-6.18706304208106
30
0
41
1
10
101.913734460445
20
-6.15717262639976
30
0
41
1
10
101.414942952534
20
-6.06571744541813
30
0
41
1
10
101.082636755825
20
-6.00235418120533
30
0
41
1
10
100.418409404356
20
-5.87092756322465
30
0
41
1
10
100.086484202133
20
-5.80286773688641
30
0
41
1
10
99.4227625495931
20
-5.66249473238415
30
0
41
1
10
99.0909481363039
20
-5.590218513975
30
0
41
1
10
98.4274738666716
20
-5.44139895632205
30
0
41
1
10
98.0958132959273
20
-5.36485629163923
30
0
41
1
10
97.4326694461134
20
-5.20744290748348
30
0
41
1
10
97.1012132482346
20
-5.12651126586303
30
0
41
1
10
96.1065325086613
20
-4.87837369018533
30
0
41
1
10
95.44313851051
20
-4.70558051054502
30
0
41
1
10
94.4477980866552
20
-4.43496990641859
30
0
41
1
10
94.1159643720423
20
-4.34288131194677
30
0
41
1
10
93.4519816497521
20
-4.15540070459068
30
0
41
1
10
93.1197996675391
20
-4.06008976427299
30
0
41
1
10
92.4550279750492
20
-3.86640314683044
30
0
41
1
10
92.1224555117811
20
-3.76798580399802
30
0
41
1
10
91.6233339267103
20
-3.61793584648851
30
0
41
1
10
91.4570024663549
20
-3.56753864560812
30
0
41
1
10
91.1244951996602
20
-3.46600916498571
30
0
41
1
10
90.9583073731797
20
-3.41487376872485
30
0
41
1
10
90.1275043970962
20
-3.15784749731785
30
0
41
1
10
89.4632848559764
20
-2.94795719732349
30
0
41
1
10
88.1359611716765
20
-2.51897988136474
30
0
41
1
10
87.4728828139804
20
-2.29979923190416
30
0
41
1
10
86.4779497842403
20
-1.96726023784925
30
0
41
1
10
86.1462900037429
20
-1.85568703456306
30
0
41
1
10
85.4829803795407
20
-1.63097186673681
30
0
41
1
10
85.1513451417795
20
-1.51778801504764
30
0
41
1
10
84.4880178360447
20
-1.29002691192787
30
0
41
1
10
84.1562327241202
20
-1.17571465246479
30
0
41
1
10
83.4923426373824
20
-0.946455889049588
30
0
41
1
10
83.160256638002
20
-0.831455354502594
30
0
41
1
10
82.4958359134946
20
-0.600611421664212
30
0
41
1
10
82.1635126239037
20
-0.484733535295277
30
0
41
1
10
81.4985151808251
20
-0.252421386568415
30
0
41
1
10
81.1657160007658
20
-0.135963193028033
30
0
41
1
10
80.1680083816904
20
0.21252205905833
30
0
41
1
10
79.5034981032869
20
0.44411279050081
30
0
41
1
10
78.6738079050152
20
0.733165147431492
30
0
41
1
10
78.5079148099022
20
0.790945995777491
30
0
41
1
10
78.1761406058754
20
0.906223055328127
30
0
41
1
10
77.6784953819017
20
1.078706634394
30
0
41
1
10
77.18091588089
20
1.24995357404984
30
0
41
1
10
76.5175767063687
20
1.47730671920448
30
0
41
1
10
76.1859657416833
20
1.59051899141059
30
0
41
1
10
75.5228024756746
20
1.81584340807151
30
0
41
1
10
75.1912458672381
20
1.9279424447619
30
0
41
1
10
74.196278092574
20
2.26150821914183
30
0
41
1
10
73.5325171912995
20
2.48011291229201
30
0
41
1
10
72.5364518288769
20
2.80303258029414
30
0
41
1
10
72.2043812314454
20
2.9098962218645
30
0
41
1
10
71.5397064014336
20
3.12089088308187
30
0
41
1
10
71.2071333044312
20
3.22510804530177
30
0
41
1
10
70.5415575793016
20
3.43109460482711
30
0
41
1
10
70.2089637241535
20
3.53274845412372
30
0
41
1
10
69.5442570668914
20
3.73334513186106
30
0
41
1
10
69.2121235622757
20
3.83227594137483
30
0
41
1
10
68.5480883893642
20
4.02688694591245
30
0
41
1
10
68.2161534013063
20
4.12248830111056
30
0
41
1
10
67.5524220178201
20
4.31024901423643
30
0
41
1
10
67.2206425946104
20
4.40244919422273
30
0
41
1
10
66.7231220194928
20
4.53826907292262
30
0
41
1
10
66.5573073856089
20
4.58313045200646
30
0
41
1
10
66.225726980311
20
4.67202063096005
30
0
41
1
10
66.0599608889723
20
4.71604812875481
30
0
41
1
10
65.5626178506008
20
4.84662148971589
30
0
41
1
10
65.2309925839943
20
4.93165434463126
30
0
41
1
10
64.5676527268092
20
5.09779103157064
30
0
41
1
10
64.2359411324772
20
5.17890089334551
30
0
41
1
10
63.5724589398906
20
5.33724066595727
30
0
41
1
10
63.2406930021623
20
5.41447673660053
30
0
41
1
10
62.5769389899084
20
5.56472664447807
30
0
41
1
10
62.2449275794631
20
5.63769666969458
30
0
41
1
10
61.5804827956838
20
5.77905754855348
30
0
41
1
10
61.2480784343177
20
5.84750353546832
30
0
41
1
10
60.5829448504582
20
5.97998019469787
30
0
41
1
10
60.2500622996848
20
6.04406216307007
30
0
41
1
10
59.5854767681909
20
6.16736468231861
30
0
41
1
10
59.2535424030339
20
6.22647149714209
30
0
41
1
10
58.5903141902144
20
6.33955535322079
30
0
41
1
10
58.2590365528609
20
6.39356137811973
30
0
41
1
10
57.5971804802418
20
6.49657792890508
30
0
41
1
10
57.2666129005785
20
6.54560013853731
30
0
41
1
10
56.6060861962848
20
6.63852298309601
30
0
41
1
10
56.2761223144952
20
6.68241437654819
30
0
41
1
10
55.6165565286491
20
6.7648236584935
30
0
41
1
10
55.2869716135525
20
6.80336813623504
30
0
41
1
10
54.6282515561472
20
6.87522776505469
30
0
41
1
10
54.299113629441
20
6.9085391921256
30
0
41
1
10
53.8057533640002
20
6.95457689399188
30
0
41
1
10
53.6413574414804
20
6.96926639967216
30
0
41
1
10
53.3126110320309
20
6.99728006294364
30
0
41
1
10
52.8195481822782
20
7.03724580459181
30
0
41
1
10
52.3266690896688
20
7.07110005156028
30
0
41
1
10
51.6696996630687
20
7.11085419622182
30
0
41
1
10
51.341323163592
20
7.12804044686075
30
0
41
1
10
50.6847452591172
20
7.15699321489876
30
0
41
1
10
50.3565391651366
20
7.168753583887
30
0
41
1
10
49.7000671246129
20
7.18677754795505
30
0
41
1
10
49.3717769858872
20
7.19304186231219
30
0
41
1
10
48.8320149507682
20
7.19885086922011
30
0
41
1
10
48.6205633640425
20
7.19999375458414
30
0
41
1
10
48.4091027302813
20
7.20000030037872
30
0
0
SPLINE
5
CB
100
AcDbEntity
8
1
62
256
6
ByLayer
370
18
48
1
60
0
100
AcDbSpline
70
4
71
3
72
24
73
20
40
0
40
0
40
0
40
0
40
0.125000000000002
40
0.125000000000002
40
0.187500000000003
40
0.187500000000003
40
0.250000000000004
40
0.250000000000004
40
0.5
40
0.5
40
0.625000000000002
40
0.625000000000002
40
0.750000000000004
40
0.750000000000004
40
0.875000000000007
40
0.875000000000007
40
0.937500000000003
40
0.937500000000003
40
1
40
1
40
1
40
1
41
1
10
148.770223243031
20
-1.07031778948181
30
0
41
1
10
148.425045644864
20
-0.946144207925499
30
0
41
1
10
148.080060017941
20
-0.821619949304704
30
0
41
1
10
147.562896113733
20
-0.634233456752213
30
0
41
1
10
147.390562881078
20
-0.57166487294927
30
0
41
1
10
147.045994220361
20
-0.446347660888705
30
0
41
1
10
146.873755215109
20
-0.383609041663618
30
0
41
1
10
146.012550211136
20
-0.0701730674510941
30
0
41
1
10
145.32365674925
20
0.180041378755163
30
0
41
1
10
144.290705398353
20
0.55535013266649
30
0
41
1
10
143.946442951018
20
0.680421964703783
30
0
41
1
10
143.257775697409
20
0.929808267414558
30
0
41
1
10
142.913331169503
20
1.05401361129506
30
0
41
1
10
142.224171410819
20
1.30131603810997
30
0
41
1
10
141.879480599364
20
1.42448029414663
30
0
41
1
10
141.362304566262
20
1.60856766780751
30
0
41
1
10
141.189890932978
20
1.66982485175251
30
0
41
1
10
140.845012111302
20
1.79210537710696
30
0
41
1
10
140.672544225512
20
1.85312128346072
30
0
41
1
10
140.5
20
1.91388207118365
30
0
0
SPLINE
5
CC
100
AcDbEntity
8
1
62
256
6
ByLayer
370
18
48
1
60
0
100
AcDbSpline
70
4
71
3
72
84
73
80
40
0
40
0
40
0
40
0
40
0.0312500000000025
40
0.0312500000000025
40
0.0625000000000051
40
0.0625000000000051
40
0.12500000000001
40
0.12500000000001
40
0.14062500000001
40
0.14062500000001
40
0.156250000000011
40
0.156250000000011
40
0.187500000000009
40
0.187500000000009
40
0.250000000000003
40
0.250000000000003
40
0.281250000000001
40
0.281250000000001
40
0.296875
40
0.296875
40
0.3125
40
0.3125
40
0.343749999999999
40
0.343749999999999
40
0.374999999999998
40
0.374999999999998
40
0.406249999999997
40
0.406249999999997
40
0.437499999999997
40
0.437499999999997
40
0.453124999999996
40
0.453124999999996
40
0.468749999999996
40
0.468749999999996
40
0.499999999999995
40
0.499999999999995
40
0.531249999999994
40
0.531249999999994
40
0.539062499999994
40
0.539062499999994
40
0.546874999999994
40
0.562499999999994
40
0.562499999999994
40
0.593749999999993
40
0.593749999999993
40
0.624999999999992
40
0.624999999999992
40
0.632812499999991
40
0.632812499999991
40
0.640624999999991
40
0.656249999999988
40
0.656249999999988
40
0.687499999999981
40
0.687499999999981
40
0.718749999999975
40
0.718749999999975
40
0.726562499999973
40
0.726562499999973
40
0.734374999999972
40
0.734374999999972
40
0.749999999999972
40
0.749999999999972
40
0.781249999999974
40
0.781249999999974
40
0.812499999999976
40
0.843749999999979
40
0.843749999999979
40
0.85156249999998
40
0.85156249999998
40
0.859374999999982
40
0.874999999999983
40
0.874999999999983
40
0.906249999999987
40
0.937499999999991
40
0.968749999999996
40
0.968749999999996
40
0.984374999999998
40
0.984374999999998
40
1
40
1
40
1
40
1
41
1
10
148.770223243026
20
7.2618369261771
30
0
41
1
10
148.81706607629
20
7.14569271169964
30
0
41
1
10
148.863982380684
20
7.02780388288269
30
0
41
1
10
148.958041790439
20
6.78881156650419
30
0
41
1
10
149.005184810388
20
6.66770750687692
30
0
41
1
10
149.147038001831
20
6.29987093422579
30
0
41
1
10
149.242185262511
20
6.04863975321001
30
0
41
1
10
149.361944290112
20
5.72764833891443
30
0
41
1
10
149.385936305562
20
5.66310035180786
30
0
41
1
10
149.433998670273
20
5.53331063653903
30
0
41
1
10
149.458078288873
20
5.46804288943227
30
0
41
1
10
149.529998605361
20
5.27237553482857
30
0
41
1
10
149.577665828096
20
5.14172738677888
30
0
41
1
10
149.719769146348
20
4.7491686505571
30
0
41
1
10
149.813353566844
20
4.48666139176817
30
0
41
1
10
149.951093374748
20
4.09141713642907
30
0
41
1
10
149.996557303778
20
3.95941801730245
30
0
41
1
10
150.06382782068
20
3.76095536590916
30
0
41
1
10
150.086095827245
20
3.69472332753546
30
0
41
1
10
150.130260421669
20
3.56208205268976
30
0
41
1
10
150.152163892958
20
3.4956499376836
30
0
41
1
10
150.216891632216
20
3.29701373933653
30
0
41
1
10
150.258850225444
20
3.16515613591883
30
0
41
1
10
150.339613534168
20
2.90235859631079
30
0
41
1
10
150.378423557123
20
2.77141951360611
30
0
41
1
10
150.451710611352
20
2.51018770337015
30
0
41
1
10
150.486193840649
20
2.3798955328881
30
0
41
1
10
150.549051506628
20
2.11960547486063
30
0
41
1
10
150.577428779651
20
1.98960652733655
30
0
41
1
10
150.613515312097
20
1.79450494566586
30
0
41
1
10
150.624464223237
20
1.72936846015844
30
0
41
1
10
150.643638333011
20
1.60030349595524
30
0
41
1
10
150.651892134484
20
1.53623123233174
30
0
41
1
10
150.672250848273
20
1.34544836010761
30
0
41
1
10
150.679909767365
20
1.22016507974448
30
0
41
1
10
150.681965935425
20
0.973853120036125
30
0
41
1
10
150.676351127249
20
0.852826475044594
30
0
41
1
10
150.661093555044
20
0.704596423972617
30
0
41
1
10
150.65762910559
20
0.675066686876249
30
0
41
1
10
150.649923398376
20
0.616493878872603
30
0
41
1
10
150.637230166279
20
0.529568054127196
30
0
41
1
10
150.621329404197
20
0.445407971248443
30
0
41
1
10
150.585784511501
20
0.280686315701502
30
0
41
1
10
150.55711724753
20
0.175663206439282
30
0
41
1
10
150.492424288341
20
-0.0251733709136488
30
0
41
1
10
150.456404052138
20
-0.120989550061751
30
0
41
1
10
150.407975295009
20
-0.23509035749808
30
0
41
1
10
150.398108016418
20
-0.257647479847009
30
0
41
1
10
150.378098053863
20
-0.3020917814722
30
0
41
1
10
150.347708283101
20
-0.367670783432999
30
0
41
1
10
150.316310295911
20
-0.430051326871705
30
0
41
1
10
150.252413699902
20
-0.550675495548376
30
0
41
1
10
150.208363008757
20
-0.625587208499809
30
0
41
1
10
150.118209707502
20
-0.764767761079838
30
0
41
1
10
150.072101014944
20
-0.829034614235979
30
0
41
1
10
150.01345982915
20
-0.90272570543425
30
0
41
1
10
150.001680580525
20
-0.917131020629995
30
0
41
1
10
149.978024435033
20
-0.945273063263187
30
0
41
1
10
149.96614158397
20
-0.959015605668355
30
0
41
1
10
149.930508122251
20
-0.99906386476755
30
0
41
1
10
149.906723788756
20
-1.024251228498
30
0
41
1
10
149.835321913324
20
-1.09538032350059
30
0
41
1
10
149.787659040913
20
-1.13689819173655
30
0
41
1
10
149.692296623034
20
-1.20842730470619
30
0
41
1
10
149.596895242055
20
-1.26844741987512
30
0
41
1
10
149.501388954244
20
-1.30548078358919
30
0
41
1
10
149.441615395036
20
-1.32128805839176
30
0
41
1
10
149.429651711299
20
-1.3240819496701
30
0
41
1
10
149.405823743187
20
-1.32890956181936
30
0
41
1
10
149.370190626917
20
-1.3350223206892
30
0
41
1
10
149.334872372222
20
-1.33778660057348
30
0
41
1
10
149.264624786661
20
-1.33892597755539
30
0
41
1
10
149.171998193451
20
-1.32875603076138
30
0
41
1
10
149.035681621744
20
-1.27906010505794
30
0
41
1
10
148.946232934345
20
-1.22292199010158
30
0
41
1
10
148.879561581297
20
-1.17199934089925
30
0
41
1
10
148.857476063741
20
-1.15360452347684
30
0
41
1
10
148.8136296405
20
-1.11404818623504
30
0
41
1
10
148.791857027744
20
-1.09287776777558
30
0
41
1
10
148.770223243026
20
-1.0703177894801
30
0
0
SPLINE
5
CD
100
AcDbEntity
8
1
62
256
6
ByLayer
370
18
48
1
60
0
100
AcDbSpline
70
4
71
3
72
18
73
14
40
0
40
0
40
0
40
0
40
0.0072963144826208
40
0.0072963144826208
40
0.205837051586097
40
0.205837051586097
40
0.404377788689573
40
0.404377788689573
40
0.602918525793048
40
0.602918525793048
40
0.801459262896524
40
0.801459262896524
40
1
40
1
40
1
40
1
41
1
10
143.564209527178
20
7.4990629143692
30
0
41
1
10
143.576864835459
20
7.49906548111289
30
0
41
1
10
143.589519951531
20
7.4990638029436
30
0
41
1
10
143.946529222901
20
7.49889668351986
30
0
41
1
10
144.29067478865
20
7.49557360878981
30
0
41
1
10
144.979261208392
20
7.48265516956502
30
0
41
1
10
145.323670739658
20
7.47307511785002
30
0
41
1
10
146.012577017064
20
7.447685126294
30
0
41
1
10
146.357066916177
20
7.43187167043439
30
0
41
1
10
147.046045690159
20
7.39392545126387
30
0
41
1
10
147.390561693219
20
7.37179366569808
30
0
41
1
10
148.080019034481
20
7.32137627482302
30
0
41
1
10
148.425013206352
20
7.29313145859996
30
0
41
1
10
148.770223243031
20
7.26183692617667
30
0
0
SPLINE
5
CE
100
AcDbEntity
8
1
62
256
6
ByLayer
370
18
48
1
60
0
100
AcDbSpline
70
4
71
3
72
147
73
143
40
0
40
0
40
0
40
0
40
0.03096071063865
40
0.03096071063865
40
0.0464410659579751
40
0.0464410659579751
40
0.0541812436176373
40
0.0541812436176373
40
0.0619214212772995
40
0.0774017765966245
40
0.0774017765966245
40
0.0928821319159495
40
0.0928821319159495
40
0.108362487235275
40
0.108362487235275
40
0.1238428425546
40
0.1238428425546
40
0.139323197873925
40
0.139323197873925
40
0.147063375533587
40
0.147063375533587
40
0.15480355319325
40
0.15480355319325
40
0.185764263831898
40
0.185764263831898
40
0.201244619151222
40
0.201244619151222
40
0.216724974470546
40
0.216724974470546
40
0.23220532978987
40
0.23220532978987
40
0.247685685109194
40
0.247685685109194
40
0.255425862768856
40
0.255425862768856
40
0.263166040428518
40
0.278646395747842
40
0.278646395747842
40
0.294126751067166
40
0.294126751067166
40
0.30960710638649
40
0.30960710638649
40
0.325087461705814
40
0.325087461705814
40
0.340567817025138
40
0.340567817025138
40
0.356048172344463
40
0.356048172344463
40
0.371528527663787
40
0.371528527663787
40
0.387008882983111
40
0.387008882983111
40
0.402489238302435
40
0.402489238302435
40
0.417969593621759
40
0.417969593621759
40
0.433449948941083
40
0.433449948941083
40
0.441190126600746
40
0.441190126600746
40
0.448930304260408
40
0.448930304260408
40
0.45667048192007
40
0.45667048192007
40
0.464410659579733
40
0.479891014899058
40
0.479891014899058
40
0.495371370218382
40
0.495371370218382
40
0.510851725537707
40
0.510851725537707
40
0.526332080857032
40
0.526332080857032
40
0.541812436176356
40
0.541812436176356
40
0.549552613836019
40
0.549552613836019
40
0.557292791495681
40
0.557292791495681
40
0.572773146815006
40
0.572773146815006
40
0.588253502134331
40
0.588253502134331
40
0.603733857453655
40
0.603733857453655
40
0.61921421277298
40
0.61921421277298
40
0.634694568092305
40
0.634694568092305
40
0.642434745751967
40
0.642434745751967
40
0.650174923411629
40
0.650174923411629
40
0.681135634050277
40
0.681135634050277
40
0.712096344688925
40
0.712096344688925
40
0.727576700008249
40
0.727576700008249
40
0.743057055327573
40
0.743057055327573
40
0.750797232987235
40
0.750797232987235
40
0.758537410646897
40
0.758537410646897
40
0.766277588306559
40
0.766277588306559
40
0.774017765966221
40
0.774017765966221
40
0.789498121285545
40
0.789498121285545
40
0.80497847660487
40
0.80497847660487
40
0.820458831924194
40
0.820458831924194
40
0.835939187243519
40
0.835939187243519
40
0.843679364903181
40
0.843679364903181
40
0.851419542562843
40
0.851419542562843
40
0.866899897882168
40
0.882380253201493
40
0.882380253201493
40
0.897860608520818
40
0.897860608520818
40
0.913340963840143
40
0.913340963840143
40
0.928821319159468
40
0.928821319159468
40
0.93656149681913
40
0.93656149681913
40
0.944301674478792
40
0.944301674478792
40
0.952041852138454
40
0.952041852138454
40
0.959782029798115
40
0.975262385117439
40
0.975262385117439
40
0.990742740436762
40
0.990742740436762
40
1
40
1
40
1
40
1
41
1
10
16.5331390033541
20
7.16142636282069
30
0
41
1
10
17.1813462248427
20
7.13792463576044
30
0
41
1
10
17.8292918169204
20
7.10394637434308
30
0
41
1
10
18.8003341599112
20
7.03734999217551
30
0
41
1
10
19.1238672870844
20
7.01253478666331
30
0
41
1
10
19.6089105860484
20
6.97133224724385
30
0
41
1
10
19.7705543351663
20
6.95693695191727
30
0
41
1
10
20.0938692658951
20
6.92690153642155
30
0
41
1
10
20.5788890179337
20
6.87998837968263
30
0
41
1
10
21.0639814652715
20
6.8274912730007
30
0
41
1
10
21.710725782899
20
6.75244973152778
30
0
41
1
10
22.0340577088287
20
6.71238655914075
30
0
41
1
10
22.68067048864
20
6.62715949317322
30
0
41
1
10
23.0039753927705
20
6.58201588880141
30
0
41
1
10
23.650884992416
20
6.48702077515702
30
0
41
1
10
23.9745253442635
20
6.43722216334504
30
0
41
1
10
24.6220413937316
20
6.33287856294976
30
0
41
1
10
24.9459072639149
20
6.27831849502178
30
0
41
1
10
25.431832508652
20
6.19281008329543
30
0
41
1
10
25.5938251324051
20
6.16368988881169
30
0
41
1
10
25.917866864621
20
6.10423724293352
30
0
41
1
10
26.0799471254235
20
6.07390752485352
30
0
41
1
10
26.8901820659011
20
5.91977262441105
30
0
41
1
10
27.5380694534816
20
5.78832614194789
30
0
41
1
10
28.5088063410122
20
5.57795251615048
30
0
41
1
10
28.8322009674735
20
5.50560911091645
30
0
41
1
10
29.4788980068686
20
5.35698398684266
30
0
41
1
10
29.8022265277626
20
5.28075391629247
30
0
41
1
10
30.4489969781686
20
5.12479668416935
30
0
41
1
10
30.7723912895086
20
5.04497852619744
30
0
41
1
10
31.4190927164139
20
4.8814413652627
30
0
41
1
10
31.7423881202116
20
4.79769491333929
30
0
41
1
10
32.2273096350442
20
4.66920874235166
30
0
41
1
10
32.3889631106503
20
4.62593801113181
30
0
41
1
10
32.7123747142903
20
4.53869097809553
30
0
41
1
10
33.1976207078124
20
4.40669985352002
30
0
41
1
10
33.6831826050697
20
4.27121721140773
30
0
41
1
10
34.330772149404
20
4.08721500524041
30
0
41
1
10
34.6546282904624
20
3.99347012928968
30
0
41
1
10
35.3025928016444
20
3.8027640414
30
0
41
1
10
35.6268195131672
20
3.70580866353973
30
0
41
1
10
36.2749391594152
20
3.50982482977272
30
0
41
1
10
36.5989251719185
20
3.41079410537046
30
0
41
1
10
37.2465719556195
20
3.21021087563227
30
0
41
1
10
37.5702401752911
20
3.10867674539131
30
0
41
1
10
38.2172171552542
20
2.90298398242075
30
0
41
1
10
38.540498726575
20
2.7987489749585
30
0
41
1
10
39.1872411047729
20
2.58908662127135
30
0
41
1
10
39.5106476870318
20
2.48351880144614
30
0
41
1
10
40.1574179785556
20
2.27061420235586
30
0
41
1
10
40.480777940219
20
2.16326693736741
30
0
41
1
10
41.1273715880597
20
1.94656166193033
30
0
41
1
10
41.4506252660512
20
1.83725642687406
30
0
41
1
10
42.0973328917778
20
1.61753522405226
30
0
41
1
10
42.4208256230987
20
1.50723016409435
30
0
41
1
10
43.0681074186546
20
1.28579706638965
30
0
41
1
10
43.3918585948441
20
1.17456157144923
30
0
41
1
10
43.8775976693294
20
1.0067691769477
30
0
41
1
10
44.0395302743383
20
0.950684151988099
30
0
41
1
10
44.3634295805375
20
0.838187842603645
30
0
41
1
10
44.5253918295498
20
0.781763229469931
30
0
41
1
10
44.8494263340525
20
0.66880781030315
30
0
41
1
10
45.0115532959328
20
0.612298068117468
30
0
41
1
10
45.33562392221
20
0.499398625153305
30
0
41
1
10
45.8215161585741
20
0.33016809449299
30
0
41
1
10
46.3067138919823
20
0.1610956402628
30
0
41
1
10
46.9529340685048
20
-0.0645022196330558
30
0
41
1
10
47.2756648395316
20
-0.177459820314993
30
0
41
1
10
47.9205642834151
20
-0.403063894656157
30
0
41
1
10
48.2427434701904
20
-0.515676680984001
30
0
41
1
10
48.8868371226854
20
-0.739688360453215
30
0
41
1
10
49.2087224835942
20
-0.851180930931093
30
0
41
1
10
49.8520271398792
20
-1.07358918647347
30
0
41
1
10
50.1734554947633
20
-1.18447646875077
30
0
41
1
10
50.6552283269526
20
-1.35042333898869
30
0
41
1
10
50.8157575705487
20
-1.40567461324804
30
0
41
1
10
51.1367814137509
20
-1.51578564076294
30
0
41
1
10
51.2972854139084
20
-1.5706180726622
30
0
41
1
10
51.7787673552458
20
-1.73447090950395
30
0
41
1
10
52.0997087249638
20
-1.84286713152559
30
0
41
1
10
52.7413935255071
20
-2.05829709629404
30
0
41
1
10
53.0621262196034
20
-2.16536093639746
30
0
41
1
10
53.7033509263025
20
-2.37823308475771
30
0
41
1
10
54.0238667172993
20
-2.48397174874503
30
0
41
1
10
54.6649860119501
20
-2.6932702028549
30
0
41
1
10
54.985628707486
20
-2.79672440030717
30
0
41
1
10
55.627014796071
20
-3.00143898701779
30
0
41
1
10
55.9477344183589
20
-3.10276390709916
30
0
41
1
10
56.4288131032375
20
-3.25330292861881
30
0
41
1
10
56.5891724872965
20
-3.30324114711306
30
0
41
1
10
56.9098882748034
20
-3.40263826489803
30
0
41
1
10
57.0702462069548
20
-3.45209271532153
30
0
41
1
10
57.8722664016848
20
-3.69753776438691
30
0
41
1
10
58.5147432650124
20
-3.88775377441721
30
0
41
1
10
59.8005942384788
20
-4.25803876394161
30
0
41
1
10
60.4438795526724
20
-4.43827915866893
30
0
41
1
10
61.4108810186094
20
-4.69748209570412
30
0
41
1
10
61.7335185756412
20
-4.78213290524459
30
0
41
1
10
62.3792744383788
20
-4.9482258472101
30
0
41
1
10
62.7023986470678
20
-5.02965315799057
30
0
41
1
10
63.187444213705
20
-5.14936296874336
30
0
41
1
10
63.349190597703
20
-5.18884978060754
30
0
41
1
10
63.6729050276927
20
-5.26677974444371
30
0
41
1
10
63.8348740770751
20
-5.30522118981904
30
0
41
1
10
64.1590216842994
20
-5.38109074944958
30
0
41
1
10
64.3211828228275
20
-5.41851443746125
30
0
41
1
10
64.6453236886658
20
-5.49229202634655
30
0
41
1
10
64.8073495900021
20
-5.52865678456749
30
0
41
1
10
65.2932743243343
20
-5.6362185124751
30
0
41
1
10
65.6170020534422
20
-5.70591676544402
30
0
41
1
10
66.2640460367053
20
-5.84120664696934
30
0
41
1
10
66.5873853801235
20
-5.90675225069336
30
0
41
1
10
67.2340000609924
20
-6.0331550471559
30
0
41
1
10
67.5573103794036
20
-6.09396427211172
30
0
41
1
10
68.2037986109551
20
-6.21105888185863
30
0
41
1
10
68.5269680511043
20
-6.26735518849338
30
0
41
1
10
69.0115727440432
20
-6.34845575266522
30
0
41
1
10
69.1730789237407
20
-6.37493650968233
30
0
41
1
10
69.4960565270822
20
-6.42675475320127
30
0
41
1
10
69.6575336858052
20
-6.45208386850598
30
0
41
1
10
70.1420782378491
20
-6.52614581885572
30
0
41
1
10
70.7883812742334
20
-6.61984885578067
30
0
41
1
10
71.4349385289133
20
-6.70381759923742
30
0
41
1
10
72.0815218823612
20
-6.78299670885272
30
0
41
1
10
72.4048241020239
20
-6.82018627443506
30
0
41
1
10
73.0517261361759
20
-6.88946656974136
30
0
41
1
10
73.3753517202693
20
-6.92153674049666
30
0
41
1
10
74.0231002083526
20
-6.98044658015425
30
0
41
1
10
74.3471759399433
20
-7.0073279757091
30
0
41
1
10
74.8335160751511
20
-7.04382383312344
30
0
41
1
10
74.9956209051096
20
-7.05534568467255
30
0
41
1
10
75.3196458998946
20
-7.07708946205918
30
0
41
1
10
75.4815847558895
20
-7.08731597325465
30
0
41
1
10
75.8053590251355
20
-7.10644975061595
30
0
41
1
10
75.9672034863007
20
-7.1153521335994
30
0
41
1
10
76.2908834136708
20
-7.131801882741
30
0
41
1
10
76.7763618427679
20
-7.15445771098624
30
0
41
1
10
77.2616503086235
20
-7.17113568088084
30
0
41
1
10
77.9084263816355
20
-7.18810419589568
30
0
41
1
10
78.2316508430081
20
-7.19395432005652
30
0
41
1
10
78.7480050939596
20
-7.19904729707361
30
0
41
1
10
78.9412042985973
20
-7.19999892283883
30
0
41
1
10
79.1344071302676
20
-7.19999902512515
30
0
0
SPLINE
5
CF
100
AcDbEntity
8
1
62
256
6
ByLayer
370
18
48
1
60
0
100
AcDbSpline
70
4
71
3
72
36
73
32
40
0
40
0
40
0
40
0
40
0.0281827364330354
40
0.0281827364330354
40
0.109167508396941
40
0.109167508396941
40
0.190152280360845
40
0.190152280360845
40
0.230644666342802
40
0.230644666342802
40
0.271137052324757
40
0.271137052324757
40
0.352121824288674
40
0.352121824288674
40
0.433106596252592
40
0.433106596252592
40
0.514091368216509
40
0.514091368216509
40
0.595076140180427
40
0.595076140180427
40
0.676060912144344
40
0.676060912144344
40
0.757045684108263
40
0.757045684108263
40
0.797538070090221
40
0.797538070090221
40
0.83803045607218
40
0.83803045607218
40
0.919015228036091
40
0.919015228036091
40
1
40
1
40
1
40
1
41
1
10
128.536653702942
20
5.29670149754276
30
0
41
1
10
128.649246749654
20
5.32340338720925
30
0
41
1
10
128.761813851253
20
5.34986199184323
30
0
41
1
10
129.197771116195
20
5.45136289635113
30
0
41
1
10
129.521050499178
20
5.52448781962809
30
0
41
1
10
130.167405004115
20
5.66634441008972
30
0
41
1
10
130.490439561899
20
5.73515458751106
30
0
41
1
10
130.974718277912
20
5.83529589302924
30
0
41
1
10
131.136100037771
20
5.86816159202081
30
0
41
1
10
131.458768827432
20
5.93286795797039
30
0
41
1
10
131.620049908811
20
5.96471781847697
30
0
41
1
10
132.103843377594
20
6.05857057586303
30
0
41
1
10
132.426385327937
20
6.11875225371742
30
0
41
1
10
133.071488910672
20
6.23441237312966
30
0
41
1
10
133.394033430559
20
6.28991838802031
30
0
41
1
10
134.039003285466
20
6.39642946627191
30
0
41
1
10
134.361401788517
20
6.44746565185309
30
0
41
1
10
135.006211984478
20
6.54481530598298
30
0
41
1
10
135.328634959322
20
6.5911121836829
30
0
41
1
10
135.973820639335
20
6.67861381884794
30
0
41
1
10
136.296562377654
20
6.71985187571275
30
0
41
1
10
136.942179571943
20
6.79748539999122
30
0
41
1
10
137.265064670086
20
6.83386873211757
30
0
41
1
10
137.749474546604
20
6.88478217299365
30
0
41
1
10
137.910954753513
20
6.9011447385158
30
0
41
1
10
138.234021992883
20
6.93257429381799
30
0
41
1
10
138.395620576208
20
6.94763256891559
30
0
41
1
10
138.880622531889
20
6.99083925641895
30
0
41
1
10
139.204217749887
20
7.01703413539394
30
0
41
1
10
139.851820346775
20
7.06428657792989
30
0
41
1
10
140.175818815719
20
7.08534823091716
30
0
41
1
10
140.5
20
7.10382227883247
30
0
0
SPLINE
5
D0
100
AcDbEntity
8
1
62
256
6
ByLayer
370
18
48
1
60
0
100
AcDbSpline
70
4
71
3
72
55
73
51
40
0
40
0
40
0
40
0
40
0.0727325635385621
40
0.0727325635385621
40
0.109098845307843
40
0.109098845307843
40
0.145465127077124
40
0.145465127077124
40
0.181831408846405
40
0.181831408846405
40
0.218197690615686
40
0.218197690615686
40
0.290930254154251
40
0.290930254154251
40
0.327296535923535
40
0.327296535923535
40
0.363662817692819
40
0.363662817692819
40
0.400029099462103
40
0.400029099462103
40
0.436395381231386
40
0.436395381231386
40
0.454578522116028
40
0.454578522116028
40
0.47276166300067
40
0.509127944769951
40
0.509127944769951
40
0.545494226539232
40
0.545494226539232
40
0.581860508308513
40
0.581860508308513
40
0.654593071847073
40
0.654593071847073
40
0.690959353616351
40
0.690959353616351
40
0.727325635385629
40
0.727325635385629
40
0.763691917154908
40
0.763691917154908
40
0.800058198924186
40
0.800058198924186
40
0.872790762462743
40
0.872790762462743
40
0.909157044232022
40
0.909157044232022
40
0.945523326001302
40
0.945523326001302
40
0.981889607770582
40
0.981889607770582
40
1
40
1
40
1
40
1
41
1
10
140.5
20
1.7341404331861
30
0
41
1
10
139.834554528505
20
1.96004276913848
30
0
41
1
10
139.1696370271
20
2.18220046368003
30
0
41
1
10
138.173247263495
20
2.51043223192869
30
0
41
1
10
137.841278316732
20
2.6189935156192
30
0
41
1
10
137.177477742019
20
2.83391287811429
30
0
41
1
10
136.845616678013
20
2.94019285756806
30
0
41
1
10
136.181865857493
20
3.15012726217949
30
0
41
1
10
135.850002526921
20
3.25385236011624
30
0
41
1
10
135.186334133903
20
3.45890327620288
30
0
41
1
10
134.854553820508
20
3.56029015787379
30
0
41
1
10
133.859118594334
20
3.86036295860507
30
0
41
1
10
133.194984790032
20
4.05402345298671
30
0
41
1
10
132.19816862446
20
4.33531933650355
30
0
41
1
10
131.865806688761
20
4.42757725992749
30
0
41
1
10
131.200757722618
20
4.60872044384692
30
0
41
1
10
130.867954773544
20
4.69760210521207
30
0
41
1
10
130.20276344058
20
4.87118622050846
30
0
41
1
10
129.87030626162
20
4.95597912194884
30
0
41
1
10
129.20572039924
20
5.12169429616776
30
0
41
1
10
128.873594570283
20
5.20262117600271
30
0
41
1
10
128.375644130438
20
5.32107320630695
30
0
41
1
10
128.209694485808
20
5.36005500430036
30
0
41
1
10
127.877786577133
20
5.43686876783687
30
0
41
1
10
127.379928586776
20
5.55039839674905
30
0
41
1
10
126.882103443013
20
5.65892378951685
30
0
41
1
10
126.218405489426
20
5.79925573803413
30
0
41
1
10
125.886601481064
20
5.86725348625973
30
0
41
1
10
125.222997945671
20
5.99874465310793
30
0
41
1
10
124.891195339933
20
6.06222971968285
30
0
41
1
10
123.895392255085
20
6.24529115083575
30
0
41
1
10
123.231014362479
20
6.35754896584257
30
0
41
1
10
122.233926763119
20
6.51151788970262
30
0
41
1
10
121.901475327243
20
6.56042002631713
30
0
41
1
10
121.235985258084
20
6.65287103793591
30
0
41
1
10
120.903526823948
20
6.69640353069047
30
0
41
1
10
120.239366922067
20
6.77816310104947
30
0
41
1
10
119.907645409433
20
6.81639762025003
30
0
41
1
10
119.244899354738
20
6.88756308837546
30
0
41
1
10
118.913869805361
20
6.92048403639632
30
0
41
1
10
117.92149634073
20
7.01101923032829
30
0
41
1
10
117.260735528686
20
7.06035409996278
30
0
41
1
10
116.271008127268
20
7.11811909970567
30
0
41
1
10
115.941375690836
20
7.13467130457565
30
0
41
1
10
115.282292781637
20
7.16221126980693
30
0
41
1
10
114.952831950739
20
7.17320533447963
30
0
41
1
10
114.294106326697
20
7.18969746007841
30
0
41
1
10
113.964844185715
20
7.19519569119751
30
0
41
1
10
113.471776439031
20
7.19931253918315
30
0
41
1
10
113.30788724099
20
7.19999801931502
30
0
41
1
10
113.144015202683
20
7.19999952955959
30
0
0
SPLINE
5
D1
100
AcDbEntity
8
1
62
256
6
ByLayer
370
18
48
1
60
0
100
AcDbSpline
70
4
71
3
72
106
73
102
40
0
40
0
40
0
40
0
40
0.0169091513866952
40
0.0169091513866952
40
0.0365709683589596
40
0.0365709683589596
40
0.0562327853312244
40
0.0562327853312244
40
0.0758946023034891
40
0.0758946023034891
40
0.0955564192757536
40
0.0955564192757536
40
0.115218236248018
40
0.115218236248018
40
0.134880053220283
40
0.134880053220283
40
0.154541870192548
40
0.154541870192548
40
0.174203687164812
40
0.174203687164812
40
0.193865504137077
40
0.193865504137077
40
0.20369641262321
40
0.20369641262321
40
0.213527321109342
40
0.233189138081608
40
0.233189138081608
40
0.252850955053873
40
0.252850955053873
40
0.272512772026139
40
0.272512772026139
40
0.292174588998404
40
0.292174588998404
40
0.31183640597067
40
0.31183640597067
40
0.331498222942935
40
0.331498222942935
40
0.370821856887466
40
0.370821856887466
40
0.390483673859731
40
0.390483673859731
40
0.410145490831996
40
0.410145490831996
40
0.429807307804261
40
0.429807307804261
40
0.449469124776526
40
0.449469124776526
40
0.46913094174879
40
0.46913094174879
40
0.478961850234923
40
0.478961850234923
40
0.488792758721056
40
0.488792758721056
40
0.508454575693323
40
0.508454575693323
40
0.528116392665589
40
0.528116392665589
40
0.547778209637855
40
0.547778209637855
40
0.567440026610122
40
0.567440026610122
40
0.577270935096255
40
0.577270935096255
40
0.587101843582388
40
0.606763660554654
40
0.606763660554654
40
0.626425477526921
40
0.626425477526921
40
0.646087294499187
40
0.646087294499187
40
0.685410928443721
40
0.685410928443721
40
0.695241836929854
40
0.695241836929854
40
0.705072745415988
40
0.705072745415988
40
0.724734562388255
40
0.724734562388255
40
0.744396379360523
40
0.744396379360523
40
0.76405819633279
40
0.76405819633279
40
0.803381830277325
40
0.803381830277325
40
0.823043647249593
40
0.823043647249593
40
0.84270546422186
40
0.84270546422186
40
0.862367281194128
40
0.862367281194128
40
0.882029098166395
40
0.882029098166395
40
0.901690915138663
40
0.901690915138663
40
0.92135273211093
40
0.92135273211093
40
0.941014549083198
40
0.941014549083198
40
0.960676366055465
40
0.960676366055465
40
1
40
1
40
1
40
1
41
1
10
63.7648665110534
20
-5.29120807150011
30
0
41
1
10
63.4795619220804
20
-5.35882547557952
30
0
41
1
10
63.1942300320973
20
-5.42499427298165
30
0
41
1
10
62.5769389899085
20
-5.56472664447807
30
0
41
1
10
62.244927579463
20
-5.63769666969458
30
0
41
1
10
61.5804827956839
20
-5.77905754855348
30
0
41
1
10
61.2480784343177
20
-5.84750353546832
30
0
41
1
10
60.5829448504582
20
-5.9799801946979
30
0
41
1
10
60.2500622996849
20
-6.04406216307009
30
0
41
1
10
59.5854767681909
20
-6.16736468231858
30
0
41
1
10
59.2535424030339
20
-6.22647149714209
30
0
41
1
10
58.5903141902144
20
-6.33955535322079
30
0
41
1
10
58.2590365528609
20
-6.39356137811973
30
0
41
1
10
57.5971804802418
20
-6.49657792890508
30
0
41
1
10
57.2666129005785
20
-6.54560013853731
30
0
41
1
10
56.6060861962848
20
-6.63852298309604
30
0
41
1
10
56.2761223144952
20
-6.68241437654822
30
0
41
1
10
55.6165565286491
20
-6.7648236584935
30
0
41
1
10
55.2869716135526
20
-6.80336813623506
30
0
41
1
10
54.6282515561472
20
-6.87522776505469
30
0
41
1
10
54.299113629441
20
-6.9085391921256
30
0
41
1
10
53.8057533640001
20
-6.95457689399188
30
0
41
1
10
53.6413574414804
20
-6.96926639967219
30
0
41
1
10
53.3126110320309
20
-6.99728006294364
30
0
41
1
10
52.8195481822781
20
-7.03724580459181
30
0
41
1
10
52.3266690896689
20
-7.07110005156028
30
0
41
1
10
51.6696996630687
20
-7.11085419622182
30
0
41
1
10
51.341323163592
20
-7.12804044686075
30
0
41
1
10
50.6847452591171
20
-7.15699321489876
30
0
41
1
10
50.3565391651366
20
-7.168753583887
30
0
41
1
10
49.7000671246129
20
-7.18677754795505
30
0
41
1
10
49.3717769858872
20
-7.19304186231219
30
0
41
1
10
48.7151322290487
20
-7.20010878010251
30
0
41
1
10
48.3867810852923
20
-7.20091119523337
30
0
41
1
10
47.7300428552502
20
-7.19702640478585
30
0
41
1
10
47.4016937208796
20
-7.19232706795489
30
0
41
1
10
46.4161013308385
20
-7.17000777213178
30
0
41
1
10
45.7583633694926
20
-7.14422654464775
30
0
41
1
10
44.7709216380903
20
-7.08908176860837
30
0
41
1
10
44.4416287598499
20
-7.06794560447588
30
0
41
1
10
43.7825744154109
20
-7.02022723312493
30
0
41
1
10
43.4527849852906
20
-6.99366526575236
30
0
41
1
10
42.7925967219769
20
-6.93520615729125
30
0
41
1
10
42.4622211430225
20
-6.90329346705732
30
0
41
1
10
41.8009328536293
20
-6.83403880403373
30
0
41
1
10
41.4700435929668
20
-6.79666887995467
30
0
41
1
10
40.8076026154624
20
-6.71655092338378
30
0
41
1
10
40.4759742740173
20
-6.67389427807436
30
0
41
1
10
39.977919200744
20
-6.60601805588604
30
0
41
1
10
39.8118001678088
20
-6.58274199726844
30
0
41
1
10
39.4793651630213
20
-6.53487776073973
30
0
41
1
10
39.3130125812872
20
-6.51028431134472
30
0
41
1
10
38.8139084818364
20
-6.43455911394807
30
0
41
1
10
38.4814392112855
20
-6.38151510614048
30
0
41
1
10
37.8168899661469
20
-6.27049765468541
30
0
41
1
10
37.4847967635469
20
-6.21254163173273
30
0
41
1
10
36.8207553638138
20
-6.09208869997627
30
0
41
1
10
36.4888341788174
20
-6.02955550720768
30
0
41
1
10
35.8252418487728
20
-5.89980760031048
30
0
41
1
10
35.4935742381621
20
-5.83258580014848
30
0
41
1
10
34.9962499485002
20
-5.72823935995331
30
0
41
1
10
34.8304981999123
20
-5.69288210045318
30
0
41
1
10
34.498965950895
20
-5.62115199903374
30
0
41
1
10
34.0016421924095
20
-5.51200307370482
30
0
41
1
10
33.504264221361
20
-5.39817801840479
30
0
41
1
10
32.8410848051183
20
-5.2421840932017
30
0
41
1
10
32.5095012671729
20
-5.1620506936016
30
0
41
1
10
31.846258964356
20
-4.99766154929787
30
0
41
1
10
31.514597182433
20
-4.91340889296524
30
0
41
1
10
30.5190985875108
20
-4.65530723550441
30
0
41
1
10
29.85477247398
20
-4.47610834170428
30
0
41
1
10
29.0237365444271
20
-4.24266245339672
30
0
41
1
10
28.8575001394023
20
-4.19549317706151
30
0
41
1
10
28.5249105476387
20
-4.10033061638978
30
0
41
1
10
28.358523291233
20
-4.05235496165429
30
0
41
1
10
27.8596633992487
20
-3.90746936818181
30
0
41
1
10
27.5273395216386
20
-3.80953395954748
30
0
41
1
10
26.8632273001435
20
-3.61088861282101
30
0
41
1
10
26.5314442416767
20
-3.51016437863547
30
0
41
1
10
25.8684029252301
20
-3.30596890701835
30
0
41
1
10
25.5371393145943
20
-3.20251080307415
30
0
41
1
10
24.543790671651
20
-2.88894463015117
30
0
41
1
10
23.882015351334
20
-2.67601544753163
30
0
41
1
10
22.8902389261189
20
-2.35027110801167
30
0
41
1
10
22.559836050875
20
-2.24051221335313
30
0
41
1
10
21.8990184243844
20
-2.01972596696763
30
0
41
1
10
21.5685973284886
20
-1.90871875707796
30
0
41
1
10
20.9077683520921
20
-1.68537793443417
30
0
41
1
10
20.5773632131984
20
-1.5730364503296
30
0
41
1
10
19.9165922689764
20
-1.3469483834036
30
0
41
1
10
19.5862258719792
20
-1.23320240506246
30
0
41
1
10
18.9253516857486
20
-1.00481932309648
30
0
41
1
10
18.5948160674075
20
-0.890263323730238
30
0
41
1
10
17.9334362462627
20
-0.660753581467077
30
0
41
1
10
17.6026184644319
20
-0.545723122456536
30
0
41
1
10
16.9407607048787
20
-0.315007332750213
30
0
41
1
10
16.6097420276296
20
-0.199257772926416
30
0
41
1
10
15.9473770907
20
0.0325956425944867
30
0
41
1
10
15.6159466972499
20
0.148446304227747
30
0
41
1
10
14.6208571132154
20
0.495597928285207
30
0
41
1
10
13.9564299175749
20
0.726581292992165
30
0
41
1
10
13.2911082975524
20
0.957596150740955
30
0
0
SPLINE
5
D2
100
AcDbEntity
8
1
62
256
6
ByLayer
370
18
48
1
60
0
100
AcDbSpline
70
4
71
3
72
14
73
10
40
0
40
0
40
0
40
0
40
0.25
40
0.25
40
0.5
40
0.5
40
0.75
40
0.75
40
1
40
1
40
1
40
1
41
1
10
13.2911082975523
20
0.95759615074104
30
0
41
1
10
13.0118928598517
20
1.05762478051602
30
0
41
1
10
12.734372410647
20
1.16128172477266
30
0
41
1
10
12.1818444659201
20
1.37353221030523
30
0
41
1
10
11.9068331292845
20
1.48211767954757
30
0
41
1
10
11.3587664860839
20
1.70273185985428
30
0
41
1
10
11.0857092684886
20
1.81475780953727
30
0
41
1
10
10.5414135254325
20
2.04177882068223
30
0
41
1
10
10.2701751458864
20
2.15677639126142
30
0
41
1
10
10
20
2.27353121185999
30
0
0
SPLINE
5
D3
100
AcDbEntity
8
1
62
256
6
ByLayer
370
18
48
1
60
0
100
AcDbSpline
70
4
71
4
72
13
73
8
40
0
40
0
40
0
40
0
40
0
40
0.438901170735847
40
0.438901170735847
40
0.438901170735847
40
1
40
1
40
1
40
1
40
1
41
0.996676335528713
10
16.5331390033541
20
7.16142636282066
30
0
41
0.99469636029557
10
16.4337054430977
20
6.35037299421567
30
0
41
0.994357915415869
10
16.2604225037813
20
5.43647146892197
30
0
41
1
10
16.021408985151
20
4.52587648969924
30
0
41
1
10
15.4421556285073
20
2.71578260582399
30
0
41
0.990778855256436
10
15.0299471694481
20
1.69620547382957
30
0
41
0.996620647517812
10
14.6037398146856
20
0.990870185615582
30
0
41
0.999174359690584
10
14.2468628382333
20
0.624145542517071
30
0
0
SPLINE
5
D4
100
AcDbEntity
8
1
62
256
6
ByLayer
370
18
48
1
60
0
100
AcDbSpline
70
4
71
3
72
25
73
21
40
0
40
0
40
0
40
0
40
0.124999999999995
40
0.124999999999995
40
0.249999999999991
40
0.249999999999991
40
0.374999999999986
40
0.374999999999986
40
0.499999999999982
40
0.499999999999982
40
0.56249999999998
40
0.56249999999998
40
0.593749999999978
40
0.593749999999978
40
0.624999999999977
40
0.749999999999985
40
0.749999999999985
40
0.874999999999992
40
0.874999999999992
40
1
40
1
40
1
40
1
41
1
10
10
20
7.19518791847267
30
0
41
1
10
10.2784096057664
20
7.19401978587476
30
0
41
1
10
10.5561926265937
20
7.19309283865749
30
0
41
1
10
11.1106126931476
20
7.19221464782009
30
0
41
1
10
11.3872490833227
20
7.19225848989879
30
0
41
1
10
11.9394579728036
20
7.19322568305154
30
0
41
1
10
12.215029990551
20
7.19414548418465
30
0
41
1
10
12.7651855790242
20
7.19631463781118
30
0
41
1
10
13.0397687731528
20
7.1975603168076
30
0
41
1
10
13.4509633570917
20
7.19900065469423
30
0
41
1
10
13.5879149331581
20
7.19940699901173
30
0
41
1
10
13.7931810873997
20
7.1998046559182
30
0
41
1
10
13.8615427053297
20
7.19990168430118
30
0
41
1
10
13.9979339484156
20
7.20000721131419
30
0
41
1
10
14.3382425984374
20
7.20005054987806
30
0
41
1
10
14.6753308937769
20
7.19877081870601
30
0
41
1
10
15.2112325671629
20
7.19394599775057
30
0
41
1
10
15.4774646127212
20
7.19014128114321
30
0
41
1
10
16.0071881096278
20
7.17878564870196
30
0
41
1
10
16.2706816813781
20
7.17123323778671
30
0
41
1
10
16.5331390033539
20
7.16142636282069
30
0
0
SPLINE
5
D5
100
AcDbEntity
8
1
62
256
6
ByLayer
370
18
48
1
60
0
100
AcDbSpline
70
4
71
3
72
108
73
104
40
0
40
0
40
0
40
0
40
0.0625000000000015
40
0.0625000000000015
40
0.125000000000003
40
0.125000000000003
40
0.156250000000003
40
0.156250000000003
40
0.187500000000004
40
0.187500000000004
40
0.218750000000004
40
0.218750000000004
40
0.226562500000004
40
0.226562500000004
40
0.234375000000003
40
0.234375000000003
40
0.250000000000003
40
0.250000000000003
40
0.281250000000002
40
0.281250000000002
40
0.3125
40
0.3125
40
0.343749999999998
40
0.343749999999998
40
0.374999999999997
40
0.374999999999997
40
0.390624999999996
40
0.390624999999996
40
0.398437499999995
40
0.398437499999995
40
0.406249999999995
40
0.406249999999995
40
0.421874999999993
40
0.421874999999993
40
0.437499999999991
40
0.437499999999991
40
0.441406249999991
40
0.441406249999991
40
0.44531249999999
40
0.44531249999999
40
0.453124999999989
40
0.453124999999989
40
0.468749999999987
40
0.468749999999987
40
0.484374999999984
40
0.484374999999984
40
0.488281249999983
40
0.488281249999983
40
0.492187499999983
40
0.492187499999983
40
0.499999999999982
40
0.499999999999982
40
0.515624999999979
40
0.515624999999979
40
0.531249999999978
40
0.531249999999978
40
0.535156249999977
40
0.535156249999977
40
0.539062499999977
40
0.546874999999977
40
0.546874999999977
40
0.562499999999976
40
0.562499999999976
40
0.578124999999975
40
0.578124999999975
40
0.582031249999975
40
0.582031249999975
40
0.585937499999974
40
0.585937499999974
40
0.593749999999975
40
0.593749999999975
40
0.609374999999976
40
0.609374999999976
40
0.624999999999976
40
0.624999999999976
40
0.656249999999977
40
0.656249999999977
40
0.664062499999977
40
0.664062499999977
40
0.671874999999977
40
0.687499999999978
40
0.687499999999978
40
0.718749999999981
40
0.718749999999981
40
0.749999999999983
40
0.749999999999983
40
0.781249999999986
40
0.781249999999986
40
0.812499999999988
40
0.812499999999988
40
0.843749999999991
40
0.843749999999991
40
0.859374999999992
40
0.859374999999992
40
0.874999999999993
40
0.874999999999993
40
0.906249999999995
40
0.906249999999995
40
0.937499999999997
40
0.937499999999997
40
0.968749999999998
40
0.968749999999998
40
1
40
1
40
1
40
1
41
1
10
10
20
7.19518791847264
30
0
41
1
10
9.6146303594852
20
7.30484383976705
30
0
41
1
10
9.23387688348987
20
7.41332484820157
30
0
41
1
10
8.48168341848043
20
7.6255513228804
30
0
41
1
10
8.11023832791213
20
7.72931367214045
30
0
41
1
10
7.56021221072601
20
7.87859697892804
30
0
41
1
10
7.37806189944874
20
7.92728604714736
30
0
41
1
10
7.01620044776138
20
8.0218547826272
30
0
41
1
10
6.8364888442544
20
8.06773682896895
30
0
41
1
10
6.47959196827148
20
8.1558362461212
30
0
41
1
10
6.3024059061039
20
8.19805782551984
30
0
41
1
10
6.08258805521174
20
8.24783014801591
30
0
41
1
10
6.03870788172961
20
8.25763347372961
30
0
41
1
10
5.95111721391385
20
8.27691582875363
30
0
41
1
10
5.90737385539401
20
8.28640166604657
30
0
41
1
10
5.77686610508306
20
8.31423919089346
30
0
41
1
10
5.69070675940105
20
8.33199827553599
30
0
41
1
10
5.43485415841528
20
8.38261655593169
30
0
41
1
10
5.26777584184993
20
8.41283583550694
30
0
41
1
10
4.94127512073183
20
8.4644562051777
30
0
41
1
10
4.78180953366262
20
8.48587606872229
30
0
41
1
10
4.47177001930794
20
8.5173532171645
30
0
41
1
10
4.32340374456112
20
8.52718236165853
30
0
41
1
10
4.04158501774145
20
8.53235474629776
30
0
41
1
10
3.90810554452275
20
8.52773081071459
30
0
41
1
10
3.72118519290336
20
8.50686441126146
30
0
41
1
10
3.66110656581961
20
8.49757337920545
30
0
41
1
10
3.57476084109754
20
8.47955290711329
30
0
41
1
10
3.54654777463062
20
8.47284460039043
30
0
41
1
10
3.49194902270011
20
8.45807972536903
30
0
41
1
10
3.46552547780675
20
8.45001923760867
30
0
41
1
10
3.38896975787918
20
8.42370886839495
30
0
41
1
10
3.34154545309065
20
8.40333561469299
30
0
41
1
10
3.25453594783645
20
8.35630322199151
30
0
41
1
10
3.21494743169302
20
8.32964681762533
30
0
41
1
10
3.17090672760952
20
8.29188204956435
30
0
41
1
10
3.16237163509317
20
8.28410624390699
30
0
41
1
10
3.14586479477114
20
8.26809315069187
30
0
41
1
10
3.13789004633895
20
8.25985039469086
30
0
41
1
10
3.11499137847863
20
8.23458508822131
30
0
41
1
10
3.10103523709324
20
8.21697323199189
30
0
41
1
10
3.06312632457474
20
8.1617997051479
30
0
41
1
10
3.04312550229625
20
8.12190364840339
30
0
41
1
10
3.01400302050848
20
8.03562829818154
30
0
41
1
10
3.00487979259907
20
7.98924990854673
30
0
41
1
10
3.00064648482237
20
7.92698771815557
30
0
41
1
10
3.00015907054558
20
7.91432047250731
30
0
41
1
10
2.99991505384773
20
7.8885489400121
30
0
41
1
10
3.00015973025725
20
7.87542100993463
30
0
41
1
10
3.00200131154079
20
7.83554285683394
30
0
41
1
10
3.00469448073781
20
7.80840239844946
30
0
41
1
10
3.01702690700739
20
7.72537311188444
30
0
41
1
10
3.03091139309549
20
7.66787861532885
30
0
41
1
10
3.06945420887743
20
7.54884881932531
30
0
41
1
10
3.09411447200651
20
7.48731293364079
30
0
41
1
10
3.13147145006937
20
7.40797757417818
30
0
41
1
10
3.13928116050636
20
7.39196850368654
30
0
41
1
10
3.15544894570556
20
7.35990899565093
30
0
41
1
10
3.1805479100677
20
7.31170124003091
30
0
41
1
10
3.2081035826244
20
7.26315405449489
30
0
41
1
10
3.2662949482324
20
7.16564527625673
30
0
41
1
10
3.30918870412395
20
7.10008800574133
30
0
41
1
10
3.40234683264987
20
6.96804163793755
30
0
41
1
10
3.45261389534949
20
6.9015521933533
30
0
41
1
10
3.51966544565494
20
6.81794429301073
30
0
41
1
10
3.53328702979314
20
6.80119784262752
30
0
41
1
10
3.56094437546634
20
6.76765712173912
30
0
41
1
10
3.5749960361328
20
6.75084421281812
30
0
41
1
10
3.61762420644072
20
6.70049659044793
30
0
41
1
10
3.64666227848818
20
6.66706356866902
30
0
41
1
10
3.73550182418199
20
6.56714071657939
30
0
41
1
10
3.79702413826902
20
6.50102646996791
30
0
41
1
10
3.92408759357608
20
6.36971305993453
30
0
41
1
10
3.9896304137562
20
6.30451418421509
30
0
41
1
10
4.19162095285805
20
6.11018629235764
30
0
41
1
10
4.3334043238425
20
5.98232371275131
30
0
41
1
10
4.51788186082362
20
5.82432424485648
30
0
41
1
10
4.55517113464725
20
5.79279171675418
30
0
41
1
10
4.63031469086425
20
5.73001254722365
30
0
41
1
10
4.74365944754294
20
5.63645346814457
30
0
41
1
10
4.85876847894116
20
5.5446072125429
30
0
41
1
10
5.09106063513053
20
5.36293429810334
30
0
41
1
10
5.24867775107347
20
5.24450348442195
30
0
41
1
10
5.56826313546986
20
5.01188158420282
30
0
41
1
10
5.73023595005517
20
4.89769448312509
30
0
41
1
10
6.0576507276844
20
4.67266734344028
30
0
41
1
10
6.22309478597884
20
4.56182901484311
30
0
41
1
10
6.55673802387395
20
4.34274836853987
30
0
41
1
10
6.72493803566067
20
4.23450654484816
30
0
41
1
10
7.06350703638986
20
4.01997981004433
30
0
41
1
10
7.23387613516303
20
3.91369465907522
30
0
41
1
10
7.49070358160398
20
3.75533761549991
30
0
41
1
10
7.57655202456166
20
3.70271537875158
30
0
41
1
10
7.74850289738333
20
3.59785092021377
30
0
41
1
10
7.83457116130657
20
3.5456292687154
30
0
41
1
10
8.09301049986217
20
3.38951294007938
30
0
41
1
10
8.26561284134749
20
3.28616076808609
30
0
41
1
10
8.61127680211084
20
3.08060529248343
30
0
41
1
10
8.7843380037751
20
2.97840139602323
30
0
41
1
10
9.13086938763891
20
2.77504273329527
30
0
41
1
10
9.30433924448963
20
2.67388753697657
30
0
41
1
10
9.65175936355433
20
2.47274596918894
30
0
41
1
10
9.825709496206
20
2.37275951313157
30
0
41
1
10
10
20
2.27353121186002
30
0
0
SPLINE
5
D6
100
AcDbEntity
8
1
62
256
6
ByLayer
370
18
48
1
60
0
100
AcDbSpline
70
4
71
3
72
10
73
6
40
0
40
0
40
0
40
0
40
0.794281119308783
40
0.794281119308783
40
1
40
1
40
1
40
1
41
1
10
10
20
-7.19518791847261
30
0
41
1
10
9.61463035948518
20
-7.30484383976702
30
0
41
1
10
9.2338768834899
20
-7.41332484820154
30
0
41
1
10
8.76037106374685
20
-7.5469214234692
30
0
41
1
10
8.66327401351603
20
-7.57424706136564
30
0
41
1
10
8.56649090049558
20
-7.60138217529098
30
0
0
SPLINE
5
D7
100
AcDbEntity
8
SK1
62
256
6
ByLayer
370
18
48
1
60
0
100
AcDbSpline
70
4
71
3
72
32
73
28
40
0
40
0
40
0
40
0
40
0.124999999999998
40
0.124999999999998
40
0.249999999999995
40
0.249999999999995
40
0.374999999999994
40
0.374999999999994
40
0.437499999999993
40
0.437499999999993
40
0.499999999999992
40
0.499999999999992
40
0.624999999999988
40
0.624999999999988
40
0.656249999999988
40
0.656249999999988
40
0.687499999999988
40
0.687499999999988
40
0.74999999999999
40
0.74999999999999
40
0.874999999999995
40
0.874999999999995
40
0.906249999999996
40
0.906249999999996
40
0.937499999999998
40
0.937499999999998
40
1
40
1
40
1
40
1
41
1
10
-43.3565069115799
20
-3.65034953143106
30
0
41
1
10
-43.3331458400142
20
-3.71424193668162
30
0
41
1
10
-43.3079887114829
20
-3.77702079626832
30
0
41
1
10
-43.2534212788423
20
-3.90009490817781
30
0
41
1
10
-43.2240149751524
20
-3.96039186522651
30
0
41
1
10
-43.1600568886594
20
-4.07814914960466
30
0
41
1
10
-43.1255132756746
20
-4.13561297938583
30
0
41
1
10
-43.0688646453433
20
-4.21928792338744
30
0
41
1
10
-43.0491724017425
20
-4.24675781820287
30
0
41
1
10
-43.0079384175976
20
-4.30075945417201
30
0
41
1
10
-42.9863407519915
20
-4.32734895814056
30
0
41
1
10
-42.9191284528728
20
-4.40464696643178
30
0
41
1
10
-42.8709653357112
20
-4.45314968312832
30
0
41
1
10
-42.8054200814028
20
-4.509129269905
30
0
41
1
10
-42.7920414880158
20
-4.52009075475445
30
0
41
1
10
-42.7647046009874
20
-4.54151368998052
30
0
41
1
10
-42.7507137384423
20
-4.55199803198428
30
0
41
1
10
-42.7080552923505
20
-4.58246627252342
30
0
41
1
10
-42.6787844981831
20
-4.60141919352105
30
0
41
1
10
-42.588250922941
20
-4.65388326760876
30
0
41
1
10
-42.5243097226538
20
-4.68306815187688
30
0
41
1
10
-42.4386823815538
20
-4.71050598268181
30
0
41
1
10
-42.4212064346087
20
-4.71554997578619
30
0
41
1
10
-42.3860524535981
20
-4.72455026306568
30
0
41
1
10
-42.3683576016114
20
-4.72851630488563
30
0
41
1
10
-42.3149119913326
20
-4.73878190613445
30
0
41
1
10
-42.2788010667419
20
-4.74345326345804
30
0
41
1
10
-42.2421801837133
20
-4.74582511601491
30
0
0
SPLINE
5
D8
100
AcDbEntity
8
SK1
62
256
6
ByLayer
370
18
48
1
60
0
100
AcDbSpline
70
4
71
3
72
32
73
28
40
0
40
0
40
0
40
0
40
0.125000000000003
40
0.125000000000003
40
0.156250000000003
40
0.156250000000003
40
0.187500000000004
40
0.187500000000004
40
0.250000000000005
40
0.250000000000005
40
0.312500000000005
40
0.312500000000005
40
0.343750000000005
40
0.343750000000005
40
0.375000000000006
40
0.375000000000006
40
0.500000000000003
40
0.500000000000003
40
0.625
40
0.625
40
0.6875
40
0.6875
40
0.749999999999999
40
0.749999999999999
40
0.875
40
0.875
40
1
40
1
40
1
40
1
41
1
10
-42.2421801837133
20
4.74582511601491
30
0
41
1
10
-42.3153322469605
20
4.74108722075121
30
0
41
1
10
-42.3858382182456
20
4.7272872503076
30
0
41
1
10
-42.4711061087408
20
4.70015187597528
30
0
41
1
10
-42.48801508965
20
4.69422552159884
30
0
41
1
10
-42.5215500807622
20
4.68139247012627
30
0
41
1
10
-42.538108088977
20
4.67450874413797
30
0
41
1
10
-42.5867495214037
20
4.65272655031879
30
0
41
1
10
-42.6179919315484
20
4.63663028483114
30
0
41
1
10
-42.6784054316375
20
4.60165673094545
30
0
41
1
10
-42.707575323895
20
4.58277786641952
30
0
41
1
10
-42.7499378830322
20
4.55256723042981
30
0
41
1
10
-42.7638261651476
20
4.54218093900309
30
0
41
1
10
-42.7911594285605
20
4.52080182261719
30
0
41
1
10
-42.8046315534326
20
4.50978473494575
30
0
41
1
10
-42.8704332773146
20
4.45367358335039
30
0
41
1
10
-42.9183823606968
20
4.40538606397868
30
0
41
1
10
-43.007200043589
20
4.30347549467811
30
0
41
1
10
-43.0480454261384
20
4.2498368571521
30
0
41
1
10
-43.1050091824334
20
4.16599396786131
30
0
41
1
10
-43.1233071500575
20
4.13742383693679
30
0
41
1
10
-43.1584042823022
20
4.07953032751405
30
0
41
1
10
-43.1751994309136
20
4.05022195040382
30
0
41
1
10
-43.2235710813646
20
3.96130068776944
30
0
41
1
10
-43.2531438067293
20
3.90069540381026
30
0
41
1
10
-43.3079263511211
20
3.77718661911314
30
0
41
1
10
-43.3331314373585
20
3.7142813278675
30
0
41
1
10
-43.3565069115799
20
3.65034953143106
30
0
0
SPLINE
5
D9
100
AcDbEntity
8
SK1
62
256
6
ByLayer
370
18
48
1
60
0
100
AcDbSpline
70
4
71
3
72
30
73
26
40
0
40
0
40
0
40
0
40
0.124999999999979
40
0.124999999999979
40
0.249999999999958
40
0.249999999999958
40
0.374999999999936
40
0.374999999999936
40
0.437499999999926
40
0.437499999999926
40
0.499999999999916
40
0.499999999999916
40
0.624999999999908
40
0.624999999999908
40
0.656249999999909
40
0.656249999999909
40
0.68749999999991
40
0.68749999999991
40
0.749999999999925
40
0.749999999999925
40
0.874999999999955
40
0.874999999999955
40
0.937499999999978
40
0.937499999999978
40
1
40
1
40
1
40
1
41
1
10
-13.8451406288876
20
5.60819856978108
30
0
41
1
10
-13.8759395902576
20
5.65059861248182
30
0
41
1
10
-13.9086043985849
20
5.69152013904011
30
0
41
1
10
-13.97811386775
20
5.77019024979575
30
0
41
1
10
-14.014955839279
20
5.80794050815649
30
0
41
1
10
-14.0934302354091
20
5.87995203844818
30
0
41
1
10
-14.1350574932389
20
5.91421654427231
30
0
41
1
10
-14.2017568377706
20
5.9626308553903
30
0
41
1
10
-14.2245427507748
20
5.97815093867465
30
0
41
1
10
-14.271111369383
20
6.00780504420359
30
0
41
1
10
-14.2949186549204
20
6.02195716348245
30
0
41
1
10
-14.3679929543377
20
6.06230994483028
30
0
41
1
10
-14.4189025587777
20
6.08641928516369
30
0
41
1
10
-14.4856782999412
20
6.11265441828212
30
0
41
1
10
-14.4991911565357
20
6.11770540783806
30
0
41
1
10
-14.5265457311327
20
6.12740066932034
30
0
41
1
10
-14.5403907312758
20
6.13204445753533
30
0
41
1
10
-14.5820565255816
20
6.14522762072318
30
0
41
1
10
-14.6101298025697
20
6.1530644585383
30
0
41
1
10
-14.6952537679042
20
6.17368858860661
30
0
41
1
10
-14.7532042147282
20
6.18360487337517
30
0
41
1
10
-14.8420639597241
20
6.19236276786617
30
0
41
1
10
-14.8721089186227
20
6.1942576600421
30
0
41
1
10
-14.9321260265236
20
6.19588455534111
30
0
41
1
10
-14.9621459212296
20
6.19562887243725
30
0
41
1
10
-14.9921771997116
20
6.19429975368809
30
0
0
SPLINE
5
DA
100
AcDbEntity
8
SK1
62
256
6
ByLayer
370
18
48
1
60
0
100
AcDbSpline
70
4
71
3
72
29
73
25
40
0
40
0
40
0
40
0
40
0.125000000000045
40
0.125000000000045
40
0.25000000000009
40
0.25000000000009
40
0.281250000000093
40
0.281250000000093
40
0.312500000000097
40
0.375000000000092
40
0.375000000000092
40
0.500000000000084
40
0.500000000000084
40
0.562500000000073
40
0.562500000000073
40
0.625000000000062
40
0.625000000000062
40
0.750000000000038
40
0.750000000000038
40
0.875000000000015
40
0.875000000000015
40
0.937500000000008
40
0.937500000000008
40
1
40
1
40
1
40
1
41
1
10
-14.9921771997116
20
-6.19429975368809
30
0
41
1
10
-14.9320573843484
20
-6.19696052531805
30
0
41
1
10
-14.8726744232101
20
-6.19530622075879
30
0
41
1
10
-14.7552923361598
20
-6.18388224594813
30
0
41
1
10
-14.6972937188803
20
-6.17410945589265
30
0
41
1
10
-14.6256493001772
20
-6.15684175670819
30
0
41
1
10
-14.6113371248737
20
-6.15312631775188
30
0
41
1
10
-14.5830607924918
20
-6.14526136952958
30
0
41
1
10
-14.5410867139313
20
-6.13279564418732
30
0
41
1
10
-14.500383626949
20
-6.118393573753
30
0
41
1
10
-14.4205661285236
20
-6.08714648466275
30
0
41
1
10
-14.3694669105832
20
-6.06306708368854
30
0
41
1
10
-14.2956992221607
20
-6.02241573888855
30
0
41
1
10
-14.2715415923124
20
-6.00806907471573
30
0
41
1
10
-14.2247924605031
20
-5.97831973436635
30
0
41
1
10
-14.2021202056678
20
-5.96287721339851
30
0
41
1
10
-14.1360355381032
20
-5.91496059376203
30
0
41
1
10
-14.0945476428777
20
-5.88090305019935
30
0
41
1
10
-14.0160214797599
20
-5.80899071657845
30
0
41
1
10
-13.9789867514485
20
-5.77113330484545
30
0
41
1
10
-13.9264169069796
20
-5.71170203449847
30
0
41
1
10
-13.9093970751005
20
-5.69145219620981
30
0
41
1
10
-13.8764815896183
20
-5.65032851626569
30
0
41
1
10
-13.8605603440826
20
-5.62942644739971
30
0
41
1
10
-13.845140628887
20
-5.60819856978154
30
0
0
SPLINE
5
DB
100
AcDbEntity
8
1
62
256
6
ByLayer
370
13
48
1
60
0
100
AcDbSpline
70
4
71
3
72
43
73
39
40
0
40
0
40
0
40
0
40
0.0625
40
0.0625
40
0.125
40
0.125
40
0.1875
40
0.1875
40
0.25
40
0.25
40
0.3125
40
0.3125
40
0.343750000000001
40
0.343750000000001
40
0.359375000000001
40
0.3671875
40
0.3671875
40
0.375
40
0.375
40
0.4375
40
0.4375
40
0.5
40
0.5
40
0.5625
40
0.5625
40
0.625
40
0.625
40
0.6875
40
0.6875
40
0.75
40
0.75
40
0.8125
40
0.8125
40
0.875
40
0.875
40
0.9375
40
0.9375
40
1
40
1
40
1
40
1
41
1
10
140.5
20
-6.01538871339483
30
0
41
1
10
140.568395859787
20
-5.77116798959182
30
0
41
1
10
140.636791719574
20
-5.49848344712908
30
0
41
1
10
140.773583439149
20
-4.90633917497041
30
0
41
1
10
140.841979298936
20
-4.58693470506466
30
0
41
1
10
140.978771018511
20
-3.91525415732068
30
0
41
1
10
141.047166878298
20
-3.56304832031964
30
0
41
1
10
141.183958597872
20
-2.84142018215223
30
0
41
1
10
141.252354457659
20
-2.47206374901896
30
0
41
1
10
141.389146177234
20
-1.73142490162195
30
0
41
1
10
141.457542037021
20
-1.36018894920679
30
0
41
1
10
141.560135826702
20
-0.811783007245026
30
0
41
1
10
141.594333756595
20
-0.630368297049216
30
0
41
1
10
141.645630651436
20
-0.361344328948377
30
0
41
1
10
141.671279098856
20
-0.22760448851551
30
0
41
1
10
141.696927546276
20
-0.095191569544653
30
0
41
1
10
141.714026511223
20
-0.0072283543902358
30
0
41
1
10
141.722575993697
20
0.0365648485839074
30
0
41
1
10
141.799521335957
20
0.433021059171125
30
0
41
1
10
141.867917195744
20
0.795430829739843
30
0
41
1
10
142.004708915319
20
1.52973464004521
30
0
41
1
10
142.073104775106
20
1.90160358567019
30
0
41
1
10
142.20989649468
20
2.64127866767757
30
0
41
1
10
142.278292354468
20
3.00903475171387
30
0
41
1
10
142.415084074042
20
3.72504616002738
30
0
41
1
10
142.48347993383
20
4.07323378375258
30
0
41
1
10
142.620271653404
20
4.73458405783003
30
0
41
1
10
142.688667513191
20
5.04767750451569
30
0
41
1
10
142.825459232765
20
5.62535190593766
30
0
41
1
10
142.893855092553
20
5.88988144589092
30
0
41
1
10
143.030646812127
20
6.36086007115659
30
0
41
1
10
143.099042671914
20
6.56728933508657
30
0
41
1
10
143.235834391489
20
6.91753177079627
30
0
41
1
10
143.304230251276
20
7.06135894334514
30
0
41
1
10
143.44102197085
20
7.28697775564399
30
0
41
1
10
143.509417830638
20
7.36880821993853
30
0
41
1
10
143.646209550212
20
7.47529475114865
30
0
41
1
10
143.71460541
20
7.5
30
0
41
1
10
143.783001269787
20
7.5
30
0
0
SPLINE
5
DC
100
AcDbEntity
8
1
62
256
6
ByLayer
370
13
48
1
60
0
100
AcDbSpline
70
4
71
3
72
42
73
38
40
0
40
0
40
0
40
0
40
0.0624999999999999
40
0.0624999999999999
40
0.125
40
0.125
40
0.1875
40
0.1875
40
0.25
40
0.25
40
0.3125
40
0.3125
40
0.375
40
0.375
40
0.437499999999999
40
0.437499999999999
40
0.499999999999999
40
0.499999999999999
40
0.562499999999999
40
0.562499999999999
40
0.624999999999999
40
0.624999999999999
40
0.687499999999999
40
0.687499999999999
40
0.71875
40
0.71875
40
0.734375
40
0.734375
40
0.750000000000001
40
0.750000000000001
40
0.812500000000001
40
0.812500000000001
40
0.875
40
0.875
40
0.9375
40
0.9375
40
1
40
1
40
1
40
1
41
1
10
145.985945038912
20
7.5
30
0
41
1
10
146.04395083483
20
7.5
30
0
41
1
10
146.101956630749
20
7.48224931525908
30
0
41
1
10
146.217968222586
20
7.4064677644773
30
0
41
1
10
146.275974018505
20
7.34841510633049
30
0
41
1
10
146.391985610342
20
7.18858270021943
30
0
41
1
10
146.449991406261
20
7.08678375093959
30
0
41
1
10
146.566002998098
20
6.83801625596121
30
0
41
1
10
146.624008794016
20
6.69103581915388
30
0
41
1
10
146.740020385853
20
6.35295207339871
30
0
41
1
10
146.798026181772
20
6.1618481752682
30
0
41
1
10
146.914037773609
20
5.7392546203294
30
0
41
1
10
146.972043569528
20
5.50777732607773
30
0
41
1
10
147.088055161365
20
5.01069131180105
30
0
41
1
10
147.146060957283
20
4.74510623540147
30
0
41
1
10
147.262072549121
20
4.18802627320943
30
0
41
1
10
147.320078345039
20
3.89656161873737
30
0
41
1
10
147.436089936876
20
3.29708269249844
30
0
41
1
10
147.494095732795
20
2.98909907098661
30
0
41
1
10
147.610107324632
20
2.36614335495705
30
0
41
1
10
147.668113120551
20
2.0511967333309
30
0
41
1
10
147.784124712388
20
1.42321495338726
30
0
41
1
10
147.842130508306
20
1.11019663462412
30
0
41
1
10
147.929139202184
20
0.647797533489268
30
0
41
1
10
147.958142100143
20
0.494840816947146
30
0
41
1
10
148.001646447082
20
0.267764751327434
30
0
41
1
10
148.016147896062
20
0.192465061484427
30
0
41
1
10
148.045150794021
20
0.0427392554390735
30
0
41
1
10
148.059652243001
20
-0.0314363665126791
30
0
41
1
10
148.132159487899
20
-0.405529733829979
30
0
41
1
10
148.190165283818
20
-0.711894902692677
30
0
41
1
10
148.306176875655
20
-1.33248899654919
30
0
41
1
10
148.364182671573
20
-1.64670834205816
30
0
41
1
10
148.480194263411
20
-2.27508269376057
30
0
41
1
10
148.538200059329
20
-2.58921864098875
30
0
41
1
10
148.654211651166
20
-3.20831721748243
30
0
41
1
10
148.712217447085
20
-3.51325273534653
30
0
41
1
10
148.770223243004
20
-3.80880704353572
30
0
0
SPLINE
5
DD
100
AcDbEntity
8
1
62
256
6
ByLayer
370
13
48
1
60
0
100
AcDbSpline
70
4
71
3
72
42
73
38
40
0
40
0
40
0
40
0
40
0.0625000000000008
40
0.0625000000000008
40
0.125000000000002
40
0.125000000000002
40
0.187500000000002
40
0.187500000000002
40
0.250000000000003
40
0.250000000000003
40
0.265625000000003
40
0.265625000000003
40
0.281250000000003
40
0.281250000000003
40
0.312500000000003
40
0.312500000000003
40
0.375000000000003
40
0.375000000000003
40
0.437500000000003
40
0.437500000000003
40
0.500000000000002
40
0.500000000000002
40
0.562500000000002
40
0.562500000000002
40
0.625000000000002
40
0.625000000000002
40
0.687500000000001
40
0.687500000000001
40
0.750000000000001
40
0.750000000000001
40
0.812500000000001
40
0.812500000000001
40
0.875000000000001
40
0.875000000000001
40
0.9375
40
0.9375
40
1
40
1
40
1
40
1
41
1
10
140.5
20
-3.80881125742448
30
0
41
1
10
140.558005813148
20
-3.51325695059623
30
0
41
1
10
140.616011626296
20
-3.20832140585097
30
0
41
1
10
140.732023252593
20
-2.58922272778955
30
0
41
1
10
140.790029065741
20
-2.27508670594355
30
0
41
1
10
140.906040692037
20
-1.64671216908593
30
0
41
1
10
140.964046505186
20
-1.33249271310612
30
0
41
1
10
141.080058131482
20
-0.711898375274501
30
0
41
1
10
141.13806394463
20
-0.405533072957923
30
0
41
1
10
141.210571211066
20
-0.0314395319807943
30
0
41
1
10
141.225072664353
20
0.0427361100087751
30
0
41
1
10
141.254075570927
20
0.192461936152455
30
0
41
1
10
141.268577024214
20
0.267761636900929
30
0
41
1
10
141.312081384075
20
0.494837737829272
30
0
41
1
10
141.341084290649
20
0.647794481371818
30
0
41
1
10
141.428093010371
20
1.11019367390728
30
0
41
1
10
141.48609882352
20
1.42321206756347
30
0
41
1
10
141.602110449816
20
2.05119402321668
30
0
41
1
10
141.660116262964
20
2.36614074566242
30
0
41
1
10
141.77612788926
20
2.98909668424531
30
0
41
1
10
141.834133702409
20
3.29708042747276
30
0
41
1
10
141.950145328705
20
3.89655961020318
30
0
41
1
10
142.008151141853
20
4.188024399412
30
0
41
1
10
142.12416276815
20
4.74510463430559
30
0
41
1
10
142.182168581298
20
5.0106898486178
30
0
41
1
10
142.298180207594
20
5.50777613154418
30
0
41
1
10
142.356186020743
20
5.73925355648126
30
0
41
1
10
142.472197647039
20
6.16184735625305
30
0
41
1
10
142.530203460187
20
6.35295136849399
30
0
41
1
10
142.646215086484
20
6.69103531899438
30
0
41
1
10
142.704220899632
20
6.83801584642231
30
0
41
1
10
142.820232525928
20
7.08678349544911
30
0
41
1
10
142.878238339076
20
7.18858250816575
30
0
41
1
10
142.994249965373
20
7.3484150135312
30
0
41
1
10
143.052255778521
20
7.40646770752107
30
0
41
1
10
143.168267404817
20
7.48224930468643
30
0
41
1
10
143.226273217966
20
7.5
30
0
41
1
10
143.284279031114
20
7.5
30
0
0
SPLINE
5
DE
100
AcDbEntity
8
1
62
256
6
ByLayer
370
13
48
1
60
0
100
AcDbSpline
70
4
71
3
72
43
73
39
40
0
40
0
40
0
40
0
40
0.0625000000000003
40
0.0625000000000003
40
0.125000000000001
40
0.125000000000001
40
0.187500000000001
40
0.187500000000001
40
0.250000000000001
40
0.250000000000001
40
0.312500000000001
40
0.312500000000001
40
0.375000000000002
40
0.375000000000002
40
0.437500000000002
40
0.437500000000002
40
0.500000000000002
40
0.500000000000002
40
0.562500000000003
40
0.562500000000003
40
0.625000000000003
40
0.625000000000003
40
0.632812500000003
40
0.632812500000003
40
0.640625000000003
40
0.656250000000003
40
0.656250000000003
40
0.687500000000003
40
0.687500000000003
40
0.750000000000002
40
0.750000000000002
40
0.812500000000002
40
0.812500000000002
40
0.875000000000001
40
0.875000000000001
40
0.937500000000001
40
0.937500000000001
40
1
40
1
40
1
40
1
41
1
10
145.487222800239
20
7.5
30
0
41
1
10
145.555618642797
20
7.5
30
0
41
1
10
145.624014485354
20
7.47529476364372
30
0
41
1
10
145.76080617047
20
7.36880828791868
30
0
41
1
10
145.829202013027
20
7.28697786667496
30
0
41
1
10
145.965993698142
20
7.06135917332855
30
0
41
1
10
146.0343895407
20
6.91753207672079
30
0
41
1
10
146.171181225815
20
6.56728982322952
30
0
41
1
10
146.239577068373
20
6.36086066557095
30
0
41
1
10
146.376368753488
20
5.8898822752096
30
0
41
1
10
146.444764596045
20
5.62535286382919
30
0
41
1
10
146.58155628116
20
5.04767872945718
30
0
41
1
10
146.649952123718
20
4.73458542115108
30
0
41
1
10
146.786743808833
20
4.07323541925004
30
0
41
1
10
146.855139651391
20
3.7250479292224
30
0
41
1
10
146.991931336506
20
3.00903677030448
30
0
41
1
10
147.060327179064
20
2.64128080190025
30
0
41
1
10
147.197118864179
20
1.90160592341255
30
0
41
1
10
147.265514706737
20
1.52973706565859
30
0
41
1
10
147.402306391852
20
0.795433398554195
30
0
41
1
10
147.470702234409
20
0.433023683341219
30
0
41
1
10
147.547647557287
20
0.0365675167066684
30
0
41
1
10
147.556197037606
20
-0.0072256795382373
30
0
41
1
10
147.573295998246
20
-0.0951888597958259
30
0
41
1
10
147.598944439205
20
-0.22760172670894
30
0
41
1
10
147.624592880164
20
-0.361341516081723
30
0
41
1
10
147.675889762082
20
-0.630365383769629
30
0
41
1
10
147.710087683361
20
-0.811780029295988
30
0
41
1
10
147.812681447197
20
-1.36018578725904
30
0
41
1
10
147.881077289755
20
-1.73142163037045
30
0
41
1
10
148.01786897487
20
-2.47206030358254
30
0
41
1
10
148.086264817428
20
-2.8414166719655
30
0
41
1
10
148.223056502543
20
-3.56304474086483
30
0
41
1
10
148.2914523451
20
-3.91525057347391
30
0
41
1
10
148.428244030216
20
-4.58693118236965
30
0
41
1
10
148.496639872773
20
-4.9063357178886
30
0
41
1
10
148.633431557888
20
-5.49848019167919
30
0
41
1
10
148.701827400446
20
-5.77116487013927
30
0
41
1
10
148.770223243004
20
-6.01538576034937
30
0
0
SPLINE
5
DF
100
AcDbEntity
8
1
62
256
6
ByLayer
370
13
48
1
60
0
100
AcDbSpline
70
4
71
3
72
42
73
38
40
0
40
0
40
0
40
0
40
0.0625000000000003
40
0.0625000000000003
40
0.0937500000000004
40
0.0937500000000004
40
0.109375
40
0.109375
40
0.124999999999999
40
0.124999999999999
40
0.187499999999999
40
0.187499999999999
40
0.249999999999999
40
0.249999999999999
40
0.3125
40
0.3125
40
0.375
40
0.375
40
0.4375
40
0.4375
40
0.5
40
0.5
40
0.5625
40
0.5625
40
0.625
40
0.625
40
0.6875
40
0.6875
40
0.75
40
0.75
40
0.8125
40
0.8125
40
0.875
40
0.875
40
0.9375
40
0.9375
40
1
40
1
40
1
40
1
41
1
10
140.5
20
-1.14719733780132
30
0
41
1
10
140.547615766509
20
-0.891684298469073
30
0
41
1
10
140.595231533018
20
-0.638476332594649
30
0
41
1
10
140.666655182782
20
-0.26490053899056
30
0
41
1
10
140.690463066037
20
-0.141408708287031
30
0
41
1
10
140.726174890919
20
0.0419865176725693
30
0
41
1
10
140.738078832546
20
0.103191764854415
30
0
41
1
10
140.7618867158
20
0.226396294912263
30
0
41
1
10
140.773790657428
20
0.288286727753928
30
0
41
1
10
140.833310365564
20
0.599055640236116
30
0
41
1
10
140.880926132074
20
0.851914440960599
30
0
41
1
10
140.976157665092
20
1.36245446386405
30
0
41
1
10
141.023773431601
20
1.62013180089795
30
0
41
1
10
141.11900496462
20
2.13592311058372
30
0
41
1
10
141.166620731129
20
2.39403027636476
30
0
41
1
10
141.261852264147
20
2.90573695292363
30
0
41
1
10
141.309468030656
20
3.15932703110673
30
0
41
1
10
141.404699563675
20
3.65674202782307
30
0
41
1
10
141.452315330184
20
3.9005557415968
30
0
41
1
10
141.547546863202
20
4.37316072524499
30
0
41
1
10
141.595162629711
20
4.60194035158298
30
0
41
1
10
141.69039416273
20
5.03956840388813
30
0
41
1
10
141.738009929239
20
5.24840632291884
30
0
41
1
10
141.833241462257
20
5.64192921217389
30
0
41
1
10
141.880857228767
20
5.82660628487821
30
0
41
1
10
141.976088761785
20
6.16855427411772
30
0
41
1
10
142.023704528294
20
6.32582092963068
30
0
41
1
10
142.118936061312
20
6.61084923434245
30
0
41
1
10
142.166551827822
20
6.7386106164592
30
0
41
1
10
142.26178336084
20
6.96375250509854
30
0
41
1
10
142.309399127349
20
7.06113639416392
30
0
41
1
10
142.404630660368
20
7.22582171276633
30
0
41
1
10
142.452246426877
20
7.29312928297574
30
0
41
1
10
142.547477959895
20
7.39898793928518
30
0
41
1
10
142.595093726404
20
7.43754675340372
30
0
41
1
10
142.690325259423
20
7.48804871065349
30
0
41
1
10
142.737941025932
20
7.5
30
0
41
1
10
142.785556792441
20
7.5
30
0
0
SPLINE
5
E0
100
AcDbEntity
8
1
62
256
6
ByLayer
370
13
48
1
60
0
100
AcDbSpline
70
4
71
3
72
42
73
38
40
0
40
0
40
0
40
0
40
0.0625000000000007
40
0.0625000000000007
40
0.125000000000001
40
0.125000000000001
40
0.187500000000002
40
0.187500000000002
40
0.250000000000003
40
0.250000000000003
40
0.312500000000004
40
0.312500000000004
40
0.375000000000004
40
0.375000000000004
40
0.437500000000005
40
0.437500000000005
40
0.500000000000006
40
0.500000000000006
40
0.531250000000006
40
0.531250000000006
40
0.546875000000006
40
0.546875000000006
40
0.562500000000006
40
0.562500000000006
40
0.625000000000005
40
0.625000000000005
40
0.687500000000004
40
0.687500000000004
40
0.750000000000003
40
0.750000000000003
40
0.812500000000002
40
0.812500000000002
40
0.875000000000002
40
0.875000000000002
40
0.937500000000001
40
0.937500000000001
40
1
40
1
40
1
40
1
41
1
10
144.988500561566
20
7.5
30
0
41
1
10
145.067286450763
20
7.5
30
0
41
1
10
145.14607233996
20
7.46717604785755
30
0
41
1
10
145.303644118353
20
7.32443736487474
30
0
41
1
10
145.382430007549
20
7.21442460619377
30
0
41
1
10
145.540001785943
20
6.91112784654987
30
0
41
1
10
145.618787675139
20
6.71777796710867
30
0
41
1
10
145.776359453533
20
6.24968558358637
30
0
41
1
10
145.855145342729
20
5.97494501914559
30
0
41
1
10
146.012717121122
20
5.35509277806622
30
0
41
1
10
146.091503010319
20
5.01006211090657
30
0
41
1
10
146.249074788712
20
4.26855875781229
30
0
41
1
10
146.327860677909
20
3.87222057943302
30
0
41
1
10
146.485432456302
20
3.05157342662452
30
0
41
1
10
146.564218345498
20
2.62740300758676
30
0
41
1
10
146.721790123892
20
1.77480869984834
30
0
41
1
10
146.800576013088
20
1.34648313151024
30
0
41
1
10
146.918754846883
20
0.715997956463951
30
0
41
1
10
146.958147791482
20
0.507800517675321
30
0
41
1
10
147.017237208379
20
0.199958211395483
30
0
41
1
10
147.036933680678
20
0.0981159591469805
30
0
41
1
10
147.076326625276
20
-0.104003449471492
30
0
41
1
10
147.096023097576
20
-0.20590893592933
30
0
41
1
10
147.194505459071
20
-0.719122653683655
30
0
41
1
10
147.273291348268
20
-1.14170945448154
30
0
41
1
10
147.430863126661
20
-1.99340695015556
30
0
41
1
10
147.509649015858
20
-2.42244779346345
30
0
41
1
10
147.667220794251
20
-3.26477750594668
30
0
41
1
10
147.746006683448
20
-3.67794358549836
30
0
41
1
10
147.903578461841
20
-4.4644381606461
30
0
41
1
10
147.982364351037
20
-4.83762358181349
30
0
41
1
10
148.139936129431
20
-5.52240306305643
30
0
41
1
10
148.218722018627
20
-5.83388434093078
30
0
41
1
10
148.376293797021
20
-6.37987174640497
30
0
41
1
10
148.455079686217
20
-6.61433591145999
30
0
41
1
10
148.61265146461
20
-6.99972818883438
30
0
41
1
10
148.691437353807
20
-7.15069206841781
30
0
41
1
10
148.770223243003
20
-7.26106040148562
30
0
0
SPLINE
5
E1
100
AcDbEntity
8
1
62
256
6
ByLayer
370
13
48
1
60
0
100
AcDbSpline
70
4
71
3
72
22
73
18
40
0
40
0
40
0
40
0
40
0.125
40
0.125
40
0.25
40
0.25
40
0.375
40
0.375
40
0.5
40
0.5
40
0.625
40
0.625
40
0.75
40
0.75
40
0.875
40
0.875
40
1
40
1
40
1
40
1
41
1
10
140.5
20
1.48490257256401
30
0
41
1
10
140.57445143974
20
1.88691185140954
30
0
41
1
10
140.648902879481
20
2.29234229646735
30
0
41
1
10
140.797805758961
20
3.09163687423907
30
0
41
1
10
140.872257198702
20
3.48541226121574
30
0
41
1
10
141.021160078182
20
4.24110146050191
30
0
41
1
10
141.095611517923
20
4.60290733175182
30
0
41
1
10
141.244514397403
20
5.27562049602892
30
0
41
1
10
141.318965837144
20
5.58643401565422
30
0
41
1
10
141.467868716624
20
6.14254509740331
30
0
41
1
10
141.542320156365
20
6.38779395761392
30
0
41
1
10
141.691223035845
20
6.80482268464024
30
0
41
1
10
141.765674475586
20
6.97661087327563
30
0
41
1
10
141.914577355067
20
7.24605834740993
30
0
41
1
10
141.989028794807
20
7.34377157171957
30
0
41
1
10
142.137931674288
20
7.47070515834372
30
0
41
1
10
142.212383114028
20
7.5
30
0
41
1
10
142.286834553768
20
7.5
30
0
0
SPLINE
5
E2
100
AcDbEntity
8
1
62
256
6
ByLayer
370
13
48
1
60
0
100
AcDbSpline
70
4
71
3
72
72
73
68
40
0
40
0
40
0
40
0
40
0.0625000000000025
40
0.0625000000000025
40
0.0937500000000037
40
0.0937500000000037
40
0.125000000000005
40
0.125000000000005
40
0.156250000000006
40
0.156250000000006
40
0.187500000000007
40
0.187500000000007
40
0.218750000000009
40
0.218750000000009
40
0.25000000000001
40
0.25000000000001
40
0.281250000000011
40
0.281250000000011
40
0.312500000000013
40
0.312500000000013
40
0.343750000000014
40
0.343750000000014
40
0.375000000000015
40
0.375000000000015
40
0.406250000000017
40
0.406250000000017
40
0.437500000000018
40
0.437500000000018
40
0.468750000000019
40
0.468750000000019
40
0.476562500000019
40
0.476562500000019
40
0.484375000000019
40
0.484375000000019
40
0.500000000000018
40
0.500000000000018
40
0.562500000000015
40
0.562500000000015
40
0.593750000000014
40
0.593750000000014
40
0.625000000000012
40
0.625000000000012
40
0.656250000000011
40
0.656250000000011
40
0.687500000000009
40
0.687500000000009
40
0.718750000000008
40
0.718750000000008
40
0.750000000000006
40
0.750000000000006
40
0.781250000000004
40
0.781250000000004
40
0.812500000000003
40
0.812500000000003
40
0.843750000000001
40
0.843750000000001
40
0.875
40
0.875
40
0.937499999999997
40
0.937499999999997
40
0.953124999999997
40
0.953124999999997
40
0.960937499999997
40
0.960937499999997
40
0.968749999999997
40
0.968749999999997
40
1
40
1
40
1
40
1
41
1
10
144.489778322894
20
7.5
30
0
41
1
10
144.578954258729
20
7.5
30
0
41
1
10
144.668130194565
20
7.45788181854857
30
0
41
1
10
144.801894098318
20
7.31939711711658
30
0
41
1
10
144.846482066236
20
7.26073355440471
30
0
41
1
10
144.935658002072
20
7.11720471916837
30
0
41
1
10
144.98024596999
20
7.03233473451354
30
0
41
1
10
145.069421905825
20
6.83594432033993
30
0
41
1
10
145.114009873743
20
6.72442087346482
30
0
41
1
10
145.203185809579
20
6.47515393206319
30
0
41
1
10
145.247773777496
20
6.33740974307409
30
0
41
1
10
145.336949713332
20
6.03706877066205
30
0
41
1
10
145.38153768125
20
5.87447396023975
30
0
41
1
10
145.470713617085
20
5.52671807511268
30
0
41
1
10
145.515301585003
20
5.34156158934798
30
0
41
1
10
145.604477520839
20
4.95178851317911
30
0
41
1
10
145.649065488757
20
4.74717865509396
30
0
41
1
10
145.738241424592
20
4.3222527721409
30
0
41
1
10
145.78282939251
20
4.10194480924048
30
0
41
1
10
145.872005328346
20
3.64979908163528
30
0
41
1
10
145.916593296264
20
3.41796971882758
30
0
41
1
10
146.005769232099
20
2.94712908899331
30
0
41
1
10
146.050357200017
20
2.70812559865078
30
0
41
1
10
146.139533135853
20
2.22720981398385
30
0
41
1
10
146.184121103771
20
1.98530390690985
30
0
41
1
10
146.273297039606
20
1.50256640411507
30
0
41
1
10
146.317885007524
20
1.26173934979894
30
0
41
1
10
146.40706094336
20
0.78468728473598
30
0
41
1
10
146.451648911277
20
0.548464842351848
30
0
41
1
10
146.507383871175
20
0.257916503900248
30
0
41
1
10
146.518530863154
20
0.200041867326547
30
0
41
1
10
146.540824847113
20
0.084803022391128
30
0
41
1
10
146.551971839092
20
0.0275776173086228
30
0
41
1
10
146.585412815031
20
-0.14425473248653
30
0
41
1
10
146.60770679899
20
-0.25988189399979
30
0
41
1
10
146.719176718784
20
-0.842579092351372
30
0
41
1
10
146.80835265462
20
-1.32368502742014
30
0
41
1
10
146.942116558373
20
-2.04801909787631
30
0
41
1
10
146.986704526291
20
-2.28983669821622
30
0
41
1
10
147.075880462127
20
-2.77021524800295
30
0
41
1
10
147.120468430044
20
-3.00876966720327
30
0
41
1
10
147.20964436588
20
-3.478335853049
30
0
41
1
10
147.254232333798
20
-3.7093397548976
30
0
41
1
10
147.343408269634
20
-4.15946294353674
30
0
41
1
10
147.387996237551
20
-4.37857381799734
30
0
41
1
10
147.477172173387
20
-4.80076051409637
30
0
41
1
10
147.521760141305
20
-5.003828350833
30
0
41
1
10
147.61093607714
20
-5.39021992704755
30
0
41
1
10
147.655524045058
20
-5.57353709138215
30
0
41
1
10
147.744699980894
20
-5.91738181493679
30
0
41
1
10
147.789287948812
20
-6.07790499857643
30
0
41
1
10
147.878463884647
20
-6.37394685780336
30
0
41
1
10
147.923051852565
20
-6.50946379519951
30
0
41
1
10
148.012227788401
20
-6.75420188911954
30
0
41
1
10
148.056815756319
20
-6.86342395965195
30
0
41
1
10
148.145991692154
20
-7.05521669257718
30
0
41
1
10
148.190579660072
20
-7.13779054666063
30
0
41
1
10
148.324343563825
20
-7.34630996652837
30
0
41
1
10
148.413519499661
20
-7.43277360067628
30
0
41
1
10
148.524989419456
20
-7.4829578517423
30
0
41
1
10
148.547283403414
20
-7.4901219641356
30
0
41
1
10
148.580724379353
20
-7.49676264977407
30
0
41
1
10
148.591871371332
20
-7.49829214838979
30
0
41
1
10
148.614165355291
20
-7.50001893555094
30
0
41
1
10
148.625312347271
20
-7.50021913985987
30
0
41
1
10
148.681047307168
20
-7.49794541156007
30
0
41
1
10
148.725635275086
20
-7.48554581332186
30
0
41
1
10
148.770223243004
20
-7.46146731630571
30
0
0
SPLINE
5
E3
100
AcDbEntity
8
1
62
256
6
ByLayer
370
13
48
1
60
0
100
AcDbSpline
70
4
71
3
72
22
73
18
40
0
40
0
40
0
40
0
40
0.125
40
0.125
40
0.25
40
0.25
40
0.375
40
0.375
40
0.5
40
0.5
40
0.625
40
0.625
40
0.75
40
0.75
40
0.875
40
0.875
40
1
40
1
40
1
40
1
41
1
10
140.5
20
4.1245110950386
30
0
41
1
10
140.553671346462
20
4.39115912373452
30
0
41
1
10
140.607342692925
20
4.64829797137816
30
0
41
1
10
140.714685385849
20
5.13659915819014
30
0
41
1
10
140.768356732312
20
5.36774281412968
30
0
41
1
10
140.875699425236
20
5.79821673685021
30
0
41
1
10
140.929370771699
20
5.99753409482216
30
0
41
1
10
141.036713464623
20
6.36016803022989
30
0
41
1
10
141.090384811085
20
6.52347949732999
30
0
41
1
10
141.19772750401
20
6.81184032812044
30
0
41
1
10
141.251398850472
20
6.93689260283941
30
0
41
1
10
141.358741543397
20
7.14843187758296
30
0
41
1
10
141.412412889859
20
7.23492834522526
30
0
41
1
10
141.519755582784
20
7.37081824633651
30
0
41
1
10
141.573426929246
20
7.42022518797049
30
0
41
1
10
141.680769622171
20
7.48480866013151
30
0
41
1
10
141.734440968633
20
7.5
30
0
41
1
10
141.788112315095
20
7.5
30
0
0
SPLINE
5
E4
100
AcDbEntity
8
1
62
256
6
ByLayer
370
13
48
1
60
0
100
AcDbSpline
70
4
71
3
72
78
73
74
40
0
40
0
40
0
40
0
40
0.0312500000000014
40
0.0312500000000014
40
0.0625000000000027
40
0.0625000000000027
40
0.0937500000000041
40
0.0937500000000041
40
0.125000000000005
40
0.125000000000005
40
0.156250000000007
40
0.156250000000007
40
0.187500000000008
40
0.187500000000008
40
0.21875000000001
40
0.21875000000001
40
0.250000000000011
40
0.250000000000011
40
0.281250000000012
40
0.281250000000012
40
0.312500000000014
40
0.312500000000014
40
0.343750000000015
40
0.343750000000015
40
0.375000000000017
40
0.375000000000017
40
0.406250000000018
40
0.406250000000018
40
0.421875000000019
40
0.421875000000019
40
0.429687500000019
40
0.429687500000019
40
0.437500000000019
40
0.437500000000019
40
0.468750000000018
40
0.468750000000018
40
0.500000000000017
40
0.500000000000017
40
0.531250000000016
40
0.531250000000016
40
0.562500000000015
40
0.562500000000015
40
0.593750000000014
40
0.593750000000014
40
0.625000000000012
40
0.625000000000012
40
0.656250000000011
40
0.656250000000011
40
0.68750000000001
40
0.68750000000001
40
0.718750000000009
40
0.718750000000009
40
0.750000000000008
40
0.750000000000008
40
0.781250000000006
40
0.781250000000006
40
0.812500000000005
40
0.812500000000005
40
0.843750000000004
40
0.843750000000004
40
0.859375000000004
40
0.859375000000004
40
0.867187500000003
40
0.867187500000003
40
0.875000000000002
40
0.875000000000002
40
0.906250000000002
40
0.906250000000002
40
0.937500000000001
40
0.937500000000001
40
0.968750000000001
40
0.968750000000001
40
1
40
1
40
1
40
1
41
1
10
143.991056084221
20
7.5
30
0
41
1
10
144.040839075458
20
7.5
30
0
41
1
10
144.090622066695
20
7.4869340066779
30
0
41
1
10
144.19018804917
20
7.43160039474876
30
0
41
1
10
144.239971040407
20
7.3893225999924
30
0
41
1
10
144.339537022882
20
7.27317147199531
30
0
41
1
10
144.389320014119
20
7.19928860891787
30
0
41
1
10
144.488885996594
20
7.0185293047484
30
0
41
1
10
144.538668987831
20
6.91164558711503
30
0
41
1
10
144.638234970306
20
6.66474091995173
30
0
41
1
10
144.688017961543
20
6.52471651259927
30
0
41
1
10
144.787583944018
20
6.21280807187449
30
0
41
1
10
144.837366935255
20
6.04092550085392
30
0
41
1
10
144.93693291773
20
5.66803315649744
30
0
41
1
10
144.986715908967
20
5.46703002620811
30
0
41
1
10
145.086281891442
20
5.03996228124501
30
0
41
1
10
145.136064882679
20
4.81390873777227
30
0
41
1
10
145.235630865154
20
4.34186955350737
30
0
41
1
10
145.285413856391
20
4.09589777648759
30
0
41
1
10
145.384979838866
20
3.58983408712706
30
0
41
1
10
145.434762830103
20
3.32975671703556
30
0
41
1
10
145.534328812578
20
2.80154184037346
30
0
41
1
10
145.584111803815
20
2.53341749261219
30
0
41
1
10
145.68367778629
20
1.99499344090634
30
0
41
1
10
145.733460777527
20
1.72470396482046
30
0
41
1
10
145.833026760002
20
1.18730303198754
30
0
41
1
10
145.882809751239
20
0.920198088335837
30
0
41
1
10
145.957484238095
20
0.525350603157648
30
0
41
1
10
145.982375733713
20
0.394696377722852
30
0
41
1
10
146.019712977142
20
0.200520862980085
30
0
41
1
10
146.032158724951
20
0.136096203484556
30
0
41
1
10
146.05705022057
20
0.0079029240800992
30
0
41
1
10
146.069495968379
20
-0.0558129025318692
30
0
41
1
10
146.131724707426
20
-0.377106384055651
30
0
41
1
10
146.181507698663
20
-0.639319095831212
30
0
41
1
10
146.281073681137
20
-1.17016652886403
30
0
41
1
10
146.330856672375
20
-1.4387973430305
30
0
41
1
10
146.430422654849
20
-1.97765455412068
30
0
41
1
10
146.480205646087
20
-2.24787324172351
30
0
41
1
10
146.579771628561
20
-2.78436141568935
30
0
41
1
10
146.629554619799
20
-3.05061963625462
30
0
41
1
10
146.729120602273
20
-3.57321006887469
30
0
41
1
10
146.778903593511
20
-3.82952849224574
30
0
41
1
10
146.878469575985
20
-4.32621113837737
30
0
41
1
10
146.928252567223
20
-4.56656079638265
30
0
41
1
10
147.027818549697
20
-5.02565903183526
30
0
41
1
10
147.077601540935
20
-5.24439440321819
30
0
41
1
10
147.177167523409
20
-5.65542353303718
30
0
41
1
10
147.226950514646
20
-5.84770746361704
30
0
41
1
10
147.326516497121
20
-6.2021525291587
30
0
41
1
10
147.376299488359
20
-6.36430860675463
30
0
41
1
10
147.475865470833
20
-6.65620402757847
30
0
41
1
10
147.52564846207
20
-6.78594351899915
30
0
41
1
10
147.625214444545
20
-7.01217341989653
30
0
41
1
10
147.674997435782
20
-7.10866862891893
30
0
41
1
10
147.774563418257
20
-7.26896197266623
30
0
41
1
10
147.824346409494
20
-7.33276826596872
30
0
41
1
10
147.923912391969
20
-7.42942021685076
30
0
41
1
10
147.973695383206
20
-7.46227577045221
30
0
41
1
10
148.048369870062
20
-7.49032134168226
30
0
41
1
10
148.073261365681
20
-7.49613636198291
30
0
41
1
10
148.110598609109
20
-7.49985007056031
30
0
41
1
10
148.123044356918
20
-7.50025585353907
30
0
41
1
10
148.147935852537
20
-7.49943839005627
30
0
41
1
10
148.160381600346
20
-7.49820786443786
30
0
41
1
10
148.222610339393
20
-7.48782001695383
30
0
41
1
10
148.27239333063
20
-7.46593289206831
30
0
41
1
10
148.371959313105
20
-7.39212001096303
30
0
41
1
10
148.421742304342
20
-7.34018412036389
30
0
41
1
10
148.521308286817
20
-7.20415961765326
30
0
41
1
10
148.571091278054
20
-7.12006200121817
30
0
41
1
10
148.670657260529
20
-6.91868348495396
30
0
41
1
10
148.720440251766
20
-6.80139634665687
30
0
41
1
10
148.770223243003
20
-6.66766157898246
30
0
0
SPLINE
5
E5
100
AcDbEntity
8
1
62
256
6
ByLayer
370
13
48
1
60
0
100
AcDbSpline
70
4
71
3
72
14
73
10
40
0
40
0
40
0
40
0
40
0.25
40
0.25
40
0.5
40
0.5
40
0.75
40
0.75
40
1
40
1
40
1
40
1
41
1
10
140.5
20
6.23131152796651
30
0
41
1
10
140.565782506369
20
6.44924631984088
30
0
41
1
10
140.631565012737
20
6.63984136030155
30
0
41
1
10
140.763130025474
20
6.96296834820564
30
0
41
1
10
140.828912531843
20
7.09551470459996
30
0
41
1
10
140.96047754458
20
7.30346764052101
30
0
41
1
10
141.026260050948
20
7.37890730663176
30
0
41
1
10
141.157825063685
20
7.47715318367162
30
0
41
1
10
141.223607570054
20
7.5
30
0
41
1
10
141.289390076423
20
7.5
30
0
0
SPLINE
5
E6
100
AcDbEntity
8
1
62
256
6
ByLayer
370
13
48
1
60
0
100
AcDbSpline
70
4
71
3
72
77
73
73
40
0
40
0
40
0
40
0
40
0.0312500000000004
40
0.0312500000000004
40
0.0625000000000009
40
0.0625000000000009
40
0.0937500000000013
40
0.0937500000000013
40
0.125000000000002
40
0.125000000000002
40
0.156250000000002
40
0.156250000000002
40
0.187500000000003
40
0.187500000000003
40
0.218750000000003
40
0.218750000000003
40
0.250000000000004
40
0.250000000000004
40
0.281250000000004
40
0.281250000000004
40
0.312500000000004
40
0.312500000000004
40
0.343750000000005
40
0.343750000000005
40
0.375000000000005
40
0.375000000000005
40
0.390625000000006
40
0.390625000000006
40
0.398437500000005
40
0.398437500000005
40
0.406250000000005
40
0.406250000000005
40
0.437500000000005
40
0.437500000000005
40
0.468750000000005
40
0.468750000000005
40
0.500000000000005
40
0.500000000000005
40
0.531250000000005
40
0.531250000000005
40
0.562500000000004
40
0.562500000000004
40
0.593750000000004
40
0.593750000000004
40
0.625000000000004
40
0.625000000000004
40
0.656250000000004
40
0.656250000000004
40
0.687500000000004
40
0.687500000000004
40
0.718750000000004
40
0.718750000000004
40
0.750000000000004
40
0.750000000000004
40
0.781250000000004
40
0.781250000000004
40
0.789062500000004
40
0.789062500000004
40
0.796875000000004
40
0.812500000000004
40
0.812500000000004
40
0.843750000000003
40
0.843750000000003
40
0.875000000000003
40
0.875000000000003
40
0.906250000000002
40
0.906250000000002
40
0.937500000000001
40
0.937500000000001
40
0.968750000000001
40
0.968750000000001
40
1
40
1
40
1
40
1
41
1
10
143.492333845548
20
7.5
30
0
41
1
10
143.547311860105
20
7.5
30
0
41
1
10
143.602289874662
20
7.48405824801503
30
0
41
1
10
143.712245903775
20
7.41619785970249
30
0
41
1
10
143.767223918332
20
7.36426252948974
30
0
41
1
10
143.877179947446
20
7.22137080422416
30
0
41
1
10
143.932157962003
20
7.13039933089843
30
0
41
1
10
144.042113991116
20
6.90795953220726
30
0
41
1
10
144.097092005673
20
6.77648098892467
30
0
41
1
10
144.207048034787
20
6.47351189352858
30
0
41
1
10
144.262026049344
20
6.30201889688809
30
0
41
1
10
144.371982078457
20
5.9216667975808
30
0
41
1
10
144.426960093014
20
5.71281458355881
30
0
41
1
10
144.536916122128
20
5.26248862478232
30
0
41
1
10
144.591894136685
20
5.02103057017518
30
0
41
1
10
144.701850165798
20
4.51199321267444
30
0
41
1
10
144.756828180355
20
4.24443573505761
30
0
41
1
10
144.866784209469
20
3.69088058758791
30
0
41
1
10
144.921762224025
20
3.40490683079807
30
0
41
1
10
145.031718253139
20
2.82267836456947
30
0
41
1
10
145.086696267696
20
2.52644546473508
30
0
41
1
10
145.19665229681
20
1.93163446828493
30
0
41
1
10
145.251630311367
20
1.63307291096805
30
0
41
1
10
145.36158634048
20
1.04073069512359
30
0
41
1
10
145.416564355037
20
0.746959804336399
30
0
41
1
10
145.499031376872
20
0.314327368468156
30
0
41
1
10
145.526520384151
20
0.17144356256938
30
0
41
1
10
145.567753895068
20
-0.0404354301563501
30
0
41
1
10
145.581498398708
20
-0.111059181740529
30
0
41
1
10
145.608987405986
20
-0.253438426623973
30
0
41
1
10
145.622731909625
20
-0.325009240335476
30
0
41
1
10
145.691454427821
20
-0.684576202318965
30
0
41
1
10
145.746432442378
20
-0.977763799969495
30
0
41
1
10
145.856388471491
20
-1.56940383973705
30
0
41
1
10
145.911366486048
20
-1.86784700857709
30
0
41
1
10
146.021322515162
20
-2.46296113953434
30
0
41
1
10
146.076300529719
20
-2.75961601652836
30
0
41
1
10
146.186256558833
20
-3.34326893229289
30
0
41
1
10
146.241234573389
20
-3.63024545003387
30
0
41
1
10
146.351190602503
20
-4.18638064850717
30
0
41
1
10
146.40616861706
20
-4.45551543369032
30
0
41
1
10
146.516124646173
20
-4.96822446327414
30
0
41
1
10
146.57110266073
20
-5.21177659025577
30
0
41
1
10
146.681058689844
20
-5.6667028266954
30
0
41
1
10
146.736036704401
20
-5.87806069793669
30
0
41
1
10
146.845992733514
20
-6.26369677100874
30
0
41
1
10
146.900970748071
20
-6.43796741203153
30
0
41
1
10
147.010926777185
20
-6.7466093033687
30
0
41
1
10
147.065904791742
20
-6.88098236257667
30
0
41
1
10
147.175860820855
20
-7.10917810819362
30
0
41
1
10
147.230838835412
20
-7.20301054441631
30
0
41
1
10
147.340794864526
20
-7.35146209164702
30
0
41
1
10
147.395772879083
20
-7.40609604358249
30
0
41
1
10
147.505728908196
20
-7.47909488200631
30
0
41
1
10
147.560706922753
20
-7.49747644700136
30
0
41
1
10
147.629429440949
20
-7.50032655331898
30
0
41
1
10
147.643173944589
20
-7.49990241981644
30
0
41
1
10
147.670662951867
20
-7.49702421242765
30
0
41
1
10
147.711896462784
20
-7.489650709931
30
0
41
1
10
147.753129973702
20
-7.47280272408926
30
0
41
1
10
147.835596995537
20
-7.4257336084622
30
0
41
1
10
147.890575010094
20
-7.37648121929934
30
0
41
1
10
148.000531039208
20
-7.23912596889389
30
0
41
1
10
148.055509053765
20
-7.15100780890759
30
0
41
1
10
148.165465082878
20
-6.93431870877035
30
0
41
1
10
148.220443097435
20
-6.80573709786745
30
0
41
1
10
148.330399126549
20
-6.50845673276774
30
0
41
1
10
148.385377141106
20
-6.33975490667817
30
0
41
1
10
148.495333170219
20
-5.96472462603882
30
0
41
1
10
148.550311184776
20
-5.75840238529264
30
0
41
1
10
148.66026721389
20
-5.31273436399297
30
0
41
1
10
148.715245228447
20
-5.07340371162357
30
0
41
1
10
148.770223243003
20
-4.8207572281157
30
0
0
SPLINE
5
E7
100
AcDbEntity
8
1
62
256
6
ByLayer
370
13
48
1
60
0
100
AcDbSpline
70
4
71
3
72
10
73
6
40
0
40
0
40
0
40
0
40
0.5
40
0.5
40
1
40
1
40
1
40
1
41
1
10
140.5
20
7.3404782132595
30
0
41
1
10
140.548444639625
20
7.3953459064551
30
0
41
1
10
140.59688927925
20
7.43530567807989
30
0
41
1
10
140.6937785585
20
7.48762828461429
30
0
41
1
10
140.742223198125
20
7.5
30
0
41
1
10
140.79066783775
20
7.5
30
0
0
SPLINE
5
E8
100
AcDbEntity
8
1
62
256
6
ByLayer
370
13
48
1
60
0
100
AcDbSpline
70
4
71
3
72
78
73
74
40
0
40
0
40
0
40
0
40
0.0312500000000007
40
0.0312500000000007
40
0.0625000000000015
40
0.0625000000000015
40
0.0937500000000022
40
0.0937500000000022
40
0.125000000000003
40
0.125000000000003
40
0.156250000000004
40
0.156250000000004
40
0.187500000000004
40
0.187500000000004
40
0.218750000000005
40
0.218750000000005
40
0.250000000000006
40
0.250000000000006
40
0.281250000000007
40
0.281250000000007
40
0.312500000000007
40
0.312500000000007
40
0.343750000000008
40
0.343750000000008
40
0.351562500000008
40
0.351562500000008
40
0.359375000000008
40
0.359375000000008
40
0.375000000000008
40
0.375000000000008
40
0.406250000000007
40
0.406250000000007
40
0.437500000000007
40
0.437500000000007
40
0.468750000000007
40
0.468750000000007
40
0.500000000000007
40
0.500000000000007
40
0.531250000000006
40
0.531250000000006
40
0.562500000000006
40
0.562500000000006
40
0.593750000000005
40
0.593750000000005
40
0.625000000000005
40
0.625000000000005
40
0.656250000000005
40
0.656250000000005
40
0.687500000000004
40
0.687500000000004
40
0.703125000000004
40
0.703125000000004
40
0.710937500000004
40
0.710937500000004
40
0.718750000000003
40
0.718750000000003
40
0.750000000000003
40
0.750000000000003
40
0.781250000000003
40
0.781250000000003
40
0.812500000000002
40
0.812500000000002
40
0.843750000000002
40
0.843750000000002
40
0.875000000000001
40
0.875000000000001
40
0.906250000000001
40
0.906250000000001
40
0.937500000000001
40
0.937500000000001
40
0.96875
40
0.96875
40
1
40
1
40
1
40
1
41
1
10
142.993611606875
20
7.5
30
0
41
1
10
143.053784644751
20
7.5
30
0
41
1
10
143.113957682628
20
7.48089428976263
30
0
41
1
10
143.23430375838
20
7.39916010642361
30
0
41
1
10
143.294476796257
20
7.33650549275006
30
0
41
1
10
143.414822872009
20
7.16393082274701
30
0
41
1
10
143.474995909886
20
7.05398818016087
30
0
41
1
10
143.595341985638
20
6.78546523380152
30
0
41
1
10
143.655515023515
20
6.62687198159941
30
0
41
1
10
143.775861099268
20
6.26260267982454
30
0
41
1
10
143.836034137144
20
6.0569282174622
30
0
41
1
10
143.956380212897
20
5.60316553710274
30
0
41
1
10
144.016553250773
20
5.35509496846595
30
0
41
1
10
144.136899326526
20
4.82403650191739
30
0
41
1
10
144.197072364402
20
4.54107934853337
30
0
41
1
10
144.317418440155
20
3.94982973225322
30
0
41
1
10
144.377591478031
20
3.64157442060389
30
0
41
1
10
144.497937553784
20
3.01034907015565
30
0
41
1
10
144.55811059166
20
2.68741458404114
30
0
41
1
10
144.678456667412
20
2.03736852570646
30
0
41
1
10
144.738629705289
20
1.71028436003183
30
0
41
1
10
144.858975781042
20
1.06142629083274
30
0
41
1
10
144.919148818918
20
0.73966833101062
30
0
41
1
10
144.994365116263
20
0.345650591548917
30
0
41
1
10
145.009408375733
20
0.267251341386157
30
0
41
1
10
145.039494894671
20
0.111363267744622
30
0
41
1
10
145.05453815414
20
0.0341394722046573
30
0
41
1
10
145.099667932547
20
-0.197924290566277
30
0
41
1
10
145.129754451485
20
-0.354577903536239
30
0
41
1
10
145.2200140083
20
-0.829162241459244
30
0
41
1
10
145.280187046176
20
-1.1517745634747
30
0
41
1
10
145.400533121929
20
-1.80152390347348
30
0
41
1
10
145.460706159805
20
-2.12864386576268
30
0
41
1
10
145.581052235558
20
-2.77781254180951
30
0
41
1
10
145.641225273434
20
-3.09983289347639
30
0
41
1
10
145.761571349187
20
-3.72822759234575
30
0
41
1
10
145.821744387063
20
-4.03456592098942
30
0
41
1
10
145.942090462816
20
-4.62102648837984
30
0
41
1
10
146.002263500692
20
-4.9011118334889
30
0
41
1
10
146.122609576445
20
-5.42562346023573
30
0
41
1
10
146.182782614321
20
-5.6700199786379
30
0
41
1
10
146.303128690074
20
-6.11586890253048
30
0
41
1
10
146.36330172795
20
-6.31730510038818
30
0
41
1
10
146.483647803703
20
-6.67281790289647
30
0
41
1
10
146.543820841579
20
-6.82689440508921
30
0
41
1
10
146.664166917332
20
-7.08639210992777
30
0
41
1
10
146.724339955208
20
-7.19182740203632
30
0
41
1
10
146.844686030961
20
-7.35564563119823
30
0
41
1
10
146.904859068837
20
-7.41405174261706
30
0
41
1
10
146.995118625651
20
-7.46931224440499
30
0
41
1
10
147.02520514459
20
-7.48235674387914
30
0
41
1
10
147.070334922997
20
-7.49434035444179
30
0
41
1
10
147.085378182466
20
-7.49707171315075
30
0
41
1
10
147.115464701404
20
-7.50009524576245
30
0
41
1
10
147.130507960873
20
-7.50039541111451
30
0
41
1
10
147.205724258219
20
-7.49592238183018
30
0
41
1
10
147.265897296095
20
-7.472964534076
30
0
41
1
10
147.386243371848
20
-7.38309657380375
30
0
41
1
10
147.446416409724
20
-7.31616040632147
30
0
41
1
10
147.566762485477
20
-7.13478393230255
30
0
41
1
10
147.626935523353
20
-7.02032168202769
30
0
41
1
10
147.747281599106
20
-6.74277468801571
30
0
41
1
10
147.807454636982
20
-6.57967818114386
30
0
41
1
10
147.927800712735
20
-6.20670678564093
30
0
41
1
10
147.987973750611
20
-5.99683498313652
30
0
41
1
10
148.108319826364
20
-5.535265305042
30
0
41
1
10
148.16849286424
20
-5.28358649417629
30
0
41
1
10
148.288838939993
20
-4.74613115501032
30
0
41
1
10
148.349011977869
20
-4.46038629254426
30
0
41
1
10
148.469358053622
20
-3.86452490390104
30
0
41
1
10
148.529531091498
20
-3.55444571487536
30
0
41
1
10
148.649877167251
20
-2.92057508475969
30
0
41
1
10
148.710050205127
20
-2.5968186722501
30
0
41
1
10
148.770223243004
20
-2.2714444806476
30
0
0
SPLINE
5
E9
100
AcDbEntity
8
1
62
256
6
ByLayer
370
13
48
1
60
0
100
AcDbSpline
70
4
71
3
72
83
73
79
40
0
40
0
40
0
40
0
40
0.0312499999999997
40
0.0312499999999997
40
0.0624999999999995
40
0.0624999999999995
40
0.0937499999999992
40
0.0937499999999992
40
0.124999999999999
40
0.124999999999999
40
0.156249999999999
40
0.156249999999999
40
0.187499999999998
40
0.187499999999998
40
0.218749999999998
40
0.218749999999998
40
0.249999999999998
40
0.249999999999998
40
0.281249999999997
40
0.281249999999997
40
0.312499999999997
40
0.312499999999997
40
0.328124999999997
40
0.328124999999997
40
0.332031249999997
40
0.332031249999997
40
0.335937499999997
40
0.343749999999997
40
0.343749999999997
40
0.374999999999998
40
0.374999999999998
40
0.406249999999998
40
0.406249999999998
40
0.437499999999998
40
0.437499999999998
40
0.468749999999998
40
0.468749999999998
40
0.499999999999998
40
0.499999999999998
40
0.531249999999998
40
0.531249999999998
40
0.562499999999998
40
0.562499999999998
40
0.593749999999998
40
0.593749999999998
40
0.624999999999998
40
0.624999999999998
40
0.656249999999998
40
0.656249999999998
40
0.664062499999998
40
0.664062499999998
40
0.671874999999998
40
0.671874999999998
40
0.687499999999999
40
0.687499999999999
40
0.718749999999999
40
0.718749999999999
40
0.749999999999999
40
0.749999999999999
40
0.781249999999999
40
0.781249999999999
40
0.812499999999999
40
0.812499999999999
40
0.843749999999999
40
0.843749999999999
40
0.874999999999999
40
0.874999999999999
40
0.90625
40
0.90625
40
0.9375
40
0.9375
40
0.96875
40
0.96875
40
0.984375
40
0.984375
40
0.9921875
40
0.9921875
40
1
40
1
40
1
40
1
41
1
10
142.494889368202
20
7.5
30
0
41
1
10
142.560257429398
20
7.5
30
0
41
1
10
142.625625490594
20
7.47744115318528
30
0
41
1
10
142.756361612986
20
7.38047001585892
30
0
41
1
10
142.821729674182
20
7.30601836498167
30
0
41
1
10
142.952465796573
20
7.10079783795831
30
0
41
1
10
143.017833857769
20
6.96999673682711
30
0
41
1
10
143.148569980161
20
6.65107311274534
30
0
41
1
10
143.213938041357
20
6.46293619506443
30
0
41
1
10
143.344674163748
20
6.03253626134133
30
0
41
1
10
143.410042224944
20
5.79028411299373
30
0
41
1
10
143.540778347336
20
5.25912462816493
30
0
41
1
10
143.606146408532
20
4.97025342327217
30
0
41
1
10
143.736882530924
20
4.35688874567194
30
0
41
1
10
143.802250592119
20
4.03244819694774
30
0
41
1
10
143.932986714511
20
3.3611637628382
30
0
41
1
10
143.998354775707
20
3.01437591482113
30
0
41
1
10
144.129090898098
20
2.31211203459037
30
0
41
1
10
144.194458959294
20
1.95668201222395
30
0
41
1
10
144.325195081686
20
1.24976673469959
30
0
41
1
10
144.390563142882
20
0.898309615686543
30
0
41
1
10
144.488615234676
20
0.381893294370912
30
0
41
1
10
144.521299265274
20
0.211529545400339
30
0
41
1
10
144.562154303521
20
0.0014443128023913
30
0
41
1
10
144.570325311171
20
-0.0404229395159064
30
0
41
1
10
144.586667326469
20
-0.124632706132076
30
0
41
1
10
144.611180349418
20
-0.251369346082015
30
0
41
1
10
144.635693372366
20
-0.379303656306462
30
0
41
1
10
144.717403448861
20
-0.808083411297645
30
0
41
1
10
144.782771510057
20
-1.15867293201856
30
0
41
1
10
144.913507632449
20
-1.86484786677096
30
0
41
1
10
144.978875693645
20
-2.22040682965869
30
0
41
1
10
145.109611816036
20
-2.92407874649805
30
0
41
1
10
145.174979877232
20
-3.2721470207178
30
0
41
1
10
145.305715999624
20
-3.94718002303296
30
0
41
1
10
145.37108406082
20
-4.27408911185589
30
0
41
1
10
145.501820183211
20
-4.89347035743108
30
0
41
1
10
145.567188244407
20
-5.18588874854009
30
0
41
1
10
145.697924366799
20
-5.72497396083028
30
0
41
1
10
145.763292427994
20
-5.97160275921118
30
0
41
1
10
145.894028550386
20
-6.41124155879723
30
0
41
1
10
145.959396611582
20
-6.60423838584242
30
0
41
1
10
146.090132733974
20
-6.9329896659651
30
0
41
1
10
146.15550079517
20
-7.06875654381437
30
0
41
1
10
146.286236917561
20
-7.28367376184499
30
0
41
1
10
146.351604978757
20
-7.36285519690108
30
0
41
1
10
146.482341101149
20
-7.46879145881164
30
0
41
1
10
146.547709162345
20
-7.49558544674306
30
0
41
1
10
146.629419238839
20
-7.50047250500256
30
0
41
1
10
146.645761254139
20
-7.50004132058663
30
0
41
1
10
146.678445284737
20
-7.49630983995277
30
0
41
1
10
146.694787300035
20
-7.49300036659065
30
0
41
1
10
146.743813345932
20
-7.47857414637636
30
0
41
1
10
146.77649737653
20
-7.46295567336165
30
0
41
1
10
146.874549468324
20
-7.39688707138779
30
0
41
1
10
146.93991752952
20
-7.32713129875108
30
0
41
1
10
147.070653651911
20
-7.13156564846088
30
0
41
1
10
147.136021713107
20
-7.00572249828963
30
0
41
1
10
147.266757835499
20
-6.69664257847438
30
0
41
1
10
147.332125896695
20
-6.51338950233358
30
0
41
1
10
147.462862019086
20
-6.0923086509473
30
0
41
1
10
147.528230080282
20
-5.85448943770402
30
0
41
1
10
147.658966202674
20
-5.33139520708494
30
0
41
1
10
147.72433426387
20
-5.0461543648095
30
0
41
1
10
147.855070386262
20
-4.43898908861175
30
0
41
1
10
147.920438447458
20
-4.11711663126704
30
0
41
1
10
148.051174569849
20
-3.44978348614274
30
0
41
1
10
148.116542631045
20
-3.10437913281589
30
0
41
1
10
148.247278753437
20
-2.40372107647758
30
0
41
1
10
148.312646814633
20
-2.04851465414299
30
0
41
1
10
148.443382937024
20
-1.34103145686802
30
0
41
1
10
148.50875099822
20
-0.988784495969469
30
0
41
1
10
148.606803090014
20
-0.470588435382354
30
0
41
1
10
148.639487120612
20
-0.299532700340933
30
0
41
1
10
148.688513166509
20
-0.0462671053243753
30
0
41
1
10
148.704855181808
20
0.0372926531433677
30
0
41
1
10
148.737539212406
20
0.206057744673558
30
0
41
1
10
148.753881227705
20
0.290994103045904
30
0
41
1
10
148.770223243003
20
0.376420252877267
30
0
0
SPLINE
5
EA
100
AcDbEntity
8
1
62
256
6
ByLayer
370
13
48
1
60
0
100
AcDbSpline
70
4
71
3
72
84
73
80
40
0
40
0
40
0
40
0
40
0.0312500000000004
40
0.0312500000000004
40
0.0625000000000008
40
0.0625000000000008
40
0.0937500000000012
40
0.0937500000000012
40
0.125000000000002
40
0.125000000000002
40
0.156250000000002
40
0.156250000000002
40
0.187500000000002
40
0.187500000000002
40
0.218750000000003
40
0.218750000000003
40
0.250000000000003
40
0.250000000000003
40
0.281250000000004
40
0.281250000000004
40
0.296875000000004
40
0.296875000000004
40
0.304687500000004
40
0.304687500000004
40
0.312500000000004
40
0.312500000000004
40
0.343750000000004
40
0.343750000000004
40
0.375000000000004
40
0.375000000000004
40
0.406250000000003
40
0.406250000000003
40
0.437500000000003
40
0.437500000000003
40
0.468750000000003
40
0.468750000000003
40
0.500000000000003
40
0.500000000000003
40
0.531250000000003
40
0.531250000000003
40
0.562500000000003
40
0.562500000000003
40
0.593750000000003
40
0.593750000000003
40
0.609375000000003
40
0.609375000000003
40
0.613281250000003
40
0.613281250000003
40
0.617187500000003
40
0.625000000000003
40
0.625000000000003
40
0.656250000000002
40
0.656250000000002
40
0.687500000000002
40
0.687500000000002
40
0.718750000000002
40
0.718750000000002
40
0.750000000000002
40
0.750000000000002
40
0.781250000000002
40
0.781250000000002
40
0.812500000000002
40
0.812500000000002
40
0.843750000000002
40
0.843750000000002
40
0.875000000000001
40
0.875000000000001
40
0.906250000000001
40
0.906250000000001
40
0.914062500000001
40
0.914062500000001
40
0.917968750000001
40
0.917968750000001
40
0.921875000000001
40
0.937500000000001
40
0.937500000000001
40
0.96875
40
0.96875
40
1
40
1
40
1
40
1
41
1
10
141.99616712953
20
7.5
30
0
41
1
10
142.066730214045
20
7.5
30
0
41
1
10
142.13729329856
20
7.47369772544269
30
0
41
1
10
142.278419467591
20
7.36011114380716
30
0
41
1
10
142.348982552106
20
7.27276952445092
30
0
41
1
10
142.490108721137
20
7.03192932732682
30
0
41
1
10
142.560671805652
20
6.87838678585115
30
0
41
1
10
142.701797974683
20
6.5048687436055
30
0
41
1
10
142.772361059198
20
6.284880384026
30
0
41
1
10
142.913487228229
20
5.78401169187893
30
0
41
1
10
142.984050312745
20
5.50315964856247
30
0
41
1
10
143.125176481775
20
4.89171676999362
30
0
41
1
10
143.195739566291
20
4.56119062188296
30
0
41
1
10
143.336865735321
20
3.865736009328
30
0
41
1
10
143.407428819837
20
3.50088978220756
30
0
41
1
10
143.548554988867
20
2.75402769559147
30
0
41
1
10
143.619118073383
20
2.37208766222184
30
0
41
1
10
143.760244242414
20
1.60770405369357
30
0
41
1
10
143.830807326929
20
1.22531191411372
30
0
41
1
10
143.936651953702
20
0.661944087828374
30
0
41
1
10
143.971933495959
20
0.475833651384789
30
0
41
1
10
144.024855809346
20
0.200255736268275
30
0
41
1
10
144.042496580475
20
0.108992556456656
30
0
41
1
10
144.077778122732
20
-0.072185636142251
30
0
41
1
10
144.095418893861
20
-0.163109750961809
30
0
41
1
10
144.183622749506
20
-0.621591881922996
30
0
41
1
10
144.254185834021
20
-0.998235397651627
30
0
41
1
10
144.395312003052
20
-1.75904067980858
30
0
41
1
10
144.465875087567
20
-2.14316727741516
30
0
41
1
10
144.607001256598
20
-2.9034906921519
30
0
41
1
10
144.677564341113
20
-3.27962318100265
30
0
41
1
10
144.818690510144
20
-4.0067747252987
30
0
41
1
10
144.889253594659
20
-4.35771214038215
30
0
41
1
10
145.03037976369
20
-5.01780219362055
30
0
41
1
10
145.100942848205
20
-5.32687782901579
30
0
41
1
10
145.242069017236
20
-5.88955641249763
30
0
41
1
10
145.312632101751
20
-6.14311002035873
30
0
41
1
10
145.453758270782
20
-6.58601949976915
30
0
41
1
10
145.524321355297
20
-6.77536666488123
30
0
41
1
10
145.665447524328
20
-7.08700803437029
30
0
41
1
10
145.736010608843
20
-7.2093315354841
30
0
41
1
10
145.877136777874
20
-7.38960657243587
30
0
41
1
10
145.947699862389
20
-7.44761061393643
30
0
41
1
10
146.053544489162
20
-7.49153174892976
30
0
41
1
10
146.08882603142
20
-7.49901909200963
30
0
41
1
10
146.132927959242
20
-7.50013221672216
30
0
41
1
10
146.141748344807
20
-7.49994549926367
30
0
41
1
10
146.159389115936
20
-7.49874170217089
30
0
41
1
10
146.185850272629
20
-7.49568763485712
30
0
41
1
10
146.212311429322
20
-7.48880695386623
30
0
41
1
10
146.300515284966
20
-7.45702443335529
30
0
41
1
10
146.371078369481
20
-7.4031653100345
30
0
41
1
10
146.512204538512
20
-7.23153536534349
30
0
41
1
10
146.582767623028
20
-7.11371113872127
30
0
41
1
10
146.723893792058
20
-6.81108975488496
30
0
41
1
10
146.794456876574
20
-6.62626117130927
30
0
41
1
10
146.935583045604
20
-6.1920129056418
30
0
41
1
10
147.00614613012
20
-5.94259909780024
30
0
41
1
10
147.147272299151
20
-5.3874403260721
30
0
41
1
10
147.217835383666
20
-5.0817421937621
30
0
41
1
10
147.358961552697
20
-4.42736141079806
30
0
41
1
10
147.429524637212
20
-4.07875455875563
30
0
41
1
10
147.570650806242
20
-3.35508944613556
30
0
41
1
10
147.641213890758
20
-2.98011327901983
30
0
41
1
10
147.782340059789
20
-2.22096769377086
30
0
41
1
10
147.852903144304
20
-1.83686429262144
30
0
41
1
10
147.994029313335
20
-1.07514493608619
30
0
41
1
10
148.06459239785
20
-0.697566241193584
30
0
41
1
10
148.152796253494
20
-0.237470325855668
30
0
41
1
10
148.170437024623
20
-0.14603612568726
30
0
41
1
10
148.196898181316
20
-0.0098807663927687
30
0
41
1
10
148.205718566881
20
0.0352943181246985
30
0
41
1
10
148.223359338009
20
0.126187926266312
30
0
41
1
10
148.267461265832
20
0.354240162887152
30
0
41
1
10
148.311563193654
20
0.586165830609531
30
0
41
1
10
148.417407820427
20
1.14813444518487
30
0
41
1
10
148.487970904942
20
1.53001018726243
30
0
41
1
10
148.629097073973
20
2.29441190532808
30
0
41
1
10
148.699660158488
20
2.67688845727975
30
0
41
1
10
148.770223243004
20
3.05144137694015
30
0
0
SPLINE
5
EB
100
AcDbEntity
8
1
62
256
6
ByLayer
370
13
48
1
60
0
100
AcDbSpline
70
4
71
3
72
86
73
82
40
0
40
0
40
0
40
0
40
0.0312500000000005
40
0.0312500000000005
40
0.0625000000000009
40
0.0625000000000009
40
0.0937500000000014
40
0.0937500000000014
40
0.125000000000002
40
0.125000000000002
40
0.156250000000002
40
0.156250000000002
40
0.187500000000003
40
0.187500000000003
40
0.218750000000003
40
0.218750000000003
40
0.250000000000004
40
0.250000000000004
40
0.281250000000004
40
0.281250000000004
40
0.285156250000004
40
0.285156250000004
40
0.289062500000004
40
0.296875000000004
40
0.296875000000004
40
0.312500000000005
40
0.312500000000005
40
0.343750000000005
40
0.343750000000005
40
0.375000000000006
40
0.375000000000006
40
0.406250000000006
40
0.406250000000006
40
0.437500000000006
40
0.437500000000006
40
0.468750000000007
40
0.468750000000007
40
0.500000000000007
40
0.500000000000007
40
0.531250000000008
40
0.531250000000008
40
0.562500000000008
40
0.562500000000008
40
0.566406250000009
40
0.566406250000009
40
0.570312500000009
40
0.570312500000009
40
0.578125000000009
40
0.578125000000009
40
0.593750000000009
40
0.593750000000009
40
0.625000000000009
40
0.625000000000009
40
0.656250000000008
40
0.656250000000008
40
0.687500000000008
40
0.687500000000008
40
0.718750000000007
40
0.718750000000007
40
0.750000000000007
40
0.750000000000007
40
0.781250000000006
40
0.781250000000006
40
0.812500000000006
40
0.812500000000006
40
0.843750000000006
40
0.843750000000006
40
0.851562500000006
40
0.851562500000006
40
0.855468750000005
40
0.855468750000005
40
0.859375000000005
40
0.875000000000005
40
0.875000000000005
40
0.906250000000004
40
0.906250000000004
40
0.937500000000002
40
0.937500000000002
40
0.968750000000001
40
0.968750000000001
40
1
40
1
40
1
40
1
41
1
10
141.497444890857
20
7.5
30
0
41
1
10
141.573202998692
20
7.5
30
0
41
1
10
141.648961106526
20
7.46966275213043
30
0
41
1
10
141.800477322196
20
7.33806775113405
30
0
41
1
10
141.876235430031
20
7.23672893823525
30
0
41
1
10
142.027751645701
20
6.95729446448641
30
0
41
1
10
142.103509753536
20
6.77914133442181
30
0
41
1
10
142.255025969205
20
6.34699795759101
30
0
41
1
10
142.33078407704
20
6.09300181737888
30
0
41
1
10
142.48230029271
20
5.51789885941821
30
0
41
1
10
142.558058400545
20
5.19684933010248
30
0
41
1
10
142.709574616214
20
4.50342257783072
30
0
41
1
10
142.785332724049
20
4.13115048012045
30
0
41
1
10
142.936848939719
20
3.35559617148644
30
0
41
1
10
143.012607047554
20
2.95243101603052
30
0
41
1
10
143.164123263224
20
2.13646021316819
30
0
41
1
10
143.239881371059
20
1.72374686667351
30
0
41
1
10
143.391397586728
20
0.907828890291171
30
0
41
1
10
143.467155694563
20
0.504672015736332
30
0
41
1
10
143.552383565877
20
0.064778245831036
30
0
41
1
10
143.561853329357
20
0.0162036117083915
30
0
41
1
10
143.580792856315
20
-0.0811294391810407
30
0
41
1
10
143.609202146754
20
-0.227707737973532
30
0
41
1
10
143.637611437192
20
-0.37591772640485
30
0
41
1
10
143.694430018068
20
-0.6742066473563
30
0
41
1
10
143.732309071985
20
-0.875567334702396
30
0
41
1
10
143.845946233737
20
-1.48434822911392
30
0
41
1
10
143.921704341572
20
-1.89658488502377
30
0
41
1
10
144.073220557242
20
-2.71556907743269
30
0
41
1
10
144.148978665077
20
-3.12223211243025
30
0
41
1
10
144.300494880747
20
-3.90896078196792
30
0
41
1
10
144.376252988581
20
-4.28891164578323
30
0
41
1
10
144.527769204251
20
-5.00140291131538
30
0
41
1
10
144.603527312086
20
-5.33383271749631
30
0
41
1
10
144.755043527756
20
-5.93429077067518
30
0
41
1
10
144.830801635591
20
-6.20225038287711
30
0
41
1
10
144.98231785126
20
-6.66342566562099
30
0
41
1
10
145.058075959095
20
-6.8566350797048
30
0
41
1
10
145.209592174765
20
-7.16579389296115
30
0
41
1
10
145.2853502826
20
-7.2817926587318
30
0
41
1
10
145.43686649827
20
-7.44114304376737
30
0
41
1
10
145.512624606104
20
-7.48457352099263
30
0
41
1
10
145.597852477419
20
-7.49802906146959
30
0
41
1
10
145.607322240898
20
-7.49903470589291
30
0
41
1
10
145.626261767857
20
-7.50008936923027
30
0
41
1
10
145.635731531336
20
-7.50014089627038
30
0
41
1
10
145.664140821774
20
-7.49887362921689
30
0
41
1
10
145.683080348733
20
-7.49612017284068
30
0
41
1
10
145.739898929609
20
-7.48187041920124
30
0
41
1
10
145.777777983527
20
-7.46437770642044
30
0
41
1
10
145.891415145279
20
-7.38602664138827
30
0
41
1
10
145.967173253114
20
-7.29912116256867
30
0
41
1
10
146.118689468783
20
-7.04921655946328
30
0
41
1
10
146.194447576618
20
-6.88615297719423
30
0
41
1
10
146.345963792288
20
-6.48340870585315
30
0
41
1
10
146.421721900123
20
-6.24371044929057
30
0
41
1
10
146.573238115792
20
-5.69490370559035
30
0
41
1
10
146.648996223627
20
-5.38584055988369
30
0
41
1
10
146.800512439297
20
-4.71286490714442
30
0
41
1
10
146.876270547132
20
-4.34905063113823
30
0
41
1
10
147.027786762802
20
-3.58626777325961
30
0
41
1
10
147.103544870637
20
-3.18741708689694
30
0
41
1
10
147.255061086306
20
-2.3760053110139
30
0
41
1
10
147.330819194141
20
-1.96354356323545
30
0
41
1
10
147.482335409811
20
-1.14470221119996
30
0
41
1
10
147.558093517646
20
-0.738379522669703
30
0
41
1
10
147.652791152439
20
-0.244105258920115
30
0
41
1
10
147.671730679398
20
-0.145920143442709
30
0
41
1
10
147.700139969836
20
0.0002061516206311
30
0
41
1
10
147.709609733315
20
0.0487240005885212
30
0
41
1
10
147.728549260274
20
0.146395982068924
30
0
41
1
10
147.775898077671
20
0.39151193887065
30
0
41
1
10
147.823246895068
20
0.641038428137364
30
0
41
1
10
147.93688405682
20
1.24574633698632
30
0
41
1
10
148.012642164655
20
1.65680634296555
30
0
41
1
10
148.164158380325
20
2.47729513051579
30
0
41
1
10
148.239916488159
20
2.88664779935513
30
0
41
1
10
148.391432703829
20
3.68294393036476
30
0
41
1
10
148.467190811664
20
4.06977625893373
30
0
41
1
10
148.618707027334
20
4.79988402538572
30
0
41
1
10
148.694465135169
20
5.14304489541044
30
0
41
1
10
148.770223243004
20
5.45543050213672
30
0
0
SPLINE
5
EC
100
AcDbEntity
8
1
62
256
6
ByLayer
370
13
48
1
60
0
100
AcDbSpline
70
4
71
3
72
84
73
80
40
0
40
0
40
0
40
0
40
0.0312499999999988
40
0.0312499999999988
40
0.0624999999999976
40
0.0624999999999976
40
0.0937499999999964
40
0.0937499999999964
40
0.124999999999995
40
0.124999999999995
40
0.156249999999994
40
0.156249999999994
40
0.187499999999993
40
0.187499999999993
40
0.218749999999992
40
0.218749999999992
40
0.249999999999991
40
0.249999999999991
40
0.26562499999999
40
0.26562499999999
40
0.27343749999999
40
0.27343749999999
40
0.281249999999989
40
0.281249999999989
40
0.312499999999989
40
0.312499999999989
40
0.343749999999989
40
0.343749999999989
40
0.374999999999989
40
0.374999999999989
40
0.406249999999989
40
0.406249999999989
40
0.437499999999989
40
0.437499999999989
40
0.468749999999989
40
0.468749999999989
40
0.499999999999989
40
0.499999999999989
40
0.531249999999989
40
0.531249999999989
40
0.535156249999989
40
0.535156249999989
40
0.539062499999989
40
0.546874999999989
40
0.546874999999989
40
0.56249999999999
40
0.56249999999999
40
0.593749999999991
40
0.593749999999991
40
0.624999999999993
40
0.624999999999993
40
0.656249999999994
40
0.656249999999994
40
0.687499999999995
40
0.687499999999995
40
0.718749999999997
40
0.718749999999997
40
0.749999999999998
40
0.749999999999998
40
0.78125
40
0.78125
40
0.796875000000001
40
0.796875000000001
40
0.800781250000001
40
0.800781250000001
40
0.804687500000001
40
0.812500000000001
40
0.812500000000001
40
0.843750000000001
40
0.843750000000001
40
0.875
40
0.875
40
0.90625
40
0.90625
40
0.9375
40
0.9375
40
0.96875
40
0.96875
40
1
40
1
40
1
40
1
41
1
10
140.998722652184
20
7.5
30
0
41
1
10
141.079675783338
20
7.5
30
0
41
1
10
141.160628914493
20
7.46533482993459
30
0
41
1
10
141.322535176801
20
7.31432483379433
30
0
41
1
10
141.403488307956
20
7.19786825343724
30
0
41
1
10
141.565394570264
20
6.87687460615786
30
0
41
1
10
141.646347701419
20
6.6722655479756
30
0
41
1
10
141.808253963728
20
6.17766755899268
30
0
41
1
10
141.889207094882
20
5.88768841719133
30
0
41
1
10
142.051113357191
20
5.23522949547089
30
0
41
1
10
142.132066488345
20
4.87285131013826
30
0
41
1
10
142.293972750654
20
4.09697609610109
30
0
41
1
10
142.374925881808
20
3.68363718985185
30
0
41
1
10
142.536832144117
20
2.83165327716838
30
0
41
1
10
142.617785275271
20
2.39316209247423
30
0
41
1
10
142.77969153758
20
1.51619743879277
30
0
41
1
10
142.860644668735
20
1.07782422192744
30
0
41
1
10
142.982074365466
20
0.435922865884947
30
0
41
1
10
143.022550931043
20
0.224521374401462
30
0
41
1
10
143.083265779409
20
-0.0872329108405552
30
0
41
1
10
143.103504062197
20
-0.191683857614095
30
0
41
1
10
143.143980627775
20
-0.402503378420903
30
0
41
1
10
143.164218910563
20
-0.508696044773814
30
0
41
1
10
143.265410324506
20
-1.04292368631656
30
0
41
1
10
143.346363455661
20
-1.48098163324167
30
0
41
1
10
143.508269717969
20
-2.35794244283736
30
0
41
1
10
143.589222849124
20
-2.79674685799512
30
0
41
1
10
143.751129111432
20
-3.65006094000503
30
0
41
1
10
143.832082242587
20
-4.06441770500268
30
0
41
1
10
143.993988504896
20
-4.84298519079266
30
0
41
1
10
144.07494163605
20
-5.20703708125637
30
0
41
1
10
144.236847898359
20
-5.86332326085684
30
0
41
1
10
144.317801029513
20
-6.15545379609179
30
0
41
1
10
144.479707291822
20
-6.65457292232213
30
0
41
1
10
144.560660422976
20
-6.86154919698964
30
0
41
1
10
144.722566685285
20
-7.18722435160174
30
0
41
1
10
144.803519816439
20
-7.30599350193808
30
0
41
1
10
144.965426078748
20
-7.46136249619005
30
0
41
1
10
145.046379209902
20
-7.49807365793876
30
0
41
1
10
145.137451482451
20
-7.50015719733747
30
0
41
1
10
145.147570623845
20
-7.4998504219507
30
0
41
1
10
145.167808906634
20
-7.49813926033937
30
0
41
1
10
145.198166330817
20
-7.4939233293872
30
0
41
1
10
145.228523755
20
-7.48463725329603
30
0
41
1
10
145.289238603366
20
-7.45899845353918
30
0
41
1
10
145.329715168943
20
-7.43247314371388
30
0
41
1
10
145.451144865674
20
-7.32247439354802
30
0
41
1
10
145.532097996829
20
-7.20832563619939
30
0
41
1
10
145.694004259137
20
-6.89201064093399
30
0
41
1
10
145.774957390292
20
-6.68977072302792
30
0
41
1
10
145.9368636526
20
-6.19970519003132
30
0
41
1
10
146.017816783755
20
-5.91188684476708
30
0
41
1
10
146.179723046064
20
-5.26328023529959
30
0
41
1
10
146.260676177218
20
-4.90259137975008
30
0
41
1
10
146.422582439527
20
-4.12944291536959
30
0
41
1
10
146.503535570681
20
-3.71714067499295
30
0
41
1
10
146.66544183299
20
-2.86652413174488
30
0
41
1
10
146.746394964144
20
-2.42836453371888
30
0
41
1
10
146.908301226453
20
-1.55142942190264
30
0
41
1
10
146.989254357607
20
-1.11275595452528
30
0
41
1
10
147.110684054339
20
-0.470045374206251
30
0
41
1
10
147.151160619916
20
-0.258314790193395
30
0
41
1
10
147.201756326888
20
0.0019521670232336
30
0
41
1
10
147.211875468282
20
0.0537978081057986
30
0
41
1
10
147.23211375107
20
0.15821370150914
30
0
41
1
10
147.262471175253
20
0.315478194155475
30
0
41
1
10
147.292828599436
20
0.474533642181228
30
0
41
1
10
147.394020013379
20
1.00805548222542
30
0
41
1
10
147.474973144534
20
1.44578325552149
30
0
41
1
10
147.636879406842
20
2.32270700903845
30
0
41
1
10
147.717832537997
20
2.76180635594011
30
0
41
1
10
147.879738800305
20
3.61641343063741
30
0
41
1
10
147.96069193146
20
4.03176921266214
30
0
41
1
10
148.122598193769
20
4.81299432696864
30
0
41
1
10
148.203551324923
20
5.17870416730193
30
0
41
1
10
148.365457587232
20
5.83879222644734
30
0
41
1
10
148.446410718386
20
6.13306455949362
30
0
41
1
10
148.608316980695
20
6.63669311271735
30
0
41
1
10
148.689270111849
20
6.84603448197856
30
0
41
1
10
148.770223243003
20
7.0112140644618
30
0
0
SPLINE
5
ED
100
AcDbEntity
8
1
62
256
6
ByLayer
370
13
48
1
60
0
100
AcDbSpline
70
4
71
3
72
102
73
98
40
0
40
0
40
0
40
0
40
0.0312500000000001
40
0.0312500000000001
40
0.0625000000000001
40
0.0625000000000001
40
0.0781250000000002
40
0.0781250000000002
40
0.0937500000000002
40
0.0937500000000002
40
0.109375
40
0.109375
40
0.125
40
0.125
40
0.140625
40
0.140625
40
0.15625
40
0.15625
40
0.171875
40
0.171875
40
0.1875
40
0.1875
40
0.21875
40
0.21875
40
0.250000000000001
40
0.250000000000001
40
0.281250000000001
40
0.281250000000001
40
0.312500000000001
40
0.312500000000001
40
0.328125000000001
40
0.328125000000001
40
0.343750000000001
40
0.343750000000001
40
0.359375000000001
40
0.359375000000001
40
0.375000000000001
40
0.375000000000001
40
0.390625000000001
40
0.390625000000001
40
0.406250000000001
40
0.406250000000001
40
0.421875000000001
40
0.421875000000001
40
0.437500000000001
40
0.437500000000001
40
0.468750000000001
40
0.468750000000001
40
0.500000000000001
40
0.500000000000001
40
0.53125
40
0.53125
40
0.5625
40
0.5625
40
0.578125
40
0.578125
40
0.59375
40
0.59375
40
0.609375
40
0.609375
40
0.625
40
0.625
40
0.640625
40
0.640625
40
0.65625
40
0.65625
40
0.671875
40
0.671875
40
0.6875
40
0.6875
40
0.718749999999999
40
0.718749999999999
40
0.749999999999999
40
0.749999999999999
40
0.781249999999999
40
0.781249999999999
40
0.812499999999999
40
0.812499999999999
40
0.828124999999999
40
0.828124999999999
40
0.843749999999999
40
0.843749999999999
40
0.859374999999999
40
0.859374999999999
40
0.875
40
0.875
40
0.890625
40
0.890625
40
0.90625
40
0.90625
40
0.921875
40
0.921875
40
0.9375
40
0.9375
40
0.96875
40
0.96875
40
1
40
1
40
1
40
1
41
1
10
140.500000413511
20
7.5
30
0
41
1
10
140.586148567985
20
7.5
30
0
41
1
10
140.672296722459
20
7.46071239942617
30
0
41
1
10
140.844593031407
20
7.28886815259909
30
0
41
1
10
140.93074118588
20
7.15616089420192
30
0
41
1
10
141.059963417591
20
6.88203802208827
30
0
41
1
10
141.103037494828
20
6.77823265115526
30
0
41
1
10
141.189185649302
20
6.54602762544479
30
0
41
1
10
141.232259726539
20
6.41762702496956
30
0
41
1
10
141.318407881013
20
6.13730589559924
30
0
41
1
10
141.36148195825
20
5.98538656123404
30
0
41
1
10
141.447630112724
20
5.65991159413735
30
0
41
1
10
141.490704189961
20
5.48635932359198
30
0
41
1
10
141.576852344435
20
5.12024283354603
30
0
41
1
10
141.619926421671
20
4.9276838483749
30
0
41
1
10
141.706074576146
20
4.52678858882217
30
0
41
1
10
141.749148653382
20
4.31845884311122
30
0
41
1
10
141.835296807856
20
3.88968810082207
30
0
41
1
10
141.878370885093
20
3.66925417459743
30
0
41
1
10
141.964519039567
20
3.22016546223904
30
0
41
1
10
142.007593116804
20
2.99151750499976
30
0
41
1
10
142.136815348515
20
2.29909720149919
30
0
41
1
10
142.222963502989
20
1.82903571963206
30
0
41
1
10
142.395259811937
20
0.900411041606048
30
0
41
1
10
142.48140796641
20
0.441942259418767
30
0
41
1
10
142.653704275358
20
-0.441941198758599
30
0
41
1
10
142.739852429832
20
-0.900409936068911
30
0
41
1
10
142.91214873878
20
-1.82903459646994
30
0
41
1
10
142.998296893254
20
-2.29909607978181
30
0
41
1
10
143.127519124965
20
-2.99151640404966
30
0
41
1
10
143.170593202201
20
-3.22016437128548
30
0
41
1
10
143.256741356675
20
-3.66925310992505
30
0
41
1
10
143.299815433912
20
-3.88968705243528
30
0
41
1
10
143.385963588386
20
-4.3184578333983
30
0
41
1
10
143.429037665623
20
-4.52678760149732
30
0
41
1
10
143.515185820097
20
-4.92768291140237
30
0
41
1
10
143.558259897334
20
-5.12024192453629
30
0
41
1
10
143.644408051808
20
-5.48635847524241
30
0
41
1
10
143.687482129045
20
-5.65991077848255
30
0
41
1
10
143.773630283518
20
-5.9853858146088
30
0
41
1
10
143.816704360755
20
-6.13730518530548
30
0
41
1
10
143.902852515229
20
-6.41762638972168
30
0
41
1
10
143.945926592466
20
-6.54602702890779
30
0
41
1
10
144.03207474694
20
-6.77823213310796
30
0
41
1
10
144.075148824177
20
-6.88203754381655
30
0
41
1
10
144.204371055888
20
-7.15616053495521
30
0
41
1
10
144.290519210362
20
-7.2888678721938
30
0
41
1
10
144.46281551931
20
-7.46071226740509
30
0
41
1
10
144.548963673784
20
-7.49999993749992
30
0
41
1
10
144.721259982731
20
-7.50000006249994
30
0
41
1
10
144.807408137205
20
-7.46071253144709
30
0
41
1
10
144.979704446153
20
-7.28886843300418
30
0
41
1
10
145.065852600627
20
-7.15616125344843
30
0
41
1
10
145.195074832337
20
-6.88203850035976
30
0
41
1
10
145.238148909574
20
-6.77823316920239
30
0
41
1
10
145.324297064048
20
-6.54602822198163
30
0
41
1
10
145.367371141285
20
-6.41762766021725
30
0
41
1
10
145.453519295759
20
-6.1373066058928
30
0
41
1
10
145.496593372996
20
-5.9853873078591
30
0
41
1
10
145.58274152747
20
-5.65991240979199
30
0
41
1
10
145.625815604707
20
-5.48636017194141
30
0
41
1
10
145.711963759181
20
-5.12024374255566
30
0
41
1
10
145.755037836418
20
-4.92768478534731
30
0
41
1
10
145.841185990892
20
-4.52678957614694
30
0
41
1
10
145.884260068128
20
-4.31845985282402
30
0
41
1
10
145.970408222602
20
-3.88968914920878
30
0
41
1
10
146.013482299839
20
-3.66925523926972
30
0
41
1
10
146.099630454313
20
-3.22016655319251
30
0
41
1
10
146.14270453155
20
-2.99151860594981
30
0
41
1
10
146.271926763261
20
-2.29909832321656
30
0
41
1
10
146.358074917735
20
-1.82903684279418
30
0
41
1
10
146.530371226683
20
-0.900412147143214
30
0
41
1
10
146.616519381157
20
-0.441943345967275
30
0
41
1
10
146.788815690104
20
0.441940163986743
30
0
41
1
10
146.874963844578
20
0.900408830531802
30
0
41
1
10
147.047260153526
20
1.82903347330785
30
0
41
1
10
147.133408308
20
2.29909495806442
30
0
41
1
10
147.262630539711
20
2.99151530309953
30
0
41
1
10
147.305704616948
20
3.22016328033189
30
0
41
1
10
147.391852771421
20
3.66925204525259
30
0
41
1
10
147.434926848658
20
3.88968600404843
30
0
41
1
10
147.521075003132
20
4.3184568236853
30
0
41
1
10
147.564149080369
20
4.52678661417235
30
0
41
1
10
147.650297234843
20
4.9276819744297
30
0
41
1
10
147.69337131208
20
5.1202410155264
30
0
41
1
10
147.779519466554
20
5.48635762689267
30
0
41
1
10
147.822593543791
20
5.65990996282758
30
0
41
1
10
147.908741698265
20
5.9853850679834
30
0
41
1
10
147.951815775502
20
6.13730447501158
30
0
41
1
10
148.037963929976
20
6.41762575447362
30
0
41
1
10
148.081038007212
20
6.54602643237058
30
0
41
1
10
148.167186161686
20
6.77823161506046
30
0
41
1
10
148.210260238923
20
6.88203706554467
30
0
41
1
10
148.339482470634
20
7.15616017570832
30
0
41
1
10
148.425630625108
20
7.28886759178832
30
0
41
1
10
148.597926934056
20
7.46071213538383
30
0
41
1
10
148.68407508853
20
7.4999998749997
30
0
41
1
10
148.770223243003
20
7.49999999999969
30
0
0
SPLINE
5
EE
100
AcDbEntity
8
1
62
256
6
ByLayer
370
13
48
1
60
0
100
AcDbSpline
70
4
71
3
72
84
73
80
40
0
40
0
40
0
40
0
40
0.0312499999999997
40
0.0312499999999997
40
0.0624999999999995
40
0.0624999999999995
40
0.0937499999999992
40
0.0937499999999992
40
0.124999999999999
40
0.124999999999999
40
0.156249999999999
40
0.156249999999999
40
0.187499999999998
40
0.187499999999998
40
0.195312499999998
40
0.199218749999998
40
0.199218749999998
40
0.203124999999998
40
0.203124999999998
40
0.218749999999998
40
0.218749999999998
40
0.249999999999998
40
0.249999999999998
40
0.281249999999998
40
0.281249999999998
40
0.312499999999997
40
0.312499999999997
40
0.343749999999997
40
0.343749999999997
40
0.374999999999997
40
0.374999999999997
40
0.406249999999996
40
0.406249999999996
40
0.437499999999996
40
0.437499999999996
40
0.453124999999996
40
0.453124999999996
40
0.460937499999996
40
0.464843749999996
40
0.464843749999996
40
0.468749999999996
40
0.468749999999996
40
0.499999999999996
40
0.499999999999996
40
0.531249999999996
40
0.531249999999996
40
0.562499999999996
40
0.562499999999996
40
0.593749999999996
40
0.593749999999996
40
0.624999999999996
40
0.624999999999996
40
0.656249999999996
40
0.656249999999996
40
0.687499999999997
40
0.687499999999997
40
0.718749999999997
40
0.718749999999997
40
0.726562499999997
40
0.726562499999997
40
0.734374999999997
40
0.734374999999997
40
0.749999999999997
40
0.749999999999997
40
0.781249999999997
40
0.781249999999997
40
0.812499999999998
40
0.812499999999998
40
0.843749999999998
40
0.843749999999998
40
0.874999999999998
40
0.874999999999998
40
0.906249999999999
40
0.906249999999999
40
0.937499999999999
40
0.937499999999999
40
0.96875
40
0.96875
40
1
40
1
40
1
40
1
41
1
10
140.5
20
7.01121575194534
30
0
41
1
10
140.580953139769
20
6.84603644985083
30
0
41
1
10
140.661906279538
20
6.6366953542113
30
0
41
1
10
140.823812559077
20
6.13306730231369
30
0
41
1
10
140.904765698846
20
5.83879519666715
30
0
41
1
10
141.066671978384
20
5.17870751911249
30
0
41
1
10
141.147625118153
20
4.81299783277359
30
0
41
1
10
141.309531397692
20
4.03177293967801
30
0
41
1
10
141.390484537461
20
3.61641722488037
30
0
41
1
10
141.552390816999
20
2.76181020107649
30
0
41
1
10
141.633343956769
20
2.32271083802991
30
0
41
1
10
141.795250236307
20
1.44578698544044
30
0
41
1
10
141.876203376076
20
1.00805912946328
30
0
41
1
10
141.977394800788
20
0.474537158897533
30
0
41
1
10
142.007752228201
20
0.315481669685937
30
0
41
1
10
142.038109655615
20
0.158217133221115
30
0
41
1
10
142.058347940557
20
0.0538012100654441
30
0
41
1
10
142.068467083028
20
0.0019555531674769
30
0
41
1
10
142.119062795384
20
-0.258311384260765
30
0
41
1
10
142.159539365268
20
-0.470041958119594
30
0
41
1
10
142.280969074922
20
-1.112752527368
30
0
41
1
10
142.361922214691
20
-1.55142601347487
30
0
41
1
10
142.52382849423
20
-2.42836122302819
30
0
41
1
10
142.604781633999
20
-2.86652090017827
30
0
41
1
10
142.766687913537
20
-3.71713766065579
30
0
41
1
10
142.847641053306
20
-4.12944003913506
30
0
41
1
10
143.009547332845
20
-4.90258882574187
30
0
41
1
10
143.090500472614
20
-5.26327786526409
30
0
41
1
10
143.252406752152
20
-5.91188486635372
30
0
41
1
10
143.333359891922
20
-6.19970341903132
30
0
41
1
10
143.49526617146
20
-6.68976936493894
30
0
41
1
10
143.576219311229
20
-6.89200948813871
30
0
41
1
10
143.738125590767
20
-7.20832487029404
30
0
41
1
10
143.819078730537
20
-7.32247380915135
30
0
41
1
10
143.940508440191
20
-7.43247280379981
30
0
41
1
10
143.980985010075
20
-7.45899819056254
30
0
41
1
10
144.041699864902
20
-7.48463709830045
30
0
41
1
10
144.072057292315
20
-7.49392322653244
30
0
41
1
10
144.102414719729
20
-7.49813920679637
30
0
41
1
10
144.122653004671
20
-7.49985040065104
30
0
41
1
10
144.132772147142
20
-7.50015719172686
30
0
41
1
10
144.223844429383
20
-7.49807379328419
30
0
41
1
10
144.304797569152
20
-7.46136276243925
30
0
41
1
10
144.46670384869
20
-7.3059940293179
30
0
41
1
10
144.547656988459
20
-7.18722500912088
30
0
41
1
10
144.709563267998
20
-6.86155009905642
30
0
41
1
10
144.790516407767
20
-6.65457393865668
30
0
41
1
10
144.952422687305
20
-6.15545501058344
30
0
41
1
10
145.033375827074
20
-5.86332455910349
30
0
41
1
10
145.195282106613
20
-5.20703850677788
30
0
41
1
10
145.276235246382
20
-4.84298665977792
30
0
41
1
10
145.43814152592
20
-4.06441921872769
30
0
41
1
10
145.519094665689
20
-3.65006245505728
30
0
41
1
10
145.681000945228
20
-2.79674833958705
30
0
41
1
10
145.761954084997
20
-2.35794388976365
30
0
41
1
10
145.923860364535
20
-1.48098298603011
30
0
41
1
10
146.004813504305
20
-1.04292497975703
30
0
41
1
10
146.106004929016
20
-0.508697256392821
30
0
41
1
10
146.126243213958
20
-0.402504573291992
30
0
41
1
10
146.166719783843
20
-0.191685018402268
30
0
41
1
10
146.186958068785
20
-0.0872340434665091
30
0
41
1
10
146.247672923612
20
0.22452025569558
30
0
41
1
10
146.288149493497
20
0.43592175884271
30
0
41
1
10
146.40957920315
20
1.07782315715954
30
0
41
1
10
146.49053234292
20
1.51619641204786
30
0
41
1
10
146.652438622458
20
2.39316115941023
30
0
41
1
10
146.733391762227
20
2.83165239975924
30
0
41
1
10
146.895298041766
20
3.68363643527567
30
0
41
1
10
146.976251181535
20
4.09697540864326
30
0
41
1
10
147.138157461073
20
4.87285075909756
30
0
41
1
10
147.219110600842
20
5.23522901363097
30
0
41
1
10
147.381016880381
20
5.88768806583602
30
0
41
1
10
147.46197002015
20
6.17766726883303
30
0
41
1
10
147.623876299688
20
6.67226536443107
30
0
41
1
10
147.704829439458
20
6.87687446799731
30
0
41
1
10
147.866735718996
20
7.19786818664204
30
0
41
1
10
147.947688858765
20
7.31432479300474
30
0
41
1
10
148.109595138303
20
7.46533482251391
30
0
41
1
10
148.190548278073
20
7.5
30
0
41
1
10
148.271501417842
20
7.5
30
0
0
SPLINE
5
EF
100
AcDbEntity
8
1
62
256
6
ByLayer
370
13
48
1
60
0
100
AcDbSpline
70
4
71
3
72
87
73
83
40
0
40
0
40
0
40
0
40
0.03125
40
0.03125
40
0.0625
40
0.0625
40
0.09375
40
0.09375
40
0.125
40
0.125
40
0.140625
40
0.140625
40
0.14453125
40
0.14453125
40
0.1484375
40
0.1484375
40
0.15625
40
0.15625
40
0.187499999999999
40
0.187499999999999
40
0.218749999999999
40
0.218749999999999
40
0.249999999999999
40
0.249999999999999
40
0.281249999999998
40
0.281249999999998
40
0.312499999999998
40
0.312499999999998
40
0.343749999999997
40
0.343749999999997
40
0.374999999999997
40
0.374999999999997
40
0.406249999999996
40
0.406249999999996
40
0.421874999999996
40
0.421874999999996
40
0.429687499999996
40
0.429687499999996
40
0.433593749999996
40
0.433593749999996
40
0.437499999999996
40
0.437499999999996
40
0.468749999999996
40
0.468749999999996
40
0.499999999999996
40
0.499999999999996
40
0.531249999999996
40
0.531249999999996
40
0.562499999999996
40
0.562499999999996
40
0.593749999999996
40
0.593749999999996
40
0.624999999999996
40
0.624999999999996
40
0.656249999999996
40
0.656249999999996
40
0.687499999999996
40
0.687499999999996
40
0.703124999999996
40
0.703124999999996
40
0.710937499999996
40
0.714843749999996
40
0.714843749999996
40
0.718749999999996
40
0.718749999999996
40
0.749999999999996
40
0.749999999999996
40
0.781249999999997
40
0.781249999999997
40
0.812499999999997
40
0.812499999999997
40
0.843749999999998
40
0.843749999999998
40
0.874999999999998
40
0.874999999999998
40
0.906249999999999
40
0.906249999999999
40
0.937499999999999
40
0.937499999999999
40
0.96875
40
0.96875
40
1
40
1
40
1
40
1
41
1
10
140.5
20
5.4554339123298
30
0
41
1
10
140.57575811645
20
5.14304849249854
30
0
41
1
10
140.651516232899
20
4.79988777448938
30
0
41
1
10
140.803032465799
20
4.06978023106382
30
0
41
1
10
140.878790582248
20
3.6829479735122
30
0
41
1
10
141.030306815148
20
2.88665190576367
30
0
41
1
10
141.106064931597
20
2.47729922930597
30
0
41
1
10
141.257581164497
20
1.65681036142266
30
0
41
1
10
141.333339280946
20
1.24575028291818
30
0
41
1
10
141.446976455621
20
0.641042231366299
30
0
41
1
10
141.484855513846
20
0.441420986761756
30
0
41
1
10
141.532204336627
20
0.195423464742078
30
0
41
1
10
141.541674101183
20
0.146399645540839
30
0
41
1
10
141.560613630296
20
0.048727634249957
30
0
41
1
10
141.570083394852
20
0.0002097700998718
30
0
41
1
10
141.59849268852
20
-0.145916513068698
30
0
41
1
10
141.617432217633
20
-0.244101621941894
30
0
41
1
10
141.712129863195
20
-0.738375859748089
30
0
41
1
10
141.787887979644
20
-1.14469855036398
30
0
41
1
10
141.939404212544
20
-1.96353996115187
30
0
41
1
10
142.015162328994
20
-2.37600176570393
30
0
41
1
10
142.166678561893
20
-3.18741371199385
30
0
41
1
10
142.242436678343
20
-3.58626451203023
30
0
41
1
10
142.393952911242
20
-4.3490476471101
30
0
41
1
10
142.469711027692
20
-4.71286208657855
30
0
41
1
10
142.621227260591
20
-5.38583810006674
30
0
41
1
10
142.696985377041
20
-5.69490144290262
30
0
41
1
10
142.84850160994
20
-6.24370859308647
30
0
41
1
10
142.92425972639
20
-6.48340705882097
30
0
41
1
10
143.075775959289
20
-6.88615173895286
30
0
41
1
10
143.151534075739
20
-7.04921552071079
30
0
41
1
10
143.303050308638
20
-7.29912049624932
30
0
41
1
10
143.378808425088
20
-7.38602614797446
30
0
41
1
10
143.492445599762
20
-7.46437744527523
30
0
41
1
10
143.530324657987
20
-7.48187023102469
30
0
41
1
10
143.587143245325
20
-7.4961200870631
30
0
41
1
10
143.606082774437
20
-7.49887357640009
30
0
41
1
10
143.634492068105
20
-7.50014089111878
30
0
41
1
10
143.643961832662
20
-7.50008937960214
30
0
41
1
10
143.662901361774
20
-7.49903474769016
30
0
41
1
10
143.67237112633
20
-7.49802911905624
30
0
41
1
10
143.757599007336
20
-7.48457372129639
30
0
41
1
10
143.833357123786
20
-7.4411433754232
30
0
41
1
10
143.984873356685
20
-7.28179325122028
30
0
41
1
10
144.060631473135
20
-7.16579461485827
30
0
41
1
10
144.212147706034
20
-6.85663604529122
30
0
41
1
10
144.287905822484
20
-6.66342674537944
30
0
41
1
10
144.439422055383
20
-6.20225166302785
30
0
41
1
10
144.515180171833
20
-5.93429213694174
30
0
41
1
10
144.666696404732
20
-5.33383421902914
30
0
41
1
10
144.742454521182
20
-5.00140446194757
30
0
41
1
10
144.893970754081
20
-4.28891325496113
30
0
41
1
10
144.969728870531
20
-3.90896240061861
30
0
41
1
10
145.12124510343
20
-3.12223371443551
30
0
41
1
10
145.19700321988
20
-2.71557065340554
30
0
41
1
10
145.348519452779
20
-1.89658638236065
30
0
41
1
10
145.424277569229
20
-1.48434967394741
30
0
41
1
10
145.537914743904
20
-0.87556868910707
30
0
41
1
10
145.575793802128
20
-0.674207969677838
30
0
41
1
10
145.632612389466
20
-0.375918998675928
30
0
41
1
10
145.661021683134
20
-0.227708984737035
30
0
41
1
10
145.689430976803
20
-0.0811306598872363
30
0
41
1
10
145.708370505915
20
0.0162024084775396
30
0
41
1
10
145.717840270471
20
0.0647770427882506
30
0
41
1
10
145.803068151477
20
0.504670835236482
30
0
41
1
10
145.878826267927
20
0.907827738889296
30
0
41
1
10
146.030342500826
20
1.7237457913092
30
0
41
1
10
146.106100617276
20
2.1364591847591
30
0
41
1
10
146.257616850176
20
2.95243009589299
30
0
41
1
10
146.333374966625
20
3.35559531264357
30
0
41
1
10
146.484891199524
20
4.13114975150768
30
0
41
1
10
146.560649315974
20
4.50342191809276
30
0
41
1
10
146.712165548873
20
5.19684880704742
30
0
41
1
10
146.787923665323
20
5.51789840409367
30
0
41
1
10
146.939439898223
20
6.09300148793093
30
0
41
1
10
147.015198014672
20
6.3469976862294
30
0
41
1
10
147.166714247572
20
6.7791411635136
30
0
41
1
10
147.242472364021
20
6.95729433592757
30
0
41
1
10
147.393988596921
20
7.2367288761391
30
0
41
1
10
147.46974671337
20
7.33806771317478
30
0
41
1
10
147.62126294627
20
7.46966274519681
30
0
41
1
10
147.697021062719
20
7.5
30
0
41
1
10
147.772779179169
20
7.5
30
0
0
SPLINE
5
F0
100
AcDbEntity
8
1
62
256
6
ByLayer
370
13
48
1
60
0
100
AcDbSpline
70
4
71
3
72
85
73
81
40
0
40
0
40
0
40
0
40
0.0312499999999986
40
0.0312499999999986
40
0.0624999999999972
40
0.0624999999999972
40
0.0781249999999968
40
0.0781249999999968
40
0.0820312499999966
40
0.0820312499999966
40
0.0859374999999965
40
0.0859374999999965
40
0.0937499999999963
40
0.0937499999999963
40
0.124999999999996
40
0.124999999999996
40
0.156249999999995
40
0.156249999999995
40
0.187499999999995
40
0.187499999999995
40
0.218749999999994
40
0.218749999999994
40
0.249999999999994
40
0.249999999999994
40
0.281249999999993
40
0.281249999999993
40
0.312499999999993
40
0.312499999999993
40
0.343749999999992
40
0.343749999999992
40
0.374999999999992
40
0.374999999999992
40
0.382812499999992
40
0.386718749999992
40
0.386718749999992
40
0.390624999999991
40
0.390624999999991
40
0.406249999999991
40
0.406249999999991
40
0.43749999999999
40
0.43749999999999
40
0.46874999999999
40
0.46874999999999
40
0.499999999999989
40
0.499999999999989
40
0.531249999999989
40
0.531249999999989
40
0.562499999999989
40
0.562499999999989
40
0.593749999999988
40
0.593749999999988
40
0.624999999999988
40
0.624999999999988
40
0.656249999999987
40
0.656249999999987
40
0.687499999999987
40
0.687499999999987
40
0.695312499999987
40
0.695312499999987
40
0.703124999999987
40
0.703124999999987
40
0.718749999999988
40
0.718749999999988
40
0.74999999999999
40
0.74999999999999
40
0.781249999999991
40
0.781249999999991
40
0.812499999999992
40
0.812499999999992
40
0.843749999999994
40
0.843749999999994
40
0.874999999999995
40
0.874999999999995
40
0.906249999999996
40
0.906249999999996
40
0.937499999999997
40
0.937499999999997
40
0.968749999999999
40
0.968749999999999
40
1
40
1
40
1
40
1
41
1
10
140.5
20
3.05144576682187
30
0
41
1
10
140.57056309313
20
2.67689286386073
30
0
41
1
10
140.64112618626
20
2.29441629298995
30
0
41
1
10
140.782252372521
20
1.53001447866754
30
0
41
1
10
140.852815465651
20
1.14813865939547
30
0
41
1
10
140.958660105346
20
0.586169898306224
30
0
41
1
10
140.993941651911
20
0.400629310189998
30
0
41
1
10
141.038043585117
20
0.171802778180393
30
0
41
1
10
141.046863971759
20
0.1261918528877
30
0
41
1
10
141.064504745041
20
0.0352982148205854
30
0
41
1
10
141.073325131683
20
-0.0098768806012117
30
0
41
1
10
141.099786291606
20
-0.146032228092963
30
0
41
1
10
141.117427064889
20
-0.237466421629563
30
0
41
1
10
141.205630931302
20
-0.69756231038204
30
0
41
1
10
141.276194024432
20
-1.07514100519211
30
0
41
1
10
141.417320210692
20
-1.83686041186687
30
0
41
1
10
141.487883303822
20
-2.22096386332115
30
0
41
1
10
141.629009490083
20
-2.98010960225991
30
0
41
1
10
141.699572583213
20
-3.35508587280123
30
0
41
1
10
141.840698769473
20
-4.07875124079681
30
0
41
1
10
141.911261862603
20
-4.4273582447581
30
0
41
1
10
142.052388048864
20
-5.08173936796047
30
0
41
1
10
142.122951141994
20
-5.3874376884873
30
0
41
1
10
142.264077328254
20
-5.94259685540251
30
0
41
1
10
142.334640421384
20
-6.19201087007613
30
0
41
1
10
142.475766607645
20
-6.62625954877302
30
0
41
1
10
142.546329700775
20
-6.81108833842544
30
0
41
1
10
142.687455887035
20
-7.11371011673987
30
0
41
1
10
142.758018980165
20
-7.23153453169948
30
0
41
1
10
142.899145166426
20
-7.40316482359177
30
0
41
1
10
142.969708259556
20
-7.45702410577636
30
0
41
1
10
143.057912125969
20
-7.4888068029469
30
0
41
1
10
143.084373285892
20
-7.49568753531327
30
0
41
1
10
143.110834445816
20
-7.49874165153284
30
0
41
1
10
143.128475219099
20
-7.49994548067903
30
0
41
1
10
143.13729560574
20
-7.50013221377623
30
0
41
1
10
143.181397538946
20
-7.49901916739128
30
0
41
1
10
143.216679085511
20
-7.49153188816197
30
0
41
1
10
143.322523725207
20
-7.44761094675997
30
0
41
1
10
143.393086818337
20
-7.38960703710839
30
0
41
1
10
143.534213004597
20
-7.20933225930682
30
0
41
1
10
143.604776097727
20
-7.08700888543189
30
0
41
1
10
143.745902283988
20
-6.77536775422973
30
0
41
1
10
143.816465377118
20
-6.5860207000816
30
0
41
1
10
143.957591563378
20
-6.14311141556715
30
0
41
1
10
144.028154656508
20
-5.88955789156154
30
0
41
1
10
144.169280842769
20
-5.3268794412526
30
0
41
1
10
144.239843935899
20
-5.01780385513777
30
0
41
1
10
144.380970122159
20
-4.35771386357027
30
0
41
1
10
144.451533215289
20
-4.00677646089511
30
0
41
1
10
144.59265940155
20
-3.27962490765248
30
0
41
1
10
144.66322249468
20
-2.9034923975083
30
0
41
1
10
144.80434868094
20
-2.14316891377291
30
0
41
1
10
144.874911774071
20
-1.75904226853737
30
0
41
1
10
145.016037960331
20
-0.998236874102247
30
0
41
1
10
145.086601053461
20
-0.621593293787328
30
0
41
1
10
145.174804919874
20
-0.163111077233197
30
0
41
1
10
145.192445693156
20
-0.0721869347766813
30
0
41
1
10
145.227727239721
20
0.108991267115357
30
0
41
1
10
145.245368013004
20
0.200254452091514
30
0
41
1
10
145.298290332852
20
0.475832384276259
30
0
41
1
10
145.333571879416
20
0.661942834202591
30
0
41
1
10
145.439416519112
20
1.22531070725984
30
0
41
1
10
145.509979612242
20
1.60770288653839
30
0
41
1
10
145.651105798502
20
2.37208658967086
30
0
41
1
10
145.721668891633
20
2.75402667794339
30
0
41
1
10
145.862795077893
20
3.50088888503478
30
0
41
1
10
145.933358171023
20
3.86573517769622
30
0
41
1
10
146.074484357283
20
4.56118992521073
30
0
41
1
10
146.145047450414
20
4.89171614268602
30
0
41
1
10
146.286173636674
20
5.50315915613416
30
0
41
1
10
146.356736729804
20
5.78401126490846
30
0
41
1
10
146.497862916064
20
6.28488007720344
30
0
41
1
10
146.568426009195
20
6.50486849143553
30
0
41
1
10
146.709552195455
20
6.87838662760672
30
0
41
1
10
146.780115288585
20
7.03192920834911
30
0
41
1
10
146.921241474845
20
7.27276946700829
30
0
41
1
10
146.991804567976
20
7.36011110865397
30
0
41
1
10
147.132930754236
20
7.47369771899366
30
0
41
1
10
147.203493847366
20
7.5
30
0
41
1
10
147.274056940496
20
7.5
30
0
0
SPLINE
5
F1
100
AcDbEntity
8
1
62
256
6
ByLayer
370
13
48
1
60
0
100
AcDbSpline
70
4
71
3
72
83
73
79
40
0
40
0
40
0
40
0
40
0.0078124999999999
40
0.0078124999999999
40
0.0156249999999998
40
0.0156249999999998
40
0.0312499999999991
40
0.0312499999999991
40
0.0624999999999978
40
0.0624999999999978
40
0.0937499999999965
40
0.0937499999999965
40
0.124999999999995
40
0.124999999999995
40
0.156249999999994
40
0.156249999999994
40
0.187499999999993
40
0.187499999999993
40
0.218749999999991
40
0.218749999999991
40
0.24999999999999
40
0.24999999999999
40
0.281249999999989
40
0.281249999999989
40
0.312499999999988
40
0.312499999999988
40
0.328124999999987
40
0.328124999999987
40
0.335937499999987
40
0.335937499999987
40
0.343749999999987
40
0.343749999999987
40
0.374999999999988
40
0.374999999999988
40
0.406249999999989
40
0.406249999999989
40
0.437499999999989
40
0.437499999999989
40
0.46874999999999
40
0.46874999999999
40
0.49999999999999
40
0.49999999999999
40
0.531249999999991
40
0.531249999999991
40
0.562499999999992
40
0.562499999999992
40
0.593749999999992
40
0.593749999999992
40
0.624999999999993
40
0.624999999999993
40
0.656249999999993
40
0.656249999999993
40
0.664062499999993
40
0.667968749999993
40
0.667968749999993
40
0.671874999999993
40
0.671874999999993
40
0.687499999999994
40
0.687499999999994
40
0.718749999999994
40
0.718749999999994
40
0.749999999999995
40
0.749999999999995
40
0.781249999999996
40
0.781249999999996
40
0.812499999999996
40
0.812499999999996
40
0.843749999999997
40
0.843749999999997
40
0.874999999999997
40
0.874999999999997
40
0.906249999999998
40
0.906249999999998
40
0.937499999999999
40
0.937499999999999
40
0.968749999999999
40
0.968749999999999
40
1
40
1
40
1
40
1
41
1
10
140.5
20
0.376424576049033
30
0
41
1
10
140.516342017453
20
0.290998398450341
30
0
41
1
10
140.532684034905
20
0.206062011313264
30
0
41
1
10
140.565368069811
20
0.0372968604953314
30
0
41
1
10
140.581710087263
20
-0.0462629069117781
30
0
41
1
10
140.630736139621
20
-0.299528480391643
30
0
41
1
10
140.663420174526
20
-0.470584205743563
30
0
41
1
10
140.761472279243
20
-0.988780252799586
30
0
41
1
10
140.826840349053
20
-1.34102722551697
30
0
41
1
10
140.957576488675
20
-2.04851049400514
30
0
41
1
10
141.022944558485
20
-2.40371697579107
30
0
41
1
10
141.153680698107
20
-3.1043751999841
30
0
41
1
10
141.219048767917
20
-3.44977966173812
30
0
41
1
10
141.349784907539
20
-4.11711306808769
30
0
41
1
10
141.415152977349
20
-4.43898567820409
30
0
41
1
10
141.545889116971
20
-5.04615129376342
30
0
41
1
10
141.611257186781
20
-5.33139232255346
30
0
41
1
10
141.741993326402
20
-5.8544869450495
30
0
41
1
10
141.807361396213
20
-6.0923063635538
30
0
41
1
10
141.938097535835
20
-6.51338762767674
30
0
41
1
10
142.003465605645
20
-6.69664091119955
30
0
41
1
10
142.134201745266
20
-7.00572123275444
30
0
41
1
10
142.199569815077
20
-7.13156457722494
30
0
41
1
10
142.330305954699
20
-7.32713059161574
30
0
41
1
10
142.395674024509
20
-7.39688653404022
30
0
41
1
10
142.493726129225
20
-7.46295536736326
30
0
41
1
10
142.526410164131
20
-7.4785739136444
30
0
41
1
10
142.575436216488
20
-7.49300023769806
30
0
41
1
10
142.591778233941
20
-7.49630974466547
30
0
41
1
10
142.624462268846
20
-7.50004129047167
30
0
41
1
10
142.640804286299
20
-7.50047250602492
30
0
41
1
10
142.722514373562
20
-7.4955856049547
30
0
41
1
10
142.787882443373
20
-7.4687917470857
30
0
41
1
10
142.918618582994
20
-7.3628557463023
30
0
41
1
10
142.983986652805
20
-7.28367444227805
30
0
41
1
10
143.114722792426
20
-7.06875747783715
30
0
41
1
10
143.180090862237
20
-6.93299072249147
30
0
41
1
10
143.310827001858
20
-6.60423966891506
30
0
41
1
10
143.376195071669
20
-6.41124294584947
30
0
41
1
10
143.50693121129
20
-5.97160432708395
30
0
41
1
10
143.572299281101
20
-5.72497560549277
30
0
41
1
10
143.703035420722
20
-5.18589051407068
30
0
41
1
10
143.768403490533
20
-4.89347216701961
30
0
41
1
10
143.899139630154
20
-4.27409097552092
30
0
41
1
10
143.964507699965
20
-3.94718189673387
30
0
41
1
10
144.095243839586
20
-3.27214888342809
30
0
41
1
10
144.160611909397
20
-2.92408058822801
30
0
41
1
10
144.291348049018
20
-2.2204086046514
30
0
41
1
10
144.356716118829
20
-1.8648495960631
30
0
41
1
10
144.48745225845
20
-1.15867455311511
30
0
41
1
10
144.552820328261
20
-0.808084969947487
30
0
41
1
10
144.634530415524
20
-0.379305131428339
30
0
41
1
10
144.659043441703
20
-0.251370795732754
30
0
41
1
10
144.683556467882
20
-0.124634129822112
30
0
41
1
10
144.699898485335
20
-0.0404243458038138
30
0
41
1
10
144.708069494061
20
0.001442915006578
30
0
41
1
10
144.748924537693
20
0.211528159459618
30
0
41
1
10
144.781608572598
20
0.381891919839774
30
0
41
1
10
144.879660677314
20
0.898308281257926
30
0
41
1
10
144.945028747125
20
1.24976543490317
30
0
41
1
10
145.075764886746
20
1.95668079659453
30
0
41
1
10
145.141132956557
20
2.31211086850033
30
0
41
1
10
145.271869096178
20
3.01437485968913
30
0
41
1
10
145.337237165989
20
3.36116276911048
30
0
41
1
10
145.46797330561
20
4.03244733284416
30
0
41
1
10
145.533341375421
20
4.35688794975508
30
0
41
1
10
145.664077515042
20
4.97025276415994
30
0
41
1
10
145.729445584853
20
5.2591240376276
30
0
41
1
10
145.860181724474
20
5.79028365351337
30
0
41
1
10
145.925549794285
20
6.03253586430461
30
0
41
1
10
146.056285933906
20
6.46293591143549
30
0
41
1
10
146.121654003717
20
6.65107288005927
30
0
41
1
10
146.252390143338
20
6.96999659123642
30
0
41
1
10
146.317758213149
20
7.10079772852057
30
0
41
1
10
146.44849435277
20
7.30601831214409
30
0
41
1
10
146.513862422581
20
7.38046998348628
30
0
41
1
10
146.644598562202
20
7.47744114721863
30
0
41
1
10
146.709966632013
20
7.5
30
0
41
1
10
146.775334701824
20
7.5
30
0
0
SPLINE
5
F2
100
AcDbEntity
8
1
62
256
6
ByLayer
370
13
48
1
60
0
100
AcDbSpline
70
4
71
3
72
78
73
74
40
0
40
0
40
0
40
0
40
0.03125
40
0.03125
40
0.0625
40
0.0625
40
0.0937500000000001
40
0.0937500000000001
40
0.125
40
0.125
40
0.15625
40
0.15625
40
0.1875
40
0.1875
40
0.21875
40
0.21875
40
0.25
40
0.25
40
0.28125
40
0.28125
40
0.2890625
40
0.2890625
40
0.296875000000001
40
0.296875000000001
40
0.3125
40
0.3125
40
0.34375
40
0.34375
40
0.375
40
0.375
40
0.40625
40
0.40625
40
0.4375
40
0.4375
40
0.46875
40
0.46875
40
0.5
40
0.5
40
0.53125
40
0.53125
40
0.5625
40
0.5625
40
0.59375
40
0.59375
40
0.625
40
0.625
40
0.640625
40
0.640625
40
0.6484375
40
0.6484375
40
0.65625
40
0.65625
40
0.6875
40
0.6875
40
0.71875
40
0.71875
40
0.75
40
0.75
40
0.78125
40
0.78125
40
0.8125
40
0.8125
40
0.84375
40
0.84375
40
0.875
40
0.875
40
0.90625
40
0.90625
40
0.9375
40
0.9375
40
0.96875
40
0.96875
40
1
40
1
40
1
40
1
41
1
10
140.5
20
-2.27144000868256
30
0
41
1
10
140.560173046491
20
-2.59681426198944
30
0
41
1
10
140.620346092982
20
-2.92057075876275
30
0
41
1
10
140.740692185965
20
-3.55444160115934
30
0
41
1
10
140.800865232456
20
-3.86452091820354
30
0
41
1
10
140.921211325438
20
-4.46038260052853
30
0
41
1
10
140.981384371929
20
-4.74612762862435
30
0
41
1
10
141.101730464911
20
-5.28358332625251
30
0
41
1
10
141.161903511403
20
-5.53526232988847
30
0
41
1
10
141.282249604385
20
-5.99683240742374
30
0
41
1
10
141.342422650876
20
-6.20670441652481
30
0
41
1
10
141.462768743858
20
-6.57967622507377
30
0
41
1
10
141.52294179035
20
-6.74277293833035
30
0
41
1
10
141.643287883332
20
-7.02032033232848
30
0
41
1
10
141.703460929823
20
-7.13478277616488
30
0
41
1
10
141.823807022805
20
-7.31615961491784
30
0
41
1
10
141.883980069297
20
-7.38309595356247
30
0
41
1
10
142.004326162279
20
-7.47296422795222
30
0
41
1
10
142.06449920877
20
-7.4959222186761
30
0
41
1
10
142.139715516884
20
-7.50039540771519
30
0
41
1
10
142.154758778507
20
-7.50009527329132
30
0
41
1
10
142.184845301752
20
-7.49707180379446
30
0
41
1
10
142.199888563375
20
-7.4943404768749
30
0
41
1
10
142.245018348243
20
-7.48235696223978
30
0
41
1
10
142.275104871489
20
-7.46931252746657
30
0
41
1
10
142.365364441226
20
-7.41405222081005
30
0
41
1
10
142.425537487717
20
-7.35564624088792
30
0
41
1
10
142.545883580699
20
-7.19182826991116
30
0
41
1
10
142.60605662719
20
-7.08639310445642
30
0
41
1
10
142.726402720173
20
-6.82689563965565
30
0
41
1
10
142.786575766664
20
-6.67281925080249
30
0
41
1
10
142.906921859646
20
-6.31730665365765
30
0
41
1
10
142.967094906137
20
-6.11587054778082
30
0
41
1
10
143.08744099912
20
-5.67002178026175
30
0
41
1
10
143.147614045611
20
-5.42562532622361
30
0
41
1
10
143.267960138593
20
-4.90111379724092
30
0
41
1
10
143.328133185084
20
-4.62102848552681
30
0
41
1
10
143.448479278066
20
-4.03456795401894
30
0
41
1
10
143.508652324558
20
-3.72822962788192
30
0
41
1
10
143.62899841754
20
-3.0998349063928
30
0
41
1
10
143.689171464031
20
-2.77781452963521
30
0
41
1
10
143.809517557013
20
-2.12864578140741
30
0
41
1
10
143.869690603504
20
-1.80152577206846
30
0
41
1
10
143.990036696487
20
-1.15177632277312
30
0
41
1
10
144.050209742978
20
-0.829163938545236
30
0
41
1
10
144.140469312715
20
-0.354579501013063
30
0
41
1
10
144.17055583596
20
-0.197925853788405
30
0
41
1
10
144.215685620829
20
0.0341379613624326
30
0
41
1
10
144.230728882451
20
0.11136175597602
30
0
41
1
10
144.260815405697
20
0.267249840213253
30
0
41
1
10
144.27585866732
20
0.345649096119558
30
0
41
1
10
144.351074975434
20
0.739666866544297
30
0
41
1
10
144.411248021925
20
1.06142485838106
30
0
41
1
10
144.531594114907
20
1.71028300562438
30
0
41
1
10
144.591767161398
20
2.03736721733426
30
0
41
1
10
144.712113254381
20
2.68741337964787
30
0
41
1
10
144.772286300872
20
3.01034792369998
30
0
41
1
10
144.892632393854
20
3.6415733981585
30
0
41
1
10
144.952805440345
20
3.94982877586133
30
0
41
1
10
145.073151533328
20
4.54107852732443
30
0
41
1
10
145.133324579819
20
4.82403574980896
30
0
41
1
10
145.253670672801
20
5.35509435202985
30
0
41
1
10
145.313843719292
20
5.60316498720775
30
0
41
1
10
145.434189812274
20
6.05692779289697
30
0
41
1
10
145.494362858766
20
6.26260231402441
30
0
41
1
10
145.614708951748
20
6.62687172158175
30
0
41
1
10
145.674881998239
20
6.78546502079098
30
0
41
1
10
145.795228091222
20
7.05398804717785
30
0
41
1
10
145.855401137713
20
7.16393072278831
30
0
41
1
10
145.975747230695
20
7.33650544446638
30
0
41
1
10
146.035920277186
20
7.3991600768048
30
0
41
1
10
146.156266370168
20
7.48089428427642
30
0
41
1
10
146.21643941666
20
7.5
30
0
41
1
10
146.276612463151
20
7.5
30
0
0
SPLINE
5
F3
100
AcDbEntity
8
1
62
256
6
ByLayer
370
13
48
1
60
0
100
AcDbSpline
70
4
71
3
72
10
73
6
40
0
40
0
40
0
40
0
40
0.5
40
0.5
40
1
40
1
40
1
40
1
41
1
10
148.479556232276
20
7.5
30
0
41
1
10
148.528000734064
20
7.5
30
0
41
1
10
148.576445235852
20
7.48762835513639
30
0
41
1
10
148.673334239428
20
7.43530605416959
30
0
41
1
10
148.721778741216
20
7.3953465177166
30
0
41
1
10
148.770223243003
20
7.3404791499315
30
0
0
SPLINE
5
F4
100
AcDbEntity
8
1
62
256
6
ByLayer
370
13
48
1
60
0
100
AcDbSpline
70
4
71
3
72
78
73
74
40
0
40
0
40
0
40
0
40
0.0312500000000004
40
0.0312500000000004
40
0.0625000000000008
40
0.0625000000000008
40
0.0937500000000012
40
0.0937500000000012
40
0.125000000000002
40
0.125000000000002
40
0.156250000000002
40
0.156250000000002
40
0.187500000000002
40
0.187500000000002
40
0.203125000000003
40
0.203125000000003
40
0.210937500000003
40
0.210937500000003
40
0.218750000000003
40
0.218750000000003
40
0.250000000000002
40
0.250000000000002
40
0.281250000000001
40
0.281250000000001
40
0.312500000000001
40
0.312500000000001
40
0.34375
40
0.34375
40
0.374999999999999
40
0.374999999999999
40
0.406249999999999
40
0.406249999999999
40
0.437499999999998
40
0.437499999999998
40
0.468749999999997
40
0.468749999999997
40
0.499999999999996
40
0.499999999999996
40
0.531249999999996
40
0.531249999999996
40
0.562499999999995
40
0.562499999999995
40
0.593749999999994
40
0.593749999999994
40
0.601562499999994
40
0.601562499999994
40
0.609374999999994
40
0.609374999999994
40
0.624999999999995
40
0.624999999999995
40
0.656249999999995
40
0.656249999999995
40
0.687499999999996
40
0.687499999999996
40
0.718749999999996
40
0.718749999999996
40
0.749999999999997
40
0.749999999999997
40
0.781249999999997
40
0.781249999999997
40
0.812499999999998
40
0.812499999999998
40
0.843749999999998
40
0.843749999999998
40
0.874999999999998
40
0.874999999999998
40
0.906249999999999
40
0.906249999999999
40
0.937499999999999
40
0.937499999999999
40
0.96875
40
0.96875
40
1
40
1
40
1
40
1
41
1
10
140.5
20
-4.82075342760859
30
0
41
1
10
140.554978023171
20
-5.07340008362957
30
0
41
1
10
140.609956046343
20
-5.31273092215565
30
0
41
1
10
140.719912092687
20
-5.75839933254324
30
0
41
1
10
140.774890115858
20
-5.96472177617008
30
0
41
1
10
140.884846162202
20
-6.33975246763919
30
0
41
1
10
140.939824185373
20
-6.50845450162842
30
0
41
1
10
141.049780231717
20
-6.8057352763233
30
0
41
1
10
141.104758254888
20
-6.93431708888434
30
0
41
1
10
141.214714301231
20
-7.15100657663515
30
0
41
1
10
141.269692324403
20
-7.23912492255775
30
0
41
1
10
141.379648370746
20
-7.37648052227277
30
0
41
1
10
141.434626393918
20
-7.42573307480828
30
0
41
1
10
141.517093428675
20
-7.4728024156239
30
0
41
1
10
141.544582440261
20
-7.48403447795892
30
0
41
1
10
141.58581595764
20
-7.4945659363259
30
0
41
1
10
141.599560463433
20
-7.49702411162306
30
0
41
1
10
141.627049475019
20
-7.49990238396569
30
0
41
1
10
141.640793980812
20
-7.5003265487324
30
0
41
1
10
141.709516509776
20
-7.49747659932376
30
0
41
1
10
141.764494532948
20
-7.47909516353059
30
0
41
1
10
141.874450579291
20
-7.40609658563591
30
0
41
1
10
141.929428602463
20
-7.35146276501345
30
0
41
1
10
142.039384648806
20
-7.20301147610647
30
0
41
1
10
142.094362671978
20
-7.10917916687055
30
0
41
1
10
142.204318718321
20
-6.88098366387882
30
0
41
1
10
142.259296741493
20
-6.74661072027874
30
0
41
1
10
142.369252787836
20
-6.43796904197924
30
0
41
1
10
142.424230811008
20
-6.26369849835535
30
0
41
1
10
142.534186857351
20
-5.87806259623875
30
0
41
1
10
142.589164880522
20
-5.66670479853045
30
0
41
1
10
142.699120926866
20
-5.21177868166276
30
0
41
1
10
142.754098950037
20
-4.96822660071015
30
0
41
1
10
142.864054996381
20
-4.45551763457459
30
0
41
1
10
142.919033019552
20
-4.18638286681681
30
0
41
1
10
143.028989065896
20
-3.63024767606618
30
0
41
1
10
143.083967089067
20
-3.34327114864214
30
0
41
1
10
143.193923135411
20
-2.75961819006082
30
0
41
1
10
143.248901158582
20
-2.46296327996029
30
0
41
1
10
143.358857204926
20
-1.86784906448196
30
0
41
1
10
143.413835228097
20
-1.56940584425507
30
0
41
1
10
143.52379127444
20
-0.97776568916322
30
0
41
1
10
143.578769297612
20
-0.684578027597723
30
0
41
1
10
143.647491826577
20
-0.325010981376465
30
0
41
1
10
143.661236332369
20
-0.253440150598976
30
0
41
1
10
143.688725343955
20
-0.111060871227551
30
0
41
1
10
143.702469849748
20
-0.0404370948735675
30
0
41
1
10
143.743703367127
20
0.171441911926564
30
0
41
1
10
143.771192378713
20
0.314325728825338
30
0
41
1
10
143.85365941347
20
0.74695820262545
30
0
41
1
10
143.908637436642
20
1.04072912531382
30
0
41
1
10
144.018593482985
20
1.63307141780206
30
0
41
1
10
144.073571506157
20
1.9316330198659
30
0
41
1
10
144.1835275525
20
2.52644411702519
30
0
41
1
10
144.238505575672
20
2.82267707281869
30
0
41
1
10
144.348461622015
20
3.40490565926672
30
0
41
1
10
144.403439645187
20
3.69087948030534
30
0
41
1
10
144.51339569153
20
4.24443476058769
30
0
41
1
10
144.568373714702
20
4.51199230674982
30
0
41
1
10
144.678329761045
20
5.02102980105696
30
0
41
1
10
144.733307784216
20
5.26248792390354
30
0
41
1
10
144.84326383056
20
5.71281401428337
30
0
41
1
10
144.898241853731
20
5.92166629164967
30
0
41
1
10
145.008197900075
20
6.30201850882636
30
0
41
1
10
145.063175923246
20
6.47351155997916
30
0
41
1
10
145.17313196959
20
6.77648075278674
30
0
41
1
10
145.228109992761
20
6.90795933896482
30
0
41
1
10
145.338066039104
20
7.1303992104427
30
0
41
1
10
145.393044062276
20
7.22137071366456
30
0
41
1
10
145.50300010862
20
7.36426248570623
30
0
41
1
10
145.557978131791
20
7.41619783280973
30
0
41
1
10
145.667934178134
20
7.4840582430075
30
0
41
1
10
145.722912201306
20
7.5
30
0
41
1
10
145.777890224478
20
7.5
30
0
0
SPLINE
5
F5
100
AcDbEntity
8
1
62
256
6
ByLayer
370
13
48
1
60
0
100
AcDbSpline
70
4
71
3
72
14
73
10
40
0
40
0
40
0
40
0
40
0.25
40
0.25
40
0.5
40
0.5
40
0.75
40
0.75
40
1
40
1
40
1
40
1
41
1
10
147.980833993603
20
7.5
30
0
41
1
10
148.046616431053
20
7.5
30
0
41
1
10
148.112398868503
20
7.47715323171201
30
0
41
1
10
148.243963743403
20
7.37890756737974
30
0
41
1
10
148.309746180853
20
7.3034680661458
30
0
41
1
10
148.441311055753
20
7.09551558617395
30
0
41
1
10
148.507093493204
20
6.96296952099635
30
0
41
1
10
148.638658368103
20
6.63984323429059
30
0
41
1
10
148.704440805554
20
6.44924860381226
30
0
41
1
10
148.770223243003
20
6.23131426785667
30
0
0
SPLINE
5
F6
100
AcDbEntity
8
1
62
256
6
ByLayer
370
13
48
1
60
0
100
AcDbSpline
70
4
71
3
72
77
73
73
40
0
40
0
40
0
40
0
40
0.0312499999999995
40
0.0312499999999995
40
0.062499999999999
40
0.062499999999999
40
0.0937499999999985
40
0.0937499999999985
40
0.124999999999998
40
0.124999999999998
40
0.132812499999998
40
0.132812499999998
40
0.140624999999998
40
0.140624999999998
40
0.156249999999998
40
0.156249999999998
40
0.187499999999998
40
0.187499999999998
40
0.218749999999998
40
0.218749999999998
40
0.249999999999998
40
0.249999999999998
40
0.281249999999999
40
0.281249999999999
40
0.312499999999999
40
0.312499999999999
40
0.343749999999999
40
0.343749999999999
40
0.374999999999999
40
0.374999999999999
40
0.406249999999999
40
0.406249999999999
40
0.437499999999999
40
0.437499999999999
40
0.468749999999999
40
0.468749999999999
40
0.499999999999999
40
0.499999999999999
40
0.531249999999999
40
0.531249999999999
40
0.562499999999999
40
0.562499999999999
40
0.570312499999999
40
0.570312499999999
40
0.578124999999999
40
0.593749999999999
40
0.593749999999999
40
0.625
40
0.625
40
0.65625
40
0.65625
40
0.6875
40
0.6875
40
0.71875
40
0.71875
40
0.75
40
0.75
40
0.78125
40
0.78125
40
0.8125
40
0.8125
40
0.84375
40
0.84375
40
0.875
40
0.875
40
0.90625
40
0.90625
40
0.9375
40
0.9375
40
0.96875
40
0.96875
40
1
40
1
40
1
40
1
41
1
10
140.5
20
-6.66765935730575
30
0
41
1
10
140.549782999852
20
-6.80139432962989
30
0
41
1
10
140.599565999704
20
-6.91868166963667
30
0
41
1
10
140.699131999409
20
-7.12006057566649
30
0
41
1
10
140.748914999261
20
-7.20415838014372
30
0
41
1
10
140.848480998965
20
-7.3401832393894
30
0
41
1
10
140.898263998817
20
-7.39211929847912
30
0
41
1
10
140.997829998521
20
-7.46593249328811
30
0
41
1
10
141.047612998374
20
-7.48781976339373
30
0
41
1
10
141.109841748189
20
-7.49820777682913
30
0
41
1
10
141.122287498152
20
-7.49943833486387
30
0
41
1
10
141.147178998078
20
-7.50025586162354
30
0
41
1
10
141.159624748041
20
-7.49985010969615
30
0
41
1
10
141.19696199793
20
-7.49613649578214
30
0
41
1
10
141.221853497856
20
-7.49032153936076
30
0
41
1
10
141.296527997634
20
-7.46227616131281
30
0
41
1
10
141.346310997486
20
-7.42942073858572
30
0
41
1
10
141.445876997191
20
-7.33276904881043
30
0
41
1
10
141.495659997043
20
-7.26896288572769
30
0
41
1
10
141.595225996747
20
-7.10866979623128
30
0
41
1
10
141.645008996599
20
-7.01217471122195
30
0
41
1
10
141.744574996303
20
-6.78594504636325
30
0
41
1
10
141.794357996155
20
-6.65620566694713
30
0
41
1
10
141.89392399586
20
-6.36431045269418
30
0
41
1
10
141.943706995712
20
-6.20215446964429
30
0
41
1
10
142.043272995416
20
-5.84770957129206
30
0
41
1
10
142.093055995268
20
-5.65542571334032
30
0
41
1
10
142.192621994973
20
-5.24439670394716
30
0
41
1
10
142.242404994825
20
-5.02566138035513
30
0
41
1
10
142.341970994529
20
-4.56656321460656
30
0
41
1
10
142.391753994381
20
-4.32621357851735
30
0
41
1
10
142.491319994086
20
-3.82953095123395
30
0
41
1
10
142.541102993938
20
-3.57321252480671
30
0
41
1
10
142.640668993642
20
-3.05062206369894
30
0
41
1
10
142.690451993494
20
-2.78436381771954
30
0
41
1
10
142.790017993198
20
-2.24787557442451
30
0
41
1
10
142.83980099305
20
-1.97765684292568
30
0
41
1
10
142.939366992755
20
-1.43879953012109
30
0
41
1
10
142.989149992607
20
-1.17016865815336
30
0
41
1
10
143.088715992311
20
-0.639321100320899
30
0
41
1
10
143.138498992163
20
-0.377108321559916
30
0
41
1
10
143.200727741978
20
-0.055814753313598
30
0
41
1
10
143.213173491941
20
0.0079010890898417
30
0
41
1
10
143.238064991868
20
0.13609437819585
30
0
41
1
10
143.275402241757
20
0.329367455367873
30
0
41
1
10
143.312739491646
20
0.525348812502642
30
0
41
1
10
143.387413991424
20
0.920196340115155
30
0
41
1
10
143.437196991276
20
1.18730131804398
30
0
41
1
10
143.53676299098
20
1.7247023309146
30
0
41
1
10
143.586545990832
20
1.99499185276343
30
0
41
1
10
143.686111990537
20
2.53341600605046
30
0
41
1
10
143.735894990389
20
2.80154040962776
30
0
41
1
10
143.835460990093
20
3.32975540559531
30
0
41
1
10
143.885243989945
20
3.58983283916876
30
0
41
1
10
143.98480998965
20
4.09589665997501
30
0
41
1
10
144.034592989502
20
4.34186850494658
30
0
41
1
10
144.134158989206
20
4.8139078258896
30
0
41
1
10
144.183941989058
20
5.03996143807424
30
0
41
1
10
144.283507988762
20
5.4670293174168
30
0
41
1
10
144.333290988614
20
5.66803251335961
30
0
41
1
10
144.432856988319
20
6.04092498248693
30
0
41
1
10
144.482639988171
20
6.21280761261391
30
0
41
1
10
144.582205987875
20
6.52471616223573
30
0
41
1
10
144.631988987727
20
6.66474061937302
30
0
41
1
10
144.731554987432
20
6.91164537497926
30
0
41
1
10
144.781337987284
20
7.01852913127055
30
0
41
1
10
144.880903986988
20
7.19928850087638
30
0
41
1
10
144.93068698684
20
7.27317139073682
30
0
41
1
10
145.030252986544
20
7.38932256065297
30
0
41
1
10
145.080035986396
20
7.4316003705531
30
0
41
1
10
145.179601986101
20
7.48693400214754
30
0
41
1
10
145.229384985953
20
7.5
30
0
41
1
10
145.279167985805
20
7.5
30
0
0
SPLINE
5
F7
100
AcDbEntity
8
1
62
256
6
ByLayer
370
13
48
1
60
0
100
AcDbSpline
70
4
71
3
72
22
73
18
40
0
40
0
40
0
40
0
40
0.125
40
0.125
40
0.25
40
0.25
40
0.375
40
0.375
40
0.5
40
0.5
40
0.625
40
0.625
40
0.75
40
0.75
40
0.875
40
0.875
40
1
40
1
40
1
40
1
41
1
10
147.48211175493
20
7.5
30
0
41
1
10
147.535783066933
20
7.5
30
0
41
1
10
147.589454378936
20
7.48480867968098
30
0
41
1
10
147.696797002942
20
7.42022529281689
30
0
41
1
10
147.750468314946
20
7.37081841697776
30
0
41
1
10
147.857810938952
20
7.23492869806606
30
0
41
1
10
147.911482250955
20
7.1484323468683
30
0
41
1
10
148.018824874961
20
6.9368933559077
30
0
41
1
10
148.072496186964
20
6.81184124854695
30
0
41
1
10
148.17983881097
20
6.52348079858021
30
0
41
1
10
148.233510122973
20
6.36016954493553
30
0
41
1
10
148.340852746979
20
5.99753607250915
30
0
41
1
10
148.394524058982
20
5.79821896402035
30
0
41
1
10
148.501866682988
20
5.36774556184088
30
0
41
1
10
148.555537994991
20
5.13660217689076
30
0
41
1
10
148.662880618997
20
4.64830153638411
30
0
41
1
10
148.716551931
20
4.39116296397745
30
0
41
1
10
148.770223243003
20
4.12451520381998
30
0
0
SPLINE
5
F8
100
AcDbEntity
8
1
62
256
6
ByLayer
370
13
48
1
60
0
100
AcDbSpline
70
4
71
3
72
71
73
67
40
0
40
0
40
0
40
0
40
0.031249999999999
40
0.031249999999999
40
0.0390624999999988
40
0.0390624999999988
40
0.0468749999999985
40
0.062499999999998
40
0.062499999999998
40
0.124999999999997
40
0.124999999999997
40
0.156249999999996
40
0.156249999999996
40
0.187499999999996
40
0.187499999999996
40
0.218749999999996
40
0.218749999999996
40
0.249999999999995
40
0.249999999999995
40
0.281249999999995
40
0.281249999999995
40
0.312499999999995
40
0.312499999999995
40
0.343749999999994
40
0.343749999999994
40
0.374999999999994
40
0.374999999999994
40
0.406249999999994
40
0.406249999999994
40
0.437499999999994
40
0.437499999999994
40
0.499999999999992
40
0.499999999999992
40
0.515624999999993
40
0.515624999999993
40
0.523437499999993
40
0.523437499999993
40
0.531249999999993
40
0.531249999999993
40
0.562499999999993
40
0.562499999999993
40
0.593749999999994
40
0.593749999999994
40
0.624999999999994
40
0.624999999999994
40
0.656249999999995
40
0.656249999999995
40
0.687499999999995
40
0.687499999999995
40
0.718749999999995
40
0.718749999999995
40
0.749999999999996
40
0.749999999999996
40
0.781249999999996
40
0.781249999999996
40
0.812499999999997
40
0.812499999999997
40
0.843749999999997
40
0.843749999999997
40
0.874999999999998
40
0.874999999999998
40
0.906249999999998
40
0.906249999999998
40
0.937499999999999
40
0.937499999999999
40
1
40
1
40
1
40
1
41
1
10
140.5
20
-7.46146686969388
30
0
41
1
10
140.544587976533
20
-7.48554551558479
30
0
41
1
10
140.589175953065
20
-7.49794525194653
30
0
41
1
10
140.644910923731
20
-7.50021913890637
30
0
41
1
10
140.656057917864
20
-7.50001896561432
30
0
41
1
10
140.678351906131
20
-7.4982922414342
30
0
41
1
10
140.71179288853
20
-7.49370420837661
30
0
41
1
10
140.745233870929
20
-7.48295813615684
30
0
41
1
10
140.856703812261
20
-7.432774208305
30
0
41
1
10
140.945879765326
20
-7.34631083940025
30
0
41
1
10
141.079643694924
20
-7.13779180231552
30
0
41
1
10
141.124231671457
20
-7.05521807324061
30
0
41
1
10
141.213407624522
20
-6.86342558053565
30
0
41
1
10
141.257995601055
20
-6.75420362520151
30
0
41
1
10
141.34717155412
20
-6.5094657474007
30
0
41
1
10
141.391759530653
20
-6.37394891091193
30
0
41
1
10
141.480935483718
20
-6.07790723532199
30
0
41
1
10
141.52552346025
20
-5.91738413440058
30
0
41
1
10
141.614699413316
20
-5.57353955516797
30
0
41
1
10
141.659287389848
20
-5.3902224524299
30
0
41
1
10
141.748463342914
20
-5.00383097660969
30
0
41
1
10
141.793051319446
20
-4.80076317866903
30
0
41
1
10
141.882227272511
20
-4.37857653707351
30
0
41
1
10
141.926815249044
20
-4.15946567832421
30
0
41
1
10
142.015991202109
20
-3.70934249909629
30
0
41
1
10
142.060579178642
20
-3.47833859095607
30
0
41
1
10
142.149755131707
20
-3.00877237277271
30
0
41
1
10
142.19434310824
20
-2.77021792753783
30
0
41
1
10
142.283519061305
20
-2.28983930906011
30
0
41
1
10
142.328107037838
20
-2.0480216660761
30
0
41
1
10
142.461870967436
20
-1.32368744822188
30
0
41
1
10
142.551046920501
20
-0.842581389047126
30
0
41
1
10
142.662516861832
20
-0.259884021808205
30
0
41
1
10
142.684810850099
20
-0.144256825822225
30
0
41
1
10
142.718251832498
20
0.0275755764106975
30
0
41
1
10
142.729398826631
20
0.0848009800033935
30
0
41
1
10
142.751692814898
20
0.200039835177165
30
0
41
1
10
142.762839809031
20
0.257914477199506
30
0
41
1
10
142.818574779696
20
0.548462844553171
30
0
41
1
10
142.863162756229
20
0.78468531539022
30
0
41
1
10
142.952338709294
20
1.26173744796461
30
0
41
1
10
142.996926685827
20
1.502564541342
30
0
41
1
10
143.086102638892
20
1.98530213217489
30
0
41
1
10
143.130690615425
20
2.22720808822629
30
0
41
1
10
143.21986656849
20
2.70812397937959
30
0
41
1
10
143.264454545023
20
2.94712752722879
30
0
41
1
10
143.353630498088
20
3.41796827855398
30
0
41
1
10
143.398218474621
20
3.64979770534066
30
0
41
1
10
143.487394427686
20
4.10194356477044
30
0
41
1
10
143.531982404219
20
4.32225159550873
30
0
41
1
10
143.621158357284
20
4.74717761503445
30
0
41
1
10
143.665746333817
20
4.95178754184516
30
0
41
1
10
143.754922286882
20
5.34156075329375
30
0
41
1
10
143.799510263414
20
5.52671730560337
30
0
41
1
10
143.88868621648
20
5.87447331876493
30
0
41
1
10
143.933274193012
20
6.037068190669
30
0
41
1
10
144.022450146078
20
6.3374092785503
30
0
41
1
10
144.06703812261
20
6.47515352152175
30
0
41
1
10
144.156214075675
20
6.72442056159534
30
0
41
1
10
144.200802052208
20
6.83594405315824
30
0
41
1
10
144.289978005273
20
7.0323345463614
30
0
41
1
10
144.334565981806
20
7.11720456535932
30
0
41
1
10
144.423741934871
20
7.26073345863361
30
0
41
1
10
144.468329911404
20
7.31939704504413
30
0
41
1
10
144.602093841002
20
7.45788180215413
30
0
41
1
10
144.691269794067
20
7.5
30
0
41
1
10
144.780445747132
20
7.5
30
0
0
SPLINE
5
F9
100
AcDbEntity
8
1
62
256
6
ByLayer
370
13
48
1
60
0
100
AcDbSpline
70
4
71
3
72
22
73
18
40
0
40
0
40
0
40
0
40
0.125
40
0.125
40
0.25
40
0.25
40
0.375
40
0.375
40
0.5
40
0.5
40
0.625
40
0.625
40
0.75
40
0.75
40
0.875
40
0.875
40
1
40
1
40
1
40
1
41
1
10
146.983389516257
20
7.5
30
0
41
1
10
147.057840921539
20
7.5
30
0
41
1
10
147.13229232682
20
7.47070518558974
30
0
41
1
10
147.281195137382
20
7.34377172072413
30
0
41
1
10
147.355646542663
20
7.24605859109496
30
0
41
1
10
147.504549353225
20
6.97661137786031
30
0
41
1
10
147.579000758506
20
6.80482335553617
30
0
41
1
10
147.727903569068
20
6.38779502388377
30
0
41
1
10
147.802354974349
20
6.14254639267838
30
0
41
1
10
147.951257784911
20
5.58643580907813
30
0
41
1
10
148.025709190193
20
5.2756225583822
30
0
41
1
10
148.174612000755
20
4.60290993979768
30
0
41
1
10
148.249063406036
20
4.24110434502222
30
0
41
1
10
148.397966216598
20
3.4854156724611
30
0
41
1
10
148.472417621879
20
3.09164053549702
30
0
41
1
10
148.621320432441
20
2.29234640410038
30
0
41
1
10
148.695771837722
20
1.88691615530496
30
0
41
1
10
148.770223243003
20
1.4849070381681
30
0
0
SPLINE
5
FA
100
AcDbEntity
8
1
62
256
6
ByLayer
370
13
48
1
60
0
100
AcDbSpline
70
4
71
3
72
42
73
38
40
0
40
0
40
0
40
0
40
0.0625000000000018
40
0.0625000000000018
40
0.125000000000004
40
0.125000000000004
40
0.187500000000005
40
0.187500000000005
40
0.250000000000007
40
0.250000000000007
40
0.312500000000009
40
0.312500000000009
40
0.37500000000001
40
0.37500000000001
40
0.437500000000012
40
0.437500000000012
40
0.453125000000012
40
0.453125000000012
40
0.468750000000012
40
0.468750000000012
40
0.500000000000011
40
0.500000000000011
40
0.56250000000001
40
0.56250000000001
40
0.625000000000009
40
0.625000000000009
40
0.687500000000007
40
0.687500000000007
40
0.750000000000006
40
0.750000000000006
40
0.812500000000004
40
0.812500000000004
40
0.875000000000003
40
0.875000000000003
40
0.937500000000002
40
0.937500000000002
40
1
40
1
40
1
40
1
41
1
10
140.5
20
-7.26106156003013
30
0
41
1
10
140.578785906426
20
-7.15069348462742
30
0
41
1
10
140.657571812852
20
-6.99972985576377
30
0
41
1
10
140.815143625705
20
-6.6143380371806
30
0
41
1
10
140.893929532131
20
-6.37987407993307
30
0
41
1
10
141.051501344984
20
-5.83388702226804
30
0
41
1
10
141.13028725141
20
-5.52240588419386
30
0
41
1
10
141.287859064263
20
-4.83762660107868
30
0
41
1
10
141.366644970689
20
-4.46444123820555
30
0
41
1
10
141.524216783541
20
-3.67794669986438
30
0
41
1
10
141.603002689967
20
-3.26478059896971
30
0
41
1
10
141.76057450282
20
-2.42245077932068
30
0
41
1
10
141.839360409246
20
-1.99340985042286
30
0
41
1
10
141.996932222099
20
-1.14171214192839
30
0
41
1
10
142.075718128525
20
-0.719125214106242
30
0
41
1
10
142.174200511558
20
-0.205911326151352
30
0
41
1
10
142.193896988164
20
-0.1040058050759
30
0
41
1
10
142.233289941377
20
0.0981136736089354
30
0
41
1
10
142.252986417984
20
0.199955910995271
30
0
41
1
10
142.312075847803
20
0.507798251650399
30
0
41
1
10
142.351468801017
20
0.715995718059077
30
0
41
1
10
142.469647660656
20
1.34648099006262
30
0
41
1
10
142.548433567082
20
1.77480664207758
30
0
41
1
10
142.706005379935
20
2.62740114983902
30
0
41
1
10
142.784791286361
20
3.05157168519898
30
0
41
1
10
142.942363099213
20
3.87221909045678
30
0
41
1
10
143.02114900564
20
4.26855740484066
30
0
41
1
10
143.178720818492
20
5.01006103149518
30
0
41
1
10
143.257506724918
20
5.35509183603111
30
0
41
1
10
143.415078537771
20
5.97494433451988
30
0
41
1
10
143.493864444197
20
6.24968501884257
30
0
41
1
10
143.65143625705
20
6.71777761055117
30
0
41
1
10
143.730222163476
20
6.91112757824229
30
0
41
1
10
143.887793976328
20
7.21442447653473
30
0
41
1
10
143.966579882755
20
7.32443728566275
30
0
41
1
10
144.124151695607
20
7.46717603342321
30
0
41
1
10
144.202937602033
20
7.5
30
0
41
1
10
144.281723508459
20
7.5
30
0
0
SPLINE
5
FB
100
AcDbEntity
8
1
62
256
6
ByLayer
370
13
48
1
60
0
100
AcDbSpline
70
4
71
3
72
42
73
38
40
0
40
0
40
0
40
0
40
0.0624999999999998
40
0.0624999999999998
40
0.125
40
0.125
40
0.187499999999999
40
0.187499999999999
40
0.249999999999999
40
0.249999999999999
40
0.312499999999999
40
0.312499999999999
40
0.374999999999999
40
0.374999999999999
40
0.437499999999998
40
0.437499999999998
40
0.499999999999998
40
0.499999999999998
40
0.562499999999998
40
0.562499999999998
40
0.624999999999998
40
0.624999999999998
40
0.687499999999997
40
0.687499999999997
40
0.749999999999997
40
0.749999999999997
40
0.812499999999997
40
0.812499999999997
40
0.874999999999997
40
0.874999999999997
40
0.890624999999997
40
0.890624999999997
40
0.906249999999997
40
0.906249999999997
40
0.937499999999998
40
0.937499999999998
40
1
40
1
40
1
40
1
41
1
10
146.484667277585
20
7.5
30
0
41
1
10
146.532283026864
20
7.5
30
0
41
1
10
146.579898776144
20
7.48804871931685
30
0
41
1
10
146.675130274703
20
7.43754679956231
30
0
41
1
10
146.722746023983
20
7.39898801429038
30
0
41
1
10
146.817977522542
20
7.29312943779846
30
0
41
1
10
146.865593271821
20
7.22582191857313
30
0
41
1
10
146.96082477038
20
7.06113672467529
30
0
41
1
10
147.00844051966
20
6.96375290933906
30
0
41
1
10
147.103672018219
20
6.73861118982202
30
0
41
1
10
147.151287767499
20
6.61084990309976
30
0
41
1
10
147.246519266058
20
6.32582180792346
30
0
41
1
10
147.294135015337
20
6.16855526654388
30
0
41
1
10
147.389366513896
20
5.82660751964423
30
0
41
1
10
147.436982263176
20
5.64193057513012
30
0
41
1
10
147.532213761735
20
5.24840795026037
30
0
41
1
10
147.579829511015
20
5.03957016740236
30
0
41
1
10
147.675061009574
20
4.60194238857585
30
0
41
1
10
147.722676758853
20
4.37316289951931
30
0
41
1
10
147.817908257412
20
3.90055818461326
30
0
41
1
10
147.865524006692
20
3.65674460227805
30
0
41
1
10
147.960755505251
20
3.159329856298
30
0
41
1
10
148.008371254531
20
2.90573989739667
30
0
41
1
10
148.10360275309
20
2.39403344215916
30
0
41
1
10
148.151218502369
20
2.13592637840981
30
0
41
1
10
148.246450000928
20
1.62013525202687
30
0
41
1
10
148.294065750208
20
1.36245799626425
30
0
41
1
10
148.389297248767
20
0.851918113322228
30
0
41
1
10
148.436912998047
20
0.599059371294516
30
0
41
1
10
148.496432684646
20
0.288290517925816
30
0
41
1
10
148.508336621966
20
0.226400096197494
30
0
41
1
10
148.532144496606
20
0.103195586957412
30
0
41
1
10
148.544048433926
20
0.0419903316246746
30
0
41
1
10
148.579760245885
20
-0.141404789370114
30
0
41
1
10
148.603568120525
20
-0.264896551121126
30
0
41
1
10
148.674991744444
20
-0.638472142372819
30
0
41
1
10
148.722607493724
20
-0.891679979333276
30
0
41
1
10
148.770223243004
20
-1.14719289988108
30
0
0
SPLINE
5
FC
100
AcDbEntity
8
1
62
256
6
ByLayer
370
13
48
1
60
0
100
AcDbSpline
70
4
71
3
72
8
73
4
40
0
40
0
40
0
40
0
40
1
40
1
40
1
40
1
41
1
10
148.770223243004
20
3.08612654193794
30
0
41
1
10
149.680148828669
20
2.06363760828938
30
0
41
1
10
150.590074414335
20
1.03492492044919
30
0
41
1
10
151.5
20
5.68E-14
30
0
0
SPLINE
5
FD
100
AcDbEntity
8
1
62
256
6
ByLayer
370
13
48
1
60
0
100
AcDbSpline
70
4
71
3
72
8
73
4
40
0
40
0
40
0
40
0
40
1
40
1
40
1
40
1
41
1
10
148.770223243004
20
7.37460914216481
30
0
41
1
10
149.680148828669
20
4.91764878131829
30
0
41
1
10
150.590074414335
20
2.4594365735197
30
0
41
1
10
151.5
20
0
30
0
0
SPLINE
5
FE
100
AcDbEntity
8
1
62
256
6
ByLayer
370
13
48
1
60
0
100
AcDbSpline
70
4
71
3
72
8
73
4
40
0
40
0
40
0
40
0
40
1
40
1
40
1
40
1
41
1
10
148.770223243004
20
-2.77437140428449
30
0
41
1
10
149.680148828669
20
-1.8432405852007
30
0
41
1
10
150.590074414334
20
-0.918446679360585
30
0
41
1
10
151.5
20
-1.421E-13
30
0
0
SPLINE
5
FF
100
AcDbEntity
8
1
62
256
6
ByLayer
370
13
48
1
60
0
100
AcDbSpline
70
4
71
3
72
8
73
4
40
0
40
0
40
0
40
0
40
1
40
1
40
1
40
1
41
1
10
148.770223243003
20
-3.85292406640394
30
0
41
1
10
149.680148828669
20
-2.56276097353319
30
0
41
1
10
150.590074414335
20
-1.27844817354622
30
0
41
1
10
151.5
20
1.137E-13
30
0
0
SPLINE
5
100
100
AcDbEntity
8
1
62
256
6
ByLayer
370
13
48
1
60
0
100
AcDbSpline
70
4
71
3
72
8
73
4
40
0
40
0
40
0
40
0
40
1
40
1
40
1
40
1
41
1
10
148.770223243004
20
5.22384655125344
30
0
41
1
10
149.680148828669
20
3.47766752814749
30
0
41
1
10
150.590074414335
20
1.7363788627423
30
0
41
1
10
151.5
20
2.842E-13
30
0
0
SPLINE
5
101
100
AcDbEntity
8
1
62
256
6
ByLayer
370
13
48
1
60
0
100
AcDbSpline
70
4
71
3
72
8
73
4
40
0
40
0
40
0
40
0
40
1
40
1
40
1
40
1
41
1
10
148.770223243003
20
-7.30543227908399
30
0
41
1
10
149.680148828669
20
-4.86874381441251
30
0
41
1
10
150.590074414335
20
-2.43359065034943
30
0
41
1
10
151.5
20
1.99E-13
30
0
0
SPLINE
5
102
100
AcDbEntity
8
1
62
256
6
ByLayer
370
13
48
1
60
0
100
AcDbSpline
70
4
71
3
72
8
73
4
40
0
40
0
40
0
40
0
40
1
40
1
40
1
40
1
41
1
10
148.770223243004
20
7.49809908809399
30
0
41
1
10
149.680148828669
20
4.99888636563765
30
0
41
1
10
150.590074414335
20
2.49951069051403
30
0
41
1
10
151.5
20
0
30
0
0
SPLINE
5
103
100
AcDbEntity
8
1
62
256
6
ByLayer
370
13
48
1
60
0
100
AcDbSpline
70
4
71
3
72
8
73
4
40
0
40
0
40
0
40
0
40
1
40
1
40
1
40
1
41
1
10
148.770223243003
20
-5.56210847741085
30
0
41
1
10
149.680148828669
20
-3.71265033369619
30
0
41
1
10
150.590074414335
20
-1.85860726103468
30
0
41
1
10
151.5
20
1.421E-13
30
0
0
SPLINE
5
104
100
AcDbEntity
8
1
62
256
6
ByLayer
370
13
48
1
60
0
100
AcDbSpline
70
4
71
3
72
8
73
4
40
0
40
0
40
0
40
0
40
1
40
1
40
1
40
1
41
1
10
148.770223243004
20
7.06131909839033
30
0
41
1
10
149.680148828669
20
4.70984581544857
30
0
41
1
10
150.590074414335
20
2.356064010018
30
0
41
1
10
151.5
20
2.84E-14
30
0
0
SPLINE
5
105
100
AcDbEntity
8
1
62
256
6
ByLayer
370
13
48
1
60
0
100
AcDbSpline
70
4
71
3
72
8
73
4
40
0
40
0
40
0
40
0
40
1
40
1
40
1
40
1
41
1
10
148.770223243003
20
5.90226862255557
30
0
41
1
10
149.680148828669
20
3.93905637679728
30
0
41
1
10
150.590074414335
20
1.97162616708332
30
0
41
1
10
151.5
20
8.53E-14
30
0
0
SPLINE
5
106
100
AcDbEntity
8
1
62
256
6
ByLayer
370
13
48
1
60
0
100
AcDbSpline
70
4
71
3
72
8
73
4
40
0
40
0
40
0
40
0
40
1
40
1
40
1
40
1
41
1
10
148.770223243003
20
-7.48283062983145
30
0
41
1
10
149.680148828669
20
-4.98809224441297
30
0
41
1
10
150.590074414335
20
-2.49380607510338
30
0
41
1
10
151.5
20
1.99E-13
30
0
0
SPLINE
5
107
100
AcDbEntity
8
1
62
256
6
ByLayer
370
13
48
1
60
0
100
AcDbSpline
70
4
71
3
72
8
73
4
40
0
40
0
40
0
40
0
40
1
40
1
40
1
40
1
41
1
10
148.770223243004
20
6.56629209338118
30
0
41
1
10
149.680148828669
20
4.38082568682827
30
0
41
1
10
150.590074414335
20
2.19205349662499
30
0
41
1
10
151.5
20
8.53E-14
30
0
0
SPLINE
5
108
100
AcDbEntity
8
1
62
256
6
ByLayer
370
13
48
1
60
0
100
AcDbSpline
70
4
71
3
72
8
73
4
40
0
40
0
40
0
40
0
40
1
40
1
40
1
40
1
41
1
10
148.770223243004
20
0.770248479026776
30
0
41
1
10
149.680148828669
20
0.52028734296718
30
0
41
1
10
150.590074414334
20
0.263536884920427
30
0
41
1
10
151.5
20
5.68E-14
30
0
0
SPLINE
5
109
100
AcDbEntity
8
1
62
256
6
ByLayer
370
13
48
1
60
0
100
AcDbSpline
70
4
71
3
72
8
73
4
40
0
40
0
40
0
40
0
40
1
40
1
40
1
40
1
41
1
10
148.770223243004
20
1.95332382935624
30
0
41
1
10
149.680148828669
20
1.30880481102559
30
0
41
1
10
150.590074414335
20
0.657694433800884
30
0
41
1
10
151.5
20
2.84E-14
30
0
0
SPLINE
5
10A
100
AcDbEntity
8
1
62
256
6
ByLayer
370
13
48
1
60
0
100
AcDbSpline
70
4
71
3
72
8
73
4
40
0
40
0
40
0
40
0
40
1
40
1
40
1
40
1
41
1
10
148.770223243004
20
-0.243511043970813
30
0
41
1
10
149.680148828669
20
-0.169161539829247
30
0
41
1
10
150.590074414334
20
-0.0879908809403105
30
0
41
1
10
151.499999999999
20
-5.68E-14
30
0
0
SPLINE
5
10B
100
AcDbEntity
8
1
62
256
6
ByLayer
370
13
48
1
60
0
100
AcDbSpline
70
4
71
3
72
8
73
4
40
0
40
0
40
0
40
0
40
1
40
1
40
1
40
1
41
1
10
148.770223243004
20
0.958319110367057
30
0
41
1
10
149.680148828669
20
0.632110904510341
30
0
41
1
10
150.590074414335
20
0.312670019280063
30
0
41
1
10
151.5
20
-1.137E-13
30
0
0
SPLINE
5
10C
100
AcDbEntity
8
1
62
256
6
ByLayer
370
13
48
1
60
0
100
AcDbSpline
70
4
71
3
72
8
73
4
40
0
40
0
40
0
40
0
40
1
40
1
40
1
40
1
41
1
10
148.770223243003
20
-4.83231413553747
30
0
41
1
10
149.680148828669
20
-3.21632365832457
30
0
41
1
10
150.590074414335
20
-1.60554628482024
30
0
41
1
10
151.5
20
1.421E-13
30
0
0
SPLINE
5
10D
100
AcDbEntity
8
1
62
256
6
ByLayer
370
13
48
1
60
0
100
AcDbSpline
70
4
71
3
72
8
73
4
40
0
40
0
40
0
40
0
40
1
40
1
40
1
40
1
41
1
10
148.770223243004
20
6.01719513966094
30
0
41
1
10
149.680148828669
20
4.00738970649815
30
0
41
1
10
150.590074414335
20
2.001650525305
30
0
41
1
10
151.5
20
-6.537E-13
30
0
0
SPLINE
5
10E
100
AcDbEntity
8
1
62
256
6
ByLayer
370
13
48
1
60
0
100
AcDbSpline
70
4
71
3
72
8
73
4
40
0
40
0
40
0
40
0
40
1
40
1
40
1
40
1
41
1
10
148.770223243004
20
-3.68927064812687
30
0
41
1
10
149.680148828669
20
-2.46545546676677
30
0
41
1
10
150.590074414335
20
-1.23569399480337
30
0
41
1
10
151.5
20
-1.99E-13
30
0
0
SPLINE
5
10F
100
AcDbEntity
8
1
62
256
6
ByLayer
370
13
48
1
60
0
100
AcDbSpline
70
4
71
3
72
8
73
4
40
0
40
0
40
0
40
0
40
1
40
1
40
1
40
1
41
1
10
148.770223243003
20
-7.46764358949952
30
0
41
1
10
149.680148828669
20
-4.97906229153242
30
0
41
1
10
150.590074414335
20
-2.48983848650201
30
0
41
1
10
151.5
20
1.99E-13
30
0
0
SPLINE
5
110
100
AcDbEntity
8
1
62
256
6
ByLayer
370
13
48
1
60
0
100
AcDbSpline
70
4
71
3
72
8
73
4
40
0
40
0
40
0
40
0
40
1
40
1
40
1
40
1
41
1
10
148.770223243004
20
-1.43907396175675
30
0
41
1
10
149.680148828669
20
-0.966080278610775
30
0
41
1
10
150.590074414335
20
-0.486387162454832
30
0
41
1
10
151.5
20
-8.53E-14
30
0
0
SPLINE
5
111
100
AcDbEntity
8
1
62
256
6
ByLayer
370
13
48
1
60
0
100
AcDbSpline
70
4
71
3
72
8
73
4
40
0
40
0
40
0
40
0
40
1
40
1
40
1
40
1
41
1
10
148.770223243003
20
-4.6859911710043
30
0
41
1
10
149.680148828669
20
-3.12932254117496
30
0
41
1
10
150.590074414334
20
-1.56731965780759
30
0
41
1
10
151.5
20
-2.558E-13
30
0
0
SPLINE
5
112
100
AcDbEntity
8
1
62
256
6
ByLayer
370
13
48
1
60
0
100
AcDbSpline
70
4
71
3
72
8
73
4
40
0
40
0
40
0
40
0
40
1
40
1
40
1
40
1
41
1
10
148.770223243003
20
-6.39598124616177
30
0
41
1
10
149.680148828669
20
-4.26042348909886
30
0
41
1
10
150.590074414335
20
-2.12842180134064
30
0
41
1
10
151.5
20
1.705E-13
30
0
0
SPLINE
5
113
100
AcDbEntity
8
1
62
256
6
ByLayer
370
13
48
1
60
0
100
AcDbSpline
70
4
71
3
72
8
73
4
40
0
40
0
40
0
40
0
40
1
40
1
40
1
40
1
41
1
10
148.770223243004
20
-0.432650733675075
30
0
41
1
10
149.680148828669
20
-0.281620745081966
30
0
41
1
10
150.590074414334
20
-0.137403304989561
30
0
41
1
10
151.5
20
-2.84E-14
30
0
0
SPLINE
5
114
100
AcDbEntity
8
1
62
256
6
ByLayer
370
13
48
1
60
0
100
AcDbSpline
70
4
71
3
72
8
73
4
40
0
40
0
40
0
40
0
40
1
40
1
40
1
40
1
41
1
10
148.770223243004
20
2.13548503404428
30
0
41
1
10
149.680148828669
20
1.41711472915614
30
0
41
1
10
150.590074414335
20
0.705283740442212
30
0
41
1
10
151.5
20
1.137E-13
30
0
0
SPLINE
5
115
100
AcDbEntity
8
1
62
256
6
ByLayer
370
13
48
1
60
0
100
AcDbSpline
70
4
71
3
72
8
73
4
40
0
40
0
40
0
40
0
40
1
40
1
40
1
40
1
41
1
10
148.770223243003
20
-5.68733507838067
30
0
41
1
10
149.680148828669
20
-3.7871079160449
30
0
41
1
10
150.590074414335
20
-1.89132249874626
30
0
41
1
10
151.5
20
1.705E-13
30
0
0
SPLINE
5
116
100
AcDbEntity
8
1
62
256
6
ByLayer
370
13
48
1
60
0
100
AcDbSpline
70
4
71
3
72
8
73
4
40
0
40
0
40
0
40
0
40
1
40
1
40
1
40
1
41
1
10
148.770223243003
20
4.13950170679067
30
0
41
1
10
149.680148828669
20
2.76535862533274
30
0
41
1
10
150.590074414335
20
1.38551957496355
30
0
41
1
10
151.5
20
-2.84E-14
30
0
0
SPLINE
5
117
100
AcDbEntity
8
1
62
256
6
ByLayer
370
13
48
1
60
0
100
AcDbSpline
70
4
71
3
72
8
73
4
40
0
40
0
40
0
40
0
40
1
40
1
40
1
40
1
41
1
10
148.770223243004
20
7.12286654591384
30
0
41
1
10
149.680148828669
20
4.74644086879033
30
0
41
1
10
150.590074414335
20
2.3721431765897
30
0
41
1
10
151.5
20
-7.958E-13
30
0
0
SPLINE
5
118
100
AcDbEntity
8
1
62
256
6
ByLayer
370
13
48
1
60
0
100
AcDbSpline
70
4
71
3
72
8
73
4
40
0
40
0
40
0
40
0
40
1
40
1
40
1
40
1
41
1
10
148.770223243003
20
-7.26026202649703
30
0
41
1
10
149.680148828669
20
-4.84188635940166
30
0
41
1
10
150.590074414335
20
-2.42178999825612
30
0
41
1
10
151.5
20
1.99E-13
30
0
0
SPLINE
5
119
100
AcDbEntity
8
1
62
256
6
ByLayer
370
13
48
1
60
0
100
AcDbSpline
70
4
71
3
72
8
73
4
40
0
40
0
40
0
40
0
40
1
40
1
40
1
40
1
41
1
10
148.770223243003
20
5.08633863838469
30
0
41
1
10
149.680148828669
20
3.39590768904984
30
0
41
1
10
150.590074414335
20
1.70045515306782
30
0
41
1
10
151.5
20
-1.421E-13
30
0
0
SPLINE
5
11A
100
AcDbEntity
8
1
62
256
6
ByLayer
370
13
48
1
60
0
100
AcDbSpline
70
4
71
3
72
8
73
4
40
0
40
0
40
0
40
0
40
1
40
1
40
1
40
1
41
1
10
148.770223243004
20
4.2960519783276
30
0
41
1
10
149.680148828669
20
2.85844072326069
30
0
41
1
10
150.590074414335
20
1.42641806863372
30
0
41
1
10
151.5
20
-4.832E-13
30
0
0
SPLINE
5
11B
100
AcDbEntity
8
1
62
256
6
ByLayer
370
13
48
1
60
0
100
AcDbSpline
70
4
71
3
72
8
73
4
40
0
40
0
40
0
40
0
40
1
40
1
40
1
40
1
41
1
10
148.770223243004
20
-2.59759947546033
30
0
41
1
10
149.680148828669
20
-1.73813503777373
30
0
41
1
10
150.590074414334
20
-0.872265311924309
30
0
41
1
10
151.499999999999
20
-5.684E-13
30
0
0
SPLINE
5
11C
100
AcDbEntity
8
1
62
256
6
ByLayer
370
13
48
1
60
0
100
AcDbSpline
70
4
71
3
72
8
73
4
40
0
40
0
40
0
40
0
40
1
40
1
40
1
40
1
41
1
10
148.770223243004
20
-1.62441482721312
30
0
41
1
10
149.680148828669
20
-1.0762807683264
30
0
41
1
10
150.590074414335
20
-0.534807150094139
30
0
41
1
10
151.5
20
-2.84E-14
30
0
0
SPLINE
5
11D
100
AcDbEntity
8
1
62
256
6
ByLayer
370
13
48
1
60
0
100
AcDbSpline
70
4
71
3
72
8
73
4
40
0
40
0
40
0
40
0
40
1
40
1
40
1
40
1
41
1
10
148.770223243004
20
3.25769004242483
30
0
41
1
10
149.680148828669
20
2.16564631384085
30
0
41
1
10
150.590074414335
20
1.07974559479155
30
0
41
1
10
151.5
20
1.705E-13
30
0
0
SPLINE
5
11E
100
AcDbEntity
8
1
62
256
6
ByLayer
370
13
48
1
60
0
100
AcDbSpline
70
4
71
3
72
8
73
4
40
0
40
0
40
0
40
0
40
1
40
1
40
1
40
1
41
1
10
148.770223243004
20
6.6556793543443
30
0
41
1
10
149.680148828669
20
4.4339738142433
30
0
41
1
10
150.590074414335
20
2.21540576737394
30
0
41
1
10
151.5
20
3.695E-13
30
0
0
SPLINE
5
11F
100
AcDbEntity
8
1
62
256
6
ByLayer
370
13
48
1
60
0
100
AcDbSpline
70
4
71
3
72
8
73
4
40
0
40
0
40
0
40
0
40
1
40
1
40
1
40
1
41
1
10
148.770223243003
20
-6.94001423337482
30
0
41
1
10
149.680148828669
20
-4.62408866855162
30
0
41
1
10
150.590074414335
20
-2.31074197484995
30
0
41
1
10
151.5
20
1.99E-13
30
0
0
SPLINE
5
120
100
AcDbEntity
8
1
62
256
6
ByLayer
370
13
48
1
60
0
100
AcDbSpline
70
4
71
3
72
8
73
4
40
0
40
0
40
0
40
0
40
1
40
1
40
1
40
1
41
1
10
148.770223243004
20
7.40673273140817
30
0
41
1
10
149.680148828669
20
4.93674891478005
30
0
41
1
10
150.590074414334
20
2.46782880688099
30
0
41
1
10
151.499999999999
20
1.6485E-12
30
0
0
SPLINE
5
121
100
AcDbEntity
8
1
62
256
6
ByLayer
370
13
48
1
60
0
100
AcDbSpline
70
4
71
3
72
8
73
4
40
0
40
0
40
0
40
0
40
1
40
1
40
1
40
1
41
1
10
148.770223243003
20
-6.86602331399052
30
0
41
1
10
149.680148828669
20
-4.58009494093747
30
0
41
1
10
150.590074414335
20
-2.2914119722993
30
0
41
1
10
151.5
20
1.99E-13
30
0
0
SPLINE
5
122
100
AcDbEntity
8
1
62
256
6
ByLayer
370
13
48
1
60
0
100
AcDbSpline
70
4
71
3
72
8
73
4
40
0
40
0
40
0
40
0
40
1
40
1
40
1
40
1
41
1
10
148.770223243003
20
-6.29507396208862
30
0
41
1
10
149.680148828669
20
-4.20042575415059
30
0
41
1
10
150.590074414335
20
-2.10205994403782
30
0
41
1
10
151.5
20
1.705E-13
30
0
0
LINE
5
7D
100
AcDbEntity
8
81
62
256
6
ByLayer
370
18
48
1
60
0
100
AcDbLine
10
151.5
20
0
30
0
11
156.5
21
0
31
0
39
0
210
0
220
0
230
1
0
LINE
5
7E
100
AcDbEntity
8
SK4
62
256
6
ByLayer
370
18
48
0.05
60
0
100
AcDbLine
10
-55
20
0
30
0
11
156.5
21
0
31
0
39
0
210
0
220
0
230
1
0
LINE
5
80
100
AcDbEntity
8
80
62
256
6
ByLayer
370
18
48
1
60
0
100
AcDbLine
10
0
20
0
30
0
11
-5
21
0
31
0
39
0
210
0
220
0
230
1
0
LINE
5
81
100
AcDbEntity
8
4
62
256
6
ByLayer
370
18
48
0.05
60
0
100
AcDbLine
10
-5
20
0
30
0
11
156.5
21
0
31
0
39
0
210
0
220
0
230
1
0
LINE
5
83
100
AcDbEntity
8
1
62
256
6
ByLayer
370
18
48
1
60
0
100
AcDbLine
10
0
20
10
30
0
11
0
21
-10
31
0
39
0
210
0
220
0
230
1
0
LINE
5
84
100
AcDbEntity
8
1
62
256
6
ByLayer
370
18
48
1
60
0
100
AcDbLine
10
148.770223
20
7.5
30
0
11
148.770223
21
7.261837
31
0
39
0
210
0
220
0
230
1
0
LINE
5
85
100
AcDbEntity
8
1
62
256
6
ByLayer
370
18
48
1
60
0
100
AcDbLine
10
148.770223
20
-7.5
30
0
11
148.770223
21
-1.070318
31
0
39
0
210
0
220
0
230
1
0
LINE
5
86
100
AcDbEntity
8
1
62
256
6
ByLayer
370
18
48
1
60
0
100
AcDbLine
10
10
20
-7.195188
30
0
11
10
21
2.273531
31
0
39
0
210
0
220
0
230
1
0
LINE
5
87
100
AcDbEntity
8
SK1
62
256
6
ByLayer
370
13
48
1
60
0
100
AcDbLine
10
-14.992177
20
-6.1943
30
0
11
-14.992177
21
6.1943
31
0
39
0
210
0
220
0
230
1
0
LINE
5
89
100
AcDbEntity
8
SK1
62
256
6
ByLayer
370
13
48
1
60
0
100
AcDbLine
10
-42.24218
20
4.745825
30
0
11
-42.24218
21
-4.745825
31
0
39
0
210
0
220
0
230
1
0
LINE
5
8A
100
AcDbEntity
8
SK1
62
256
6
ByLayer
370
13
48
1
60
0
100
AcDbLine
10
-13.845141
20
5.608199
30
0
11
-13.845141
21
-5.608199
31
0
39
0
210
0
220
0
230
1
0
LINE
5
8B
100
AcDbEntity
8
SK1
62
256
6
ByLayer
370
18
48
1
60
0
100
AcDbLine
10
0
20
10
30
0
11
0
21
-10
31
0
39
0
210
0
220
0
230
1
0
LINE
5
8C
100
AcDbEntity
8
SK1
62
256
6
ByLayer
370
13
48
1
60
0
100
AcDbLine
10
-43.356507
20
-3.65035
30
0
11
-43.356507
21
3.65035
31
0
39
0
210
0
220
0
230
1
0
LINE
5
8D
100
AcDbEntity
8
SK1
62
256
6
ByLayer
370
18
48
1
60
0
100
AcDbLine
10
-50
20
-9
30
0
11
-50
21
9
31
0
39
0
210
0
220
0
230
1
0
LINE
5
8E
100
AcDbEntity
8
SK1
62
256
6
ByLayer
370
18
48
1
60
0
100
AcDbLine
10
-49
20
-10
30
0
11
-49
21
10
31
0
39
0
210
0
220
0
230
1
0
LINE
5
8F
100
AcDbEntity
8
1
62
256
6
ByLayer
370
18
48
1
60
0
100
AcDbLine
10
48.408212
20
7.2
30
0
11
14.004915
21
7.2
31
0
39
0
210
0
220
0
230
1
0
LINE
5
90
100
AcDbEntity
8
1
62
256
6
ByLayer
370
18
48
1
60
0
100
AcDbLine
10
79.135019
20
-7.2
30
0
11
113.144114
21
-7.2
31
0
39
0
210
0
220
0
230
1
0
LINE
5
91
100
AcDbEntity
8
1
62
256
6
ByLayer
370
18
48
1
60
0
100
AcDbLine
10
113.144114
20
7.2
30
0
11
79.135019
21
7.2
31
0
39
0
210
0
220
0
230
1
0
LINE
5
92
100
AcDbEntity
8
1
62
256
6
ByLayer
370
18
48
1
60
0
100
AcDbLine
10
14.004915
20
-7.2
30
0
11
48.408212
21
-7.2
31
0
39
0
210
0
220
0
230
1
0
LINE
5
93
100
AcDbEntity
8
1
62
256
6
ByLayer
370
18
48
1
60
0
100
AcDbLine
10
151.5
20
0
30
0
11
148.770223
21
7.5
31
0
39
0
210
0
220
0
230
1
0
LINE
5
94
100
AcDbEntity
8
1
62
256
6
ByLayer
370
18
48
1
60
0
100
AcDbLine
10
148.770223
20
-7.5
30
0
11
151.5
21
0
31
0
39
0
210
0
220
0
230
1
0
LINE
5
95
100
AcDbEntity
8
1
62
256
6
ByLayer
370
18
48
1
60
0
100
AcDbLine
10
8.568933
20
7.600699
30
0
11
0
21
10
31
0
39
0
210
0
220
0
230
1
0
LINE
5
96
100
AcDbEntity
8
1
62
256
6
ByLayer
370
18
48
1
60
0
100
AcDbLine
10
0
20
-10
30
0
11
8.568933
21
-7.600699
31
0
39
0
210
0
220
0
230
1
0
LINE
5
97
100
AcDbEntity
8
1
62
256
6
ByLayer
370
18
48
1
60
0
100
AcDbLine
10
151.5
20
0
30
0
11
148.770223
21
7.5
31
0
39
0
210
0
220
0
230
1
0
LINE
5
98
100
AcDbEntity
8
1
62
256
6
ByLayer
370
18
48
1
60
0
100
AcDbLine
10
148.770223
20
-7.5
30
0
11
151.5
21
0
31
0
39
0
210
0
220
0
230
1
0
LINE
5
99
100
AcDbEntity
8
1
62
256
6
ByLayer
370
18
48
1
60
0
100
AcDbLine
10
140.5
20
-7.5
30
0
11
148.770223
21
-7.5
31
0
39
0
210
0
220
0
230
1
0
LINE
5
9A
100
AcDbEntity
8
SK1
62
256
6
ByLayer
370
18
48
1
60
0
100
AcDbLine
10
-49
20
-10
30
0
11
0
21
-10
31
0
39
0
210
0
220
0
230
1
0
LINE
5
9B
100
AcDbEntity
8
SK1
62
256
6
ByLayer
370
18
48
1
60
0
100
AcDbLine
10
0
20
10
30
0
11
-49
21
10
31
0
39
0
210
0
220
0
230
1
0
LINE
5
9C
100
AcDbEntity
8
SK1
62
256
6
ByLayer
370
18
48
1
60
0
100
AcDbLine
10
-50
20
-9
30
0
11
-49
21
-10
31
0
39
0
210
0
220
0
230
1
0
LINE
5
9D
100
AcDbEntity
8
SK1
62
256
6
ByLayer
370
18
48
1
60
0
100
AcDbLine
10
-49
20
10
30
0
11
-50
21
9
31
0
39
0
210
0
220
0
230
1
0
LINE
5
9E
100
AcDbEntity
8
1
62
256
6
ByLayer
370
18
48
1
60
0
100
AcDbLine
10
148.770223
20
7.5
30
0
11
148.770223
21
-7.5
31
0
39
0
210
0
220
0
230
1
0
LINE
5
9F
100
AcDbEntity
8
1
62
256
6
ByLayer
370
18
48
1
60
0
100
AcDbLine
10
148.770223
20
7.5
30
0
11
148.770223
21
-7.5
31
0
39
0
210
0
220
0
230
1
0
LINE
5
A0
100
AcDbEntity
8
1
62
256
6
ByLayer
370
18
48
1
60
0
100
AcDbLine
10
148.770223
20
7.5
30
0
11
148.770223
21
-7.5
31
0
39
0
210
0
220
0
230
1
0
LINE
5
A1
100
AcDbEntity
8
1
62
256
6
ByLayer
370
18
48
1
60
0
100
AcDbLine
10
140.5
20
7.5
30
0
11
140.5
21
-7.5
31
0
39
0
210
0
220
0
230
1
0
LINE
5
A2
100
AcDbEntity
8
1
62
256
6
ByLayer
370
18
48
1
60
0
100
AcDbLine
10
140.5
20
7.5
30
0
11
140.5
21
-7.5
31
0
39
0
210
0
220
0
230
1
0
LINE
5
A3
100
AcDbEntity
8
1
62
256
6
ByLayer
370
18
48
1
60
0
100
AcDbLine
10
148.770223
20
7.5
30
0
11
148.770223
21
-7.5
31
0
39
0
210
0
220
0
230
1
0
LINE
5
A4
100
AcDbEntity
8
1
62
256
6
ByLayer
370
18
48
1
60
0
100
AcDbLine
10
140.5
20
7.5
30
0
11
140.5
21
-7.5
31
0
39
0
210
0
220
0
230
1
0
LINE
5
A5
100
AcDbEntity
8
1
62
256
6
ByLayer
370
18
48
1
60
0
100
AcDbLine
10
148.770223
20
7.5
30
0
11
148.770223
21
-7.5
31
0
39
0
210
0
220
0
230
1
0
LINE
5
A6
100
AcDbEntity
8
SK2
62
256
6
ByLayer
370
13
48
1
60
0
100
AcDbLine
10
-56.5
20
-10
30
0
11
-56.5
21
39.024569
31
0
39
0
210
0
220
0
230
1
0
LINE
5
A8
100
AcDbEntity
8
SK2
62
256
6
ByLayer
370
13
48
1
60
0
100
AcDbLine
10
-51.5875
20
10
30
0
11
-58.5
21
10
31
0
39
0
210
0
220
0
230
1
0
LINE
5
A9
100
AcDbEntity
8
SK2
62
256
6
ByLayer
370
13
48
1
60
0
100
AcDbLine
10
-51.5875
20
-10
30
0
11
-58.5
21
-10
31
0
39
0
210
0
220
0
230
1
0
LINE
5
AA
100
AcDbEntity
8
1
62
256
6
ByLayer
370
18
48
1
60
1
100
AcDbLine
10
-56.5
20
10
30
0
11
-56.039216
21
6.500002
31
0
39
0
210
0
220
0
230
1
0
LINE
5
AB
100
AcDbEntity
8
1
62
256
6
ByLayer
370
18
48
1
60
1
100
AcDbLine
10
-56.039216
20
6.500002
30
0
11
-56.960784
21
6.499998
31
0
39
0
210
0
220
0
230
1
0
LINE
5
AC
100
AcDbEntity
8
1
62
256
6
ByLayer
370
18
48
1
60
1
100
AcDbLine
10
-56.960784
20
6.499998
30
0
11
-56.5
21
10
31
0
39
0
210
0
220
0
230
1
0
LINE
5
AD
100
AcDbEntity
8
1
62
256
6
ByLayer
370
18
48
1
60
1
100
AcDbLine
10
-56.5
20
-10
30
0
11
-56.960784
21
-6.500002
31
0
39
0
210
0
220
0
230
1
0
LINE
5
AE
100
AcDbEntity
8
1
62
256
6
ByLayer
370
18
48
1
60
1
100
AcDbLine
10
-56.960784
20
-6.500002
30
0
11
-56.039216
21
-6.499998
31
0
39
0
210
0
220
0
230
1
0
LINE
5
AF
100
AcDbEntity
8
1
62
256
6
ByLayer
370
18
48
1
60
1
100
AcDbLine
10
-56.039216
20
-6.499998
30
0
11
-56.5
21
-10
31
0
39
0
210
0
220
0
230
1
0
LINE
5
B0
100
AcDbEntity
8
2
62
256
6
ByLayer
370
13
48
1
60
0
100
AcDbLine
10
159
20
-7.5
30
0
11
159
21
35.774683
31
0
39
0
210
0
220
0
230
1
0
LINE
5
B2
100
AcDbEntity
8
2
62
256
6
ByLayer
370
13
48
1
60
0
100
AcDbLine
10
150.357723
20
7.5
30
0
11
161
21
7.5
31
0
39
0
210
0
220
0
230
1
0
LINE
5
B3
100
AcDbEntity
8
2
62
256
6
ByLayer
370
13
48
1
60
0
100
AcDbLine
10
150.357723
20
-7.5
30
0
11
161
21
-7.5
31
0
39
0
210
0
220
0
230
1
0
LINE
5
B4
100
AcDbEntity
8
1
62
256
6
ByLayer
370
18
48
1
60
1
100
AcDbLine
10
159
20
7.5
30
0
11
159.460784
21
4.000002
31
0
39
0
210
0
220
0
230
1
0
LINE
5
B5
100
AcDbEntity
8
1
62
256
6
ByLayer
370
18
48
1
60
1
100
AcDbLine
10
159.460784
20
4.000002
30
0
11
158.539216
21
3.999998
31
0
39
0
210
0
220
0
230
1
0
LINE
5
B6
100
AcDbEntity
8
1
62
256
6
ByLayer
370
18
48
1
60
1
100
AcDbLine
10
158.539216
20
3.999998
30
0
11
159
21
7.5
31
0
39
0
210
0
220
0
230
1
0
LINE
5
B7
100
AcDbEntity
8
1
62
256
6
ByLayer
370
18
48
1
60
1
100
AcDbLine
10
159
20
-7.5
30
0
11
158.539216
21
-4.000002
31
0
39
0
210
0
220
0
230
1
0
LINE
5
B8
100
AcDbEntity
8
1
62
256
6
ByLayer
370
18
48
1
60
1
100
AcDbLine
10
158.539216
20
-4.000002
30
0
11
159.460784
21
-3.999998
31
0
39
0
210
0
220
0
230
1
0
LINE
5
B9
100
AcDbEntity
8
1
62
256
6
ByLayer
370
18
48
1
60
1
100
AcDbLine
10
159.460784
20
-3.999998
30
0
11
159
21
-7.5
31
0
39
0
210
0
220
0
230
1
0
LINE
5
BA
100
AcDbEntity
8
SK2
62
256
6
ByLayer
370
13
48
1
60
0
100
AcDbLine
10
152.042957
20
-1.491762
30
0
11
158.682423
21
-19.733545
31
0
39
0
210
0
220
0
230
1
0
LINE
5
BB
100
AcDbEntity
8
SK2
62
256
6
ByLayer
370
13
48
1
60
0
100
AcDbLine
10
152.042957
20
1.491762
30
0
11
158.682423
21
19.733545
31
0
39
0
210
0
220
0
230
1
0
LINE
5
BC
100
AcDbEntity
8
1
62
256
6
ByLayer
370
18
48
1
60
1
100
AcDbLine
10
157.998383
20
-17.85416
30
0
11
161.051575
21
-16.082064
31
0
39
0
210
0
220
0
230
1
0
LINE
5
BD
100
AcDbEntity
8
1
62
256
6
ByLayer
370
18
48
1
60
1
100
AcDbLine
10
161.051575
20
-16.082064
30
0
11
161.406196
21
-16.93267
31
0
39
0
210
0
220
0
230
1
0
LINE
5
BE
100
AcDbEntity
8
1
62
256
6
ByLayer
370
18
48
1
60
1
100
AcDbLine
10
161.406196
20
-16.93267
30
0
11
157.998383
21
-17.85416
31
0
39
0
210
0
220
0
230
1
0
LINE
5
BF
100
AcDbEntity
8
1
62
256
6
ByLayer
370
18
48
1
60
1
100
AcDbLine
10
157.998383
20
17.85416
30
0
11
161.406193
21
16.932671
31
0
39
0
210
0
220
0
230
1
0
LINE
5
C0
100
AcDbEntity
8
1
62
256
6
ByLayer
370
18
48
1
60
1
100
AcDbLine
10
161.406193
20
16.932671
30
0
11
161.051579
21
16.082063
31
0
39
0
210
0
220
0
230
1
0
LINE
5
C1
100
AcDbEntity
8
1
62
256
6
ByLayer
370
18
48
1
60
1
100
AcDbLine
10
161.051579
20
16.082063
30
0
11
157.998383
21
17.85416
31
0
39
0
210
0
220
0
230
1
0
LINE
5
127
100
AcDbEntity
8
1
62
256
6
ByLayer
370
18
48
1
60
1
100
AcDbLine
10
-56.5
20
10
30
0
11
-56.039216
21
6.500002
31
0
39
0
210
0
220
0
230
1
0
LINE
5
128
100
AcDbEntity
8
1
62
256
6
ByLayer
370
18
48
1
60
1
100
AcDbLine
10
-56.039216
20
6.500002
30
0
11
-56.960784
21
6.499998
31
0
39
0
210
0
220
0
230
1
0
LINE
5
129
100
AcDbEntity
8
1
62
256
6
ByLayer
370
18
48
1
60
1
100
AcDbLine
10
-56.960784
20
6.499998
30
0
11
-56.5
21
10
31
0
39
0
210
0
220
0
230
1
0
LINE
5
12B
100
AcDbEntity
8
1
62
256
6
ByLayer
370
18
48
1
60
1
100
AcDbLine
10
-56.5
20
-10
30
0
11
-56.960784
21
-6.500002
31
0
39
0
210
0
220
0
230
1
0
LINE
5
12C
100
AcDbEntity
8
1
62
256
6
ByLayer
370
18
48
1
60
1
100
AcDbLine
10
-56.960784
20
-6.500002
30
0
11
-56.039216
21
-6.499998
31
0
39
0
210
0
220
0
230
1
0
LINE
5
12D
100
AcDbEntity
8
1
62
256
6
ByLayer
370
18
48
1
60
1
100
AcDbLine
10
-56.039216
20
-6.499998
30
0
11
-56.5
21
-10
31
0
39
0
210
0
220
0
230
1
0
LINE
5
131
100
AcDbEntity
8
1
62
256
6
ByLayer
370
18
48
1
60
1
100
AcDbLine
10
159
20
7.5
30
0
11
159.460784
21
4.000002
31
0
39
0
210
0
220
0
230
1
0
LINE
5
132
100
AcDbEntity
8
1
62
256
6
ByLayer
370
18
48
1
60
1
100
AcDbLine
10
159.460784
20
4.000002
30
0
11
158.539216
21
3.999998
31
0
39
0
210
0
220
0
230
1
0
LINE
5
133
100
AcDbEntity
8
1
62
256
6
ByLayer
370
18
48
1
60
1
100
AcDbLine
10
158.539216
20
3.999998
30
0
11
159
21
7.5
31
0
39
0
210
0
220
0
230
1
0
LINE
5
135
100
AcDbEntity
8
1
62
256
6
ByLayer
370
18
48
1
60
1
100
AcDbLine
10
159
20
-7.5
30
0
11
158.539216
21
-4.000002
31
0
39
0
210
0
220
0
230
1
0
LINE
5
136
100
AcDbEntity
8
1
62
256
6
ByLayer
370
18
48
1
60
1
100
AcDbLine
10
158.539216
20
-4.000002
30
0
11
159.460784
21
-3.999998
31
0
39
0
210
0
220
0
230
1
0
LINE
5
137
100
AcDbEntity
8
1
62
256
6
ByLayer
370
18
48
1
60
1
100
AcDbLine
10
159.460784
20
-3.999998
30
0
11
159
21
-7.5
31
0
39
0
210
0
220
0
230
1
0
LINE
5
13A
100
AcDbEntity
8
1
62
256
6
ByLayer
370
18
48
1
60
1
100
AcDbLine
10
157.998383
20
-17.85416
30
0
11
161.051575
21
-16.082064
31
0
39
0
210
0
220
0
230
1
0
LINE
5
13B
100
AcDbEntity
8
1
62
256
6
ByLayer
370
18
48
1
60
1
100
AcDbLine
10
161.051575
20
-16.082064
30
0
11
161.406196
21
-16.93267
31
0
39
0
210
0
220
0
230
1
0
LINE
5
13C
100
AcDbEntity
8
1
62
256
6
ByLayer
370
18
48
1
60
1
100
AcDbLine
10
161.406196
20
-16.93267
30
0
11
157.998383
21
-17.85416
31
0
39
0
210
0
220
0
230
1
0
LINE
5
13E
100
AcDbEntity
8
1
62
256
6
ByLayer
370
18
48
1
60
1
100
AcDbLine
10
157.998383
20
17.85416
30
0
11
161.406193
21
16.932671
31
0
39
0
210
0
220
0
230
1
0
LINE
5
13F
100
AcDbEntity
8
1
62
256
6
ByLayer
370
18
48
1
60
1
100
AcDbLine
10
161.406193
20
16.932671
30
0
11
161.051579
21
16.082063
31
0
39
0
210
0
220
0
230
1
0
LINE
5
140
100
AcDbEntity
8
1
62
256
6
ByLayer
370
18
48
1
60
1
100
AcDbLine
10
161.051579
20
16.082063
30
0
11
157.998383
21
17.85416
31
0
39
0
210
0
220
0
230
1
0
MTEXT
5
123
100
AcDbEntity
8
SK2
62
256
6
ByLayer
370
18
48
1
60
0
100
AcDbMText
10
-57.841114
20
21.658438
30
0
210
0
220
0
230
1
1
%%c
40
3
41
0
44
1.084337
50
90
71
7
72
5
7
iso_b_vert
0
MTEXT
5
126
100
AcDbEntity
8
SK2
62
256
6
ByLayer
370
18
48
1
60
0
100
AcDbMText
10
-57.841114
20
27.635
30
0
210
0
220
0
230
1
1
\W0.7513;20.000
40
3
41
0
44
1.084337
50
90
71
7
72
5
7
iso_b_vert
0
MTEXT
5
12F
100
AcDbEntity
8
2
62
256
6
ByLayer
370
18
48
1
60
0
100
AcDbMText
10
157.658886
20
19.158438
30
0
210
0
220
0
230
1
1
%%c
40
3
41
0
44
1.084337
50
90
71
7
72
5
7
iso_b_vert
0
MTEXT
5
130
100
AcDbEntity
8
2
62
256
6
ByLayer
370
18
48
1
60
0
100
AcDbMText
10
157.658886
20
25.135
30
0
210
0
220
0
230
1
1
\W0.7022;15.000
40
3
41
0
44
1.084337
50
90
71
7
72
5
7
iso_b_vert
0
MTEXT
5
139
100
AcDbEntity
8
SK2
62
256
6
ByLayer
370
18
48
1
60
0
100
AcDbMText
10
171.409114
20
3.734657
30
0
210
0
220
0
230
1
1
\W0.7071;140%%d
40
3
41
0
44
1.084337
50
270
71
7
72
5
7
iso_b_vert
0
MTEXT
5
142
100
AcDbEntity
8
SK6
62
256
6
ByLayer
370
18
48
1
60
0
100
AcDbMText
10
27.212746
20
-67.114886
30
0
210
0
220
0
230
1
1
\W0.7358;H85815.0
40
3
41
0
44
1.084337
50
0
71
7
72
5
7
iso_b_vert
0
HATCH
5
12A
100
AcDbEntity
8
SK2
62
256
6
ByLayer
370
13
48
1
60
0
100
AcDbHatch
10
0
20
0
30
0
210
0
220
0
230
1
2
ANSI31
70
0
71
0
91
1
92
5
93
3
72
1
10
-56.5
20
10
11
-56.0392162584472
21
6.50000169255318
72
1
10
-56.0392162584472
20
6.50000169255318
11
-56.9607837415528
21
6.49999830744682
72
1
10
-56.9607837415528
20
6.49999830744682
11
-56.5
21
10
97
0
75
0
76
1
52
0
41
0.0062
77
0
78
1
53
45
43
0
44
0
45
-0.0139193969876572
46
0.0139193969876572
79
0
47
0
98
1
10
0
20
0
0
HATCH
5
12E
100
AcDbEntity
8
SK2
62
256
6
ByLayer
370
13
48
1
60
0
100
AcDbHatch
10
0
20
0
30
0
210
0
220
0
230
1
2
ANSI31
70
0
71
0
91
1
92
5
93
3
72
1
10
-56.5
20
-10
11
-56.9607837415528
21
-6.50000169255318
72
1
10
-56.9607837415528
20
-6.50000169255318
11
-56.0392162584472
21
-6.49999830744682
72
1
10
-56.0392162584472
20
-6.49999830744682
11
-56.5
21
-10
97
0
75
0
76
1
52
0
41
0.0062
77
0
78
1
53
45
43
0
44
0
45
-0.0139193969876572
46
0.0139193969876572
79
0
47
0
98
1
10
0
20
0
0
HATCH
5
134
100
AcDbEntity
8
2
62
256
6
ByLayer
370
13
48
1
60
0
100
AcDbHatch
10
0
20
0
30
0
210
0
220
0
230
1
2
ANSI31
70
0
71
0
91
1
92
5
93
3
72
1
10
159
20
7.5
11
159.460783741553
21
4.00000169255318
72
1
10
159.460783741553
20
4.00000169255318
11
158.539216258447
21
3.99999830744682
72
1
10
158.539216258447
20
3.99999830744682
11
159
21
7.5
97
0
75
0
76
1
52
0
41
0.0062
77
0
78
1
53
45
43
0
44
0
45
-0.0139193969876572
46
0.0139193969876572
79
0
47
0
98
1
10
0
20
0
0
HATCH
5
138
100
AcDbEntity
8
2
62
256
6
ByLayer
370
13
48
1
60
0
100
AcDbHatch
10
0
20
0
30
0
210
0
220
0
230
1
2
ANSI31
70
0
71
0
91
1
92
5
93
3
72
1
10
159
20
-7.5
11
158.539216258447
21
-4.00000169255318
72
1
10
158.539216258447
20
-4.00000169255318
11
159.460783741553
21
-3.99999830744682
72
1
10
159.460783741553
20
-3.99999830744682
11
159
21
-7.5
97
0
75
0
76
1
52
0
41
0.0062
77
0
78
1
53
45
43
0
44
0
45
-0.0139193969876572
46
0.0139193969876572
79
0
47
0
98
1
10
0
20
0
0
HATCH
5
13D
100
AcDbEntity
8
SK2
62
256
6
ByLayer
370
13
48
1
60
0
100
AcDbHatch
10
0
20
0
30
0
210
0
220
0
230
1
2
ANSI31
70
0
71
0
91
1
92
5
93
3
72
1
10
157.998382723188
20
-17.8541597949322
11
161.051575425693
21
-16.0820638240607
72
1
10
161.051575425693
20
-16.0820638240607
11
161.406195833975
21
-16.9326700737196
72
1
10
161.406195833975
20
-16.9326700737196
11
157.998382723188
21
-17.8541597949322
97
0
75
0
76
1
52
0
41
0.0062
77
0
78
1
53
45
43
0
44
0
45
-0.0139193969876572
46
0.0139193969876572
79
0
47
0
98
1
10
0
20
0
0
HATCH
5
141
100
AcDbEntity
8
SK2
62
256
6
ByLayer
370
13
48
1
60
0
100
AcDbHatch
10
0
20
0
30
0
210
0
220
0
230
1
2
ANSI31
70
0
71
0
91
1
92
5
93
3
72
1
10
157.998382723188
20
17.8541597949322
11
161.406192709519
21
16.9326713763016
72
1
10
161.406192709519
20
16.9326713763016
11
161.051578550149
21
16.0820625214787
72
1
10
161.051578550149
20
16.0820625214787
11
157.998382723188
21
17.8541597949322
97
0
75
0
76
1
52
0
41
0.0062
77
0
78
1
53
45
43
0
44
0
45
-0.0139193969876572
46
0.0139193969876572
79
0
47
0
98
1
10
0
20
0
0
DIMENSION
5
145
100
AcDbEntity
8
SK2
62
256
6
ByLayer
370
18
48
1
60
0
100
AcDbDimension
2
_U0
10
151.5
20
-46.706439
30
0
11
50.75
21
-46.706439
31
0
70
32
71
1
72
1
41
1
210
0
220
0
230
1
3
Standard
100
AcDbAlignedDimension
13
-50
23
-10
33
0
14
151.5
24
0
34
0
50
0
100
AcDbRotatedDimension
1001
ACAD
1000
DSTYLE
1002
{
1070
   371
1070
    13
1070
   372
1070
    13
1070
     3
1000

1070
   170
1070
     0
1070
   144
1040
1.0
1070
   277
1070
     2
1070
   284
1070
     8
1070
   278
1070
    46
1070
   146
1040
1.166667
1070
   345
1005
16
1070
   347
1005
16
1070
   346
1005
16
1070
   344
1005
0
1070
   343
1005
0
1070
   172
1070
     1
1070
    76
1070
     0
1070
    75
1070
     0
1070
   282
1070
     0
1070
   281
1070
     0
1070
    71
1070
     0
1070
    74
1070
     0
1070
   279
1070
     0
1070
   173
1070
     1
1070
   340
1005
124
1070
   271
1070
     2
1070
   272
1070
     3
1070
    77
1070
     1
1070
    73
1070
     1
1070
   171
1070
     3
1070
   274
1070
     4
1070
   177
1070
     2
1070
   176
1070
     2
1070
   178
1070
     2
1070
    78
1070
     8
1070
    48
1040
-0.1
1070
    41
1040
3.5
1070
   147
1040
1.5
1070
    42
1040
1.5875
1070
    44
1040
2.0
1070
   140
1040
3.0
1002
}
1001
ACAD_DSTYLE_DIM_LINETYPE
1070
   380
1005
16
1001
ACAD_DSTYLE_DIM_EXT1_LINETYPE
1070
   381
1005
16
1001
ACAD_DSTYLE_DIM_EXT2_LINETYPE
1070
   382
1005
16
0
DIMENSION
5
15E
100
AcDbEntity
8
SK2
62
256
6
ByLayer
370
18
48
1
60
0
100
AcDbDimension
2
_U1
10
3
20
-36.706439
30
0
11
77.25
21
-36.706439
31
0
70
32
71
1
72
1
41
1
210
0
220
0
230
1
3
Standard
100
AcDbAlignedDimension
13
151.5
23
0
33
0
14
3
24
-7.5
34
0
50
0
100
AcDbRotatedDimension
1001
ACAD
1000
DSTYLE
1002
{
1070
   371
1070
    13
1070
   372
1070
    13
1070
     3
1000

1070
   170
1070
     0
1070
   144
1040
1.0
1070
   277
1070
     2
1070
   284
1070
     8
1070
   278
1070
    46
1070
   146
1040
1.166667
1070
   345
1005
16
1070
   347
1005
16
1070
   346
1005
16
1070
   344
1005
0
1070
   343
1005
0
1070
   172
1070
     1
1070
    76
1070
     0
1070
    75
1070
     0
1070
   282
1070
     0
1070
   281
1070
     0
1070
    71
1070
     0
1070
    74
1070
     0
1070
   279
1070
     0
1070
   173
1070
     1
1070
   340
1005
124
1070
   271
1070
     2
1070
   272
1070
     3
1070
    77
1070
     1
1070
    73
1070
     1
1070
   171
1070
     3
1070
   274
1070
     4
1070
   177
1070
     2
1070
   176
1070
     2
1070
   178
1070
     2
1070
    78
1070
     8
1070
    48
1040
-0.1
1070
    41
1040
3.5
1070
   147
1040
1.5
1070
    42
1040
1.5875
1070
    44
1040
2.0
1070
   140
1040
3.0
1002
}
1001
ACAD_DSTYLE_DIM_LINETYPE
1070
   380
1005
16
1001
ACAD_DSTYLE_DIM_EXT1_LINETYPE
1070
   381
1005
16
1001
ACAD_DSTYLE_DIM_EXT2_LINETYPE
1070
   382
1005
16
0
DIMENSION
5
176
100
AcDbEntity
8
SK2
62
256
6
ByLayer
370
18
48
1
60
0
100
AcDbDimension
2
_U2
10
0
20
-36.706439
30
0
11
-25
21
-36.706439
31
0
70
32
71
1
72
1
41
1
210
0
220
0
230
1
3
Standard
100
AcDbAlignedDimension
13
-50
23
-10
33
0
14
0
24
-10
34
0
50
0
100
AcDbRotatedDimension
1001
ACAD
1000
DSTYLE
1002
{
1070
   371
1070
    13
1070
   372
1070
    13
1070
     3
1000

1070
   170
1070
     0
1070
   144
1040
1.0
1070
   277
1070
     2
1070
   284
1070
     8
1070
   278
1070
    46
1070
   146
1040
1.166667
1070
   345
1005
16
1070
   347
1005
16
1070
   346
1005
16
1070
   344
1005
0
1070
   343
1005
0
1070
   172
1070
     1
1070
    76
1070
     0
1070
    75
1070
     0
1070
   282
1070
     0
1070
   281
1070
     0
1070
    71
1070
     0
1070
    74
1070
     0
1070
   279
1070
     0
1070
   173
1070
     1
1070
   340
1005
124
1070
   271
1070
     2
1070
   272
1070
     3
1070
    77
1070
     1
1070
    73
1070
     1
1070
   171
1070
     3
1070
   274
1070
     4
1070
   177
1070
     2
1070
   176
1070
     2
1070
   178
1070
     2
1070
    78
1070
     8
1070
    48
1040
-0.1
1070
    41
1040
3.5
1070
   147
1040
1.5
1070
    42
1040
1.5875
1070
    44
1040
2.0
1070
   140
1040
3.0
1002
}
1001
ACAD_DSTYLE_DIM_LINETYPE
1070
   380
1005
16
1001
ACAD_DSTYLE_DIM_EXT1_LINETYPE
1070
   381
1005
16
1001
ACAD_DSTYLE_DIM_EXT2_LINETYPE
1070
   382
1005
16
0
DIMENSION
5
18E
100
AcDbEntity
8
SK2
62
256
6
ByLayer
370
18
48
1
60
0
100
AcDbDimension
2
_U3
10
18
20
33.706439
30
0
11
84.75
21
33.706439
31
0
70
32
71
1
72
1
41
1
210
0
220
0
230
1
3
Standard
100
AcDbAlignedDimension
13
151.5
23
0
33
0
14
18
24
7.5
34
0
50
0
100
AcDbRotatedDimension
1001
ACAD
1000
DSTYLE
1002
{
1070
   371
1070
    13
1070
   372
1070
    13
1070
     3
1000

1070
   170
1070
     0
1070
   144
1040
1.0
1070
   277
1070
     2
1070
   284
1070
     8
1070
   278
1070
    46
1070
   146
1040
1.166667
1070
   345
1005
16
1070
   347
1005
16
1070
   346
1005
16
1070
   344
1005
0
1070
   343
1005
0
1070
   172
1070
     1
1070
    76
1070
     0
1070
    75
1070
     0
1070
   282
1070
     0
1070
   281
1070
     0
1070
    71
1070
     0
1070
    74
1070
     0
1070
   279
1070
     0
1070
   173
1070
     1
1070
   340
1005
124
1070
   271
1070
     2
1070
   272
1070
     3
1070
    77
1070
     1
1070
    73
1070
     1
1070
   171
1070
     3
1070
   274
1070
     4
1070
   177
1070
     2
1070
   176
1070
     2
1070
   178
1070
     2
1070
    78
1070
     8
1070
    48
1040
-0.1
1070
    41
1040
3.5
1070
   147
1040
1.5
1070
    42
1040
1.5875
1070
    44
1040
2.0
1070
   140
1040
3.0
1002
}
1001
ACAD_DSTYLE_DIM_LINETYPE
1070
   380
1005
16
1001
ACAD_DSTYLE_DIM_EXT1_LINETYPE
1070
   381
1005
16
1001
ACAD_DSTYLE_DIM_EXT2_LINETYPE
1070
   382
1005
16
0
ENDSEC
0
SECTION
2
OBJECTS
0
DICTIONARY
5
216
330
0
100
AcDbDictionary
280
0
281
1
3
ACAD_GROUP
350
217
3
ACAD_MLINESTYLE
350
218
0
DICTIONARY
5
217
330
0
100
AcDbDictionary
280
0
281
1
0
DICTIONARY
5
218
330
0
100
AcDbDictionary
280
0
281
1
3
Standard
350
18
0
MLINESTYLE
5
18
330
218
100
AcDbMlineStyle
2
Standard
70
0
3

62
256
51
90
52
90
71
2
49
-0.5
62
256
6
ByLayer
49
0.5
62
256
6
ByLayer
0
RASTERVARIABLES
5
204
330

100
AcDbRasterVariables
90
0
70
1
71
1
72
1
0
ENDSEC
0
EOF
