0
SECTION
2
HEADER
9
$ACADVER
1
AC1015
9
$DWGCODEPAGE
3
ANSI_1252
9
$HANDSEED
5
21f
9
$ANGBASE
50
0
9
$ANGDIR
70
0
9
$ATTMODE
70
1
9
$AUNITS
70
0
9
$AUPREC
70
0
9
$CECOLOR
62
256
9
$CELTSCALE
40
1
9
$CELTYPE
6
ByLayer
9
$CELWEIGHT
370
18
9
$CLAYER
8
0
9
$CMLJUST
70
0
9
$CMLSCALE
40
1
9
$CMLSTYLE
2
Standard
9
$DIMSTYLE
2
Standard
9
$TEXTSIZE
40
0.2
9
$TEXTSTYLE
7
Standard
9
$LUNITS
70
2
9
$LUPREC
70
4
9
$EXTNAMES
290
1
9
$INSUNITS
70
4
9
$LTSCALE
40
1
9
$LWDISPLAY
290
1
9
$PDMODE
70
0
9
$PDSIZE
40
0
9
$PLINEGEN
70
0
0
ENDSEC
0
SECTION
2
CLASSES
0
CLASS
1
RASTERVARIABLES
2
AcDbRasterVariables
3
ISM
90
0
280
0
281
0
0
ENDSEC
0
SECTION
2
TABLES
0
TABLE
2
VPORT
5
215
100
AcDbSymbolTable
0
VPORT
5
1
100
AcDbSymbolTableRecord
100
AcDbViewportTableRecord
2
*Active
70
0
10
0
20
0
11
1
21
1
12
-1
22
1
13
0
23
0
14
0.5
24
0.5
15
10
25
10
16
0
26
0
36
1
17
0
27
0
37
0
0
ENDTAB
0
TABLE
2
LTYPE
5
216
100
AcDbSymbolTable
0
LTYPE
5
14
100
AcDbSymbolTableRecord
100
AcDbLinetypeTableRecord
70
0
2
ByBlock
3

72
65
73
0
40
0
0
LTYPE
5
15
100
AcDbSymbolTableRecord
100
AcDbLinetypeTableRecord
70
0
2
ByLayer
3

72
65
73
0
40
0
0
LTYPE
5
16
100
AcDbSymbolTableRecord
100
AcDbLinetypeTableRecord
70
0
2
Continuous
3
Solid line
72
65
73
0
40
0
0
LTYPE
5
6E
100
AcDbSymbolTableRecord
100
AcDbLinetypeTableRecord
70
0
2
CENTER
3
____ _ ____ _ ____ _ ____
72
65
73
4
40
47.5
49
22
74
0
49
-8.5
74
0
49
8.5
74
0
49
-8.5
74
0
0
LTYPE
5
6F
100
AcDbSymbolTableRecord
100
AcDbLinetypeTableRecord
70
0
2
DASHED
3
__ __ __ __ __ __ __ __ __
72
65
73
2
40
25.72
49
12.86
74
0
49
-12.86
74
0
0
ENDTAB
0
TABLE
2
LAYER
5
217
100
AcDbSymbolTable
0
LAYER
5
10
100
AcDbSymbolTableRecord
100
AcDbLayerTableRecord
2
0
70
0
62
7
6
Continuous
290
1
370
-3
390
0
0
LAYER
5
71
100
AcDbSymbolTableRecord
100
AcDbLayerTableRecord
2
81
70
0
62
-3
6
Continuous
290
1
370
-3
390
0
0
LAYER
5
73
100
AcDbSymbolTableRecord
100
AcDbLayerTableRecord
2
80
70
0
62
-6
6
Continuous
290
1
370
-3
390
0
0
LAYER
5
75
100
AcDbSymbolTableRecord
100
AcDbLayerTableRecord
2
1
70
0
62
4
6
Continuous
290
1
370
-3
390
0
0
LAYER
5
7F
100
AcDbSymbolTableRecord
100
AcDbLayerTableRecord
2
4
70
0
62
-2
6
CENTER
290
1
370
-3
390
0
0
LAYER
5
B1
100
AcDbSymbolTableRecord
100
AcDbLayerTableRecord
2
2
70
0
62
7
6
Continuous
290
1
370
-3
390
0
0
LAYER
5
144
100
AcDbSymbolTableRecord
100
AcDbLayerTableRecord
2
Defpoints
70
0
62
7
6
Continuous
290
0
370
-3
390
0
0
LAYER
5
201
100
AcDbSymbolTableRecord
100
AcDbLayerTableRecord
2
SK4
70
0
62
2
6
CENTER
290
1
370
-3
390
0
0
LAYER
5
202
100
AcDbSymbolTableRecord
100
AcDbLayerTableRecord
2
SK1
70
0
62
4
6
Continuous
290
1
370
-3
390
0
0
LAYER
5
203
100
AcDbSymbolTableRecord
100
AcDbLayerTableRecord
2
SK2
70
0
62
7
6
Continuous
290
1
370
-3
390
0
0
LAYER
5
204
100
AcDbSymbolTableRecord
100
AcDbLayerTableRecord
2
SK6
70
0
62
5
6
Continuous
290
1
370
-3
390
0
0
ENDTAB
0
TABLE
2
STYLE
5
218
100
AcDbSymbolTable
0
STYLE
5
11
100
AcDbSymbolTableRecord
100
AcDbTextStyleTableRecord
2
Standard
3
txt
70
0
71
0
40
0
41
1
42
0
50
0
0
STYLE
5
120
100
AcDbSymbolTableRecord
100
AcDbTextStyleTableRecord
2
iso_b_vert
3
simplex.shx
70
0
71
0
40
0
41
1
42
0
50
0
0
STYLE
5
121
100
AcDbSymbolTableRecord
100
AcDbTextStyleTableRecord
2
DWGDirectTextStyle
3
simplex
70
0
71
0
40
0
41
1
42
0
50
0
0
ENDTAB
0
TABLE
2
DIMSTYLE
5
219
100
AcDbSymbolTable
100
AcDbDimStyleTable
0
DIMSTYLE
105
27
100
AcDbSymbolTableRecord
100
AcDbDimStyleTableRecord
2
Standard
70
0
3
<>
41
0.18
42
0.0625
44
0.18
140
0.18
147
0.09
73
0
74
0
77
1
271
2
275
0
278
52
280
0
340
11
0
ENDTAB
0
TABLE
2
VIEW
5
21a
100
AcDbSymbolTable
0
ENDTAB
0
TABLE
2
UCS
5
21b
100
AcDbSymbolTable
0
ENDTAB
0
TABLE
2
APPID
5
21c
100
AcDbSymbolTable
0
APPID
5
12
100
AcDbSymbolTableRecord
100
AcDbRegAppTableRecord
2
ACAD
70
0
0
APPID
5
140
100
AcDbSymbolTableRecord
100
AcDbRegAppTableRecord
2
ACAD_DSTYLE_DIMBREAK
70
0
0
APPID
5
1C0
100
AcDbSymbolTableRecord
100
AcDbRegAppTableRecord
2
ACAD_DSTYLE_DIM_LINETYPE
70
0
0
APPID
5
1C1
100
AcDbSymbolTableRecord
100
AcDbRegAppTableRecord
2
ACAD_DSTYLE_DIM_EXT1_LINETYPE
70
0
0
APPID
5
1C2
100
AcDbSymbolTableRecord
100
AcDbRegAppTableRecord
2
ACAD_DSTYLE_DIM_EXT2_LINETYPE
70
0
0
APPID
5
1FD
100
AcDbSymbolTableRecord
100
AcDbRegAppTableRecord
2
ACAD_MLEADERVER
70
0
0
ENDTAB
0
TABLE
2
BLOCK_RECORD
5
21d
100
AcDbSymbolTable
0
BLOCK_RECORD
5
1F
100
AcDbSymbolTableRecord
100
AcDbBlockTableRecord
2
*Model_Space
340
0
70
0
0
BLOCK_RECORD
5
1B
100
AcDbSymbolTableRecord
100
AcDbBlockTableRecord
2
*Paper_Space
340
0
70
0
0
BLOCK_RECORD
5
23
100
AcDbSymbolTableRecord
100
AcDbBlockTableRecord
2
*Paper_Space0
340
0
70
0
0
BLOCK_RECORD
5
145
100
AcDbSymbolTableRecord
100
AcDbBlockTableRecord
2
*D1
340
0
70
0
0
BLOCK_RECORD
5
151
100
AcDbSymbolTableRecord
100
AcDbBlockTableRecord
2
_U0
340
0
70
0
0
BLOCK_RECORD
5
15D
100
AcDbSymbolTableRecord
100
AcDbBlockTableRecord
2
*D3
340
0
70
0
0
BLOCK_RECORD
5
169
100
AcDbSymbolTableRecord
100
AcDbBlockTableRecord
2
_U1
340
0
70
0
0
BLOCK_RECORD
5
175
100
AcDbSymbolTableRecord
100
AcDbBlockTableRecord
2
*D5
340
0
70
0
0
BLOCK_RECORD
5
181
100
AcDbSymbolTableRecord
100
AcDbBlockTableRecord
2
_U2
340
0
70
0
0
BLOCK_RECORD
5
18D
100
AcDbSymbolTableRecord
100
AcDbBlockTableRecord
2
*D7
340
0
70
0
0
BLOCK_RECORD
5
199
100
AcDbSymbolTableRecord
100
AcDbBlockTableRecord
2
_U3
340
0
70
0
0
ENDTAB
0
ENDSEC
0
SECTION
2
BLOCKS
0
BLOCK
5
20
100
AcDbEntity
8
0
100
AcDbBlockBegin
2
*Model_Space
70
0
10
0
20
0
30
0
3
*Model_Space
0
ENDBLK
5
21
100
AcDbEntity
8
0
100
AcDbBlockEnd
0
BLOCK
5
1C
100
AcDbEntity
8
0
100
AcDbBlockBegin
2
*Paper_Space
70
0
10
0
20
0
30
0
3
*Paper_Space
0
ENDBLK
5
1D
100
AcDbEntity
8
0
100
AcDbBlockEnd
0
BLOCK
5
24
100
AcDbEntity
8
0
100
AcDbBlockBegin
2
*Paper_Space0
70
0
10
0
20
0
30
0
3
*Paper_Space0
0
ENDBLK
5
25
100
AcDbEntity
8
0
100
AcDbBlockEnd
0
BLOCK
5
146
100
AcDbEntity
8
0
100
AcDbBlockBegin
2
*D1
70
1
10
0
20
0
30
0
3
*D1
0
LINE
5
148
100
AcDbEntity
8
0
62
256
6
ByLayer
370
-2
48
1
60
0
100
AcDbLine
10
-48
20
-9.5875
30
0
11
-48
21
-48.555392
31
0
39
0
210
0
220
0
230
1
0
LINE
5
149
100
AcDbEntity
8
0
62
256
6
ByLayer
370
-2
48
1
60
0
100
AcDbLine
10
143.5
20
-1.5875
30
0
11
143.5
21
-48.555392
31
0
39
0
210
0
220
0
230
1
0
LINE
5
14A
100
AcDbEntity
8
0
62
256
6
ByLayer
370
-2
48
1
60
0
100
AcDbLine
10
-44.5
20
-46.555392
30
0
11
140
21
-46.555392
31
0
39
0
210
0
220
0
230
1
0
SOLID
5
14B
100
AcDbEntity
8
0
62
256
6
ByLayer
370
-1
48
1
60
0
100
AcDbTrace
10
-44.5
20
-45.972059
30
0
11
-44.5
21
-47.138725
31
0
12
-48
22
-46.555392
32
0
13
-48
23
-46.555392
33
0
39
0
210
0
220
0
230
1
0
SOLID
5
14C
100
AcDbEntity
8
0
62
256
6
ByLayer
370
-1
48
1
60
0
100
AcDbTrace
10
140
20
-47.138725
30
0
11
140
21
-45.972059
31
0
12
143.5
22
-46.555392
32
0
13
143.5
23
-46.555392
33
0
39
0
210
0
220
0
230
1
0
MTEXT
5
14D
100
AcDbEntity
8
0
62
256
6
ByLayer
370
18
48
1
60
0
100
AcDbMText
10
47.75
20
-40.555392
30
0
210
0
220
0
230
1
1
\A1;191.5
40
3
41
0
44
1
50
0
71
5
72
5
7
iso_b_vert
0
POINT
5
14E
100
AcDbEntity
8
Defpoints
62
0
6
ByLayer
370
-1
48
1
60
0
100
AcDbPoint
10
-48
20
-8
30
0
39
0
210
0
220
0
230
1
50
360
0
POINT
5
14F
100
AcDbEntity
8
Defpoints
62
0
6
ByLayer
370
-1
48
1
60
0
100
AcDbPoint
10
143.5
20
0
30
0
39
0
210
0
220
0
230
1
50
360
0
POINT
5
150
100
AcDbEntity
8
Defpoints
62
0
6
ByLayer
370
-1
48
1
60
0
100
AcDbPoint
10
143.5
20
-46.555392
30
0
39
0
210
0
220
0
230
1
50
360
0
ENDBLK
5
147
100
AcDbEntity
8
0
100
AcDbBlockEnd
0
BLOCK
5
158
100
AcDbEntity
8
0
100
AcDbBlockBegin
2
_U0
70
0
10
0
20
0
30
0
3
_U0
0
MTEXT
5
152
100
AcDbEntity
8
SK2
62
256
6
ByLayer
370
18
48
1
60
0
100
AcDbMText
10
42.896601
20
-45.670278
30
0
210
0
220
0
230
1
1
\W0.6532;191.50
40
3
41
0
44
1.084337
50
0
71
7
72
5
7
iso_b_vert
0
LINE
5
153
100
AcDbEntity
8
SK2
62
256
6
ByLayer
370
13
48
1
60
0
100
AcDbLine
10
-48
20
-9.5875
30
0
11
-48
21
-48.555392
31
0
39
0
210
0
220
0
230
1
0
LINE
5
154
100
AcDbEntity
8
SK2
62
256
6
ByLayer
370
13
48
1
60
0
100
AcDbLine
10
143.5
20
-1.5875
30
0
11
143.5
21
-48.555392
31
0
39
0
210
0
220
0
230
1
0
LINE
5
155
100
AcDbEntity
8
SK2
62
256
6
ByLayer
370
13
48
1
60
0
100
AcDbLine
10
-48
20
-46.555392
30
0
11
143.5
21
-46.555392
31
0
39
0
210
0
220
0
230
1
0
SOLID
5
156
100
AcDbEntity
8
SK2
62
256
6
ByLayer
370
18
48
1
60
0
100
AcDbTrace
10
-48
20
-46.555392
30
0
11
-44.500002
21
-46.094608
31
0
12
-44.499998
22
-47.016176
32
0
13
-44.499998
23
-47.016176
33
0
39
0
210
0
220
0
230
1
0
SOLID
5
157
100
AcDbEntity
8
SK2
62
256
6
ByLayer
370
18
48
1
60
0
100
AcDbTrace
10
143.5
20
-46.555392
30
0
11
140.000002
21
-47.016176
31
0
12
139.999998
22
-46.094608
32
0
13
139.999998
23
-46.094608
33
0
39
0
210
0
220
0
230
1
0
ENDBLK
5
159
100
AcDbEntity
8
0
100
AcDbBlockEnd
0
BLOCK
5
15E
100
AcDbEntity
8
0
100
AcDbBlockBegin
2
*D3
70
1
10
0
20
0
30
0
3
*D3
0
LINE
5
160
100
AcDbEntity
8
0
62
256
6
ByLayer
370
-2
48
1
60
0
100
AcDbLine
10
143.5
20
-1.5875
30
0
11
143.5
21
-38.555392
31
0
39
0
210
0
220
0
230
1
0
LINE
5
161
100
AcDbEntity
8
0
62
256
6
ByLayer
370
-2
48
1
60
0
100
AcDbLine
10
3
20
-8.5875
30
0
11
3
21
-38.555392
31
0
39
0
210
0
220
0
230
1
0
LINE
5
162
100
AcDbEntity
8
0
62
256
6
ByLayer
370
-2
48
1
60
0
100
AcDbLine
10
140
20
-36.555392
30
0
11
6.5
21
-36.555392
31
0
39
0
210
0
220
0
230
1
0
SOLID
5
163
100
AcDbEntity
8
0
62
256
6
ByLayer
370
-1
48
1
60
0
100
AcDbTrace
10
140
20
-37.138725
30
0
11
140
21
-35.972059
31
0
12
143.5
22
-36.555392
32
0
13
143.5
23
-36.555392
33
0
39
0
210
0
220
0
230
1
0
SOLID
5
164
100
AcDbEntity
8
0
62
256
6
ByLayer
370
-1
48
1
60
0
100
AcDbTrace
10
6.5
20
-35.972059
30
0
11
6.5
21
-37.138725
31
0
12
3
22
-36.555392
32
0
13
3
23
-36.555392
33
0
39
0
210
0
220
0
230
1
0
MTEXT
5
165
100
AcDbEntity
8
0
62
256
6
ByLayer
370
18
48
1
60
0
100
AcDbMText
10
73.25
20
-30.555392
30
0
210
0
220
0
230
1
1
\A1;140.5
40
3
41
0
44
1
50
0
71
5
72
5
7
iso_b_vert
0
POINT
5
166
100
AcDbEntity
8
Defpoints
62
0
6
ByLayer
370
-1
48
1
60
0
100
AcDbPoint
10
143.5
20
0
30
0
39
0
210
0
220
0
230
1
50
360
0
POINT
5
167
100
AcDbEntity
8
Defpoints
62
0
6
ByLayer
370
-1
48
1
60
0
100
AcDbPoint
10
3
20
-7
30
0
39
0
210
0
220
0
230
1
50
360
0
POINT
5
168
100
AcDbEntity
8
Defpoints
62
0
6
ByLayer
370
-1
48
1
60
0
100
AcDbPoint
10
3
20
-36.555392
30
0
39
0
210
0
220
0
230
1
50
360
0
ENDBLK
5
15F
100
AcDbEntity
8
0
100
AcDbBlockEnd
0
BLOCK
5
170
100
AcDbEntity
8
0
100
AcDbBlockBegin
2
_U1
70
0
10
0
20
0
30
0
3
_U1
0
MTEXT
5
16A
100
AcDbEntity
8
SK2
62
256
6
ByLayer
370
18
48
1
60
0
100
AcDbMText
10
67.863715
20
-35.670278
30
0
210
0
220
0
230
1
1
\W0.7237;140.50
40
3
41
0
44
1.084337
50
0
71
7
72
5
7
iso_b_vert
0
LINE
5
16B
100
AcDbEntity
8
SK2
62
256
6
ByLayer
370
13
48
1
60
0
100
AcDbLine
10
143.5
20
-1.5875
30
0
11
143.5
21
-38.555392
31
0
39
0
210
0
220
0
230
1
0
LINE
5
16C
100
AcDbEntity
8
SK2
62
256
6
ByLayer
370
13
48
1
60
0
100
AcDbLine
10
3
20
-8.5875
30
0
11
3
21
-38.555392
31
0
39
0
210
0
220
0
230
1
0
LINE
5
16D
100
AcDbEntity
8
SK2
62
256
6
ByLayer
370
13
48
1
60
0
100
AcDbLine
10
143.5
20
-36.555392
30
0
11
3
21
-36.555392
31
0
39
0
210
0
220
0
230
1
0
SOLID
5
16E
100
AcDbEntity
8
SK2
62
256
6
ByLayer
370
18
48
1
60
0
100
AcDbTrace
10
143.5
20
-36.555392
30
0
11
140.000002
21
-37.016176
31
0
12
139.999998
22
-36.094608
32
0
13
139.999998
23
-36.094608
33
0
39
0
210
0
220
0
230
1
0
SOLID
5
16F
100
AcDbEntity
8
SK2
62
256
6
ByLayer
370
18
48
1
60
0
100
AcDbTrace
10
3
20
-36.555392
30
0
11
6.499998
21
-36.094608
31
0
12
6.500002
22
-37.016176
32
0
13
6.500002
23
-37.016176
33
0
39
0
210
0
220
0
230
1
0
ENDBLK
5
171
100
AcDbEntity
8
0
100
AcDbBlockEnd
0
BLOCK
5
176
100
AcDbEntity
8
0
100
AcDbBlockBegin
2
*D5
70
1
10
0
20
0
30
0
3
*D5
0
LINE
5
178
100
AcDbEntity
8
0
62
256
6
ByLayer
370
-2
48
1
60
0
100
AcDbLine
10
-48
20
-9.5875
30
0
11
-48
21
-38.555392
31
0
39
0
210
0
220
0
230
1
0
LINE
5
179
100
AcDbEntity
8
0
62
256
6
ByLayer
370
-2
48
1
60
0
100
AcDbLine
10
0
20
-9.5875
30
0
11
0
21
-38.555392
31
0
39
0
210
0
220
0
230
1
0
LINE
5
17A
100
AcDbEntity
8
0
62
256
6
ByLayer
370
-2
48
1
60
0
100
AcDbLine
10
-44.5
20
-36.555392
30
0
11
-3.5
21
-36.555392
31
0
39
0
210
0
220
0
230
1
0
SOLID
5
17B
100
AcDbEntity
8
0
62
256
6
ByLayer
370
-1
48
1
60
0
100
AcDbTrace
10
-44.5
20
-35.972059
30
0
11
-44.5
21
-37.138725
31
0
12
-48
22
-36.555392
32
0
13
-48
23
-36.555392
33
0
39
0
210
0
220
0
230
1
0
SOLID
5
17C
100
AcDbEntity
8
0
62
256
6
ByLayer
370
-1
48
1
60
0
100
AcDbTrace
10
-3.5
20
-37.138725
30
0
11
-3.5
21
-35.972059
31
0
12
0
22
-36.555392
32
0
13
0
23
-36.555392
33
0
39
0
210
0
220
0
230
1
0
MTEXT
5
17D
100
AcDbEntity
8
0
62
256
6
ByLayer
370
18
48
1
60
0
100
AcDbMText
10
-24
20
-30.555392
30
0
210
0
220
0
230
1
1
\A1;48
40
3
41
0
44
1
50
0
71
5
72
5
7
iso_b_vert
0
POINT
5
17E
100
AcDbEntity
8
Defpoints
62
0
6
ByLayer
370
-1
48
1
60
0
100
AcDbPoint
10
-48
20
-8
30
0
39
0
210
0
220
0
230
1
50
360
0
POINT
5
17F
100
AcDbEntity
8
Defpoints
62
0
6
ByLayer
370
-1
48
1
60
0
100
AcDbPoint
10
0
20
-8
30
0
39
0
210
0
220
0
230
1
50
360
0
POINT
5
180
100
AcDbEntity
8
Defpoints
62
0
6
ByLayer
370
-1
48
1
60
0
100
AcDbPoint
10
0
20
-36.555392
30
0
39
0
210
0
220
0
230
1
50
360
0
ENDBLK
5
177
100
AcDbEntity
8
0
100
AcDbBlockEnd
0
BLOCK
5
188
100
AcDbEntity
8
0
100
AcDbBlockBegin
2
_U2
70
0
10
0
20
0
30
0
3
_U2
0
MTEXT
5
182
100
AcDbEntity
8
SK2
62
256
6
ByLayer
370
18
48
1
60
0
100
AcDbMText
10
-28.640313
20
-35.670278
30
0
210
0
220
0
230
1
1
\W0.7694;48.00
40
3
41
0
44
1.084337
50
0
71
7
72
5
7
iso_b_vert
0
LINE
5
183
100
AcDbEntity
8
SK2
62
256
6
ByLayer
370
13
48
1
60
0
100
AcDbLine
10
-48
20
-9.5875
30
0
11
-48
21
-38.555392
31
0
39
0
210
0
220
0
230
1
0
LINE
5
184
100
AcDbEntity
8
SK2
62
256
6
ByLayer
370
13
48
1
60
0
100
AcDbLine
10
0
20
-9.5875
30
0
11
0
21
-38.555392
31
0
39
0
210
0
220
0
230
1
0
LINE
5
185
100
AcDbEntity
8
SK2
62
256
6
ByLayer
370
13
48
1
60
0
100
AcDbLine
10
-48
20
-36.555392
30
0
11
0
21
-36.555392
31
0
39
0
210
0
220
0
230
1
0
SOLID
5
186
100
AcDbEntity
8
SK2
62
256
6
ByLayer
370
18
48
1
60
0
100
AcDbTrace
10
-48
20
-36.555392
30
0
11
-44.500002
21
-36.094608
31
0
12
-44.499998
22
-37.016176
32
0
13
-44.499998
23
-37.016176
33
0
39
0
210
0
220
0
230
1
0
SOLID
5
187
100
AcDbEntity
8
SK2
62
256
6
ByLayer
370
18
48
1
60
0
100
AcDbTrace
10
0
20
-36.555392
30
0
11
-3.499998
21
-37.016176
31
0
12
-3.500002
22
-36.094608
32
0
13
-3.500002
23
-36.094608
33
0
39
0
210
0
220
0
230
1
0
ENDBLK
5
189
100
AcDbEntity
8
0
100
AcDbBlockEnd
0
BLOCK
5
18E
100
AcDbEntity
8
0
100
AcDbBlockBegin
2
*D7
70
1
10
0
20
0
30
0
3
*D7
0
LINE
5
190
100
AcDbEntity
8
0
62
256
6
ByLayer
370
-2
48
1
60
0
100
AcDbLine
10
143.5
20
1.5875
30
0
11
143.5
21
35.555392
31
0
39
0
210
0
220
0
230
1
0
LINE
5
191
100
AcDbEntity
8
0
62
256
6
ByLayer
370
-2
48
1
60
0
100
AcDbLine
10
19
20
8.5875
30
0
11
19
21
35.555392
31
0
39
0
210
0
220
0
230
1
0
LINE
5
192
100
AcDbEntity
8
0
62
256
6
ByLayer
370
-2
48
1
60
0
100
AcDbLine
10
140
20
33.555392
30
0
11
22.5
21
33.555392
31
0
39
0
210
0
220
0
230
1
0
SOLID
5
193
100
AcDbEntity
8
0
62
256
6
ByLayer
370
-1
48
1
60
0
100
AcDbTrace
10
140
20
32.972059
30
0
11
140
21
34.138725
31
0
12
143.5
22
33.555392
32
0
13
143.5
23
33.555392
33
0
39
0
210
0
220
0
230
1
0
SOLID
5
194
100
AcDbEntity
8
0
62
256
6
ByLayer
370
-1
48
1
60
0
100
AcDbTrace
10
22.5
20
34.138725
30
0
11
22.5
21
32.972059
31
0
12
19
22
33.555392
32
0
13
19
23
33.555392
33
0
39
0
210
0
220
0
230
1
0
MTEXT
5
195
100
AcDbEntity
8
0
62
256
6
ByLayer
370
18
48
1
60
0
100
AcDbMText
10
81.25
20
39.555392
30
0
210
0
220
0
230
1
1
\A1;124.5
40
3
41
0
44
1
50
0
71
5
72
5
7
iso_b_vert
0
POINT
5
196
100
AcDbEntity
8
Defpoints
62
0
6
ByLayer
370
-1
48
1
60
0
100
AcDbPoint
10
143.5
20
0
30
0
39
0
210
0
220
0
230
1
50
360
0
POINT
5
197
100
AcDbEntity
8
Defpoints
62
0
6
ByLayer
370
-1
48
1
60
0
100
AcDbPoint
10
19
20
7
30
0
39
0
210
0
220
0
230
1
50
360
0
POINT
5
198
100
AcDbEntity
8
Defpoints
62
0
6
ByLayer
370
-1
48
1
60
0
100
AcDbPoint
10
19
20
33.555392
30
0
39
0
210
0
220
0
230
1
50
360
0
ENDBLK
5
18F
100
AcDbEntity
8
0
100
AcDbBlockEnd
0
BLOCK
5
1A0
100
AcDbEntity
8
0
100
AcDbBlockBegin
2
_U3
70
0
10
0
20
0
30
0
3
_U3
0
MTEXT
5
19A
100
AcDbEntity
8
SK2
62
256
6
ByLayer
370
18
48
1
60
0
100
AcDbMText
10
75.863715
20
34.440506
30
0
210
0
220
0
230
1
1
\W0.7237;124.50
40
3
41
0
44
1.084337
50
0
71
7
72
5
7
iso_b_vert
0
LINE
5
19B
100
AcDbEntity
8
SK2
62
256
6
ByLayer
370
13
48
1
60
0
100
AcDbLine
10
143.5
20
1.5875
30
0
11
143.5
21
35.555392
31
0
39
0
210
0
220
0
230
1
0
LINE
5
19C
100
AcDbEntity
8
SK2
62
256
6
ByLayer
370
13
48
1
60
0
100
AcDbLine
10
19
20
8.5875
30
0
11
19
21
35.555392
31
0
39
0
210
0
220
0
230
1
0
LINE
5
19D
100
AcDbEntity
8
SK2
62
256
6
ByLayer
370
13
48
1
60
0
100
AcDbLine
10
143.5
20
33.555392
30
0
11
19
21
33.555392
31
0
39
0
210
0
220
0
230
1
0
SOLID
5
19E
100
AcDbEntity
8
SK2
62
256
6
ByLayer
370
18
48
1
60
0
100
AcDbTrace
10
143.5
20
33.555392
30
0
11
140.000002
21
33.094608
31
0
12
139.999998
22
34.016176
32
0
13
139.999998
23
34.016176
33
0
39
0
210
0
220
0
230
1
0
SOLID
5
19F
100
AcDbEntity
8
SK2
62
256
6
ByLayer
370
18
48
1
60
0
100
AcDbTrace
10
19
20
33.555392
30
0
11
22.499998
21
34.016176
31
0
12
22.500002
22
33.094608
32
0
13
22.500002
23
33.094608
33
0
39
0
210
0
220
0
230
1
0
ENDBLK
5
1A1
100
AcDbEntity
8
0
100
AcDbBlockEnd
0
ENDSEC
0
SECTION
2
ENTITIES
0
ARC
5
C2
100
AcDbEntity
8
SK2
62
256
6
ByLayer
370
13
48
1
60
0
100
AcDbCircle
39
0
10
143.5
20
0
30
0
40
19
210
0
220
0
230
1
100
AcDbArc
50
290
51
70
0
ELLIPSE
5
C3
100
AcDbEntity
8
SK1
62
256
6
ByLayer
370
18
48
1
60
0
100
AcDbEllipse
10
153.54477
20
0
30
0
11
229.090026261202
21
-2.59581837845095E-13
31
0
210
0
220
0
230
1
40
0.034921
41
2.39723378988983
42
2.57876881051445
0
ELLIPSE
5
C4
100
AcDbEntity
8
SK1
62
256
6
ByLayer
370
18
48
1
60
0
100
AcDbEllipse
10
-20.57895
20
0
30
0
11
8.57894968019762
21
-9.72080522714331E-15
31
0
210
0
220
0
230
1
40
0.932515
41
-0.661405283579246
42
0.661405283579253
0
ELLIPSE
5
C5
100
AcDbEntity
8
SK1
62
256
6
ByLayer
370
18
48
1
60
0
100
AcDbEllipse
10
153.54477
20
0
30
0
11
229.090026264126
21
-2.59581837848408E-13
31
0
210
0
220
0
230
1
40
0.034921
41
-2.57876881051488
42
-2.39723378989224
0
ELLIPSE
5
C6
100
AcDbEntity
8
SK1
62
256
6
ByLayer
370
18
48
1
60
0
100
AcDbEllipse
10
-34.539879
20
0
30
0
11
-1.46952762458688E-15
21
-8.00000000000015
31
0
210
0
220
0
230
1
40
0.932515
41
-2.00016141679846
42
-1.14143123679134
0
POINT
5
70
100
AcDbEntity
8
81
62
256
6
ByLayer
370
18
48
1
60
0
100
AcDbPoint
10
143.5
20
0
30
0
39
0
210
0
220
0
230
1
50
360
0
POINT
5
72
100
AcDbEntity
8
80
62
256
6
ByLayer
370
18
48
1
60
0
100
AcDbPoint
10
0
20
0
30
0
39
0
210
0
220
0
230
1
50
360
0
POINT
5
74
100
AcDbEntity
8
1
62
256
6
ByLayer
370
18
48
1
60
1
100
AcDbPoint
10
-48
20
-8
30
0
39
0
210
0
220
0
230
1
50
360
0
POINT
5
76
100
AcDbEntity
8
1
62
256
6
ByLayer
370
18
48
1
60
1
100
AcDbPoint
10
143.5
20
0
30
0
39
0
210
0
220
0
230
1
50
360
0
POINT
5
77
100
AcDbEntity
8
1
62
256
6
ByLayer
370
18
48
1
60
1
100
AcDbPoint
10
143.5
20
0
30
0
39
0
210
0
220
0
230
1
50
360
0
POINT
5
78
100
AcDbEntity
8
1
62
256
6
ByLayer
370
18
48
1
60
1
100
AcDbPoint
10
3
20
-7
30
0
39
0
210
0
220
0
230
1
50
360
0
POINT
5
79
100
AcDbEntity
8
1
62
256
6
ByLayer
370
18
48
1
60
1
100
AcDbPoint
10
-48
20
-8
30
0
39
0
210
0
220
0
230
1
50
360
0
POINT
5
7A
100
AcDbEntity
8
1
62
256
6
ByLayer
370
18
48
1
60
1
100
AcDbPoint
10
0
20
-8
30
0
39
0
210
0
220
0
230
1
50
360
0
POINT
5
7B
100
AcDbEntity
8
1
62
256
6
ByLayer
370
18
48
1
60
1
100
AcDbPoint
10
143.5
20
0
30
0
39
0
210
0
220
0
230
1
50
360
0
POINT
5
7C
100
AcDbEntity
8
1
62
256
6
ByLayer
370
18
48
1
60
1
100
AcDbPoint
10
19
20
7
30
0
39
0
210
0
220
0
230
1
50
360
0
SPLINE
5
C7
100
AcDbEntity
8
1
62
256
6
ByLayer
370
18
48
1
60
0
100
AcDbSpline
70
4
71
3
72
20
73
16
40
0
40
0
40
0
40
0
40
0.125
40
0.125
40
0.249999999999999
40
0.249999999999999
40
0.499999999999998
40
0.499999999999998
40
0.624999999999998
40
0.624999999999998
40
0.687499999999998
40
0.687499999999998
40
0.749999999999997
40
0.749999999999997
40
1
40
1
40
1
40
1
41
1
10
10
20
-6.55663484894603
30
0
41
1
10
10.2304988119912
20
-6.55588400420575
30
0
41
1
10
10.4599164321796
20
-6.55637813780712
30
0
41
1
10
10.91675875023
20
-6.55961085216066
30
0
41
1
10
11.1441828100276
20
-6.56234799125878
30
0
41
1
10
11.8236907475978
20
-6.57323430584683
30
0
41
1
10
12.2730038067774
20
-6.58411632948466
30
0
41
1
10
12.9423607420863
20
-6.60171723455949
30
0
41
1
10
13.1647121442205
20
-6.607780107302
30
0
41
1
10
13.497220400847
20
-6.61655205596082
30
0
41
1
10
13.6078868261005
20
-6.61942195963326
30
0
41
1
10
13.8289041536902
20
-6.62494941891455
30
0
41
1
10
13.9393033764149
20
-6.62760798298478
30
0
41
1
10
14.4899813770276
20
-6.64010005452388
30
0
41
1
10
14.925514669827
20
-6.64744299737774
30
0
41
1
10
15.3578155935707
20
-6.64944347932112
30
0
0
SPLINE
5
C8
100
AcDbEntity
8
1
62
256
6
ByLayer
370
18
48
1
60
0
100
AcDbSpline
70
4
71
3
72
22
73
18
40
0
40
0
40
0
40
0
40
0.125000000000009
40
0.125000000000009
40
0.250000000000019
40
0.250000000000019
40
0.375000000000028
40
0.375000000000028
40
0.437500000000028
40
0.437500000000028
40
0.500000000000029
40
0.500000000000029
40
0.750000000000019
40
0.750000000000019
40
0.87500000000001
40
0.87500000000001
40
1
40
1
40
1
40
1
41
1
10
140.952208360135
20
-0.998883660530737
30
0
41
1
10
140.628678099388
20
-0.882388650633402
30
0
41
1
10
140.305396607996
20
-0.765376604612442
30
0
41
1
10
139.659127183428
20
-0.530888212668856
30
0
41
1
10
139.336110948708
20
-0.413490698740191
30
0
41
1
10
138.690132148645
20
-0.178895940386155
30
0
41
1
10
138.367207804985
20
-0.06159216918374
30
0
41
1
10
137.882964828596
20
0.114500568667751
30
0
41
1
10
137.721573573325
20
0.173218593590462
30
0
41
1
10
137.398842031703
20
0.290708551364673
30
0
41
1
10
137.237507041349
20
0.34949507703962
30
0
41
1
10
136.430793109366
20
0.643101819466779
30
0
41
1
10
135.785050241624
20
0.876265731800373
30
0
41
1
10
134.816156229793
20
1.22419928943899
30
0
41
1
10
134.493155490783
20
1.33990318661182
30
0
41
1
10
133.84687453404
20
1.57019234633552
30
0
41
1
10
133.523565782268
20
1.68469954211159
30
0
41
1
10
133.2
20
1.79832740913039
30
0
0
SPLINE
5
C9
100
AcDbEntity
8
1
62
256
6
ByLayer
370
18
48
1
60
0
100
AcDbSpline
70
4
71
3
72
81
73
77
40
0
40
0
40
0
40
0
40
0.0625000000000009
40
0.0625000000000009
40
0.125000000000002
40
0.125000000000002
40
0.140625000000003
40
0.140625000000003
40
0.156250000000004
40
0.156250000000004
40
0.187500000000003
40
0.187500000000003
40
0.250000000000002
40
0.250000000000002
40
0.281250000000002
40
0.281250000000002
40
0.296875000000001
40
0.296875000000001
40
0.312499999999999
40
0.312499999999999
40
0.343749999999997
40
0.343749999999997
40
0.374999999999994
40
0.374999999999994
40
0.406249999999992
40
0.406249999999992
40
0.437499999999989
40
0.437499999999989
40
0.453124999999989
40
0.453124999999989
40
0.468749999999988
40
0.468749999999988
40
0.499999999999987
40
0.499999999999987
40
0.531249999999985
40
0.531249999999985
40
0.539062499999985
40
0.539062499999985
40
0.546874999999984
40
0.562499999999984
40
0.562499999999984
40
0.593749999999984
40
0.593749999999984
40
0.624999999999984
40
0.624999999999984
40
0.640624999999985
40
0.640624999999985
40
0.656249999999986
40
0.656249999999986
40
0.687499999999987
40
0.687499999999987
40
0.718749999999989
40
0.718749999999989
40
0.726562499999989
40
0.726562499999989
40
0.73437499999999
40
0.73437499999999
40
0.749999999999991
40
0.749999999999991
40
0.781249999999993
40
0.781249999999993
40
0.812499999999994
40
0.843749999999996
40
0.843749999999996
40
0.851562499999997
40
0.851562499999997
40
0.859374999999997
40
0.874999999999998
40
0.874999999999998
40
0.906249999999999
40
0.9375
40
0.968750000000001
40
0.968750000000001
40
0.984375000000001
40
0.984375000000001
40
1
40
1
40
1
40
1
41
1
10
140.952208360137
20
6.77771919075286
30
0
41
1
10
141.039651119981
20
6.56089022740244
30
0
41
1
10
141.127379109111
20
6.33759396419285
30
0
41
1
10
141.30391040068
20
5.87983008810605
30
0
41
1
10
141.39271480649
20
5.64535177655108
30
0
41
1
10
141.50448870396
20
5.3457774333325
30
0
41
1
10
141.526880938384
20
5.28553680848123
30
0
41
1
10
141.57173838637
20
5.16440936637829
30
0
41
1
10
141.594212139321
20
5.10349857221422
30
0
41
1
10
141.661336726122
20
4.92089276542927
30
0
41
1
10
141.705826058142
20
4.79896612439831
30
0
41
1
10
141.838457902929
20
4.43261377276983
30
0
41
1
10
141.92580896637
20
4.18763277247908
30
0
41
1
10
142.054370878585
20
3.81877208112672
30
0
41
1
10
142.096804765977
20
3.69558339664769
30
0
41
1
10
142.159589565508
20
3.51036543987433
30
0
41
1
10
142.180372355786
20
3.44855320637046
30
0
41
1
10
142.221590637167
20
3.32476286289139
30
0
41
1
10
142.242034887674
20
3.26275633679197
30
0
41
1
10
142.302448742831
20
3.07735418531647
30
0
41
1
10
142.341607523132
20
2.95428687545026
30
0
41
1
10
142.416976579044
20
2.70901630072336
30
0
41
1
10
142.453191818517
20
2.58681379744101
30
0
41
1
10
142.521575677913
20
2.34301740491475
30
0
41
1
10
142.553750064602
20
2.22142402616603
30
0
41
1
10
142.612397729881
20
1.97851671697725
30
0
41
1
10
142.638873642692
20
1.85720178930765
30
0
41
1
10
142.672543430239
20
1.67513768422924
30
0
41
1
10
142.682761355338
20
1.61434343341205
30
0
41
1
10
142.70065676979
20
1.49387376637353
30
0
41
1
10
142.708360228142
20
1.43406935690209
30
0
41
1
10
142.727362034554
20
1.2559978066686
30
0
41
1
10
142.734511365091
20
1.13906625254359
30
0
41
1
10
142.736436377418
20
0.909185776196978
30
0
41
1
10
142.731200852393
20
0.796238771831355
30
0
41
1
10
142.716970888701
20
0.657912318431272
30
0
41
1
10
142.713740592571
20
0.630362358924941
30
0
41
1
10
142.706550676703
20
0.575682579857187
30
0
41
1
10
142.694706535832
20
0.494535500137431
30
0
41
1
10
142.679868228723
20
0.415973862260898
30
0
41
1
10
142.646697773713
20
0.262214024212767
30
0
41
1
10
142.619944843577
20
0.164185802263233
30
0
41
1
10
142.559573473124
20
-0.0232655896276697
30
0
41
1
10
142.525960112172
20
-0.112691297784721
30
0
41
1
10
142.471731012436
20
-0.240475504302594
30
0
41
1
10
142.452990749088
20
-0.282048427683179
30
0
41
1
10
142.414752107055
20
-0.362344267881156
30
0
41
1
10
142.395214939122
20
-0.401164298504597
30
0
41
1
10
142.33557713168
20
-0.513760341275145
30
0
41
1
10
142.294463765934
20
-0.583683047825616
30
0
41
1
10
142.210325216822
20
-0.713590539879647
30
0
41
1
10
142.167294344968
20
-0.773573456558438
30
0
41
1
10
142.112569834245
20
-0.842351318223649
30
0
41
1
10
142.101577440108
20
-0.855796123587879
30
0
41
1
10
142.079501758742
20
-0.882061646594082
30
0
41
1
10
142.06841046723
20
-0.89489067569852
30
0
41
1
10
142.035147412488
20
-0.932280251685995
30
0
41
1
10
142.012945742823
20
-0.955794923954159
30
0
41
1
10
141.946296569553
20
-1.02219914076488
30
0
41
1
10
141.901808209324
20
-1.0609574254959
30
0
41
1
10
141.812801160487
20
-1.1277312833509
30
0
41
1
10
141.723761007261
20
-1.18376020657382
30
0
41
1
10
141.634632135714
20
-1.21833359262169
30
0
41
1
10
141.578852128792
20
-1.23309383942154
30
0
41
1
10
141.567684804954
20
-1.23570366559562
30
0
41
1
10
141.545440955202
20
-1.24021382440191
30
0
41
1
10
141.512177218568
20
-1.24592507889554
30
0
41
1
10
141.479208689867
20
-1.24850960013583
30
0
41
1
10
141.413636330606
20
-1.24958061262131
30
0
41
1
10
141.327178841039
20
-1.24009446659395
30
0
41
1
10
141.199953714075
20
-1.19371732535046
30
0
41
1
10
141.116478718068
20
-1.14132603072198
30
0
41
1
10
141.054263123109
20
-1.09380366734317
30
0
41
1
10
141.033645437647
20
-1.0766301083616
30
0
41
1
10
140.99272104485
20
-1.03970538717084
30
0
41
1
10
140.972399749319
20
-1.01994317864475
30
0
41
1
10
140.952208360136
20
-0.998883660531334
30
0
0
SPLINE
5
CA
100
AcDbEntity
8
1
62
256
6
ByLayer
370
18
48
1
60
0
100
AcDbSpline
70
4
71
3
72
20
73
16
40
0
40
0
40
0
40
0
40
0.0027673323222033
40
0.0027673323222033
40
0.20221386585776
40
0.20221386585776
40
0.401660399393316
40
0.401660399393316
40
0.601106932928872
40
0.601106932928872
40
0.800553466464428
40
0.800553466464428
40
0.900276733232214
40
0.900276733232214
40
1
40
1
40
1
40
1
41
1
10
136.094439671868
20
6.99912560183409
30
0
41
1
10
136.098919609339
20
6.99912645122541
30
0
41
1
10
136.103399531608
20
6.99912673361507
30
0
41
1
10
136.43075424875
20
6.99910594029899
30
0
41
1
10
136.753526482573
20
6.9961358475332
30
0
41
1
10
137.398925459788
20
6.98425008969838
30
0
41
1
10
137.72157843539
20
6.97533059951112
30
0
41
1
10
138.367175536019
20
6.95163826905272
30
0
41
1
10
138.69014000185
20
6.93688524313794
30
0
41
1
10
139.336177273439
20
6.90151184336713
30
0
41
1
10
139.659259232917
20
6.88089145437812
30
0
41
1
10
140.143937428264
20
6.84548709440347
30
0
41
1
10
140.305501015688
20
6.83293518565236
30
0
41
1
10
140.628746969253
20
6.80639121878667
30
0
41
1
10
140.790442058721
20
6.79240855573022
30
0
41
1
10
140.952208360135
20
6.77771919075303
30
0
0
SPLINE
5
CB
100
AcDbEntity
8
1
62
256
6
ByLayer
370
18
48
1
60
0
100
AcDbSpline
70
4
71
3
72
147
73
143
40
0
40
0
40
0
40
0
40
0.0303609922840036
40
0.0303609922840036
40
0.0455414884260058
40
0.0455414884260058
40
0.0531317364970068
40
0.0531317364970068
40
0.0607219845680079
40
0.07590248071001
40
0.07590248071001
40
0.0910829768520122
40
0.0910829768520122
40
0.106263472994014
40
0.106263472994014
40
0.121443969136016
40
0.121443969136016
40
0.136624465278018
40
0.136624465278018
40
0.151804961420021
40
0.151804961420021
40
0.182165953704025
40
0.182165953704025
40
0.197346449846028
40
0.197346449846028
40
0.21252694598803
40
0.21252694598803
40
0.227707442130033
40
0.227707442130033
40
0.235297690201034
40
0.235297690201034
40
0.242887938272036
40
0.242887938272036
40
0.273248930556042
40
0.273248930556042
40
0.288429426698045
40
0.288429426698045
40
0.296019674769047
40
0.296019674769047
40
0.303609922840049
40
0.303609922840049
40
0.318790418982054
40
0.318790418982054
40
0.333970915124058
40
0.333970915124058
40
0.341561163195061
40
0.341561163195061
40
0.349151411266063
40
0.349151411266063
40
0.364331907408067
40
0.364331907408067
40
0.379512403550072
40
0.379512403550072
40
0.394692899692077
40
0.394692899692077
40
0.409873395834081
40
0.409873395834081
40
0.425053891976086
40
0.425053891976086
40
0.432644140047088
40
0.432644140047088
40
0.440234388118091
40
0.440234388118091
40
0.455414884260095
40
0.455414884260095
40
0.470595380402098
40
0.470595380402098
40
0.485775876544102
40
0.485775876544102
40
0.51613686882811
40
0.51613686882811
40
0.523727116899112
40
0.523727116899112
40
0.531317364970114
40
0.531317364970114
40
0.546497861112118
40
0.561678357254121
40
0.561678357254121
40
0.576858853396125
40
0.576858853396125
40
0.592039349538129
40
0.592039349538129
40
0.607219845680132
40
0.607219845680132
40
0.622400341822136
40
0.622400341822136
40
0.629990589893138
40
0.629990589893138
40
0.63758083796414
40
0.652761334106144
40
0.652761334106144
40
0.667941830248149
40
0.667941830248149
40
0.683122326390153
40
0.683122326390153
40
0.698302822532157
40
0.698302822532157
40
0.713483318674161
40
0.713483318674161
40
0.721073566745164
40
0.721073566745164
40
0.728663814816166
40
0.728663814816166
40
0.736254062887169
40
0.736254062887169
40
0.743844310958171
40
0.743844310958171
40
0.759024807100176
40
0.759024807100176
40
0.774205303242181
40
0.774205303242181
40
0.789385799384186
40
0.789385799384186
40
0.804566295526191
40
0.804566295526191
40
0.812156543597193
40
0.812156543597193
40
0.819746791668196
40
0.819746791668196
40
0.850107783952205
40
0.850107783952205
40
0.865288280094209
40
0.865288280094209
40
0.880468776236214
40
0.880468776236214
40
0.895649272378218
40
0.895649272378218
40
0.903239520449221
40
0.903239520449221
40
0.910829768520223
40
0.910829768520223
40
0.926010264662228
40
0.926010264662228
40
0.941190760804232
40
0.941190760804232
40
0.956371256946237
40
0.956371256946237
40
0.971551753088241
40
0.971551753088241
40
0.986732249230246
40
0.986732249230246
40
1
40
1
40
1
40
1
41
1
10
15.3578155935707
20
6.64944347932109
30
0
41
1
10
15.9737983855489
20
6.65220951679353
30
0
41
1
10
16.5895447090423
20
6.64469968657406
30
0
41
1
10
17.5123124672658
20
6.61826599390218
30
0
41
1
10
17.819754258117
20
6.60691334441955
30
0
41
1
10
18.2806795808789
20
6.58603189061341
30
0
41
1
10
18.4342914016325
20
6.57843148054062
30
0
41
1
10
18.7415541706627
20
6.56199668336012
30
0
41
1
10
19.2024923715404
20
6.53548940032445
30
0
41
1
10
19.6634935360602
20
6.50343364990704
30
0
41
1
10
20.2781067236339
20
6.45570639855774
30
0
41
1
10
20.5853632736883
20
6.4293304886873
30
0
41
1
10
21.1998587401062
20
6.37156565263618
30
0
41
1
10
21.5071175181571
20
6.34018728811526
30
0
41
1
10
22.1219648301769
20
6.27271757808651
30
0
41
1
10
22.4295712379982
20
6.23665408834103
30
0
41
1
10
23.0449691745035
20
6.1597102644476
30
0
41
1
10
23.3527658746801
20
6.11883253039701
30
0
41
1
10
23.9685061506736
20
6.03215174743326
30
0
41
1
10
24.2765380821253
20
5.98628351983592
30
0
41
1
10
25.2004209640799
20
5.84243822206668
30
0
41
1
10
25.8160106125011
20
5.73798560178508
30
0
41
1
10
26.7383164185238
20
5.56767003315423
30
0
41
1
10
27.0456008080616
20
5.50865477736915
30
0
41
1
10
27.6601540346552
20
5.38660184081169
30
0
41
1
10
27.9674643915889
20
5.32363965237604
30
0
41
1
10
28.5821193937839
20
5.19382749131029
30
0
41
1
10
28.8894332606613
20
5.12692308245835
30
0
41
1
10
29.3503354786173
20
5.02346372967085
30
0
41
1
10
29.5039581107858
20
4.98845966142474
30
0
41
1
10
29.8111774388528
20
4.91740348696862
30
0
41
1
10
29.9647765013145
20
4.88135507495261
30
0
41
1
10
30.7329625373789
20
4.69899290061954
30
0
41
1
10
31.3482066962412
20
4.54655311735701
30
0
41
1
10
32.2714511968915
20
4.30670104018802
30
0
41
1
10
32.5792500765952
20
4.22484098225252
30
0
41
1
10
33.0412199820528
20
4.09960460051332
30
0
41
1
10
33.1952649866647
20
4.05745156224899
30
0
41
1
10
33.5032483283338
20
3.97249623817365
30
0
41
1
10
33.6572206007343
20
3.92969752426174
30
0
41
1
10
34.1190699104724
20
3.8003223295876
30
0
41
1
10
34.4268599855024
20
3.71272137262304
30
0
41
1
10
35.0421059625038
20
3.53453900760911
30
0
41
1
10
35.3495513966208
20
3.44392984775033
30
0
41
1
10
35.810506333588
20
3.30585715305506
30
0
41
1
10
35.9641392772174
20
3.25951539819477
30
0
41
1
10
36.2714438047452
20
3.1663937730971
30
0
41
1
10
36.4251062167108
20
3.11959086004489
30
0
41
1
10
36.8861016184831
20
2.97840357510407
30
0
41
1
10
37.1934422430034
20
2.88324051199513
30
0
41
1
10
37.8080348871348
20
2.69055283847033
30
0
41
1
10
38.115260604108
20
2.59295609537594
30
0
41
1
10
38.7297137403471
20
2.39561981891578
30
0
41
1
10
39.0369556371379
20
2.29591781205906
30
0
41
1
10
39.6517820178395
20
2.09531058033235
30
0
41
1
10
39.9593568656205
20
1.99438350279726
30
0
41
1
10
40.5746541356529
20
1.79079567172513
30
0
41
1
10
40.882386080583
20
1.68816061142482
30
0
41
1
10
41.3440732216707
20
1.53282381007568
30
0
41
1
10
41.4979800664879
20
1.48080267957548
30
0
41
1
10
41.8059047014924
20
1.37653130055295
30
0
41
1
10
41.9599748239312
20
1.32429863678738
30
0
41
1
10
42.4219296785325
20
1.16753572051618
30
0
41
1
10
42.7296280393153
20
1.06287601770404
30
0
41
1
10
43.3443861256244
20
0.852927185132501
30
0
41
1
10
43.6514349366922
20
0.74760343493989
30
0
41
1
10
44.2648547820878
20
0.536206258296204
30
0
41
1
10
44.571247650333
20
0.430204482794721
30
0
41
1
10
45.4898856580899
20
0.112578900505099
30
0
41
1
10
46.1017393056122
20
-0.0982187384227871
30
0
41
1
10
46.8653577865475
20
-0.362062180113753
30
0
41
1
10
47.0180212891261
20
-0.414847954160422
30
0
41
1
10
47.3232396945201
20
-0.520415935659571
30
0
41
1
10
47.4757997035353
20
-0.573182314492016
30
0
41
1
10
47.9334742119004
20
-0.730999073333294
30
0
41
1
10
48.5436591595969
20
-0.940239584552074
30
0
41
1
10
49.1535287309312
20
-1.14780944719072
30
0
41
1
10
49.7631415658081
20
-1.35483329890076
30
0
41
1
10
50.0678146071078
20
-1.45808479110846
30
0
41
1
10
50.6771529718295
20
-1.66330061964038
30
0
41
1
10
50.9818435253922
20
-1.76519210019344
30
0
41
1
10
51.5914097468468
20
-1.9671427110008
30
0
41
1
10
51.8962398411804
20
-2.06733456869551
30
0
41
1
10
52.5058927234624
20
-2.26643757260055
30
0
41
1
10
52.8107008367546
20
-2.3653891942252
30
0
41
1
10
53.2679606321052
20
-2.51269277215272
30
0
41
1
10
53.4204067473337
20
-2.56155536561508
30
0
41
1
10
53.7254133302826
20
-2.65863175464622
30
0
41
1
10
54.1830693859432
20
-2.8033441094091
30
0
41
1
10
54.6410970171428
20
-2.94554516325653
30
0
41
1
10
55.2520288170301
20
-3.13319094958214
30
0
41
1
10
55.5575841668382
20
-3.22610184322517
30
0
41
1
10
56.1690197203499
20
-3.4096876803618
30
0
41
1
10
56.4749128973157
20
-3.50032672008612
30
0
41
1
10
57.0873398260719
20
-3.67852651899361
30
0
41
1
10
57.3938618128517
20
-3.76612152016824
30
0
41
1
10
58.0073623962523
20
-3.93872205057105
30
0
41
1
10
58.3143499904
20
-4.02370334523675
30
0
41
1
10
58.7751586576024
20
-4.1492543365307
30
0
41
1
10
58.9288129436891
20
-4.1907921159586
30
0
41
1
10
59.2363062384413
20
-4.27303152862575
30
0
41
1
10
59.3901548849908
20
-4.31370895337312
30
0
41
1
10
59.6980598488583
20
-4.39417163002727
30
0
41
1
10
59.8521576221012
20
-4.43397498581422
30
0
41
1
10
60.1602430221777
20
-4.51266085856201
30
0
41
1
10
60.3142441057332
20
-4.55154721876016
30
0
41
1
10
60.7761025699919
20
-4.66688415769266
30
0
41
1
10
61.0838029257494
20
-4.74203986537029
30
0
41
1
10
61.698776552286
20
-4.88889013954156
30
0
41
1
10
62.0060737039066
20
-4.96052958485586
30
0
41
1
10
62.6205811472661
20
-5.09966812324143
30
0
41
1
10
62.9278311727924
20
-5.16709849554132
30
0
41
1
10
63.5422171912427
20
-5.29792510950602
30
0
41
1
10
63.8493368056033
20
-5.36134994287562
30
0
41
1
10
64.3098651153583
20
-5.4535573730484
30
0
41
1
10
64.4633461585091
20
-5.4838096551284
30
0
41
1
10
64.7702686390002
20
-5.54331183986932
30
0
41
1
10
64.9237161987753
20
-5.57255094467288
30
0
41
1
10
65.6911289297332
20
-5.71580481717183
30
0
41
1
10
66.3055126343814
20
-5.82123003533562
30
0
41
1
10
67.2271083696467
20
-5.96658804243896
30
0
41
1
10
67.5343135973864
20
-6.01288863384755
30
0
41
1
10
68.1490114602174
20
-6.10080520979406
30
0
41
1
10
68.4565344094004
20
-6.14238733844752
30
0
41
1
10
69.0720369770038
20
-6.22070530973289
30
0
41
1
10
69.3799706823625
20
-6.25749588993415
30
0
41
1
10
69.8420766240186
20
-6.30917910729136
30
0
41
1
10
69.9961415118843
20
-6.32581998492961
30
0
41
1
10
70.3040699109313
20
-6.35790004359845
30
0
41
1
10
70.4579599167303
20
-6.37334806501426
30
0
41
1
10
70.9195103184659
20
-6.41782166647766
30
0
41
1
10
71.2271316385181
20
-6.44491421574483
30
0
41
1
10
71.8422272329947
20
-6.4940564375886
30
0
41
1
10
72.1496820706853
20
-6.51612210298671
30
0
41
1
10
72.7642994238841
20
-6.55531184295657
30
0
41
1
10
73.0714354405166
20
-6.5724431980442
30
0
41
1
10
73.6855564405364
20
-6.6016522322181
30
0
41
1
10
73.9925543541184
20
-6.61372249395407
30
0
41
1
10
74.6067165083053
20
-6.63274110236159
30
0
41
1
10
74.9138489925294
20
-6.63970817772739
30
0
41
1
10
75.4893650443387
20
-6.6480378782754
30
0
41
1
10
75.7577615426073
20
-6.64999322258473
30
0
41
1
10
76.0261305954911
20
-6.65000006919158
30
0
0
SPLINE
5
CC
100
AcDbEntity
8
1
62
256
6
ByLayer
370
18
48
1
60
0
100
AcDbSpline
70
4
71
3
72
36
73
32
40
0
40
0
40
0
40
0
40
0.0051400859548242
40
0.0051400859548242
40
0.0465925823733735
40
0.0465925823733735
40
0.0880450787919217
40
0.0880450787919217
40
0.17095007162902
40
0.17095007162902
40
0.253855064466118
40
0.253855064466118
40
0.336760057303217
40
0.336760057303217
40
0.419665050140314
40
0.419665050140314
40
0.502570042977413
40
0.502570042977413
40
0.58547503581451
40
0.58547503581451
40
0.62692753223306
40
0.62692753223306
40
0.668380028651609
40
0.668380028651609
40
0.751285021488706
40
0.751285021488706
40
0.834190014325805
40
0.834190014325805
40
0.917095007162902
40
0.917095007162902
40
1
40
1
40
1
40
1
41
1
10
122.064346873157
20
4.87527161974629
30
0
41
1
10
122.083418798251
20
4.87975465023092
30
0
41
1
10
122.102490370122
20
4.88423095340715
30
0
41
1
10
122.275362371331
20
4.9247457933476
30
0
41
1
10
122.429140105375
20
4.96035312323687
30
0
41
1
10
122.736644056791
20
5.0306962387975
30
0
41
1
10
122.890371083261
20
5.0654295742462
30
0
41
1
10
123.35162179545
20
5.16804088097641
30
0
41
1
10
123.659249380363
20
5.23427237224402
30
0
41
1
10
124.274649757321
20
5.36262309432379
30
0
41
1
10
124.582420383201
20
5.42474609190597
30
0
41
1
10
125.197997445098
20
5.54504684058122
30
0
41
1
10
125.505786699072
20
5.6032465735272
30
0
41
1
10
126.121623379603
20
5.71529985646865
30
0
41
1
10
126.42974084012
20
5.76912916317735
30
0
41
1
10
127.045744745828
20
5.8719855565304
30
0
41
1
10
127.353669552759
20
5.92110315624328
30
0
41
1
10
127.969243103827
20
6.01488750600649
30
0
41
1
10
128.27688458427
20
6.05955976929283
30
0
41
1
10
128.738167596504
20
6.12315523592849
30
0
41
1
10
128.891913880858
20
6.14376647030036
30
0
41
1
10
129.199460671549
20
6.18372677119808
30
0
41
1
10
129.353252163378
20
6.20308676628059
30
0
41
1
10
129.814658322875
20
6.25934159805718
30
0
41
1
10
130.122304113595
20
6.29441462850448
30
0
41
1
10
130.737568699205
20
6.35980821757519
30
0
41
1
10
131.045161625272
20
6.39014668602235
30
0
41
1
10
131.660400957567
20
6.44594963224847
30
0
41
1
10
131.968062945053
20
6.47139814937424
30
0
41
1
10
132.583784563505
20
6.51719028051133
30
0
41
1
10
132.89183985401
20
6.53754758307531
30
0
41
1
10
133.2
20
6.55542157659195
30
0
0
SPLINE
5
CD
100
AcDbEntity
8
1
62
256
6
ByLayer
370
18
48
1
60
0
100
AcDbSpline
70
4
71
3
72
60
73
56
40
0
40
0
40
0
40
0
40
0.036884036576027
40
0.036884036576027
40
0.0553260548640404
40
0.0553260548640404
40
0.0737680731520539
40
0.0737680731520539
40
0.147536146304105
40
0.147536146304105
40
0.221304219456156
40
0.221304219456156
40
0.258188256032181
40
0.258188256032181
40
0.295072292608207
40
0.295072292608207
40
0.331956329184233
40
0.331956329184233
40
0.350398347472245
40
0.350398347472245
40
0.368840365760258
40
0.368840365760258
40
0.405724402336284
40
0.405724402336284
40
0.442608438912309
40
0.442608438912309
40
0.479492475488335
40
0.479492475488335
40
0.51637651206436
40
0.51637651206436
40
0.534818530352372
40
0.534818530352372
40
0.553260548640383
40
0.553260548640383
40
0.590144585216409
40
0.590144585216409
40
0.627028621792434
40
0.627028621792434
40
0.66391265836846
40
0.66391265836846
40
0.737680731520514
40
0.737680731520514
40
0.774564768096541
40
0.774564768096541
40
0.811448804672568
40
0.811448804672568
40
0.848332841248595
40
0.848332841248595
40
0.885216877824622
40
0.885216877824622
40
0.958984950976677
40
0.958984950976677
40
0.995868987552705
40
0.995868987552705
40
1
40
1
40
1
40
1
41
1
10
133.2
20
1.59087479866383
30
0
41
1
10
132.883839364158
20
1.69690244116217
30
0
41
1
10
132.567846129678
20
1.80216300945528
30
0
41
1
10
132.094138889913
20
1.9589969502114
30
0
41
1
10
131.936283013759
20
2.01109693130084
30
0
41
1
10
131.620668008334
20
2.1149494983903
30
0
41
1
10
131.462912900285
20
2.16671301149066
30
0
41
1
10
130.674244424246
20
2.42428241498223
30
0
41
1
10
130.043441078813
20
2.62578010106486
30
0
41
1
10
128.782342424524
20
3.02041081301763
30
0
41
1
10
128.152129317451
20
3.21372075621824
30
0
41
1
10
127.206109974828
20
3.49457750811888
30
0
41
1
10
126.890682997442
20
3.5867594566767
30
0
41
1
10
126.25971067757
20
3.76838482593578
30
0
41
1
10
125.944176757895
20
3.85785474237895
30
0
41
1
10
125.312934491958
20
4.03389458715995
30
0
41
1
10
124.997136579781
20
4.12025106105975
30
0
41
1
10
124.523102229405
20
4.24712952577147
30
0
41
1
10
124.364994278805
20
4.28900371965167
30
0
41
1
10
124.048936377105
20
4.3718401753986
30
0
41
1
10
123.890998275751
20
4.41280009191942
30
0
41
1
10
123.417458496627
20
4.53431387281668
30
0
41
1
10
123.102143016528
20
4.61352861246502
30
0
41
1
10
122.472158216214
20
4.76811514965542
30
0
41
1
10
122.157482973725
20
4.84347025100905
30
0
41
1
10
121.528530154239
20
4.98983185487415
30
0
41
1
10
121.214273656553
20
5.06089093583356
30
0
41
1
10
120.586262125769
20
5.19892479935569
30
0
41
1
10
120.272506883117
20
5.26589753084392
30
0
41
1
10
119.802250138672
20
5.36327705728061
30
0
41
1
10
119.645555204687
20
5.39521261468536
30
0
41
1
10
119.332209252148
20
5.45791142040434
30
0
41
1
10
119.175561555753
20
5.48868145159318
30
0
41
1
10
118.705701030681
20
5.5792762521545
30
0
41
1
10
118.392571646645
20
5.63738910991796
30
0
41
1
10
117.76657750647
20
5.74913559251956
30
0
41
1
10
117.453720869409
20
5.80277922602176
30
0
41
1
10
116.828214822075
20
5.90548005295955
30
0
41
1
10
116.515563508531
20
5.95453054402276
30
0
41
1
10
115.577537609094
20
6.09429297106325
30
0
41
1
10
114.952104496992
20
6.17768982770497
30
0
41
1
10
114.014110761319
20
6.28840075658678
30
0
41
1
10
113.701459684697
20
6.32287720874294
30
0
41
1
10
113.075808246166
20
6.38662418493297
30
0
41
1
10
112.762850177668
20
6.41594192443068
30
0
41
1
10
112.136718528746
20
6.46951222085809
30
0
41
1
10
111.823549700867
20
6.49376658666142
30
0
41
1
10
111.196975381889
20
6.53715537467656
30
0
41
1
10
110.883565715563
20
6.55628273211269
30
0
41
1
10
109.942637940266
20
6.60575744635119
30
0
41
1
10
109.314317973189
20
6.62820496798165
30
0
41
1
10
108.370534344223
20
6.64602610990275
30
0
41
1
10
108.055748604967
20
6.6493099965538
30
0
41
1
10
107.705270512463
20
6.64996830619191
30
0
41
1
10
107.669965912476
20
6.65000099551341
30
0
41
1
10
107.634656697827
20
6.65000006257438
30
0
0
SPLINE
5
CE
100
AcDbEntity
8
1
62
256
6
ByLayer
370
18
48
1
60
0
100
AcDbSpline
70
4
71
3
72
108
73
104
40
0
40
0
40
0
40
0
40
0.005089352345325
40
0.005089352345325
40
0.0433551464858889
40
0.0433551464858889
40
0.0624880435561713
40
0.0624880435561713
40
0.0816209406264537
40
0.0816209406264537
40
0.0911873891615949
40
0.0911873891615949
40
0.100753837696736
40
0.100753837696736
40
0.110320286231877
40
0.119886734767018
40
0.119886734767018
40
0.158152528907583
40
0.158152528907583
40
0.196418323048148
40
0.196418323048148
40
0.215551220118431
40
0.215551220118431
40
0.234684117188714
40
0.234684117188714
40
0.253817014258996
40
0.253817014258996
40
0.272949911329279
40
0.272949911329279
40
0.292082808399562
40
0.292082808399562
40
0.311215705469844
40
0.311215705469844
40
0.330348602540127
40
0.330348602540127
40
0.349481499610409
40
0.349481499610409
40
0.359047948145551
40
0.359047948145551
40
0.368614396680692
40
0.387747293750975
40
0.387747293750975
40
0.406880190821258
40
0.406880190821258
40
0.42601308789154
40
0.42601308789154
40
0.464278882032105
40
0.464278882032105
40
0.483411779102387
40
0.483411779102387
40
0.492978227637528
40
0.492978227637528
40
0.502544676172669
40
0.502544676172669
40
0.521677573242951
40
0.521677573242951
40
0.540810470313232
40
0.540810470313232
40
0.579076264453795
40
0.579076264453795
40
0.598209161524077
40
0.598209161524077
40
0.617342058594359
40
0.617342058594359
40
0.636474955664641
40
0.636474955664641
40
0.655607852734923
40
0.655607852734923
40
0.693873646875486
40
0.693873646875486
40
0.703440095410627
40
0.703440095410627
40
0.713006543945767
40
0.713006543945767
40
0.732139441016049
40
0.732139441016049
40
0.75127233808633
40
0.75127233808633
40
0.770405235156611
40
0.770405235156611
40
0.789538132226893
40
0.789538132226893
40
0.808671029297174
40
0.808671029297174
40
0.818237477832315
40
0.818237477832315
40
0.827803926367456
40
0.827803926367456
40
0.846936823437739
40
0.846936823437739
40
0.866069720508021
40
0.866069720508021
40
0.885202617578304
40
0.885202617578304
40
0.904335514648587
40
0.904335514648587
40
0.923468411718869
40
0.923468411718869
40
0.942601308789152
40
0.942601308789152
40
0.961734205859434
40
0.961734205859434
40
1
40
1
40
1
40
1
41
1
10
61.6286449401139
20
-4.86835164707261
30
0
41
1
10
61.5448591289912
20
-4.88812132489122
30
0
41
1
10
61.4610709216513
20
-4.90774947272919
30
0
41
1
10
60.7472446404596
20
-5.07368787701535
30
0
41
1
10
60.1168447041954
20
-5.21172419947433
30
0
41
1
10
59.1709160631203
20
-5.40656161851635
30
0
41
1
10
58.8555456808587
20
-5.46945128110502
30
0
41
1
10
58.2244979313359
20
-5.59078149120776
30
0
41
1
10
57.9087877173258
20
-5.64916968592951
30
0
41
1
10
57.43488455725
20
-5.7332536202704
30
0
41
1
10
57.2768664698757
20
-5.76070789347853
30
0
41
1
10
56.9607364079053
20
-5.81447747613413
30
0
41
1
10
56.8026872448087
20
-5.84078090551725
30
0
41
1
10
56.4868764432335
20
-5.89218815548517
30
0
41
1
10
56.1712773047853
20
-5.94240893846245
30
0
41
1
10
55.85610753191
20
-5.99026210629424
30
0
41
1
10
55.0685633466165
20
-6.10670760651234
30
0
41
1
10
54.4396535585929
20
-6.18960068038856
30
0
41
1
10
53.1843220250191
20
-6.33555295107547
30
0
41
1
10
52.5579408258986
20
-6.39856005679815
30
0
41
1
10
51.6191932116739
20
-6.47728608608242
30
0
41
1
10
51.3064483975293
20
-6.50093847368066
30
0
41
1
10
50.6813458070117
20
-6.54310877709432
30
0
41
1
10
50.3690042985636
20
-6.56163255226102
30
0
41
1
10
49.7446334867593
20
-6.59347627346827
30
0
41
1
10
49.432518476911
20
-6.60675899636334
30
0
41
1
10
48.8083739776167
20
-6.62807711157055
30
0
41
1
10
48.4963613963604
20
-6.63611972474919
30
0
41
1
10
47.8724888194873
20
-6.64698292353631
30
0
41
1
10
47.5606383119656
20
-6.64980125327469
30
0
41
1
10
46.9369916597853
20
-6.65017844863024
30
0
41
1
10
46.625188610169
20
-6.64773440068461
30
0
41
1
10
46.0013884867627
20
-6.63761993779988
30
0
41
1
10
45.6894144189235
20
-6.62995361100258
30
0
41
1
10
45.0653834059715
20
-6.60939154464907
30
0
41
1
10
44.7533259140712
20
-6.59649439242389
30
0
41
1
10
44.2851760254712
20
-6.57318810589834
30
0
41
1
10
44.129110217976
20
-6.56476036392442
30
0
41
1
10
43.8168765876349
20
-6.54662101139027
30
0
41
1
10
43.3483817992508
20
-6.51748356828452
30
0
41
1
10
42.8794800624265
20
-6.48257268212788
30
0
41
1
10
42.2539587206406
20
-6.43085532686959
30
0
41
1
10
41.9410460447627
20
-6.40240340321932
30
0
41
1
10
41.3148437083183
20
-6.34032353576268
30
0
41
1
10
41.0015517418882
20
-6.3066930529603
30
0
41
1
10
40.0607423655871
20
-6.19836502023358
30
0
41
1
10
39.4323049890768
20
-6.1162829469059
30
0
41
1
10
38.4880420232562
20
-5.9778301335347
30
0
41
1
10
38.1730052229323
20
-5.92912399555141
30
0
41
1
10
37.6997668198442
20
-5.85260510189784
30
0
41
1
10
37.5419167759847
20
-5.82650872529976
30
0
41
1
10
37.2260139724655
20
-5.77312635474939
30
0
41
1
10
37.0679098456619
20
-5.74583089661991
30
0
41
1
10
36.5937788091683
20
-5.66222395165369
30
0
41
1
10
36.2779210726144
20
-5.60418240776696
30
0
41
1
10
35.6466297286183
20
-5.48354298362457
30
0
41
1
10
35.3311924976853
20
-5.42094759256816
30
0
41
1
10
34.3851509008607
20
-5.22695784066565
30
0
41
1
10
33.7547211071702
20
-5.08957098418063
30
0
41
1
10
32.8097589046739
20
-4.87090906981905
30
0
41
1
10
32.4949083347386
20
-4.79586555583839
30
0
41
1
10
31.8650444953616
20
-4.64234745821145
30
0
41
1
10
31.5500618690186
20
-4.56381787394653
30
0
41
1
10
30.9200459982109
20
-4.40312642764079
30
0
41
1
10
30.6050168906614
20
-4.32095466863564
30
0
41
1
10
29.9749098467911
20
-4.15295314512596
30
0
41
1
10
29.6598275387037
20
-4.06712979161244
30
0
41
1
10
28.7141762782998
20
-3.80491015278687
30
0
41
1
10
28.0830372558239
20
-3.62419502724845
30
0
41
1
10
27.2934167259809
20
-3.39043551729549
30
0
41
1
10
27.1354599844092
20
-3.34328278016562
30
0
41
1
10
26.8194662325953
20
-3.24820829440776
30
0
41
1
10
26.6614241710935
20
-3.20029806931612
30
0
41
1
10
26.1875822571034
20
-3.05588738528493
30
0
41
1
10
25.8719116026934
20
-2.95860495558995
30
0
41
1
10
25.2410578182493
20
-2.76192045788523
30
0
41
1
10
24.9258783103792
20
-2.66250809810384
30
0
41
1
10
24.2960271267491
20
-2.46150686709837
30
0
41
1
10
23.9813541417849
20
-2.35992102762717
30
0
41
1
10
23.3523319592819
20
-2.15509460875231
30
0
41
1
10
23.0379499191839
20
-2.05194800470508
30
0
41
1
10
22.4093728264488
20
-1.84439821804727
30
0
41
1
10
22.0952025311696
20
-1.73992432630112
30
0
41
1
10
21.6241498525655
20
-1.58209165101542
30
0
41
1
10
21.4671658858751
20
-1.52929430467597
30
0
41
1
10
21.1532682370316
20
-1.42331705837364
30
0
41
1
10
20.9963544246931
20
-1.37013741758952
30
0
41
1
10
20.5256135537012
20
-1.21032882175996
30
0
41
1
10
20.2117642818765
20
-1.10349719570195
30
0
41
1
10
19.5840593055819
20
-0.889144759294993
30
0
41
1
10
19.2702084180989
20
-0.781609796100071
30
0
41
1
10
18.6425338930849
20
-0.565749990808712
30
0
41
1
10
18.3287161754114
20
-0.457407106684599
30
0
41
1
10
17.7009603282343
20
-0.240363492373035
30
0
41
1
10
17.3869990317588
20
-0.131731504164463
30
0
41
1
10
16.7587521689808
20
0.0852806253054723
30
0
41
1
10
16.4444976092684
20
0.19375270284965
30
0
41
1
10
15.8157731824804
20
0.410771866791151
30
0
41
1
10
15.5013212854283
20
0.519373550411615
30
0
41
1
10
14.8721124547373
20
0.736389499325753
30
0
41
1
10
14.557270562063
20
0.844546362424808
30
0
41
1
10
13.611955617792
20
1.16772577213337
30
0
41
1
10
12.9807441913508
20
1.38160628169578
30
0
41
1
10
12.3486833988206
20
1.5944124856357
30
0
0
SPLINE
5
CF
100
AcDbEntity
8
1
62
256
6
ByLayer
370
18
48
1
60
0
100
AcDbSpline
70
4
71
3
72
14
73
10
40
0
40
0
40
0
40
0
40
0.334882140256381
40
0.334882140256381
40
0.502323210384572
40
0.502323210384572
40
0.669764280512763
40
0.669764280512763
40
1
40
1
40
1
40
1
41
1
10
133.2
20
-6.91943505452738
30
0
41
1
10
133.52359566922
20
-6.93712559453624
30
0
41
1
10
133.846970595035
20
-6.95189348232373
30
0
41
1
10
134.331658985207
20
-6.96964617467893
30
0
41
1
10
134.493154089608
20
-6.97483005719548
30
0
41
1
10
134.816118697247
20
-6.98370238565204
30
0
41
1
10
134.977601271054
20
-6.98738941586467
30
0
41
1
10
135.457568815318
20
-6.99614083129566
30
0
41
1
10
135.776042765309
20
-6.99906523565974
30
0
41
1
10
136.094439927909
20
-6.99912560188264
30
0
0
SPLINE
5
D0
100
AcDbEntity
8
1
62
256
6
ByLayer
370
18
48
1
60
0
100
AcDbSpline
70
4
71
3
72
8
73
4
40
0
40
0
40
0
40
0
40
1
40
1
40
1
40
1
41
1
10
15.3578155935707
20
-6.64944347932109
30
0
41
1
10
15.4409732295139
20
-6.64981689419588
30
0
41
1
10
15.5241265558233
20
-6.65000303156654
30
0
41
1
10
15.6072747572558
20
-6.65000229305457
30
0
0
SPLINE
5
D1
100
AcDbEntity
8
1
62
256
6
ByLayer
370
18
48
1
60
0
100
AcDbSpline
70
4
71
3
72
175
73
171
40
0
40
0
40
0
40
0
40
0.0095698763940783
40
0.0095698763940783
40
0.0224326052720759
40
0.0224326052720759
40
0.0352953341500736
40
0.0352953341500736
40
0.0417266985890724
40
0.0417266985890724
40
0.0481580630280713
40
0.0481580630280713
40
0.073883520784066
40
0.073883520784066
40
0.0867462496620637
40
0.0867462496620637
40
0.0996089785400613
40
0.0996089785400613
40
0.112471707418059
40
0.112471707418059
40
0.118903071857058
40
0.118903071857058
40
0.125334436296057
40
0.125334436296057
40
0.138197165174054
40
0.138197165174054
40
0.151059894052051
40
0.151059894052051
40
0.163922622930048
40
0.163922622930048
40
0.176785351808045
40
0.176785351808045
40
0.189648080686042
40
0.189648080686042
40
0.20251080956404
40
0.20251080956404
40
0.208942174003038
40
0.208942174003038
40
0.215373538442037
40
0.215373538442037
40
0.228236267320034
40
0.228236267320034
40
0.241098996198031
40
0.241098996198031
40
0.24753036063703
40
0.24753036063703
40
0.253961725076029
40
0.253961725076029
40
0.266824453954027
40
0.266824453954027
40
0.279687182832025
40
0.279687182832025
40
0.292549911710024
40
0.292549911710024
40
0.305412640588022
40
0.305412640588022
40
0.31827536946602
40
0.31827536946602
40
0.331138098344018
40
0.331138098344018
40
0.344000827222016
40
0.344000827222016
40
0.356863556100014
40
0.356863556100014
40
0.363294920539013
40
0.363294920539013
40
0.369726284978011
40
0.369726284978011
40
0.382589013856008
40
0.382589013856008
40
0.395451742734005
40
0.395451742734005
40
0.408314471612003
40
0.408314471612003
40
0.42117720049
40
0.42117720049
40
0.434039929367997
40
0.434039929367997
40
0.446902658245994
40
0.446902658245994
40
0.453334022684993
40
0.453334022684993
40
0.459765387123991
40
0.459765387123991
40
0.472628116001988
40
0.472628116001988
40
0.485490844879986
40
0.485490844879986
40
0.498353573757983
40
0.498353573757983
40
0.51121630263598
40
0.51121630263598
40
0.524079031513977
40
0.524079031513977
40
0.530510395952975
40
0.530510395952975
40
0.536941760391974
40
0.536941760391974
40
0.562667218147971
40
0.562667218147971
40
0.57552994702597
40
0.57552994702597
40
0.588392675903969
40
0.588392675903969
40
0.601255404781967
40
0.601255404781967
40
0.607686769220967
40
0.607686769220967
40
0.614118133659967
40
0.614118133659967
40
0.639843591415967
40
0.639843591415967
40
0.665569049171968
40
0.665569049171968
40
0.678431778049968
40
0.678431778049968
40
0.691294506927968
40
0.691294506927968
40
0.697725871366969
40
0.697725871366969
40
0.704157235805969
40
0.71701996468397
40
0.71701996468397
40
0.729882693561972
40
0.729882693561972
40
0.742745422439973
40
0.742745422439973
40
0.755608151317974
40
0.755608151317974
40
0.768470880195976
40
0.768470880195976
40
0.781333609073977
40
0.781333609073977
40
0.794196337951978
40
0.794196337951978
40
0.80705906682998
40
0.80705906682998
40
0.819921795707981
40
0.819921795707981
40
0.832784524585983
40
0.832784524585983
40
0.845647253463984
40
0.845647253463984
40
0.852078617902985
40
0.852078617902985
40
0.858509982341987
40
0.858509982341987
40
0.871372711219988
40
0.871372711219988
40
0.884235440097989
40
0.884235440097989
40
0.89709816897599
40
0.89709816897599
40
0.909960897853991
40
0.909960897853991
40
0.922823626731993
40
0.922823626731993
40
0.935686355609994
40
0.935686355609994
40
0.942117720048994
40
0.942117720048994
40
0.948549084487995
40
0.948549084487995
40
0.961411813365996
40
0.961411813365996
40
0.974274542243998
40
0.974274542243998
40
0.987137271121999
40
0.987137271121999
40
1
40
1
40
1
40
1
41
1
10
61.6274043379954
20
4.87149955030915
30
0
41
1
10
61.8561095558147
20
4.92543379693669
30
0
41
1
10
62.0847305107337
20
4.978339284729
30
0
41
1
10
62.6205811472661
20
5.09966812324143
30
0
41
1
10
62.9278311727923
20
5.16709849554132
30
0
41
1
10
63.5422171912426
20
5.29792510950602
30
0
41
1
10
63.8493368056033
20
5.36134994287562
30
0
41
1
10
64.3098651153583
20
5.4535573730484
30
0
41
1
10
64.463346158509
20
5.48380965512837
30
0
41
1
10
64.7702686390001
20
5.54331183986935
30
0
41
1
10
64.9237161987752
20
5.57255094467286
30
0
41
1
10
65.6911289297331
20
5.71580481717183
30
0
41
1
10
66.3055126343814
20
5.82123003533562
30
0
41
1
10
67.2271083696466
20
5.96658804243893
30
0
41
1
10
67.5343135973864
20
6.01288863384755
30
0
41
1
10
68.1490114602174
20
6.10080520979406
30
0
41
1
10
68.4565344094003
20
6.14238733844749
30
0
41
1
10
69.0720369770038
20
6.22070530973292
30
0
41
1
10
69.3799706823624
20
6.25749588993415
30
0
41
1
10
69.8420766240186
20
6.30917910729136
30
0
41
1
10
69.9961415118843
20
6.32581998492961
30
0
41
1
10
70.3040699109313
20
6.35790004359845
30
0
41
1
10
70.4579599167302
20
6.37334806501426
30
0
41
1
10
70.9195103184658
20
6.41782166647766
30
0
41
1
10
71.2271316385181
20
6.44491421574483
30
0
41
1
10
71.8422272329947
20
6.4940564375886
30
0
41
1
10
72.1496820706853
20
6.51612210298669
30
0
41
1
10
72.764299423884
20
6.5553118429566
30
0
41
1
10
73.0714354405164
20
6.5724431980442
30
0
41
1
10
73.6855564405363
20
6.6016522322181
30
0
41
1
10
73.9925543541184
20
6.61372249395407
30
0
41
1
10
74.6067165083053
20
6.63274110236159
30
0
41
1
10
74.9138489925294
20
6.63970817772739
30
0
41
1
10
75.5280604222355
20
6.6485979337412
30
0
41
1
10
75.835148020675
20
6.65051690562834
30
0
41
1
10
76.2957216726914
20
6.64956377203845
30
0
41
1
10
76.4492401887802
20
6.64860585549721
30
0
41
1
10
76.7563629314466
20
6.64541477366305
30
0
41
1
10
76.9099715539717
20
6.64318331156221
30
0
41
1
10
77.3709177427587
20
6.63459133456547
30
0
41
1
10
77.678374288929
20
6.62633608636108
30
0
41
1
10
78.2934940372411
20
6.60475080150332
30
0
41
1
10
78.6011396259095
20
6.59141200611916
30
0
41
1
10
79.062764874394
20
6.56754840045676
30
0
41
1
10
79.2166725876595
20
6.55895370293723
30
0
41
1
10
79.5245870969074
20
6.54049655633636
30
0
41
1
10
79.6786275922823
20
6.53063195026741
30
0
41
1
10
80.1406547081643
20
6.49919411549962
30
0
41
1
10
80.4485812171123
20
6.47580143949077
30
0
41
1
10
81.0640985635179
20
6.42409824957983
30
0
41
1
10
81.3716864588663
20
6.39578325952215
30
0
41
1
10
81.9864675688372
20
6.33415964410202
30
0
41
1
10
82.2936128356145
20
6.30079629679176
30
0
41
1
10
82.9079948426605
20
6.22951182786611
30
0
41
1
10
83.215199765166
20
6.19157425609018
30
0
41
1
10
83.8295224583549
20
6.11102938076471
30
0
41
1
10
84.1366382290716
20
6.06841927494398
30
0
41
1
10
84.7506888822294
20
5.97838772924891
30
0
41
1
10
85.0576389518211
20
5.93097733145848
30
0
41
1
10
85.6716684516265
20
5.83171732528086
30
0
41
1
10
85.9787858341139
20
5.77992475968068
30
0
41
1
10
86.5932580723229
20
5.67210263399835
30
0
41
1
10
86.9005733191262
20
5.61601627226102
30
0
41
1
10
87.3616083482258
20
5.52851480894967
30
0
41
1
10
87.5152979398829
20
5.49878651687192
30
0
41
1
10
87.8226939584792
20
5.43818966552618
30
0
41
1
10
87.9763967738559
20
5.40731398746831
30
0
41
1
10
88.4376533144689
20
5.31317878071377
30
0
41
1
10
88.7454099093081
20
5.24851350545029
30
0
41
1
10
89.3613500518998
20
5.11526708081757
30
0
41
1
10
89.6696290941006
20
5.04664836112261
30
0
41
1
10
90.2855123204628
20
4.90547124202294
30
0
41
1
10
90.5931900223198
20
4.83284414339442
30
0
41
1
10
91.2082488290813
20
4.68397086308082
30
0
41
1
10
91.5156465860214
20
4.60775919832406
30
0
41
1
10
92.130423151267
20
4.45233789225335
30
0
41
1
10
92.4377587082018
20
4.37303993728423
30
0
41
1
10
93.0521901132191
20
4.21097928455603
30
0
41
1
10
93.3592865524102
20
4.12821601973877
30
0
41
1
10
93.8197556221237
20
4.00145666784863
30
0
41
1
10
93.9732261429425
20
3.95879046842384
30
0
41
1
10
94.2802258875884
20
3.87286206181989
30
0
41
1
10
94.4337488778962
20
3.82958587521222
30
0
41
1
10
94.8943646145258
20
3.69877490151467
30
0
41
1
10
95.2015035736781
20
3.61025807105807
30
0
41
1
10
95.8157946810673
20
3.43033892512332
30
0
41
1
10
96.1229237675447
20
3.33887661636569
30
0
41
1
10
96.7372410314158
20
3.15314856687306
30
0
41
1
10
97.0444481731184
20
3.05892852771527
30
0
41
1
10
97.6592654521434
20
2.86858101546716
30
0
41
1
10
97.9668897168142
20
2.77249762896153
30
0
41
1
10
98.5823889160565
20
2.5780354022923
30
0
41
1
10
98.890270140791
20
2.47967197719913
30
0
41
1
10
99.3522542085395
20
2.33030273338272
30
0
41
1
10
99.5062809171105
20
2.28018626264023
30
0
41
1
10
99.8140581875987
20
2.17962685584138
30
0
41
1
10
99.9678662620333
20
2.12920317314081
30
0
41
1
10
100.736588064342
20
1.87663215378473
30
0
41
1
10
101.350437518531
20
1.67276338167062
30
0
41
1
10
102.269028252054
20
1.36263542952008
30
0
41
1
10
102.574886936478
20
1.25862389958476
30
0
41
1
10
103.186188806822
20
1.05015354603321
30
0
41
1
10
103.491670149207
20
0.945813897527984
30
0
41
1
10
104.102266311357
20
0.736827550483184
30
0
41
1
10
104.407353333251
20
0.632093711185206
30
0
41
1
10
104.864622703314
20
0.474493975803938
30
0
41
1
10
105.016985731771
20
0.421877971904649
30
0
41
1
10
105.321587387403
20
0.316468418915349
30
0
41
1
10
105.473827622299
20
0.263680033224773
30
0
41
1
10
106.234949649273
20
1.04936223408E-05
30
0
41
1
10
106.843706627659
20
-0.209719262273609
30
0
41
1
10
108.060126991249
20
-0.629290144275075
30
0
41
1
10
108.667716491699
20
-0.839333621127793
30
0
41
1
10
109.579663182098
20
-1.15029779085751
30
0
41
1
10
109.883689456909
20
-1.25342114998708
30
0
41
1
10
110.4917072535
20
-1.45897041409413
30
0
41
1
10
110.79569849699
20
-1.56139663850314
30
0
41
1
10
111.251666762854
20
-1.71448271012113
30
0
41
1
10
111.40366292063
20
-1.76539004075511
30
0
41
1
10
111.707759525378
20
-1.86669589688509
30
0
41
1
10
112.164043165115
20
-2.0179437303859
30
0
41
1
10
112.620676321697
20
-2.16726058177832
30
0
41
1
10
113.229728116426
20
-2.36493258641093
30
0
41
1
10
113.534337148755
20
-2.46311911742117
30
0
41
1
10
114.143800815022
20
-2.6579544847643
30
0
41
1
10
114.448673923695
20
-2.75454942850465
30
0
41
1
10
115.05898532387
20
-2.94528607451994
30
0
41
1
10
115.364441729571
20
-3.03937809049736
30
0
41
1
10
115.975792376975
20
-3.22547460569979
30
0
41
1
10
116.281690389626
20
-3.31746798714482
30
0
41
1
10
116.893891408936
20
-3.49944649616251
30
0
41
1
10
117.200164255096
20
-3.58951328855136
30
0
41
1
10
117.813582837123
20
-3.76632964129749
30
0
41
1
10
118.120684382529
20
-3.85320436417226
30
0
41
1
10
118.735570045626
20
-4.02416803012676
30
0
41
1
10
119.043374384906
20
-4.10827294415822
30
0
41
1
10
119.659507401617
20
-4.2738239857533
30
0
41
1
10
119.967370120446
20
-4.35508883598047
30
0
41
1
10
120.58297275041
20
-4.51396144152736
30
0
41
1
10
120.89075370759
20
-4.59148488628185
30
0
41
1
10
121.506264403333
20
-4.74277323471148
30
0
41
1
10
121.813959999153
20
-4.8166100447811
30
0
41
1
10
122.275362371331
20
-4.9247457933476
30
0
41
1
10
122.429140105375
20
-4.96035312323687
30
0
41
1
10
122.736644056791
20
-5.03069623879753
30
0
41
1
10
122.890371083261
20
-5.06542957424617
30
0
41
1
10
123.35162179545
20
-5.16804088097649
30
0
41
1
10
123.659249380363
20
-5.23427237224405
30
0
41
1
10
124.274649757321
20
-5.36262309432379
30
0
41
1
10
124.582420383201
20
-5.42474609190594
30
0
41
1
10
125.197997445098
20
-5.54504684058125
30
0
41
1
10
125.505786699072
20
-5.6032465735272
30
0
41
1
10
126.121623379603
20
-5.71529985646862
30
0
41
1
10
126.42974084012
20
-5.76912916317735
30
0
41
1
10
127.045744745828
20
-5.8719855565304
30
0
41
1
10
127.353669552759
20
-5.92110315624328
30
0
41
1
10
127.969243103827
20
-6.01488750600652
30
0
41
1
10
128.27688458427
20
-6.05955976929283
30
0
41
1
10
128.738167596504
20
-6.12315523592849
30
0
41
1
10
128.891913880858
20
-6.14376647030036
30
0
41
1
10
129.199460671549
20
-6.18372677119808
30
0
41
1
10
129.353252163378
20
-6.20308676628059
30
0
41
1
10
129.814658322875
20
-6.2593415980572
30
0
41
1
10
130.122304113595
20
-6.29441462850448
30
0
41
1
10
130.737568699205
20
-6.35980821757516
30
0
41
1
10
131.045161625272
20
-6.39014668602235
30
0
41
1
10
131.660400957567
20
-6.44594963224847
30
0
41
1
10
131.968062945053
20
-6.47139814937424
30
0
41
1
10
132.583784563505
20
-6.51719028051133
30
0
41
1
10
132.89183985401
20
-6.53754758307531
30
0
41
1
10
133.2
20
-6.55542157659198
30
0
0
SPLINE
5
D2
100
AcDbEntity
8
1
62
256
6
ByLayer
370
18
48
1
60
0
100
AcDbSpline
70
4
71
3
72
178
73
174
40
0
40
0
40
0
40
0
40
0.0029520111575732
40
0.0029520111575732
40
0.0155674422796076
40
0.0155674422796076
40
0.028182873401642
40
0.028182873401642
40
0.0344905889626587
40
0.0344905889626587
40
0.0407983045236754
40
0.0407983045236754
40
0.0534137356457079
40
0.0534137356457079
40
0.0660291667677403
40
0.0660291667677403
40
0.0786445978897728
40
0.0786445978897728
40
0.103875460133837
40
0.103875460133837
40
0.116490891255869
40
0.116490891255869
40
0.129106322377901
40
0.129106322377901
40
0.141721753499932
40
0.141721753499932
40
0.154337184621964
40
0.154337184621964
40
0.179568046866027
40
0.179568046866027
40
0.192183477988058
40
0.192183477988058
40
0.204798909110089
40
0.204798909110089
40
0.211106624671104
40
0.211106624671104
40
0.217414340232119
40
0.217414340232119
40
0.230029771354149
40
0.230029771354149
40
0.242645202476179
40
0.242645202476179
40
0.255260633598209
40
0.255260633598209
40
0.261568349159224
40
0.261568349159224
40
0.267876064720239
40
0.267876064720239
40
0.280491495842269
40
0.280491495842269
40
0.293106926964299
40
0.293106926964299
40
0.305722358086329
40
0.305722358086329
40
0.318337789208359
40
0.318337789208359
40
0.330953220330389
40
0.330953220330389
40
0.337260935891404
40
0.337260935891404
40
0.34356865145242
40
0.34356865145242
40
0.356184082574451
40
0.356184082574451
40
0.368799513696482
40
0.368799513696482
40
0.381414944818513
40
0.381414944818513
40
0.394030375940544
40
0.394030375940544
40
0.406645807062575
40
0.406645807062575
40
0.419261238184606
40
0.419261238184606
40
0.431876669306637
40
0.431876669306637
40
0.444492100428667
40
0.444492100428667
40
0.457107531550699
40
0.457107531550699
40
0.469722962672729
40
0.469722962672729
40
0.476030678233745
40
0.476030678233745
40
0.482338393794761
40
0.482338393794761
40
0.494953824916793
40
0.494953824916793
40
0.501261540477809
40
0.501261540477809
40
0.507569256038825
40
0.507569256038825
40
0.520184687160857
40
0.520184687160857
40
0.532800118282889
40
0.532800118282889
40
0.545415549404921
40
0.545415549404921
40
0.558030980526953
40
0.558030980526953
40
0.570646411648985
40
0.570646411648985
40
0.576954127210001
40
0.576954127210001
40
0.583261842771018
40
0.59587727389305
40
0.59587727389305
40
0.602184989454066
40
0.602184989454066
40
0.608492705015082
40
0.608492705015082
40
0.621108136137114
40
0.621108136137114
40
0.633723567259146
40
0.633723567259146
40
0.646338998381179
40
0.646338998381179
40
0.658954429503211
40
0.658954429503211
40
0.671569860625244
40
0.671569860625244
40
0.684185291747276
40
0.684185291747276
40
0.696800722869309
40
0.696800722869309
40
0.709416153991341
40
0.709416153991341
40
0.722031585113373
40
0.722031585113373
40
0.734647016235406
40
0.734647016235406
40
0.740954731796422
40
0.740954731796422
40
0.747262447357438
40
0.747262447357438
40
0.759877878479471
40
0.759877878479471
40
0.772493309601504
40
0.772493309601504
40
0.785108740723537
40
0.785108740723537
40
0.79772417184557
40
0.79772417184557
40
0.810339602967603
40
0.810339602967603
40
0.835570465211669
40
0.835570465211669
40
0.848185896333702
40
0.848185896333702
40
0.860801327455736
40
0.860801327455736
40
0.867109043016752
40
0.867109043016752
40
0.873416758577769
40
0.873416758577769
40
0.879724474138786
40
0.886032189699802
40
0.886032189699802
40
0.911263051943869
40
0.911263051943869
40
0.936493914187935
40
0.936493914187935
40
0.949109345309968
40
0.949109345309968
40
0.961724776432002
40
0.961724776432002
40
0.974340207554036
40
0.974340207554036
40
0.986955638676069
40
0.986955638676069
40
0.999571069798103
40
0.999571069798103
40
1
40
1
40
1
40
1
41
1
10
122.063803202138
20
-4.8649239828548
30
0
41
1
10
121.990192424741
20
-4.88228337848517
30
0
41
1
10
121.916594050717
20
-4.89952674369403
30
0
41
1
10
121.528530154239
20
-4.98983185487413
30
0
41
1
10
121.214273656553
20
-5.0608909358335
30
0
41
1
10
120.58626212577
20
-5.19892479935567
30
0
41
1
10
120.272506883117
20
-5.26589753084383
30
0
41
1
10
119.802250138672
20
-5.36327705728061
30
0
41
1
10
119.645555204687
20
-5.39521261468534
30
0
41
1
10
119.332209252148
20
-5.45791142040432
30
0
41
1
10
119.175561555753
20
-5.48868145159315
30
0
41
1
10
118.705701030681
20
-5.57927625215447
30
0
41
1
10
118.392571646646
20
-5.63738910991796
30
0
41
1
10
117.76657750647
20
-5.74913559251951
30
0
41
1
10
117.453720869409
20
-5.8027792260217
30
0
41
1
10
116.828214822075
20
-5.90548005295952
30
0
41
1
10
116.515563508532
20
-5.95453054402273
30
0
41
1
10
115.577537609094
20
-6.09429297106325
30
0
41
1
10
114.952104496992
20
-6.17768982770497
30
0
41
1
10
114.014110761319
20
-6.28840075658678
30
0
41
1
10
113.701459684697
20
-6.32287720874294
30
0
41
1
10
113.075808246166
20
-6.38662418493294
30
0
41
1
10
112.762850177668
20
-6.41594192443068
30
0
41
1
10
112.136718528746
20
-6.46951222085809
30
0
41
1
10
111.823549700867
20
-6.49376658666142
30
0
41
1
10
111.196975381889
20
-6.53715537467653
30
0
41
1
10
110.883565715563
20
-6.55628273211269
30
0
41
1
10
109.942637940266
20
-6.60575744635119
30
0
41
1
10
109.314317973189
20
-6.62820496798165
30
0
41
1
10
108.370534344223
20
-6.64602610990275
30
0
41
1
10
108.055748604967
20
-6.6493099965538
30
0
41
1
10
107.425392328876
20
-6.65049400668414
30
0
41
1
10
107.109843852274
20
-6.64840622494225
30
0
41
1
10
106.635998582992
20
-6.6412473886835
30
0
41
1
10
106.477917887892
20
-6.63818812468566
30
0
41
1
10
106.1618214004
20
-6.63072517807939
30
0
41
1
10
106.003832704785
20
-6.62632231157139
30
0
41
1
10
105.530038534563
20
-6.61109896108735
30
0
41
1
10
105.214405459193
20
-6.59826014203071
30
0
41
1
10
104.583394588297
20
-6.56728141810535
30
0
41
1
10
104.267981135959
20
-6.54916104486415
30
0
41
1
10
103.637322144029
20
-6.50771143692504
30
0
41
1
10
103.322094532449
20
-6.48437309831056
30
0
41
1
10
102.849427614875
20
-6.44542411926639
30
0
41
1
10
102.691902801942
20
-6.43178244589845
30
0
41
1
10
102.376906350761
20
-6.40318268834105
30
0
41
1
10
102.219431066372
20
-6.3882266492553
30
0
41
1
10
101.746961832784
20
-6.34148376992232
30
0
41
1
10
101.43193768136
20
-6.30781677492843
30
0
41
1
10
100.801846979929
20
-6.23546306245731
30
0
41
1
10
100.486784137988
20
-6.19677208164669
30
0
41
1
10
99.8566413800327
20
-6.11432308599171
30
0
41
1
10
99.541561333441
20
-6.07056066048048
30
0
41
1
10
98.9112018625206
20
-5.97815080256061
30
0
41
1
10
98.5958904361591
20
-5.92954531400977
30
0
41
1
10
97.9649135359368
20
-5.82767497631752
30
0
41
1
10
97.6492756911218
20
-5.77437484598332
30
0
41
1
10
97.1756214793235
20
-5.69081837984047
30
0
41
1
10
97.0177034074801
20
-5.66236535894984
30
0
41
1
10
96.7018035600258
20
-5.60424479477598
30
0
41
1
10
96.5438052181464
20
-5.57457087040774
30
0
41
1
10
96.0697322691491
20
-5.48390281098381
30
0
41
1
10
95.753817823897
20
-5.42136853714049
30
0
41
1
10
95.1222849151289
20
-5.29211611706506
30
0
41
1
10
94.8066723658199
20
-5.22538737263304
30
0
41
1
10
94.1757801467307
20
-5.08768146651499
30
0
41
1
10
93.8605071947951
20
-5.01668871903067
30
0
41
1
10
93.2301482047074
20
-4.87072124087337
30
0
41
1
10
92.915039018094
20
-4.79579196705868
30
0
41
1
10
92.2847950673657
20
-4.64240380262706
30
0
41
1
10
91.96969199155
20
-4.56388296758789
30
0
41
1
10
91.3395731242474
20
-4.40308224991793
30
0
41
1
10
91.0245757194512
20
-4.3207598786102
30
0
41
1
10
90.3945800026754
20
-4.15252027481549
30
0
41
1
10
90.0794905960074
20
-4.06680979765716
30
0
41
1
10
89.449084310327
20
-3.89233413150612
30
0
41
1
10
89.1337840510673
20
-3.80353111937046
30
0
41
1
10
88.5030225177004
20
-3.62270540496462
30
0
41
1
10
88.1875707656383
20
-3.53065668612109
30
0
41
1
10
87.5563920527605
20
-3.34359313741248
30
0
41
1
10
87.2406534915683
20
-3.24860622604086
30
0
41
1
10
86.7666513635436
20
-3.10439109114904
30
0
41
1
10
86.6085571654735
20
-3.05600437698655
30
0
41
1
10
86.29244532976
20
-2.95864852370286
30
0
41
1
10
86.1344402644445
20
-2.90968242549292
30
0
41
1
10
85.6605823756485
20
-2.76190713286908
30
0
41
1
10
85.3448962969339
20
-2.66219542745171
30
0
41
1
10
84.8716703948707
20
-2.5109010998332
30
0
41
1
10
84.7139689266638
20
-2.46020917711732
30
0
41
1
10
84.3985828105112
20
-2.35848202255076
30
0
41
1
10
84.240904282805
20
-2.30743010511966
30
0
41
1
10
83.7679200025218
20
-2.15369028937522
30
0
41
1
10
83.4526672670157
20
-2.05041400220401
30
0
41
1
10
82.8223432004594
20
-1.84218280911935
30
0
41
1
10
82.5072816478703
20
-1.73719972782973
30
0
41
1
10
81.8772580904468
20
-1.52577946402286
30
0
41
1
10
81.5622928219571
20
-1.41935068265602
30
0
41
1
10
80.9321901284278
20
-1.20581627308908
30
0
41
1
10
80.6170673104924
20
-1.09867054384731
30
0
41
1
10
79.9867545553345
20
-0.883405428278792
30
0
41
1
10
79.6715610502355
20
-0.775296092195077
30
0
41
1
10
79.1987285763072
20
-0.612369901303481
30
0
41
1
10
79.0411081037286
20
-0.557941502351099
30
0
41
1
10
78.7257733304135
20
-0.449064179654471
30
0
41
1
10
78.2526267533719
20
-0.285728641080709
30
0
41
1
10
77.779072668681
20
-0.122264768046676
30
0
41
1
10
77.3052824504854
20
0.0413914948278205
30
0
41
1
10
77.1473123141238
20
0.0959736541811651
30
0
41
1
10
76.8312935135384
20
0.205204196830124
30
0
41
1
10
76.6732151360951
20
0.25986385030734
30
0
41
1
10
76.1992128027622
20
0.423728104440443
30
0
41
1
10
75.8834446508966
20
0.532871614182909
30
0
41
1
10
75.2521192562982
20
0.750203636944605
30
0
41
1
10
74.9365511015178
20
0.858362197468523
30
0
41
1
10
74.3056838909663
20
1.07391062433783
30
0
41
1
10
73.9903813614338
20
1.1812899422857
30
0
41
1
10
73.3600664113637
20
1.39533316507627
30
0
41
1
10
73.0450514505742
20
1.50198678764113
30
0
41
1
10
72.4149070911743
20
1.71342116900567
30
0
41
1
10
72.0998211665265
20
1.81832851365743
30
0
41
1
10
71.4696732137384
20
2.02667389144457
30
0
41
1
10
71.1546163877196
20
2.13012591596328
30
0
41
1
10
70.5245057610536
20
2.33549356300165
30
0
41
1
10
70.2094477850388
20
2.43739626442732
30
0
41
1
10
69.5790920301839
20
2.63899589485538
30
0
41
1
10
69.2637651608972
20
2.73861582825057
30
0
41
1
10
68.6328681003853
20
2.93564873763904
30
0
41
1
10
68.3173023650238
20
3.03307344174053
30
0
41
1
10
67.6859610480174
20
3.22579241747107
30
0
41
1
10
67.3702158654199
20
3.32116336836245
30
0
41
1
10
66.8961628009919
20
3.46188871381889
30
0
41
1
10
66.7380754023242
20
3.50842835603476
30
0
41
1
10
66.4220537030559
20
3.60070282030273
30
0
41
1
10
66.2640846038899
20
3.64644806206201
30
0
41
1
10
65.7903124596471
20
3.78253688994349
30
0
41
1
10
65.474647951498
20
3.87174258346394
30
0
41
1
10
64.8436828719877
20
4.04710010102781
30
0
41
1
10
64.5283783741816
20
4.13323894168121
30
0
41
1
10
63.8979163673334
20
4.30195223018976
30
0
41
1
10
63.5827232319979
20
4.38444918928806
30
0
41
1
10
62.9524080514457
20
4.5457433354816
30
0
41
1
10
62.6373023206339
20
4.62457649379957
30
0
41
1
10
62.0072227526853
20
4.7786626808664
30
0
41
1
10
61.6922926362183
20
4.85399891273647
30
0
41
1
10
60.7472446404597
20
5.07368787701532
30
0
41
1
10
60.1168447041954
20
5.2117241994743
30
0
41
1
10
59.1709160631204
20
5.40656161851632
30
0
41
1
10
58.8555456808588
20
5.46945128110499
30
0
41
1
10
58.224497931336
20
5.59078149120774
30
0
41
1
10
57.9087877173259
20
5.64916968592951
30
0
41
1
10
57.4348845572501
20
5.73325362027038
30
0
41
1
10
57.2768664698758
20
5.7607078934785
30
0
41
1
10
56.9607364079054
20
5.8144774761341
30
0
41
1
10
56.8026872448088
20
5.84078090551722
30
0
41
1
10
56.4868764432335
20
5.89218815548517
30
0
41
1
10
56.1712773047854
20
5.94240893846242
30
0
41
1
10
55.8561075319101
20
5.99026210629418
30
0
41
1
10
55.0685633466167
20
6.10670760651237
30
0
41
1
10
54.4396535585929
20
6.18960068038856
30
0
41
1
10
53.1843220250191
20
6.33555295107544
30
0
41
1
10
52.5579408258987
20
6.39856005679815
30
0
41
1
10
51.6191932116739
20
6.47728608608242
30
0
41
1
10
51.3064483975293
20
6.50093847368066
30
0
41
1
10
50.6813458070117
20
6.54310877709432
30
0
41
1
10
50.3690042985637
20
6.56163255226102
30
0
41
1
10
49.7446334867593
20
6.59347627346827
30
0
41
1
10
49.4325184769112
20
6.60675899636334
30
0
41
1
10
48.8083739776167
20
6.62807711157055
30
0
41
1
10
48.4963613963605
20
6.63611972474919
30
0
41
1
10
47.8724888194874
20
6.64698292353631
30
0
41
1
10
47.5606383119656
20
6.64980125327469
30
0
41
1
10
47.2382128557602
20
6.6499962633564
30
0
41
1
10
47.2276107490851
20
6.64999963234334
30
0
41
1
10
47.2170086612402
20
6.64999995867819
30
0
0
SPLINE
5
D3
100
AcDbEntity
8
1
62
256
6
ByLayer
370
18
48
1
60
0
100
AcDbSpline
70
4
71
3
72
14
73
10
40
0
40
0
40
0
40
0
40
0.25
40
0.25
40
0.5
40
0.5
40
0.75
40
0.75
40
1
40
1
40
1
40
1
41
1
10
12.3486833988207
20
1.5944124856357
30
0
41
1
10
12.1503456184722
20
1.66328757987671
30
0
41
1
10
11.9528577550109
20
1.73390429038972
30
0
41
1
10
11.5592430040193
20
1.87767751670143
30
0
41
1
10
11.3631153074361
20
1.95083231011429
30
0
41
1
10
10.9719550465843
20
2.09894140784869
30
0
41
1
10
10.7769218698845
20
2.17389463923664
30
0
41
1
10
10.387781413745
20
2.32511067843458
30
0
41
1
10
10.1936738100458
20
2.40137323536573
30
0
41
1
10
10
20
2.47818094272347
30
0
0
SPLINE
5
D4
100
AcDbEntity
8
1
62
256
6
ByLayer
370
18
48
1
60
0
100
AcDbSpline
70
4
71
4
72
13
73
8
40
0
40
0
40
0
40
0
40
0
40
0.492252633909558
40
0.492252633909558
40
0.492252633909558
40
1
40
1
40
1
40
1
40
1
41
0.996506464969356
10
15.3578155935707
20
6.64944347932109
30
0
41
0.994682564109616
10
15.2625916678211
20
5.86726111937101
30
0
41
0.994604295419906
10
15.1017511402546
20
5.0165981625914
30
0
41
1
10
14.8833437123238
20
4.19686363843513
30
0
41
1
10
14.4119450868012
20
2.77528927417296
30
0
41
0.99425926599009
10
14.1228475881659
20
2.07492602744937
30
0
41
0.994706565214924
10
13.8146848564135
20
1.53600103195606
30
0
41
0.996746008231064
10
13.5271794204679
20
1.19183889086662
30
0
0
SPLINE
5
D5
100
AcDbEntity
8
1
62
256
6
ByLayer
370
18
48
1
60
0
100
AcDbSpline
70
4
71
3
72
20
73
16
40
0
40
0
40
0
40
0
40
0.125
40
0.125
40
0.249999999999999
40
0.249999999999999
40
0.499999999999998
40
0.499999999999998
40
0.624999999999998
40
0.624999999999998
40
0.687499999999998
40
0.687499999999998
40
0.749999999999997
40
0.749999999999997
40
1
40
1
40
1
40
1
41
1
10
10
20
6.55663484894603
30
0
41
1
10
10.2304988119912
20
6.55588400420575
30
0
41
1
10
10.4599164321796
20
6.55637813780714
30
0
41
1
10
10.91675875023
20
6.55961085216066
30
0
41
1
10
11.1441828100276
20
6.56234799125875
30
0
41
1
10
11.8236907475978
20
6.5732343058468
30
0
41
1
10
12.2730038067774
20
6.58411632948466
30
0
41
1
10
12.9423607420864
20
6.60171723455949
30
0
41
1
10
13.1647121442205
20
6.607780107302
30
0
41
1
10
13.497220400847
20
6.61655205596082
30
0
41
1
10
13.6078868261005
20
6.61942195963326
30
0
41
1
10
13.8289041536902
20
6.62494941891455
30
0
41
1
10
13.9393033764149
20
6.62760798298478
30
0
41
1
10
14.4899813770276
20
6.64010005452391
30
0
41
1
10
14.925514669827
20
6.64744299737771
30
0
41
1
10
15.3578155935707
20
6.64944347932112
30
0
0
SPLINE
5
D6
100
AcDbEntity
8
1
62
256
6
ByLayer
370
18
48
1
60
0
100
AcDbSpline
70
4
71
3
72
107
73
103
40
0
40
0
40
0
40
0
40
0.0625000000000056
40
0.0625000000000056
40
0.125000000000011
40
0.125000000000011
40
0.156250000000014
40
0.156250000000014
40
0.187500000000016
40
0.187500000000016
40
0.218750000000018
40
0.218750000000018
40
0.226562500000018
40
0.226562500000018
40
0.234375000000019
40
0.250000000000019
40
0.250000000000019
40
0.28125000000002
40
0.28125000000002
40
0.29687500000002
40
0.29687500000002
40
0.30468750000002
40
0.30468750000002
40
0.31250000000002
40
0.31250000000002
40
0.343750000000017
40
0.343750000000017
40
0.359375000000016
40
0.359375000000016
40
0.375000000000015
40
0.375000000000015
40
0.390625000000014
40
0.390625000000014
40
0.394531250000013
40
0.394531250000013
40
0.398437500000013
40
0.398437500000013
40
0.406250000000013
40
0.406250000000013
40
0.421875000000012
40
0.421875000000012
40
0.437500000000011
40
0.437500000000011
40
0.445312500000011
40
0.445312500000011
40
0.453125000000011
40
0.453125000000011
40
0.468750000000009
40
0.468750000000009
40
0.484375000000008
40
0.484375000000008
40
0.488281250000008
40
0.488281250000008
40
0.492187500000007
40
0.500000000000007
40
0.500000000000007
40
0.515625000000005
40
0.515625000000005
40
0.523437500000004
40
0.523437500000004
40
0.531250000000003
40
0.531250000000003
40
0.546875000000002
40
0.546875000000002
40
0.562500000000001
40
0.562500000000001
40
0.578124999999999
40
0.578124999999999
40
0.585937499999999
40
0.585937499999999
40
0.593749999999998
40
0.593749999999998
40
0.624999999999997
40
0.624999999999997
40
0.656249999999996
40
0.656249999999996
40
0.664062499999995
40
0.664062499999995
40
0.671874999999995
40
0.687499999999995
40
0.687499999999995
40
0.718749999999996
40
0.718749999999996
40
0.749999999999996
40
0.749999999999996
40
0.781249999999997
40
0.781249999999997
40
0.812499999999997
40
0.812499999999997
40
0.843749999999998
40
0.843749999999998
40
0.859374999999998
40
0.859374999999998
40
0.874999999999998
40
0.874999999999998
40
0.906249999999999
40
0.906249999999999
40
0.937499999999999
40
0.937499999999999
40
0.96875
40
0.96875
40
1
40
1
40
1
40
1
41
1
10
10
20
6.55663484894603
30
0
41
1
10
9.61905282339211
20
6.60952130917283
30
0
41
1
10
9.24155266860237
20
6.66474992795881
30
0
41
1
10
8.4937371988496
20
6.77888515187985
30
0
41
1
10
8.12341564730437
20
6.83780031814328
30
0
41
1
10
7.57357962470573
20
6.92705058249553
30
0
41
1
10
7.39124302338513
20
6.95693463662028
30
0
41
1
10
7.02852223859423
20
7.01647490952467
30
0
41
1
10
6.84813758343569
20
7.0461328786964
30
0
41
1
10
6.48941789973131
20
7.10456197967963
30
0
41
1
10
6.31108207978653
20
7.13333634370787
30
0
41
1
10
6.08953391623885
20
7.16819028353146
30
0
41
1
10
6.04533917091681
20
7.1750972799442
30
0
41
1
10
5.95739095417784
20
7.18873518947666
30
0
41
1
10
5.82603880428016
20
7.20894209339068
30
0
41
1
10
5.69642433160661
20
7.22832438165364
30
0
41
1
10
5.43960400764371
20
7.26576214957535
30
0
41
1
10
5.27159105627803
20
7.2889675166785
30
0
41
1
10
5.02490019415274
20
7.32000217392346
30
0
41
1
10
4.94356041738808
20
7.32971463332979
30
0
41
1
10
4.82298150087749
20
7.34314919189455
30
0
41
1
10
4.783027227959
20
7.34743800227417
30
0
41
1
10
4.70361528067917
20
7.35560100380991
30
0
41
1
10
4.66415798740073
20
7.35947449887163
30
0
41
1
10
4.46915303386788
20
7.37762083611784
30
0
41
1
10
4.31962037600147
20
7.38834768662579
30
0
41
1
10
4.10635563822467
20
7.39691504042665
30
0
41
1
10
4.0371133378151
20
7.39851074664111
30
0
41
1
10
3.90265735312514
20
7.39876900405878
30
0
41
1
10
3.83744219280661
20
7.3974329692395
30
0
41
1
10
3.71149352468262
20
7.39130573810425
30
0
41
1
10
3.65075752296539
20
7.38651691503171
30
0
41
1
10
3.57803140806234
20
7.37794168350129
30
0
41
1
10
3.56364642776265
20
7.37609665905254
30
0
41
1
10
3.53520927793122
20
7.37213354383934
30
0
41
1
10
3.52115644959656
20
7.37001475189618
30
0
41
1
10
3.47973974224732
20
7.36326721911399
30
0
41
1
10
3.45304046982614
20
7.35823745272603
30
0
41
1
10
3.37577867916684
20
7.34146132265676
30
0
41
1
10
3.32804430325822
20
7.32803297054113
30
0
41
1
10
3.24082206741048
20
7.29609454856708
30
0
41
1
10
3.20133034555579
20
7.27758701284156
30
0
41
1
10
3.14902118693101
20
7.24543386923031
30
0
41
1
10
3.13270843833982
20
7.23394531003279
30
0
41
1
10
3.10294180763267
20
7.20972635759966
30
0
41
1
10
3.08943462607925
20
7.19697101943481
30
0
41
1
10
3.05308028548586
20
7.15672800086458
30
0
41
1
10
3.0343924596678
20
7.12726602052683
30
0
41
1
10
3.00849954724467
20
7.06280599280859
30
0
41
1
10
3.00129280329676
20
7.02780874484677
30
0
41
1
10
2.99987052762444
20
6.9803745066834
30
0
41
1
10
2.99996719451048
20
6.97068515012
30
0
41
1
10
3.00092897207512
20
6.95101733280734
30
0
41
1
10
3.0035169799425
20
6.92114202499442
30
0
41
1
10
3.00947323986887
20
6.8901670520539
30
0
41
1
10
3.02572493991465
20
6.82680084528948
30
0
41
1
10
3.04233750505506
20
6.782669979427
30
0
41
1
10
3.07547340813187
20
6.71380936985699
30
0
41
1
10
3.08789020765423
20
6.69041135044085
30
0
41
1
10
3.11541293849916
20
6.64274939914557
30
0
41
1
10
3.1305707425789
20
6.61841408348556
30
0
41
1
10
3.17939574307502
20
6.54503140543287
30
0
41
1
10
3.21648923140717
20
6.49541514377074
30
0
41
1
10
3.2986359260056
20
6.39502184298928
30
0
41
1
10
3.34369335573967
20
6.34424425257393
30
0
41
1
10
3.44094154101964
20
6.24170940868882
30
0
41
1
10
3.49313484421501
20
6.18995182451661
30
0
41
1
10
3.57629714464588
20
6.1116921334831
30
0
41
1
10
3.60469570477247
20
6.08562971698993
30
0
41
1
10
3.66261073560247
20
6.03368194889129
30
0
41
1
10
3.69214991931182
20
6.00777528559317
30
0
41
1
10
3.84254592245353
20
5.87856946024743
30
0
41
1
10
3.97142676688833
20
5.77625094726474
30
0
41
1
10
4.24244830987431
20
5.57353158134742
30
0
41
1
10
4.38462031066686
20
5.47313279855544
30
0
41
1
10
4.56907211039967
20
5.34872936800363
30
0
41
1
10
4.6062922530725
20
5.32391032319492
30
0
41
1
10
4.68103819475402
20
5.27459944422409
30
0
41
1
10
4.79374423135414
20
5.20103725806942
30
0
41
1
10
4.90809642656339
20
5.1286147865581
30
0
41
1
10
5.1387368614686
20
4.98512029843138
30
0
41
1
10
5.29506924349761
20
4.89125349288625
30
0
41
1
10
5.61180110318983
20
4.70635983036377
30
0
41
1
10
5.77220474661559
20
4.61533510109754
30
0
41
1
10
6.09626731549591
20
4.4354987012286
30
0
41
1
10
6.25992823090525
20
4.34668781658439
30
0
41
1
10
6.58985676196761
20
4.17072874761189
30
0
41
1
10
6.75612524356382
20
4.08358058281431
30
0
41
1
10
7.09074411575057
20
3.91046289663794
30
0
41
1
10
7.25909473669213
20
3.82449289727069
30
0
41
1
10
7.51287024768493
20
3.69611441069293
30
0
41
1
10
7.59767118601459
20
3.65341829671465
30
0
41
1
10
7.76764940129135
20
3.56817689326024
30
0
41
1
10
7.85285101458644
20
3.52561950090168
30
0
41
1
10
8.10870204233962
20
3.39825175758679
30
0
41
1
10
8.27964142098801
20
3.31371706159698
30
0
41
1
10
8.62212221343125
20
3.14517674362159
30
0
41
1
10
8.79366338823198
20
3.06117040863742
30
0
41
1
10
9.1373011061799
20
2.8936267832984
30
0
41
1
10
9.30939750676282
20
2.81008896877077
30
0
41
1
10
9.65420095933212
20
2.64360825284831
30
0
41
1
10
9.82690805239864
20
2.56066518363008
30
0
41
1
10
10
20
2.47818094272347
30
0
0
SPLINE
5
D7
100
AcDbEntity
8
1
62
256
6
ByLayer
370
18
48
1
60
0
100
AcDbSpline
70
4
71
3
72
23
73
19
40
0
40
0
40
0
40
0
40
0.232937314066567
40
0.232937314066567
40
0.465874628133134
40
0.465874628133134
40
0.582343285166419
40
0.582343285166419
40
0.698811942199704
40
0.698811942199704
40
0.81528059923299
40
0.81528059923299
40
0.844397763491313
40
0.844397763491313
40
0.873514927749636
40
0.931749256266283
40
0.931749256266283
40
1
40
1
40
1
40
1
41
1
10
10
20
-6.55663484894603
30
0
41
1
10
9.61905282339211
20
-6.60952130917283
30
0
41
1
10
9.24155266860234
20
-6.66474992795881
30
0
41
1
10
8.4937371988496
20
-6.77888515187988
30
0
41
1
10
8.12341564730434
20
-6.83780031814328
30
0
41
1
10
7.5735796247057
20
-6.92705058249553
30
0
41
1
10
7.39124302338513
20
-6.95693463662028
30
0
41
1
10
7.02852223859421
20
-7.0164749095247
30
0
41
1
10
6.84813758343563
20
-7.0461328786964
30
0
41
1
10
6.48941789973125
20
-7.10456197967966
30
0
41
1
10
6.31108207978653
20
-7.13333634370792
30
0
41
1
10
6.08953391623882
20
-7.16819028353149
30
0
41
1
10
6.04533917091675
20
-7.1750972799442
30
0
41
1
10
5.95739095417781
20
-7.18873518947666
30
0
41
1
10
5.82603880428013
20
-7.2089420933907
30
0
41
1
10
5.69642433160658
20
-7.22832438165364
30
0
41
1
10
5.51048625430607
20
-7.2554293493539
30
0
41
1
10
5.4112540277568
20
-7.26945303620005
30
0
41
1
10
5.31319166609089
20
-7.28272126940982
30
0
0
SPLINE
5
D8
100
AcDbEntity
8
SK1
62
256
6
ByLayer
370
18
48
1
60
0
100
AcDbSpline
70
4
71
3
72
31
73
27
40
0
40
0
40
0
40
0
40
0.125000000000001
40
0.125000000000001
40
0.250000000000003
40
0.250000000000003
40
0.375000000000004
40
0.375000000000004
40
0.500000000000005
40
0.500000000000005
40
0.562500000000006
40
0.562500000000006
40
0.625000000000007
40
0.687500000000007
40
0.687500000000007
40
0.718750000000008
40
0.718750000000008
40
0.750000000000008
40
0.750000000000008
40
0.875000000000003
40
0.875000000000003
40
0.937500000000001
40
0.937500000000001
40
0.96875
40
0.96875
40
1
40
1
40
1
40
1
41
1
10
-41.322846649578
20
-3.33034885603652
30
0
41
1
10
-41.2982183123488
20
-3.38803258877206
30
0
41
1
10
-41.2717267680571
20
-3.44436940557552
30
0
41
1
10
-41.2144104214619
20
-3.55410223850021
30
0
41
1
10
-41.1835888583784
20
-3.60749982049498
30
0
41
1
10
-41.1168132306847
20
-3.71101722712197
30
0
41
1
10
-41.0808655609651
20
-3.76114016706765
30
0
41
1
10
-41.0027064087883
20
-3.85761356828161
30
0
41
1
10
-40.9605092263354
20
-3.90397104557275
30
0
41
1
10
-40.8912034928284
20
-3.97008360471079
30
0
41
1
10
-40.8672955191393
20
-3.99134752800094
30
0
41
1
10
-40.8179396702518
20
-4.03204511820687
30
0
41
1
10
-40.7669822244289
20
-4.07097190163014
30
0
41
1
10
-40.7125214515213
20
-4.10609739987999
30
0
41
1
10
-40.670214663531
20
-4.13088316998613
30
0
41
1
10
-40.655868463324
20
-4.13888495820467
30
0
41
1
10
-40.6266576666279
20
-4.15434007152678
30
0
41
1
10
-40.6118286726114
20
-4.16177231338193
30
0
41
1
10
-40.5371050103957
20
-4.19714033207811
30
0
41
1
10
-40.4749740708276
20
-4.22001118907693
30
0
41
1
10
-40.3778268407505
20
-4.24538536593542
30
0
41
1
10
-40.3447830766741
20
-4.25234770684881
30
0
41
1
10
-40.2941359057272
20
-4.26035999417425
30
0
41
1
10
-40.2770624559109
20
-4.2626233218524
30
0
41
1
10
-40.2428795071774
20
-4.26626974627274
30
0
41
1
10
-40.22572940542
20
-4.26766016692457
30
0
41
1
10
-40.2085199217114
20
-4.26861273885882
30
0
0
SPLINE
5
D9
100
AcDbEntity
8
SK1
62
256
6
ByLayer
370
18
48
1
60
0
100
AcDbSpline
70
4
71
3
72
28
73
24
40
0
40
0
40
0
40
0
40
0.125000000000001
40
0.125000000000001
40
0.187500000000002
40
0.187500000000002
40
0.250000000000004
40
0.250000000000004
40
0.375000000000006
40
0.375000000000006
40
0.437500000000007
40
0.437500000000007
40
0.500000000000008
40
0.500000000000008
40
0.625000000000008
40
0.625000000000008
40
0.687500000000007
40
0.687500000000007
40
0.750000000000006
40
0.750000000000006
40
0.875000000000003
40
0.875000000000003
40
1
40
1
40
1
40
1
41
1
10
-40.2085199217113
20
4.26861273885839
30
0
41
1
10
-40.2770078954797
20
4.26482182201573
30
0
41
1
10
-40.3435159701705
20
4.25421034005254
30
0
41
1
10
-40.4406186748427
20
4.22904991330012
30
0
41
1
10
-40.4725401749683
20
4.21911183367274
30
0
41
1
10
-40.5355147747093
20
4.19619029939315
30
0
41
1
10
-40.566119882014
20
4.18336793011164
30
0
41
1
10
-40.6552476470727
20
4.1412976123425
30
0
41
1
10
-40.7112423032074
20
4.10841569067671
30
0
41
1
10
-40.7908488886551
20
4.05271054233145
30
0
41
1
10
-40.8163780326975
20
4.03326066129196
30
0
41
1
10
-40.8655003190458
20
3.99289517941517
30
0
41
1
10
-40.8891220708721
20
3.97195852720529
30
0
41
1
10
-40.9574656057434
20
3.90707900711414
30
0
41
1
10
-40.9996786915666
20
3.86107582099058
30
0
41
1
10
-41.0588219892095
20
3.78847288665983
30
0
41
1
10
-41.0778365663648
20
3.76366951078927
30
0
41
1
10
-41.1145716668491
20
3.71292056409152
30
0
41
1
10
-41.1321793223817
20
3.68713127494576
30
0
41
1
10
-41.1829286385602
20
3.60864716973444
30
0
41
1
10
-41.2140187173667
20
3.55482217194611
30
0
41
1
10
-41.2716651020537
20
3.44451721966016
30
0
41
1
10
-41.2982170704349
20
3.38803549754442
30
0
41
1
10
-41.322846649578
20
3.33034885603652
30
0
0
SPLINE
5
DA
100
AcDbEntity
8
SK1
62
256
6
ByLayer
370
18
48
1
60
0
100
AcDbSpline
70
4
71
3
72
28
73
24
40
0
40
0
40
0
40
0
40
0.250000000000005
40
0.250000000000005
40
0.312500000000006
40
0.312500000000006
40
0.375000000000007
40
0.375000000000007
40
0.5
40
0.5
40
0.624999999999992
40
0.624999999999992
40
0.65624999999999
40
0.65624999999999
40
0.687499999999989
40
0.687499999999989
40
0.749999999999985
40
0.749999999999985
40
0.874999999999993
40
0.874999999999993
40
0.937499999999996
40
0.937499999999996
40
1
40
1
40
1
40
1
41
1
10
-13.8090444171455
20
4.91381127456395
30
0
41
1
10
-13.8730250304025
20
4.99046340860016
30
0
41
1
10
-13.9444892601168
20
5.06075108627354
30
0
41
1
10
-14.0453442110783
20
5.13975030164355
30
0
41
1
10
-14.0660970839937
20
5.15510348386371
30
0
41
1
10
-14.108849096648
20
5.18487572838717
30
0
41
1
10
-14.1308767716723
20
5.19931243837365
30
0
41
1
10
-14.1987969608565
20
5.24103142381006
30
0
41
1
10
-14.2458698834865
20
5.2663349057469
30
0
41
1
10
-14.3438356225248
20
5.3117780788902
30
0
41
1
10
-14.3947259977568
20
5.33192086270162
30
0
41
1
10
-14.4609718435402
20
5.35364247707062
30
0
41
1
10
-14.4743531694453
20
5.35781325453198
30
0
41
1
10
-14.5013886431665
20
5.36579875975136
30
0
41
1
10
-14.5150720561229
20
5.36962082906823
30
0
41
1
10
-14.5562656757263
20
5.38046558406404
30
0
41
1
10
-14.5839366053628
20
5.38687714356516
30
0
41
1
10
-14.6675758493674
20
5.40367498823224
30
0
41
1
10
-14.7241681343673
20
5.41163572791979
30
0
41
1
10
-14.8103509838265
20
5.4186001914598
30
0
41
1
10
-14.839294928931
20
5.42008953290443
30
0
41
1
10
-14.8976311188396
20
5.42134736085288
30
0
41
1
10
-14.9268902583505
20
5.42110969918963
30
0
41
1
10
-14.9560809879695
20
5.42000303685279
30
0
0
SPLINE
5
DB
100
AcDbEntity
8
SK1
62
256
6
ByLayer
370
18
48
1
60
0
100
AcDbSpline
70
4
71
3
72
29
73
25
40
0
40
0
40
0
40
0
40
0.125000000000023
40
0.125000000000023
40
0.250000000000046
40
0.250000000000046
40
0.312500000000058
40
0.312500000000058
40
0.375000000000069
40
0.375000000000069
40
0.500000000000078
40
0.500000000000078
40
0.562500000000082
40
0.562500000000082
40
0.593750000000078
40
0.593750000000078
40
0.625000000000073
40
0.750000000000046
40
0.750000000000046
40
0.875000000000019
40
0.875000000000019
40
0.937500000000009
40
0.937500000000009
40
1
40
1
40
1
40
1
41
1
10
-14.9560809879695
20
-5.42000303685276
30
0
41
1
10
-14.8976517734494
20
-5.42221817199751
30
0
41
1
10
-14.8398504554356
20
-5.42094359808488
30
0
41
1
10
-14.7254362798095
20
-5.41177794727187
30
0
41
1
10
-14.6688237697278
20
-5.40388482792244
30
0
41
1
10
-14.5847891358201
20
-5.38706822462967
30
0
41
1
10
-14.5568094402394
20
-5.38059638684285
30
0
41
1
10
-14.5019506989544
20
-5.36617855475819
30
0
41
1
10
-14.4750261228712
20
-5.35823183005425
30
0
41
1
10
-14.395685497739
20
-5.33227249172961
30
0
41
1
10
-14.3446977675387
20
-5.31214836042813
30
0
41
1
10
-14.2708592175646
20
-5.27794120061839
30
0
41
1
10
-14.2466881934933
20
-5.26586656540695
30
0
41
1
10
-14.2110774186189
20
-5.24675579357759
30
0
41
1
10
-14.1993109081088
20
-5.24021577958535
30
0
41
1
10
-14.1761490644524
20
-5.22689762154866
30
0
41
1
10
-14.1190707984856
20
-5.19295097150575
30
0
41
1
10
-14.0659423088902
20
-5.15585567198329
30
0
41
1
10
-13.9853722790436
20
-5.09280324282167
30
0
41
1
10
-13.9473081932622
20
-5.05942484453377
30
0
41
1
10
-13.8932201680201
20
-5.0067258138026
30
0
41
1
10
-13.8756933478446
20
-4.98872006168716
30
0
41
1
10
-13.8416025059636
20
-4.95184585609991
30
0
41
1
10
-13.8250535884703
20
-4.9329911023857
30
0
41
1
10
-13.8090444171455
20
-4.91381127456395
30
0
0
SPLINE
5
DC
100
AcDbEntity
8
1
62
256
6
ByLayer
370
13
48
1
60
0
100
AcDbSpline
70
4
71
3
72
77
73
73
40
0
40
0
40
0
40
0
40
0.0312500000000009
40
0.0312500000000009
40
0.0625000000000017
40
0.0625000000000017
40
0.0937500000000026
40
0.0937500000000026
40
0.125000000000003
40
0.125000000000003
40
0.156250000000004
40
0.156250000000004
40
0.187500000000005
40
0.187500000000005
40
0.218750000000006
40
0.218750000000006
40
0.250000000000007
40
0.250000000000007
40
0.257812500000007
40
0.257812500000007
40
0.265625000000007
40
0.265625000000007
40
0.281250000000007
40
0.281250000000007
40
0.312500000000006
40
0.312500000000006
40
0.343750000000006
40
0.343750000000006
40
0.375000000000006
40
0.375000000000006
40
0.406250000000005
40
0.406250000000005
40
0.437500000000005
40
0.437500000000005
40
0.468750000000005
40
0.468750000000005
40
0.500000000000005
40
0.500000000000005
40
0.531250000000004
40
0.531250000000004
40
0.562500000000004
40
0.562500000000004
40
0.593750000000004
40
0.593750000000004
40
0.625000000000004
40
0.625000000000004
40
0.632812500000003
40
0.632812500000003
40
0.640625000000003
40
0.656250000000003
40
0.656250000000003
40
0.687500000000002
40
0.687500000000002
40
0.718750000000002
40
0.718750000000002
40
0.750000000000002
40
0.750000000000002
40
0.781250000000002
40
0.781250000000002
40
0.812500000000001
40
0.812500000000001
40
0.843750000000001
40
0.843750000000001
40
0.875000000000001
40
0.875000000000001
40
0.906250000000001
40
0.906250000000001
40
0.9375
40
0.9375
40
0.96875
40
0.96875
40
1
40
1
40
1
40
1
41
1
10
133.2
20
-2.96172577897025
30
0
41
1
10
133.254760310903
20
-3.24972669317828
30
0
41
1
10
133.309520621805
20
-3.53201554678381
30
0
41
1
10
133.419041243611
20
-4.0761054070239
30
0
41
1
10
133.473801554514
20
-4.33787624345396
30
0
41
1
10
133.583322176319
20
-4.83248111382918
30
0
41
1
10
133.638082487222
20
-5.06528871828215
30
0
41
1
10
133.747603109027
20
-5.49506163438028
30
0
41
1
10
133.80236341993
20
-5.69200975087725
30
0
41
1
10
133.911884041735
20
-6.04537584172897
30
0
41
1
10
133.966644352638
20
-6.20178892812999
30
0
41
1
10
134.076164974443
20
-6.47195494335654
30
0
41
1
10
134.130925285346
20
-6.58571504442264
30
0
41
1
10
134.240445907151
20
-6.77096452359501
30
0
41
1
10
134.295206218054
20
-6.84247003217655
30
0
41
1
10
134.40472683986
20
-6.94575550607362
30
0
41
1
10
134.459487150762
20
-6.9775560371944
30
0
41
1
10
134.527937539391
20
-6.99506096204758
30
0
41
1
10
134.541627617116
20
-6.99745264636553
30
0
41
1
10
134.569007772568
20
-7.00009199821278
30
0
41
1
10
134.582697850293
20
-7.00034660716113
30
0
41
1
10
134.623768083471
20
-6.99795688475916
30
0
41
1
10
134.651148238922
20
-6.99211151561823
30
0
41
1
10
134.733288705276
20
-6.96093492765343
30
0
41
1
10
134.788049016178
20
-6.92191795474167
30
0
41
1
10
134.897569637984
20
-6.80357781902663
30
0
41
1
10
134.952329948887
20
-6.72423456994181
30
0
41
1
10
135.061850570692
20
-6.52305366242859
30
0
41
1
10
135.116610881595
20
-6.40120123777138
30
0
41
1
10
135.2261315034
20
-6.11504927485336
30
0
41
1
10
135.280891814303
20
-5.95074467360567
30
0
41
1
10
135.390412436108
20
-5.58228475176443
30
0
41
1
10
135.445172747011
20
-5.37813672525854
30
0
41
1
10
135.554693368816
20
-4.93510979720787
30
0
41
1
10
135.609453679719
20
-4.69625016263981
30
0
41
1
10
135.718974301525
20
-4.1910400738472
30
0
41
1
10
135.773734612427
20
-3.92471722108789
30
0
41
1
10
135.883255234233
20
-3.37322097583777
30
0
41
1
10
135.938015545135
20
-3.08807776424206
30
0
41
1
10
136.047536166941
20
-2.50809106116407
30
0
41
1
10
136.102296477844
20
-2.21327442885465
30
0
41
1
10
136.211817099649
20
-1.62272343071476
30
0
41
1
10
136.266577410552
20
-1.32700837769312
30
0
41
1
10
136.376098032357
20
-0.742368558852291
30
0
41
1
10
136.43085834326
20
-0.453453900046839
30
0
41
1
10
136.499308731888
20
-0.100422129546416
30
0
41
1
10
136.512998809614
20
-0.0304522276961166
30
0
41
1
10
136.540378965065
20
0.109729409335785
30
0
41
1
10
136.581449198242
20
0.321280906377439
30
0
41
1
10
136.622519431419
20
0.536309154949976
30
0
41
1
10
136.704659897773
20
0.969893378661737
30
0
41
1
10
136.759420208676
20
1.26369912458429
30
0
41
1
10
136.868940830481
20
1.8537118453595
30
0
41
1
10
136.923701141384
20
2.14990318977533
30
0
41
1
10
137.03322176319
20
2.73628590658495
30
0
41
1
10
137.087982074093
20
3.02645310915918
30
0
41
1
10
137.197502695898
20
3.59169795147315
30
0
41
1
10
137.2522630068
20
3.86674610768853
30
0
41
1
10
137.361783628606
20
4.39279480958871
30
0
41
1
10
137.416543939509
20
4.64376595789244
30
0
41
1
10
137.526064561314
20
5.11373991209882
30
0
41
1
10
137.580824872217
20
5.33271947336513
30
0
41
1
10
137.690345494022
20
5.73263971034379
30
0
41
1
10
137.745105804925
20
5.91356799485447
30
0
41
1
10
137.85462642673
20
6.23371587195712
30
0
41
1
10
137.909386737633
20
6.37293568402748
30
0
41
1
10
138.018907359438
20
6.60858371973464
30
0
41
1
10
138.073667670341
20
6.70502324157044
30
0
41
1
10
138.183188292147
20
6.85643314194354
30
0
41
1
10
138.237948603049
20
6.91142201819983
30
0
41
1
10
138.347469224855
20
6.98319491243058
30
0
41
1
10
138.402229535757
20
7
30
0
41
1
10
138.45698984666
20
7
30
0
0
SPLINE
5
DD
100
AcDbEntity
8
1
62
256
6
ByLayer
370
13
48
1
60
0
100
AcDbSpline
70
4
71
3
72
78
73
74
40
0
40
0
40
0
40
0
40
0.0312500000000021
40
0.0312500000000021
40
0.0625000000000042
40
0.0625000000000042
40
0.0937500000000064
40
0.0937500000000064
40
0.125000000000008
40
0.125000000000008
40
0.156250000000011
40
0.156250000000011
40
0.171875000000012
40
0.171875000000012
40
0.179687500000012
40
0.179687500000012
40
0.187500000000012
40
0.187500000000012
40
0.218750000000012
40
0.218750000000012
40
0.250000000000011
40
0.250000000000011
40
0.281250000000011
40
0.281250000000011
40
0.31250000000001
40
0.31250000000001
40
0.34375000000001
40
0.34375000000001
40
0.375000000000009
40
0.375000000000009
40
0.406250000000009
40
0.406250000000009
40
0.437500000000009
40
0.437500000000009
40
0.468750000000008
40
0.468750000000008
40
0.500000000000008
40
0.500000000000008
40
0.531250000000007
40
0.531250000000007
40
0.562500000000007
40
0.562500000000007
40
0.578125000000007
40
0.578125000000007
40
0.585937500000006
40
0.585937500000006
40
0.593750000000006
40
0.593750000000006
40
0.625000000000005
40
0.625000000000005
40
0.656250000000005
40
0.656250000000005
40
0.687500000000004
40
0.687500000000004
40
0.718750000000004
40
0.718750000000004
40
0.750000000000004
40
0.750000000000004
40
0.781250000000003
40
0.781250000000003
40
0.812500000000003
40
0.812500000000003
40
0.843750000000002
40
0.843750000000002
40
0.875000000000002
40
0.875000000000002
40
0.906250000000001
40
0.906250000000001
40
0.937500000000001
40
0.937500000000001
40
0.968750000000001
40
0.968750000000001
40
1
40
1
40
1
40
1
41
1
10
133.2
20
-5.3044322183309
30
0
41
1
10
133.249561938192
20
-5.4976970180721
30
0
41
1
10
133.299123876384
20
-5.67619283398142
30
0
41
1
10
133.398247752768
20
-6.00017783907478
30
0
41
1
10
133.44780969096
20
-6.14566361752816
30
0
41
1
10
133.546933567345
20
-6.40184992864857
30
0
41
1
10
133.596495505537
20
-6.51255380472628
30
0
41
1
10
133.695619381921
20
-6.6991075585608
30
0
41
1
10
133.745181320113
20
-6.77496615155417
30
0
41
1
10
133.844305196497
20
-6.8932831358633
30
0
41
1
10
133.89386713469
20
-6.93575344098579
30
0
41
1
10
133.968210041978
20
-6.97640226843356
30
0
41
1
10
133.992991011074
20
-6.9861173387778
30
0
41
1
10
134.030162464718
20
-6.99524698386199
30
0
41
1
10
134.042552949266
20
-6.99738340241777
30
0
41
1
10
134.067333918362
20
-6.99989798286026
30
0
41
1
10
134.07972440291
20
-7.00027935472892
30
0
41
1
10
134.14167682565
20
-6.99789613066264
30
0
41
1
10
134.191238763842
20
-6.98210168340646
30
0
41
1
10
134.290362640226
20
-6.91937106404805
30
0
41
1
10
134.339924578419
20
-6.87242206882203
30
0
41
1
10
134.439048454803
20
-6.74486634921337
30
0
41
1
10
134.488610392995
20
-6.6642480126674
30
0
41
1
10
134.587734269379
20
-6.46808645583539
30
0
41
1
10
134.637296207571
20
-6.35253514385704
30
0
41
1
10
134.736420083955
20
-6.08679400525813
30
0
41
1
10
134.785982022148
20
-5.93660171207821
30
0
41
1
10
134.885105898532
20
-5.603584533266
30
0
41
1
10
134.934667836724
20
-5.42076402906804
30
0
41
1
10
135.033791713108
20
-5.02619076078312
30
0
41
1
10
135.0833536513
20
-4.81444904892282
30
0
41
1
10
135.182477527684
20
-4.3671944038247
30
0
41
1
10
135.232039465877
20
-4.1316975198815
30
0
41
1
10
135.331163342261
20
-3.64313990199997
30
0
41
1
10
135.380725280453
20
-3.39009746398011
30
0
41
1
10
135.479849156837
20
-2.87317585938865
30
0
41
1
10
135.529411095029
20
-2.60931418997896
30
0
41
1
10
135.628534971414
20
-2.07745237488828
30
0
41
1
10
135.678096909606
20
-1.80946640462395
30
0
41
1
10
135.77722078599
20
-1.2755412734775
30
0
41
1
10
135.826782724182
20
-1.00961150479813
30
0
41
1
10
135.90112563147
20
-0.616237634507826
30
0
41
1
10
135.925906600566
20
-0.486025482016373
30
0
41
1
10
135.96307805421
20
-0.292498598210273
30
0
41
1
10
135.975468538758
20
-0.228287656701553
30
0
41
1
10
136.000249507854
20
-0.100525707965659
30
0
41
1
10
136.012639992402
20
-0.0371304843289124
30
0
41
1
10
136.074592415142
20
0.279808617509502
30
0
41
1
10
136.124154353335
20
0.539031002725295
30
0
41
1
10
136.223278229719
20
1.06451210105172
30
0
41
1
10
136.272840167911
20
1.33076614890456
30
0
41
1
10
136.371964044295
20
1.86493792068308
30
0
41
1
10
136.421525982487
20
2.13284590003519
30
0
41
1
10
136.520649858871
20
2.66410106089842
30
0
41
1
10
136.570211797064
20
2.92743377668299
30
0
41
1
10
136.669335673448
20
3.44282779565521
30
0
41
1
10
136.71889761164
20
3.69487145548266
30
0
41
1
10
136.818021488024
20
4.18097943916459
30
0
41
1
10
136.867583426216
20
4.41502552292133
30
0
41
1
10
136.9667073026
20
4.85898223873735
30
0
41
1
10
137.016269240793
20
5.06887708683104
30
0
41
1
10
137.115393117177
20
5.4594493497747
30
0
41
1
10
137.164955055369
20
5.64011613542988
30
0
41
1
10
137.264078931753
20
5.96863037171997
30
0
41
1
10
137.313640869945
20
6.11647392613119
30
0
41
1
10
137.412764746329
20
6.37744255293069
30
0
41
1
10
137.462326684522
20
6.49057053353079
30
0
41
1
10
137.561450560906
20
6.68192525791036
30
0
41
1
10
137.611012499098
20
6.76016041040521
30
0
41
1
10
137.710136375482
20
6.88308719137035
30
0
41
1
10
137.759698313674
20
6.92779058842888
30
0
41
1
10
137.858822190058
20
6.98624057863233
30
0
41
1
10
137.908384128251
20
7
30
0
41
1
10
137.957946066443
20
7
30
0
0
SPLINE
5
DE
100
AcDbEntity
8
1
62
256
6
ByLayer
370
13
48
1
60
0
100
AcDbSpline
70
4
71
3
72
10
73
6
40
0
40
0
40
0
40
0
40
0.5
40
0.5
40
1
40
1
40
1
40
1
41
1
10
140.685657090871
20
7
30
0
41
1
10
140.730082302416
20
7
30
0
41
1
10
140.77450751396
20
6.98894939870527
30
0
41
1
10
140.863357937048
20
6.94226400475728
30
0
41
1
10
140.907783148592
20
6.9066217846374
30
0
41
1
10
140.952208360137
20
6.85769976026668
30
0
0
SPLINE
5
DF
100
AcDbEntity
8
1
62
256
6
ByLayer
370
13
48
1
60
0
100
AcDbSpline
70
4
71
3
72
78
73
74
40
0
40
0
40
0
40
0
40
0.0312500000000001
40
0.0312500000000001
40
0.0625000000000001
40
0.0625000000000001
40
0.0781250000000005
40
0.0781250000000005
40
0.0859375000000007
40
0.0859375000000007
40
0.0937500000000009
40
0.0937500000000009
40
0.125000000000001
40
0.125000000000001
40
0.156250000000001
40
0.156250000000001
40
0.187500000000001
40
0.187500000000001
40
0.218750000000001
40
0.218750000000001
40
0.250000000000001
40
0.250000000000001
40
0.281250000000001
40
0.281250000000001
40
0.312500000000001
40
0.312500000000001
40
0.343750000000001
40
0.343750000000001
40
0.375000000000001
40
0.375000000000001
40
0.406250000000001
40
0.406250000000001
40
0.437500000000001
40
0.437500000000001
40
0.468750000000001
40
0.468750000000001
40
0.500000000000001
40
0.500000000000001
40
0.531250000000001
40
0.531250000000001
40
0.539062500000001
40
0.539062500000001
40
0.546875000000001
40
0.546875000000001
40
0.562500000000001
40
0.562500000000001
40
0.593750000000001
40
0.593750000000001
40
0.625
40
0.625
40
0.65625
40
0.65625
40
0.6875
40
0.6875
40
0.71875
40
0.71875
40
0.75
40
0.75
40
0.78125
40
0.78125
40
0.8125
40
0.8125
40
0.84375
40
0.84375
40
0.875
40
0.875
40
0.90625
40
0.90625
40
0.9375
40
0.9375
40
0.96875
40
0.96875
40
1
40
1
40
1
40
1
41
1
10
133.2
20
-6.69895781267158
30
0
41
1
10
133.244363565482
20
-6.77142711674426
30
0
41
1
10
133.288727130963
20
-6.83009303672682
30
0
41
1
10
133.377454261926
20
-6.92113738861565
30
0
41
1
10
133.421817827408
20
-6.95352292894447
30
0
41
1
10
133.48836317563
20
-6.98391879897429
30
0
41
1
10
133.510544958371
20
-6.9910252299766
30
0
41
1
10
133.543817632482
20
-6.99737381051341
30
0
41
1
10
133.554908523852
20
-6.9987717113255
30
0
41
1
10
133.577090306593
20
-7.00017113150889
30
0
41
1
10
133.588181197963
20
-7.00017779323949
30
0
41
1
10
133.643635654815
20
-6.99674736386785
30
0
41
1
10
133.687999220296
20
-6.9828188143633
30
0
41
1
10
133.77672635126
20
-6.93017264221234
30
0
41
1
10
133.821089916741
20
-6.89144763753856
30
0
41
1
10
133.909817047704
20
-6.78731969879701
30
0
41
1
10
133.954180613186
20
-6.72190987186147
30
0
41
1
10
134.042907744149
20
-6.56328703035891
30
0
41
1
10
134.08727130963
20
-6.47006866937704
30
0
41
1
10
134.175998440593
20
-6.25565490482299
30
0
41
1
10
134.220362006075
20
-6.13445673513667
30
0
41
1
10
134.309089137038
20
-5.86498647949574
30
0
41
1
10
134.353452702519
20
-5.71671496692505
30
0
41
1
10
134.442179833482
20
-5.39511358900984
30
0
41
1
10
134.486543398964
20
-5.22178789009502
30
0
41
1
10
134.575270529927
20
-4.85313544924273
30
0
41
1
10
134.619634095408
20
-4.65781609119719
30
0
41
1
10
134.708361226371
20
-4.24910004501228
30
0
41
1
10
134.752724791853
20
-4.03571299746699
30
0
41
1
10
134.841451922816
20
-3.595392084466
30
0
41
1
10
134.885815488298
20
-3.3684687801329
30
0
41
1
10
134.97454261926
20
-2.9059042068975
30
0
41
1
10
135.018906184742
20
-2.67027301552383
30
0
41
1
10
135.107633315705
20
-2.19510489547284
30
0
41
1
10
135.151996881187
20
-1.95557638960926
30
0
41
1
10
135.24072401215
20
-1.47712750728476
30
0
41
1
10
135.285087577631
20
-1.23821316301587
30
0
41
1
10
135.373814708594
20
-0.764988876016815
30
0
41
1
10
135.418178274076
20
-0.530682334647992
30
0
41
1
10
135.473632730928
20
-0.242762337810461
30
0
41
1
10
135.484723622298
20
-0.185424778913188
30
0
41
1
10
135.506905405039
20
-0.0712876045233202
30
0
41
1
10
135.517996296409
20
-0.0146653157941614
30
0
41
1
10
135.55126897052
20
0.15570951088057
30
0
41
1
10
135.573450753261
20
0.270413377803436
30
0
41
1
10
135.639996101483
20
0.617346359891144
30
0
41
1
10
135.684359666965
20
0.852418375394194
30
0
41
1
10
135.773086797928
20
1.32671324539316
30
0
41
1
10
135.817450363409
20
1.56593237556697
30
0
41
1
10
135.906177494372
20
2.04445706154723
30
0
41
1
10
135.950541059854
20
2.28375626635793
30
0
41
1
10
136.039268190817
20
2.75788159604636
30
0
41
1
10
136.083631756298
20
2.99269904337299
30
0
41
1
10
136.172358887262
20
3.4530333476165
30
0
41
1
10
136.216722452743
20
3.67853999644112
30
0
41
1
10
136.305449583706
20
4.11544405759994
30
0
41
1
10
136.349813149187
20
4.32683094488684
30
0
41
1
10
136.438540280151
20
4.73102175894488
30
0
41
1
10
136.482903845632
20
4.92381625689862
30
0
41
1
10
136.571630976595
20
5.28698836371311
30
0
41
1
10
136.615994542076
20
5.45735894531688
30
0
41
1
10
136.70472167304
20
5.7727407568845
30
0
41
1
10
136.749085238521
20
5.91774825789719
30
0
41
1
10
136.837812369484
20
6.1805172395143
30
0
41
1
10
136.882175934966
20
6.29827858588953
30
0
41
1
10
136.970903065929
20
6.50578287087617
30
0
41
1
10
137.01526663141
20
6.59552894419821
30
0
41
1
10
137.103993762373
20
6.74729775137229
30
0
41
1
10
137.148357327855
20
6.80932608189232
30
0
41
1
10
137.237084458818
20
6.90688745831434
30
0
41
1
10
137.281448024299
20
6.94242751298569
30
0
41
1
10
137.370175155262
20
6.98898009580393
30
0
41
1
10
137.414538720744
20
7
30
0
41
1
10
137.458902286225
20
7
30
0
0
SPLINE
5
E0
100
AcDbEntity
8
1
62
256
6
ByLayer
370
13
48
1
60
0
100
AcDbSpline
70
4
71
3
72
14
73
10
40
0
40
0
40
0
40
0
40
0.25
40
0.25
40
0.5
40
0.5
40
0.75
40
0.75
40
1
40
1
40
1
40
1
41
1
10
140.186613310654
20
7
30
0
41
1
10
140.250412898111
20
7
30
0
41
1
10
140.314212485568
20
6.97716666008475
30
0
41
1
10
140.441811660481
20
6.87877769656362
30
0
41
1
10
140.505611247938
20
6.8031772574509
30
0
41
1
10
140.633210422852
20
6.59474026741276
30
0
41
1
10
140.697010010309
20
6.46186818957605
30
0
41
1
10
140.824609185223
20
6.13825516113653
30
0
41
1
10
140.88840877268
20
5.94750104483006
30
0
41
1
10
140.952208360137
20
5.72982636016403
30
0
0
SPLINE
5
E1
100
AcDbEntity
8
1
62
256
6
ByLayer
370
13
48
1
60
0
100
AcDbSpline
70
4
71
3
72
42
73
38
40
0
40
0
40
0
40
0
40
0.0625000000000012
40
0.0625000000000012
40
0.125000000000002
40
0.125000000000002
40
0.187500000000004
40
0.187500000000004
40
0.250000000000005
40
0.250000000000005
40
0.312500000000006
40
0.312500000000006
40
0.375000000000007
40
0.375000000000007
40
0.437500000000008
40
0.437500000000008
40
0.468750000000009
40
0.468750000000009
40
0.484375000000009
40
0.484375000000009
40
0.50000000000001
40
0.50000000000001
40
0.562500000000008
40
0.562500000000008
40
0.625000000000007
40
0.625000000000007
40
0.687500000000006
40
0.687500000000006
40
0.750000000000005
40
0.750000000000005
40
0.812500000000003
40
0.812500000000003
40
0.875000000000002
40
0.875000000000002
40
0.937500000000001
40
0.937500000000001
40
1
40
1
40
1
40
1
41
1
10
133.2
20
-6.97395603955869
30
0
41
1
10
133.278330385542
20
-6.93829620744401
30
0
41
1
10
133.356660771084
20
-6.86467059785588
30
0
41
1
10
133.513321542167
20
-6.63172461096104
30
0
41
1
10
133.591651927709
20
-6.47229916885598
30
0
41
1
10
133.748312698793
20
-6.06611412513578
30
0
41
1
10
133.826643084335
20
-5.81932327167249
30
0
41
1
10
133.983303855418
20
-5.24739063613694
30
0
41
1
10
134.06163424096
20
-4.92232244609463
30
0
41
1
10
134.218295012044
20
-4.21288304308501
30
0
41
1
10
134.296625397586
20
-3.8286693610562
30
0
41
1
10
134.453286168669
20
-3.02644929538238
30
0
41
1
10
134.531616554211
20
-2.60861985943348
30
0
41
1
10
134.688277325295
20
-1.76585135354043
30
0
41
1
10
134.766607710837
20
-1.34104274000558
30
0
41
1
10
134.884103289149
20
-0.715756809581478
30
0
41
1
10
134.92326848192
20
-0.509274957698011
30
0
41
1
10
134.982016271077
20
-0.204172600899369
30
0
41
1
10
135.001598867462
20
-0.103238557404609
30
0
41
1
10
135.040764060233
20
0.0968534922214133
30
0
41
1
10
135.060346656618
20
0.197714990332287
30
0
41
1
10
135.158259638546
20
0.706055742893511
30
0
41
1
10
135.236590024088
20
1.1252973427741
30
0
41
1
10
135.393250795171
20
1.96917845548907
30
0
41
1
10
135.471581180713
20
2.39372524795175
30
0
41
1
10
135.628241951797
20
3.22302116565172
30
0
41
1
10
135.706572337339
20
3.6276103193978
30
0
41
1
10
135.863233108422
20
4.39023894191396
30
0
41
1
10
135.941563493964
20
4.74810176514339
30
0
41
1
10
136.098224265048
20
5.3942514556027
30
0
41
1
10
136.17655465059
20
5.68241623379183
30
0
41
1
10
136.333215421673
20
6.17462323123831
30
0
41
1
10
136.411545807215
20
6.37864469032223
30
0
41
1
10
136.568206578299
20
6.69877634247976
30
0
41
1
10
136.646536963841
20
6.81496054203944
30
0
41
1
10
136.803197734924
20
6.96551161597992
30
0
41
1
10
136.881528120466
20
7
30
0
41
1
10
136.959858506008
20
7
30
0
0
SPLINE
5
E2
100
AcDbEntity
8
1
62
256
6
ByLayer
370
13
48
1
60
0
100
AcDbSpline
70
4
71
3
72
22
73
18
40
0
40
0
40
0
40
0
40
0.125
40
0.125
40
0.25
40
0.25
40
0.375
40
0.375
40
0.5
40
0.5
40
0.625
40
0.625
40
0.75
40
0.75
40
0.875
40
0.875
40
1
40
1
40
1
40
1
41
1
10
139.687569530436
20
7
30
0
41
1
10
139.740262815007
20
7
30
0
41
1
10
139.792956099578
20
6.98444268776146
30
0
41
1
10
139.89834266872
20
6.91813930520402
30
0
41
1
10
139.951035953291
20
6.86737583119265
30
0
41
1
10
140.056422522432
20
6.72766703278344
30
0
41
1
10
140.109115807003
20
6.63870614183577
30
0
41
1
10
140.214502376145
20
6.42123006378745
30
0
41
1
10
140.267195660716
20
6.29270468658828
30
0
41
1
10
140.372582229857
20
5.99674809341707
30
0
41
1
10
140.425275514428
20
5.82931516859526
30
0
41
1
10
140.53066208357
20
5.45840238144226
30
0
41
1
10
140.583355368141
20
5.25493080687221
30
0
41
1
10
140.688741937282
20
4.81691520314175
30
0
41
1
10
140.741435221853
20
4.58238860260553
30
0
41
1
10
140.846821790995
20
4.08896147413861
30
0
41
1
10
140.899515075566
20
3.83008434547836
30
0
41
1
10
140.952208360137
20
3.56291821018311
30
0
0
SPLINE
5
E3
100
AcDbEntity
8
1
62
256
6
ByLayer
370
13
48
1
60
0
100
AcDbSpline
70
4
71
3
72
40
73
36
40
0
40
0
40
0
40
0
40
0.062499999999999
40
0.062499999999999
40
0.124999999999998
40
0.124999999999998
40
0.187499999999997
40
0.187499999999997
40
0.249999999999996
40
0.249999999999996
40
0.312499999999995
40
0.312499999999995
40
0.374999999999994
40
0.374999999999994
40
0.406249999999994
40
0.406249999999994
40
0.437499999999993
40
0.437499999999993
40
0.499999999999994
40
0.499999999999994
40
0.562499999999995
40
0.562499999999995
40
0.624999999999995
40
0.624999999999995
40
0.687499999999996
40
0.687499999999996
40
0.749999999999997
40
0.749999999999997
40
0.812499999999998
40
0.812499999999998
40
0.874999999999998
40
0.874999999999998
40
0.937499999999999
40
0.937499999999999
40
1
40
1
40
1
40
1
41
1
10
133.2
20
-6.19187632404646
30
0
41
1
10
133.267933640121
20
-6.00648970760943
30
0
41
1
10
133.335867280241
20
-5.78852012752643
30
0
41
1
10
133.471734560483
20
-5.2937179977848
30
0
41
1
10
133.539668200603
20
-5.01692121656043
30
0
41
1
10
133.675535480844
20
-4.41645494189763
30
0
41
1
10
133.743469120965
20
-4.0928588869134
30
0
41
1
10
133.879336401206
20
-3.41480503757305
30
0
41
1
10
133.947270041327
20
-3.06043550879386
30
0
41
1
10
134.083137321568
20
-2.3383424646521
30
0
41
1
10
134.151070961689
20
-1.9706955485704
30
0
41
1
10
134.28693824193
20
-1.23848014999948
30
0
41
1
10
134.354871882051
20
-0.873958949603178
30
0
41
1
10
134.456772342232
20
-0.339568178455949
30
0
41
1
10
134.490739162292
20
-0.163673444902003
30
0
41
1
10
134.558672802413
20
0.183532345478653
30
0
41
1
10
134.592639622473
20
0.359806154349485
30
0
41
1
10
134.694540082654
20
0.894657710987559
30
0
41
1
10
134.762473722775
20
1.25937555260418
30
0
41
1
10
134.898341003016
20
1.99169549125159
30
0
41
1
10
134.966274643137
20
2.35924966958535
30
0
41
1
10
135.102141923378
20
3.08082677557823
30
0
41
1
10
135.170075563498
20
3.4347726739467
30
0
41
1
10
135.30594284374
20
4.11165124186624
30
0
41
1
10
135.37387648386
20
4.43449567003049
30
0
41
1
10
135.509743764102
20
5.03318421140801
30
0
41
1
10
135.577677404222
20
5.30895542500807
30
0
41
1
10
135.713544684464
20
5.80152811241703
30
0
41
1
10
135.781478324584
20
6.01829466972939
30
0
41
1
10
135.917345604825
20
6.38660048604459
30
0
41
1
10
135.985279244946
20
6.53815009053557
30
0
41
1
10
136.121146525187
20
6.77585532566806
30
0
41
1
10
136.189080165308
20
6.8620564593233
30
0
41
1
10
136.324947445549
20
6.97409831839269
30
0
41
1
10
136.39288108567
20
7
30
0
41
1
10
136.46081472579
20
7
30
0
0
SPLINE
5
E4
100
AcDbEntity
8
1
62
256
6
ByLayer
370
13
48
1
60
0
100
AcDbSpline
70
4
71
3
72
22
73
18
40
0
40
0
40
0
40
0
40
0.125
40
0.125
40
0.25
40
0.25
40
0.375
40
0.375
40
0.5
40
0.5
40
0.625
40
0.625
40
0.75
40
0.75
40
0.875
40
0.875
40
1
40
1
40
1
40
1
41
1
10
139.188525750219
20
7
30
0
41
1
10
139.262012525632
20
7
30
0
41
1
10
139.335499301046
20
6.96966740279632
30
0
41
1
10
139.482472851872
20
6.83780458294675
30
0
41
1
10
139.555959627285
20
6.73618503114665
30
0
41
1
10
139.702933178112
20
6.45601904583256
30
0
41
1
10
139.776419953525
20
6.27741214480946
30
0
41
1
10
139.923393504352
20
5.84489880643127
30
0
41
1
10
139.996880279765
20
5.59099306259029
30
0
41
1
10
140.143853830591
20
5.0178759084842
30
0
41
1
10
140.217340606004
20
4.69873696962051
30
0
41
1
10
140.364314156831
20
4.01242653468614
30
0
41
1
10
140.437800932244
20
3.6453768366265
30
0
41
1
10
140.584774483071
20
2.88476573796834
30
0
41
1
10
140.658261258484
20
2.49133107468458
30
0
41
1
10
140.80523480931
20
1.69981030729443
30
0
41
1
10
140.878721584723
20
1.30181543421699
30
0
41
1
10
140.952208360137
20
0.91088980207158
30
0
0
SPLINE
5
E5
100
AcDbEntity
8
1
62
256
6
ByLayer
370
13
48
1
60
0
100
AcDbSpline
70
4
71
3
72
42
73
38
40
0
40
0
40
0
40
0
40
0.0625000000000009
40
0.0625000000000009
40
0.125000000000002
40
0.125000000000002
40
0.187500000000003
40
0.187500000000003
40
0.250000000000004
40
0.250000000000004
40
0.281250000000003
40
0.281250000000003
40
0.296875000000003
40
0.296875000000003
40
0.312500000000003
40
0.312500000000003
40
0.375000000000003
40
0.375000000000003
40
0.437500000000003
40
0.437500000000003
40
0.500000000000003
40
0.500000000000003
40
0.562500000000003
40
0.562500000000003
40
0.625000000000002
40
0.625000000000002
40
0.687500000000002
40
0.687500000000002
40
0.750000000000001
40
0.750000000000001
40
0.812500000000001
40
0.812500000000001
40
0.875000000000001
40
0.875000000000001
40
0.9375
40
0.9375
40
1
40
1
40
1
40
1
41
1
10
133.2
20
-4.29918784923206
30
0
41
1
10
133.257536894699
20
-4.02850306836334
30
0
41
1
10
133.315073789399
20
-3.74352706743915
30
0
41
1
10
133.430147578798
20
-3.15516197183533
30
0
41
1
10
133.487684473497
20
-2.8518111100706
30
0
41
1
10
133.602758262896
20
-2.23729567486075
30
0
41
1
10
133.660295157596
20
-1.92616309018572
30
0
41
1
10
133.775368946994
20
-1.30595824513526
30
0
41
1
10
133.832905841694
20
-0.996906762948726
30
0
41
1
10
133.919211183743
20
-0.541130839608712
30
0
41
1
10
133.947979631093
20
-0.390491882973947
30
0
41
1
10
133.991132302117
20
-0.167106427649259
30
0
41
1
10
134.005516525792
20
-0.0930724536171397
30
0
41
1
10
134.034284973142
20
0.0540445338853885
30
0
41
1
10
134.048669196817
20
0.127769859975587
30
0
41
1
10
134.120590315191
20
0.499314704236241
30
0
41
1
10
134.178127209891
20
0.803613467910111
30
0
41
1
10
134.293200999289
20
1.4190659366806
30
0
41
1
10
134.350737893989
20
1.73020566440292
30
0
41
1
10
134.465811683388
20
2.35024732925089
30
0
41
1
10
134.523348578087
20
2.65912301046507
30
0
41
1
10
134.638422367486
20
3.26433058603499
30
0
41
1
10
134.695959262185
20
3.56062680883684
30
0
41
1
10
134.811033051584
20
4.13010019491517
30
0
41
1
10
134.868569946284
20
4.40323881439699
30
0
41
1
10
134.983643735683
20
4.91669421849943
30
0
41
1
10
135.041180630382
20
5.1569781071023
30
0
41
1
10
135.156254419781
20
5.59699902776671
30
0
41
1
10
135.21379131448
20
5.79671630138358
30
0
41
1
10
135.328865103879
20
6.15067305019406
30
0
41
1
10
135.386401998579
20
6.3049095555819
30
0
41
1
10
135.501475787978
20
6.56611840647804
30
0
41
1
10
135.559012682677
20
6.67310330596965
30
0
41
1
10
135.674086472076
20
6.84101401779697
30
0
41
1
10
135.731623366775
20
6.90196282334966
30
0
41
1
10
135.846697156174
20
6.98144235305091
30
0
41
1
10
135.904234050874
20
7
30
0
41
1
10
135.961770945573
20
7
30
0
0
SPLINE
5
E6
100
AcDbEntity
8
1
62
256
6
ByLayer
370
13
48
1
60
0
100
AcDbSpline
70
4
71
3
72
42
73
38
40
0
40
0
40
0
40
0
40
0.0625000000000003
40
0.0625000000000003
40
0.125000000000001
40
0.125000000000001
40
0.187500000000001
40
0.187500000000001
40
0.250000000000001
40
0.250000000000001
40
0.312500000000001
40
0.312500000000001
40
0.375000000000002
40
0.375000000000002
40
0.437500000000002
40
0.437500000000002
40
0.500000000000002
40
0.500000000000002
40
0.562500000000002
40
0.562500000000002
40
0.625000000000003
40
0.625000000000003
40
0.687500000000003
40
0.687500000000003
40
0.750000000000003
40
0.750000000000003
40
0.812500000000003
40
0.812500000000003
40
0.843750000000003
40
0.843750000000003
40
0.859375000000002
40
0.859375000000002
40
0.875000000000002
40
0.875000000000002
40
0.937500000000001
40
0.937500000000001
40
1
40
1
40
1
40
1
41
1
10
138.689481970002
20
7
30
0
41
1
10
138.736622103129
20
7
30
0
41
1
10
138.783762236257
20
6.98755488999669
30
0
41
1
10
138.878042502513
20
6.93482382280453
30
0
41
1
10
138.925182635641
20
6.89452787470859
30
0
41
1
10
139.019462901896
20
6.7838040917286
30
0
41
1
10
139.066603035024
20
6.71336693037952
30
0
41
1
10
139.16088330128
20
6.54104326759088
30
0
41
1
10
139.208023434408
20
6.43914971627041
30
0
41
1
10
139.302303700663
20
6.20382148172706
30
0
41
1
10
139.349443833791
20
6.07038358475307
30
0
41
1
10
139.443724100047
20
5.77326030126457
30
0
41
1
10
139.490864233175
20
5.60957661185705
30
0
41
1
10
139.58514449943
20
5.25466706711396
30
0
41
1
10
139.632284632558
20
5.06344803045303
30
0
41
1
10
139.726564898814
20
4.65745690279164
30
0
41
1
10
139.773705031941
20
4.44269593740452
30
0
41
1
10
139.867985298197
20
3.99462053255135
30
0
41
1
10
139.915125431325
20
3.76131983785373
30
0
41
1
10
140.00940569758
20
3.28179471789957
30
0
41
1
10
140.056545830708
20
3.03558452386295
30
0
41
1
10
140.150826096964
20
2.53607219445013
30
0
41
1
10
140.197966230092
20
2.28278274247521
30
0
41
1
10
140.292246496347
20
1.77473442651078
30
0
41
1
10
140.339386629475
20
1.51998521900029
30
0
41
1
10
140.433666895731
20
1.01409047427026
30
0
41
1
10
140.480807028858
20
0.762950871167305
30
0
41
1
10
140.55151722855
20
0.392160087811845
30
0
41
1
10
140.575087295114
20
0.269542930463615
30
0
41
1
10
140.61044239496
20
0.0874250260536087
30
0
41
1
10
140.622227428242
20
0.0271908594608021
30
0
41
1
10
140.645797494806
20
-0.0934381967170168
30
0
41
1
10
140.657582528088
20
-0.154069927139176
30
0
41
1
10
140.716507694498
20
-0.458683918349749
30
0
41
1
10
140.763647827625
20
-0.707067509984824
30
0
41
1
10
140.857928093881
20
-1.20930253539197
30
0
41
1
10
140.905068227009
20
-1.463149574531
30
0
41
1
10
140.952208360137
20
-1.71734711376413
30
0
0
SPLINE
5
E7
100
AcDbEntity
8
1
62
256
6
ByLayer
370
13
48
1
60
0
100
AcDbSpline
70
4
71
3
72
42
73
38
40
0
40
0
40
0
40
0
40
0.0624999999999978
40
0.0624999999999978
40
0.124999999999996
40
0.124999999999996
40
0.140624999999995
40
0.140624999999995
40
0.156249999999994
40
0.156249999999994
40
0.187499999999994
40
0.187499999999994
40
0.249999999999994
40
0.249999999999994
40
0.312499999999994
40
0.312499999999994
40
0.374999999999995
40
0.374999999999995
40
0.437499999999995
40
0.437499999999995
40
0.499999999999996
40
0.499999999999996
40
0.562499999999996
40
0.562499999999996
40
0.624999999999997
40
0.624999999999997
40
0.687499999999997
40
0.687499999999997
40
0.749999999999998
40
0.749999999999998
40
0.812499999999998
40
0.812499999999998
40
0.874999999999999
40
0.874999999999999
40
0.937499999999999
40
0.937499999999999
40
1
40
1
40
1
40
1
41
1
10
133.2
20
-1.7173512940499
30
0
41
1
10
133.247140149278
20
-1.46315366422613
30
0
41
1
10
133.294280298556
20
-1.20930652067708
30
0
41
1
10
133.388560597113
20
-0.707071267765059
30
0
41
1
10
133.435700746391
20
-0.458687553061736
30
0
41
1
10
133.494625932989
20
-0.154073401674111
30
0
41
1
10
133.506410970309
20
-0.093441638897275
30
0
41
1
10
133.529981044948
20
0.0271874825057523
30
0
41
1
10
133.541766082267
20
0.0874216470813849
30
0
41
1
10
133.577121194226
20
0.269539580506375
30
0
41
1
10
133.600691268865
20
0.392156759977809
30
0
41
1
10
133.671401492782
20
0.762947618130511
30
0
41
1
10
133.718541642061
20
1.01408728238923
30
0
41
1
10
133.812821940617
20
1.51998217129145
30
0
41
1
10
133.859962089896
20
1.77473146182382
30
0
41
1
10
133.954242388452
20
2.28277996318965
30
0
41
1
10
134.00138253773
20
2.53606951754082
30
0
41
1
10
134.095662836287
20
3.03558206671301
30
0
41
1
10
134.142802985565
20
3.28179237811929
30
0
41
1
10
134.237083284121
20
3.76131774186879
30
0
41
1
10
134.2842234334
20
3.99461856296955
30
0
41
1
10
134.378503731956
20
4.44269422267953
30
0
41
1
10
134.425643881234
20
4.65745531649247
30
0
41
1
10
134.519924179791
20
5.06344669576745
30
0
41
1
10
134.567064329069
20
5.25466585558851
30
0
41
1
10
134.661344627626
20
5.60957563469557
30
0
41
1
10
134.708484776904
20
5.77325943528521
30
0
41
1
10
134.80276507546
20
6.0703829237944
30
0
41
1
10
134.849905224739
20
6.2038209145951
30
0
41
1
10
134.944185523295
20
6.43914931590732
30
0
41
1
10
134.991325672573
20
6.54104294016929
30
0
41
1
10
135.08560597113
20
6.71336672645086
30
0
41
1
10
135.132746120408
20
6.78380393836022
30
0
41
1
10
135.227026418964
20
6.89452780046994
30
0
41
1
10
135.274166568243
20
6.93482377715026
30
0
41
1
10
135.368446866799
20
6.98755488145321
30
0
41
1
10
135.415587016077
20
7
30
0
41
1
10
135.462727165356
20
7
30
0
0
SPLINE
5
E8
100
AcDbEntity
8
1
62
256
6
ByLayer
370
13
48
1
60
0
100
AcDbSpline
70
4
71
3
72
42
73
38
40
0
40
0
40
0
40
0
40
0.0624999999999994
40
0.0624999999999994
40
0.124999999999999
40
0.124999999999999
40
0.187499999999998
40
0.187499999999998
40
0.249999999999998
40
0.249999999999998
40
0.312499999999997
40
0.312499999999997
40
0.374999999999996
40
0.374999999999996
40
0.437499999999996
40
0.437499999999996
40
0.499999999999995
40
0.499999999999995
40
0.562499999999995
40
0.562499999999995
40
0.624999999999994
40
0.624999999999994
40
0.687499999999993
40
0.687499999999993
40
0.703124999999994
40
0.703124999999994
40
0.718749999999994
40
0.718749999999994
40
0.749999999999994
40
0.749999999999994
40
0.812499999999995
40
0.812499999999995
40
0.874999999999997
40
0.874999999999997
40
0.937499999999998
40
0.937499999999998
40
1
40
1
40
1
40
1
41
1
10
138.190438189784
20
7
30
0
41
1
10
138.247975068333
20
7
30
0
41
1
10
138.305511946882
20
6.98144236350015
30
0
41
1
10
138.42058570398
20
6.9019628798294
30
0
41
1
10
138.478122582529
20
6.84101410989527
30
0
41
1
10
138.593196339627
20
6.67310349666349
30
0
41
1
10
138.650733218176
20
6.56611866017684
30
0
41
1
10
138.765806975274
20
6.30490996176792
30
0
41
1
10
138.823343853823
20
6.15067354586853
30
0
41
1
10
138.938417610921
20
5.79671699796415
30
0
41
1
10
138.99595448947
20
5.59699983574171
30
0
41
1
10
139.111028246568
20
5.15697915181536
30
0
41
1
10
139.168565125117
20
4.91669538850641
30
0
41
1
10
139.283638882215
20
4.40324023864682
30
0
41
1
10
139.341175760764
20
4.13010174805146
30
0
41
1
10
139.456249517862
20
3.56062861253921
30
0
41
1
10
139.513786396411
20
3.26433251136058
30
0
41
1
10
139.628860153509
20
2.65912516225813
30
0
41
1
10
139.686397032058
20
2.3502495858533
30
0
41
1
10
139.801470789157
20
1.73020810698406
30
0
41
1
10
139.859007667706
20
1.41906846042343
30
0
41
1
10
139.974081424803
20
0.803616126837341
30
0
41
1
10
140.031618303353
20
0.499317417201439
30
0
41
1
10
140.103539401539
20
0.127772623354843
30
0
41
1
10
140.117923621176
20
0.0540472886666521
30
0
41
1
10
140.146692060451
20
-0.0930696335336734
30
0
41
1
10
140.161076280088
20
-0.167103575223877
30
0
41
1
10
140.204228938999
20
-0.390488934724772
30
0
41
1
10
140.232997378274
20
-0.54112782907643
30
0
41
1
10
140.319302696098
20
-0.996903572698471
30
0
41
1
10
140.376839574647
20
-1.3059549445708
30
0
41
1
10
140.491913331745
20
-1.92615960125426
30
0
41
1
10
140.549450210294
20
-2.23729210795088
30
0
41
1
10
140.664523967392
20
-2.85180743228921
30
0
41
1
10
140.722060845941
20
-3.15515826124241
30
0
41
1
10
140.837134603039
20
-3.74352334617674
30
0
41
1
10
140.894671481588
20
-4.02849936930744
30
0
41
1
10
140.952208360137
20
-4.29918420217166
30
0
0
SPLINE
5
E9
100
AcDbEntity
8
1
62
256
6
ByLayer
370
13
48
1
60
0
100
AcDbSpline
70
4
71
3
72
22
73
18
40
0
40
0
40
0
40
0
40
0.125
40
0.125
40
0.25
40
0.25
40
0.375
40
0.375
40
0.5
40
0.5
40
0.625
40
0.625
40
0.75
40
0.75
40
0.875
40
0.875
40
1
40
1
40
1
40
1
41
1
10
133.2
20
0.91088567815035
30
0
41
1
10
133.273486807714
20
1.30181143370993
30
0
41
1
10
133.346973615428
20
1.69980646549348
30
0
41
1
10
133.493947230856
20
2.49132761036867
30
0
41
1
10
133.56743403857
20
2.88476249238127
30
0
41
1
10
133.714407653999
20
3.64537406437961
30
0
41
1
10
133.787894461713
20
4.01242401682157
30
0
41
1
10
133.934868077141
20
4.69873496250239
30
0
41
1
10
134.008354884855
20
5.0178741574012
30
0
41
1
10
134.155328500283
20
5.59099179073181
30
0
41
1
10
134.228815307997
20
5.84489775748798
30
0
41
1
10
134.375788923425
20
6.27741148276417
30
0
41
1
10
134.44927573114
20
6.45601854767355
30
0
41
1
10
134.596249346568
20
6.73618479042935
30
0
41
1
10
134.669736154282
20
6.83780443587514
30
0
41
1
10
134.81670976971
20
6.96966737598831
30
0
41
1
10
134.890196577424
20
7
30
0
41
1
10
134.963683385138
20
7
30
0
0
SPLINE
5
EA
100
AcDbEntity
8
1
62
256
6
ByLayer
370
13
48
1
60
0
100
AcDbSpline
70
4
71
3
72
40
73
36
40
0
40
0
40
0
40
0
40
0.0625000000000008
40
0.0625000000000008
40
0.125000000000001
40
0.125000000000001
40
0.187500000000002
40
0.187500000000002
40
0.250000000000003
40
0.250000000000003
40
0.312500000000004
40
0.312500000000004
40
0.375000000000005
40
0.375000000000005
40
0.437500000000005
40
0.437500000000005
40
0.500000000000006
40
0.500000000000006
40
0.562500000000007
40
0.562500000000007
40
0.593750000000007
40
0.593750000000007
40
0.625000000000007
40
0.625000000000007
40
0.687500000000006
40
0.687500000000006
40
0.750000000000004
40
0.750000000000004
40
0.812500000000003
40
0.812500000000003
40
0.875000000000002
40
0.875000000000002
40
0.937500000000001
40
0.937500000000001
40
1
40
1
40
1
40
1
41
1
10
137.691394409567
20
7
30
0
41
1
10
137.759328033537
20
7
30
0
41
1
10
137.827261657507
20
6.97409833076293
30
0
41
1
10
137.963128905448
20
6.862056526863
30
0
41
1
10
138.031062529418
20
6.77585543607776
30
0
41
1
10
138.166929777358
20
6.53815031919578
30
0
41
1
10
138.234863401329
20
6.38660079012664
30
0
41
1
10
138.370730649269
20
6.0182951536911
30
0
41
1
10
138.438664273239
20
5.80152870081824
30
0
41
1
10
138.57453152118
20
5.30895624184794
30
0
41
1
10
138.64246514515
20
5.03318515216321
30
0
41
1
10
138.77833239309
20
4.43449686424381
30
0
41
1
10
138.84626601706
20
4.1116525655024
30
0
41
1
10
138.982133265001
20
3.43477424687066
30
0
41
1
10
139.050066888971
20
3.08082846826073
30
0
41
1
10
139.185934136911
20
2.35925157938081
30
0
41
1
10
139.253867760882
20
1.99169749834755
30
0
41
1
10
139.389735008822
20
1.25937772392166
30
0
41
1
10
139.457668632792
20
0.89465994923259
30
0
41
1
10
139.559569068748
20
0.359808468405248
30
0
41
1
10
139.593535880733
20
0.183534680750142
30
0
41
1
10
139.661469504703
20
-0.163671075156969
30
0
41
1
10
139.695436316688
20
-0.33956569917811
30
0
41
1
10
139.797336752643
20
-0.873956285447349
30
0
41
1
10
139.865270376613
20
-1.23847737233098
30
0
41
1
10
140.001137624554
20
-1.97069258174065
30
0
41
1
10
140.069071248524
20
-2.33833942231723
30
0
41
1
10
140.204938496464
20
-3.060432371036
30
0
41
1
10
140.272872120435
20
-3.41480188005275
30
0
41
1
10
140.408739368375
20
-4.0928557576552
30
0
41
1
10
140.476672992345
20
-4.41645186076511
30
0
41
1
10
140.612540240286
20
-5.01691830202839
30
0
41
1
10
140.680473864256
20
-5.29371520172097
30
0
41
1
10
140.816341112196
20
-5.78851763008237
30
0
41
1
10
140.884274736166
20
-6.00648739020022
30
0
41
1
10
140.952208360137
20
-6.19187420851634
30
0
0
SPLINE
5
EB
100
AcDbEntity
8
1
62
256
6
ByLayer
370
13
48
1
60
0
100
AcDbSpline
70
4
71
3
72
22
73
18
40
0
40
0
40
0
40
0
40
0.125
40
0.125
40
0.25
40
0.25
40
0.375
40
0.375
40
0.5
40
0.5
40
0.625
40
0.625
40
0.75
40
0.75
40
0.875
40
0.875
40
1
40
1
40
1
40
1
41
1
10
133.2
20
3.56291427964843
30
0
41
1
10
133.252693316872
20
3.83008065974784
30
0
41
1
10
133.305386633743
20
4.08895804286976
30
0
41
1
10
133.410773267487
20
4.58238568200838
30
0
41
1
10
133.463466584359
20
4.81691253866677
30
0
41
1
10
133.568853218102
20
5.25492863829908
30
0
41
1
10
133.621546534974
20
5.45840045256651
30
0
41
1
10
133.726933168717
20
5.82931368693912
30
0
41
1
10
133.779626485589
20
5.99674681922713
30
0
41
1
10
133.885013119332
20
6.29270378372863
30
0
41
1
10
133.937706436204
20
6.42122932477352
30
0
41
1
10
134.043093069947
20
6.63870568103806
30
0
41
1
10
134.095786386819
20
6.72766668637416
30
0
41
1
10
134.201173020562
20
6.86737566375467
30
0
41
1
10
134.253866337434
20
6.91813920239201
30
0
41
1
10
134.359252971178
20
6.98444266864192
30
0
41
1
10
134.411946288049
20
7
30
0
41
1
10
134.464639604921
20
7
30
0
0
SPLINE
5
EC
100
AcDbEntity
8
1
62
256
6
ByLayer
370
13
48
1
60
0
100
AcDbSpline
70
4
71
3
72
42
73
38
40
0
40
0
40
0
40
0
40
0.0625000000000015
40
0.0625000000000015
40
0.125000000000003
40
0.125000000000003
40
0.187500000000004
40
0.187500000000004
40
0.250000000000006
40
0.250000000000006
40
0.312500000000007
40
0.312500000000007
40
0.375000000000009
40
0.375000000000009
40
0.437500000000011
40
0.437500000000011
40
0.500000000000012
40
0.500000000000012
40
0.515625000000012
40
0.515625000000012
40
0.531250000000012
40
0.531250000000012
40
0.562500000000011
40
0.562500000000011
40
0.62500000000001
40
0.62500000000001
40
0.687500000000008
40
0.687500000000008
40
0.750000000000007
40
0.750000000000007
40
0.812500000000005
40
0.812500000000005
40
0.875000000000003
40
0.875000000000003
40
0.937500000000002
40
0.937500000000002
40
1
40
1
40
1
40
1
41
1
10
137.19235062935
20
7
30
0
41
1
10
137.270680998741
20
7
30
0
41
1
10
137.349011368132
20
6.96551163029068
30
0
41
1
10
137.505672106915
20
6.81496062085211
30
0
41
1
10
137.584002476306
20
6.69877647160374
30
0
41
1
10
137.740663215089
20
6.37864495723343
30
0
41
1
10
137.818993584481
20
6.17462358566976
30
0
41
1
10
137.975654323264
20
5.68241679272498
30
0
41
1
10
138.053984692655
20
5.39425213142943
30
0
41
1
10
138.210645431438
20
4.74810268802148
30
0
41
1
10
138.288975800829
20
4.39023999475432
30
0
41
1
10
138.445636539612
20
3.62761162517899
30
0
41
1
10
138.523966909003
20
3.22302259421122
30
0
41
1
10
138.680627647786
20
2.39372689716075
30
0
41
1
10
138.758958017177
20
1.96918020246528
30
0
41
1
10
138.91561875596
20
1.12529924967967
30
0
41
1
10
138.993949125352
20
0.706057711978843
30
0
41
1
10
139.091862087091
20
0.197717013536618
30
0
41
1
10
139.111444679439
20
0.096855501681091
30
0
41
1
10
139.150609864134
20
-0.103236482552092
30
0
41
1
10
139.170192456482
20
-0.204170493761922
30
0
41
1
10
139.228940233526
20
-0.509272755451576
30
0
41
1
10
139.268105418222
20
-0.715754546249741
30
0
41
1
10
139.385600972309
20
-1.34104030479227
30
0
41
1
10
139.4639313417
20
-1.7658488189557
30
0
41
1
10
139.620592080483
20
-2.60861718106904
30
0
41
1
10
139.698922449874
20
-3.0264465728859
30
0
41
1
10
139.855583188657
20
-3.82866662520203
30
0
41
1
10
139.933913558048
20
-4.21288033822552
30
0
41
1
10
140.090574296831
20
-4.92231988506362
30
0
41
1
10
140.168904666223
20
-5.24738818796217
30
0
41
1
10
140.325565405005
20
-5.81932112084556
30
0
41
1
10
140.403895774397
20
-6.06611215859741
30
0
41
1
10
140.56055651318
20
-6.47229761794858
30
0
41
1
10
140.638886882571
20
-6.63172329108622
30
0
41
1
10
140.795547621354
20
-6.8646697563953
30
0
41
1
10
140.873877990745
20
-6.93829561311156
30
0
41
1
10
140.952208360137
20
-6.97395568663893
30
0
0
SPLINE
5
ED
100
AcDbEntity
8
1
62
256
6
ByLayer
370
13
48
1
60
0
100
AcDbSpline
70
4
71
3
72
14
73
10
40
0
40
0
40
0
40
0
40
0.25
40
0.25
40
0.5
40
0.5
40
0.75
40
0.75
40
1
40
1
40
1
40
1
41
1
10
133.2
20
5.7298237152248
30
0
41
1
10
133.263799652059
20
5.94749883677605
30
0
41
1
10
133.327599304117
20
6.13825334805861
30
0
41
1
10
133.455198608235
20
6.46186705351624
30
0
41
1
10
133.518998260293
20
6.5947394133762
30
0
41
1
10
133.64659756441
20
6.80317684514083
30
0
41
1
10
133.710397216469
20
6.87877744410275
30
0
41
1
10
133.837996520586
20
6.97716661366746
30
0
41
1
10
133.901796172645
20
7
30
0
41
1
10
133.965595824704
20
7
30
0
0
SPLINE
5
EE
100
AcDbEntity
8
1
62
256
6
ByLayer
370
13
48
1
60
0
100
AcDbSpline
70
4
71
3
72
77
73
73
40
0
40
0
40
0
40
0
40
0.0312500000000019
40
0.0312500000000019
40
0.0625000000000037
40
0.0625000000000037
40
0.0937500000000056
40
0.0937500000000056
40
0.125000000000007
40
0.125000000000007
40
0.156250000000009
40
0.156250000000009
40
0.187500000000011
40
0.187500000000011
40
0.218750000000013
40
0.218750000000013
40
0.250000000000015
40
0.250000000000015
40
0.281250000000017
40
0.281250000000017
40
0.312500000000019
40
0.312500000000019
40
0.34375000000002
40
0.34375000000002
40
0.375000000000022
40
0.375000000000022
40
0.406250000000024
40
0.406250000000024
40
0.437500000000026
40
0.437500000000026
40
0.453125000000027
40
0.453125000000027
40
0.460937500000027
40
0.460937500000027
40
0.468750000000027
40
0.468750000000027
40
0.500000000000026
40
0.500000000000026
40
0.531250000000025
40
0.531250000000025
40
0.562500000000024
40
0.562500000000024
40
0.593750000000023
40
0.593750000000023
40
0.625000000000023
40
0.625000000000023
40
0.656250000000022
40
0.656250000000022
40
0.687500000000021
40
0.687500000000021
40
0.71875000000002
40
0.71875000000002
40
0.750000000000019
40
0.750000000000019
40
0.781250000000018
40
0.781250000000018
40
0.812500000000017
40
0.812500000000017
40
0.843750000000016
40
0.843750000000016
40
0.875000000000015
40
0.875000000000015
40
0.906250000000014
40
0.906250000000014
40
0.914062500000014
40
0.914062500000014
40
0.921875000000013
40
0.93750000000001
40
0.93750000000001
40
0.968750000000005
40
0.968750000000005
40
1
40
1
40
1
40
1
41
1
10
136.693306849132
20
7
30
0
41
1
10
136.737670406538
20
7
30
0
41
1
10
136.782033963945
20
6.98898009982221
30
0
41
1
10
136.870761078757
20
6.94242753438837
30
0
41
1
10
136.915124636164
20
6.9068874930899
30
0
41
1
10
137.003851750976
20
6.80932615366766
30
0
41
1
10
137.048215308383
20
6.74729784678058
30
0
41
1
10
137.136942423195
20
6.59552909741944
30
0
41
1
10
137.181305980601
20
6.50578305828134
30
0
41
1
10
137.270033095414
20
6.2982788517325
30
0
41
1
10
137.31439665282
20
6.18051754961189
30
0
41
1
10
137.403123767633
20
5.91774866525196
30
0
41
1
10
137.447487325039
20
5.77274121723855
30
0
41
1
10
137.536214439852
20
5.45735951828766
30
0
41
1
10
137.580577997258
20
5.28698899629416
30
0
41
1
10
137.669305112071
20
4.92381701254143
30
0
41
1
10
137.713668669477
20
4.73102257802913
30
0
41
1
10
137.80239578429
20
4.32683189153713
30
0
41
1
10
137.846759341696
20
4.11544506836364
30
0
41
1
10
137.935486456508
20
3.67854113290252
30
0
41
1
10
137.979850013915
20
3.45303454565197
30
0
41
1
10
138.068577128727
20
2.99270035908896
30
0
41
1
10
138.112940686134
20
2.75788296786124
30
0
41
1
10
138.201667800946
20
2.28375774250932
30
0
41
1
10
138.246031358352
20
2.04445858593238
30
0
41
1
10
138.334758473165
20
1.56593398688253
30
0
41
1
10
138.379122030571
20
1.32671489540519
30
0
41
1
10
138.467849145384
20
0.852420092364213
30
0
41
1
10
138.51221270279
20
0.617348105125501
30
0
41
1
10
138.5787580389
20
0.270415157486298
30
0
41
1
10
138.600939817603
20
0.155711300727035
30
0
41
1
10
138.634212485658
20
-0.0146635126521062
30
0
41
1
10
138.645303375009
20
-0.0712857820398085
30
0
41
1
10
138.667485153712
20
-0.185422924104728
30
0
41
1
10
138.678576043064
20
-0.242760466975909
30
0
41
1
10
138.734030489822
20
-0.530680384503285
30
0
41
1
10
138.778394047228
20
-0.764986865035411
30
0
41
1
10
138.867121162041
20
-1.23821103937345
30
0
41
1
10
138.911484719447
20
-1.47712533182872
30
0
41
1
10
139.000211834259
20
-1.95557412352639
30
0
41
1
10
139.044575391666
20
-2.19510259059024
30
0
41
1
10
139.133302506478
20
-2.67027064984785
30
0
41
1
10
139.177666063885
20
-2.90590181924239
30
0
41
1
10
139.266393178697
20
-3.36846636851996
30
0
41
1
10
139.310756736104
20
-3.59538967088744
30
0
41
1
10
139.399483850916
20
-4.03571060211652
30
0
41
1
10
139.443847408323
20
-4.24909766986434
30
0
41
1
10
139.532574523135
20
-4.65781377939788
30
0
41
1
10
139.576938080541
20
-4.85313318059201
30
0
41
1
10
139.665665195354
20
-5.22178572991677
30
0
41
1
10
139.71002875276
20
-5.39511149415088
30
0
41
1
10
139.798755867573
20
-5.71671302258841
30
0
41
1
10
139.843119424979
20
-5.86498462035124
30
0
41
1
10
139.931846539792
20
-6.13445506268309
30
0
41
1
10
139.976210097198
20
-6.2556533338531
30
0
41
1
10
140.064937212011
20
-6.47006731321741
30
0
41
1
10
140.109300769417
20
-6.56328578750959
30
0
41
1
10
140.19802788423
20
-6.7219088626068
30
0
41
1
10
140.242391441636
20
-6.78731880981195
30
0
41
1
10
140.331118556449
20
-6.89144699126837
30
0
41
1
10
140.375482113855
20
-6.93017211837622
30
0
41
1
10
140.464209228667
20
-6.98281853323834
30
0
41
1
10
140.508572786074
20
-6.99674720301326
30
0
41
1
10
140.564027232831
20
-7.00017777912751
30
0
41
1
10
140.575118122183
20
-7.00017114634929
30
0
41
1
10
140.597299900886
20
-6.99877178589259
30
0
41
1
10
140.630572568941
20
-6.99457861170228
30
0
41
1
10
140.663845236996
20
-6.98391906303434
30
0
41
1
10
140.730390573105
20
-6.95352339671905
30
0
41
1
10
140.774754130511
20
-6.92113800297741
30
0
41
1
10
140.863481245324
20
-6.83009396357926
30
0
41
1
10
140.90784480273
20
-6.77142820950249
30
0
41
1
10
140.952208360137
20
-6.69895907901821
30
0
0
SPLINE
5
EF
100
AcDbEntity
8
1
62
256
6
ByLayer
370
13
48
1
60
0
100
AcDbSpline
70
4
71
3
72
10
73
6
40
0
40
0
40
0
40
0
40
0.5
40
0.5
40
1
40
1
40
1
40
1
41
1
10
133.2
20
6.85769890657505
30
0
41
1
10
133.244425340748
20
6.90662122739852
30
0
41
1
10
133.288850681495
20
6.94226366180899
30
0
41
1
10
133.377701362991
20
6.9889493343224
30
0
41
1
10
133.422126703739
20
7
30
0
41
1
10
133.466552044486
20
7
30
0
0
SPLINE
5
F0
100
AcDbEntity
8
1
62
256
6
ByLayer
370
13
48
1
60
0
100
AcDbSpline
70
4
71
3
72
76
73
72
40
0
40
0
40
0
40
0
40
0.0312500000000014
40
0.0312500000000014
40
0.0625000000000028
40
0.0625000000000028
40
0.0937500000000043
40
0.0937500000000043
40
0.125000000000006
40
0.125000000000006
40
0.156250000000007
40
0.156250000000007
40
0.187500000000008
40
0.187500000000008
40
0.21875000000001
40
0.21875000000001
40
0.250000000000011
40
0.250000000000011
40
0.281250000000013
40
0.281250000000013
40
0.312500000000014
40
0.312500000000014
40
0.343750000000016
40
0.343750000000016
40
0.375000000000017
40
0.375000000000017
40
0.406250000000019
40
0.406250000000019
40
0.414062500000019
40
0.414062500000019
40
0.421875000000019
40
0.437500000000019
40
0.437500000000019
40
0.468750000000018
40
0.468750000000018
40
0.500000000000017
40
0.500000000000017
40
0.531250000000016
40
0.531250000000016
40
0.562500000000015
40
0.562500000000015
40
0.593750000000014
40
0.593750000000014
40
0.625000000000013
40
0.625000000000013
40
0.656250000000012
40
0.656250000000012
40
0.687500000000011
40
0.687500000000011
40
0.71875000000001
40
0.71875000000001
40
0.750000000000009
40
0.750000000000009
40
0.781250000000008
40
0.781250000000008
40
0.812500000000007
40
0.812500000000007
40
0.820312500000006
40
0.820312500000006
40
0.828125000000006
40
0.843750000000005
40
0.843750000000005
40
0.875000000000004
40
0.875000000000004
40
0.906250000000003
40
0.906250000000003
40
0.937500000000002
40
0.937500000000002
40
0.968750000000001
40
0.968750000000001
40
1
40
1
40
1
40
1
41
1
10
136.194263068915
20
7
30
0
41
1
10
136.243824999032
20
7
30
0
41
1
10
136.293386929149
20
6.98624058312546
30
0
41
1
10
136.392510789382
20
6.92779061250582
30
0
41
1
10
136.442072719499
20
6.88308723054843
30
0
41
1
10
136.541196579733
20
6.76016049139926
30
0
41
1
10
136.59075850985
20
6.68192536562813
30
0
41
1
10
136.689882370084
20
6.490570706413
30
0
41
1
10
136.739444300201
20
6.37744276425823
30
0
41
1
10
136.838568160434
20
6.11647422504475
30
0
41
1
10
136.888130090551
20
5.96863071977236
30
0
41
1
10
136.987253950785
20
5.64011659025877
30
0
41
1
10
137.036815880902
20
5.45944986223233
30
0
41
1
10
137.135939741136
20
5.06887771983304
30
0
41
1
10
137.185501671253
20
4.8589829346403
30
0
41
1
10
137.284625531486
20
4.41502634604652
30
0
41
1
10
137.334187461603
20
4.18098032659378
30
0
41
1
10
137.433311321837
20
3.69487246891242
30
0
41
1
10
137.482873251954
20
3.44282887076554
30
0
41
1
10
137.581997112188
20
2.92743496887294
30
0
41
1
10
137.631559042305
20
2.66410230847606
30
0
41
1
10
137.730682902538
20
2.13284724920865
30
0
41
1
10
137.780244832655
20
1.86493931605969
30
0
41
1
10
137.879368692889
20
1.33076762563613
30
0
41
1
10
137.928930623006
20
1.06451361293631
30
0
41
1
10
138.02805448324
20
0.539032573074138
30
0
41
1
10
138.077616413357
20
0.279810211175317
30
0
41
1
10
138.139568826003
20
-0.0371288688061213
30
0
41
1
10
138.151959308532
20
-0.100524069158837
30
0
41
1
10
138.176740273591
20
-0.228285985687023
30
0
41
1
10
138.213911721178
20
-0.420917686921314
30
0
41
1
10
138.251083168766
20
-0.616235869564292
30
0
41
1
10
138.325426063941
20
-1.00960965086313
30
0
41
1
10
138.374987994058
20
-1.27553936447373
30
0
41
1
10
138.474111854292
20
-1.80946439892497
30
0
41
1
10
138.523673784409
20
-2.07745032758297
30
0
41
1
10
138.622797644642
20
-2.60931207773785
30
0
41
1
10
138.672359574759
20
-2.87317372384072
30
0
41
1
10
138.771483434993
20
-3.39009530415583
30
0
41
1
10
138.82104536511
20
-3.64313774122647
30
0
41
1
10
138.920169225344
20
-4.13169538216906
30
0
41
1
10
138.969731155461
20
-4.36719229013536
30
0
41
1
10
139.068855015695
20
-4.81444700890663
30
0
41
1
10
139.118416945812
20
-5.0261887704184
30
0
41
1
10
139.217540806045
20
-5.42076216211933
30
0
41
1
10
139.267102736162
20
-5.60358274007106
30
0
41
1
10
139.366226596396
20
-5.93660008694897
30
0
41
1
10
139.415788526513
20
-6.08679247442038
30
0
41
1
10
139.514912386747
20
-6.35253381704604
30
0
41
1
10
139.564474316864
20
-6.46808523873457
30
0
41
1
10
139.663598177097
20
-6.66424702446051
30
0
41
1
10
139.713160107214
20
-6.7448654801662
30
0
41
1
10
139.812283967448
20
-6.87242144149988
30
0
41
1
10
139.861845897565
20
-6.91937055927266
30
0
41
1
10
139.960969757799
20
-6.98210142161923
30
0
41
1
10
140.010531687916
20
-6.99789598930593
30
0
41
1
10
140.072484100562
20
-7.00027935977951
30
0
41
1
10
140.084874583091
20
-6.9998980171064
30
0
41
1
10
140.109655548149
20
-6.99738349722716
30
0
41
1
10
140.146826995737
20
-6.99097506191072
30
0
41
1
10
140.183998443325
20
-6.97640255642551
30
0
41
1
10
140.2583413385
20
-6.93575393792318
30
0
41
1
10
140.307903268617
20
-6.893283784017
30
0
41
1
10
140.407027128851
20
-6.77496712271696
30
0
41
1
10
140.456589058968
20
-6.69910870151682
30
0
41
1
10
140.555712919202
20
-6.51255530618019
30
0
41
1
10
140.605274849318
20
-6.40185161679358
30
0
41
1
10
140.704398709552
20
-6.1456656860619
30
0
41
1
10
140.753960639669
20
-6.00018010127832
30
0
41
1
10
140.853084499903
20
-5.67619548100981
30
0
41
1
10
140.90264643002
20
-5.49769985621734
30
0
41
1
10
140.952208360137
20
-5.30443524127236
30
0
0
SPLINE
5
F1
100
AcDbEntity
8
1
62
256
6
ByLayer
370
13
48
1
60
0
100
AcDbSpline
70
4
71
3
72
78
73
74
40
0
40
0
40
0
40
0
40
0.0312499999999996
40
0.0312499999999996
40
0.0624999999999993
40
0.0624999999999993
40
0.0937499999999989
40
0.0937499999999989
40
0.124999999999999
40
0.124999999999999
40
0.156249999999998
40
0.156249999999998
40
0.187499999999998
40
0.187499999999998
40
0.218749999999997
40
0.218749999999997
40
0.249999999999997
40
0.249999999999997
40
0.281249999999997
40
0.281249999999997
40
0.312499999999996
40
0.312499999999996
40
0.343749999999996
40
0.343749999999996
40
0.359374999999996
40
0.359374999999996
40
0.367187499999996
40
0.367187499999996
40
0.374999999999996
40
0.374999999999996
40
0.406249999999996
40
0.406249999999996
40
0.437499999999996
40
0.437499999999996
40
0.468749999999997
40
0.468749999999997
40
0.499999999999997
40
0.499999999999997
40
0.531249999999997
40
0.531249999999997
40
0.562499999999997
40
0.562499999999997
40
0.593749999999997
40
0.593749999999997
40
0.624999999999998
40
0.624999999999998
40
0.656249999999998
40
0.656249999999998
40
0.687499999999998
40
0.687499999999998
40
0.718749999999998
40
0.718749999999998
40
0.734374999999998
40
0.734374999999998
40
0.742187499999998
40
0.742187499999998
40
0.749999999999998
40
0.749999999999998
40
0.781249999999998
40
0.781249999999998
40
0.812499999999998
40
0.812499999999998
40
0.843749999999999
40
0.843749999999999
40
0.874999999999999
40
0.874999999999999
40
0.906249999999999
40
0.906249999999999
40
0.937499999999999
40
0.937499999999999
40
0.96875
40
0.96875
40
1
40
1
40
1
40
1
41
1
10
135.695219288697
20
7
30
0
41
1
10
135.749979591525
20
7
30
0
41
1
10
135.804739894352
20
6.98319491740006
30
0
41
1
10
135.914260500007
20
6.91142204498226
30
0
41
1
10
135.969020802835
20
6.85643318558485
30
0
41
1
10
136.07854140849
20
6.70502333189489
30
0
41
1
10
136.133301711317
20
6.60858383989552
30
0
41
1
10
136.242822316972
20
6.37293587661463
30
0
41
1
10
136.2975826198
20
6.23371610713824
30
0
41
1
10
136.407103225455
20
5.91356832619974
30
0
41
1
10
136.461863528282
20
5.73264009525209
30
0
41
1
10
136.571384133937
20
5.33271997306898
30
0
41
1
10
136.626144436765
20
5.113740473017
30
0
41
1
10
136.73566504242
20
4.64376664445709
30
0
41
1
10
136.790425345247
20
4.39279556056059
30
0
41
1
10
136.899945950902
20
3.86674698576334
30
0
41
1
10
136.95470625373
20
3.59169889221877
30
0
41
1
10
137.064226859385
20
3.02645416890238
30
0
41
1
10
137.118987162212
20
2.7362870226367
30
0
41
1
10
137.228507767867
20
2.14990440843502
30
0
41
1
10
137.283268070695
20
1.85371311031059
30
0
41
1
10
137.39278867635
20
1.263700469816
30
0
41
1
10
137.447548979177
20
0.969894757884816
30
0
41
1
10
137.529689433418
20
0.536310575305691
30
0
41
1
10
137.557069584832
20
0.392958421670215
30
0
41
1
10
137.598139811953
20
0.180248562290558
30
0
41
1
10
137.61182988766
20
0.10973086227915
30
0
41
1
10
137.639210039073
20
-0.0304507659080002
30
0
41
1
10
137.65290011478
20
-0.100420646318497
30
0
41
1
10
137.721350493315
20
-0.453452336354729
30
0
41
1
10
137.776110796142
20
-0.742366933588784
30
0
41
1
10
137.885631401797
20
-1.32700664061932
30
0
41
1
10
137.940391704624
20
-1.62272164342707
30
0
41
1
10
138.04991231028
20
-2.21327255855255
30
0
41
1
10
138.104672613107
20
-2.50808915809381
30
0
41
1
10
138.214193218762
20
-3.08807581856976
30
0
41
1
10
138.26895352159
20
-3.37321902036422
30
0
41
1
10
138.378474127244
20
-3.92471527290016
30
0
41
1
10
138.433234430072
20
-4.19103814276994
30
0
41
1
10
138.542755035727
20
-4.69624829418123
30
0
41
1
10
138.597515338554
20
-4.93510797426359
30
0
41
1
10
138.70703594421
20
-5.37813502033529
30
0
41
1
10
138.761796247037
20
-5.58228311933385
30
0
41
1
10
138.871316852692
20
-5.95074320894833
30
0
41
1
10
138.926077155519
20
-6.11504790544635
30
0
41
1
10
139.035597761174
20
-6.40120007533719
30
0
41
1
10
139.090358064002
20
-6.52305261167945
30
0
41
1
10
139.199878669657
20
-6.72423375166264
30
0
41
1
10
139.254638972484
20
-6.80357712149782
30
0
41
1
10
139.364159578139
20
-6.9219175005031
30
0
41
1
10
139.418919880967
20
-6.9609345959303
30
0
41
1
10
139.501060335208
20
-6.9921113642549
30
0
41
1
10
139.528440486622
20
-6.9979567929567
30
0
41
1
10
139.569510713742
20
-7.00034660337306
30
0
41
1
10
139.583200789449
20
-7.00009202344822
30
0
41
1
10
139.610580940863
20
-6.99745273205409
30
0
41
1
10
139.62427101657
20
-6.99506107881319
30
0
41
1
10
139.692721395104
20
-6.97755631356031
30
0
41
1
10
139.747481697932
20
-6.94575592372581
30
0
41
1
10
139.857002303587
20
-6.84247075684544
30
0
41
1
10
139.911762606414
20
-6.77096541400158
30
0
41
1
10
140.021283212069
20
-6.5857162848005
30
0
41
1
10
140.076043514897
20
-6.47195636795374
30
0
41
1
10
140.185564120552
20
-6.2017907305684
30
0
41
1
10
140.240324423379
20
-6.04537783775112
30
0
41
1
10
140.349845029034
20
-5.69201213201336
30
0
41
1
10
140.404605331862
20
-5.49506420699038
30
0
41
1
10
140.514125937517
20
-5.06529165941396
30
0
41
1
10
140.568886240344
20
-4.83248423194774
30
0
41
1
10
140.678406845999
20
-4.33787968964535
30
0
41
1
10
140.733167148827
20
-4.076109004252
30
0
41
1
10
140.842687754482
20
-3.53201941132471
30
0
41
1
10
140.897448057309
20
-3.24973067397019
30
0
41
1
10
140.952208360137
20
-2.96172985608891
30
0
0
SPLINE
5
F2
100
AcDbEntity
8
1
62
256
6
ByLayer
370
13
48
1
60
0
100
AcDbSpline
70
4
71
3
72
78
73
74
40
0
40
0
40
0
40
0
40
0.03125
40
0.03125
40
0.0625
40
0.0625
40
0.09375
40
0.09375
40
0.125
40
0.125
40
0.15625
40
0.15625
40
0.1875
40
0.1875
40
0.21875
40
0.21875
40
0.25
40
0.25
40
0.28125
40
0.28125
40
0.3125
40
0.3125
40
0.328125
40
0.328125
40
0.3359375
40
0.3359375
40
0.34375
40
0.34375
40
0.375
40
0.375
40
0.40625
40
0.40625
40
0.4375
40
0.4375
40
0.46875
40
0.46875
40
0.5
40
0.5
40
0.53125
40
0.53125
40
0.5625
40
0.5625
40
0.59375
40
0.59375
40
0.625
40
0.625
40
0.65625
40
0.65625
40
0.671875
40
0.671875
40
0.6796875
40
0.6796875
40
0.6875
40
0.6875
40
0.71875
40
0.71875
40
0.75
40
0.75
40
0.78125
40
0.78125
40
0.8125
40
0.8125
40
0.84375
40
0.84375
40
0.875
40
0.875
40
0.90625
40
0.90625
40
0.9375
40
0.9375
40
0.96875
40
0.96875
40
1
40
1
40
1
40
1
41
1
10
135.19617550848
20
7
30
0
41
1
10
135.256134184018
20
7
30
0
41
1
10
135.316092859556
20
6.97984204559037
30
0
41
1
10
135.436010210632
20
6.89330211957488
30
0
41
1
10
135.49596888617
20
6.8268871395727
30
0
41
1
10
135.615886237247
20
6.64384918069388
30
0
41
1
10
135.675844912785
20
6.52719875310655
30
0
41
1
10
135.795762263861
20
6.24263069525293
30
0
41
1
10
135.855720939399
20
6.07469979797028
30
0
41
1
10
135.975638290475
20
5.69008007344792
30
0
41
1
10
136.035596966013
20
5.47339842464748
30
0
41
1
10
136.15551431709
20
4.99746636056261
30
0
41
1
10
136.215472992628
20
4.73824417005486
30
0
41
1
10
136.335390343704
20
4.18656468618863
30
0
41
1
10
136.395349019242
20
3.89415051855247
30
0
41
1
10
136.515266370318
20
3.28746511157516
30
0
41
1
10
136.575225045856
20
2.97324119866914
30
0
41
1
10
136.695142396932
20
2.33495797903126
30
0
41
1
10
136.75510107247
20
2.01093928058199
30
0
41
1
10
136.875018423546
20
1.36437241014966
30
0
41
1
10
136.934977099085
20
1.04185093398627
30
0
41
1
10
137.024915112392
20
0.566339663260777
30
0
41
1
10
137.054894450161
20
0.409198296490615
30
0
41
1
10
137.099863456814
20
0.176263202761817
30
0
41
1
10
137.114853125699
20
0.0990798379458226
30
0
41
1
10
137.144832463468
20
-0.0542554322255739
30
0
41
1
10
137.159822132352
20
-0.131072572238708
30
0
41
1
10
137.234770476775
20
-0.518387510298027
30
0
41
1
10
137.294729152313
20
-0.835892269167459
30
0
41
1
10
137.414646503389
20
-1.47791683299414
30
0
41
1
10
137.474605178927
20
-1.80241870253681
30
0
41
1
10
137.594522530004
20
-2.44802293673723
30
0
41
1
10
137.654481205542
20
-2.7690917730491
30
0
41
1
10
137.774398556618
20
-3.39607106097785
30
0
41
1
10
137.834357232156
20
-3.70193668995333
30
0
41
1
10
137.954274583232
20
-4.28660379009031
30
0
41
1
10
138.01423325877
20
-4.56535838266305
30
0
41
1
10
138.134150609846
20
-5.08516608503984
30
0
41
1
10
138.194109285385
20
-5.32618165414067
30
0
41
1
10
138.314026636461
20
-5.76245293803473
30
0
41
1
10
138.373985311999
20
-5.95768955475535
30
0
41
1
10
138.493902663075
20
-6.29780403230168
30
0
41
1
10
138.553861338613
20
-6.44268441417486
30
0
41
1
10
138.673778689689
20
-6.68120134728758
30
0
41
1
10
138.733737365227
20
-6.77485856975264
30
0
41
1
10
138.853654716304
20
-6.91339101664883
30
0
41
1
10
138.913613391842
20
-6.95829727075778
30
0
41
1
10
139.003551405149
20
-6.99282063230416
30
0
41
1
10
139.033530742918
20
-6.99887246789123
30
0
41
1
10
139.078499749571
20
-7.00034820702046
30
0
41
1
10
139.093489418456
20
-6.99958670252192
30
0
41
1
10
139.123468756225
20
-6.99547601319659
30
0
41
1
10
139.138458425109
20
-6.99212366070785
30
0
41
1
10
139.213406769532
20
-6.96863562120816
30
0
41
1
10
139.27336544507
20
-6.92824780001121
30
0
41
1
10
139.393282796146
20
-6.7991445835228
30
0
41
1
10
139.453241471684
20
-6.71039762134259
30
0
41
1
10
139.573158822761
20
-6.48180719451261
30
0
41
1
10
139.633117498299
20
-6.34194166634771
30
0
41
1
10
139.753034849375
20
-6.01161272981008
30
0
41
1
10
139.812993524913
20
-5.82114478293687
30
0
41
1
10
139.932910875989
20
-5.39380515791291
30
0
41
1
10
139.992869551527
20
-5.15695049686136
30
0
41
1
10
140.112786902603
20
-4.64454995634844
30
0
41
1
10
140.172745578141
20
-4.36904014522861
30
0
41
1
10
140.292662929218
20
-3.78974736612059
30
0
41
1
10
140.352621604756
20
-3.48601086646903
30
0
41
1
10
140.472538955832
20
-2.86211203057019
30
0
41
1
10
140.53249763137
20
-2.54199518823432
30
0
41
1
10
140.652414982446
20
-1.89718831335782
30
0
41
1
10
140.712373657984
20
-1.57253318832781
30
0
41
1
10
140.83229100906
20
-0.929267929368251
30
0
41
1
10
140.892249684599
20
-0.610677289609129
30
0
41
1
10
140.952208360137
20
-0.299386159415377
30
0
0
SPLINE
5
F3
100
AcDbEntity
8
1
62
256
6
ByLayer
370
13
48
1
60
0
100
AcDbSpline
70
4
71
3
72
85
73
81
40
0
40
0
40
0
40
0
40
0.0312499999999993
40
0.0312499999999993
40
0.0624999999999986
40
0.0624999999999986
40
0.0937499999999979
40
0.0937499999999979
40
0.124999999999997
40
0.124999999999997
40
0.156249999999997
40
0.156249999999997
40
0.187499999999996
40
0.187499999999996
40
0.218749999999995
40
0.218749999999995
40
0.249999999999995
40
0.249999999999995
40
0.281249999999994
40
0.281249999999994
40
0.296874999999994
40
0.296874999999994
40
0.304687499999994
40
0.308593749999993
40
0.308593749999993
40
0.312499999999993
40
0.312499999999993
40
0.343749999999991
40
0.343749999999991
40
0.37499999999999
40
0.37499999999999
40
0.406249999999988
40
0.406249999999988
40
0.437499999999986
40
0.437499999999986
40
0.468749999999985
40
0.468749999999985
40
0.499999999999983
40
0.499999999999983
40
0.531249999999981
40
0.531249999999981
40
0.56249999999998
40
0.56249999999998
40
0.593749999999978
40
0.593749999999978
40
0.609374999999977
40
0.609374999999977
40
0.617187499999977
40
0.617187499999977
40
0.621093749999977
40
0.621093749999977
40
0.624999999999977
40
0.624999999999977
40
0.65624999999998
40
0.65624999999998
40
0.687499999999982
40
0.687499999999982
40
0.718749999999984
40
0.718749999999984
40
0.749999999999986
40
0.749999999999986
40
0.781249999999989
40
0.781249999999989
40
0.812499999999991
40
0.812499999999991
40
0.843749999999993
40
0.843749999999993
40
0.874999999999996
40
0.874999999999996
40
0.906249999999998
40
0.906249999999998
40
0.921874999999999
40
0.921874999999999
40
0.929687499999999
40
0.929687499999999
40
0.937499999999999
40
0.937499999999999
40
0.96875
40
0.96875
40
1
40
1
40
1
40
1
41
1
10
134.697131728263
20
7
30
0
41
1
10
134.762288776511
20
7
30
0
41
1
10
134.82744582476
20
6.97618075117776
30
0
41
1
10
134.957759921257
20
6.87341192959593
30
0
41
1
10
135.022916969506
20
6.79441266214286
30
0
41
1
10
135.153231066003
20
6.57658585070354
30
0
41
1
10
135.218388114252
20
6.43771964102498
30
0
41
1
10
135.348702210749
20
6.09973184961783
30
0
41
1
10
135.413859258998
20
5.9005976517015
30
0
41
1
10
135.544173355495
20
5.44674279625409
30
0
41
1
10
135.609330403744
20
5.19204448595909
30
0
41
1
10
135.739644500242
20
4.63670504782525
30
0
41
1
10
135.80480154849
20
4.33611804419715
30
0
41
1
10
135.935115644987
20
3.70244699120974
30
0
41
1
10
136.000272693236
20
3.3694336662239
30
0
41
1
10
136.130586789734
20
2.68621727911213
30
0
41
1
10
136.195743837982
20
2.33608135168913
30
0
41
1
10
136.32605793448
20
1.63364243812393
30
0
41
1
10
136.391214982729
20
1.28138700111472
30
0
41
1
10
136.488950555101
20
0.761101114987355
30
0
41
1
10
136.521529079226
20
0.589001518320686
30
0
41
1
10
136.570396865412
20
0.333842844623177
30
0
41
1
10
136.594830758506
20
0.207008818421713
30
0
41
1
10
136.619264651599
20
0.0814578050734553
30
0
41
1
10
136.635553913661
20
-0.0019409640185017
30
0
41
1
10
136.643698544692
20
-0.0434988886562166
30
0
41
1
10
136.717000223972
20
-0.419771608654059
30
0
41
1
10
136.782157272221
20
-0.763841058360526
30
0
41
1
10
136.912471368718
20
-1.46081995857918
30
0
41
1
10
136.977628416967
20
-1.81370333148621
30
0
41
1
10
137.107942513464
20
-2.51495023744118
30
0
41
1
10
137.173099561713
20
-2.8632621446697
30
0
41
1
10
137.30341365821
20
-3.54018805441152
30
0
41
1
10
137.368570706459
20
-3.86873296214003
30
0
41
1
10
137.498884802956
20
-4.49098126727475
30
0
41
1
10
137.564041851205
20
-4.78461535950044
30
0
41
1
10
137.694355947702
20
-5.32408258208113
30
0
41
1
10
137.759512995951
20
-5.56986620526675
30
0
41
1
10
137.889827092448
20
-6.00471490044211
30
0
41
1
10
137.954984140697
20
-6.19376373437376
30
0
41
1
10
138.085298237194
20
-6.51129508885998
30
0
41
1
10
138.150455285443
20
-6.63979556156974
30
0
41
1
10
138.28076938194
20
-6.83741744413817
30
0
41
1
10
138.345926430189
20
-6.90658051246254
30
0
41
1
10
138.443662002562
20
-6.96975039695914
30
0
41
1
10
138.476240526686
20
-6.9840722275261
30
0
41
1
10
138.525108312873
20
-6.99614136242221
30
0
41
1
10
138.541397574935
20
-6.99859661248044
30
0
41
1
10
138.565831468029
20
-7.00002265155092
30
0
41
1
10
138.57397609906
20
-7.00012329437439
30
0
41
1
10
138.590265361122
20
-6.99958168180521
30
0
41
1
10
138.598409992153
20
-6.99893700525038
30
0
41
1
10
138.671711671432
20
-6.98969754201954
30
0
41
1
10
138.736868719681
20
-6.95694846656929
30
0
41
1
10
138.867182816179
20
-6.83527324591483
30
0
41
1
10
138.932339864427
20
-6.74629819719485
30
0
41
1
10
139.062653960925
20
-6.50811270924223
30
0
41
1
10
139.127811009173
20
-6.35886705207775
30
0
41
1
10
139.258125105671
20
-6.00054578310511
30
0
41
1
10
139.323282153919
20
-5.79146316594816
30
0
41
1
10
139.453596250417
20
-5.31902318195873
30
0
41
1
10
139.518753298666
20
-5.05569417903513
30
0
41
1
10
139.649067395163
20
-4.48516288406529
30
0
41
1
10
139.714224443412
20
-4.17801887421308
30
0
41
1
10
139.844538539909
20
-3.53377145569252
30
0
41
1
10
139.909695588158
20
-3.19673958018561
30
0
41
1
10
140.040009684655
20
-2.50812322576908
30
0
41
1
10
140.105166732904
20
-2.15660344308526
30
0
41
1
10
140.235480829401
20
-1.45379122019673
30
0
41
1
10
140.30063787765
20
-1.10254207121636
30
0
41
1
10
140.398373450023
20
-0.58520278219541
30
0
41
1
10
140.430951974147
20
-0.414323512713167
30
0
41
1
10
140.479819760334
20
-0.161300113751849
30
0
41
1
10
140.496109022396
20
-0.0775605586738664
30
0
41
1
10
140.52868754652
20
0.0889050569936103
30
0
41
1
10
140.544976808582
20
0.172751412405972
30
0
41
1
10
140.626423118893
20
0.594704928250479
30
0
41
1
10
140.691580167142
20
0.941103414370303
30
0
41
1
10
140.821894263639
20
1.6406520662072
30
0
41
1
10
140.887051311888
20
1.99377167958528
30
0
41
1
10
140.952208360137
20
2.3433801627738
30
0
0
SPLINE
5
F4
100
AcDbEntity
8
1
62
256
6
ByLayer
370
13
48
1
60
0
100
AcDbSpline
70
4
71
3
72
85
73
81
40
0
40
0
40
0
40
0
40
0.0312500000000005
40
0.0312500000000005
40
0.062500000000001
40
0.062500000000001
40
0.0937500000000015
40
0.0937500000000015
40
0.125000000000002
40
0.125000000000002
40
0.156250000000002
40
0.156250000000002
40
0.187500000000003
40
0.187500000000003
40
0.218750000000003
40
0.218750000000003
40
0.250000000000004
40
0.250000000000004
40
0.281250000000004
40
0.281250000000004
40
0.285156250000004
40
0.285156250000004
40
0.289062500000004
40
0.289062500000004
40
0.296875000000003
40
0.296875000000003
40
0.312500000000003
40
0.312500000000003
40
0.343750000000001
40
0.343750000000001
40
0.375
40
0.375
40
0.406249999999999
40
0.406249999999999
40
0.437499999999998
40
0.437499999999998
40
0.468749999999996
40
0.468749999999996
40
0.499999999999995
40
0.499999999999995
40
0.531249999999994
40
0.531249999999994
40
0.562499999999992
40
0.562499999999992
40
0.570312499999992
40
0.570312499999992
40
0.578124999999992
40
0.578124999999992
40
0.593749999999992
40
0.593749999999992
40
0.624999999999993
40
0.624999999999993
40
0.656249999999993
40
0.656249999999993
40
0.687499999999994
40
0.687499999999994
40
0.718749999999994
40
0.718749999999994
40
0.749999999999995
40
0.749999999999995
40
0.781249999999995
40
0.781249999999995
40
0.812499999999996
40
0.812499999999996
40
0.843749999999997
40
0.843749999999997
40
0.859374999999997
40
0.859374999999997
40
0.863281249999997
40
0.863281249999997
40
0.867187499999997
40
0.874999999999998
40
0.874999999999998
40
0.906249999999998
40
0.906249999999998
40
0.937499999999999
40
0.937499999999999
40
0.968749999999999
40
0.968749999999999
40
1
40
1
40
1
40
1
41
1
10
134.198087948045
20
7
30
0
41
1
10
134.268443369004
20
7
30
0
41
1
10
134.338798789964
20
6.97220964849166
30
0
41
1
10
134.479509631882
20
6.8517334130658
30
0
41
1
10
134.549865052842
20
6.75897522010951
30
0
41
1
10
134.69057589476
20
6.50319516170413
30
0
41
1
10
134.760931315719
20
6.34012143580813
30
0
41
1
10
134.901642157638
20
5.94438866708535
30
0
41
1
10
134.971997578597
20
5.71172284706404
30
0
41
1
10
135.112708420516
20
5.18449894467614
30
0
41
1
10
135.183063841475
20
4.88998992069378
30
0
41
1
10
135.323774683394
20
4.25317409665769
30
0
41
1
10
135.394130104353
20
3.91095963285599
30
0
41
1
10
135.534840946272
20
3.19703621580788
30
0
41
1
10
135.605196367231
20
2.82543192821444
30
0
41
1
10
135.745907209149
20
2.07215582750763
30
0
41
1
10
135.816262630109
20
1.69056843803296
30
0
41
1
10
135.956973472027
20
0.934922052998758
30
0
41
1
10
136.027328892987
20
0.560908712576719
30
0
41
1
10
136.106478741566
20
0.152118096581432
30
0
41
1
10
136.115273169186
20
0.106860400601619
30
0
41
1
10
136.132862024425
20
0.0166937438526134
30
0
41
1
10
136.141656452045
20
-0.0281428259268068
30
0
41
1
10
136.168039734905
20
-0.1634813196587
30
0
41
1
10
136.185628590145
20
-0.254401407361399
30
0
41
1
10
136.238395155865
20
-0.528975849569548
30
0
41
1
10
136.273572866344
20
-0.714453037081626
30
0
41
1
10
136.379105997783
20
-1.27569630854197
30
0
41
1
10
136.449461418742
20
-1.65638516974266
30
0
41
1
10
136.590172260661
20
-2.41459375200029
30
0
41
1
10
136.66052768162
20
-2.7920420391084
30
0
41
1
10
136.801238523539
20
-3.52476296932656
30
0
41
1
10
136.871593944498
20
-3.8799350453111
30
0
41
1
10
137.012304786417
20
-4.54901883307323
30
0
41
1
10
137.082660207376
20
-4.86282962957296
30
0
41
1
10
137.223371049295
20
-5.4331743929657
30
0
41
1
10
137.293726470254
20
-5.68964083846626
30
0
41
1
10
137.434437312172
20
-6.13500129360622
30
0
41
1
10
137.504792733132
20
-6.32388183238464
30
0
41
1
10
137.64550357505
20
-6.63077024856099
30
0
41
1
10
137.71585899601
20
-6.74881599696292
30
0
41
1
10
137.856569837928
20
-6.91733120365831
30
0
41
1
10
137.926925258887
20
-6.96786861914592
30
0
41
1
10
138.014869535086
20
-6.9939378693457
30
0
41
1
10
138.032458390326
20
-6.99730551576374
30
0
41
1
10
138.067636100806
20
-7.000505772174
30
0
41
1
10
138.085224956046
20
-7.00036072503858
30
0
41
1
10
138.137991521765
20
-6.99465903655894
30
0
41
1
10
138.173169232245
20
-6.98375511910479
30
0
41
1
10
138.278702363684
20
-6.92791919503725
30
0
41
1
10
138.349057784643
20
-6.85971858841063
30
0
41
1
10
138.489768626562
20
-6.65439958373219
30
0
41
1
10
138.560124047521
20
-6.51721876039645
30
0
41
1
10
138.70083488944
20
-6.17223326708057
30
0
41
1
10
138.771190310399
20
-5.96440310440292
30
0
41
1
10
138.911901152318
20
-5.48323623871755
30
0
41
1
10
138.982256573277
20
-5.2099284130758
30
0
41
1
10
139.122967415195
20
-4.60974728787198
30
0
41
1
10
139.193322836154
20
-4.28295345577777
30
0
41
1
10
139.334033678073
20
-3.59290124058717
30
0
41
1
10
139.404389099032
20
-3.22974713166025
30
0
41
1
10
139.545099940951
20
-2.48636288271206
30
0
41
1
10
139.61545536191
20
-2.1062276572074
30
0
41
1
10
139.756166203829
20
-1.34743870976143
30
0
41
1
10
139.826521624788
20
-0.968845701813052
30
0
41
1
10
139.932054756227
20
-0.413550815376169
30
0
41
1
10
139.967232466707
20
-0.230520707404452
30
0
41
1
10
140.011204604806
20
-0.0052523430693441
30
0
41
1
10
140.019999032426
20
0.039599551041988
30
0
41
1
10
140.037587887666
20
0.129883912617345
30
0
41
1
10
140.063971170526
20
0.265827858093701
30
0
41
1
10
140.090354453385
20
0.403227144200002
30
0
41
1
10
140.178298729584
20
0.863986417962195
30
0
41
1
10
140.248654150544
20
1.24159426784081
30
0
41
1
10
140.389364992462
20
1.99999733376615
30
0
41
1
10
140.459720413422
20
2.38073564436468
30
0
41
1
10
140.60043125534
20
3.12713038882012
30
0
41
1
10
140.6707866763
20
3.49269430178245
30
0
41
1
10
140.811497518218
20
4.18932679399646
30
0
41
1
10
140.881852939177
20
4.5202905527629
30
0
41
1
10
140.952208360137
20
4.8252613937608
30
0
0
SPLINE
5
F5
100
AcDbEntity
8
1
62
256
6
ByLayer
370
13
48
1
60
0
100
AcDbSpline
70
4
71
3
72
85
73
81
40
0
40
0
40
0
40
0
40
0.0312499999999989
40
0.0312499999999989
40
0.0624999999999978
40
0.0624999999999978
40
0.0937499999999967
40
0.0937499999999967
40
0.124999999999996
40
0.124999999999996
40
0.156249999999995
40
0.156249999999995
40
0.187499999999993
40
0.187499999999993
40
0.218749999999992
40
0.218749999999992
40
0.249999999999991
40
0.249999999999991
40
0.265624999999991
40
0.265624999999991
40
0.269531249999991
40
0.269531249999991
40
0.273437499999991
40
0.281249999999991
40
0.281249999999991
40
0.31249999999999
40
0.31249999999999
40
0.34374999999999
40
0.34374999999999
40
0.37499999999999
40
0.37499999999999
40
0.406249999999989
40
0.406249999999989
40
0.437499999999989
40
0.437499999999989
40
0.468749999999989
40
0.468749999999989
40
0.499999999999989
40
0.499999999999989
40
0.531249999999988
40
0.531249999999988
40
0.539062499999988
40
0.539062499999988
40
0.546874999999989
40
0.546874999999989
40
0.562499999999989
40
0.562499999999989
40
0.59374999999999
40
0.59374999999999
40
0.62499999999999
40
0.62499999999999
40
0.656249999999991
40
0.656249999999991
40
0.687499999999992
40
0.687499999999992
40
0.718749999999992
40
0.718749999999992
40
0.749999999999993
40
0.749999999999993
40
0.781249999999994
40
0.781249999999994
40
0.796874999999994
40
0.796874999999994
40
0.800781249999994
40
0.800781249999994
40
0.804687499999994
40
0.804687499999994
40
0.812499999999994
40
0.812499999999994
40
0.843749999999995
40
0.843749999999995
40
0.874999999999996
40
0.874999999999996
40
0.906249999999997
40
0.906249999999997
40
0.937499999999998
40
0.937499999999998
40
0.968749999999999
40
0.968749999999999
40
1
40
1
40
1
40
1
41
1
10
133.699044167828
20
7
30
0
41
1
10
133.774597961498
20
7
30
0
41
1
10
133.850151755168
20
6.96792717316873
30
0
41
1
10
134.001259342507
20
6.82824939162177
30
0
41
1
10
134.076813136177
20
6.72054229379094
30
0
41
1
10
134.227920723517
20
6.42365358370333
30
0
41
1
10
134.303474517187
20
6.23440570314833
30
0
41
1
10
134.454582104527
20
5.77682425039734
30
0
41
1
10
134.530135898197
20
5.50849849596236
30
0
41
1
10
134.681243485536
20
4.90448959735244
30
0
41
1
10
134.756797279206
20
4.56889796277181
30
0
41
1
10
134.907904866546
20
3.8499327325429
30
0
41
1
10
134.983458660216
20
3.46670301893505
30
0
41
1
10
135.134566247556
20
2.67619624857119
30
0
41
1
10
135.210120041226
20
2.26906047892808
30
0
41
1
10
135.361227628565
20
1.45413955901665
30
0
41
1
10
135.436781422235
20
1.046447829361
30
0
41
1
10
135.55011211274
20
0.448965284180247
30
0
41
1
10
135.587889009575
20
0.252106986425304
30
0
41
1
10
135.635110130619
20
0.0100805082944078
30
0
41
1
10
135.644554354827
20
-0.0380716242901258
30
0
41
1
10
135.663442803245
20
-0.135036767360788
30
0
41
1
10
135.691775475871
20
-0.281080649607759
30
0
41
1
10
135.720108148497
20
-0.428792926908358
30
0
41
1
10
135.814550390585
20
-0.924285235443932
30
0
41
1
10
135.890104184255
20
-1.33087038447323
30
0
41
1
10
136.041211771594
20
-2.14575008049354
30
0
41
1
10
136.116765565264
20
-2.55395739718025
30
0
41
1
10
136.267873152604
20
-3.34904835319981
30
0
41
1
10
136.343426946274
20
-3.73579390713567
30
0
41
1
10
136.494534533613
20
-4.46407496009212
30
0
41
1
10
136.570088327283
20
-4.80546424180096
30
0
41
1
10
136.721195914623
20
-5.42274890059775
30
0
41
1
10
136.796749708293
20
-5.6985454390566
30
0
41
1
10
136.947857295633
20
-6.17184921910635
30
0
41
1
10
137.023411089303
20
-6.36933996271185
30
0
41
1
10
137.174518676642
20
-6.68255547687329
30
0
41
1
10
137.250072470312
20
-6.79834050600275
30
0
41
1
10
137.401180057652
20
-6.95327009844706
30
0
41
1
10
137.476733851322
20
-6.99251517145808
30
0
41
1
10
137.571176093409
20
-7.00064537227303
30
0
41
1
10
137.590064541827
20
-7.00026476544002
30
0
41
1
10
137.627841438662
20
-6.99543262508641
30
0
41
1
10
137.646729887079
20
-6.99096109365624
30
0
41
1
10
137.703395232332
20
-6.97109174823143
30
0
41
1
10
137.741172129167
20
-6.94922996287869
30
0
41
1
10
137.854502819671
20
-6.85577284014084
30
0
41
1
10
137.930056613341
20
-6.75608117685087
30
0
41
1
10
138.081164200681
20
-6.47548048706952
30
0
41
1
10
138.156717994351
20
-6.29449959678729
30
0
41
1
10
138.307825581691
20
-5.85278596960313
30
0
41
1
10
138.383379375361
20
-5.59205248051816
30
0
41
1
10
138.5344869627
20
-5.00164410978331
30
0
41
1
10
138.61004075637
20
-4.67205307376443
30
0
41
1
10
138.76114834371
20
-3.96285258463522
30
0
41
1
10
138.83670213738
20
-3.58338408724336
30
0
41
1
10
138.98780972472
20
-2.79794804843925
30
0
41
1
10
139.06336351839
20
-2.39212451623106
30
0
41
1
10
139.214471105729
20
-1.57760136293868
30
0
41
1
10
139.290024899399
20
-1.16900120943123
30
0
41
1
10
139.403355589904
20
-0.568877937636387
30
0
41
1
10
139.441132486739
20
-0.370928063697392
30
0
41
1
10
139.488353607783
20
-0.127320463418528
30
0
41
1
10
139.497797831991
20
-0.078789510916522
30
0
41
1
10
139.516686280409
20
0.0178645719203985
30
0
41
1
10
139.526130504617
20
0.0661082169050644
30
0
41
1
10
139.554463177244
20
0.211784791976612
30
0
41
1
10
139.573351625661
20
0.309688337112874
30
0
41
1
10
139.667793867749
20
0.802569239930108
30
0
41
1
10
139.743347661419
20
1.20785533084603
30
0
41
1
10
139.894455248758
20
2.02226337573788
30
0
41
1
10
139.970009042428
20
2.43130439776024
30
0
41
1
10
140.121116629768
20
3.23049423730637
30
0
41
1
10
140.196670423438
20
3.62050862249421
30
0
41
1
10
140.347778010778
20
4.35764861181394
30
0
41
1
10
140.423331804448
20
4.70462625986386
30
0
41
1
10
140.574439391787
20
5.33484614475771
30
0
41
1
10
140.649993185457
20
5.61798258860029
30
0
41
1
10
140.801100772797
20
6.10684401912036
30
0
41
1
10
140.876654566467
20
6.3125437608017
30
0
41
1
10
140.952208360137
20
6.47732561778625
30
0
0
SPLINE
5
F6
100
AcDbEntity
8
1
62
256
6
ByLayer
370
13
48
1
60
0
100
AcDbSpline
70
4
71
3
72
70
73
66
40
0
40
0
40
0
40
0
40
0.03125
40
0.03125
40
0.0625
40
0.0625
40
0.09375
40
0.09375
40
0.125
40
0.125
40
0.15625
40
0.15625
40
0.1875
40
0.1875
40
0.21875
40
0.21875
40
0.25
40
0.25
40
0.28125
40
0.28125
40
0.3125
40
0.3125
40
0.34375
40
0.34375
40
0.375
40
0.375
40
0.40625
40
0.40625
40
0.4375
40
0.4375
40
0.46875
40
0.46875
40
0.5
40
0.5
40
0.53125
40
0.53125
40
0.5625
40
0.5625
40
0.59375
40
0.59375
40
0.625
40
0.625
40
0.65625
40
0.65625
40
0.6875
40
0.6875
40
0.71875
40
0.71875
40
0.75
40
0.75
40
0.78125
40
0.78125
40
0.8125
40
0.8125
40
0.84375
40
0.84375
40
0.875
40
0.875
40
0.90625
40
0.90625
40
0.9375
40
0.9375
40
0.96875
40
0.96875
40
1
40
1
40
1
40
1
41
1
10
133.20000038761
20
7
30
0
41
1
10
133.280752553991
20
7
30
0
41
1
10
133.361504720371
20
6.96333157279776
30
0
41
1
10
133.523009053133
20
6.80294360909249
30
0
41
1
10
133.603761219513
20
6.67908350125512
30
0
41
1
10
133.765265552274
20
6.33795281595812
30
0
41
1
10
133.846017718654
20
6.12060175034441
30
0
41
1
10
134.007522051415
20
5.59733564218647
30
0
41
1
10
134.088274217796
20
5.29145639737396
30
0
41
1
10
134.249778550557
20
4.60803894928819
30
0
41
1
10
134.330530716937
20
4.23065459997207
30
0
41
1
10
134.492035049698
20
3.43028254769899
30
0
41
1
10
134.572787216079
20
3.00750265464441
30
0
41
1
10
134.73429154884
20
2.14582405473257
30
0
41
1
10
134.81504371522
20
1.70710000498991
30
0
41
1
10
134.976548047981
20
0.840383638832293
30
0
41
1
10
135.057300214362
20
0.41247944212418
30
0
41
1
10
135.218804547123
20
-0.412478452174696
30
0
41
1
10
135.299556713503
20
-0.84038260699765
30
0
41
1
10
135.461061046264
20
-1.70709895670529
30
0
41
1
10
135.541813212644
20
-2.14582300779637
30
0
41
1
10
135.703317545405
20
-3.00750163355193
30
0
41
1
10
135.784069711786
20
-3.43028155115687
30
0
41
1
10
135.945574044547
20
-4.23065367562114
30
0
41
1
10
136.026326210927
20
-4.60803807257102
30
0
41
1
10
136.187830543688
20
-5.29145563388909
30
0
41
1
10
136.268582710069
20
-5.59733494422423
30
0
41
1
10
136.43008704283
20
-6.1206011924678
30
0
41
1
10
136.51083920921
20
-6.33795233254122
30
0
41
1
10
136.672343541971
20
-6.67908316595819
30
0
41
1
10
136.753095708352
20
-6.80294334738088
30
0
41
1
10
136.914600041113
20
-6.96333144957808
30
0
41
1
10
136.995352207493
20
-6.9999999416666
30
0
41
1
10
137.156856540254
20
-7.00000005833326
30
0
41
1
10
137.237608706634
20
-6.96333169601729
30
0
41
1
10
137.399113039396
20
-6.80294387080392
30
0
41
1
10
137.479865205776
20
-6.67908383655185
30
0
41
1
10
137.641369538537
20
-6.33795329937485
30
0
41
1
10
137.722121704917
20
-6.12060230822084
30
0
41
1
10
137.883626037678
20
-5.59733634014853
30
0
41
1
10
137.964378204059
20
-5.29145716085867
30
0
41
1
10
138.12588253682
20
-4.60803982600524
30
0
41
1
10
138.2066347032
20
-4.23065552432286
30
0
41
1
10
138.368139035961
20
-3.43028354424106
30
0
41
1
10
138.448891202342
20
-3.00750367573684
30
0
41
1
10
138.610395535103
20
-2.14582510166878
30
0
41
1
10
138.691147701483
20
-1.70710105327456
30
0
41
1
10
138.852652034244
20
-0.840384670666992
30
0
41
1
10
138.933404200625
20
-0.412480456236125
30
0
41
1
10
139.094908533386
20
0.412477486387644
30
0
41
1
10
139.175660699766
20
0.840381575163036
30
0
41
1
10
139.337165032527
20
1.70709790842068
30
0
41
1
10
139.417917198908
20
2.14582196086013
30
0
41
1
10
139.579421531668
20
3.00750061245938
30
0
41
1
10
139.660173698049
20
3.43028055461468
30
0
41
1
10
139.82167803081
20
4.23065275127013
30
0
41
1
10
139.90243019719
20
4.60803719585374
30
0
41
1
10
140.063934529951
20
5.29145487040407
30
0
41
1
10
140.144686696332
20
5.59733424626185
30
0
41
1
10
140.306191029093
20
6.12060063459103
30
0
41
1
10
140.386943195473
20
6.33795184912412
30
0
41
1
10
140.548447528234
20
6.67908283066109
30
0
41
1
10
140.629199694615
20
6.80294308566911
30
0
41
1
10
140.790704027376
20
6.96333132635823
30
0
41
1
10
140.871456193756
20
6.99999988333303
30
0
41
1
10
140.952208360137
20
6.99999999999972
30
0
0
SPLINE
5
F7
100
AcDbEntity
8
1
62
256
6
ByLayer
370
13
48
1
60
0
100
AcDbSpline
70
4
71
3
72
85
73
81
40
0
40
0
40
0
40
0
40
0.0312499999999946
40
0.0312499999999946
40
0.0624999999999892
40
0.0624999999999892
40
0.0937499999999837
40
0.0937499999999837
40
0.124999999999978
40
0.124999999999978
40
0.156249999999973
40
0.156249999999973
40
0.187499999999967
40
0.187499999999967
40
0.195312499999966
40
0.195312499999966
40
0.199218749999966
40
0.199218749999966
40
0.203124999999966
40
0.203124999999966
40
0.218749999999965
40
0.218749999999965
40
0.249999999999965
40
0.249999999999965
40
0.281249999999965
40
0.281249999999965
40
0.312499999999965
40
0.312499999999965
40
0.343749999999965
40
0.343749999999965
40
0.374999999999965
40
0.374999999999965
40
0.406249999999965
40
0.406249999999965
40
0.437499999999965
40
0.437499999999965
40
0.453124999999965
40
0.453124999999965
40
0.460937499999965
40
0.460937499999965
40
0.468749999999965
40
0.468749999999965
40
0.499999999999965
40
0.499999999999965
40
0.531249999999965
40
0.531249999999965
40
0.562499999999965
40
0.562499999999965
40
0.593749999999965
40
0.593749999999965
40
0.624999999999965
40
0.624999999999965
40
0.656249999999965
40
0.656249999999965
40
0.687499999999965
40
0.687499999999965
40
0.718749999999965
40
0.718749999999965
40
0.726562499999965
40
0.730468749999965
40
0.730468749999965
40
0.734374999999965
40
0.734374999999965
40
0.749999999999967
40
0.749999999999967
40
0.781249999999971
40
0.781249999999971
40
0.812499999999975
40
0.812499999999975
40
0.843749999999979
40
0.843749999999979
40
0.874999999999983
40
0.874999999999983
40
0.906249999999987
40
0.906249999999987
40
0.937499999999992
40
0.937499999999992
40
0.968749999999996
40
0.968749999999996
40
1
40
1
40
1
40
1
41
1
10
133.2
20
6.47732730853153
30
0
41
1
10
133.275553801745
20
6.31254571120539
30
0
41
1
10
133.35110760349
20
6.10684622076982
30
0
41
1
10
133.50221520698
20
5.61798524616921
30
0
41
1
10
133.577769008726
20
5.33484900672588
30
0
41
1
10
133.728876612216
20
4.70462946012549
30
0
41
1
10
133.804430413961
20
4.3576519458112
30
0
41
1
10
133.955538017451
20
3.62051214285947
30
0
41
1
10
134.031091819196
20
3.23049781033822
30
0
41
1
10
134.182199422686
20
2.43130799981475
30
0
41
1
10
134.257753224431
20
2.02226695433467
30
0
41
1
10
134.408860827922
20
1.20785880283176
30
0
41
1
10
134.484414629667
20
0.802572628987093
30
0
41
1
10
134.578856881848
20
0.309691598833581
30
0
41
1
10
134.597745332284
20
0.211788027049693
30
0
41
1
10
134.626078007939
20
0.0661114104882472
30
0
41
1
10
134.635522233157
20
0.0178677447576945
30
0
41
1
10
134.654410683593
20
-0.0787863305439487
30
0
41
1
10
134.663854908811
20
-0.127317279606075
30
0
41
1
10
134.711076034902
20
-0.37092486438479
30
0
41
1
10
134.748852935775
20
-0.568874731371352
30
0
41
1
10
134.862183638392
20
-1.16899800075282
30
0
41
1
10
134.937737440137
20
-1.57759817749149
30
0
41
1
10
135.088845043627
20
-2.39212143360797
30
0
41
1
10
135.164398845372
20
-2.79794504550776
30
0
41
1
10
135.315506448863
20
-3.58338129778377
30
0
41
1
10
135.391060250608
20
-3.96284992893976
30
0
41
1
10
135.542167854098
20
-4.67205072668506
30
0
41
1
10
135.617721655843
20
-5.00164193740608
30
0
41
1
10
135.768829259333
20
-5.59205067740149
30
0
41
1
10
135.844383061079
20
-5.85278436082641
30
0
41
1
10
135.995490664569
20
-6.29449837293214
30
0
41
1
10
136.071044466314
20
-6.47547945361606
30
0
41
1
10
136.222152069804
20
-6.75608050083321
30
0
41
1
10
136.297705871549
20
-6.85577233108688
30
0
41
1
10
136.411036574167
20
-6.94922967801355
30
0
41
1
10
136.448813475039
20
-6.97109153378773
30
0
41
1
10
136.505478826348
20
-6.99096097789504
30
0
41
1
10
136.524367276784
20
-6.99543254106504
30
0
41
1
10
136.562144177657
20
-7.0002647425533
30
0
41
1
10
136.581032628093
20
-7.00064537831045
30
0
41
1
10
136.675474880274
20
-6.99251532457441
30
0
41
1
10
136.75102868202
20
-6.95327037409635
30
0
41
1
10
136.90213628551
20
-6.79834102518149
30
0
41
1
10
136.977690087255
20
-6.68255611696392
30
0
41
1
10
137.128797690745
20
-6.36934082906706
30
0
41
1
10
137.20435149249
20
-6.17185019068367
30
0
41
1
10
137.355459095981
20
-5.69854659212771
30
0
41
1
10
137.431012897726
20
-5.42275012982006
30
0
41
1
10
137.582120501216
20
-4.80546558562702
30
0
41
1
10
137.657674302961
20
-4.46407634232474
30
0
41
1
10
137.808781906451
20
-3.73579532710483
30
0
41
1
10
137.884335708196
20
-3.34904977255059
30
0
41
1
10
138.035443311686
20
-2.55395878215651
30
0
41
1
10
138.110997113432
20
-2.14575143182697
30
0
41
1
10
138.262104716922
20
-1.33087164597896
30
0
41
1
10
138.337658518667
20
-0.924286440877495
30
0
41
1
10
138.432100770848
20
-0.428794055426749
30
0
41
1
10
138.460433446503
20
-0.281081754536842
30
0
41
1
10
138.488766122157
20
-0.135037848114422
30
0
41
1
10
138.507654572593
20
-0.038072688816186
30
0
41
1
10
138.517098797812
20
0.0100794506379032
30
0
41
1
10
138.564319923902
20
0.252105940004299
30
0
41
1
10
138.602096824775
20
0.448964248968849
30
0
41
1
10
138.715427527392
20
1.04644683454458
30
0
41
1
10
138.790981329137
20
1.45413860027108
30
0
41
1
10
138.942088932628
20
2.26905960859372
30
0
41
1
10
139.017642734373
20
2.67619543057285
30
0
41
1
10
139.168750337863
20
3.46670231611966
30
0
41
1
10
139.244304139608
20
3.84993209251826
30
0
41
1
10
139.395411743098
20
4.5688974501474
30
0
41
1
10
139.470965544843
20
4.90448914924727
30
0
41
1
10
139.622073148333
20
5.50849816938722
30
0
41
1
10
139.697626950079
20
5.77682398075265
30
0
41
1
10
139.848734553569
20
6.23440553263475
30
0
41
1
10
139.924288355314
20
6.4236534553587
30
0
41
1
10
140.075395958804
20
6.72054223174612
30
0
41
1
10
140.150949760549
20
6.82824935373051
30
0
41
1
10
140.30205736404
20
6.96792716627354
30
0
41
1
10
140.377611165785
20
7
30
0
41
1
10
140.45316496753
20
7
30
0
0
SPLINE
5
F8
100
AcDbEntity
8
1
62
256
6
ByLayer
370
13
48
1
60
0
100
AcDbSpline
70
4
71
3
72
85
73
81
40
0
40
0
40
0
40
0
40
0.0312500000000004
40
0.0312500000000004
40
0.0625000000000008
40
0.0625000000000008
40
0.0937500000000012
40
0.0937500000000012
40
0.125000000000002
40
0.125000000000002
40
0.132812500000002
40
0.136718750000002
40
0.136718750000002
40
0.140625000000002
40
0.140625000000002
40
0.156250000000002
40
0.156250000000002
40
0.187500000000002
40
0.187500000000002
40
0.218750000000003
40
0.218750000000003
40
0.250000000000003
40
0.250000000000003
40
0.281250000000004
40
0.281250000000004
40
0.312500000000004
40
0.312500000000004
40
0.343750000000005
40
0.343750000000005
40
0.375000000000005
40
0.375000000000005
40
0.406250000000005
40
0.406250000000005
40
0.421875000000006
40
0.421875000000006
40
0.429687500000005
40
0.429687500000005
40
0.437500000000005
40
0.437500000000005
40
0.468750000000004
40
0.468750000000004
40
0.500000000000003
40
0.500000000000003
40
0.531250000000002
40
0.531250000000002
40
0.562500000000001
40
0.562500000000001
40
0.59375
40
0.59375
40
0.625
40
0.625
40
0.656249999999999
40
0.656249999999999
40
0.687499999999998
40
0.687499999999998
40
0.703124999999997
40
0.703124999999997
40
0.710937499999997
40
0.710937499999997
40
0.714843749999997
40
0.714843749999997
40
0.718749999999997
40
0.718749999999997
40
0.749999999999997
40
0.749999999999997
40
0.781249999999997
40
0.781249999999997
40
0.812499999999998
40
0.812499999999998
40
0.843749999999998
40
0.843749999999998
40
0.874999999999999
40
0.874999999999999
40
0.906249999999999
40
0.906249999999999
40
0.937499999999999
40
0.937499999999999
40
0.96875
40
0.96875
40
1
40
1
40
1
40
1
41
1
10
133.2
20
4.82526475412266
30
0
41
1
10
133.270355429035
20
4.52029406789663
30
0
41
1
10
133.340710858069
20
4.18933042947353
30
0
41
1
10
133.481421716138
20
3.49269810237132
30
0
41
1
10
133.551777145173
20
3.12713423422227
30
0
41
1
10
133.692488003242
20
2.38073950919875
30
0
41
1
10
133.762843432276
20
2.0000011733641
30
0
41
1
10
133.903554290345
20
1.24159800138264
30
0
41
1
10
133.973909719379
20
0.863990070853447
30
0
41
1
10
134.061854005673
20
0.40323067329922
30
0
41
1
10
134.08823729156
20
0.265831348336803
30
0
41
1
10
134.114620577449
20
0.129887361756175
30
0
41
1
10
134.132209434707
20
0.0396029723144125
30
0
41
1
10
134.141003863337
20
-0.0052489337907957
30
0
41
1
10
134.184976006483
20
-0.230517279737143
30
0
41
1
10
134.220153721
20
-0.413547377913318
30
0
41
1
10
134.325686864552
20
-0.968842251614376
30
0
41
1
10
134.396042293587
20
-1.34743527345475
30
0
41
1
10
134.536753151656
20
-2.10622430034803
30
0
41
1
10
134.60710858069
20
-2.48635959149448
30
0
41
1
10
134.747819438759
20
-3.22974402359537
30
0
41
1
10
134.818174867793
20
-3.59289825004942
30
0
41
1
10
134.958885725863
20
-4.28295074373867
30
0
41
1
10
135.029241154897
20
-4.60974473672419
30
0
41
1
10
135.169952012966
20
-5.20992621100092
30
0
41
1
10
135.240307442001
20
-5.48323422467175
30
0
41
1
10
135.38101830007
20
-5.96440147345797
30
0
41
1
10
135.451373729104
20
-6.17223183104795
30
0
41
1
10
135.592084587173
20
-6.51721770184449
30
0
41
1
10
135.662440016208
20
-6.65439870764644
30
0
41
1
10
135.803150874276
20
-6.85971805053558
30
0
41
1
10
135.873506303311
20
-6.92791881288687
30
0
41
1
10
135.979039446863
20
-6.98375494488309
30
0
41
1
10
136.01421716138
20
-6.99465892742518
30
0
41
1
10
136.066983733156
20
-7.00036070696368
30
0
41
1
10
136.084572590415
20
-7.00050578296577
30
0
41
1
10
136.119750304932
20
-6.9973055854137
30
0
41
1
10
136.13733916219
20
-6.99393796869785
30
0
41
1
10
136.225283448484
20
-6.96786886804247
30
0
41
1
10
136.295638877518
20
-6.9173315756068
30
0
41
1
10
136.436349735587
20
-6.74881661144283
30
0
41
1
10
136.506705164622
20
-6.63077098244901
30
0
41
1
10
136.647416022691
20
-6.32388278924191
30
0
41
1
10
136.717771451725
20
-6.13500235392468
30
0
41
1
10
136.858482309794
20
-5.68964207842771
30
0
41
1
10
136.928837738828
20
-5.43317570901908
30
0
41
1
10
137.069548596898
20
-4.86283106295366
30
0
41
1
10
137.139904025932
20
-4.54902030765189
30
0
41
1
10
137.280614884001
20
-3.87993656576609
30
0
41
1
10
137.350970313036
20
-3.52476449449173
30
0
41
1
10
137.491681171105
20
-2.79204354153776
30
0
41
1
10
137.562036600139
20
-2.41459522706444
30
0
41
1
10
137.702747458208
20
-1.65638656651208
30
0
41
1
10
137.773102887243
20
-1.27569765447092
30
0
41
1
10
137.878636030794
20
-0.714454296659625
30
0
41
1
10
137.913813745312
20
-0.528977078685102
30
0
41
1
10
137.966580317088
20
-0.254402589156314
30
0
41
1
10
137.984169174346
20
-0.163482485408281
30
0
41
1
10
138.010552460234
20
-0.028143967304942
30
0
41
1
10
138.019346888863
20
0.0166926083728072
30
0
41
1
10
138.036935746122
20
0.106859269628529
30
0
41
1
10
138.045730174751
20
0.152116967990594
30
0
41
1
10
138.124880032415
20
0.560907606594327
30
0
41
1
10
138.19523546145
20
0.93492097552928
30
0
41
1
10
138.335946319519
20
1.69056743395419
30
0
41
1
10
138.406301748553
20
2.07215486831876
30
0
41
1
10
138.547012606622
20
2.82543107176173
30
0
41
1
10
138.617368035657
20
3.19703541717945
30
0
41
1
10
138.758078893726
20
3.91095895652259
30
0
41
1
10
138.82843432276
20
4.25317348473899
30
0
41
1
10
138.969145180829
20
4.88998943623085
30
0
41
1
10
139.039500609864
20
5.18449852318463
30
0
41
1
10
139.180211467933
20
5.71172254239443
30
0
41
1
10
139.250566896967
20
5.94438841621363
30
0
41
1
10
139.391277755036
20
6.34012127788895
30
0
41
1
10
139.461633184071
20
6.50319504292483
30
0
41
1
10
139.60234404214
20
6.75897516274208
30
0
41
1
10
139.672699471174
20
6.8517333779921
30
0
41
1
10
139.813410329243
20
6.97220964208148
30
0
41
1
10
139.883765758278
20
7
30
0
41
1
10
139.954121187312
20
7
30
0
0
SPLINE
5
F9
100
AcDbEntity
8
1
62
256
6
ByLayer
370
13
48
1
60
0
100
AcDbSpline
70
4
71
3
72
85
73
81
40
0
40
0
40
0
40
0
40
0.031249999999999
40
0.031249999999999
40
0.0624999999999979
40
0.0624999999999979
40
0.0703124999999978
40
0.0703124999999978
40
0.0781249999999977
40
0.0781249999999977
40
0.0937499999999974
40
0.0937499999999974
40
0.124999999999997
40
0.124999999999997
40
0.156249999999996
40
0.156249999999996
40
0.187499999999996
40
0.187499999999996
40
0.218749999999995
40
0.218749999999995
40
0.249999999999995
40
0.249999999999995
40
0.281249999999994
40
0.281249999999994
40
0.312499999999993
40
0.312499999999993
40
0.343749999999993
40
0.343749999999993
40
0.374999999999992
40
0.374999999999992
40
0.378906249999992
40
0.378906249999992
40
0.382812499999992
40
0.382812499999992
40
0.390624999999992
40
0.390624999999992
40
0.406249999999992
40
0.406249999999992
40
0.437499999999993
40
0.437499999999993
40
0.468749999999993
40
0.468749999999993
40
0.499999999999993
40
0.499999999999993
40
0.531249999999994
40
0.531249999999994
40
0.562499999999994
40
0.562499999999994
40
0.593749999999994
40
0.593749999999994
40
0.624999999999994
40
0.624999999999994
40
0.656249999999995
40
0.656249999999995
40
0.687499999999995
40
0.687499999999995
40
0.691406249999995
40
0.691406249999995
40
0.695312499999995
40
0.703124999999996
40
0.703124999999996
40
0.718749999999996
40
0.718749999999996
40
0.749999999999997
40
0.749999999999997
40
0.781249999999997
40
0.781249999999997
40
0.812499999999997
40
0.812499999999997
40
0.843749999999998
40
0.843749999999998
40
0.874999999999998
40
0.874999999999998
40
0.906249999999999
40
0.906249999999999
40
0.937499999999999
40
0.937499999999999
40
0.968749999999999
40
0.968749999999999
40
1
40
1
40
1
40
1
41
1
10
133.2
20
2.34338432232022
30
0
41
1
10
133.265157056324
20
1.9937758243594
30
0
41
1
10
133.330314112648
20
1.64065616596525
30
0
41
1
10
133.460628225296
20
0.941107377557017
30
0
41
1
10
133.52578528162
20
0.594708800002024
30
0
41
1
10
133.607231602024
20
0.172755150988621
30
0
41
1
10
133.623520866106
20
0.088908767999186
30
0
41
1
10
133.656099394267
20
-0.0775569044615452
30
0
41
1
10
133.672388658348
20
-0.161296419013183
30
0
41
1
10
133.721256450591
20
-0.414319801328503
30
0
41
1
10
133.753834978753
20
-0.585199064486659
30
0
41
1
10
133.851570563239
20
-1.10253835040334
30
0
41
1
10
133.916727619563
20
-1.45378751862324
30
0
41
1
10
134.047041732211
20
-2.15659982802376
30
0
41
1
10
134.112198788535
20
-2.50811967804143
30
0
41
1
10
134.242512901182
20
-3.19673621509435
30
0
41
1
10
134.307669957506
20
-3.53376820591615
30
0
41
1
10
134.437984070154
20
-4.17801589611062
30
0
41
1
10
134.503141126478
20
-4.48516006226825
30
0
41
1
10
134.633455239126
20
-5.05569169768555
30
0
41
1
10
134.69861229545
20
-5.31902088464412
30
0
41
1
10
134.828926408098
20
-5.79146124753956
30
0
41
1
10
134.894083464422
20
-6.00054405944621
30
0
41
1
10
135.024397577069
20
-6.35886571155376
30
0
41
1
10
135.089554633393
20
-6.50811155701186
30
0
41
1
10
135.219868746041
20
-6.74629740114094
30
0
41
1
10
135.285025802365
20
-6.83527261770669
30
0
41
1
10
135.415339915013
20
-6.9569481447503
30
0
41
1
10
135.480496971337
20
-6.98969735875872
30
0
41
1
10
135.553798659701
20
-6.9989369594521
30
0
41
1
10
135.561943291742
20
-6.99958165102794
30
0
41
1
10
135.578232555823
20
-7.00012329313239
30
0
41
1
10
135.586377187863
20
-7.00002266480541
30
0
41
1
10
135.610811083985
20
-6.99859666974285
30
0
41
1
10
135.627100348065
20
-6.99614144928555
30
0
41
1
10
135.675968140308
20
-6.98407240381158
30
0
41
1
10
135.70854666847
20
-6.96975063369004
30
0
41
1
10
135.806282252956
20
-6.90658093149838
30
0
41
1
10
135.87143930928
20
-6.83741798605089
30
0
41
1
10
136.001753421928
20
-6.63979634223503
30
0
41
1
10
136.066910478252
20
-6.51129598533922
30
0
41
1
10
136.1972245909
20
-6.19376484490397
30
0
41
1
10
136.262381647223
20
-6.00471610913431
30
0
41
1
10
136.392695759871
20
-5.56986758342958
30
0
41
1
10
136.457852816195
20
-5.32408403149137
30
0
41
1
10
136.588166928843
20
-4.78461691873076
30
0
41
1
10
136.653323985167
20
-4.49098286505563
30
0
41
1
10
136.783638097815
20
-3.86873460332049
30
0
41
1
10
136.848795154139
20
-3.54018970046619
30
0
41
1
10
136.979109266787
20
-2.86326377050372
30
0
41
1
10
137.04426632311
20
-2.51495183823909
30
0
41
1
10
137.174580435758
20
-1.81370485940508
30
0
41
1
10
137.239737492082
20
-1.46082143872164
30
0
41
1
10
137.37005160473
20
-0.763842428753037
30
0
41
1
10
137.435208661054
20
-0.419772917124874
30
0
41
1
10
137.508510349418
20
-0.0435001240944075
30
0
41
1
10
137.516654981459
20
-0.0019421910456856
30
0
41
1
10
137.53294424554
20
0.0814565824690874
30
0
41
1
10
137.557378141661
20
0.207007602809028
30
0
41
1
10
137.581812037782
20
0.333841637082941
30
0
41
1
10
137.630679830026
20
0.589000328378717
30
0
41
1
10
137.663258358188
20
0.761099938719553
30
0
41
1
10
137.760993942673
20
1.28138587165165
30
0
41
1
10
137.826150998997
20
1.63364134765095
30
0
41
1
10
137.956465111645
20
2.33608035280534
30
0
41
1
10
138.021622167969
20
2.68621633282226
30
0
41
1
10
138.151936280617
20
3.36943283435565
30
0
41
1
10
138.217093336941
20
3.70244622113896
30
0
41
1
10
138.347407449589
20
4.33611740065933
30
0
41
1
10
138.412564505912
20
4.63670446897447
30
0
41
1
10
138.54287861856
20
5.19204403242267
30
0
41
1
10
138.608035674884
20
5.44674240329567
30
0
41
1
10
138.738349787532
20
5.90059736967967
30
0
41
1
10
138.803506843856
20
6.0997316179232
30
0
41
1
10
138.933820956504
20
6.43771949572394
30
0
41
1
10
138.998978012828
20
6.5765857414647
30
0
41
1
10
139.129292125475
20
6.79441260940393
30
0
41
1
10
139.194449181799
20
6.87341189731382
30
0
41
1
10
139.324763294447
20
6.97618074524999
30
0
41
1
10
139.389920350771
20
7
30
0
41
1
10
139.455077407095
20
7
30
0
0
SPLINE
5
FA
100
AcDbEntity
8
1
62
256
6
ByLayer
370
13
48
1
60
0
100
AcDbSpline
70
4
71
3
72
78
73
74
40
0
40
0
40
0
40
0
40
0.03125
40
0.03125
40
0.0624999999999999
40
0.0624999999999999
40
0.0937499999999999
40
0.0937499999999999
40
0.125
40
0.125
40
0.15625
40
0.15625
40
0.1875
40
0.1875
40
0.21875
40
0.21875
40
0.25
40
0.25
40
0.28125
40
0.28125
40
0.3125
40
0.3125
40
0.3203125
40
0.3203125
40
0.328125
40
0.328125
40
0.34375
40
0.34375
40
0.375
40
0.375
40
0.40625
40
0.40625
40
0.4375
40
0.4375
40
0.46875
40
0.46875
40
0.5
40
0.5
40
0.53125
40
0.53125
40
0.5625
40
0.5625
40
0.59375
40
0.59375
40
0.625
40
0.625
40
0.65625
40
0.65625
40
0.6640625
40
0.6640625
40
0.671875
40
0.671875
40
0.6875
40
0.6875
40
0.71875
40
0.71875
40
0.75
40
0.75
40
0.78125
40
0.78125
40
0.8125
40
0.8125
40
0.84375
40
0.84375
40
0.875
40
0.875
40
0.90625
40
0.90625
40
0.9375
40
0.9375
40
0.96875
40
0.96875
40
1
40
1
40
1
40
1
41
1
10
133.2
20
-0.299382134654309
30
0
41
1
10
133.259958683613
20
-0.61067324468786
30
0
41
1
10
133.319917367227
20
-0.929263882151758
30
0
41
1
10
133.439834734453
20
-1.57252917851031
30
0
41
1
10
133.499793418067
20
-1.89718434328824
30
0
41
1
10
133.619710785293
20
-2.54199134248751
30
0
41
1
10
133.679669468906
20
-2.86210826943088
30
0
41
1
10
133.799586836133
20
-3.48600731730093
30
0
41
1
10
133.859545519746
20
-3.78974394431066
30
0
41
1
10
133.979462886973
20
-4.36903701344281
30
0
41
1
10
134.039421570586
20
-4.64454698717938
30
0
41
1
10
134.159338937813
20
-5.15694787622249
30
0
41
1
10
134.219297621426
20
-5.39380272310675
30
0
41
1
10
134.339214988653
20
-5.82114272853119
30
0
41
1
10
134.399173672266
20
-6.01161086988557
30
0
41
1
10
134.519091039493
20
-6.34194018962515
30
0
41
1
10
134.579049723106
20
-6.48180590644489
30
0
41
1
10
134.698967090333
20
-6.71039669278127
30
0
41
1
10
134.758925773946
20
-6.79914382578295
30
0
41
1
10
134.878843141172
20
-6.92824735800642
30
0
41
1
10
134.938801824786
20
-6.96863532412237
30
0
41
1
10
135.013750179302
20
-6.99212352619668
30
0
41
1
10
135.028739850206
20
-6.9954759102815
30
0
41
1
10
135.058719192012
20
-6.99958666093943
30
0
41
1
10
135.073708862916
20
-7.00034819484767
30
0
41
1
10
135.118677875626
20
-6.9988725435133
30
0
41
1
10
135.148657217432
20
-6.99282076745243
30
0
41
1
10
135.238595242853
20
-6.95829758630882
30
0
41
1
10
135.298553926466
20
-6.9133914549509
30
0
41
1
10
135.418471293692
20
-6.77485925090005
30
0
41
1
10
135.478429977306
20
-6.68120214849253
30
0
41
1
10
135.598347344532
20
-6.44268544400217
30
0
41
1
10
135.658306028146
20
-6.29780517064245
30
0
41
1
10
135.778223395372
20
-5.9576908899657
30
0
41
1
10
135.838182078986
20
-5.76245436154898
30
0
41
1
10
135.958099446212
20
-5.32618322722703
30
0
41
1
10
136.018058129825
20
-5.08516771935874
30
0
41
1
10
136.137975497052
20
-4.56536010870602
30
0
41
1
10
136.197934180665
20
-4.2866055466184
30
0
41
1
10
136.317851547892
20
-3.70193847685067
30
0
41
1
10
136.377810231505
20
-3.3960728477833
30
0
41
1
10
136.497727598732
20
-2.76909353278174
30
0
41
1
10
136.557686282345
20
-2.44802466953283
30
0
41
1
10
136.677603649572
20
-1.802420360783
30
0
41
1
10
136.737562333185
20
-1.4779184436756
30
0
41
1
10
136.857479700412
20
-0.83589377132256
30
0
41
1
10
136.917438384025
20
-0.518388951529317
30
0
41
1
10
136.992386738542
20
-0.13107393332524
30
0
41
1
10
137.007376409445
20
-0.0542567685814106
30
0
41
1
10
137.037355751252
20
0.0990785103034852
30
0
41
1
10
137.052345422155
20
0.176261879914591
30
0
41
1
10
137.097314434865
20
0.409196989359771
30
0
41
1
10
137.127293776672
20
0.566338368385431
30
0
41
1
10
137.217231802092
20
1.04184968123391
30
0
41
1
10
137.277190485705
20
1.36437119268012
30
0
41
1
10
137.397107852931
20
2.01093814690671
30
0
41
1
10
137.457066536545
20
2.33495689386845
30
0
41
1
10
137.576983903771
20
2.97324022070074
30
0
41
1
10
137.636942587385
20
3.28746419227352
30
0
41
1
10
137.756859954611
20
3.89414972198159
30
0
41
1
10
137.816818638225
20
4.18656395365156
30
0
41
1
10
137.936736005451
20
4.73824356519128
30
0
41
1
10
137.996694689064
20
4.99746581930174
30
0
41
1
10
138.116612056291
20
5.47339800443243
30
0
41
1
10
138.176570739904
20
5.69007971064426
30
0
41
1
10
138.296488107131
20
6.07469953916825
30
0
41
1
10
138.356446790744
20
6.24263048302444
30
0
41
1
10
138.476364157971
20
6.5271986204051
30
0
41
1
10
138.536322841584
20
6.6438490809474
30
0
41
1
10
138.656240208811
20
6.82688709141016
30
0
41
1
10
138.716198892424
20
6.89330209005695
30
0
41
1
10
138.836116259651
20
6.97984204014276
30
0
41
1
10
138.896074943264
20
7
30
0
41
1
10
138.956033626878
20
7
30
0
0
SPLINE
5
FB
100
AcDbEntity
8
1
62
256
6
ByLayer
370
13
48
1
60
0
100
AcDbSpline
70
4
71
3
72
8
73
4
40
0
40
0
40
0
40
0
40
1
40
1
40
1
40
1
41
1
10
140.952208360136
20
-5.91694289169487
30
0
41
1
10
141.801472240091
20
-3.94780508965132
30
0
41
1
10
142.650736120045
20
-1.97548438760177
30
0
41
1
10
143.5
20
-3.411E-13
30
0
0
SPLINE
5
FC
100
AcDbEntity
8
1
62
256
6
ByLayer
370
13
48
1
60
0
100
AcDbSpline
70
4
71
3
72
8
73
4
40
0
40
0
40
0
40
0
40
1
40
1
40
1
40
1
41
1
10
140.952208360136
20
-6.94590400281265
30
0
41
1
10
141.801472240091
20
-4.62986502158563
30
0
41
1
10
142.650736120046
20
-2.31455617352586
30
0
41
1
10
143.5
20
2.274E-13
30
0
0
SPLINE
5
FD
100
AcDbEntity
8
1
62
256
6
ByLayer
370
13
48
1
60
0
100
AcDbSpline
70
4
71
3
72
8
73
4
40
0
40
0
40
0
40
0
40
1
40
1
40
1
40
1
41
1
10
140.952208360137
20
2.52572169121063
30
0
41
1
10
141.801472240091
20
1.67827007944231
30
0
41
1
10
142.650736120045
20
0.836360122526855
30
0
41
1
10
143.499999999999
20
5.969E-13
30
0
0
SPLINE
5
FE
100
AcDbEntity
8
1
62
256
6
ByLayer
370
13
48
1
60
0
100
AcDbSpline
70
4
71
3
72
8
73
4
40
0
40
0
40
0
40
0
40
1
40
1
40
1
40
1
41
1
10
140.952208360137
20
-2.19512154967245
30
0
41
1
10
141.801472240091
20
-1.46905934886669
30
0
41
1
10
142.650736120046
20
-0.737349784692412
30
0
41
1
10
143.5
20
-1.137E-13
30
0
0
SPLINE
5
FF
100
AcDbEntity
8
1
62
256
6
ByLayer
370
13
48
1
60
0
100
AcDbSpline
70
4
71
3
72
8
73
4
40
0
40
0
40
0
40
0
40
1
40
1
40
1
40
1
41
1
10
140.952208360137
20
-2.81734837224545
30
0
41
1
10
141.801472240091
20
-1.87279015964469
30
0
41
1
10
142.650736120046
20
-0.933670993437119
30
0
41
1
10
143.5
20
-1.421E-13
30
0
0
SPLINE
5
100
100
AcDbEntity
8
1
62
256
6
ByLayer
370
13
48
1
60
0
100
AcDbSpline
70
4
71
3
72
8
73
4
40
0
40
0
40
0
40
0
40
1
40
1
40
1
40
1
41
1
10
140.952208360137
20
1.89336113481198
30
0
41
1
10
141.801472240091
20
1.2679640127844
30
0
41
1
10
142.650736120046
20
0.636841579945383
30
0
41
1
10
143.5
20
2.84E-14
30
0
0
SPLINE
5
101
100
AcDbEntity
8
1
62
256
6
ByLayer
370
13
48
1
60
0
100
AcDbSpline
70
4
71
3
72
8
73
4
40
0
40
0
40
0
40
0
40
1
40
1
40
1
40
1
41
1
10
140.952208360137
20
3.01901872500116
30
0
41
1
10
141.801472240091
20
2.01804267507234
30
0
41
1
10
142.650736120046
20
1.01169982807411
30
0
41
1
10
143.5
20
2.84E-14
30
0
0
SPLINE
5
102
100
AcDbEntity
8
1
62
256
6
ByLayer
370
13
48
1
60
0
100
AcDbSpline
70
4
71
3
72
8
73
4
40
0
40
0
40
0
40
0
40
1
40
1
40
1
40
1
41
1
10
140.952208360136
20
-6.2458542942606
30
0
41
1
10
141.801472240091
20
-4.16121869127437
30
0
41
1
10
142.650736120046
20
-2.07926050553598
30
0
41
1
10
143.5
20
7.674E-13
30
0
0
SPLINE
5
103
100
AcDbEntity
8
1
62
256
6
ByLayer
370
13
48
1
60
0
100
AcDbSpline
70
4
71
3
72
8
73
4
40
0
40
0
40
0
40
0
40
1
40
1
40
1
40
1
41
1
10
140.952208360137
20
6.75613650121201
30
0
41
1
10
141.801472240091
20
4.50564648030886
30
0
41
1
10
142.650736120046
20
2.25359366893952
30
0
41
1
10
143.5
20
0
30
0
0
SPLINE
5
104
100
AcDbEntity
8
1
62
256
6
ByLayer
370
13
48
1
60
0
100
AcDbSpline
70
4
71
3
72
8
73
4
40
0
40
0
40
0
40
0
40
1
40
1
40
1
40
1
41
1
10
140.952208360136
20
-6.83180909741228
30
0
41
1
10
141.801472240091
20
-4.55583473714276
30
0
41
1
10
142.650736120046
20
-2.27855764545302
30
0
41
1
10
143.5
20
8.527E-13
30
0
0
SPLINE
5
105
100
AcDbEntity
8
1
62
256
6
ByLayer
370
13
48
1
60
0
100
AcDbSpline
70
4
71
3
72
8
73
4
40
0
40
0
40
0
40
0
40
1
40
1
40
1
40
1
41
1
10
140.952208360137
20
6.96994205075978
30
0
41
1
10
141.801472240091
20
4.6471783593301
30
0
41
1
10
142.650736120046
20
2.32385680122184
30
0
41
1
10
143.5
20
-2.84E-14
30
0
0
SPLINE
5
106
100
AcDbEntity
8
1
62
256
6
ByLayer
370
13
48
1
60
0
100
AcDbSpline
70
4
71
3
72
8
73
4
40
0
40
0
40
0
40
0
40
1
40
1
40
1
40
1
41
1
10
140.952208360137
20
-0.490754843493164
30
0
41
1
10
141.801472240091
20
-0.321239676283255
30
0
41
1
10
142.650736120046
20
-0.157654203933475
30
0
41
1
10
143.5
20
-2.84E-14
30
0
0
SPLINE
5
107
100
AcDbEntity
8
1
62
256
6
ByLayer
370
13
48
1
60
0
100
AcDbSpline
70
4
71
3
72
8
73
4
40
0
40
0
40
0
40
0
40
1
40
1
40
1
40
1
41
1
10
140.952208360136
20
-6.99206260509246
30
0
41
1
10
141.801472240091
20
-4.66165809357486
30
0
41
1
10
142.650736120045
20
-2.33096299371337
30
0
41
1
10
143.5
20
-3.979E-13
30
0
0
SPLINE
5
108
100
AcDbEntity
8
1
62
256
6
ByLayer
370
13
48
1
60
0
100
AcDbSpline
70
4
71
3
72
8
73
4
40
0
40
0
40
0
40
0
40
1
40
1
40
1
40
1
41
1
10
140.952208360137
20
-1.02489329075198
30
0
41
1
10
141.801472240091
20
-0.689142976362973
30
0
41
1
10
142.650736120045
20
-0.347510764278951
30
0
41
1
10
143.499999999999
20
-2.558E-13
30
0
0
SPLINE
5
109
100
AcDbEntity
8
1
62
256
6
ByLayer
370
13
48
1
60
0
100
AcDbSpline
70
4
71
3
72
8
73
4
40
0
40
0
40
0
40
0
40
1
40
1
40
1
40
1
41
1
10
140.952208360137
20
0.711809784966249
30
0
41
1
10
141.801472240091
20
0.480453888277907
30
0
41
1
10
142.650736120046
20
0.243183183469739
30
0
41
1
10
143.5
20
0
30
0
0
SPLINE
5
10A
100
AcDbEntity
8
1
62
256
6
ByLayer
370
13
48
1
60
0
100
AcDbSpline
70
4
71
3
72
8
73
4
40
0
40
0
40
0
40
0
40
1
40
1
40
1
40
1
41
1
10
140.952208360136
20
-6.69469593490652
30
0
41
1
10
141.801472240091
20
-4.46139408186156
30
0
41
1
10
142.650736120045
20
-2.2298215292933
30
0
41
1
10
143.5
20
-3.695E-13
30
0
0
SPLINE
5
10B
100
AcDbEntity
8
1
62
256
6
ByLayer
370
13
48
1
60
0
100
AcDbSpline
70
4
71
3
72
8
73
4
40
0
40
0
40
0
40
0
40
1
40
1
40
1
40
1
41
1
10
140.952208360137
20
6.59575181616788
30
0
41
1
10
141.801472240091
20
4.39517689098699
30
0
41
1
10
142.650736120045
20
2.19658581865227
30
0
41
1
10
143.499999999999
20
1.5348E-12
30
0
0
SPLINE
5
10C
100
AcDbEntity
8
1
62
256
6
ByLayer
370
13
48
1
60
0
100
AcDbSpline
70
4
71
3
72
8
73
4
40
0
40
0
40
0
40
0
40
1
40
1
40
1
40
1
41
1
10
140.952208360137
20
6.09708358317948
30
0
41
1
10
141.801472240091
20
4.06180191220719
30
0
41
1
10
142.650736120046
20
2.02943412470285
30
0
41
1
10
143.5
20
3.411E-13
30
0
0
SPLINE
5
10D
100
AcDbEntity
8
1
62
256
6
ByLayer
370
13
48
1
60
0
100
AcDbSpline
70
4
71
3
72
8
73
4
40
0
40
0
40
0
40
0
40
1
40
1
40
1
40
1
41
1
10
140.952208360137
20
5.4184238429512
30
0
41
1
10
141.801472240091
20
3.60851881041904
30
0
41
1
10
142.650736120045
20
1.80237167146052
30
0
41
1
10
143.499999999999
20
1.279E-12
30
0
0
SPLINE
5
10E
100
AcDbEntity
8
1
62
256
6
ByLayer
370
13
48
1
60
0
100
AcDbSpline
70
4
71
3
72
8
73
4
40
0
40
0
40
0
40
0
40
1
40
1
40
1
40
1
41
1
10
140.952208360136
20
-4.30853885643259
30
0
41
1
10
141.801472240091
20
-2.87704456517446
30
0
41
1
10
142.650736120046
20
-1.44086028000211
30
0
41
1
10
143.5
20
5.4E-13
30
0
0
SPLINE
5
10F
100
AcDbEntity
8
1
62
256
6
ByLayer
370
13
48
1
60
0
100
AcDbSpline
70
4
71
3
72
8
73
4
40
0
40
0
40
0
40
0
40
1
40
1
40
1
40
1
41
1
10
140.952208360137
20
-3.3005478043379
30
0
41
1
10
141.801472240091
20
-2.20560774013481
30
0
41
1
10
142.650736120046
20
-1.10542156224321
30
0
41
1
10
143.5
20
-1.705E-13
30
0
0
SPLINE
5
110
100
AcDbEntity
8
1
62
256
6
ByLayer
370
13
48
1
60
0
100
AcDbSpline
70
4
71
3
72
8
73
4
40
0
40
0
40
0
40
0
40
1
40
1
40
1
40
1
41
1
10
140.952208360136
20
-4.81371433062515
30
0
41
1
10
141.801472240091
20
-3.2048268085334
30
0
41
1
10
142.650736120045
20
-1.60025016183306
30
0
41
1
10
143.5
20
-2.558E-13
30
0
0
SPLINE
5
111
100
AcDbEntity
8
1
62
256
6
ByLayer
370
13
48
1
60
0
100
AcDbSpline
70
4
71
3
72
8
73
4
40
0
40
0
40
0
40
0
40
1
40
1
40
1
40
1
41
1
10
140.952208360136
20
-5.189337884309
30
0
41
1
10
141.801472240091
20
-3.46354839222948
30
0
41
1
10
142.650736120046
20
-1.73376347893796
30
0
41
1
10
143.5
20
6.537E-13
30
0
0
SPLINE
5
112
100
AcDbEntity
8
1
62
256
6
ByLayer
370
13
48
1
60
0
100
AcDbSpline
70
4
71
3
72
8
73
4
40
0
40
0
40
0
40
0
40
1
40
1
40
1
40
1
41
1
10
140.952208360137
20
5.74238294333986
30
0
41
1
10
141.801472240091
20
3.83165500803835
30
0
41
1
10
142.650736120046
20
1.9175211440506
30
0
41
1
10
143.5
20
5.68E-14
30
0
0
SPLINE
5
113
100
AcDbEntity
8
1
62
256
6
ByLayer
370
13
48
1
60
0
100
AcDbSpline
70
4
71
3
72
8
73
4
40
0
40
0
40
0
40
0
40
1
40
1
40
1
40
1
41
1
10
140.952208360136
20
-5.61262929834524
30
0
41
1
10
141.801472240091
20
-3.7382003030514
30
0
41
1
10
142.650736120046
20
-1.86731780196021
30
0
41
1
10
143.5
20
1.99E-13
30
0
0
SPLINE
5
114
100
AcDbEntity
8
1
62
256
6
ByLayer
370
13
48
1
60
0
100
AcDbSpline
70
4
71
3
72
8
73
4
40
0
40
0
40
0
40
0
40
1
40
1
40
1
40
1
41
1
10
140.952208360137
20
3.60599054923716
30
0
41
1
10
141.801472240091
20
2.39889834041114
30
0
41
1
10
142.650736120046
20
1.19689759495375
30
0
41
1
10
143.5
20
1.99E-13
30
0
0
SPLINE
5
115
100
AcDbEntity
8
1
62
256
6
ByLayer
370
13
48
1
60
0
100
AcDbSpline
70
4
71
3
72
8
73
4
40
0
40
0
40
0
40
0
40
1
40
1
40
1
40
1
41
1
10
140.952208360136
20
-3.8726940947106
30
0
41
1
10
141.801472240091
20
-2.57684388315505
30
0
41
1
10
142.650736120046
20
-1.2859416671788
30
0
41
1
10
143.5
20
1.421E-13
30
0
0
SPLINE
5
116
100
AcDbEntity
8
1
62
256
6
ByLayer
370
13
48
1
60
0
100
AcDbSpline
70
4
71
3
72
8
73
4
40
0
40
0
40
0
40
0
40
1
40
1
40
1
40
1
41
1
10
140.952208360136
20
-6.4698743105036
30
0
41
1
10
141.801472240091
20
-4.31551895496585
30
0
41
1
10
142.650736120046
20
-2.15888718275957
30
0
41
1
10
143.5
20
2.274E-13
30
0
0
SPLINE
5
117
100
AcDbEntity
8
1
62
256
6
ByLayer
370
13
48
1
60
0
100
AcDbSpline
70
4
71
3
72
8
73
4
40
0
40
0
40
0
40
0
40
1
40
1
40
1
40
1
41
1
10
140.952208360137
20
4.97236187112557
30
0
41
1
10
141.801472240091
20
3.31909226207782
30
0
41
1
10
142.650736120046
20
1.66163292104437
30
0
41
1
10
143.5
20
5.68E-14
30
0
0
SPLINE
5
118
100
AcDbEntity
8
1
62
256
6
ByLayer
370
13
48
1
60
0
100
AcDbSpline
70
4
71
3
72
8
73
4
40
0
40
0
40
0
40
0
40
1
40
1
40
1
40
1
41
1
10
140.952208360137
20
-1.67883193823903
30
0
41
1
10
141.801472240091
20
-1.11344995055808
30
0
41
1
10
142.650736120046
20
-0.553837494439108
30
0
41
1
10
143.5
20
-2.84E-14
30
0
0
SPLINE
5
119
100
AcDbEntity
8
1
62
256
6
ByLayer
370
13
48
1
60
0
100
AcDbSpline
70
4
71
3
72
8
73
4
40
0
40
0
40
0
40
0
40
1
40
1
40
1
40
1
41
1
10
140.952208360137
20
4.05555210961151
30
0
41
1
10
141.801472240091
20
2.70854686412153
30
0
41
1
10
142.650736120046
20
1.35669176808275
30
0
41
1
10
143.5
20
1.421E-13
30
0
0
SPLINE
5
11A
100
AcDbEntity
8
1
62
256
6
ByLayer
370
13
48
1
60
0
100
AcDbSpline
70
4
71
3
72
8
73
4
40
0
40
0
40
0
40
0
40
1
40
1
40
1
40
1
41
1
10
140.952208360137
20
6.89970739767685
30
0
41
1
10
141.801472240091
20
4.59880221119531
30
0
41
1
10
142.650736120046
20
2.29889228177999
30
0
41
1
10
143.5
20
3.695E-13
30
0
0
SPLINE
5
11B
100
AcDbEntity
8
1
62
256
6
ByLayer
370
13
48
1
60
0
100
AcDbSpline
70
4
71
3
72
8
73
4
40
0
40
0
40
0
40
0
40
1
40
1
40
1
40
1
41
1
10
140.952208360137
20
4.57980725432932
30
0
41
1
10
141.801472240091
20
3.04870891910403
30
0
41
1
10
142.650736120045
20
1.52210155108827
30
0
41
1
10
143.499999999999
20
1.08E-12
30
0
0
SPLINE
5
11C
100
AcDbEntity
8
1
62
256
6
ByLayer
370
13
48
1
60
0
100
AcDbSpline
70
4
71
3
72
8
73
4
40
0
40
0
40
0
40
0
40
1
40
1
40
1
40
1
41
1
10
140.952208360137
20
0.175590759424409
30
0
41
1
10
141.801472240091
20
0.111117529746224
30
0
41
1
10
142.650736120046
20
0.0525870930673875
30
0
41
1
10
143.5
20
0
30
0
0
SPLINE
5
11D
100
AcDbEntity
8
1
62
256
6
ByLayer
370
13
48
1
60
0
100
AcDbSpline
70
4
71
3
72
8
73
4
40
0
40
0
40
0
40
0
40
1
40
1
40
1
40
1
41
1
10
140.952208360137
20
6.34288359697706
30
0
41
1
10
141.801472240091
20
4.2311037789793
30
0
41
1
10
142.650736120046
20
2.11680238173778
30
0
41
1
10
143.5
20
5.68E-14
30
0
0
SPLINE
5
11E
100
AcDbEntity
8
1
62
256
6
ByLayer
370
13
48
1
60
0
100
AcDbSpline
70
4
71
3
72
8
73
4
40
0
40
0
40
0
40
0
40
1
40
1
40
1
40
1
41
1
10
140.952208360137
20
1.37089120911131
30
0
41
1
10
141.801472240091
20
0.908097744321509
30
0
41
1
10
142.650736120045
20
0.451132531127854
30
0
41
1
10
143.499999999999
20
3.126E-13
30
0
0
LINE
5
7D
100
AcDbEntity
8
80
62
256
6
ByLayer
370
18
48
1
60
0
100
AcDbLine
10
0
20
0
30
0
11
-5
21
0
31
0
39
0
210
0
220
0
230
1
0
LINE
5
7E
100
AcDbEntity
8
4
62
256
6
ByLayer
370
18
48
0.05
60
0
100
AcDbLine
10
-5
20
0
30
0
11
148.5
21
0
31
0
39
0
210
0
220
0
230
1
0
LINE
5
80
100
AcDbEntity
8
81
62
256
6
ByLayer
370
18
48
1
60
0
100
AcDbLine
10
143.5
20
0
30
0
11
148.5
21
0
31
0
39
0
210
0
220
0
230
1
0
LINE
5
81
100
AcDbEntity
8
SK4
62
256
6
ByLayer
370
18
48
0.05
60
0
100
AcDbLine
10
-53
20
0
30
0
11
148.5
21
0
31
0
39
0
210
0
220
0
230
1
0
LINE
5
83
100
AcDbEntity
8
1
62
256
6
ByLayer
370
18
48
1
60
0
100
AcDbLine
10
0
20
8
30
0
11
0
21
-8
31
0
39
0
210
0
220
0
230
1
0
LINE
5
84
100
AcDbEntity
8
1
62
256
6
ByLayer
370
18
48
1
60
0
100
AcDbLine
10
140.952208
20
7
30
0
11
140.952208
21
6.777719
31
0
39
0
210
0
220
0
230
1
0
LINE
5
85
100
AcDbEntity
8
1
62
256
6
ByLayer
370
18
48
1
60
0
100
AcDbLine
10
140.952208
20
-7
30
0
11
140.952208
21
-0.998884
31
0
39
0
210
0
220
0
230
1
0
LINE
5
86
100
AcDbEntity
8
1
62
256
6
ByLayer
370
18
48
1
60
0
100
AcDbLine
10
10
20
-6.556635
30
0
11
10
21
2.478181
31
0
39
0
210
0
220
0
230
1
0
LINE
5
87
100
AcDbEntity
8
SK1
62
256
6
ByLayer
370
13
48
1
60
0
100
AcDbLine
10
-14.956081
20
-5.420003
30
0
11
-14.956081
21
5.420003
31
0
39
0
210
0
220
0
230
1
0
LINE
5
89
100
AcDbEntity
8
SK1
62
256
6
ByLayer
370
13
48
1
60
0
100
AcDbLine
10
-40.20852
20
4.268613
30
0
11
-40.20852
21
-4.268613
31
0
39
0
210
0
220
0
230
1
0
LINE
5
8A
100
AcDbEntity
8
SK1
62
256
6
ByLayer
370
13
48
1
60
0
100
AcDbLine
10
-13.809044
20
4.913811
30
0
11
-13.809044
21
-4.913811
31
0
39
0
210
0
220
0
230
1
0
LINE
5
8B
100
AcDbEntity
8
SK1
62
256
6
ByLayer
370
18
48
1
60
0
100
AcDbLine
10
0
20
8
30
0
11
0
21
-8
31
0
39
0
210
0
220
0
230
1
0
LINE
5
8C
100
AcDbEntity
8
SK1
62
256
6
ByLayer
370
13
48
1
60
0
100
AcDbLine
10
-41.322847
20
-3.330349
30
0
11
-41.322847
21
3.330349
31
0
39
0
210
0
220
0
230
1
0
LINE
5
8D
100
AcDbEntity
8
SK1
62
256
6
ByLayer
370
18
48
1
60
0
100
AcDbLine
10
-48
20
-7
30
0
11
-48
21
7
31
0
39
0
210
0
220
0
230
1
0
LINE
5
8E
100
AcDbEntity
8
SK1
62
256
6
ByLayer
370
18
48
1
60
0
100
AcDbLine
10
-47
20
-8
30
0
11
-47
21
8
31
0
39
0
210
0
220
0
230
1
0
LINE
5
8F
100
AcDbEntity
8
1
62
256
6
ByLayer
370
18
48
1
60
0
100
AcDbLine
10
47.215259
20
6.65
30
0
11
15.606564
21
6.65
31
0
39
0
210
0
220
0
230
1
0
LINE
5
90
100
AcDbEntity
8
1
62
256
6
ByLayer
370
18
48
1
60
0
100
AcDbLine
10
76.026238
20
-6.65
30
0
11
107.635012
21
-6.65
31
0
39
0
210
0
220
0
230
1
0
LINE
5
91
100
AcDbEntity
8
1
62
256
6
ByLayer
370
18
48
1
60
0
100
AcDbLine
10
107.635012
20
6.65
30
0
11
76.026238
21
6.65
31
0
39
0
210
0
220
0
230
1
0
LINE
5
92
100
AcDbEntity
8
1
62
256
6
ByLayer
370
18
48
1
60
0
100
AcDbLine
10
15.606564
20
-6.65
30
0
11
47.215259
21
-6.65
31
0
39
0
210
0
220
0
230
1
0
LINE
5
93
100
AcDbEntity
8
1
62
256
6
ByLayer
370
18
48
1
60
0
100
AcDbLine
10
143.5
20
0
30
0
11
140.952208
21
7
31
0
39
0
210
0
220
0
230
1
0
LINE
5
94
100
AcDbEntity
8
1
62
256
6
ByLayer
370
18
48
1
60
0
100
AcDbLine
10
140.952208
20
-7
30
0
11
143.5
21
0
31
0
39
0
210
0
220
0
230
1
0
LINE
5
95
100
AcDbEntity
8
1
62
256
6
ByLayer
370
18
48
1
60
0
100
AcDbLine
10
5.315609
20
7.282393
30
0
11
0
21
8
31
0
39
0
210
0
220
0
230
1
0
LINE
5
96
100
AcDbEntity
8
1
62
256
6
ByLayer
370
18
48
1
60
0
100
AcDbLine
10
0
20
-8
30
0
11
5.315609
21
-7.282393
31
0
39
0
210
0
220
0
230
1
0
LINE
5
97
100
AcDbEntity
8
1
62
256
6
ByLayer
370
18
48
1
60
0
100
AcDbLine
10
143.5
20
0
30
0
11
140.952208
21
7
31
0
39
0
210
0
220
0
230
1
0
LINE
5
98
100
AcDbEntity
8
1
62
256
6
ByLayer
370
18
48
1
60
0
100
AcDbLine
10
140.952208
20
-7
30
0
11
143.5
21
0
31
0
39
0
210
0
220
0
230
1
0
LINE
5
99
100
AcDbEntity
8
1
62
256
6
ByLayer
370
18
48
1
60
0
100
AcDbLine
10
133.2
20
-7
30
0
11
140.952208
21
-7
31
0
39
0
210
0
220
0
230
1
0
LINE
5
9A
100
AcDbEntity
8
SK1
62
256
6
ByLayer
370
18
48
1
60
0
100
AcDbLine
10
-47
20
-8
30
0
11
0
21
-8
31
0
39
0
210
0
220
0
230
1
0
LINE
5
9B
100
AcDbEntity
8
SK1
62
256
6
ByLayer
370
18
48
1
60
0
100
AcDbLine
10
0
20
8
30
0
11
-47
21
8
31
0
39
0
210
0
220
0
230
1
0
LINE
5
9C
100
AcDbEntity
8
SK1
62
256
6
ByLayer
370
18
48
1
60
0
100
AcDbLine
10
-48
20
-7
30
0
11
-47
21
-8
31
0
39
0
210
0
220
0
230
1
0
LINE
5
9D
100
AcDbEntity
8
SK1
62
256
6
ByLayer
370
18
48
1
60
0
100
AcDbLine
10
-47
20
8
30
0
11
-48
21
7
31
0
39
0
210
0
220
0
230
1
0
LINE
5
9E
100
AcDbEntity
8
1
62
256
6
ByLayer
370
18
48
1
60
0
100
AcDbLine
10
140.952208
20
7
30
0
11
140.952208
21
-7
31
0
39
0
210
0
220
0
230
1
0
LINE
5
9F
100
AcDbEntity
8
1
62
256
6
ByLayer
370
18
48
1
60
0
100
AcDbLine
10
140.952208
20
7
30
0
11
140.952208
21
-7
31
0
39
0
210
0
220
0
230
1
0
LINE
5
A0
100
AcDbEntity
8
1
62
256
6
ByLayer
370
18
48
1
60
0
100
AcDbLine
10
140.952208
20
7
30
0
11
140.952208
21
-7
31
0
39
0
210
0
220
0
230
1
0
LINE
5
A1
100
AcDbEntity
8
1
62
256
6
ByLayer
370
18
48
1
60
0
100
AcDbLine
10
133.2
20
7
30
0
11
133.2
21
-7
31
0
39
0
210
0
220
0
230
1
0
LINE
5
A2
100
AcDbEntity
8
1
62
256
6
ByLayer
370
18
48
1
60
0
100
AcDbLine
10
133.2
20
7
30
0
11
133.2
21
-7
31
0
39
0
210
0
220
0
230
1
0
LINE
5
A3
100
AcDbEntity
8
1
62
256
6
ByLayer
370
18
48
1
60
0
100
AcDbLine
10
140.952208
20
7
30
0
11
140.952208
21
-7
31
0
39
0
210
0
220
0
230
1
0
LINE
5
A4
100
AcDbEntity
8
1
62
256
6
ByLayer
370
18
48
1
60
0
100
AcDbLine
10
133.2
20
7
30
0
11
133.2
21
-7
31
0
39
0
210
0
220
0
230
1
0
LINE
5
A5
100
AcDbEntity
8
1
62
256
6
ByLayer
370
18
48
1
60
0
100
AcDbLine
10
140.952208
20
7
30
0
11
140.952208
21
-7
31
0
39
0
210
0
220
0
230
1
0
LINE
5
A6
100
AcDbEntity
8
SK2
62
256
6
ByLayer
370
13
48
1
60
0
100
AcDbLine
10
-54.5
20
-8
30
0
11
-54.5
21
36.274683
31
0
39
0
210
0
220
0
230
1
0
LINE
5
A8
100
AcDbEntity
8
SK2
62
256
6
ByLayer
370
13
48
1
60
0
100
AcDbLine
10
-49.5875
20
8
30
0
11
-56.5
21
8
31
0
39
0
210
0
220
0
230
1
0
LINE
5
A9
100
AcDbEntity
8
SK2
62
256
6
ByLayer
370
13
48
1
60
0
100
AcDbLine
10
-49.5875
20
-8
30
0
11
-56.5
21
-8
31
0
39
0
210
0
220
0
230
1
0
LINE
5
AA
100
AcDbEntity
8
1
62
256
6
ByLayer
370
18
48
1
60
1
100
AcDbLine
10
-54.5
20
8
30
0
11
-54.039216
21
4.500002
31
0
39
0
210
0
220
0
230
1
0
LINE
5
AB
100
AcDbEntity
8
1
62
256
6
ByLayer
370
18
48
1
60
1
100
AcDbLine
10
-54.039216
20
4.500002
30
0
11
-54.960784
21
4.499998
31
0
39
0
210
0
220
0
230
1
0
LINE
5
AC
100
AcDbEntity
8
1
62
256
6
ByLayer
370
18
48
1
60
1
100
AcDbLine
10
-54.960784
20
4.499998
30
0
11
-54.5
21
8
31
0
39
0
210
0
220
0
230
1
0
LINE
5
AD
100
AcDbEntity
8
1
62
256
6
ByLayer
370
18
48
1
60
1
100
AcDbLine
10
-54.5
20
-8
30
0
11
-54.960784
21
-4.500002
31
0
39
0
210
0
220
0
230
1
0
LINE
5
AE
100
AcDbEntity
8
1
62
256
6
ByLayer
370
18
48
1
60
1
100
AcDbLine
10
-54.960784
20
-4.500002
30
0
11
-54.039216
21
-4.499998
31
0
39
0
210
0
220
0
230
1
0
LINE
5
AF
100
AcDbEntity
8
1
62
256
6
ByLayer
370
18
48
1
60
1
100
AcDbLine
10
-54.039216
20
-4.499998
30
0
11
-54.5
21
-8
31
0
39
0
210
0
220
0
230
1
0
LINE
5
B0
100
AcDbEntity
8
2
62
256
6
ByLayer
370
13
48
1
60
0
100
AcDbLine
10
151
20
-7
30
0
11
151
21
35.590569
31
0
39
0
210
0
220
0
230
1
0
LINE
5
B2
100
AcDbEntity
8
2
62
256
6
ByLayer
370
13
48
1
60
0
100
AcDbLine
10
142.539708
20
7
30
0
11
153
21
7
31
0
39
0
210
0
220
0
230
1
0
LINE
5
B3
100
AcDbEntity
8
2
62
256
6
ByLayer
370
13
48
1
60
0
100
AcDbLine
10
142.539708
20
-7
30
0
11
153
21
-7
31
0
39
0
210
0
220
0
230
1
0
LINE
5
B4
100
AcDbEntity
8
1
62
256
6
ByLayer
370
18
48
1
60
1
100
AcDbLine
10
151
20
7
30
0
11
151.460784
21
3.500002
31
0
39
0
210
0
220
0
230
1
0
LINE
5
B5
100
AcDbEntity
8
1
62
256
6
ByLayer
370
18
48
1
60
1
100
AcDbLine
10
151.460784
20
3.500002
30
0
11
150.539216
21
3.499998
31
0
39
0
210
0
220
0
230
1
0
LINE
5
B6
100
AcDbEntity
8
1
62
256
6
ByLayer
370
18
48
1
60
1
100
AcDbLine
10
150.539216
20
3.499998
30
0
11
151
21
7
31
0
39
0
210
0
220
0
230
1
0
LINE
5
B7
100
AcDbEntity
8
1
62
256
6
ByLayer
370
18
48
1
60
1
100
AcDbLine
10
151
20
-7
30
0
11
150.539216
21
-3.500002
31
0
39
0
210
0
220
0
230
1
0
LINE
5
B8
100
AcDbEntity
8
1
62
256
6
ByLayer
370
18
48
1
60
1
100
AcDbLine
10
150.539216
20
-3.500002
30
0
11
151.460784
21
-3.499998
31
0
39
0
210
0
220
0
230
1
0
LINE
5
B9
100
AcDbEntity
8
1
62
256
6
ByLayer
370
18
48
1
60
1
100
AcDbLine
10
151.460784
20
-3.499998
30
0
11
151
21
-7
31
0
39
0
210
0
220
0
230
1
0
LINE
5
BA
100
AcDbEntity
8
SK2
62
256
6
ByLayer
370
13
48
1
60
0
100
AcDbLine
10
144.042957
20
-1.491762
30
0
11
150.682423
21
-19.733545
31
0
39
0
210
0
220
0
230
1
0
LINE
5
BB
100
AcDbEntity
8
SK2
62
256
6
ByLayer
370
13
48
1
60
0
100
AcDbLine
10
144.042957
20
1.491762
30
0
11
150.682423
21
19.733545
31
0
39
0
210
0
220
0
230
1
0
LINE
5
BC
100
AcDbEntity
8
1
62
256
6
ByLayer
370
18
48
1
60
1
100
AcDbLine
10
149.998383
20
-17.85416
30
0
11
153.051575
21
-16.082064
31
0
39
0
210
0
220
0
230
1
0
LINE
5
BD
100
AcDbEntity
8
1
62
256
6
ByLayer
370
18
48
1
60
1
100
AcDbLine
10
153.051575
20
-16.082064
30
0
11
153.406196
21
-16.93267
31
0
39
0
210
0
220
0
230
1
0
LINE
5
BE
100
AcDbEntity
8
1
62
256
6
ByLayer
370
18
48
1
60
1
100
AcDbLine
10
153.406196
20
-16.93267
30
0
11
149.998383
21
-17.85416
31
0
39
0
210
0
220
0
230
1
0
LINE
5
BF
100
AcDbEntity
8
1
62
256
6
ByLayer
370
18
48
1
60
1
100
AcDbLine
10
149.998383
20
17.85416
30
0
11
153.406193
21
16.932671
31
0
39
0
210
0
220
0
230
1
0
LINE
5
C0
100
AcDbEntity
8
1
62
256
6
ByLayer
370
18
48
1
60
1
100
AcDbLine
10
153.406193
20
16.932671
30
0
11
153.051579
21
16.082063
31
0
39
0
210
0
220
0
230
1
0
LINE
5
C1
100
AcDbEntity
8
1
62
256
6
ByLayer
370
18
48
1
60
1
100
AcDbLine
10
153.051579
20
16.082063
30
0
11
149.998383
21
17.85416
31
0
39
0
210
0
220
0
230
1
0
LINE
5
123
100
AcDbEntity
8
1
62
256
6
ByLayer
370
18
48
1
60
1
100
AcDbLine
10
-54.5
20
8
30
0
11
-54.039216
21
4.500002
31
0
39
0
210
0
220
0
230
1
0
LINE
5
124
100
AcDbEntity
8
1
62
256
6
ByLayer
370
18
48
1
60
1
100
AcDbLine
10
-54.039216
20
4.500002
30
0
11
-54.960784
21
4.499998
31
0
39
0
210
0
220
0
230
1
0
LINE
5
125
100
AcDbEntity
8
1
62
256
6
ByLayer
370
18
48
1
60
1
100
AcDbLine
10
-54.960784
20
4.499998
30
0
11
-54.5
21
8
31
0
39
0
210
0
220
0
230
1
0
LINE
5
127
100
AcDbEntity
8
1
62
256
6
ByLayer
370
18
48
1
60
1
100
AcDbLine
10
-54.5
20
-8
30
0
11
-54.960784
21
-4.500002
31
0
39
0
210
0
220
0
230
1
0
LINE
5
128
100
AcDbEntity
8
1
62
256
6
ByLayer
370
18
48
1
60
1
100
AcDbLine
10
-54.960784
20
-4.500002
30
0
11
-54.039216
21
-4.499998
31
0
39
0
210
0
220
0
230
1
0
LINE
5
129
100
AcDbEntity
8
1
62
256
6
ByLayer
370
18
48
1
60
1
100
AcDbLine
10
-54.039216
20
-4.499998
30
0
11
-54.5
21
-8
31
0
39
0
210
0
220
0
230
1
0
LINE
5
12D
100
AcDbEntity
8
1
62
256
6
ByLayer
370
18
48
1
60
1
100
AcDbLine
10
151
20
7
30
0
11
151.460784
21
3.500002
31
0
39
0
210
0
220
0
230
1
0
LINE
5
12E
100
AcDbEntity
8
1
62
256
6
ByLayer
370
18
48
1
60
1
100
AcDbLine
10
151.460784
20
3.500002
30
0
11
150.539216
21
3.499998
31
0
39
0
210
0
220
0
230
1
0
LINE
5
12F
100
AcDbEntity
8
1
62
256
6
ByLayer
370
18
48
1
60
1
100
AcDbLine
10
150.539216
20
3.499998
30
0
11
151
21
7
31
0
39
0
210
0
220
0
230
1
0
LINE
5
131
100
AcDbEntity
8
1
62
256
6
ByLayer
370
18
48
1
60
1
100
AcDbLine
10
151
20
-7
30
0
11
150.539216
21
-3.500002
31
0
39
0
210
0
220
0
230
1
0
LINE
5
132
100
AcDbEntity
8
1
62
256
6
ByLayer
370
18
48
1
60
1
100
AcDbLine
10
150.539216
20
-3.500002
30
0
11
151.460784
21
-3.499998
31
0
39
0
210
0
220
0
230
1
0
LINE
5
133
100
AcDbEntity
8
1
62
256
6
ByLayer
370
18
48
1
60
1
100
AcDbLine
10
151.460784
20
-3.499998
30
0
11
151
21
-7
31
0
39
0
210
0
220
0
230
1
0
LINE
5
136
100
AcDbEntity
8
1
62
256
6
ByLayer
370
18
48
1
60
1
100
AcDbLine
10
149.998383
20
-17.85416
30
0
11
153.051575
21
-16.082064
31
0
39
0
210
0
220
0
230
1
0
LINE
5
137
100
AcDbEntity
8
1
62
256
6
ByLayer
370
18
48
1
60
1
100
AcDbLine
10
153.051575
20
-16.082064
30
0
11
153.406196
21
-16.93267
31
0
39
0
210
0
220
0
230
1
0
LINE
5
138
100
AcDbEntity
8
1
62
256
6
ByLayer
370
18
48
1
60
1
100
AcDbLine
10
153.406196
20
-16.93267
30
0
11
149.998383
21
-17.85416
31
0
39
0
210
0
220
0
230
1
0
LINE
5
13A
100
AcDbEntity
8
1
62
256
6
ByLayer
370
18
48
1
60
1
100
AcDbLine
10
149.998383
20
17.85416
30
0
11
153.406193
21
16.932671
31
0
39
0
210
0
220
0
230
1
0
LINE
5
13B
100
AcDbEntity
8
1
62
256
6
ByLayer
370
18
48
1
60
1
100
AcDbLine
10
153.406193
20
16.932671
30
0
11
153.051579
21
16.082063
31
0
39
0
210
0
220
0
230
1
0
LINE
5
13C
100
AcDbEntity
8
1
62
256
6
ByLayer
370
18
48
1
60
1
100
AcDbLine
10
153.051579
20
16.082063
30
0
11
149.998383
21
17.85416
31
0
39
0
210
0
220
0
230
1
0
MTEXT
5
11F
100
AcDbEntity
8
SK2
62
256
6
ByLayer
370
18
48
1
60
0
100
AcDbMText
10
-55.841114
20
19.658438
30
0
210
0
220
0
230
1
1
%%c
40
3
41
0
44
1.084337
50
90
71
7
72
5
7
iso_b_vert
0
MTEXT
5
122
100
AcDbEntity
8
SK2
62
256
6
ByLayer
370
18
48
1
60
0
100
AcDbMText
10
-55.841114
20
25.635
30
0
210
0
220
0
230
1
1
\W0.7022;16.000
40
3
41
0
44
1.084337
50
90
71
7
72
5
7
iso_b_vert
0
MTEXT
5
12B
100
AcDbEntity
8
2
62
256
6
ByLayer
370
18
48
1
60
0
100
AcDbMText
10
149.658886
20
18.658438
30
0
210
0
220
0
230
1
1
%%c
40
3
41
0
44
1.084337
50
90
71
7
72
5
7
iso_b_vert
0
MTEXT
5
12C
100
AcDbEntity
8
2
62
256
6
ByLayer
370
18
48
1
60
0
100
AcDbMText
10
149.658886
20
24.635
30
0
210
0
220
0
230
1
1
\W0.7237;14.000
40
3
41
0
44
1.084337
50
90
71
7
72
5
7
iso_b_vert
0
MTEXT
5
135
100
AcDbEntity
8
SK2
62
256
6
ByLayer
370
18
48
1
60
0
100
AcDbMText
10
163.409114
20
3.734657
30
0
210
0
220
0
230
1
1
\W0.7071;140%%d
40
3
41
0
44
1.084337
50
270
71
7
72
5
7
iso_b_vert
0
MTEXT
5
13E
100
AcDbEntity
8
SK6
62
256
6
ByLayer
370
18
48
1
60
0
100
AcDbMText
10
23.89686
20
-67.114886
30
0
210
0
220
0
230
1
1
\W0.7499;H85814.0
40
3
41
0
44
1.084337
50
0
71
7
72
5
7
iso_b_vert
0
HATCH
5
126
100
AcDbEntity
8
SK2
62
256
6
ByLayer
370
13
48
1
60
0
100
AcDbHatch
10
0
20
0
30
0
210
0
220
0
230
1
2
ANSI31
70
0
71
0
91
1
92
5
93
3
72
1
10
-54.5
20
8
11
-54.0392162584472
21
4.50000169255318
72
1
10
-54.0392162584472
20
4.50000169255318
11
-54.9607837415528
21
4.49999830744682
72
1
10
-54.9607837415528
20
4.49999830744682
11
-54.5
21
8
97
0
75
0
76
1
52
0
41
0.0062
77
0
78
1
53
45
43
0
44
0
45
-0.0139193969876572
46
0.0139193969876572
79
0
47
0
98
1
10
0
20
0
0
HATCH
5
12A
100
AcDbEntity
8
SK2
62
256
6
ByLayer
370
13
48
1
60
0
100
AcDbHatch
10
0
20
0
30
0
210
0
220
0
230
1
2
ANSI31
70
0
71
0
91
1
92
5
93
3
72
1
10
-54.5
20
-8
11
-54.9607837415528
21
-4.50000169255318
72
1
10
-54.9607837415528
20
-4.50000169255318
11
-54.0392162584472
21
-4.49999830744682
72
1
10
-54.0392162584472
20
-4.49999830744682
11
-54.5
21
-8
97
0
75
0
76
1
52
0
41
0.0062
77
0
78
1
53
45
43
0
44
0
45
-0.0139193969876572
46
0.0139193969876572
79
0
47
0
98
1
10
0
20
0
0
HATCH
5
130
100
AcDbEntity
8
2
62
256
6
ByLayer
370
13
48
1
60
0
100
AcDbHatch
10
0
20
0
30
0
210
0
220
0
230
1
2
ANSI31
70
0
71
0
91
1
92
5
93
3
72
1
10
151
20
7
11
151.460783741553
21
3.50000169255318
72
1
10
151.460783741553
20
3.50000169255318
11
150.539216258447
21
3.49999830744682
72
1
10
150.539216258447
20
3.49999830744682
11
151
21
7
97
0
75
0
76
1
52
0
41
0.0062
77
0
78
1
53
45
43
0
44
0
45
-0.0139193969876572
46
0.0139193969876572
79
0
47
0
98
1
10
0
20
0
0
HATCH
5
134
100
AcDbEntity
8
2
62
256
6
ByLayer
370
13
48
1
60
0
100
AcDbHatch
10
0
20
0
30
0
210
0
220
0
230
1
2
ANSI31
70
0
71
0
91
1
92
5
93
3
72
1
10
151
20
-7
11
150.539216258447
21
-3.50000169255318
72
1
10
150.539216258447
20
-3.50000169255318
11
151.460783741553
21
-3.49999830744682
72
1
10
151.460783741553
20
-3.49999830744682
11
151
21
-7
97
0
75
0
76
1
52
0
41
0.0062
77
0
78
1
53
45
43
0
44
0
45
-0.0139193969876572
46
0.0139193969876572
79
0
47
0
98
1
10
0
20
0
0
HATCH
5
139
100
AcDbEntity
8
SK2
62
256
6
ByLayer
370
13
48
1
60
0
100
AcDbHatch
10
0
20
0
30
0
210
0
220
0
230
1
2
ANSI31
70
0
71
0
91
1
92
5
93
3
72
1
10
149.998382723188
20
-17.8541597949323
11
153.051575425693
21
-16.0820638240608
72
1
10
153.051575425693
20
-16.0820638240608
11
153.406195833975
21
-16.9326700737197
72
1
10
153.406195833975
20
-16.9326700737197
11
149.998382723188
21
-17.8541597949323
97
0
75
0
76
1
52
0
41
0.0062
77
0
78
1
53
45
43
0
44
0
45
-0.0139193969876572
46
0.0139193969876572
79
0
47
0
98
1
10
0
20
0
0
HATCH
5
13D
100
AcDbEntity
8
SK2
62
256
6
ByLayer
370
13
48
1
60
0
100
AcDbHatch
10
0
20
0
30
0
210
0
220
0
230
1
2
ANSI31
70
0
71
0
91
1
92
5
93
3
72
1
10
149.998382723188
20
17.8541597949323
11
153.406192709519
21
16.9326713763017
72
1
10
153.406192709519
20
16.9326713763017
11
153.051578550149
21
16.0820625214788
72
1
10
153.051578550149
20
16.0820625214788
11
149.998382723188
21
17.8541597949323
97
0
75
0
76
1
52
0
41
0.0062
77
0
78
1
53
45
43
0
44
0
45
-0.0139193969876572
46
0.0139193969876572
79
0
47
0
98
1
10
0
20
0
0
DIMENSION
5
141
100
AcDbEntity
8
SK2
62
256
6
ByLayer
370
18
48
1
60
0
100
AcDbDimension
2
_U0
10
143.5
20
-46.555392
30
0
11
47.75
21
-46.555392
31
0
70
32
71
1
72
1
41
1
210
0
220
0
230
1
3
Standard
100
AcDbAlignedDimension
13
-48
23
-8
33
0
14
143.5
24
0
34
0
50
0
100
AcDbRotatedDimension
1001
ACAD
1000
DSTYLE
1002
{
1070
   371
1070
    13
1070
   372
1070
    13
1070
     3
1000

1070
   170
1070
     0
1070
   144
1040
1.0
1070
   277
1070
     2
1070
   284
1070
     8
1070
   278
1070
    46
1070
   146
1040
1.166667
1070
   345
1005
16
1070
   347
1005
16
1070
   346
1005
16
1070
   344
1005
0
1070
   343
1005
0
1070
   172
1070
     1
1070
    76
1070
     0
1070
    75
1070
     0
1070
   282
1070
     0
1070
   281
1070
     0
1070
    71
1070
     0
1070
    74
1070
     0
1070
   279
1070
     0
1070
   173
1070
     1
1070
   340
1005
120
1070
   271
1070
     2
1070
   272
1070
     3
1070
    77
1070
     1
1070
    73
1070
     1
1070
   171
1070
     3
1070
   274
1070
     4
1070
   177
1070
     2
1070
   176
1070
     2
1070
   178
1070
     2
1070
    78
1070
     8
1070
    48
1040
-0.1
1070
    41
1040
3.5
1070
   147
1040
1.5
1070
    42
1040
1.5875
1070
    44
1040
2.0
1070
   140
1040
3.0
1002
}
1001
ACAD_DSTYLE_DIM_LINETYPE
1070
   380
1005
16
1001
ACAD_DSTYLE_DIM_EXT1_LINETYPE
1070
   381
1005
16
1001
ACAD_DSTYLE_DIM_EXT2_LINETYPE
1070
   382
1005
16
0
DIMENSION
5
15A
100
AcDbEntity
8
SK2
62
256
6
ByLayer
370
18
48
1
60
0
100
AcDbDimension
2
_U1
10
3
20
-36.555392
30
0
11
73.25
21
-36.555392
31
0
70
32
71
1
72
1
41
1
210
0
220
0
230
1
3
Standard
100
AcDbAlignedDimension
13
143.5
23
0
33
0
14
3
24
-7
34
0
50
0
100
AcDbRotatedDimension
1001
ACAD
1000
DSTYLE
1002
{
1070
   371
1070
    13
1070
   372
1070
    13
1070
     3
1000

1070
   170
1070
     0
1070
   144
1040
1.0
1070
   277
1070
     2
1070
   284
1070
     8
1070
   278
1070
    46
1070
   146
1040
1.166667
1070
   345
1005
16
1070
   347
1005
16
1070
   346
1005
16
1070
   344
1005
0
1070
   343
1005
0
1070
   172
1070
     1
1070
    76
1070
     0
1070
    75
1070
     0
1070
   282
1070
     0
1070
   281
1070
     0
1070
    71
1070
     0
1070
    74
1070
     0
1070
   279
1070
     0
1070
   173
1070
     1
1070
   340
1005
120
1070
   271
1070
     2
1070
   272
1070
     3
1070
    77
1070
     1
1070
    73
1070
     1
1070
   171
1070
     3
1070
   274
1070
     4
1070
   177
1070
     2
1070
   176
1070
     2
1070
   178
1070
     2
1070
    78
1070
     8
1070
    48
1040
-0.1
1070
    41
1040
3.5
1070
   147
1040
1.5
1070
    42
1040
1.5875
1070
    44
1040
2.0
1070
   140
1040
3.0
1002
}
1001
ACAD_DSTYLE_DIM_LINETYPE
1070
   380
1005
16
1001
ACAD_DSTYLE_DIM_EXT1_LINETYPE
1070
   381
1005
16
1001
ACAD_DSTYLE_DIM_EXT2_LINETYPE
1070
   382
1005
16
0
DIMENSION
5
172
100
AcDbEntity
8
SK2
62
256
6
ByLayer
370
18
48
1
60
0
100
AcDbDimension
2
_U2
10
0
20
-36.555392
30
0
11
-24
21
-36.555392
31
0
70
32
71
1
72
1
41
1
210
0
220
0
230
1
3
Standard
100
AcDbAlignedDimension
13
-48
23
-8
33
0
14
0
24
-8
34
0
50
0
100
AcDbRotatedDimension
1001
ACAD
1000
DSTYLE
1002
{
1070
   371
1070
    13
1070
   372
1070
    13
1070
     3
1000

1070
   170
1070
     0
1070
   144
1040
1.0
1070
   277
1070
     2
1070
   284
1070
     8
1070
   278
1070
    46
1070
   146
1040
1.166667
1070
   345
1005
16
1070
   347
1005
16
1070
   346
1005
16
1070
   344
1005
0
1070
   343
1005
0
1070
   172
1070
     1
1070
    76
1070
     0
1070
    75
1070
     0
1070
   282
1070
     0
1070
   281
1070
     0
1070
    71
1070
     0
1070
    74
1070
     0
1070
   279
1070
     0
1070
   173
1070
     1
1070
   340
1005
120
1070
   271
1070
     2
1070
   272
1070
     3
1070
    77
1070
     1
1070
    73
1070
     1
1070
   171
1070
     3
1070
   274
1070
     4
1070
   177
1070
     2
1070
   176
1070
     2
1070
   178
1070
     2
1070
    78
1070
     8
1070
    48
1040
-0.1
1070
    41
1040
3.5
1070
   147
1040
1.5
1070
    42
1040
1.5875
1070
    44
1040
2.0
1070
   140
1040
3.0
1002
}
1001
ACAD_DSTYLE_DIM_LINETYPE
1070
   380
1005
16
1001
ACAD_DSTYLE_DIM_EXT1_LINETYPE
1070
   381
1005
16
1001
ACAD_DSTYLE_DIM_EXT2_LINETYPE
1070
   382
1005
16
0
DIMENSION
5
18A
100
AcDbEntity
8
SK2
62
256
6
ByLayer
370
18
48
1
60
0
100
AcDbDimension
2
_U3
10
19
20
33.555392
30
0
11
81.25
21
33.555392
31
0
70
32
71
1
72
1
41
1
210
0
220
0
230
1
3
Standard
100
AcDbAlignedDimension
13
143.5
23
0
33
0
14
19
24
7
34
0
50
0
100
AcDbRotatedDimension
1001
ACAD
1000
DSTYLE
1002
{
1070
   371
1070
    13
1070
   372
1070
    13
1070
     3
1000

1070
   170
1070
     0
1070
   144
1040
1.0
1070
   277
1070
     2
1070
   284
1070
     8
1070
   278
1070
    46
1070
   146
1040
1.166667
1070
   345
1005
16
1070
   347
1005
16
1070
   346
1005
16
1070
   344
1005
0
1070
   343
1005
0
1070
   172
1070
     1
1070
    76
1070
     0
1070
    75
1070
     0
1070
   282
1070
     0
1070
   281
1070
     0
1070
    71
1070
     0
1070
    74
1070
     0
1070
   279
1070
     0
1070
   173
1070
     1
1070
   340
1005
120
1070
   271
1070
     2
1070
   272
1070
     3
1070
    77
1070
     1
1070
    73
1070
     1
1070
   171
1070
     3
1070
   274
1070
     4
1070
   177
1070
     2
1070
   176
1070
     2
1070
   178
1070
     2
1070
    78
1070
     8
1070
    48
1040
-0.1
1070
    41
1040
3.5
1070
   147
1040
1.5
1070
    42
1040
1.5875
1070
    44
1040
2.0
1070
   140
1040
3.0
1002
}
1001
ACAD_DSTYLE_DIM_LINETYPE
1070
   380
1005
16
1001
ACAD_DSTYLE_DIM_EXT1_LINETYPE
1070
   381
1005
16
1001
ACAD_DSTYLE_DIM_EXT2_LINETYPE
1070
   382
1005
16
0
ENDSEC
0
SECTION
2
OBJECTS
0
DICTIONARY
5
212
330
0
100
AcDbDictionary
280
0
281
1
3
ACAD_GROUP
350
213
3
ACAD_MLINESTYLE
350
214
0
DICTIONARY
5
213
330
0
100
AcDbDictionary
280
0
281
1
0
DICTIONARY
5
214
330
0
100
AcDbDictionary
280
0
281
1
3
Standard
350
18
0
MLINESTYLE
5
18
330
214
100
AcDbMlineStyle
2
Standard
70
0
3

62
256
51
90
52
90
71
2
49
-0.5
62
256
6
ByLayer
49
0.5
62
256
6
ByLayer
0
RASTERVARIABLES
5
200
330

100
AcDbRasterVariables
90
0
70
1
71
1
72
1
0
ENDSEC
0
EOF
