0
SECTION
2
HEADER
9
$ACADVER
1
AC1015
9
$DWGCODEPAGE
3
ANSI_1252
9
$HANDSEED
5
23b
9
$ANGBASE
50
0
9
$ANGDIR
70
0
9
$ATTMODE
70
1
9
$AUNITS
70
0
9
$AUPREC
70
0
9
$CECOLOR
62
256
9
$CELTSCALE
40
1
9
$CELTYPE
6
ByLayer
9
$CELWEIGHT
370
18
9
$CLAYER
8
0
9
$CMLJUST
70
0
9
$CMLSCALE
40
1
9
$CMLSTYLE
2
Standard
9
$DIMSTYLE
2
Standard
9
$TEXTSIZE
40
0.2
9
$TEXTSTYLE
7
Standard
9
$LUNITS
70
2
9
$LUPREC
70
4
9
$EXTNAMES
290
1
9
$INSUNITS
70
4
9
$LTSCALE
40
1
9
$LWDISPLAY
290
1
9
$PDMODE
70
0
9
$PDSIZE
40
0
9
$PLINEGEN
70
0
0
ENDSEC
0
SECTION
2
CLASSES
0
CLASS
1
RASTERVARIABLES
2
AcDbRasterVariables
3
ISM
90
0
280
0
281
0
0
ENDSEC
0
SECTION
2
TABLES
0
TABLE
2
VPORT
5
231
100
AcDbSymbolTable
0
VPORT
5
1
100
AcDbSymbolTableRecord
100
AcDbViewportTableRecord
2
*Active
70
0
10
0
20
0
11
1
21
1
12
-1
22
1
13
0
23
0
14
0.5
24
0.5
15
10
25
10
16
0
26
0
36
1
17
0
27
0
37
0
0
ENDTAB
0
TABLE
2
LTYPE
5
232
100
AcDbSymbolTable
0
LTYPE
5
14
100
AcDbSymbolTableRecord
100
AcDbLinetypeTableRecord
70
0
2
ByBlock
3

72
65
73
0
40
0
0
LTYPE
5
15
100
AcDbSymbolTableRecord
100
AcDbLinetypeTableRecord
70
0
2
ByLayer
3

72
65
73
0
40
0
0
LTYPE
5
16
100
AcDbSymbolTableRecord
100
AcDbLinetypeTableRecord
70
0
2
Continuous
3
Solid line
72
65
73
0
40
0
0
LTYPE
5
6E
100
AcDbSymbolTableRecord
100
AcDbLinetypeTableRecord
70
0
2
CENTER
3
____ _ ____ _ ____ _ ____
72
65
73
4
40
47.5
49
22
74
0
49
-8.5
74
0
49
8.5
74
0
49
-8.5
74
0
0
LTYPE
5
6F
100
AcDbSymbolTableRecord
100
AcDbLinetypeTableRecord
70
0
2
DASHED
3
__ __ __ __ __ __ __ __ __
72
65
73
2
40
25.72
49
12.86
74
0
49
-12.86
74
0
0
ENDTAB
0
TABLE
2
LAYER
5
233
100
AcDbSymbolTable
0
LAYER
5
10
100
AcDbSymbolTableRecord
100
AcDbLayerTableRecord
2
0
70
0
62
7
6
Continuous
290
1
370
-3
390
0
0
LAYER
5
71
100
AcDbSymbolTableRecord
100
AcDbLayerTableRecord
2
81
70
0
62
-3
6
Continuous
290
1
370
-3
390
0
0
LAYER
5
73
100
AcDbSymbolTableRecord
100
AcDbLayerTableRecord
2
80
70
0
62
-6
6
Continuous
290
1
370
-3
390
0
0
LAYER
5
75
100
AcDbSymbolTableRecord
100
AcDbLayerTableRecord
2
1
70
0
62
4
6
Continuous
290
1
370
-3
390
0
0
LAYER
5
7E
100
AcDbSymbolTableRecord
100
AcDbLayerTableRecord
2
4
70
0
62
-2
6
CENTER
290
1
370
-3
390
0
0
LAYER
5
B0
100
AcDbSymbolTableRecord
100
AcDbLayerTableRecord
2
2
70
0
62
7
6
Continuous
290
1
370
-3
390
0
0
LAYER
5
160
100
AcDbSymbolTableRecord
100
AcDbLayerTableRecord
2
Defpoints
70
0
62
7
6
Continuous
290
0
370
-3
390
0
0
LAYER
5
21d
100
AcDbSymbolTableRecord
100
AcDbLayerTableRecord
2
SK4
70
0
62
2
6
CENTER
290
1
370
-3
390
0
0
LAYER
5
21e
100
AcDbSymbolTableRecord
100
AcDbLayerTableRecord
2
SK1
70
0
62
4
6
Continuous
290
1
370
-3
390
0
0
LAYER
5
21f
100
AcDbSymbolTableRecord
100
AcDbLayerTableRecord
2
SK2
70
0
62
7
6
Continuous
290
1
370
-3
390
0
0
LAYER
5
220
100
AcDbSymbolTableRecord
100
AcDbLayerTableRecord
2
SK6
70
0
62
5
6
Continuous
290
1
370
-3
390
0
0
ENDTAB
0
TABLE
2
STYLE
5
234
100
AcDbSymbolTable
0
STYLE
5
11
100
AcDbSymbolTableRecord
100
AcDbTextStyleTableRecord
2
Standard
3
txt
70
0
71
0
40
0
41
1
42
0
50
0
0
STYLE
5
13C
100
AcDbSymbolTableRecord
100
AcDbTextStyleTableRecord
2
iso_b_vert
3
simplex.shx
70
0
71
0
40
0
41
1
42
0
50
0
0
STYLE
5
13D
100
AcDbSymbolTableRecord
100
AcDbTextStyleTableRecord
2
DWGDirectTextStyle
3
simplex
70
0
71
0
40
0
41
1
42
0
50
0
0
ENDTAB
0
TABLE
2
DIMSTYLE
5
235
100
AcDbSymbolTable
100
AcDbDimStyleTable
0
DIMSTYLE
105
27
100
AcDbSymbolTableRecord
100
AcDbDimStyleTableRecord
2
Standard
70
0
3
<>
41
0.18
42
0.0625
44
0.18
140
0.18
147
0.09
73
0
74
0
77
1
271
2
275
0
278
52
280
0
340
11
0
ENDTAB
0
TABLE
2
VIEW
5
236
100
AcDbSymbolTable
0
ENDTAB
0
TABLE
2
UCS
5
237
100
AcDbSymbolTable
0
ENDTAB
0
TABLE
2
APPID
5
238
100
AcDbSymbolTable
0
APPID
5
12
100
AcDbSymbolTableRecord
100
AcDbRegAppTableRecord
2
ACAD
70
0
0
APPID
5
15C
100
AcDbSymbolTableRecord
100
AcDbRegAppTableRecord
2
ACAD_DSTYLE_DIMBREAK
70
0
0
APPID
5
1DC
100
AcDbSymbolTableRecord
100
AcDbRegAppTableRecord
2
ACAD_DSTYLE_DIM_LINETYPE
70
0
0
APPID
5
1DD
100
AcDbSymbolTableRecord
100
AcDbRegAppTableRecord
2
ACAD_DSTYLE_DIM_EXT1_LINETYPE
70
0
0
APPID
5
1DE
100
AcDbSymbolTableRecord
100
AcDbRegAppTableRecord
2
ACAD_DSTYLE_DIM_EXT2_LINETYPE
70
0
0
APPID
5
219
100
AcDbSymbolTableRecord
100
AcDbRegAppTableRecord
2
ACAD_MLEADERVER
70
0
0
ENDTAB
0
TABLE
2
BLOCK_RECORD
5
239
100
AcDbSymbolTable
0
BLOCK_RECORD
5
1F
100
AcDbSymbolTableRecord
100
AcDbBlockTableRecord
2
*Model_Space
340
0
70
0
0
BLOCK_RECORD
5
1B
100
AcDbSymbolTableRecord
100
AcDbBlockTableRecord
2
*Paper_Space
340
0
70
0
0
BLOCK_RECORD
5
23
100
AcDbSymbolTableRecord
100
AcDbBlockTableRecord
2
*Paper_Space0
340
0
70
0
0
BLOCK_RECORD
5
161
100
AcDbSymbolTableRecord
100
AcDbBlockTableRecord
2
*D1
340
0
70
0
0
BLOCK_RECORD
5
16D
100
AcDbSymbolTableRecord
100
AcDbBlockTableRecord
2
_U0
340
0
70
0
0
BLOCK_RECORD
5
179
100
AcDbSymbolTableRecord
100
AcDbBlockTableRecord
2
*D3
340
0
70
0
0
BLOCK_RECORD
5
185
100
AcDbSymbolTableRecord
100
AcDbBlockTableRecord
2
_U1
340
0
70
0
0
BLOCK_RECORD
5
191
100
AcDbSymbolTableRecord
100
AcDbBlockTableRecord
2
*D5
340
0
70
0
0
BLOCK_RECORD
5
19D
100
AcDbSymbolTableRecord
100
AcDbBlockTableRecord
2
_U2
340
0
70
0
0
BLOCK_RECORD
5
1A9
100
AcDbSymbolTableRecord
100
AcDbBlockTableRecord
2
*D7
340
0
70
0
0
BLOCK_RECORD
5
1B5
100
AcDbSymbolTableRecord
100
AcDbBlockTableRecord
2
_U3
340
0
70
0
0
ENDTAB
0
ENDSEC
0
SECTION
2
BLOCKS
0
BLOCK
5
20
100
AcDbEntity
8
0
100
AcDbBlockBegin
2
*Model_Space
70
0
10
0
20
0
30
0
3
*Model_Space
0
ENDBLK
5
21
100
AcDbEntity
8
0
100
AcDbBlockEnd
0
BLOCK
5
1C
100
AcDbEntity
8
0
100
AcDbBlockBegin
2
*Paper_Space
70
0
10
0
20
0
30
0
3
*Paper_Space
0
ENDBLK
5
1D
100
AcDbEntity
8
0
100
AcDbBlockEnd
0
BLOCK
5
24
100
AcDbEntity
8
0
100
AcDbBlockBegin
2
*Paper_Space0
70
0
10
0
20
0
30
0
3
*Paper_Space0
0
ENDBLK
5
25
100
AcDbEntity
8
0
100
AcDbBlockEnd
0
BLOCK
5
162
100
AcDbEntity
8
0
100
AcDbBlockBegin
2
*D1
70
1
10
0
20
0
30
0
3
*D1
0
LINE
5
164
100
AcDbEntity
8
0
62
256
6
ByLayer
370
-2
48
1
60
0
100
AcDbLine
10
-56
20
-14.2875
30
0
11
-56
21
-47.952229
31
0
39
0
210
0
220
0
230
1
0
LINE
5
165
100
AcDbEntity
8
0
62
256
6
ByLayer
370
-2
48
1
60
0
100
AcDbLine
10
145.1
20
-1.5875
30
0
11
145.1
21
-47.952229
31
0
39
0
210
0
220
0
230
1
0
LINE
5
166
100
AcDbEntity
8
0
62
256
6
ByLayer
370
-2
48
1
60
0
100
AcDbLine
10
-52.5
20
-45.952229
30
0
11
141.6
21
-45.952229
31
0
39
0
210
0
220
0
230
1
0
SOLID
5
167
100
AcDbEntity
8
0
62
256
6
ByLayer
370
-1
48
1
60
0
100
AcDbTrace
10
-52.5
20
-45.368896
30
0
11
-52.5
21
-46.535563
31
0
12
-56
22
-45.952229
32
0
13
-56
23
-45.952229
33
0
39
0
210
0
220
0
230
1
0
SOLID
5
168
100
AcDbEntity
8
0
62
256
6
ByLayer
370
-1
48
1
60
0
100
AcDbTrace
10
141.6
20
-46.535563
30
0
11
141.6
21
-45.368896
31
0
12
145.1
22
-45.952229
32
0
13
145.1
23
-45.952229
33
0
39
0
210
0
220
0
230
1
0
MTEXT
5
169
100
AcDbEntity
8
0
62
256
6
ByLayer
370
18
48
1
60
0
100
AcDbMText
10
44.55
20
-39.952229
30
0
210
0
220
0
230
1
1
\A1;201.1
40
3
41
0
44
1
50
0
71
5
72
5
7
iso_b_vert
0
POINT
5
16A
100
AcDbEntity
8
Defpoints
62
0
6
ByLayer
370
-1
48
1
60
0
100
AcDbPoint
10
-56
20
-12.7
30
0
39
0
210
0
220
0
230
1
50
360
0
POINT
5
16B
100
AcDbEntity
8
Defpoints
62
0
6
ByLayer
370
-1
48
1
60
0
100
AcDbPoint
10
145.1
20
0
30
0
39
0
210
0
220
0
230
1
50
360
0
POINT
5
16C
100
AcDbEntity
8
Defpoints
62
0
6
ByLayer
370
-1
48
1
60
0
100
AcDbPoint
10
145.1
20
-45.952229
30
0
39
0
210
0
220
0
230
1
50
360
0
ENDBLK
5
163
100
AcDbEntity
8
0
100
AcDbBlockEnd
0
BLOCK
5
174
100
AcDbEntity
8
0
100
AcDbBlockBegin
2
_U0
70
0
10
0
20
0
30
0
3
_U0
0
MTEXT
5
16E
100
AcDbEntity
8
SK2
62
256
6
ByLayer
370
18
48
1
60
0
100
AcDbMText
10
39.696601
20
-45.067115
30
0
210
0
220
0
230
1
1
\W0.6532;201.10
40
3
41
0
44
1.084337
50
0
71
7
72
5
7
iso_b_vert
0
LINE
5
16F
100
AcDbEntity
8
SK2
62
256
6
ByLayer
370
13
48
1
60
0
100
AcDbLine
10
-56
20
-14.2875
30
0
11
-56
21
-47.952229
31
0
39
0
210
0
220
0
230
1
0
LINE
5
170
100
AcDbEntity
8
SK2
62
256
6
ByLayer
370
13
48
1
60
0
100
AcDbLine
10
145.1
20
-1.5875
30
0
11
145.1
21
-47.952229
31
0
39
0
210
0
220
0
230
1
0
LINE
5
171
100
AcDbEntity
8
SK2
62
256
6
ByLayer
370
13
48
1
60
0
100
AcDbLine
10
-56
20
-45.952229
30
0
11
145.1
21
-45.952229
31
0
39
0
210
0
220
0
230
1
0
SOLID
5
172
100
AcDbEntity
8
SK2
62
256
6
ByLayer
370
18
48
1
60
0
100
AcDbTrace
10
-56
20
-45.952229
30
0
11
-52.500002
21
-45.491446
31
0
12
-52.499998
22
-46.413013
32
0
13
-52.499998
23
-46.413013
33
0
39
0
210
0
220
0
230
1
0
SOLID
5
173
100
AcDbEntity
8
SK2
62
256
6
ByLayer
370
18
48
1
60
0
100
AcDbTrace
10
145.1
20
-45.952229
30
0
11
141.600002
21
-46.413013
31
0
12
141.599998
22
-45.491446
32
0
13
141.599998
23
-45.491446
33
0
39
0
210
0
220
0
230
1
0
ENDBLK
5
175
100
AcDbEntity
8
0
100
AcDbBlockEnd
0
BLOCK
5
17A
100
AcDbEntity
8
0
100
AcDbBlockBegin
2
*D3
70
1
10
0
20
0
30
0
3
*D3
0
LINE
5
17C
100
AcDbEntity
8
0
62
256
6
ByLayer
370
-2
48
1
60
0
100
AcDbLine
10
145.1
20
-1.5875
30
0
11
145.1
21
-37.952229
31
0
39
0
210
0
220
0
230
1
0
LINE
5
17D
100
AcDbEntity
8
0
62
256
6
ByLayer
370
-2
48
1
60
0
100
AcDbLine
10
3
20
-12.8985
30
0
11
3
21
-37.952229
31
0
39
0
210
0
220
0
230
1
0
LINE
5
17E
100
AcDbEntity
8
0
62
256
6
ByLayer
370
-2
48
1
60
0
100
AcDbLine
10
141.6
20
-35.952229
30
0
11
6.5
21
-35.952229
31
0
39
0
210
0
220
0
230
1
0
SOLID
5
17F
100
AcDbEntity
8
0
62
256
6
ByLayer
370
-1
48
1
60
0
100
AcDbTrace
10
141.6
20
-36.535563
30
0
11
141.6
21
-35.368896
31
0
12
145.1
22
-35.952229
32
0
13
145.1
23
-35.952229
33
0
39
0
210
0
220
0
230
1
0
SOLID
5
180
100
AcDbEntity
8
0
62
256
6
ByLayer
370
-1
48
1
60
0
100
AcDbTrace
10
6.5
20
-35.368896
30
0
11
6.5
21
-36.535563
31
0
12
3
22
-35.952229
32
0
13
3
23
-35.952229
33
0
39
0
210
0
220
0
230
1
0
MTEXT
5
181
100
AcDbEntity
8
0
62
256
6
ByLayer
370
18
48
1
60
0
100
AcDbMText
10
74.05
20
-29.952229
30
0
210
0
220
0
230
1
1
\A1;142.1
40
3
41
0
44
1
50
0
71
5
72
5
7
iso_b_vert
0
POINT
5
182
100
AcDbEntity
8
Defpoints
62
0
6
ByLayer
370
-1
48
1
60
0
100
AcDbPoint
10
145.1
20
0
30
0
39
0
210
0
220
0
230
1
50
360
0
POINT
5
183
100
AcDbEntity
8
Defpoints
62
0
6
ByLayer
370
-1
48
1
60
0
100
AcDbPoint
10
3
20
-11.311
30
0
39
0
210
0
220
0
230
1
50
360
0
POINT
5
184
100
AcDbEntity
8
Defpoints
62
0
6
ByLayer
370
-1
48
1
60
0
100
AcDbPoint
10
3
20
-35.952229
30
0
39
0
210
0
220
0
230
1
50
360
0
ENDBLK
5
17B
100
AcDbEntity
8
0
100
AcDbBlockEnd
0
BLOCK
5
18C
100
AcDbEntity
8
0
100
AcDbBlockBegin
2
_U1
70
0
10
0
20
0
30
0
3
_U1
0
MTEXT
5
186
100
AcDbEntity
8
SK2
62
256
6
ByLayer
370
18
48
1
60
0
100
AcDbMText
10
69.038658
20
-35.067115
30
0
210
0
220
0
230
1
1
\W0.6746;142.10
40
3
41
0
44
1.084337
50
0
71
7
72
5
7
iso_b_vert
0
LINE
5
187
100
AcDbEntity
8
SK2
62
256
6
ByLayer
370
13
48
1
60
0
100
AcDbLine
10
145.1
20
-1.5875
30
0
11
145.1
21
-37.952229
31
0
39
0
210
0
220
0
230
1
0
LINE
5
188
100
AcDbEntity
8
SK2
62
256
6
ByLayer
370
13
48
1
60
0
100
AcDbLine
10
3
20
-12.8985
30
0
11
3
21
-37.952229
31
0
39
0
210
0
220
0
230
1
0
LINE
5
189
100
AcDbEntity
8
SK2
62
256
6
ByLayer
370
13
48
1
60
0
100
AcDbLine
10
145.1
20
-35.952229
30
0
11
3
21
-35.952229
31
0
39
0
210
0
220
0
230
1
0
SOLID
5
18A
100
AcDbEntity
8
SK2
62
256
6
ByLayer
370
18
48
1
60
0
100
AcDbTrace
10
145.1
20
-35.952229
30
0
11
141.600002
21
-36.413013
31
0
12
141.599998
22
-35.491446
32
0
13
141.599998
23
-35.491446
33
0
39
0
210
0
220
0
230
1
0
SOLID
5
18B
100
AcDbEntity
8
SK2
62
256
6
ByLayer
370
18
48
1
60
0
100
AcDbTrace
10
3
20
-35.952229
30
0
11
6.499998
21
-35.491446
31
0
12
6.500002
22
-36.413013
32
0
13
6.500002
23
-36.413013
33
0
39
0
210
0
220
0
230
1
0
ENDBLK
5
18D
100
AcDbEntity
8
0
100
AcDbBlockEnd
0
BLOCK
5
192
100
AcDbEntity
8
0
100
AcDbBlockBegin
2
*D5
70
1
10
0
20
0
30
0
3
*D5
0
LINE
5
194
100
AcDbEntity
8
0
62
256
6
ByLayer
370
-2
48
1
60
0
100
AcDbLine
10
-56
20
-14.2875
30
0
11
-56
21
-37.952229
31
0
39
0
210
0
220
0
230
1
0
LINE
5
195
100
AcDbEntity
8
0
62
256
6
ByLayer
370
-2
48
1
60
0
100
AcDbLine
10
0
20
-14.2875
30
0
11
0
21
-37.952229
31
0
39
0
210
0
220
0
230
1
0
LINE
5
196
100
AcDbEntity
8
0
62
256
6
ByLayer
370
-2
48
1
60
0
100
AcDbLine
10
-52.5
20
-35.952229
30
0
11
-3.5
21
-35.952229
31
0
39
0
210
0
220
0
230
1
0
SOLID
5
197
100
AcDbEntity
8
0
62
256
6
ByLayer
370
-1
48
1
60
0
100
AcDbTrace
10
-52.5
20
-35.368896
30
0
11
-52.5
21
-36.535563
31
0
12
-56
22
-35.952229
32
0
13
-56
23
-35.952229
33
0
39
0
210
0
220
0
230
1
0
SOLID
5
198
100
AcDbEntity
8
0
62
256
6
ByLayer
370
-1
48
1
60
0
100
AcDbTrace
10
-3.5
20
-36.535563
30
0
11
-3.5
21
-35.368896
31
0
12
0
22
-35.952229
32
0
13
0
23
-35.952229
33
0
39
0
210
0
220
0
230
1
0
MTEXT
5
199
100
AcDbEntity
8
0
62
256
6
ByLayer
370
18
48
1
60
0
100
AcDbMText
10
-28
20
-29.952229
30
0
210
0
220
0
230
1
1
\A1;56
40
3
41
0
44
1
50
0
71
5
72
5
7
iso_b_vert
0
POINT
5
19A
100
AcDbEntity
8
Defpoints
62
0
6
ByLayer
370
-1
48
1
60
0
100
AcDbPoint
10
-56
20
-12.7
30
0
39
0
210
0
220
0
230
1
50
360
0
POINT
5
19B
100
AcDbEntity
8
Defpoints
62
0
6
ByLayer
370
-1
48
1
60
0
100
AcDbPoint
10
0
20
-12.7
30
0
39
0
210
0
220
0
230
1
50
360
0
POINT
5
19C
100
AcDbEntity
8
Defpoints
62
0
6
ByLayer
370
-1
48
1
60
0
100
AcDbPoint
10
0
20
-35.952229
30
0
39
0
210
0
220
0
230
1
50
360
0
ENDBLK
5
193
100
AcDbEntity
8
0
100
AcDbBlockEnd
0
BLOCK
5
1A4
100
AcDbEntity
8
0
100
AcDbBlockBegin
2
_U2
70
0
10
0
20
0
30
0
3
_U2
0
MTEXT
5
19E
100
AcDbEntity
8
SK2
62
256
6
ByLayer
370
18
48
1
60
0
100
AcDbMText
10
-32.48237
20
-35.067115
30
0
210
0
220
0
230
1
1
\W0.7468;56.00
40
3
41
0
44
1.084337
50
0
71
7
72
5
7
iso_b_vert
0
LINE
5
19F
100
AcDbEntity
8
SK2
62
256
6
ByLayer
370
13
48
1
60
0
100
AcDbLine
10
-56
20
-14.2875
30
0
11
-56
21
-37.952229
31
0
39
0
210
0
220
0
230
1
0
LINE
5
1A0
100
AcDbEntity
8
SK2
62
256
6
ByLayer
370
13
48
1
60
0
100
AcDbLine
10
0
20
-14.2875
30
0
11
0
21
-37.952229
31
0
39
0
210
0
220
0
230
1
0
LINE
5
1A1
100
AcDbEntity
8
SK2
62
256
6
ByLayer
370
13
48
1
60
0
100
AcDbLine
10
-56
20
-35.952229
30
0
11
0
21
-35.952229
31
0
39
0
210
0
220
0
230
1
0
SOLID
5
1A2
100
AcDbEntity
8
SK2
62
256
6
ByLayer
370
18
48
1
60
0
100
AcDbTrace
10
-56
20
-35.952229
30
0
11
-52.500002
21
-35.491446
31
0
12
-52.499998
22
-36.413013
32
0
13
-52.499998
23
-36.413013
33
0
39
0
210
0
220
0
230
1
0
SOLID
5
1A3
100
AcDbEntity
8
SK2
62
256
6
ByLayer
370
18
48
1
60
0
100
AcDbTrace
10
0
20
-35.952229
30
0
11
-3.499998
21
-36.413013
31
0
12
-3.500002
22
-35.491446
32
0
13
-3.500002
23
-35.491446
33
0
39
0
210
0
220
0
230
1
0
ENDBLK
5
1A5
100
AcDbEntity
8
0
100
AcDbBlockEnd
0
BLOCK
5
1AA
100
AcDbEntity
8
0
100
AcDbBlockBegin
2
*D7
70
1
10
0
20
0
30
0
3
*D7
0
LINE
5
1AC
100
AcDbEntity
8
0
62
256
6
ByLayer
370
-2
48
1
60
0
100
AcDbLine
10
145.1
20
1.5875
30
0
11
145.1
21
34.952229
31
0
39
0
210
0
220
0
230
1
0
LINE
5
1AD
100
AcDbEntity
8
0
62
256
6
ByLayer
370
-2
48
1
60
0
100
AcDbLine
10
20
20
12.8985
30
0
11
20
21
34.952229
31
0
39
0
210
0
220
0
230
1
0
LINE
5
1AE
100
AcDbEntity
8
0
62
256
6
ByLayer
370
-2
48
1
60
0
100
AcDbLine
10
141.6
20
32.952229
30
0
11
23.5
21
32.952229
31
0
39
0
210
0
220
0
230
1
0
SOLID
5
1AF
100
AcDbEntity
8
0
62
256
6
ByLayer
370
-1
48
1
60
0
100
AcDbTrace
10
141.6
20
32.368896
30
0
11
141.6
21
33.535563
31
0
12
145.1
22
32.952229
32
0
13
145.1
23
32.952229
33
0
39
0
210
0
220
0
230
1
0
SOLID
5
1B0
100
AcDbEntity
8
0
62
256
6
ByLayer
370
-1
48
1
60
0
100
AcDbTrace
10
23.5
20
33.535563
30
0
11
23.5
21
32.368896
31
0
12
20
22
32.952229
32
0
13
20
23
32.952229
33
0
39
0
210
0
220
0
230
1
0
MTEXT
5
1B1
100
AcDbEntity
8
0
62
256
6
ByLayer
370
18
48
1
60
0
100
AcDbMText
10
82.55
20
38.952229
30
0
210
0
220
0
230
1
1
\A1;125.1
40
3
41
0
44
1
50
0
71
5
72
5
7
iso_b_vert
0
POINT
5
1B2
100
AcDbEntity
8
Defpoints
62
0
6
ByLayer
370
-1
48
1
60
0
100
AcDbPoint
10
145.1
20
0
30
0
39
0
210
0
220
0
230
1
50
360
0
POINT
5
1B3
100
AcDbEntity
8
Defpoints
62
0
6
ByLayer
370
-1
48
1
60
0
100
AcDbPoint
10
20
20
11.311
30
0
39
0
210
0
220
0
230
1
50
360
0
POINT
5
1B4
100
AcDbEntity
8
Defpoints
62
0
6
ByLayer
370
-1
48
1
60
0
100
AcDbPoint
10
20
20
32.952229
30
0
39
0
210
0
220
0
230
1
50
360
0
ENDBLK
5
1AB
100
AcDbEntity
8
0
100
AcDbBlockEnd
0
BLOCK
5
1BC
100
AcDbEntity
8
0
100
AcDbBlockBegin
2
_U3
70
0
10
0
20
0
30
0
3
_U3
0
MTEXT
5
1B6
100
AcDbEntity
8
SK2
62
256
6
ByLayer
370
18
48
1
60
0
100
AcDbMText
10
77.696601
20
33.837344
30
0
210
0
220
0
230
1
1
\W0.6532;125.10
40
3
41
0
44
1.084337
50
0
71
7
72
5
7
iso_b_vert
0
LINE
5
1B7
100
AcDbEntity
8
SK2
62
256
6
ByLayer
370
13
48
1
60
0
100
AcDbLine
10
145.1
20
1.5875
30
0
11
145.1
21
34.952229
31
0
39
0
210
0
220
0
230
1
0
LINE
5
1B8
100
AcDbEntity
8
SK2
62
256
6
ByLayer
370
13
48
1
60
0
100
AcDbLine
10
20
20
12.8985
30
0
11
20
21
34.952229
31
0
39
0
210
0
220
0
230
1
0
LINE
5
1B9
100
AcDbEntity
8
SK2
62
256
6
ByLayer
370
13
48
1
60
0
100
AcDbLine
10
145.1
20
32.952229
30
0
11
20
21
32.952229
31
0
39
0
210
0
220
0
230
1
0
SOLID
5
1BA
100
AcDbEntity
8
SK2
62
256
6
ByLayer
370
18
48
1
60
0
100
AcDbTrace
10
145.1
20
32.952229
30
0
11
141.600002
21
32.491446
31
0
12
141.599998
22
33.413013
32
0
13
141.599998
23
33.413013
33
0
39
0
210
0
220
0
230
1
0
SOLID
5
1BB
100
AcDbEntity
8
SK2
62
256
6
ByLayer
370
18
48
1
60
0
100
AcDbTrace
10
20
20
32.952229
30
0
11
23.499998
21
33.413013
31
0
12
23.500002
22
32.491446
32
0
13
23.500002
23
32.491446
33
0
39
0
210
0
220
0
230
1
0
ENDBLK
5
1BD
100
AcDbEntity
8
0
100
AcDbBlockEnd
0
ENDSEC
0
SECTION
2
ENTITIES
0
ARC
5
C1
100
AcDbEntity
8
SK2
62
256
6
ByLayer
370
13
48
1
60
0
100
AcDbCircle
39
0
10
145.1
20
0
30
0
40
19
210
0
220
0
230
1
100
AcDbArc
50
290
51
70
0
ELLIPSE
5
C2
100
AcDbEntity
8
SK1
62
256
6
ByLayer
370
18
48
1
60
0
100
AcDbEllipse
10
-20.619083
20
0
30
0
11
13.6190826173124
21
-1.54317782980885E-14
31
0
210
0
220
0
230
1
40
0.932515
41
-0.624896586633934
42
0.624896586633934
0
ELLIPSE
5
C3
100
AcDbEntity
8
SK1
62
256
6
ByLayer
370
18
48
1
60
0
100
AcDbEllipse
10
-37.157058
20
0
30
0
11
-2.33287510403163E-15
21
-12.7
31
0
210
0
220
0
230
1
40
0.932515
41
-2.1956929134288
42
-0.945899740160989
0
POINT
5
70
100
AcDbEntity
8
81
62
256
6
ByLayer
370
18
48
1
60
0
100
AcDbPoint
10
145.1
20
0
30
0
39
0
210
0
220
0
230
1
50
360
0
POINT
5
72
100
AcDbEntity
8
80
62
256
6
ByLayer
370
18
48
1
60
0
100
AcDbPoint
10
0
20
0
30
0
39
0
210
0
220
0
230
1
50
360
0
POINT
5
74
100
AcDbEntity
8
1
62
256
6
ByLayer
370
18
48
1
60
1
100
AcDbPoint
10
-56
20
-12.7
30
0
39
0
210
0
220
0
230
1
50
360
0
POINT
5
76
100
AcDbEntity
8
1
62
256
6
ByLayer
370
18
48
1
60
1
100
AcDbPoint
10
145.1
20
0
30
0
39
0
210
0
220
0
230
1
50
360
0
POINT
5
77
100
AcDbEntity
8
1
62
256
6
ByLayer
370
18
48
1
60
1
100
AcDbPoint
10
145.1
20
0
30
0
39
0
210
0
220
0
230
1
50
360
0
POINT
5
78
100
AcDbEntity
8
1
62
256
6
ByLayer
370
18
48
1
60
1
100
AcDbPoint
10
3
20
-11.311
30
0
39
0
210
0
220
0
230
1
50
360
0
POINT
5
79
100
AcDbEntity
8
1
62
256
6
ByLayer
370
18
48
1
60
1
100
AcDbPoint
10
-56
20
-12.7
30
0
39
0
210
0
220
0
230
1
50
360
0
POINT
5
7A
100
AcDbEntity
8
1
62
256
6
ByLayer
370
18
48
1
60
1
100
AcDbPoint
10
0
20
-12.7
30
0
39
0
210
0
220
0
230
1
50
360
0
POINT
5
7B
100
AcDbEntity
8
1
62
256
6
ByLayer
370
18
48
1
60
1
100
AcDbPoint
10
145.1
20
0
30
0
39
0
210
0
220
0
230
1
50
360
0
POINT
5
7C
100
AcDbEntity
8
1
62
256
6
ByLayer
370
18
48
1
60
1
100
AcDbPoint
10
20
20
11.311
30
0
39
0
210
0
220
0
230
1
50
360
0
SPLINE
5
C4
100
AcDbEntity
8
1
62
256
6
ByLayer
370
18
48
1
60
0
100
AcDbSpline
70
4
71
3
72
25
73
21
40
0
40
0
40
0
40
0
40
0.125000000000008
40
0.125000000000008
40
0.250000000000017
40
0.250000000000017
40
0.375000000000025
40
0.375000000000025
40
0.437500000000027
40
0.437500000000027
40
0.468750000000025
40
0.468750000000025
40
0.500000000000024
40
0.625000000000018
40
0.625000000000018
40
0.750000000000012
40
0.750000000000012
40
0.875000000000006
40
0.875000000000006
40
1
40
1
40
1
40
1
41
1
10
10
20
-8.61091399343618
30
0
41
1
10
10.355953822452
20
-8.55867149007474
30
0
41
1
10
10.7133780421212
20
-8.51625816034849
30
0
41
1
10
11.4309501113968
20
-8.45112756448242
30
0
41
1
10
11.791099455419
20
-8.42841413707802
30
0
41
1
10
12.5139807676358
20
-8.40241753576805
30
0
41
1
10
12.8767138931792
20
-8.3991391837244
30
0
41
1
10
13.4226699330483
20
-8.40826544747765
30
0
41
1
10
13.604964830999
20
-8.41364426582825
30
0
41
1
10
13.8788616064363
20
-8.42511040966613
30
0
41
1
10
13.9700315148906
20
-8.4294902754564
30
0
41
1
10
14.1519074034653
20
-8.43931564907047
30
0
41
1
10
14.6056116811657
20
-8.46654772873765
30
0
41
1
10
15.054533553909
20
-8.50662741428212
30
0
41
1
10
15.7674033412208
20
-8.58433962516546
30
0
41
1
10
16.121134493661
20
-8.62998513516922
30
0
41
1
10
16.82391667849
20
-8.73175513999578
30
0
41
1
10
17.1729685461858
20
-8.7878722045248
30
0
41
1
10
17.8671377086129
20
-8.90738742111887
30
0
41
1
10
18.2122580247573
20
-8.97077477792516
30
0
41
1
10
18.5557652149322
20
-9.03629790003225
30
0
0
SPLINE
5
C5
100
AcDbEntity
8
1
62
256
6
ByLayer
370
18
48
1
60
0
100
AcDbSpline
70
4
71
3
72
14
73
10
40
0
40
0
40
0
40
0
40
0.25
40
0.25
40
0.5
40
0.5
40
0.75
40
0.75
40
1
40
1
40
1
40
1
41
1
10
13.7046482327152
20
7.61021496655837
30
0
41
1
10
13.3873367210201
20
7.68966330242162
30
0
41
1
10
13.0725699001161
20
7.77191270198404
30
0
41
1
10
12.4473062372776
20
7.93988196042534
30
0
41
1
10
12.1368057156739
20
8.02559920076666
30
0
41
1
10
11.5196321022341
20
8.19905893031981
30
0
41
1
10
11.2129574882104
20
8.28680426991451
30
0
41
1
10
10.6034617474004
20
8.4635756447309
30
0
41
1
10
10.3006414258989
20
8.55260935778784
30
0
41
1
10
10
20
8.64217998207494
30
0
0
SPLINE
5
C6
100
AcDbEntity
8
1
62
256
6
ByLayer
370
18
48
1
60
0
100
AcDbSpline
70
4
71
3
72
8
73
4
40
0
40
0
40
0
40
0
40
1
40
1
40
1
40
1
41
1
10
10.1841491354347
20
-8.58746431313165
30
0
41
1
10
10.1226769446469
20
-8.60567992505662
30
0
41
1
10
10.0612931895285
20
-8.62391879523349
30
0
41
1
10
10
20
-8.64217998207494
30
0
0
SPLINE
5
C7
100
AcDbEntity
8
1
62
256
6
ByLayer
370
18
48
1
60
0
100
AcDbSpline
70
4
71
3
72
25
73
21
40
0
40
0
40
0
40
0
40
0.105602759349114
40
0.105602759349114
40
0.233373793727812
40
0.233373793727812
40
0.36114482810651
40
0.36114482810651
40
0.425030345295862
40
0.425030345295862
40
0.456973103890535
40
0.456973103890535
40
0.488915862485208
40
0.616686896863906
40
0.616686896863906
40
0.744457931242604
40
0.744457931242604
40
0.872228965621302
40
0.872228965621302
40
1
40
1
40
1
40
1
41
1
10
10.1854061890111
20
8.58460950900633
30
0
41
1
10
10.4800210235343
20
8.54425051221489
30
0
41
1
10
10.7756274207171
20
8.51060808101315
30
0
41
1
10
11.4309501113968
20
8.45112756448242
30
0
41
1
10
11.7910994554189
20
8.42841413707808
30
0
41
1
10
12.5139807676358
20
8.40241753576808
30
0
41
1
10
12.8767138931792
20
8.39913918372443
30
0
41
1
10
13.4226699330483
20
8.40826544747767
30
0
41
1
10
13.604964830999
20
8.41364426582828
30
0
41
1
10
13.8788616064362
20
8.42511040966616
30
0
41
1
10
13.9700315148906
20
8.42949027545637
30
0
41
1
10
14.1519074034653
20
8.43931564907044
30
0
41
1
10
14.6056116811657
20
8.46654772873765
30
0
41
1
10
15.0545335539091
20
8.50662741428215
30
0
41
1
10
15.7674033412208
20
8.58433962516548
30
0
41
1
10
16.121134493661
20
8.62998513516925
30
0
41
1
10
16.82391667849
20
8.73175513999581
30
0
41
1
10
17.1729685461858
20
8.78787220452486
30
0
41
1
10
17.8671377086129
20
8.90738742111895
30
0
41
1
10
18.2122580247573
20
8.97077477792513
30
0
41
1
10
18.5557652149322
20
9.03629790003222
30
0
0
SPLINE
5
C8
100
AcDbEntity
8
1
62
256
6
ByLayer
370
18
48
1
60
0
100
AcDbSpline
70
4
71
3
72
12
73
8
40
0
40
0
40
0
40
0
40
0.448078867917504
40
0.448078867917504
40
0.896157735835007
40
0.896157735835007
40
1
40
1
40
1
40
1
41
1
10
130.1
20
-11.2549723798199
30
0
41
1
10
130.554224428903
20
-11.2711453111506
30
0
41
1
10
131.008201300067
20
-11.2837443559878
30
0
41
1
10
131.915562869924
20
-11.301761934529
30
0
41
1
10
132.36893781449
20
-11.3071799586037
30
0
41
1
10
132.927005285046
20
-11.309357540662
30
0
41
1
10
133.031999100728
20
-11.3095704506007
30
0
41
1
10
133.136996328541
20
-11.3095873899285
30
0
0
SPLINE
5
C9
100
AcDbEntity
8
1
62
256
6
ByLayer
370
18
48
1
60
0
100
AcDbSpline
70
4
71
3
72
202
73
198
40
0
40
0
40
0
40
0
40
0.0156249999999977
40
0.0156249999999977
40
0.0312499999999954
40
0.0312499999999954
40
0.0468749999999932
40
0.0468749999999932
40
0.054687499999992
40
0.054687499999992
40
0.0585937499999916
40
0.0585937499999916
40
0.0624999999999912
40
0.0624999999999912
40
0.0781249999999903
40
0.0781249999999903
40
0.0937499999999894
40
0.0937499999999894
40
0.109374999999988
40
0.109374999999988
40
0.117187499999988
40
0.117187499999988
40
0.124999999999987
40
0.124999999999987
40
0.132812499999987
40
0.132812499999987
40
0.140624999999986
40
0.140624999999986
40
0.156249999999985
40
0.156249999999985
40
0.171874999999983
40
0.171874999999983
40
0.179687499999983
40
0.179687499999983
40
0.183593749999982
40
0.183593749999982
40
0.187499999999982
40
0.187499999999982
40
0.203124999999981
40
0.203124999999981
40
0.21874999999998
40
0.21874999999998
40
0.234374999999979
40
0.234374999999979
40
0.238281249999979
40
0.238281249999979
40
0.242187499999979
40
0.242187499999979
40
0.249999999999978
40
0.249999999999978
40
0.257812499999977
40
0.257812499999977
40
0.265624999999977
40
0.265624999999977
40
0.281249999999976
40
0.281249999999976
40
0.296874999999975
40
0.296874999999975
40
0.304687499999974
40
0.304687499999974
40
0.312499999999974
40
0.312499999999974
40
0.328124999999973
40
0.328124999999973
40
0.343749999999971
40
0.343749999999971
40
0.35937499999997
40
0.35937499999997
40
0.36328124999997
40
0.36328124999997
40
0.367187499999969
40
0.367187499999969
40
0.374999999999969
40
0.374999999999969
40
0.382812499999968
40
0.382812499999968
40
0.390624999999967
40
0.390624999999967
40
0.406249999999966
40
0.406249999999966
40
0.414062499999966
40
0.414062499999966
40
0.421874999999965
40
0.421874999999965
40
0.429687499999965
40
0.429687499999965
40
0.437499999999964
40
0.437499999999964
40
0.445312499999964
40
0.445312499999964
40
0.453124999999963
40
0.453124999999963
40
0.468749999999962
40
0.468749999999962
40
0.476562499999962
40
0.476562499999962
40
0.480468749999962
40
0.480468749999962
40
0.484374999999962
40
0.484374999999962
40
0.499999999999962
40
0.499999999999962
40
0.507812499999962
40
0.507812499999962
40
0.515624999999961
40
0.515624999999961
40
0.531249999999961
40
0.531249999999961
40
0.539062499999961
40
0.539062499999961
40
0.54687499999996
40
0.54687499999996
40
0.562499999999959
40
0.562499999999959
40
0.578124999999958
40
0.578124999999958
40
0.593749999999957
40
0.593749999999957
40
0.601562499999957
40
0.601562499999957
40
0.605468749999956
40
0.605468749999956
40
0.609374999999956
40
0.609374999999956
40
0.624999999999953
40
0.624999999999953
40
0.640624999999951
40
0.640624999999951
40
0.64843749999995
40
0.64843749999995
40
0.65624999999995
40
0.660156249999949
40
0.660156249999949
40
0.664062499999949
40
0.664062499999949
40
0.67187499999995
40
0.67187499999995
40
0.687499999999951
40
0.687499999999951
40
0.703124999999952
40
0.703124999999952
40
0.718749999999953
40
0.718749999999953
40
0.726562499999953
40
0.726562499999953
40
0.734374999999953
40
0.734374999999953
40
0.749999999999954
40
0.749999999999954
40
0.765624999999954
40
0.765624999999954
40
0.773437499999954
40
0.773437499999954
40
0.781249999999955
40
0.781249999999955
40
0.785156249999955
40
0.785156249999955
40
0.789062499999955
40
0.796874999999956
40
0.796874999999956
40
0.812499999999958
40
0.812499999999958
40
0.82812499999996
40
0.82812499999996
40
0.835937499999961
40
0.835937499999961
40
0.843749999999962
40
0.843749999999962
40
0.851562499999963
40
0.851562499999963
40
0.859374999999964
40
0.859374999999964
40
0.874999999999968
40
0.874999999999968
40
0.882812499999969
40
0.882812499999969
40
0.890624999999971
40
0.890624999999971
40
0.898437499999973
40
0.898437499999973
40
0.902343749999974
40
0.902343749999974
40
0.906249999999974
40
0.906249999999974
40
0.921874999999979
40
0.921874999999979
40
0.937499999999983
40
0.937499999999983
40
0.953124999999987
40
0.953124999999987
40
0.960937499999989
40
0.960937499999989
40
0.968749999999991
40
0.968749999999991
40
0.984374999999996
40
0.984374999999996
40
1
40
1
40
1
40
1
41
1
10
18.5557652149325
20
9.03629790003231
30
0
41
1
10
19.1371692919969
20
9.14436557983279
30
0
41
1
10
19.7185600772308
20
9.2469276997374
30
0
41
1
10
20.881101415688
20
9.44167993115573
30
0
41
1
10
21.4622512149855
20
9.53387005310623
30
0
41
1
10
22.6241100687587
20
9.70825209275722
30
0
41
1
10
23.2048185009662
20
9.7904445322709
30
0
41
1
10
24.0754011880401
20
9.90634589981457
30
0
41
1
10
24.3655159684424
20
9.94374605040952
30
0
41
1
10
24.8005551205006
20
9.99798964580629
30
0
41
1
10
24.9455459069336
20
10.0157614070915
30
0
41
1
10
25.2354814735452
20
10.0506830625458
30
0
41
1
10
25.3804264880776
20
10.0678320714233
30
0
41
1
10
26.1052827479282
20
10.1517752749349
30
0
41
1
10
26.6855431454637
20
10.2132296093738
30
0
41
1
10
27.8465048192527
20
10.3252554564976
30
0
41
1
10
28.4272132079235
20
10.3758179284277
30
0
41
1
10
29.5888953315662
20
10.4662134851639
30
0
41
1
10
30.1698650806787
20
10.5060493988238
30
0
41
1
10
31.0413745834616
20
10.5577197975158
30
0
41
1
10
31.3318878499296
20
10.5735937157564
30
0
41
1
10
31.9129189236969
20
10.6026121553053
30
0
41
1
10
32.2034116678954
20
10.615760441082
30
0
41
1
10
32.7848518141909
20
10.639142182225
30
0
41
1
10
33.0757846729278
20
10.649399662476
30
0
41
1
10
33.6574561151224
20
10.6670759503239
30
0
41
1
10
33.9482543933458
20
10.6744976299679
30
0
41
1
10
34.8204963306812
20
10.6925611551104
30
0
41
1
10
35.4017902951725
20
10.6990079273824
30
0
41
1
10
36.5637881049162
20
10.7007805533051
30
0
41
1
10
37.1444868073709
20
10.6961061213567
30
0
41
1
10
38.0149466653331
20
10.6806318496392
30
0
41
1
10
38.3050000031394
20
10.6740609905896
30
0
41
1
10
38.7399294955649
20
10.6620591624526
30
0
41
1
10
38.8848874955622
20
10.6577018213318
30
0
41
1
10
39.1748580454556
20
10.6482991698638
30
0
41
1
10
39.3198635741268
20
10.6432525933757
30
0
41
1
10
40.0449796915111
20
10.6163031754311
30
0
41
1
10
40.6253484997886
20
10.5892591229729
30
0
41
1
10
41.7863760038571
20
10.5242850774083
30
0
41
1
10
42.3670440163506
20
10.486357737653
30
0
41
1
10
43.5284919732117
20
10.3994930243504
30
0
41
1
10
44.1092666600174
20
10.3505516671042
30
0
41
1
10
44.8351978568857
20
10.2822783479746
30
0
41
1
10
44.9803824535652
20
10.2682684840695
30
0
41
1
10
45.2707464554185
20
10.2395314993561
30
0
41
1
10
45.4159191861474
20
10.2247981795434
30
0
41
1
10
45.8515206236816
20
10.1795959991618
30
0
41
1
10
46.142089423837
20
10.148178003428
30
0
41
1
10
46.7235505014327
20
10.0828012096812
30
0
41
1
10
47.0144813302428
20
10.0488324664974
30
0
41
1
10
47.5964199909197
20
9.97835206867381
30
0
41
1
10
47.8873318607683
20
9.94185328095813
30
0
41
1
10
48.7598610191221
20
9.82856790646511
30
0
41
1
10
49.3412743343981
20
9.7480014498077
30
0
41
1
10
50.5033553000695
20
9.57654218459857
30
0
41
1
10
51.0840184513103
20
9.48564265556027
30
0
41
1
10
51.954324705132
20
9.34124951943122
30
0
41
1
10
52.2442625180696
20
9.29170068876897
30
0
41
1
10
52.8243019670052
20
9.19047640968935
30
0
41
1
10
53.1143891151588
20
9.13878566077153
30
0
41
1
10
53.9847927649496
20
8.98043519346706
30
0
41
1
10
54.5652434713686
20
8.87049056217444
30
0
41
1
10
55.726295900388
20
8.64161143483787
30
0
41
1
10
56.3069025762372
20
8.52268511007094
30
0
41
1
10
57.4680729582405
20
8.27544182517838
30
0
41
1
10
58.0486337926013
20
8.14711850901281
30
0
41
1
10
58.7742167382646
20
7.98053121327666
30
0
41
1
10
58.9193222773664
20
7.94689354184112
30
0
41
1
10
59.209600964249
20
7.87915393558504
30
0
41
1
10
59.3547808202056
20
7.84506593151252
30
0
41
1
10
59.7904371742172
20
7.74214428738378
30
0
41
1
10
60.0810289257131
20
7.67265047358867
30
0
41
1
10
60.6624799106443
20
7.53184421919207
30
0
41
1
10
60.9533383210991
20
7.46052988996209
30
0
41
1
10
61.535294108903
20
7.31603315296306
30
0
41
1
10
61.8263774217928
20
7.2428543859092
30
0
41
1
10
62.6993685923718
20
7.02059461266612
30
0
41
1
10
63.2812099076542
20
6.86874858188193
30
0
41
1
10
64.1535860121877
20
6.63508872539938
30
0
41
1
10
64.4443138185785
20
6.55621931350674
30
0
41
1
10
65.0256219452017
20
6.39645456916486
30
0
41
1
10
65.3161878508987
20
6.31552504079986
30
0
41
1
10
65.8972214942863
20
6.15173406381899
30
0
41
1
10
66.1878024772569
20
6.06914041262345
30
0
41
1
10
66.7691971163723
20
5.90282834243396
30
0
41
1
10
67.059988682912
20
5.81905773389136
30
0
41
1
10
67.6417204960874
20
5.65020651869693
30
0
41
1
10
67.9326611677878
20
5.56512683707115
30
0
41
1
10
68.5146671419172
20
5.39360512655276
30
0
41
1
10
68.8057536045806
20
5.30715668688964
30
0
41
1
10
69.6787877132737
20
5.04579416573944
30
0
41
1
10
70.2606177603089
20
4.86882815397533
30
0
41
1
10
71.1329206254286
20
4.59886537211216
30
0
41
1
10
71.4236151918643
20
4.50812639818363
30
0
41
1
10
71.8595335270337
20
4.37084485525915
30
0
41
1
10
72.0048189257405
20
4.32488844724998
30
0
41
1
10
72.2953470038911
20
4.23257844320497
30
0
41
1
10
72.440590223335
20
4.18622601270675
30
0
41
1
10
73.1669511402746
20
3.95414382816068
30
0
41
1
10
73.7484516176164
20
3.76732466643057
30
0
41
1
10
74.6210841872904
20
3.48479996643661
30
0
41
1
10
74.9120272544494
20
3.39024658308657
30
0
41
1
10
75.4940201163195
20
3.20031934184334
30
0
41
1
10
75.785118928024
20
3.10493014094067
30
0
41
1
10
76.6580837962968
20
2.81758045005668
30
0
41
1
10
77.2396366107579
20
2.62442320599953
30
0
41
1
10
78.1111846160114
20
2.3318754870312
30
0
41
1
10
78.4015712015667
20
2.23389309041036
30
0
41
1
10
78.9820667494104
20
2.03693886910818
30
0
41
1
10
79.2721537106552
20
1.93790280209822
30
0
41
1
10
80.142681276183
20
1.64129237420485
30
0
41
1
10
80.7231904246113
20
1.44364289745704
30
0
41
1
10
81.8842434045515
20
1.04772574636718
30
0
41
1
10
82.4647965389547
20
0.849485013336647
30
0
41
1
10
83.6257636356465
20
0.451878760429679
30
0
41
1
10
84.2061724352024
20
0.252498119813964
30
0
41
1
10
85.0765397329223
20
-0.0478397766585488
30
0
41
1
10
85.3666189925859
20
-0.1481701275207
30
0
41
1
10
85.8016752039008
20
-0.29898799711907
30
0
41
1
10
85.9466906694337
20
-0.349293284049366
30
0
41
1
10
86.2368054407953
20
-0.44970308341999
30
0
41
1
10
86.3818974710874
20
-0.499828972722526
30
0
41
1
10
87.1075176367538
20
-0.750101455315161
30
0
41
1
10
87.6885181849195
20
-0.949198941879899
30
0
41
1
10
88.8512627717842
20
-1.34592561384136
30
0
41
1
10
89.4330160991166
20
-1.54352743891701
30
0
41
1
10
90.3060734017062
20
-1.83921758217724
30
0
41
1
10
90.5970245792873
20
-1.93761639717081
30
0
41
1
10
91.1785996151506
20
-2.13409621533114
30
0
41
1
10
91.6145755897359
20
-2.28123046336188
30
0
41
1
10
92.0502217775398
20
-2.42807873983611
30
0
41
1
10
92.3405769890773
20
-2.52591890704505
30
0
41
1
10
92.4857102328553
20
-2.57482844220476
30
0
41
1
10
92.9210934049412
20
-2.721188815261
30
0
41
1
10
93.2113780076694
20
-2.81812528489306
30
0
41
1
10
94.0822945203256
20
-3.10712013596228
30
0
41
1
10
94.6629663061555
20
-3.29743217818972
30
0
41
1
10
95.8242021993685
20
-3.67406594380458
30
0
41
1
10
96.4047738600489
20
-3.86036631739879
30
0
41
1
10
97.5656223211152
20
-4.22947849977194
30
0
41
1
10
98.1458946729897
20
-4.4123019530941
30
0
41
1
10
99.0159581480189
20
-4.68418723418293
30
0
41
1
10
99.3058728930307
20
-4.77455021246487
30
0
41
1
10
99.8859859636848
20
-4.95343550232002
30
0
41
1
10
100.176167698324
20
-5.04200410728276
30
0
41
1
10
101.047026563224
20
-5.30526958703621
30
0
41
1
10
101.628009144353
20
-5.4775500082639
30
0
41
1
10
102.790580005009
20
-5.81623899462139
30
0
41
1
10
103.37217313127
20
-5.98263529936531
30
0
41
1
10
104.244875948991
20
-6.22814791546063
30
0
41
1
10
104.535876750454
20
-6.3093177885072
30
0
41
1
10
105.117499700569
20
-6.47019972416302
30
0
41
1
10
105.408167310009
20
-6.54992434500056
30
0
41
1
10
105.843938790402
20
-6.66845214530031
30
0
41
1
10
105.989152984052
20
-6.70779512797168
30
0
41
1
10
106.27958785895
20
-6.78593477225832
30
0
41
1
10
106.715265561344
20
-6.9022900996799
30
0
41
1
10
107.150998927003
20
-7.01615188217087
30
0
41
1
10
108.022481747088
20
-7.24072102131515
30
0
41
1
10
108.603486940982
20
-7.38624323131475
30
0
41
1
10
109.765337698697
20
-7.66940571847701
30
0
41
1
10
110.346184724262
20
-7.80704312925118
30
0
41
1
10
111.217182904108
20
-8.00784900357661
30
0
41
1
10
111.507470362012
20
-8.07384089477273
30
0
41
1
10
112.087936250121
20
-8.20395202738555
30
0
41
1
10
112.378099733816
20
-8.26809864261222
30
0
41
1
10
112.958370414945
20
-8.39439326191263
30
0
41
1
10
113.248590678207
20
-8.45633321545762
30
0
41
1
10
113.829298474546
20
-8.57764894734618
30
0
41
1
10
114.119764881574
20
-8.63706366977917
30
0
41
1
10
114.991442122034
20
-8.8117114945199
30
0
41
1
10
115.572931763818
20
-8.923351593896
30
0
41
1
10
116.445581006399
20
-9.08388561392951
30
0
41
1
10
116.736533164007
20
-9.1362413737196
30
0
41
1
10
117.318550312837
20
-9.23867133318348
30
0
41
1
10
117.609507435416
20
-9.28872643738498
30
0
41
1
10
118.191095307219
20
-9.38650250324932
30
0
41
1
10
118.481757619692
20
-9.43422846635656
30
0
41
1
10
118.917539206795
20
-9.50407485009279
30
0
41
1
10
119.062764277931
20
-9.52706664711201
30
0
41
1
10
119.353142156926
20
-9.5724671230316
30
0
41
1
10
119.498295597642
20
-9.59487430036921
30
0
41
1
10
120.224130192444
20
-9.70512653677332
30
0
41
1
10
120.804961638707
20
-9.78771035321239
30
0
41
1
10
121.966651544712
20
-9.94227035901307
30
0
41
1
10
122.54751714614
20
-10.0142351513555
30
0
41
1
10
123.709100552106
20
-10.1477864712907
30
0
41
1
10
124.289814301058
20
-10.2093770556189
30
0
41
1
10
125.160624659042
20
-10.2940103156384
30
0
41
1
10
125.450852300976
20
-10.3209267690886
30
0
41
1
10
126.031205454123
20
-10.3721496844278
30
0
41
1
10
126.321306924088
20
-10.396467259779
30
0
41
1
10
127.192143991132
20
-10.4650095402214
30
0
41
1
10
127.773215160713
20
-10.5049928077527
30
0
41
1
10
128.936090970407
20
-10.5738992635016
30
0
41
1
10
129.517905017771
20
-10.6028151625187
30
0
41
1
10
130.1
20
-10.6262275641179
30
0
0
SPLINE
5
CA
100
AcDbEntity
8
1
62
256
6
ByLayer
370
18
48
1
60
0
100
AcDbSpline
70
4
71
4
72
10
73
5
40
0
40
0
40
0
40
0
40
0
40
1
40
1
40
1
40
1
40
1
41
0.996441385530921
10
18.5557652149324
20
9.03629790003227
30
0
41
0.995504913737699
10
18.4731643894647
20
8.34750422269156
30
0
41
0.995072394558182
10
18.3610702695351
20
7.67388736884098
30
0
41
0.995671386553902
10
18.2211776646949
20
7.04070681494729
30
0
41
0.996700087018216
10
18.0603304011584
20
6.46583215002539
30
0
0
SPLINE
5
CB
100
AcDbEntity
8
1
62
256
6
ByLayer
370
18
48
1
60
0
100
AcDbSpline
70
4
71
3
72
154
73
150
40
0
40
0
40
0
40
0
40
0.003197292350865
40
0.003197292350865
40
0.0220048906083934
40
0.0220048906083934
40
0.031408689737158
40
0.031408689737158
40
0.0408124888659226
40
0.0408124888659226
40
0.0596200871234517
40
0.0596200871234517
40
0.0784276853809808
40
0.0784276853809808
40
0.0878314845097454
40
0.0878314845097454
40
0.09723528363851
40
0.09723528363851
40
0.116042881896038
40
0.116042881896038
40
0.134850480153567
40
0.134850480153567
40
0.153658078411095
40
0.153658078411095
40
0.16306187753986
40
0.16306187753986
40
0.167763777104242
40
0.167763777104242
40
0.172465676668625
40
0.172465676668625
40
0.210080873183684
40
0.210080873183684
40
0.228888471441214
40
0.228888471441214
40
0.233590371005596
40
0.233590371005596
40
0.238292270569979
40
0.238292270569979
40
0.247696069698745
40
0.247696069698745
40
0.28531126621381
40
0.28531126621381
40
0.304118864471343
40
0.304118864471343
40
0.313522663600109
40
0.313522663600109
40
0.322926462728875
40
0.322926462728875
40
0.341734060986407
40
0.341734060986407
40
0.360541659243939
40
0.360541659243939
40
0.369945458372705
40
0.369945458372705
40
0.379349257501472
40
0.379349257501472
40
0.398156855759004
40
0.416964454016537
40
0.416964454016537
40
0.43577205227407
40
0.43577205227407
40
0.445175851402836
40
0.445175851402836
40
0.454579650531602
40
0.454579650531602
40
0.463983449660368
40
0.463983449660368
40
0.473387248789134
40
0.473387248789134
40
0.492194847046666
40
0.492194847046666
40
0.511002445304197
40
0.511002445304197
40
0.515704344868581
40
0.515704344868581
40
0.520406244432964
40
0.52981004356173
40
0.52981004356173
40
0.548617641819262
40
0.548617641819262
40
0.567425240076794
40
0.567425240076794
40
0.57682903920556
40
0.57682903920556
40
0.581530938769943
40
0.581530938769943
40
0.586232838334326
40
0.586232838334326
40
0.605040436591858
40
0.605040436591858
40
0.614444235720623
40
0.614444235720623
40
0.623848034849389
40
0.623848034849389
40
0.64265563310692
40
0.64265563310692
40
0.652059432235686
40
0.652059432235686
40
0.661463231364452
40
0.661463231364452
40
0.680270829621983
40
0.680270829621983
40
0.689674628750749
40
0.689674628750749
40
0.699078427879515
40
0.699078427879515
40
0.717886026137047
40
0.717886026137047
40
0.727289825265813
40
0.727289825265813
40
0.736693624394579
40
0.736693624394579
40
0.755501222652111
40
0.755501222652111
40
0.764905021780877
40
0.764905021780877
40
0.774308820909642
40
0.783712620038408
40
0.788414519602791
40
0.788414519602791
40
0.793116419167174
40
0.793116419167174
40
0.811924017424704
40
0.811924017424704
40
0.830731615682234
40
0.830731615682234
40
0.849539213939765
40
0.849539213939765
40
0.85894301306853
40
0.85894301306853
40
0.863644912632912
40
0.863644912632912
40
0.868346812197295
40
0.868346812197295
40
0.887154410454824
40
0.887154410454824
40
0.905962008712353
40
0.905962008712353
40
0.924769606969882
40
0.924769606969882
40
0.934173406098647
40
0.934173406098647
40
0.943577205227412
40
0.943577205227412
40
0.962384803484941
40
0.962384803484941
40
0.981192401742471
40
0.981192401742471
40
1
40
1
40
1
40
1
41
1
10
110.40959427165
20
-7.83035833134039
30
0
41
1
10
110.306625528614
20
-7.85446056059445
30
0
41
1
10
110.203661576921
20
-7.87843723734406
30
0
41
1
10
109.495062013983
20
-8.04259243103166
30
0
41
1
10
108.889597634198
20
-8.17857394109149
30
0
41
1
10
107.98175422917
20
-8.37613296685413
30
0
41
1
10
107.679232824001
20
-8.44097447068822
30
0
41
1
10
107.073981308653
20
-8.56791567230812
30
0
41
1
10
106.771273648509
20
-8.63005978728859
30
0
41
1
10
105.862920512164
20
-8.81256996518056
30
0
41
1
10
105.257045847728
20
-8.9290200231361
30
0
41
1
10
104.04477526101
20
-9.15168484745359
30
0
41
1
10
103.438378110605
20
-9.25789810254298
30
0
41
1
10
102.528465558062
20
-9.40960014764389
30
0
41
1
10
102.22510916032
20
-9.45889751078425
30
0
41
1
10
101.618304176653
20
-9.55494672972557
30
0
41
1
10
101.314834961357
20
-9.60172826215862
30
0
41
1
10
100.404786629943
20
-9.73796339902489
30
0
41
1
10
99.798022859621
20
-9.82286983592039
30
0
41
1
10
98.5843595404547
20
-9.98104996671131
30
0
41
1
10
97.9774744879601
20
-10.0543420467837
30
0
41
1
10
96.7636893999539
20
-10.1894775584282
30
0
41
1
10
96.156787885115
20
-10.2513203589642
30
0
41
1
10
95.246510572503
20
-10.3354883234565
30
0
41
1
10
94.9430971324069
20
-10.3621099583188
30
0
41
1
10
94.488006194513
20
-10.39987567052
30
0
41
1
10
94.3363051417683
20
-10.4121068377504
30
0
41
1
10
94.032932537473
20
-10.4357955758669
30
0
41
1
10
93.8812562080135
20
-10.4472505814714
30
0
41
1
10
92.5162593924388
20
-10.5468641329125
30
0
41
1
10
91.3035650454279
20
-10.6107763185531
30
0
41
1
10
89.4859823310829
20
-10.6706491626597
30
0
41
1
10
88.8803680625219
20
-10.6845857995486
30
0
41
1
10
88.1237339903537
20
-10.6944031867484
30
0
41
1
10
87.9724265647208
20
-10.6959860021009
30
0
41
1
10
87.6698511023479
20
-10.6983862684074
30
0
41
1
10
87.5185820260025
20
-10.6992030955865
30
0
41
1
10
87.0647157483169
20
-10.7004992800526
30
0
41
1
10
86.7620751238006
20
-10.6998273005898
30
0
41
1
10
85.248580162992
20
-10.6888588277235
30
0
41
1
10
84.0368502423313
20
-10.6558548309101
30
0
41
1
10
82.2184156674011
20
-10.5699819821789
30
0
41
1
10
81.6121450251437
20
-10.5352661588075
30
0
41
1
10
80.7025826738073
20
-10.4738502407326
30
0
41
1
10
80.399291071419
20
-10.4518628683026
30
0
41
1
10
79.7923373934229
20
-10.4049772200115
30
0
41
1
10
79.4888514478812
20
-10.3800763345834
30
0
41
1
10
78.5786602057906
20
-10.3010518732831
30
0
41
1
10
77.9721017256554
20
-10.2426032369677
30
0
41
1
10
76.7595402608815
20
-10.1142024753581
30
0
41
1
10
76.1535353588018
20
-10.0442527034824
30
0
41
1
10
75.2450299665788
20
-9.93057054267538
30
0
41
1
10
74.9422785499258
20
-9.89121541820339
30
0
41
1
10
74.3369583041943
20
-9.80954300847944
30
0
41
1
10
74.0344190432803
20
-9.76718653891453
30
0
41
1
10
73.1265690948322
20
-9.63626134600901
30
0
41
1
10
71.9157078445455
20
-9.45119004939204
30
0
41
1
10
70.7042320873962
20
-9.24520134520162
30
0
41
1
10
69.4925411283123
20
-9.02862649107868
30
0
41
1
10
68.886588709847
20
-8.91504576325383
30
0
41
1
10
67.9775843183191
20
-8.73648181544081
30
0
41
1
10
67.674592154862
20
-8.67555451439688
30
0
41
1
10
67.0684840644588
20
-8.55110594819922
30
0
41
1
10
66.7652867813477
20
-8.48773000264669
30
0
41
1
10
66.15859134455
20
-8.35872334787439
30
0
41
1
10
65.8550419567505
20
-8.29307342174084
30
0
41
1
10
65.247922892247
20
-8.15955321634129
30
0
41
1
10
64.9444364690102
20
-8.09170194779733
30
0
41
1
10
64.0342113896474
20
-7.88486187898926
30
0
41
1
10
63.4277060071171
20
-7.7425923690322
30
0
41
1
10
62.2154147941272
20
-7.44911007281291
30
0
41
1
10
61.6096319502861
20
-7.29789139651706
30
0
41
1
10
60.852932740747
20
-7.10304270300105
30
0
41
1
10
60.7016232150373
20
-7.06377263023492
30
0
41
1
10
60.3989900825293
20
-6.98479598577626
30
0
41
1
10
59.9450127166796
20
-6.86569164940954
30
0
41
1
10
59.4909563213033
20
-6.74467276391536
30
0
41
1
10
58.5827539472479
20
-6.50007030754986
30
0
41
1
10
57.9771665494998
20
-6.33358526458412
30
0
41
1
10
56.7658431460173
20
-5.99362021412
30
0
41
1
10
56.1601052859326
20
-5.82014506165962
30
0
41
1
10
55.2514672221434
20
-5.55444770174995
30
0
41
1
10
54.9485828682438
20
-5.46496632298798
30
0
41
1
10
54.4942589152129
20
-5.32933209522307
30
0
41
1
10
54.3428184783229
20
-5.28388410024789
30
0
41
1
10
54.0399383396346
20
-5.19251470726144
30
0
41
1
10
53.8884963384239
20
-5.14659891471985
30
0
41
1
10
53.1310900249897
20
-4.91634914759314
30
0
41
1
10
52.5246131896606
20
-4.7298134089759
30
0
41
1
10
51.6141390540851
20
-4.44639360304558
30
0
41
1
10
51.3104723148007
20
-4.35130123757338
30
0
41
1
10
50.7032695387987
20
-4.15999815864618
30
0
41
1
10
50.3997072649971
20
-4.06377920874348
30
0
41
1
10
49.4891548337834
20
-3.77337502712103
30
0
41
1
10
48.8822985852549
20
-3.57744579348466
30
0
41
1
10
47.9723736786906
20
-3.27978488113291
30
0
41
1
10
47.6691317158704
20
-3.17991830433928
30
0
41
1
10
47.0627534061851
20
-2.9789584731601
30
0
41
1
10
46.759536708151
20
-2.87808877725047
30
0
41
1
10
45.8495938700993
20
-2.57490986072401
30
0
41
1
10
45.2426626961336
20
-2.37178835509315
30
0
41
1
10
44.3318812176471
20
-2.0654353872572
30
0
41
1
10
44.0282085462579
20
-1.96303382703968
30
0
41
1
10
43.4210289625996
20
-1.75773517020406
30
0
41
1
10
43.1174879418339
20
-1.65482740986712
30
0
41
1
10
42.2070311898242
20
-1.34527064531355
30
0
41
1
10
41.6002832992069
20
-1.1377842468429
30
0
41
1
10
40.690586731217
20
-0.824610207524671
30
0
41
1
10
40.3874490112261
20
-0.719825783408908
30
0
41
1
10
39.7809629676998
20
-0.510631019296682
30
0
41
1
10
39.477648440015
20
-0.40612288744569
30
0
41
1
10
38.5675062488164
20
-0.092822953818569
30
0
41
1
10
37.960480820537
20
0.115746390227116
30
0
41
1
10
37.0496152681871
20
0.428350042701084
30
0
41
1
10
36.7459648513922
20
0.532500877195474
30
0
41
1
10
36.1389358563312
20
0.740627243353089
30
0
41
1
10
35.5320905628144
20
0.948608440665339
30
0
41
1
10
34.7740330998515
20
1.20833440710234
30
0
41
1
10
34.3194399325209
20
1.36410082530961
30
0
41
1
10
34.016433510493
20
1.46793485249538
30
0
41
1
10
33.864963372851
20
1.51986184753667
30
0
41
1
10
33.1076161357986
20
1.77907598452802
30
0
41
1
10
32.5016133092961
20
1.98470955665385
30
0
41
1
10
31.2894236413275
20
2.392739325414
30
0
41
1
10
30.6832398193581
20
2.59514427365079
30
0
41
1
10
29.470785899178
20
2.99700483643039
30
0
41
1
10
28.8645146414582
20
3.19645736685985
30
0
41
1
10
27.9551287444827
20
3.49364244577595
30
0
41
1
10
27.6520034355559
20
3.59237100488593
30
0
41
1
10
27.1973308419697
20
3.73998720433892
30
0
41
1
10
27.0457768915216
20
3.78911582765298
30
0
41
1
10
26.7425981060121
20
3.88700410578357
30
0
41
1
10
26.590975370486
20
3.93576967100273
30
0
41
1
10
25.8326979632452
20
4.17871479950057
30
0
41
1
10
25.2253662677489
20
4.37030370959539
30
0
41
1
10
24.0114796254935
20
4.74758505059447
30
0
41
1
10
23.404758862353
20
4.93333185495192
30
0
41
1
10
22.1918551014813
20
5.29929833152119
30
0
41
1
10
21.5856741360112
20
5.47952365020294
30
0
41
1
10
20.6769002396386
20
5.74589103389687
30
0
41
1
10
20.3740995282942
20
5.83411620118881
30
0
41
1
10
19.7683802808774
20
6.00853452012868
30
0
41
1
10
19.4654633236485
20
6.09473455984724
30
0
41
1
10
18.5565553760333
20
6.3503673262027
30
0
41
1
10
17.9504086791565
20
6.51683919839232
30
0
41
1
10
16.7377840525199
20
6.84213748812934
30
0
41
1
10
16.1313050980442
20
7.00096189147942
30
0
41
1
10
14.9181152534295
20
7.31114707128455
30
0
41
1
10
14.3114049245079
20
7.46250996770866
30
0
41
1
10
13.7046482327155
20
7.61021496655826
30
0
0
SPLINE
5
CC
100
AcDbEntity
8
1
62
256
6
ByLayer
370
18
48
1
60
0
100
AcDbSpline
70
4
71
3
72
18
73
14
40
0
40
0
40
0
40
0
40
0.249999999999997
40
0.249999999999997
40
0.499999999999993
40
0.499999999999993
40
0.562499999999998
40
0.562499999999998
40
0.625000000000002
40
0.625000000000002
40
0.750000000000004
40
0.750000000000004
40
1
40
1
40
1
40
1
41
1
10
140.983132680209
20
-1.61186422675775
30
0
41
1
10
140.075619437556
20
-1.28359815850325
30
0
41
1
10
139.168251913481
20
-0.95540702535456
30
0
41
1
10
137.354160293916
20
-0.298176584348653
30
0
41
1
10
136.447428151379
20
0.0308405654630803
30
0
41
1
10
135.314716965881
20
0.443470952447313
30
0
41
1
10
135.088209945878
20
0.526064935201191
30
0
41
1
10
134.635274199651
20
0.691409931156784
30
0
41
1
10
134.408840093181
20
0.774146019048516
30
0
41
1
10
133.729308534563
20
1.02163323501597
30
0
41
1
10
133.276072327367
20
1.18591324965209
30
0
41
1
10
131.915794309711
20
1.67683281642886
30
0
41
1
10
131.008178939854
20
2.0015414963386
30
0
41
1
10
130.1
20
2.32422815852488
30
0
0
SPLINE
5
CD
100
AcDbEntity
8
1
62
256
6
ByLayer
370
18
48
1
60
0
100
AcDbSpline
70
4
71
3
72
93
73
89
40
0
40
0
40
0
40
0
40
0.0312499999999996
40
0.0312499999999996
40
0.0624999999999993
40
0.0624999999999993
40
0.0937499999999989
40
0.0937499999999989
40
0.124999999999999
40
0.124999999999999
40
0.140624999999998
40
0.140624999999998
40
0.148437499999998
40
0.148437499999998
40
0.156249999999998
40
0.187499999999998
40
0.187499999999998
40
0.218749999999997
40
0.218749999999997
40
0.249999999999997
40
0.249999999999997
40
0.281249999999996
40
0.281249999999996
40
0.296874999999995
40
0.296874999999995
40
0.312499999999994
40
0.312499999999994
40
0.343749999999992
40
0.343749999999992
40
0.37499999999999
40
0.37499999999999
40
0.406249999999988
40
0.406249999999988
40
0.437499999999986
40
0.437499999999986
40
0.445312499999986
40
0.445312499999986
40
0.453124999999985
40
0.468749999999984
40
0.468749999999984
40
0.499999999999981
40
0.499999999999981
40
0.531249999999979
40
0.531249999999979
40
0.539062499999979
40
0.539062499999979
40
0.546874999999978
40
0.562499999999977
40
0.562499999999977
40
0.593749999999974
40
0.593749999999974
40
0.624999999999972
40
0.624999999999972
40
0.632812499999972
40
0.632812499999972
40
0.640624999999971
40
0.656249999999971
40
0.656249999999971
40
0.687499999999971
40
0.687499999999971
40
0.718749999999971
40
0.718749999999971
40
0.726562499999971
40
0.726562499999971
40
0.734374999999971
40
0.734374999999971
40
0.749999999999971
40
0.749999999999971
40
0.781249999999972
40
0.781249999999972
40
0.812499999999974
40
0.812499999999974
40
0.843749999999975
40
0.843749999999975
40
0.851562499999976
40
0.851562499999976
40
0.859374999999977
40
0.874999999999979
40
0.874999999999979
40
0.906249999999984
40
0.906249999999984
40
0.93749999999999
40
0.968749999999995
40
0.968749999999995
40
0.976562499999997
40
0.976562499999997
40
0.984374999999998
40
1
40
1
40
1
40
1
41
1
10
140.983132680215
20
10.9518282493109
30
0
41
1
10
141.053785237238
20
10.7766273741927
30
0
41
1
10
141.124548667302
20
10.5988006496432
30
0
41
1
10
141.266416974821
20
10.2383105417643
30
0
41
1
10
141.337521730515
20
10.0556462050798
30
0
41
1
10
141.480156554414
20
9.6857806913749
30
0
41
1
10
141.551686672726
20
9.49857899945911
30
0
41
1
10
141.695221973598
20
9.11984715122409
30
0
41
1
10
141.767227400604
20
8.92831678009054
30
0
41
1
10
141.875600345514
20
8.63787052977892
30
0
41
1
10
141.911785138484
20
8.54052938412002
30
0
41
1
10
141.966150725597
20
8.39373553080901
30
0
41
1
10
141.984299858979
20
8.34463977874611
30
0
41
1
10
142.020562307594
20
8.24636302931566
30
0
41
1
10
142.111085504145
20
8.00057359507289
30
0
41
1
10
142.200953037037
20
7.75430409987416
30
0
41
1
10
142.343843165171
20
7.35965431154531
30
0
41
1
10
142.414840140367
20
7.16202040050482
30
0
41
1
10
142.555774977259
20
6.76608838110781
30
0
41
1
10
142.625714454027
20
6.56779083842608
30
0
41
1
10
142.764233840764
20
6.17043206728977
30
0
41
1
10
142.832816536576
20
5.97137183795098
30
0
41
1
10
142.934293112125
20
5.67207663493184
30
0
41
1
10
142.96788388486
20
5.57219340132167
30
0
41
1
10
143.034504695093
20
5.37215807983426
30
0
41
1
10
143.067550966126
20
5.27195380399877
30
0
41
1
10
143.165204684075
20
4.97233816513031
30
0
41
1
10
143.228500104621
20
4.77346199956619
30
0
41
1
10
143.350319963663
20
4.37711564416233
30
0
41
1
10
143.408852377429
20
4.17964675097022
30
0
41
1
10
143.519367614929
20
3.78570202384816
30
0
41
1
10
143.571359729986
20
3.58922701951334
30
0
41
1
10
143.666116342623
20
3.19673587478948
30
0
41
1
10
143.708885003647
20
3.00071810722019
30
0
41
1
10
143.754195380367
20
2.75557432443804
30
0
41
1
10
143.762853719756
20
2.70649945557929
30
0
41
1
10
143.779249413682
20
2.60850681144569
30
0
41
1
10
143.802417422745
20
2.46203292631998
30
0
41
1
10
143.821059969688
20
2.31712330747521
30
0
41
1
10
143.85170518815
20
2.02946832257194
30
0
41
1
10
143.863216842185
20
1.84057403669794
30
0
41
1
10
143.866257118616
20
1.46919553584255
30
0
41
1
10
143.857767559385
20
1.28671466087144
30
0
41
1
10
143.834743866139
20
1.06321566061368
30
0
41
1
10
143.829517577978
20
1.01869504845143
30
0
41
1
10
143.817891753354
20
0.93036558092615
30
0
41
1
10
143.79874297908
20
0.799277621052283
30
0
41
1
10
143.774759823617
20
0.672357643118971
30
0
41
1
10
143.721150881015
20
0.423942778073212
30
0
41
1
10
143.67791888778
20
0.265556404284865
30
0
41
1
10
143.580361753782
20
-0.0373255546804785
30
0
41
1
10
143.526044901832
20
-0.181825333490337
30
0
41
1
10
143.453018174549
20
-0.353897700626561
30
0
41
1
10
143.438140504949
20
-0.387912488203114
30
0
41
1
10
143.407961852081
20
-0.454949419067731
30
0
41
1
10
143.362128725982
20
-0.553863820323699
30
0
41
1
10
143.314775590205
20
-0.647951626319497
30
0
41
1
10
143.218410317598
20
-0.829884510368032
30
0
41
1
10
143.151976731968
20
-0.942866797149719
30
0
41
1
10
143.016018119795
20
-1.15277163916863
30
0
41
1
10
142.946483914874
20
-1.2496912116834
30
0
41
1
10
142.858052260797
20
-1.36081789870141
30
0
41
1
10
142.840289110414
20
-1.3825409208475
30
0
41
1
10
142.804615774481
20
-1.42497814669662
30
0
41
1
10
142.786693249637
20
-1.44570507304553
30
0
41
1
10
142.732944329385
20
-1.50611042485119
30
0
41
1
10
142.697069141557
20
-1.54409868000695
30
0
41
1
10
142.589371989722
20
-1.6513710368487
30
0
41
1
10
142.517483785922
20
-1.71397654985196
30
0
41
1
10
142.373657735786
20
-1.82181762814429
30
0
41
1
10
142.3017176478
20
-1.86705141421936
30
0
41
1
10
142.157765492246
20
-1.9401692916714
30
0
41
1
10
142.085752401269
20
-1.96805341544686
30
0
41
1
10
141.995615623415
20
-1.99183020966871
30
0
41
1
10
141.977570851839
20
-1.99603169508586
30
0
41
1
10
141.941629131464
20
-2.00328696613894
30
0
41
1
10
141.887881586457
20
-2.01246513714463
30
0
41
1
10
141.834611510283
20
-2.01658588519999
30
0
41
1
10
141.72866120864
20
-2.0181985316037
30
0
41
1
10
141.658813983199
20
-2.01044635532156
30
0
41
1
10
141.520446090283
20
-1.97760773365337
30
0
41
1
10
141.383404763726
20
-1.92743259674123
30
0
41
1
10
141.248532184576
20
-1.84252962611592
30
0
41
1
10
141.164762119813
20
-1.77837896472781
30
0
41
1
10
141.148048425404
20
-1.76500369101782
30
0
41
1
10
141.114757707331
20
-1.73721335192764
30
0
41
1
10
141.064999440172
20
-1.69394720369979
30
0
41
1
10
141.015753468687
20
-1.64595500819061
30
0
41
1
10
140.983132680215
20
-1.61186422675971
30
0
0
SPLINE
5
CE
100
AcDbEntity
8
1
62
256
6
ByLayer
370
18
48
1
60
0
100
AcDbSpline
70
4
71
3
72
22
73
18
40
0
40
0
40
0
40
0
40
0.0465046195018271
40
0.0465046195018271
40
0.133186017728933
40
0.133186017728933
40
0.306548814183144
40
0.306548814183144
40
0.653274407091567
40
0.653274407091567
40
0.739955805318676
40
0.739955805318676
40
0.826637203545784
40
0.826637203545784
40
0.913318601772892
40
0.913318601772892
40
1
40
1
40
1
40
1
41
1
10
133.136995982481
20
11.3095873898727
30
0
41
1
10
133.25853013525
20
11.3096069976207
30
0
41
1
10
133.380068859591
20
11.3093640433161
30
0
41
1
10
133.72819721719
20
11.3079199427805
30
0
41
1
10
133.954805062814
20
11.306073388878
30
0
41
1
10
134.63470503979
20
11.2978381232904
30
0
41
1
10
135.088069218818
20
11.2887560184125
30
0
41
1
10
136.448293452582
20
11.250816559707
30
0
41
1
10
137.355298430888
20
11.2113121775133
30
0
41
1
10
138.488802773838
20
11.1437931031099
30
0
41
1
10
138.715491800951
20
11.1293791923526
30
0
41
1
10
139.168838210376
20
11.0987104660574
30
0
41
1
10
139.39548482551
20
11.082449336464
30
0
41
1
10
139.848791952592
20
11.0480919273813
30
0
41
1
10
140.075513005488
20
11.0300302986173
30
0
41
1
10
140.529182446125
20
10.9922135171902
30
0
41
1
10
140.756114247762
20
10.9724489365308
30
0
41
1
10
140.983132680209
20
10.9518282493114
30
0
0
SPLINE
5
CF
100
AcDbEntity
8
1
62
256
6
ByLayer
370
18
48
1
60
0
100
AcDbSpline
70
4
71
3
72
36
73
32
40
0
40
0
40
0
40
0
40
0.0992063509643114
40
0.0992063509643114
40
0.198412701928623
40
0.198412701928623
40
0.297619052892934
40
0.297619052892934
40
0.34722222837509
40
0.34722222837509
40
0.372023816116169
40
0.372023816116169
40
0.396825403857248
40
0.396825403857248
40
0.496031754821568
40
0.496031754821568
40
0.595238105785888
40
0.595238105785888
40
0.694444456750208
40
0.694444456750208
40
0.744047632232367
40
0.744047632232367
40
0.793650807714525
40
0.793650807714525
40
0.843253983196684
40
0.843253983196684
40
0.892857158678844
40
0.892857158678844
40
0.992063509643159
40
0.992063509643159
40
1
40
1
40
1
40
1
41
1
10
18.5557652149325
20
-9.03629790003231
30
0
41
1
10
19.1371692919969
20
-9.14436557983277
30
0
41
1
10
19.7185600772308
20
-9.24692769973737
30
0
41
1
10
20.881101415688
20
-9.4416799311557
30
0
41
1
10
21.4622512149855
20
-9.53387005310623
30
0
41
1
10
22.6241100687587
20
-9.70825209275722
30
0
41
1
10
23.2048185009662
20
-9.7904445322709
30
0
41
1
10
24.07540118804
20
-9.90634589981457
30
0
41
1
10
24.3655159684424
20
-9.94374605040952
30
0
41
1
10
24.8005551205006
20
-9.99798964580626
30
0
41
1
10
24.9455459069336
20
-10.0157614070916
30
0
41
1
10
25.2354814735452
20
-10.0506830625458
30
0
41
1
10
25.3804264880777
20
-10.0678320714233
30
0
41
1
10
26.1052827479282
20
-10.1517752749348
30
0
41
1
10
26.6855431454636
20
-10.2132296093738
30
0
41
1
10
27.8465048192526
20
-10.3252554564976
30
0
41
1
10
28.4272132079234
20
-10.3758179284276
30
0
41
1
10
29.5888953315662
20
-10.4662134851639
30
0
41
1
10
30.1698650806787
20
-10.5060493988237
30
0
41
1
10
31.0413745834616
20
-10.5577197975158
30
0
41
1
10
31.3318878499295
20
-10.5735937157564
30
0
41
1
10
31.9129189236969
20
-10.6026121553053
30
0
41
1
10
32.2034116678954
20
-10.615760441082
30
0
41
1
10
32.7848518141909
20
-10.639142182225
30
0
41
1
10
33.0757846729278
20
-10.649399662476
30
0
41
1
10
33.6574561151224
20
-10.6670759503239
30
0
41
1
10
33.9482543933458
20
-10.6744976299679
30
0
41
1
10
34.8204963306812
20
-10.6925611551104
30
0
41
1
10
35.4017902951725
20
-10.6990079273824
30
0
41
1
10
36.0292690086557
20
-10.6999651452223
30
0
41
1
10
36.0757468959801
20
-10.7000004614924
30
0
41
1
10
36.1222228149508
20
-10.7000001476801
30
0
0
SPLINE
5
D0
100
AcDbEntity
8
1
62
256
6
ByLayer
370
18
48
1
60
0
100
AcDbSpline
70
4
71
3
72
42
73
38
40
0
40
0
40
0
40
0
40
0.0262039620017776
40
0.0262039620017776
40
0.0704674182744254
40
0.0704674182744254
40
0.114730874547073
40
0.114730874547073
40
0.15899433081972
40
0.15899433081972
40
0.203257787092368
40
0.203257787092368
40
0.291784699637668
40
0.291784699637668
40
0.336048155910318
40
0.336048155910318
40
0.380311612182968
40
0.380311612182968
40
0.424575068455617
40
0.424575068455617
40
0.44670679659194
40
0.44670679659194
40
0.468838524728262
40
0.468838524728262
40
0.557365437273551
40
0.557365437273551
40
0.64589234981884
40
0.64589234981884
40
0.734419262364128
40
0.734419262364128
40
0.778682718636772
40
0.778682718636772
40
0.822946174909416
40
0.822946174909416
40
0.911473087454708
40
0.911473087454708
40
1
40
1
40
1
40
1
41
1
10
110.411174286937
20
7.82104195981748
30
0
41
1
10
110.583080374481
20
7.86133230521401
30
0
41
1
10
110.754973230305
20
7.90128802581884
30
0
41
1
10
111.217182904108
20
8.00784900357658
30
0
41
1
10
111.507470362012
20
8.07384089477273
30
0
41
1
10
112.087936250121
20
8.20395202738553
30
0
41
1
10
112.378099733816
20
8.26809864261216
30
0
41
1
10
112.958370414945
20
8.39439326191263
30
0
41
1
10
113.248590678207
20
8.45633321545756
30
0
41
1
10
113.829298474546
20
8.57764894734612
30
0
41
1
10
114.119764881574
20
8.63706366977914
30
0
41
1
10
114.991442122034
20
8.81171149451987
30
0
41
1
10
115.572931763818
20
8.92335159389597
30
0
41
1
10
116.445581006399
20
9.08388561392948
30
0
41
1
10
116.736533164006
20
9.13624137371954
30
0
41
1
10
117.318550312837
20
9.23867133318345
30
0
41
1
10
117.609507435416
20
9.28872643738495
30
0
41
1
10
118.191095307219
20
9.38650250324926
30
0
41
1
10
118.481757619692
20
9.43422846635653
30
0
41
1
10
118.917539206795
20
9.50407485009276
30
0
41
1
10
119.062764277931
20
9.52706664711198
30
0
41
1
10
119.353142156926
20
9.5724671230316
30
0
41
1
10
119.498295597642
20
9.59487430036918
30
0
41
1
10
120.224130192444
20
9.70512653677332
30
0
41
1
10
120.804961638707
20
9.78771035321236
30
0
41
1
10
121.966651544712
20
9.94227035901304
30
0
41
1
10
122.54751714614
20
10.0142351513555
30
0
41
1
10
123.709100552106
20
10.1477864712906
30
0
41
1
10
124.289814301058
20
10.2093770556189
30
0
41
1
10
125.160624659042
20
10.2940103156384
30
0
41
1
10
125.450852300976
20
10.3209267690886
30
0
41
1
10
126.031205454123
20
10.3721496844277
30
0
41
1
10
126.321306924088
20
10.396467259779
30
0
41
1
10
127.192143991132
20
10.4650095402214
30
0
41
1
10
127.773215160712
20
10.5049928077527
30
0
41
1
10
128.936090970407
20
10.5738992635015
30
0
41
1
10
129.517905017771
20
10.6028151625187
30
0
41
1
10
130.1
20
10.626227564118
30
0
0
SPLINE
5
D1
100
AcDbEntity
8
1
62
256
6
ByLayer
370
18
48
1
60
0
100
AcDbSpline
70
4
71
3
72
71
73
67
40
0
40
0
40
0
40
0
40
0.0422993952661903
40
0.0422993952661903
40
0.0634490928992846
40
0.0634490928992846
40
0.0845987905323789
40
0.0845987905323789
40
0.169197581064753
40
0.169197581064753
40
0.190347278697847
40
0.200922127514395
40
0.200922127514395
40
0.211496976330943
40
0.211496976330943
40
0.253796371597138
40
0.253796371597138
40
0.296095766863334
40
0.296095766863334
40
0.317245464496432
40
0.317245464496432
40
0.338395162129531
40
0.338395162129531
40
0.35954485976263
40
0.35954485976263
40
0.370119708579178
40
0.370119708579178
40
0.380694557395726
40
0.422993952661918
40
0.46529334792811
40
0.46529334792811
40
0.507592743194302
40
0.507592743194302
40
0.528742440827399
40
0.528742440827399
40
0.549892138460496
40
0.549892138460496
40
0.592191533726689
40
0.592191533726689
40
0.634490928992883
40
0.634490928992883
40
0.65564062662598
40
0.65564062662598
40
0.676790324259077
40
0.676790324259077
40
0.719089719525272
40
0.719089719525272
40
0.761389114791468
40
0.761389114791468
40
0.803688510057663
40
0.803688510057663
40
0.824838207690762
40
0.824838207690762
40
0.835413056507312
40
0.835413056507312
40
0.845987905323862
40
0.845987905323862
40
0.93058669585626
40
0.93058669585626
40
0.972886091122459
40
0.972886091122459
40
0.983460939939008
40
0.983460939939008
40
0.994035788755556
40
0.994035788755556
40
1
40
1
40
1
40
1
41
1
10
130.1
20
1.99278434486769
30
0
41
1
10
129.492763902144
20
2.1978342369639
30
0
41
1
10
128.886055916102
20
2.4019057888317
30
0
41
1
10
127.976878605655
20
2.70676954805811
30
0
41
1
10
127.673964308786
20
2.80817306096816
30
0
41
1
10
127.068070282084
20
3.00953240582703
30
0
41
1
10
126.765130764224
20
3.10960496417616
30
0
41
1
10
125.250494518231
20
3.60702976266148
30
0
41
1
10
124.038972325032
20
3.99559005485668
30
0
41
1
10
122.525285642512
20
4.4709282513254
30
0
41
1
10
122.071235193288
20
4.6127529923215
30
0
41
1
10
121.617284009885
20
4.75344318152878
30
0
41
1
10
121.314673845878
20
4.84698763359646
30
0
41
1
10
121.163382095729
20
4.8936386964543
30
0
41
1
10
120.406795201438
20
5.12577887236469
30
0
41
1
10
119.801141331256
20
5.30799614061706
30
0
41
1
10
118.58915349457
20
5.66574082808259
30
0
41
1
10
117.982819923599
20
5.84126931493378
30
0
41
1
10
117.072878073232
20
6.09971833042331
30
0
41
1
10
116.769490351552
20
6.1850596685689
30
0
41
1
10
116.162580748844
20
6.35415197723137
30
0
41
1
10
115.858991771963
20
6.43792218884133
30
0
41
1
10
115.252045670824
20
6.60379633315949
30
0
41
1
10
114.948729538601
20
6.68589687650234
30
0
41
1
10
114.493989264272
20
6.80777456455445
30
0
41
1
10
114.342441616361
20
6.84817271571771
30
0
41
1
10
114.039343888598
20
6.92836079783405
30
0
41
1
10
113.281624581905
20
7.12738179415618
30
0
41
1
10
111.917972165366
20
7.47272321506051
30
0
41
1
10
110.706343282532
20
7.76198527058654
30
0
41
1
10
109.495062013984
20
8.04259243103166
30
0
41
1
10
108.889597634199
20
8.17857394109149
30
0
41
1
10
107.981754229171
20
8.3761329668541
30
0
41
1
10
107.679232824001
20
8.44097447068819
30
0
41
1
10
107.073981308653
20
8.56791567230809
30
0
41
1
10
106.771273648509
20
8.63005978728856
30
0
41
1
10
105.862920512165
20
8.81256996518053
30
0
41
1
10
105.257045847728
20
8.9290200231361
30
0
41
1
10
104.04477526101
20
9.15168484745359
30
0
41
1
10
103.438378110605
20
9.25789810254298
30
0
41
1
10
102.528465558062
20
9.40960014764389
30
0
41
1
10
102.22510916032
20
9.45889751078425
30
0
41
1
10
101.618304176653
20
9.55494672972557
30
0
41
1
10
101.314834961357
20
9.60172826215859
30
0
41
1
10
100.404786629943
20
9.73796339902492
30
0
41
1
10
99.798022859621
20
9.82286983592041
30
0
41
1
10
98.5843595404546
20
9.98104996671131
30
0
41
1
10
97.9774744879603
20
10.0543420467837
30
0
41
1
10
96.763689399954
20
10.1894775584282
30
0
41
1
10
96.1567878851152
20
10.2513203589642
30
0
41
1
10
95.2465105725031
20
10.3354883234565
30
0
41
1
10
94.9430971324071
20
10.3621099583188
30
0
41
1
10
94.4880061945132
20
10.39987567052
30
0
41
1
10
94.3363051417684
20
10.4121068377504
30
0
41
1
10
94.032932537473
20
10.4357955758669
30
0
41
1
10
93.8812562080136
20
10.4472505814714
30
0
41
1
10
92.5162593924389
20
10.5468641329125
30
0
41
1
10
91.303565045428
20
10.6107763185531
30
0
41
1
10
89.485982331083
20
10.6706491626597
30
0
41
1
10
88.8803680625221
20
10.6845857995486
30
0
41
1
10
88.1237339903539
20
10.6944031867484
30
0
41
1
10
87.972426564721
20
10.6959860021009
30
0
41
1
10
87.669851102348
20
10.6983862684074
30
0
41
1
10
87.5185820260026
20
10.6992030955865
30
0
41
1
10
87.2819664564714
20
10.6998788396123
30
0
41
1
10
87.1966346277283
20
10.7000003652819
30
0
41
1
10
87.1112978868073
20
10.7000000567302
30
0
0
SPLINE
5
D2
100
AcDbEntity
8
1
62
256
6
ByLayer
370
18
48
1
60
0
100
AcDbSpline
70
4
71
3
72
53
73
49
40
0
40
0
40
0
40
0
40
0.129236450028579
40
0.129236450028579
40
0.193854675042868
40
0.193854675042868
40
0.258472900057157
40
0.258472900057157
40
0.323091125071447
40
0.323091125071447
40
0.355400237578591
40
0.355400237578591
40
0.371554793832165
40
0.371554793832165
40
0.387709350085739
40
0.387709350085739
40
0.452327575100039
40
0.452327575100039
40
0.516945800114339
40
0.516945800114339
40
0.58156402512864
40
0.58156402512864
40
0.597718581382216
40
0.597718581382216
40
0.613873137635791
40
0.613873137635791
40
0.646182250142941
40
0.646182250142941
40
0.710800475157241
40
0.710800475157241
40
0.77541870017154
40
0.77541870017154
40
0.783495978298327
40
0.783495978298327
40
0.791573256425115
40
0.80772781267869
40
0.840036925185841
40
0.840036925185841
40
0.904655150200143
40
0.904655150200143
40
0.920809706453719
40
0.920809706453719
40
0.928886984580507
40
0.928886984580507
40
0.936964262707295
40
0.969273375214447
40
0.969273375214447
40
1
40
1
40
1
40
1
41
1
10
10
20
-8.61091399343618
30
0
41
1
10
9.56663096869744
20
-8.74717150578707
30
0
41
1
10
9.14215684009955
20
-8.89358605071743
30
0
41
1
10
8.51885482316686
20
-9.1265406067991
30
0
41
1
10
8.31332597724003
20
-9.20641197683281
30
0
41
1
10
7.90681343361561
20
-9.3702481415431
30
0
41
1
10
7.70582919584024
20
-9.45421313145744
30
0
41
1
10
7.30852728839366
20
-9.62586686656405
30
0
41
1
10
7.11220877658823
20
-9.71355597646738
30
0
41
1
10
6.82137759920542
20
-9.84758142912648
30
0
41
1
10
6.72504229357753
20
-9.89267159718332
30
0
41
1
10
6.58147755608007
20
-9.96088859974148
30
0
41
1
10
6.53373461529145
20
-9.9837461177006
30
0
41
1
10
6.43886357600226
20
-10.029504091519
30
0
41
1
10
6.39172307755041
20
-10.0524100646848
30
0
41
1
10
6.15750407449843
20
-10.167044662479
30
0
41
1
10
5.97486791225862
20
-10.2590904598405
30
0
41
1
10
5.61941107103075
20
-10.4430425699662
30
0
41
1
10
5.44658756169886
20
-10.5349507031993
30
0
41
1
10
5.11133905699256
20
-10.7177108962265
30
0
41
1
10
4.9489089445531
20
-10.8085660306457
30
0
41
1
10
4.75296161496783
20
-10.9207934135183
30
0
41
1
10
4.7141278002037
20
-10.9431712410786
30
0
41
1
10
4.63719145684138
20
-10.9877718851499
30
0
41
1
10
4.59920452056403
20
-11.0099278002391
30
0
41
1
10
4.48685704776068
20
-11.0758427831682
30
0
41
1
10
4.41404179399865
20
-11.1190883241385
30
0
41
1
10
4.20199537948923
20
-11.2464821622541
30
0
41
1
10
4.06913927272143
20
-11.3282989886551
30
0
41
1
10
3.82174316496111
20
-11.4841604450419
30
0
41
1
10
3.70718835924788
20
-11.5582139331314
30
0
41
1
10
3.58987040118859
20
-11.6360274953709
30
0
41
1
10
3.57698515931145
20
-11.6446042138131
30
0
41
1
10
3.55162135063188
20
-11.6615471123486
30
0
41
1
10
3.51417247967868
20
-11.6866542237532
30
0
41
1
10
3.43098058810312
20
-11.7430615035377
30
0
41
1
10
3.36689842382236
20
-11.7875914682911
30
0
41
1
10
3.24858017277671
20
-11.8712864328725
30
0
41
1
10
3.18278234740063
20
-11.9199506827329
30
0
41
1
10
3.11821329673245
20
-11.9706972574195
30
0
41
1
10
3.10618708643574
20
-11.9803407543077
30
0
41
1
10
3.08951613700597
20
-11.9940199009867
30
0
41
1
10
3.08418204721281
20
-11.9984529969962
30
0
41
1
10
3.0740030514153
20
-12.0070301586712
30
0
41
1
10
3.04980101675193
20
-12.0277312188589
30
0
41
1
10
3.03178256192859
20
-12.0447359782973
30
0
41
1
10
3.01126714261599
20
-12.0666888334935
30
0
41
1
10
3.00478430567858
20
-12.0752661999062
30
0
41
1
10
3.00182542705127
20
-12.0817112495696
30
0
0
SPLINE
5
D3
100
AcDbEntity
8
1
62
256
6
ByLayer
370
18
48
1
60
0
100
AcDbSpline
70
4
71
3
72
51
73
47
40
0
40
0
40
0
40
0
40
0.0075810995781047
40
0.0075810995781047
40
0.0238502618801032
40
0.0238502618801032
40
0.0889269110880973
40
0.0889269110880973
40
0.121465235692094
40
0.121465235692094
40
0.137734397994092
40
0.137734397994092
40
0.15400356029609
40
0.15400356029609
40
0.219080209504085
40
0.219080209504085
40
0.284156858712079
40
0.284156858712079
40
0.316695183316077
40
0.316695183316077
40
0.332964345618075
40
0.332964345618075
40
0.349233507920073
40
0.349233507920073
40
0.414310157128067
40
0.414310157128067
40
0.479386806336061
40
0.479386806336061
40
0.544463455544055
40
0.544463455544055
40
0.577001780148053
40
0.593270942450051
40
0.593270942450051
40
0.609540104752049
40
0.609540104752049
40
0.67461675396004
40
0.67461675396004
40
0.739693403168032
40
0.739693403168032
40
0.804770052376024
40
0.804770052376024
40
0.869846701584016
40
0.869846701584016
40
0.934923350792008
40
0.934923350792008
40
1
40
1
40
1
40
1
41
1
10
3.04318632339186
20
-12.0906628363919
30
0
41
1
10
3.04670411814942
20
-12.0896737560787
30
0
41
1
10
3.05043308183826
20
-12.0885555842397
30
0
41
1
10
3.06280229365856
20
-12.084640325496
30
0
41
1
10
3.07217919905907
20
-12.081387933722
30
0
41
1
10
3.12364269240354
20
-12.0623033997528
30
0
41
1
10
3.17941379719213
20
-12.0380293195729
30
0
41
1
10
3.28339794963293
20
-11.989410068932
30
0
41
1
10
3.32145772882302
20
-11.9711638028938
30
0
41
1
10
3.38352811086349
20
-11.9408585447686
30
0
41
1
10
3.40506936542542
20
-11.9302570725223
30
0
41
1
10
3.4497099281021
20
-11.9081372905407
30
0
41
1
10
3.47272706597241
20
-11.8966598794563
30
0
41
1
10
3.59116306012368
20
-11.8372902936847
30
0
41
1
10
3.69658910123204
20
-11.7834796657854
30
0
41
1
10
3.9261632247092
20
-11.6653926441418
30
0
41
1
10
4.05032673010351
20
-11.6011070486969
30
0
41
1
10
4.24928117877366
20
-11.4980117837739
30
0
41
1
10
4.3177225063651
20
-11.4625319815721
30
0
41
1
10
4.42343561404391
20
-11.4077627445519
30
0
41
1
10
4.45914066438331
20
-11.3892693782007
30
0
41
1
10
4.53118445990134
20
-11.3519725180018
30
0
41
1
10
4.56756245344721
20
-11.3331486860535
30
0
41
1
10
4.7511629919255
20
-11.2382063800323
30
0
41
1
10
4.9035004695676
20
-11.1596334731571
30
0
41
1
10
5.2176033692138
20
-10.9983642536982
30
0
41
1
10
5.37937444220407
20
-10.9156640443686
30
0
41
1
10
5.71119161300999
20
-10.7469370412413
30
0
41
1
10
5.88124078928473
20
-10.6609080027676
30
0
41
1
10
6.14179774340559
20
-10.5298043967375
30
0
41
1
10
6.27344884432341
20
-10.4637353200036
30
0
41
1
10
6.40703642341649
20
-10.3969542634113
30
0
41
1
10
6.49651232600567
20
-10.3522813484842
30
0
41
1
10
6.54147575636006
20
-10.3298605146382
30
0
41
1
10
6.76683347092279
20
-10.2176249459572
30
0
41
1
10
6.94916991418413
20
-10.1272577904589
30
0
41
1
10
7.31734501171763
20
-9.94555405770518
30
0
41
1
10
7.50318403110128
20
-9.85421609262269
30
0
41
1
10
7.87786785178059
20
-9.67067102619063
30
0
41
1
10
8.06671250029086
20
-9.57846260489089
30
0
41
1
10
8.4470085710235
20
-9.3932324591762
30
0
41
1
10
8.63845954391979
20
-9.30020939746973
30
0
41
1
10
9.02367655042582
20
-9.11340098928025
30
0
41
1
10
9.21744204288498
20
-9.01961431007828
30
0
41
1
10
9.60711932799364
20
-8.83136509260953
30
0
41
1
10
9.80303068211512
20
-8.73690132411494
30
0
41
1
10
10
20
-8.64217998207496
30
0
0
SPLINE
5
D4
100
AcDbEntity
8
1
62
256
6
ByLayer
370
18
48
1
60
0
100
AcDbSpline
70
4
71
3
72
53
73
49
40
0
40
0
40
0
40
0
40
0.0035679862383765
40
0.0035679862383765
40
0.0196394703313061
40
0.0196394703313061
40
0.035710954424236
40
0.035710954424236
40
0.099996890795955
40
0.099996890795955
40
0.132139858981815
40
0.132139858981815
40
0.148211343074745
40
0.148211343074745
40
0.164282827167675
40
0.164282827167675
40
0.228568763539394
40
0.228568763539394
40
0.292854699911113
40
0.292854699911113
40
0.324997668096971
40
0.324997668096971
40
0.3410691521899
40
0.3410691521899
40
0.357140636282829
40
0.357140636282829
40
0.421426572654546
40
0.421426572654546
40
0.485712509026262
40
0.485712509026262
40
0.549998445397979
40
0.549998445397979
40
0.582141413583838
40
0.598212897676767
40
0.598212897676767
40
0.614284381769695
40
0.614284381769695
40
0.678570318141413
40
0.678570318141413
40
0.74285625451313
40
0.74285625451313
40
0.807142190884848
40
0.807142190884848
40
0.871428127256565
40
0.871428127256565
40
0.935714063628283
40
0.935714063628283
40
1
40
1
40
1
40
1
41
1
10
3.02776360947541
20
12.0944472692926
30
0
41
1
10
3.02910556705947
20
12.0941779977478
30
0
41
1
10
3.0304965559213
20
12.0938791154394
30
0
41
1
10
3.03842348547914
20
12.0920707112502
30
0
41
1
10
3.04592728275389
20
12.0899818165267
30
0
41
1
10
3.06280229365856
20
12.084640325496
30
0
41
1
10
3.07217919905907
20
12.081387933722
30
0
41
1
10
3.12364269240354
20
12.0623033997527
30
0
41
1
10
3.17941379719213
20
12.0380293195729
30
0
41
1
10
3.28339794963293
20
11.989410068932
30
0
41
1
10
3.32145772882299
20
11.9711638028938
30
0
41
1
10
3.38352811086349
20
11.9408585447686
30
0
41
1
10
3.40506936542542
20
11.9302570725223
30
0
41
1
10
3.4497099281021
20
11.9081372905407
30
0
41
1
10
3.47272706597235
20
11.8966598794563
30
0
41
1
10
3.59116306012362
20
11.8372902936847
30
0
41
1
10
3.69658910123201
20
11.7834796657854
30
0
41
1
10
3.92616322470917
20
11.6653926441418
30
0
41
1
10
4.05032673010351
20
11.6011070486969
30
0
41
1
10
4.24928117877363
20
11.4980117837739
30
0
41
1
10
4.31772250636507
20
11.4625319815721
30
0
41
1
10
4.42343561404391
20
11.4077627445519
30
0
41
1
10
4.45914066438331
20
11.3892693782007
30
0
41
1
10
4.53118445990137
20
11.3519725180018
30
0
41
1
10
4.56756245344721
20
11.3331486860535
30
0
41
1
10
4.75116299192547
20
11.2382063800323
30
0
41
1
10
4.9035004695676
20
11.1596334731571
30
0
41
1
10
5.21760336921383
20
10.9983642536982
30
0
41
1
10
5.37937444220407
20
10.9156640443685
30
0
41
1
10
5.71119161300999
20
10.7469370412412
30
0
41
1
10
5.8812407892847
20
10.6609080027676
30
0
41
1
10
6.14179774340562
20
10.5298043967375
30
0
41
1
10
6.27344884432341
20
10.4637353200036
30
0
41
1
10
6.40703642341649
20
10.3969542634113
30
0
41
1
10
6.49651232600564
20
10.3522813484842
30
0
41
1
10
6.54147575636006
20
10.3298605146382
30
0
41
1
10
6.76683347092282
20
10.2176249459572
30
0
41
1
10
6.94916991418413
20
10.1272577904589
30
0
41
1
10
7.31734501171758
20
9.94555405770518
30
0
41
1
10
7.50318403110126
20
9.85421609262269
30
0
41
1
10
7.87786785178056
20
9.67067102619063
30
0
41
1
10
8.06671250029086
20
9.57846260489089
30
0
41
1
10
8.4470085710235
20
9.3932324591762
30
0
41
1
10
8.63845954391977
20
9.30020939746973
30
0
41
1
10
9.02367655042576
20
9.11340098928022
30
0
41
1
10
9.21744204288501
20
9.01961431007831
30
0
41
1
10
9.6071193279937
20
8.83136509260956
30
0
41
1
10
9.80303068211515
20
8.73690132411491
30
0
41
1
10
10
20
8.64217998207494
30
0
0
SPLINE
5
D5
100
AcDbEntity
8
1
62
256
6
ByLayer
370
13
48
1
60
0
100
AcDbSpline
70
4
71
3
72
80
73
76
40
0
40
0
40
0
40
0
40
0.0312500000000016
40
0.0312500000000016
40
0.0625000000000032
40
0.0625000000000032
40
0.0937500000000047
40
0.0937500000000047
40
0.125000000000006
40
0.125000000000006
40
0.156250000000008
40
0.156250000000008
40
0.187500000000009
40
0.187500000000009
40
0.218750000000011
40
0.218750000000011
40
0.250000000000012
40
0.250000000000012
40
0.281250000000014
40
0.281250000000014
40
0.312500000000016
40
0.312500000000016
40
0.343750000000017
40
0.343750000000017
40
0.359375000000018
40
0.359375000000018
40
0.363281250000018
40
0.363281250000018
40
0.367187500000018
40
0.367187500000018
40
0.375000000000018
40
0.375000000000018
40
0.406250000000017
40
0.406250000000017
40
0.437500000000016
40
0.437500000000016
40
0.468750000000015
40
0.468750000000015
40
0.500000000000014
40
0.500000000000014
40
0.531250000000013
40
0.531250000000013
40
0.562500000000012
40
0.562500000000012
40
0.593750000000012
40
0.593750000000012
40
0.625000000000011
40
0.625000000000011
40
0.65625000000001
40
0.65625000000001
40
0.687500000000009
40
0.687500000000009
40
0.718750000000008
40
0.718750000000008
40
0.726562500000008
40
0.726562500000008
40
0.734375000000008
40
0.734375000000008
40
0.750000000000007
40
0.750000000000007
40
0.781250000000007
40
0.781250000000007
40
0.812500000000006
40
0.812500000000006
40
0.843750000000005
40
0.843750000000005
40
0.875000000000004
40
0.875000000000004
40
0.906250000000003
40
0.906250000000003
40
0.937500000000002
40
0.937500000000002
40
0.968750000000001
40
0.968750000000001
40
1
40
1
40
1
40
1
41
1
10
133.524635300391
20
11.311
30
0
41
1
10
133.602327981431
20
11.311
30
0
41
1
10
133.680020662471
20
11.2832642535967
30
0
41
1
10
133.835406024551
20
11.164737760622
30
0
41
1
10
133.913098705591
20
11.073911137406
30
0
41
1
10
134.06848406767
20
10.8237926691628
30
0
41
1
10
134.14617674871
20
10.6644695003542
30
0
41
1
10
134.30156211079
20
10.2752250008802
30
0
41
1
10
134.37925479183
20
10.045284944713
30
0
41
1
10
134.534640153909
20
9.51673308522606
30
0
41
1
10
134.612332834949
20
9.21812180631704
30
0
41
1
10
134.767718197029
20
8.55850926319954
30
0
41
1
10
134.845410878068
20
8.19753021104248
30
0
41
1
10
135.000796240148
20
7.4234823616053
30
0
41
1
10
135.078488921188
20
7.01045410000279
30
0
41
1
10
135.233874283268
20
6.14566651588973
30
0
41
1
10
135.311566964308
20
5.69395763223869
30
0
41
1
10
135.466952326387
20
4.76682484447329
30
0
41
1
10
135.544645007427
20
4.29145070438699
30
0
41
1
10
135.700030369507
20
3.33211636743036
30
0
41
1
10
135.777723050547
20
2.84819611469197
30
0
41
1
10
135.933108412626
20
1.8856331360908
30
0
41
1
10
136.010801093666
20
1.40701535559927
30
0
41
1
10
136.127340115226
20
0.701753614701914
30
0
41
1
10
136.166186455746
20
0.468757325159203
30
0
41
1
10
136.214744381395
20
0.18087045358331
30
0
41
1
10
136.224455966526
20
0.123460572852196
30
0
41
1
10
136.243879136785
20
0.0089926872892647
30
0
41
1
10
136.253590721915
20
-0.0480304998777399
30
0
41
1
10
136.282725477305
20
-0.219971326321314
30
0
41
1
10
136.302148647565
20
-0.335295075844982
30
0
41
1
10
136.399264498865
20
-0.915048586240033
30
0
41
1
10
136.476957179905
20
-1.38898942524375
30
0
41
1
10
136.632342541985
20
-2.34650185245721
30
0
41
1
10
136.710035223024
20
-2.83005405224114
30
0
41
1
10
136.865420585104
20
-3.79365010104095
30
0
41
1
10
136.943113266144
20
-4.27365885576538
30
0
41
1
10
137.098498628224
20
-5.21536211558703
30
0
41
1
10
137.176191309263
20
-5.67700939060322
30
0
41
1
10
137.331576671343
20
-6.56677043191672
30
0
41
1
10
137.409269352383
20
-6.99483279661482
30
0
41
1
10
137.564654714463
20
-7.80330561050857
30
0
41
1
10
137.642347395502
20
-8.18367095314935
30
0
41
1
10
137.797732757582
20
-8.88522140182255
30
0
41
1
10
137.875425438622
20
-9.20637726712886
30
0
41
1
10
138.030810800701
20
-9.78172023696072
30
0
41
1
10
138.108503481741
20
-10.0358992956349
30
0
41
1
10
138.263888843821
20
-10.4738146642524
30
0
41
1
10
138.341581524861
20
-10.6575636216188
30
0
41
1
10
138.49696688694
20
-10.9553828263349
30
0
41
1
10
138.57465956798
20
-11.0694809340486
30
0
41
1
10
138.73004493006
20
-11.2323679501051
30
0
41
1
10
138.8077376111
20
-11.2811920377371
30
0
41
1
10
138.9048534624
20
-11.3057775565106
30
0
41
1
10
138.92427663266
20
-11.3088773312962
30
0
41
1
10
138.96312297318
20
-11.311567882274
30
0
41
1
10
138.982546143439
20
-11.3111776248383
30
0
41
1
10
139.040815654219
20
-11.3047355484706
30
0
41
1
10
139.079661994739
20
-11.2933615389585
30
0
41
1
10
139.196201016299
20
-11.2365460273538
30
0
41
1
10
139.273893697339
20
-11.1683322980182
30
0
41
1
10
139.429279059418
20
-10.9649931958356
30
0
41
1
10
139.506971740458
20
-10.8298340257147
30
0
41
1
10
139.662357102538
20
-10.4892286879876
30
0
41
1
10
139.740049783578
20
-10.2837585423198
30
0
41
1
10
139.895435145657
20
-9.80298841102658
30
0
41
1
10
139.973127826697
20
-9.52768173655468
30
0
41
1
10
140.128513188777
20
-8.91201541834755
30
0
41
1
10
140.206205869817
20
-8.57167054723752
30
0
41
1
10
140.361591231896
20
-7.83491476120429
30
0
41
1
10
140.439283912936
20
-7.43853877245209
30
0
41
1
10
140.594669275016
20
-6.60216129357977
30
0
41
1
10
140.672361956056
20
-6.16220797540174
30
0
41
1
10
140.827747318135
20
-5.25329199744766
30
0
41
1
10
140.905439999175
20
-4.78438051399939
30
0
41
1
10
140.983132680215
20
-4.30859446647892
30
0
0
SPLINE
5
D6
100
AcDbEntity
8
1
62
256
6
ByLayer
370
13
48
1
60
0
100
AcDbSpline
70
4
71
3
72
42
73
38
40
0
40
0
40
0
40
0
40
0.062500000000002
40
0.062500000000002
40
0.125000000000004
40
0.125000000000004
40
0.187500000000006
40
0.187500000000006
40
0.218750000000006
40
0.218750000000006
40
0.234375000000006
40
0.234375000000006
40
0.250000000000006
40
0.250000000000006
40
0.312500000000006
40
0.312500000000006
40
0.375000000000005
40
0.375000000000005
40
0.437500000000005
40
0.437500000000005
40
0.500000000000004
40
0.500000000000004
40
0.562500000000003
40
0.562500000000003
40
0.625000000000003
40
0.625000000000003
40
0.687500000000002
40
0.687500000000002
40
0.750000000000002
40
0.750000000000002
40
0.812500000000001
40
0.812500000000001
40
0.875000000000001
40
0.875000000000001
40
0.9375
40
0.9375
40
1
40
1
40
1
40
1
41
1
10
130.1
20
-5.03693567156375
30
0
41
1
10
130.173846461985
20
-4.59334020507069
30
0
41
1
10
130.247692923971
20
-4.14003285273128
30
0
41
1
10
130.395385847941
20
-3.22683539187372
30
0
41
1
10
130.469232309927
20
-2.76697536160634
30
0
41
1
10
130.616925233897
20
-1.85246912745706
30
0
41
1
10
130.690771695883
20
-1.39784178451688
30
0
41
1
10
130.801541388861
20
-0.727260185300878
30
0
41
1
10
130.838464619854
20
-0.505609954177459
30
0
41
1
10
130.893849466342
20
-0.176722593135736
30
0
41
1
10
130.912311081839
20
-0.0679533202237224
30
0
41
1
10
130.949234312832
20
0.149449592487088
30
0
41
1
10
130.967695928328
20
0.258791543036409
30
0
41
1
10
131.06000400581
20
0.808410105660812
30
0
41
1
10
131.133850467795
20
1.25750109129976
30
0
41
1
10
131.281543391766
20
2.16552996509912
30
0
41
1
10
131.355389853751
20
2.6244541604238
30
0
41
1
10
131.503082777722
20
3.54112097474851
30
0
41
1
10
131.576929239707
20
3.99883819722618
30
0
41
1
10
131.724622163678
20
4.90057066446292
30
0
41
1
10
131.798468625663
20
5.34455079260957
30
0
41
1
10
131.946161549634
20
6.20571526929365
30
0
41
1
10
132.020008011619
20
6.62285979816355
30
0
41
1
10
132.16770093559
20
7.41783221317678
30
0
41
1
10
132.241547397575
20
7.79562268988235
30
0
41
1
10
132.389240321546
20
8.50112640047428
30
0
41
1
10
132.463086783531
20
8.82881184656509
30
0
41
1
10
132.610779707502
20
9.42611010071857
30
0
41
1
10
132.684626169487
20
9.69570977136706
30
0
41
1
10
132.832319093458
20
10.1722366625136
30
0
41
1
10
132.906165555443
20
10.3791667273757
30
0
41
1
10
133.053858479414
20
10.7293059146829
30
0
41
1
10
133.127704941399
20
10.8725314205185
30
0
41
1
10
133.27539786537
20
11.0974632470068
30
0
41
1
10
133.349244327356
20
11.1791945243996
30
0
41
1
10
133.496937251326
20
11.2859489608332
30
0
41
1
10
133.570783713311
20
11.311
30
0
41
1
10
133.644630175297
20
11.311
30
0
0
SPLINE
5
D7
100
AcDbEntity
8
1
62
256
6
ByLayer
370
13
48
1
60
0
100
AcDbSpline
70
4
71
3
72
80
73
76
40
0
40
0
40
0
40
0
40
0.0312499999999997
40
0.0312499999999997
40
0.0624999999999993
40
0.0624999999999993
40
0.0937499999999989
40
0.0937499999999989
40
0.124999999999999
40
0.124999999999999
40
0.156249999999998
40
0.156249999999998
40
0.187499999999998
40
0.187499999999998
40
0.218749999999998
40
0.218749999999998
40
0.249999999999997
40
0.249999999999997
40
0.281249999999997
40
0.281249999999997
40
0.312499999999997
40
0.312499999999997
40
0.328124999999996
40
0.328124999999996
40
0.335937499999996
40
0.339843749999996
40
0.339843749999996
40
0.343749999999996
40
0.343749999999996
40
0.374999999999996
40
0.374999999999996
40
0.406249999999995
40
0.406249999999995
40
0.437499999999995
40
0.437499999999995
40
0.468749999999994
40
0.468749999999994
40
0.499999999999994
40
0.499999999999994
40
0.531249999999994
40
0.531249999999994
40
0.562499999999993
40
0.562499999999993
40
0.593749999999993
40
0.593749999999993
40
0.624999999999993
40
0.624999999999993
40
0.656249999999992
40
0.656249999999992
40
0.671874999999992
40
0.671874999999992
40
0.679687499999992
40
0.683593749999992
40
0.683593749999992
40
0.687499999999992
40
0.687499999999992
40
0.718749999999992
40
0.718749999999992
40
0.749999999999993
40
0.749999999999993
40
0.781249999999994
40
0.781249999999994
40
0.812499999999995
40
0.812499999999995
40
0.843749999999996
40
0.843749999999996
40
0.874999999999996
40
0.874999999999996
40
0.906249999999997
40
0.906249999999997
40
0.937499999999998
40
0.937499999999998
40
0.968749999999999
40
0.968749999999999
40
1
40
1
40
1
40
1
41
1
10
133.035401763786
20
11.311
30
0
41
1
10
133.118190627499
20
11.311
30
0
41
1
10
133.200979491212
20
11.2794945500336
30
0
41
1
10
133.366557218638
20
11.1443697361903
30
0
41
1
10
133.449346082351
20
11.0407012334589
30
0
41
1
10
133.614923809776
20
10.7550338136275
30
0
41
1
10
133.697712673489
20
10.5729935750262
30
0
41
1
10
133.863290400914
20
10.1287474124305
30
0
41
1
10
133.946079264627
20
9.86652043092116
30
0
41
1
10
134.111656992053
20
9.26543021694906
30
0
41
1
10
134.194445855766
20
8.92657551695461
30
0
41
1
10
134.360023583191
20
8.18134235674108
30
0
41
1
10
134.442812446904
20
7.77500352554671
30
0
41
1
10
134.60839017433
20
6.90877173051825
30
0
41
1
10
134.691179038042
20
6.44894138103052
30
0
41
1
10
134.856756765468
20
5.49297936993634
30
0
41
1
10
134.939545629181
20
4.99691828080191
30
0
41
1
10
135.105123356606
20
3.98697062021111
30
0
41
1
10
135.187912220319
20
3.47314654746995
30
0
41
1
10
135.353489947745
20
2.44531562260798
30
0
41
1
10
135.436278811458
20
1.93135191015202
30
0
41
1
10
135.560462107027
20
1.17165994390643
30
0
41
1
10
135.601856538883
20
0.920281730829544
30
0
41
1
10
135.663948186668
20
0.547177878207378
30
0
41
1
10
135.69499401056
20
0.361614238684183
30
0
41
1
10
135.726039834453
20
0.177731376928563
30
0
41
1
10
135.746737050381
20
0.0555366718721757
30
0
41
1
10
135.757085658345
20
-0.005229149090809
30
0
41
1
10
135.850223130022
20
-0.554122338957086
30
0
41
1
10
135.933011993734
20
-1.05496147599371
30
0
41
1
10
136.09858972116
20
-2.07044404963099
30
0
41
1
10
136.181378584873
20
-2.58506546763883
30
0
41
1
10
136.346956312298
20
-3.61269892196359
30
0
41
1
10
136.429745176011
20
-4.12566579240951
30
0
41
1
10
136.595322903437
20
-5.13223355907414
30
0
41
1
10
136.678111767149
20
-5.62577065832986
30
0
41
1
10
136.843689494575
20
-6.57503906738623
30
0
41
1
10
136.926478358288
20
-7.03069983336337
30
0
41
1
10
137.092056085713
20
-7.8871602757356
30
0
41
1
10
137.174844949426
20
-8.28789886760688
30
0
41
1
10
137.340422676852
20
-9.02088311599309
30
0
41
1
10
137.423211540565
20
-9.35309176457889
30
0
41
1
10
137.58878926799
20
-9.94033111547526
30
0
41
1
10
137.671578131703
20
-10.1953561703523
30
0
41
1
10
137.837155859129
20
-10.62514929428
30
0
41
1
10
137.919944722842
20
-10.7999407251557
30
0
41
1
10
138.085522450267
20
-11.0715099019201
30
0
41
1
10
138.16831131398
20
-11.1683301959098
30
0
41
1
10
138.292494609549
20
-11.2599508358551
30
0
41
1
10
138.333889041406
20
-11.2815852830375
30
0
41
1
10
138.39598068919
20
-11.3014989959726
30
0
41
1
10
138.427026513082
20
-11.3083232329175
30
0
41
1
10
138.458072336975
20
-11.3106171257754
30
0
41
1
10
138.478769552903
20
-11.3111592163939
30
0
41
1
10
138.489118160867
20
-11.3109394835518
30
0
41
1
10
138.582255632544
20
-11.3044895701853
30
0
41
1
10
138.665044496257
20
-11.266791990201
30
0
41
1
10
138.830622223682
20
-11.1185746926813
30
0
41
1
10
138.913411087395
20
-11.0080060463047
30
0
41
1
10
139.078988814821
20
-10.7081727506491
30
0
41
1
10
139.161777678533
20
-10.5188681119782
30
0
41
1
10
139.327355405959
20
-10.0601822829356
30
0
41
1
10
139.410144269672
20
-9.79078241937555
30
0
41
1
10
139.575721997097
20
-9.17594591277773
30
0
41
1
10
139.65851086081
20
-8.8305207009991
30
0
41
1
10
139.824088588236
20
-8.07323016668263
30
0
41
1
10
139.906877451949
20
-7.66140702574236
30
0
41
1
10
140.072455179374
20
-6.78566302102786
30
0
41
1
10
140.155244043087
20
-6.3218061737519
30
0
41
1
10
140.320821770513
20
-5.35944675888678
30
0
41
1
10
140.403610634225
20
-4.86101465666965
30
0
41
1
10
140.569188361651
20
-3.84798590519668
30
0
41
1
10
140.651977225364
20
-3.33345036192378
30
0
41
1
10
140.817554952789
20
-2.30569280901497
30
0
41
1
10
140.900343816502
20
-1.79251188216699
30
0
41
1
10
140.983132680215
20
-1.28744140179373
30
0
0
SPLINE
5
D8
100
AcDbEntity
8
1
62
256
6
ByLayer
370
13
48
1
60
0
100
AcDbSpline
70
4
71
3
72
42
73
38
40
0
40
0
40
0
40
0
40
0.0625000000000001
40
0.0625000000000001
40
0.0937499999999998
40
0.0937499999999998
40
0.109375
40
0.109375
40
0.125
40
0.125
40
0.1875
40
0.1875
40
0.25
40
0.25
40
0.3125
40
0.3125
40
0.375
40
0.375
40
0.4375
40
0.4375
40
0.5
40
0.5
40
0.5625
40
0.5625
40
0.625
40
0.625
40
0.6875
40
0.6875
40
0.75
40
0.75
40
0.8125
40
0.8125
40
0.875
40
0.875
40
0.9375
40
0.9375
40
1
40
1
40
1
40
1
41
1
10
130.1
20
-2.02431414086945
30
0
41
1
10
130.163654096639
20
-1.63128532666781
30
0
41
1
10
130.227308193279
20
-1.24102086504948
30
0
41
1
10
130.322789338238
20
-0.664382459715171
30
0
41
1
10
130.354616386558
20
-0.473620152137158
30
0
41
1
10
130.402356959037
20
-0.190142274729368
30
0
41
1
10
130.418270483197
20
-0.0960932927367537
30
0
41
1
10
130.450097531517
20
0.0910432372250511
30
0
41
1
10
130.466011055677
20
0.185058493368615
30
0
41
1
10
130.545578676476
20
0.657441780003523
30
0
41
1
10
130.609232773115
20
1.04250684710132
30
0
41
1
10
130.736540966394
20
1.82142072383525
30
0
41
1
10
130.800195063033
20
2.21526416018088
30
0
41
1
10
130.927503256312
20
3.00501010499147
30
0
41
1
10
130.991157352952
20
3.40090240519365
30
0
41
1
10
131.118465546231
20
4.18706445037907
30
0
41
1
10
131.18211964287
20
4.57731947950668
30
0
41
1
10
131.309427836149
20
5.34394443974767
30
0
41
1
10
131.373081932788
20
5.72029642204458
30
0
41
1
10
131.500390126067
20
6.45076772160144
30
0
41
1
10
131.564044222707
20
6.80486799283204
30
0
41
1
10
131.691352415985
20
7.48296724579748
30
0
41
1
10
131.755006512625
20
7.80694870939121
30
0
41
1
10
131.882314705904
20
8.4179795825539
30
0
41
1
10
131.945968802543
20
8.70501553543059
30
0
41
1
10
132.073276995822
20
9.2368365841898
30
0
41
1
10
132.136931092461
20
9.48161411970796
30
0
41
1
10
132.26423928574
20
9.92543297593926
30
0
41
1
10
132.32789338238
20
10.1244733493047
30
0
41
1
10
132.455201575658
20
10.4752952020425
30
0
41
1
10
132.518855672298
20
10.6270818561994
30
0
41
1
10
132.646163865577
20
10.8837698630479
30
0
41
1
10
132.709817962216
20
10.9886810596567
30
0
41
1
10
132.837126155495
20
11.1536563560234
30
0
41
1
10
132.900780252134
20
11.21373301063
30
0
41
1
10
133.028088445413
20
11.2923981865329
30
0
41
1
10
133.091742542052
20
11.311
30
0
41
1
10
133.155396638692
20
11.311
30
0
0
SPLINE
5
D9
100
AcDbEntity
8
1
62
256
6
ByLayer
370
13
48
1
60
0
100
AcDbSpline
70
4
71
3
72
84
73
80
40
0
40
0
40
0
40
0
40
0.0312500000000018
40
0.0312500000000018
40
0.0625000000000035
40
0.0625000000000035
40
0.0937500000000053
40
0.0937500000000053
40
0.125000000000007
40
0.125000000000007
40
0.156250000000009
40
0.156250000000009
40
0.18750000000001
40
0.18750000000001
40
0.218750000000012
40
0.218750000000012
40
0.250000000000014
40
0.250000000000014
40
0.281250000000016
40
0.281250000000016
40
0.312500000000017
40
0.312500000000017
40
0.320312500000018
40
0.320312500000018
40
0.324218750000018
40
0.324218750000018
40
0.328125000000018
40
0.343750000000018
40
0.343750000000018
40
0.375000000000018
40
0.375000000000018
40
0.406250000000017
40
0.406250000000017
40
0.437500000000017
40
0.437500000000017
40
0.468750000000016
40
0.468750000000016
40
0.500000000000016
40
0.500000000000016
40
0.531250000000015
40
0.531250000000015
40
0.562500000000015
40
0.562500000000015
40
0.593750000000014
40
0.593750000000014
40
0.625000000000014
40
0.625000000000014
40
0.640625000000014
40
0.640625000000014
40
0.648437500000014
40
0.648437500000014
40
0.656250000000013
40
0.656250000000013
40
0.687500000000012
40
0.687500000000012
40
0.718750000000011
40
0.718750000000011
40
0.75000000000001
40
0.75000000000001
40
0.781250000000009
40
0.781250000000009
40
0.812500000000008
40
0.812500000000008
40
0.843750000000007
40
0.843750000000007
40
0.875000000000006
40
0.875000000000006
40
0.906250000000005
40
0.906250000000005
40
0.937500000000004
40
0.937500000000004
40
0.953125000000004
40
0.953125000000004
40
0.960937500000004
40
0.964843750000003
40
0.964843750000003
40
0.968750000000003
40
0.968750000000003
40
1
40
1
40
1
40
1
41
1
10
132.546168227182
20
11.311
30
0
41
1
10
132.634053273567
20
11.311
30
0
41
1
10
132.721938319953
20
11.2754820211451
30
0
41
1
10
132.897708412725
20
11.1226095739999
30
0
41
1
10
132.98559345911
20
11.00518913372
30
0
41
1
10
133.161363551882
20
10.6814834701951
30
0
41
1
10
133.249248598268
20
10.4751451216668
30
0
41
1
10
133.425018691039
20
9.97232831762119
30
0
41
1
10
133.512903737425
20
9.67582820525294
30
0
41
1
10
133.688673830197
20
8.99835754897609
30
0
41
1
10
133.776558876582
20
8.61740913758987
30
0
41
1
10
133.952328969354
20
7.78368654661284
30
0
41
1
10
134.04021401574
20
7.3309769601367
30
0
41
1
10
134.215984108511
20
6.37203015643564
30
0
41
1
10
134.303869154897
20
5.86588379871691
30
0
41
1
10
134.479639247668
20
4.82160816986226
30
0
41
1
10
134.567524294054
20
4.28357164419251
30
0
41
1
10
134.743294386826
20
3.19745563779776
30
0
41
1
10
134.831179433211
20
2.64944879562179
30
0
41
1
10
135.006949525983
20
1.56316834398777
30
0
41
1
10
135.094834572369
20
1.02493557031906
30
0
41
1
10
135.204690880351
20
0.368150612273951
30
0
41
1
10
135.226662141947
20
0.23758312210893
30
0
41
1
10
135.259619034342
20
0.0430680891579982
30
0
41
1
10
135.27060466514
20
-0.0214118503295424
30
0
41
1
10
135.292575926737
20
-0.150988879445691
30
0
41
1
10
135.347504080728
20
-0.476048163268445
30
0
41
1
10
135.402432234719
20
-0.806414074188325
30
0
41
1
10
135.534259804298
20
-1.60684646044979
30
0
41
1
10
135.622144850683
20
-2.15066545335048
30
0
41
1
10
135.797914943455
20
-3.24138257076416
30
0
41
1
10
135.885799989841
20
-3.78822781377568
30
0
41
1
10
136.061570082612
20
-4.8642472028192
30
0
41
1
10
136.149455128998
20
-5.39333946109585
30
0
41
1
10
136.325225221769
20
-6.41175669940398
30
0
41
1
10
136.413110268155
20
-6.90098672940309
30
0
41
1
10
136.588880360927
20
-7.81896304611428
30
0
41
1
10
136.676765407313
20
-8.24762535629489
30
0
41
1
10
136.852535500084
20
-9.02791043250414
30
0
41
1
10
136.94042054647
20
-9.37948277625361
30
0
41
1
10
137.116190639241
20
-9.99528939819021
30
0
41
1
10
137.204075685627
20
-10.2595180229924
30
0
41
1
10
137.379845778399
20
-10.6974662659438
30
0
41
1
10
137.467730824784
20
-10.8712208447682
30
0
41
1
10
137.643500917556
20
-11.131708041916
30
0
41
1
10
137.731385963942
20
-11.2185006266738
30
0
41
1
10
137.86321353352
20
-11.2899132326176
30
0
41
1
10
137.907156056713
20
-11.3039556588655
30
0
41
1
10
137.973069841503
20
-11.3114218050626
30
0
41
1
10
137.995041103099
20
-11.3116662878649
30
0
41
1
10
138.038983626292
20
-11.3076977659245
30
0
41
1
10
138.060954887888
20
-11.3034588538698
30
0
41
1
10
138.17081119587
20
-11.2705400364453
30
0
41
1
10
138.258696242256
20
-11.2065507532511
30
0
41
1
10
138.434466335028
20
-10.9936439167291
30
0
41
1
10
138.522351381414
20
-10.8446628514083
30
0
41
1
10
138.698121474185
20
-10.4566294385768
30
0
41
1
10
138.786006520571
20
-10.2175333170527
30
0
41
1
10
138.961776613342
20
-9.65041662823765
30
0
41
1
10
139.049661659728
20
-9.32238939102399
30
0
41
1
10
139.2254317525
20
-8.58566601687238
30
0
41
1
10
139.313316798885
20
-8.17700833258152
30
0
41
1
10
139.489086891657
20
-7.29392952416242
30
0
41
1
10
139.576971938043
20
-6.81958498426815
30
0
41
1
10
139.752742030814
20
-5.82491986383315
30
0
41
1
10
139.8406270772
20
-5.30469373851975
30
0
41
1
10
140.016397169972
20
-4.24028131313528
30
0
41
1
10
140.104282216357
20
-3.6961826073904
30
0
41
1
10
140.280052309129
20
-2.60544385003286
30
0
41
1
10
140.367937355515
20
-2.05886565098444
30
0
41
1
10
140.499764925093
20
-1.25097954373496
30
0
41
1
10
140.543707448286
20
-0.983652621944913
30
0
41
1
10
140.609621233076
20
-0.587050907323487
30
0
41
1
10
140.64257812547
20
-0.38984396188917
30
0
41
1
10
140.675535017865
20
-0.194517012321484
30
0
41
1
10
140.697506279461
20
-0.0647412669878236
30
0
41
1
10
140.70849191026
20
-0.0002273504082666
30
0
41
1
10
140.807362587443
20
0.582418114386229
30
0
41
1
10
140.895247633829
20
1.11492846560796
30
0
41
1
10
140.983132680215
20
1.65476361114443
30
0
0
SPLINE
5
DA
100
AcDbEntity
8
1
62
256
6
ByLayer
370
13
48
1
60
0
100
AcDbSpline
70
4
71
3
72
36
73
32
40
0
40
0
40
0
40
0
40
0.0624999999999999
40
0.0624999999999999
40
0.125
40
0.125
40
0.1875
40
0.1875
40
0.25
40
0.25
40
0.3125
40
0.3125
40
0.375
40
0.375
40
0.4375
40
0.4375
40
0.5
40
0.5
40
0.5625
40
0.5625
40
0.625
40
0.625
40
0.6875
40
0.6875
40
0.75
40
0.75
40
0.8125
40
0.8125
40
0.875
40
0.875
40
1
40
1
40
1
40
1
41
1
10
130.1
20
0.922896344981325
30
0
41
1
10
130.153461731293
20
1.24631811115575
30
0
41
1
10
130.206923462587
20
1.57373523174957
30
0
41
1
10
130.313846925174
20
2.23293244262561
30
0
41
1
10
130.367308656467
20
2.56470948366237
30
0
41
1
10
130.474232119054
20
3.22844174910154
30
0
41
1
10
130.527693850348
20
3.56039222183543
30
0
41
1
10
130.634617312935
20
4.21984931126894
30
0
41
1
10
130.688079044228
20
4.54734963448658
30
0
41
1
10
130.795002506815
20
5.19301367002359
30
0
41
1
10
130.848464238109
20
5.5111699467933
30
0
41
1
10
130.955387700696
20
6.13319015155423
30
0
41
1
10
131.008849431989
20
6.43704611857848
30
0
41
1
10
131.115772894576
20
7.02568052666677
30
0
41
1
10
131.16923462587
20
7.31045124114408
30
0
41
1
10
131.276158088456
20
7.8565388994856
30
0
41
1
10
131.32961981975
20
8.11784913863733
30
0
41
1
10
131.436543282337
20
8.61326804372922
30
0
41
1
10
131.49000501363
20
8.84737170951314
30
0
41
1
10
131.596928476217
20
9.28543618430115
30
0
41
1
10
131.650390207511
20
9.48939415873437
30
0
41
1
10
131.757313670098
20
9.86515155092695
30
0
41
1
10
131.810775401391
20
10.0369504677384
30
0
41
1
10
131.917698863978
20
10.3473500215654
30
0
41
1
10
131.971160595272
20
10.4859523568989
30
0
41
1
10
132.078084057859
20
10.729876242615
30
0
41
1
10
132.131545789152
20
10.8352013041872
30
0
41
1
10
132.238469251739
20
11.0133655022373
30
0
41
1
10
132.291930983033
20
11.0862094159176
30
0
41
1
10
132.452316176913
20
11.2583307597045
30
0
41
1
10
132.5592396395
20
11.311
30
0
41
1
10
132.666163102087
20
11.311
30
0
0
SPLINE
5
DB
100
AcDbEntity
8
1
62
256
6
ByLayer
370
13
48
1
60
0
100
AcDbSpline
70
4
71
3
72
82
73
78
40
0
40
0
40
0
40
0
40
0.0312500000000002
40
0.0312500000000002
40
0.0625000000000003
40
0.0625000000000003
40
0.0937500000000005
40
0.0937500000000005
40
0.125000000000001
40
0.125000000000001
40
0.156250000000001
40
0.156250000000001
40
0.187500000000001
40
0.187500000000001
40
0.218750000000001
40
0.218750000000001
40
0.250000000000001
40
0.250000000000001
40
0.281250000000001
40
0.281250000000001
40
0.296875000000001
40
0.296875000000001
40
0.304687500000001
40
0.304687500000001
40
0.312500000000002
40
0.312500000000002
40
0.343750000000002
40
0.343750000000002
40
0.375000000000002
40
0.375000000000002
40
0.406250000000002
40
0.406250000000002
40
0.437500000000002
40
0.437500000000002
40
0.468750000000002
40
0.468750000000002
40
0.500000000000002
40
0.500000000000002
40
0.531250000000003
40
0.531250000000003
40
0.562500000000003
40
0.562500000000003
40
0.593750000000003
40
0.593750000000003
40
0.609375000000003
40
0.609375000000003
40
0.617187500000003
40
0.617187500000003
40
0.625000000000003
40
0.625000000000003
40
0.656250000000002
40
0.656250000000002
40
0.687500000000002
40
0.687500000000002
40
0.718750000000002
40
0.718750000000002
40
0.750000000000001
40
0.750000000000001
40
0.781250000000001
40
0.781250000000001
40
0.8125
40
0.8125
40
0.84375
40
0.84375
40
0.875
40
0.875
40
0.906249999999999
40
0.906249999999999
40
0.914062499999999
40
0.914062499999999
40
0.921874999999999
40
0.921874999999999
40
0.937499999999999
40
0.937499999999999
40
0.96875
40
0.96875
40
1
40
1
40
1
40
1
41
1
10
132.056934690576
20
11.311
30
0
41
1
10
132.149915919635
20
11.311
30
0
41
1
10
132.242897148694
20
11.2712259371271
30
0
41
1
10
132.428859606812
20
11.0994471735246
30
0
41
1
10
132.52184083587
20
10.9673554700809
30
0
41
1
10
132.707803293988
20
10.6031179399488
30
0
41
1
10
132.800784523046
20
10.3709054611582
30
0
41
1
10
132.986746981164
20
9.80603611644685
30
0
41
1
10
133.079728210223
20
9.47335996259562
30
0
41
1
10
133.26569066834
20
8.71599526194214
30
0
41
1
10
133.358671897399
20
8.29135000185028
30
0
41
1
10
133.544634355516
20
7.3669815754298
30
0
41
1
10
133.637615584575
20
6.86735690874775
30
0
41
1
10
133.823578042693
20
5.8162871829627
30
0
41
1
10
133.916559271751
20
5.26496704124193
30
0
41
1
10
134.102521729869
20
4.13660865068994
30
0
41
1
10
134.195502958927
20
3.55968527647556
30
0
41
1
10
134.381465417045
20
2.40533098066922
30
0
41
1
10
134.474446646104
20
1.82797767011206
30
0
41
1
10
134.613918489692
20
0.977572878138346
30
0
41
1
10
134.660409104221
20
0.696671416801593
30
0
41
1
10
134.730145026015
20
0.280782228241748
30
0
41
1
10
134.75339033328
20
0.14306021851209
30
0
41
1
10
134.799880947809
20
-0.130333447856231
30
0
41
1
10
134.823126255074
20
-0.267933029738231
30
0
41
1
10
134.939352791397
20
-0.960799644777893
30
0
41
1
10
135.032334020456
20
-1.52989501139783
30
0
41
1
10
135.218296478574
20
-2.67914351695478
30
0
41
1
10
135.311277707632
20
-3.25924257044522
30
0
41
1
10
135.49724016575
20
-4.40704578309266
30
0
41
1
10
135.590221394809
20
-4.97465166210381
30
0
41
1
10
135.776183852926
20
-6.0714314919999
30
0
41
1
10
135.869165081985
20
-6.60048130440092
30
0
41
1
10
136.055127540102
20
-7.59495391901982
30
0
41
1
10
136.148108769161
20
-8.06026030510219
30
0
41
1
10
136.334071227278
20
-8.90664090462772
30
0
41
1
10
136.427052456337
20
-9.28764132900034
30
0
41
1
10
136.613014914454
20
-9.95237523221275
30
0
41
1
10
136.705996143513
20
-10.2360968538839
30
0
41
1
10
136.891958601631
20
-10.7021467674175
30
0
41
1
10
136.984939830689
20
-10.8845206346043
30
0
41
1
10
137.170902288807
20
-11.1521117863953
30
0
41
1
10
137.263883517866
20
-11.2374092851699
30
0
41
1
10
137.403355361454
20
-11.3004483439116
30
0
41
1
10
137.449845975983
20
-11.3106851173112
30
0
41
1
10
137.519581897777
20
-11.3111466990305
30
0
41
1
10
137.542827205042
20
-11.3088262887907
30
0
41
1
10
137.589317819571
20
-11.2990198340816
30
0
41
1
10
137.612563126836
20
-11.2915334973617
30
0
41
1
10
137.728789663159
20
-11.2406700806497
30
0
41
1
10
137.821770892218
20
-11.1568085199021
30
0
41
1
10
138.007733350336
20
-10.892212277196
30
0
41
1
10
138.100714579394
20
-10.7113970669165
30
0
41
1
10
138.286677037512
20
-10.2484714766243
30
0
41
1
10
138.37965826657
20
-9.96631477842976
30
0
41
1
10
138.565620724688
20
-9.30457967403865
30
0
41
1
10
138.658601953747
20
-8.92501213836104
30
0
41
1
10
138.844564411864
20
-8.08123306022364
30
0
41
1
10
138.937545640923
20
-7.617094435083
30
0
41
1
10
139.12350809904
20
-6.62459408242691
30
0
41
1
10
139.216489328099
20
-6.09634835587372
30
0
41
1
10
139.402451786216
20
-5.00076912608006
30
0
41
1
10
139.495433015275
20
-4.43355992382936
30
0
41
1
10
139.681395473393
20
-3.28615685900334
30
0
41
1
10
139.774376702451
20
-2.70606186757343
30
0
41
1
10
139.960339160569
20
-1.55648923064604
30
0
41
1
10
140.053320389628
20
-0.987066398910059
30
0
41
1
10
140.169546925951
20
-0.293636905165869
30
0
41
1
10
140.192792233216
20
-0.155854898006282
30
0
41
1
10
140.239282847745
20
0.117665710998693
30
0
41
1
10
140.26252815501
20
0.25508933103788
30
0
41
1
10
140.332264076804
20
0.670639370715975
30
0
41
1
10
140.378754691333
20
0.951345246486625
30
0
41
1
10
140.518226534921
20
1.80127142697131
30
0
41
1
10
140.61120776398
20
2.37845070776788
30
0
41
1
10
140.797170222097
20
3.53282240780419
30
0
41
1
10
140.890151451156
20
4.10993791449181
30
0
41
1
10
140.983132680215
20
4.67451241258044
30
0
0
SPLINE
5
DC
100
AcDbEntity
8
1
62
256
6
ByLayer
370
13
48
1
60
0
100
AcDbSpline
70
4
71
3
72
22
73
18
40
0
40
0
40
0
40
0
40
0.125
40
0.125
40
0.25
40
0.25
40
0.375
40
0.375
40
0.5
40
0.5
40
0.625
40
0.625
40
0.75
40
0.75
40
0.875
40
0.875
40
1
40
1
40
1
40
1
41
1
10
130.1
20
3.93992473207348
30
0
41
1
10
130.186538731895
20
4.47328329914498
30
0
41
1
10
130.27307746379
20
5.00050353790934
30
0
41
1
10
130.44615492758
20
6.02180567858954
30
0
41
1
10
130.532693659476
20
6.51580078736336
30
0
41
1
10
130.705771123265
20
7.4502656882535
30
0
41
1
10
130.792309855161
20
7.89065267570498
30
0
41
1
10
130.965387318951
20
8.70075853466989
30
0
41
1
10
131.051926050846
20
9.07042022421223
30
0
41
1
10
131.225003514636
20
9.7273569921181
30
0
41
1
10
131.311542246531
20
10.0146141799574
30
0
41
1
10
131.484619710321
20
10.501615422749
30
0
41
1
10
131.571158442217
20
10.7013812079388
30
0
41
1
10
131.744235906007
20
11.0147956182624
30
0
41
1
10
131.830774637902
20
11.1284940770426
30
0
41
1
10
132.003852101692
20
11.2765656961333
30
0
41
1
10
132.090390833587
20
11.311
30
0
41
1
10
132.176929565482
20
11.311
30
0
0
SPLINE
5
DD
100
AcDbEntity
8
1
62
256
6
ByLayer
370
13
48
1
60
0
100
AcDbSpline
70
4
71
3
72
80
73
76
40
0
40
0
40
0
40
0
40
0.0312500000000001
40
0.0312500000000001
40
0.0625000000000001
40
0.0625000000000001
40
0.0937500000000002
40
0.0937500000000002
40
0.125
40
0.125
40
0.15625
40
0.15625
40
0.1875
40
0.1875
40
0.21875
40
0.21875
40
0.25
40
0.25
40
0.28125
40
0.28125
40
0.2890625
40
0.2890625
40
0.296875000000001
40
0.296875000000001
40
0.3125
40
0.3125
40
0.34375
40
0.34375
40
0.375
40
0.375
40
0.406250000000001
40
0.406250000000001
40
0.437500000000001
40
0.437500000000001
40
0.46875
40
0.46875
40
0.5
40
0.5
40
0.53125
40
0.53125
40
0.5625
40
0.5625
40
0.578125
40
0.578125
40
0.59375
40
0.59375
40
0.625
40
0.625
40
0.65625
40
0.65625
40
0.6875
40
0.6875
40
0.71875
40
0.71875
40
0.75
40
0.75
40
0.78125
40
0.78125
40
0.8125
40
0.8125
40
0.843749999999999
40
0.843749999999999
40
0.859375
40
0.859375
40
0.8671875
40
0.8671875
40
0.874999999999999
40
0.874999999999999
40
0.90625
40
0.90625
40
0.9375
40
0.9375
40
0.96875
40
0.96875
40
1
40
1
40
1
40
1
41
1
10
131.567701153972
20
11.311
30
0
41
1
10
131.665778565703
20
11.311
30
0
41
1
10
131.763855977435
20
11.2667255013036
30
0
41
1
10
131.960010800898
20
11.0748727664312
30
0
41
1
10
132.05808821263
20
10.9271816255047
30
0
41
1
10
132.254243036094
20
10.5199190364956
30
0
41
1
10
132.352320447825
20
10.260265923837
30
0
41
1
10
132.548475271289
20
9.62996741787842
30
0
41
1
10
132.64655268302
20
9.25930967316762
30
0
41
1
10
132.842707506484
20
8.41890225573442
30
0
41
1
10
132.940784918215
20
7.94922677285788
30
0
41
1
10
133.136939741679
20
6.93280441478393
30
0
41
1
10
133.235017153411
20
6.38619996007031
30
0
41
1
10
133.431171976874
20
5.24470476461104
30
0
41
1
10
133.529249388606
20
4.6499776343266
30
0
41
1
10
133.725404212069
20
3.44299747191025
30
0
41
1
10
133.823481623801
20
2.83087862397738
30
0
41
1
10
134.019636447264
20
1.6171985589969
30
0
41
1
10
134.117713858996
20
1.01571220853467
30
0
41
1
10
134.240310623661
20
0.284316282020711
30
0
41
1
10
134.264829976593
20
0.139096222437445
30
0
41
1
10
134.313868682459
20
-0.149268339590861
30
0
41
1
10
134.338388035392
20
-0.29459176035499
30
0
41
1
10
134.411946094191
20
-0.733570923624455
30
0
41
1
10
134.460984800057
20
-1.03024929310749
30
0
41
1
10
134.608100917654
20
-1.92854235128459
30
0
41
1
10
134.706178329386
20
-2.53859532348278
30
0
41
1
10
134.902333152849
20
-3.75584442897451
30
0
41
1
10
135.000410564581
20
-4.36293376614043
30
0
41
1
10
135.196565388044
20
-5.54439876385044
30
0
41
1
10
135.294642799776
20
-6.11861990397171
30
0
41
1
10
135.49079762324
20
-7.20397026411257
30
0
41
1
10
135.588875034971
20
-7.71493980201885
30
0
41
1
10
135.785029858435
20
-8.64778637246948
30
0
41
1
10
135.883107270166
20
-9.06955098038503
30
0
41
1
10
136.07926209363
20
-9.80664503910211
30
0
41
1
10
136.177339505362
20
-10.1219441530157
30
0
41
1
10
136.373494328825
20
-10.6396693294618
30
0
41
1
10
136.471571740557
20
-10.8421467912198
30
0
41
1
10
136.66772656402
20
-11.1383432966705
30
0
41
1
10
136.765803975752
20
-11.2321649690227
30
0
41
1
10
136.912920093349
20
-11.3004931622036
30
0
41
1
10
136.961958799215
20
-11.3112548272966
30
0
41
1
10
137.060036210947
20
-11.310736023094
30
0
41
1
10
137.109074916813
20
-11.2994313918346
30
0
41
1
10
137.25619103441
20
-11.2294076830612
30
0
41
1
10
137.354268446142
20
-11.1343667173472
30
0
41
1
10
137.550423269605
20
-10.8356291932784
30
0
41
1
10
137.648500681337
20
-10.6318303725161
30
0
41
1
10
137.844655504801
20
-10.1114721061736
30
0
41
1
10
137.942732916532
20
-9.79486208706803
30
0
41
1
10
138.138887739996
20
-9.0552865941136
30
0
41
1
10
138.236965151727
20
-8.6323524936046
30
0
41
1
10
138.433119975191
20
-7.69742759384235
30
0
41
1
10
138.531197386922
20
-7.18555003682792
30
0
41
1
10
138.727352210386
20
-6.09872457742841
30
0
41
1
10
138.825429622118
20
-5.52393660800527
30
0
41
1
10
139.021584445581
20
-4.34170203314847
30
0
41
1
10
139.119661857313
20
-3.73440959084724
30
0
41
1
10
139.315816680776
20
-2.51708612917173
30
0
41
1
10
139.413894092508
20
-1.9071611935743
30
0
41
1
10
139.561010210105
20
-1.00925629164081
30
0
41
1
10
139.610048915971
20
-0.712739767760041
30
0
41
1
10
139.68360697477
20
-0.274044300101508
30
0
41
1
10
139.708126327703
20
-0.12897481793479
30
0
41
1
10
139.757165033569
20
0.159496841886721
30
0
41
1
10
139.781684386502
20
0.304870724147349
30
0
41
1
10
139.904281151166
20
1.0367378718872
30
0
41
1
10
140.002358562898
20
1.63849135826581
30
0
41
1
10
140.198513386361
20
2.85240678471934
30
0
41
1
10
140.296590798093
20
3.46449309964109
30
0
41
1
10
140.492745621557
20
4.67105507983223
30
0
41
1
10
140.590823033288
20
5.26539598533185
30
0
41
1
10
140.786977856752
20
6.40575900861637
30
0
41
1
10
140.885055268483
20
6.95161744970858
30
0
41
1
10
140.983132680215
20
7.4589286472085
30
0
0
SPLINE
5
DE
100
AcDbEntity
8
1
62
256
6
ByLayer
370
13
48
1
60
0
100
AcDbSpline
70
4
71
3
72
22
73
18
40
0
40
0
40
0
40
0
40
0.125
40
0.125
40
0.25
40
0.25
40
0.375
40
0.375
40
0.5
40
0.5
40
0.625
40
0.625
40
0.75
40
0.75
40
0.875
40
0.875
40
1
40
1
40
1
40
1
41
1
10
130.1
20
6.82001242852076
30
0
41
1
10
130.166154001203
20
7.18179957670495
30
0
41
1
10
130.232308002406
20
7.52859508593551
30
0
41
1
10
130.364616004813
20
8.18417298351679
30
0
41
1
10
130.430770006016
20
8.49293744329989
30
0
41
1
10
130.563078008422
20
9.06600538491216
30
0
41
1
10
130.629232009626
20
9.33029788712392
30
0
41
1
10
130.761540012032
20
9.81004348391119
30
0
41
1
10
130.827694013235
20
10.0254938570655
30
0
41
1
10
130.960002015642
20
10.4054552521717
30
0
41
1
10
131.026156016845
20
10.5699714682847
30
0
41
1
10
131.158464019251
20
10.8482031384309
30
0
41
1
10
131.224618020455
20
10.9619299684095
30
0
41
1
10
131.356926022861
20
11.1407036169092
30
0
41
1
10
131.423080024064
20
11.2057654792271
30
0
41
1
10
131.555388026471
20
11.2909056139646
30
0
41
1
10
131.621542027674
20
11.311
30
0
41
1
10
131.687696028877
20
11.311
30
0
0
SPLINE
5
DF
100
AcDbEntity
8
1
62
256
6
ByLayer
370
13
48
1
60
0
100
AcDbSpline
70
4
71
3
72
117
73
113
40
0
40
0
40
0
40
0
40
0.03125
40
0.03125
40
0.0625000000000001
40
0.0625000000000001
40
0.0781250000000002
40
0.0781250000000002
40
0.0937500000000003
40
0.0937500000000003
40
0.109375
40
0.109375
40
0.125000000000001
40
0.125000000000001
40
0.140625000000001
40
0.140625000000001
40
0.156250000000001
40
0.156250000000001
40
0.171875000000001
40
0.171875000000001
40
0.187500000000001
40
0.187500000000001
40
0.203125000000001
40
0.203125000000001
40
0.218750000000001
40
0.218750000000001
40
0.250000000000002
40
0.250000000000002
40
0.265625000000002
40
0.265625000000002
40
0.273437500000002
40
0.273437500000002
40
0.277343750000002
40
0.277343750000002
40
0.281250000000002
40
0.281250000000002
40
0.312500000000003
40
0.312500000000003
40
0.343750000000004
40
0.343750000000004
40
0.359375000000005
40
0.359375000000005
40
0.375000000000005
40
0.375000000000005
40
0.390625000000006
40
0.390625000000006
40
0.406250000000007
40
0.406250000000007
40
0.421875000000007
40
0.421875000000007
40
0.437500000000008
40
0.437500000000008
40
0.453125000000008
40
0.453125000000008
40
0.468750000000009
40
0.468750000000009
40
0.50000000000001
40
0.50000000000001
40
0.531250000000012
40
0.531250000000012
40
0.546875000000012
40
0.546875000000012
40
0.550781250000012
40
0.550781250000012
40
0.554687500000013
40
0.562500000000012
40
0.562500000000012
40
0.593750000000012
40
0.593750000000012
40
0.625000000000011
40
0.625000000000011
40
0.640625000000011
40
0.640625000000011
40
0.656250000000011
40
0.656250000000011
40
0.67187500000001
40
0.67187500000001
40
0.68750000000001
40
0.68750000000001
40
0.70312500000001
40
0.70312500000001
40
0.71875000000001
40
0.71875000000001
40
0.734375000000009
40
0.734375000000009
40
0.750000000000009
40
0.750000000000009
40
0.781250000000008
40
0.781250000000008
40
0.812500000000007
40
0.812500000000007
40
0.820312500000007
40
0.820312500000007
40
0.828125000000007
40
0.828125000000007
40
0.843750000000007
40
0.843750000000007
40
0.875000000000006
40
0.875000000000006
40
0.906250000000004
40
0.906250000000004
40
0.921875000000004
40
0.921875000000004
40
0.937500000000003
40
0.937500000000003
40
0.953125000000002
40
0.953125000000002
40
0.968750000000002
40
0.968750000000002
40
0.984375000000001
40
0.984375000000001
40
1
40
1
40
1
40
1
41
1
10
131.078467617367
20
11.311
30
0
41
1
10
131.181641211771
20
11.311
30
0
41
1
10
131.284814806176
20
11.2619798475823
30
0
41
1
10
131.491161994985
20
11.0488769269926
30
0
41
1
10
131.59433558939
20
10.8846497659684
30
0
41
1
10
131.749095980997
20
10.5450681311664
30
0
41
1
10
131.800682778199
20
10.4164114602911
30
0
41
1
10
131.903856372604
20
10.1281197234976
30
0
41
1
10
131.955443169806
20
9.96848294149825
30
0
41
1
10
132.058616764211
20
9.61899248369281
30
0
41
1
10
132.110203561413
20
9.42913882194384
30
0
41
1
10
132.213377155818
20
9.0208233248492
30
0
41
1
10
132.26496395302
20
8.80236338471579
30
0
41
1
10
132.368137547425
20
8.33926301905834
30
0
41
1
10
132.419724344627
20
8.09462629814249
30
0
41
1
10
132.522897939032
20
7.58233452221086
30
0
41
1
10
132.574484736234
20
7.31468468209692
30
0
41
1
10
132.677658330639
20
6.76012811171231
30
0
41
1
10
132.729245127841
20
6.47322762009782
30
0
41
1
10
132.832418722246
20
5.88435662912556
30
0
41
1
10
132.884005519448
20
5.58239279482092
30
0
41
1
10
132.987179113853
20
4.9678114866831
30
0
41
1
10
133.038765911055
20
4.65520049137987
30
0
41
1
10
133.14193950546
20
4.02377119687606
30
0
41
1
10
133.193526302662
20
3.70495865260682
30
0
41
1
10
133.348286694269
20
2.74564628073256
30
0
41
1
10
133.451460288674
20
2.10250193700213
30
0
41
1
10
133.606220680281
20
1.15493358665179
30
0
41
1
10
133.657807477483
20
0.841882857855751
30
0
41
1
10
133.735187673287
20
0.37878762787426
30
0
41
1
10
133.760981071888
20
0.225498530856441
30
0
41
1
10
133.79967116979
20
-0.0025753380458013
30
0
41
1
10
133.81256786909
20
-0.078304327713056
30
0
41
1
10
133.838361267692
20
-0.230788364075579
30
0
41
1
10
133.851257966992
20
-0.307333117513821
30
0
41
1
10
133.967328260697
20
-0.998777566320882
30
0
41
1
10
134.070501855102
20
-1.63181399176474
30
0
41
1
10
134.276849043911
20
-2.90908517980881
30
0
41
1
10
134.380022638316
20
-3.55322138777041
30
0
41
1
10
134.534783029923
20
-4.50320066044628
30
0
41
1
10
134.586369827126
20
-4.81711019517337
30
0
41
1
10
134.68954342153
20
-5.43500839751127
30
0
41
1
10
134.741130218732
20
-5.73899067005462
30
0
41
1
10
134.844303813137
20
-6.33260038554488
30
0
41
1
10
134.895890610339
20
-6.62222115303391
30
0
41
1
10
134.999064204744
20
-7.18286975448973
30
0
41
1
10
135.050651001946
20
-7.4538912390687
30
0
41
1
10
135.153824596351
20
-7.97349681946838
30
0
41
1
10
135.205411393553
20
-8.22207549845149
30
0
41
1
10
135.308584987958
20
-8.6935234779377
30
0
41
1
10
135.36017178516
20
-8.91638880448724
30
0
41
1
10
135.463345379565
20
-9.33385327491729
30
0
41
1
10
135.514932176767
20
-9.52845022086825
30
0
41
1
10
135.618105771172
20
-9.88762999172232
30
0
41
1
10
135.669692568375
20
-10.0522125039974
30
0
41
1
10
135.824452959981
20
-10.4995870435779
30
0
41
1
10
135.927626554386
20
-10.7356294555522
30
0
41
1
10
136.133973743195
20
-11.0857693287418
30
0
41
1
10
136.2371473376
20
-11.199991248218
30
0
41
1
10
136.391907729207
20
-11.2897067080198
30
0
41
1
10
136.443494526409
20
-11.3060783397958
30
0
41
1
10
136.507978022912
20
-11.3110348481479
30
0
41
1
10
136.520874722213
20
-11.3112546024507
30
0
41
1
10
136.546668120814
20
-11.3101669870401
30
0
41
1
10
136.585358218716
20
-11.3062282935691
30
0
41
1
10
136.624048316618
20
-11.2951978378291
30
0
41
1
10
136.753015309623
20
-11.2419574900615
30
0
41
1
10
136.856188904028
20
-11.146364161815
30
0
41
1
10
137.062536092837
20
-10.8350008183495
30
0
41
1
10
137.165709687242
20
-10.6190988266387
30
0
41
1
10
137.320470078849
20
-10.2016253303873
30
0
41
1
10
137.372056876051
20
-10.0469540618586
30
0
41
1
10
137.475230470456
20
-9.7072146257874
30
0
41
1
10
137.526817267658
20
-9.52214617775516
30
0
41
1
10
137.629990862063
20
-9.12308492393549
30
0
41
1
10
137.681577659266
20
-8.90909370878859
30
0
41
1
10
137.78475125367
20
-8.45448683624755
30
0
41
1
10
137.836338050873
20
-8.21387460625419
30
0
41
1
10
137.939511645277
20
-7.70907736290243
30
0
41
1
10
137.99109844248
20
-7.44489734969486
30
0
41
1
10
138.094272036884
20
-6.89664028231499
30
0
41
1
10
138.145858834087
20
-6.61256934033045
30
0
41
1
10
138.249032428491
20
-6.0286615944311
30
0
41
1
10
138.300619225694
20
-5.72883142903228
30
0
41
1
10
138.403792820098
20
-5.11779822488322
30
0
41
1
10
138.455379617301
20
-4.80660173401668
30
0
41
1
10
138.610140008908
20
-3.86263486214213
30
0
41
1
10
138.713313603312
20
-3.21964968802132
30
0
41
1
10
138.919660792122
20
-1.93976362518876
30
0
41
1
10
139.022834386526
20
-1.3029752934109
30
0
41
1
10
139.151801379532
20
-0.52777549985035
30
0
41
1
10
139.177594778133
20
-0.373755000747309
30
0
41
1
10
139.229181575336
20
-0.0680917871570159
30
0
41
1
10
139.254974973937
20
0.0829634773488692
30
0
41
1
10
139.33235516974
20
0.541690023335349
30
0
41
1
10
139.383941966943
20
0.852259332569957
30
0
41
1
10
139.53870235855
20
1.79393750798914
30
0
41
1
10
139.641875952954
20
2.43524334666594
30
0
41
1
10
139.848223141763
20
3.71597103038778
30
0
41
1
10
139.951396736168
20
4.35525845982275
30
0
41
1
10
140.106157127775
20
5.28673411698637
30
0
41
1
10
140.157743924978
20
5.59261913011716
30
0
41
1
10
140.260917519382
20
6.1907412668937
30
0
41
1
10
140.312504316585
20
6.48297172063542
30
0
41
1
10
140.415677910989
20
7.04950144780625
30
0
41
1
10
140.467264708192
20
7.32379427709179
30
0
41
1
10
140.570438302596
20
7.85052802185322
30
0
41
1
10
140.622025099799
20
8.10296333199938
30
0
41
1
10
140.725198694203
20
8.58260696900925
30
0
41
1
10
140.776785491406
20
8.80981106133575
30
0
41
1
10
140.87995908581
20
9.23631241119779
30
0
41
1
10
140.931545883013
20
9.43560717093189
30
0
41
1
10
140.983132680215
20
9.62000730804624
30
0
0
SPLINE
5
E0
100
AcDbEntity
8
1
62
256
6
ByLayer
370
13
48
1
60
0
100
AcDbSpline
70
4
71
3
72
14
73
10
40
0
40
0
40
0
40
0
40
0.25
40
0.25
40
0.5
40
0.5
40
0.75
40
0.75
40
1
40
1
40
1
40
1
41
1
10
130.1
20
9.16465591013818
30
0
41
1
10
130.191538541023
20
9.53186158253618
30
0
41
1
10
130.283077082045
20
9.85410888727904
30
0
41
1
10
130.466154164091
20
10.4010641085522
30
0
41
1
10
130.557692705113
20
10.6257923705946
30
0
41
1
10
130.740769787159
20
10.9783025510089
30
0
41
1
10
130.832308328181
20
11.1061471278166
30
0
41
1
10
131.015385410227
20
11.2724555598972
30
0
41
1
10
131.106923951249
20
11.311
30
0
41
1
10
131.198462492272
20
11.311
30
0
0
SPLINE
5
E1
100
AcDbEntity
8
1
62
256
6
ByLayer
370
13
48
1
60
0
100
AcDbSpline
70
4
71
3
72
138
73
134
40
0
40
0
40
0
40
0
40
0.031250000000001
40
0.031250000000001
40
0.0468750000000013
40
0.0468750000000013
40
0.0625000000000017
40
0.0625000000000017
40
0.0781250000000021
40
0.0781250000000021
40
0.0937500000000025
40
0.0937500000000025
40
0.109375000000003
40
0.109375000000003
40
0.125000000000003
40
0.125000000000003
40
0.140625000000004
40
0.140625000000004
40
0.156250000000004
40
0.156250000000004
40
0.171875000000004
40
0.171875000000004
40
0.187500000000005
40
0.187500000000005
40
0.203125000000005
40
0.203125000000005
40
0.218750000000006
40
0.218750000000006
40
0.234375000000006
40
0.234375000000006
40
0.250000000000006
40
0.250000000000006
40
0.257812500000006
40
0.257812500000006
40
0.265625000000006
40
0.265625000000006
40
0.281250000000007
40
0.281250000000007
40
0.296875000000007
40
0.296875000000007
40
0.312500000000007
40
0.312500000000007
40
0.328125000000007
40
0.328125000000007
40
0.343750000000007
40
0.343750000000007
40
0.359375000000007
40
0.359375000000007
40
0.375000000000007
40
0.375000000000007
40
0.390625000000008
40
0.390625000000008
40
0.406250000000008
40
0.406250000000008
40
0.421875000000008
40
0.421875000000008
40
0.437500000000008
40
0.437500000000008
40
0.453125000000008
40
0.453125000000008
40
0.468750000000008
40
0.468750000000008
40
0.484375000000008
40
0.484375000000008
40
0.500000000000009
40
0.500000000000009
40
0.515625000000009
40
0.515625000000009
40
0.523437500000009
40
0.523437500000009
40
0.531250000000009
40
0.531250000000009
40
0.546875000000009
40
0.546875000000009
40
0.562500000000008
40
0.562500000000008
40
0.578125000000008
40
0.578125000000008
40
0.593750000000008
40
0.593750000000008
40
0.609375000000007
40
0.609375000000007
40
0.625000000000007
40
0.625000000000007
40
0.640625000000007
40
0.640625000000007
40
0.656250000000006
40
0.656250000000006
40
0.671875000000006
40
0.671875000000006
40
0.687500000000006
40
0.687500000000006
40
0.703125000000006
40
0.703125000000006
40
0.718750000000005
40
0.718750000000005
40
0.734375000000005
40
0.734375000000005
40
0.750000000000005
40
0.750000000000005
40
0.765625000000004
40
0.765625000000004
40
0.781250000000004
40
0.781250000000004
40
0.789062500000004
40
0.789062500000004
40
0.796875000000004
40
0.796875000000004
40
0.812500000000004
40
0.812500000000004
40
0.828125000000003
40
0.828125000000003
40
0.843750000000003
40
0.843750000000003
40
0.859375000000003
40
0.859375000000003
40
0.875000000000002
40
0.875000000000002
40
0.890625000000002
40
0.890625000000002
40
0.906250000000002
40
0.906250000000002
40
0.921875000000002
40
0.921875000000002
40
0.937500000000001
40
0.937500000000001
40
0.953125000000001
40
0.953125000000001
40
0.968750000000001
40
0.968750000000001
40
0.984375
40
0.984375
40
1
40
1
40
1
40
1
41
1
10
130.589234080762
20
11.311
30
0
41
1
10
130.697503857839
20
11.311
30
0
41
1
10
130.805773634917
20
11.2569880379463
30
0
41
1
10
130.968178300533
20
11.0803349463128
30
0
41
1
10
131.022313189072
20
11.0055636103777
30
0
41
1
10
131.13058296615
20
10.8226743522415
30
0
41
1
10
131.184717854689
20
10.7145513844931
30
0
41
1
10
131.292987631766
20
10.464168405656
30
0
41
1
10
131.347122520305
20
10.3219047416447
30
0
41
1
10
131.455392297383
20
10.0033766959491
30
0
41
1
10
131.509527185922
20
9.82711064442881
30
0
41
1
10
131.617796962999
20
9.4417229577368
30
0
41
1
10
131.671931851538
20
9.23260204254461
30
0
41
1
10
131.780201628616
20
8.78367417215628
30
0
41
1
10
131.834336517154
20
8.54387044948868
30
0
41
1
10
131.942606294232
20
8.03671179537878
30
0
41
1
10
131.996741182771
20
7.76936239601841
30
0
41
1
10
132.105010959848
20
7.21107987461878
30
0
41
1
10
132.159145848387
20
6.92015405234034
30
0
41
1
10
132.267415625465
20
6.31932399245358
30
0
41
1
10
132.321550514004
20
6.00942805754462
30
0
41
1
10
132.429820291082
20
5.37566371117143
30
0
41
1
10
132.48395517962
20
5.05180374215516
30
0
41
1
10
132.592224956698
20
4.3952633255079
30
0
41
1
10
132.646359845237
20
4.06259064606758
30
0
41
1
10
132.754629622314
20
3.39347663819277
30
0
41
1
10
132.808764510853
20
3.05704176279517
30
0
41
1
10
132.917034287931
20
2.38513941035109
30
0
41
1
10
132.97116917647
20
2.04967667745001
30
0
41
1
10
133.079438953547
20
1.38396962845283
30
0
41
1
10
133.133573842086
20
1.05372821669397
30
0
41
1
10
133.214776174894
20
0.565018152601851
30
0
41
1
10
133.241843619164
20
0.403218526490946
30
0
41
1
10
133.295978507703
20
0.0822212012602677
30
0
41
1
10
133.323045951972
20
-0.0762650267355411
30
0
41
1
10
133.40424828478
20
-0.557663964935756
30
0
41
1
10
133.458383173319
20
-0.883830381809275
30
0
41
1
10
133.566652950397
20
-1.54331385003891
30
0
41
1
10
133.620787838936
20
-1.87662890317429
30
0
41
1
10
133.729057616013
20
-2.54645512697016
30
0
41
1
10
133.783192504552
20
-2.88296248408426
30
0
41
1
10
133.89146228163
20
-3.55466857380299
30
0
41
1
10
133.945597170168
20
-3.8898616860223
30
0
41
1
10
134.053866947246
20
-4.55402608984369
30
0
41
1
10
134.108001835785
20
-4.88299021337582
30
0
41
1
10
134.216271612863
20
-5.52956809263097
30
0
41
1
10
134.270406501402
20
-5.84717365394957
30
0
41
1
10
134.378676278479
20
-6.46592323255547
30
0
41
1
10
134.432811167018
20
-6.76705876825781
30
0
41
1
10
134.541080944095
20
-7.34802769205237
30
0
41
1
10
134.595215832634
20
-7.62785316742534
30
0
41
1
10
134.703485609712
20
-8.16188124936747
30
0
41
1
10
134.757620498251
20
-8.41607734520284
30
0
41
1
10
134.865890275328
20
-8.89526534072078
30
0
41
1
10
134.920025163867
20
-9.12025279590725
30
0
41
1
10
135.028294940945
20
-9.53834827334012
30
0
41
1
10
135.082429829484
20
-9.73145429844246
30
0
41
1
10
135.190699606561
20
-10.0841155732031
30
0
41
1
10
135.2448344951
20
-10.2436713178545
30
0
41
1
10
135.353104272178
20
-10.5285869660606
30
0
41
1
10
135.407239160717
20
-10.6539495836471
30
0
41
1
10
135.515508937794
20
-10.870810713479
30
0
41
1
10
135.569643826333
20
-10.9623136469313
30
0
41
1
10
135.677913603411
20
-11.1126547416161
30
0
41
1
10
135.73204849195
20
-11.1714983937831
30
0
41
1
10
135.840318269027
20
-11.2584366215577
30
0
41
1
10
135.894453157566
20
-11.2865371106853
30
0
41
1
10
135.975655490374
20
-11.3074699134435
30
0
41
1
10
136.002722934644
20
-11.3109148668127
30
0
41
1
10
136.056857823182
20
-11.3110820148981
30
0
41
1
10
136.083925267452
20
-11.3078084886992
30
0
41
1
10
136.16512760026
20
-11.2874025427095
30
0
41
1
10
136.219262488799
20
-11.2596699127073
30
0
41
1
10
136.327532265876
20
-11.1734950233244
30
0
41
1
10
136.381667154415
20
-11.1150468489654
30
0
41
1
10
136.489936931493
20
-10.9655165017914
30
0
41
1
10
136.544071820032
20
-10.8744288289012
30
0
41
1
10
136.65234159711
20
-10.6584081224431
30
0
41
1
10
136.706476485648
20
-10.5334706503129
30
0
41
1
10
136.814746262726
20
-10.2494036407562
30
0
41
1
10
136.868881151265
20
-10.0902713645349
30
0
41
1
10
136.977150928342
20
-9.73844279138015
30
0
41
1
10
137.031285816881
20
-9.54574596957764
30
0
41
1
10
137.139555593959
20
-9.12844188199392
30
0
41
1
10
137.193690482498
20
-8.9038365819261
30
0
41
1
10
137.301960259575
20
-8.42537383438417
30
0
41
1
10
137.356095148114
20
-8.17152080263355
30
0
41
1
10
137.464364925192
20
-7.63812939680636
30
0
41
1
10
137.518499813731
20
-7.35859751135257
30
0
41
1
10
137.626769590808
20
-6.77815835949269
30
0
41
1
10
137.680904479347
20
-6.47725899327892
30
0
41
1
10
137.789174256425
20
-5.85891935340951
30
0
41
1
10
137.843309144963
20
-5.54148755962757
30
0
41
1
10
137.951578922041
20
-4.89519300297252
30
0
41
1
10
138.00571381058
20
-4.56633844298344
30
0
41
1
10
138.113983587658
20
-3.90233021598618
30
0
41
1
10
138.168118476196
20
-3.5671837335382
30
0
41
1
10
138.276388253274
20
-2.89551190548585
30
0
41
1
10
138.330523141813
20
-2.55899220166222
30
0
41
1
10
138.43879291889
20
-1.88908834820379
30
0
41
1
10
138.492927807429
20
-1.55570803512026
30
0
41
1
10
138.601197584507
20
-0.896048602913055
30
0
41
1
10
138.655332473046
20
-0.569771503765566
30
0
41
1
10
138.736534805854
20
-0.0881786396635675
30
0
41
1
10
138.763602250123
20
0.0703101181637749
30
0
41
1
10
138.817737138662
20
0.391177928435127
30
0
41
1
10
138.844804582932
20
0.552917437773601
30
0
41
1
10
138.92600691574
20
1.04146262972952
30
0
41
1
10
138.980141804279
20
1.37161478939734
30
0
41
1
10
139.088411581356
20
2.03719256748243
30
0
41
1
10
139.142546469895
20
2.37261530424635
30
0
41
1
10
139.250816246973
20
3.04449377070253
30
0
41
1
10
139.304951135512
20
3.38094477885633
30
0
41
1
10
139.413220912589
20
4.0501522661921
30
0
41
1
10
139.467355801128
20
4.38290231172746
30
0
41
1
10
139.575625578206
20
5.03966137415509
30
0
41
1
10
139.629760466745
20
5.36366263573913
30
0
41
1
10
139.738030243822
20
5.99777327569916
30
0
41
1
10
139.792165132361
20
6.30787421526227
30
0
41
1
10
139.900434909439
20
6.90917462544797
30
0
41
1
10
139.954569797978
20
7.20036578628375
30
0
41
1
10
140.062839575055
20
7.7592328435754
30
0
41
1
10
140.116974463594
20
8.0269014227423
30
0
41
1
10
140.225244240671
20
8.53474307044488
30
0
41
1
10
140.27937912921
20
8.77491058104712
30
0
41
1
10
140.387648906288
20
9.22459935452613
30
0
41
1
10
140.441783794827
20
9.43411735425408
30
0
41
1
10
140.550053571904
20
9.8203200105267
30
0
41
1
10
140.604188460443
20
9.99700391592475
30
0
41
1
10
140.712458237521
20
10.3163756667061
30
0
41
1
10
140.76659312606
20
10.4590651541979
30
0
41
1
10
140.874862903137
20
10.7102955960206
30
0
41
1
10
140.928997791676
20
10.8188401819738
30
0
41
1
10
140.983132680215
20
10.9106989304712
30
0
0
SPLINE
5
E2
100
AcDbEntity
8
1
62
256
6
ByLayer
370
13
48
1
60
0
100
AcDbSpline
70
4
71
3
72
10
73
6
40
0
40
0
40
0
40
0
40
0.5
40
0.5
40
1
40
1
40
1
40
1
41
1
10
130.1
20
10.6796072031532
30
0
41
1
10
130.201538159278
20
10.8985568183346
30
0
41
1
10
130.303076318556
20
11.0573747950629
30
0
41
1
10
130.506152637111
20
11.263529568815
30
0
41
1
10
130.607690796389
20
11.311
30
0
41
1
10
130.709228955667
20
11.311
30
0
0
SPLINE
5
E3
100
AcDbEntity
8
1
62
256
6
ByLayer
370
13
48
1
60
0
100
AcDbSpline
70
4
71
3
72
134
73
130
40
0
40
0
40
0
40
0
40
0.0156250000000001
40
0.0156250000000001
40
0.0312500000000001
40
0.0312500000000001
40
0.0468750000000002
40
0.0468750000000002
40
0.0625000000000002
40
0.0625000000000002
40
0.0781250000000003
40
0.0781250000000003
40
0.0937500000000004
40
0.0937500000000004
40
0.109375
40
0.109375
40
0.125000000000001
40
0.125000000000001
40
0.140625000000001
40
0.140625000000001
40
0.156250000000001
40
0.156250000000001
40
0.171875000000001
40
0.171875000000001
40
0.187500000000001
40
0.187500000000001
40
0.203125000000001
40
0.203125000000001
40
0.218750000000001
40
0.218750000000001
40
0.234375000000001
40
0.234375000000001
40
0.250000000000001
40
0.250000000000001
40
0.265625000000001
40
0.265625000000001
40
0.281250000000001
40
0.281250000000001
40
0.296875000000001
40
0.296875000000001
40
0.312500000000001
40
0.312500000000001
40
0.328125000000001
40
0.328125000000001
40
0.343750000000001
40
0.343750000000001
40
0.359375000000001
40
0.359375000000001
40
0.375000000000001
40
0.375000000000001
40
0.390625000000001
40
0.390625000000001
40
0.406250000000001
40
0.406250000000001
40
0.421875000000001
40
0.421875000000001
40
0.437500000000001
40
0.437500000000001
40
0.453125000000001
40
0.453125000000001
40
0.468750000000001
40
0.468750000000001
40
0.484375000000001
40
0.484375000000001
40
0.500000000000001
40
0.500000000000001
40
0.515625000000001
40
0.515625000000001
40
0.531250000000001
40
0.531250000000001
40
0.546875000000001
40
0.546875000000001
40
0.562500000000001
40
0.562500000000001
40
0.578125000000001
40
0.578125000000001
40
0.593750000000001
40
0.593750000000001
40
0.609375000000001
40
0.609375000000001
40
0.625000000000001
40
0.625000000000001
40
0.640625000000001
40
0.640625000000001
40
0.656250000000001
40
0.656250000000001
40
0.671875000000001
40
0.671875000000001
40
0.687500000000001
40
0.687500000000001
40
0.703125000000001
40
0.703125000000001
40
0.718750000000001
40
0.718750000000001
40
0.734375000000001
40
0.734375000000001
40
0.750000000000001
40
0.750000000000001
40
0.765625000000001
40
0.765625000000001
40
0.781250000000001
40
0.781250000000001
40
0.796875000000001
40
0.796875000000001
40
0.812500000000001
40
0.812500000000001
40
0.828125000000001
40
0.828125000000001
40
0.843750000000001
40
0.843750000000001
40
0.859375000000001
40
0.859375000000001
40
0.875
40
0.875
40
0.890625
40
0.890625
40
0.90625
40
0.90625
40
0.921875
40
0.921875
40
0.9375
40
0.9375
40
0.953125
40
0.953125
40
0.96875
40
0.96875
40
0.984375
40
0.984375
40
1
40
1
40
1
40
1
41
1
10
130.100000544157
20
11.311
30
0
41
1
10
130.156683524032
20
11.311
30
0
41
1
10
130.213366503907
20
11.2962546041224
30
0
41
1
10
130.326732463658
20
11.2342373478207
30
0
41
1
10
130.383415443533
20
11.1869580507925
30
0
41
1
10
130.496781403284
20
11.0573760324018
30
0
41
1
10
130.553464383159
20
10.9750660899126
30
0
41
1
10
130.66683034291
20
10.7737012328086
30
0
41
1
10
130.723513322785
20
10.6546401696211
30
0
41
1
10
130.836879282536
20
10.3790309423787
30
0
41
1
10
130.893562262411
20
10.2224786022956
30
0
41
1
10
131.006928222161
20
9.87228246285417
30
0
41
1
10
131.063611202037
20
9.67863723725745
30
0
41
1
10
131.176977161788
20
9.25587559801639
30
0
41
1
10
131.233660141663
20
9.02676098588242
30
0
41
1
10
131.347026101413
20
8.53590133883833
30
0
41
1
10
131.403709081288
20
8.27416137455319
30
0
41
1
10
131.517075041039
20
7.72200889203191
30
0
41
1
10
131.573758020915
20
7.43160426786247
30
0
41
1
10
131.687123980665
20
6.82700076375571
30
0
41
1
10
131.74380696054
20
6.51281172992412
30
0
41
1
10
131.857172920291
20
5.8661682811198
30
0
41
1
10
131.913855900166
20
5.53372452918285
30
0
41
1
10
132.027221859917
20
4.85643887245143
30
0
41
1
10
132.083904839792
20
4.51160726654032
30
0
41
1
10
132.197270799543
20
3.81543250628297
30
0
41
1
10
132.253953779418
20
3.4640982713413
30
0
41
1
10
132.367319739169
20
2.76053223684446
30
0
41
1
10
132.424002719044
20
2.40830727886268
30
0
41
1
10
132.537368678795
20
1.70806236331919
30
0
41
1
10
132.59405165867
20
1.36004685010218
30
0
41
1
10
132.70741761842
20
0.672641790681098
30
0
41
1
10
132.764100598296
20
0.333254326323271
30
0
41
1
10
132.877466558047
20
-0.333252726706348
30
0
41
1
10
132.934149537922
20
-0.672640154610889
30
0
41
1
10
133.047515497672
20
-1.3600451866281
30
0
41
1
10
133.104198477548
20
-1.7080606893766
30
0
41
1
10
133.217564437298
20
-2.40830559162967
30
0
41
1
10
133.274247417174
20
-2.76053054679346
30
0
41
1
10
133.387613376924
20
-3.46409658427524
30
0
41
1
10
133.4442963568
20
-3.81543082502355
30
0
41
1
10
133.55766231655
20
-4.51160560616077
30
0
41
1
10
133.614345296425
20
-4.85643722714801
30
0
41
1
10
133.727711256176
20
-5.53372292351494
30
0
41
1
10
133.784394236051
20
-5.86616670001274
30
0
41
1
10
133.897760195802
20
-6.51281020714242
30
0
41
1
10
133.954443175677
20
-6.82699927473814
30
0
41
1
10
134.067809135428
20
-7.43160285478294
30
0
41
1
10
134.124492115303
20
-7.722007521124
30
0
41
1
10
134.237858075054
20
-8.27416009512891
30
0
41
1
10
134.294541054929
20
-8.53590010872213
30
0
41
1
10
134.40790701468
20
-9.02675985987202
30
0
41
1
10
134.464589994555
20
-9.25587452679872
30
0
41
1
10
134.577955954306
20
-9.67863627921892
30
0
41
1
10
134.634638934181
20
-9.87228156319679
30
0
41
1
10
134.748004893931
20
-10.2224778210112
30
0
41
1
10
134.804687873807
20
-10.3790302210812
30
0
41
1
10
134.918053833558
20
-10.654639567994
30
0
41
1
10
134.974736813433
20
-10.7737006908611
30
0
41
1
10
135.088102773183
20
-10.9750656653085
30
0
41
1
10
135.144785753059
20
-11.057375665459
30
0
41
1
10
135.258151712809
20
-11.1869577957414
30
0
41
1
10
135.314834692685
20
-11.2342371469987
30
0
41
1
10
135.428200652435
20
-11.2962545072613
30
0
41
1
10
135.48488363231
20
-11.3109999528707
30
0
41
1
10
135.598249592061
20
-11.3110000471291
30
0
41
1
10
135.654932571937
20
-11.2962547009834
30
0
41
1
10
135.768298531687
20
-11.2342375486424
30
0
41
1
10
135.824981511562
20
-11.1869583058435
30
0
41
1
10
135.938347471313
20
-11.0573763993443
30
0
41
1
10
135.995030451188
20
-10.9750665145165
30
0
41
1
10
136.108396410939
20
-10.7737017747558
30
0
41
1
10
136.165079390814
20
-10.654640771248
30
0
41
1
10
136.278445350565
20
-10.3790316636759
30
0
41
1
10
136.33512833044
20
-10.2224793835798
30
0
41
1
10
136.448494290191
20
-9.87228336251124
30
0
41
1
10
136.505177270066
20
-9.67863819529566
30
0
41
1
10
136.618543229817
20
-9.2558766692338
30
0
41
1
10
136.675226209692
20
-9.02676211189257
30
0
41
1
10
136.788592169443
20
-8.5359025689543
30
0
41
1
10
136.845275149318
20
-8.27416265397724
30
0
41
1
10
136.958641109068
20
-7.72201026293959
30
0
41
1
10
137.015324088944
20
-7.43160568094177
30
0
41
1
10
137.128690048694
20
-6.82700225277307
30
0
41
1
10
137.18537302857
20
-6.51281325270568
30
0
41
1
10
137.29873898832
20
-5.86616986222671
30
0
41
1
10
137.355421968195
20
-5.53372613485064
30
0
41
1
10
137.468787927946
20
-4.85644051775475
30
0
41
1
10
137.525470907821
20
-4.51160892691979
30
0
41
1
10
137.638836867572
20
-3.81543418754237
30
0
41
1
10
137.695519847447
20
-3.4640999584073
30
0
41
1
10
137.808885807198
20
-2.76053392689545
30
0
41
1
10
137.865568787073
20
-2.40830896609572
30
0
41
1
10
137.978934746824
20
-1.70806403726186
30
0
41
1
10
138.035617726699
20
-1.36004851357632
30
0
41
1
10
138.14898368645
20
-0.672643426751392
30
0
41
1
10
138.205666666325
20
-0.333255945461815
30
0
41
1
10
138.319032626076
20
0.333251146610848
30
0
41
1
10
138.375715605951
20
0.672638518540765
30
0
41
1
10
138.489081565702
20
1.36004352315405
30
0
41
1
10
138.545764545577
20
1.70805901543403
30
0
41
1
10
138.659130505328
20
2.40830390439666
30
0
41
1
10
138.715813485203
20
2.76052885674247
30
0
41
1
10
138.829179444953
20
3.46409489720918
30
0
41
1
10
138.885862424829
20
3.81542914376408
30
0
41
1
10
138.999228384579
20
4.51160394578116
30
0
41
1
10
139.055911364455
20
4.85643558184452
30
0
41
1
10
139.169277324205
20
5.53372131784693
30
0
41
1
10
139.225960304081
20
5.86616511890554
30
0
41
1
10
139.339326263831
20
6.51280868436055
30
0
41
1
10
139.396009243706
20
6.82699778572044
30
0
41
1
10
139.509375203457
20
7.43160144170324
30
0
41
1
10
139.566058183332
20
7.72200615021589
30
0
41
1
10
139.679424143083
20
8.2741588157044
30
0
41
1
10
139.736107122958
20
8.53589887860568
30
0
41
1
10
139.849473082709
20
9.02675873386136
30
0
41
1
10
139.906156062584
20
9.25587345558077
30
0
41
1
10
140.019522022335
20
9.67863532118014
30
0
41
1
10
140.07620500221
20
9.87228066353913
30
0
41
1
10
140.189570961961
20
10.2224770397265
30
0
41
1
10
140.246253941836
20
10.3790294997834
30
0
41
1
10
140.359619901587
20
10.6546389663666
30
0
41
1
10
140.416302881462
20
10.7737001489133
30
0
41
1
10
140.529668841212
20
10.9750652407042
30
0
41
1
10
140.586351821088
20
11.057375298516
30
0
41
1
10
140.699717780838
20
11.1869575406899
30
0
41
1
10
140.756400760714
20
11.2342369461765
30
0
41
1
10
140.869766720464
20
11.2962544103999
30
0
41
1
10
140.92644970034
20
11.3109999057412
30
0
41
1
10
140.983132680215
20
11.3109999999996
30
0
0
SPLINE
5
E4
100
AcDbEntity
8
1
62
256
6
ByLayer
370
13
48
1
60
0
100
AcDbSpline
70
4
71
3
72
10
73
6
40
0
40
0
40
0
40
0
40
0.5
40
0.5
40
1
40
1
40
1
40
1
41
1
10
140.373904812861
20
11.311
30
0
41
1
10
140.475442790754
20
11.311
30
0
41
1
10
140.576980768646
20
11.2635297392893
30
0
41
1
10
140.78005672443
20
11.0573757293987
30
0
41
1
10
140.881594702323
20
10.8985583472155
30
0
41
1
10
140.983132680215
20
10.6796095499116
30
0
0
SPLINE
5
E5
100
AcDbEntity
8
1
62
256
6
ByLayer
370
13
48
1
60
0
100
AcDbSpline
70
4
71
3
72
8
73
4
40
0
40
0
40
0
40
0
40
1
40
1
40
1
40
1
41
1
10
130.1
20
11.2884419100577
30
0
41
1
10
130.139998473021
20
11.3036622499012
30
0
41
1
10
130.179996946041
20
11.311
30
0
41
1
10
130.219995419062
20
11.311
30
0
0
SPLINE
5
E6
100
AcDbEntity
8
1
62
256
6
ByLayer
370
13
48
1
60
0
100
AcDbSpline
70
4
71
3
72
138
73
134
40
0
40
0
40
0
40
0
40
0.0156250000000002
40
0.0156250000000002
40
0.0312500000000003
40
0.0312500000000003
40
0.0468750000000005
40
0.0468750000000005
40
0.0625000000000007
40
0.0625000000000007
40
0.0781250000000009
40
0.0781250000000009
40
0.093750000000001
40
0.093750000000001
40
0.109375000000001
40
0.109375000000001
40
0.125000000000001
40
0.125000000000001
40
0.140625000000001
40
0.140625000000001
40
0.156250000000001
40
0.156250000000001
40
0.171875000000002
40
0.171875000000002
40
0.187500000000002
40
0.187500000000002
40
0.203125000000002
40
0.203125000000002
40
0.210937500000002
40
0.210937500000002
40
0.218750000000002
40
0.218750000000002
40
0.234375000000002
40
0.234375000000002
40
0.250000000000002
40
0.250000000000002
40
0.265625000000002
40
0.265625000000002
40
0.281250000000002
40
0.281250000000002
40
0.296875000000002
40
0.296875000000002
40
0.312500000000003
40
0.312500000000003
40
0.328125000000003
40
0.328125000000003
40
0.343750000000003
40
0.343750000000003
40
0.359375000000003
40
0.359375000000003
40
0.375000000000003
40
0.375000000000003
40
0.390625000000003
40
0.390625000000003
40
0.406250000000003
40
0.406250000000003
40
0.421875000000003
40
0.421875000000003
40
0.437500000000004
40
0.437500000000004
40
0.453125000000004
40
0.453125000000004
40
0.468750000000004
40
0.468750000000004
40
0.476562500000004
40
0.476562500000004
40
0.484375000000004
40
0.484375000000004
40
0.500000000000004
40
0.500000000000004
40
0.515625000000004
40
0.515625000000004
40
0.531250000000004
40
0.531250000000004
40
0.546875000000003
40
0.546875000000003
40
0.562500000000003
40
0.562500000000003
40
0.578125000000003
40
0.578125000000003
40
0.593750000000003
40
0.593750000000003
40
0.609375000000003
40
0.609375000000003
40
0.625000000000003
40
0.625000000000003
40
0.640625000000002
40
0.640625000000002
40
0.656250000000002
40
0.656250000000002
40
0.671875000000002
40
0.671875000000002
40
0.687500000000002
40
0.687500000000002
40
0.703125000000002
40
0.703125000000002
40
0.718750000000002
40
0.718750000000002
40
0.734375000000002
40
0.734375000000002
40
0.742187500000001
40
0.742187500000001
40
0.750000000000001
40
0.750000000000001
40
0.765625000000001
40
0.765625000000001
40
0.781250000000001
40
0.781250000000001
40
0.796875000000001
40
0.796875000000001
40
0.812500000000001
40
0.812500000000001
40
0.828125000000001
40
0.828125000000001
40
0.843750000000001
40
0.843750000000001
40
0.859375000000001
40
0.859375000000001
40
0.875000000000001
40
0.875000000000001
40
0.890625000000001
40
0.890625000000001
40
0.906250000000001
40
0.906250000000001
40
0.921875000000001
40
0.921875000000001
40
0.937500000000001
40
0.937500000000001
40
0.953125
40
0.953125
40
0.96875
40
0.96875
40
1
40
1
40
1
40
1
41
1
10
130.1
20
10.9107007771726
30
0
41
1
10
130.154134894207
20
10.8188422422121
30
0
41
1
10
130.208269788414
20
10.710297870317
30
0
41
1
10
130.316539576828
20
10.4590678516496
30
0
41
1
10
130.370674471036
20
10.3163785732415
30
0
41
1
10
130.47894425945
20
9.99700722930626
30
0
41
1
10
130.533079153657
20
9.82032352165527
30
0
41
1
10
130.641348942071
20
9.43412124329302
30
0
41
1
10
130.695483836278
20
9.22460342371278
30
0
41
1
10
130.803753624693
20
8.77491498725271
30
0
41
1
10
130.8578885189
20
8.53474763350798
30
0
41
1
10
130.966158307314
20
8.02690627156991
30
0
41
1
10
131.020293201521
20
7.75923782130013
30
0
41
1
10
131.128562989935
20
7.20037099055895
30
0
41
1
10
131.182697884142
20
6.90917992737184
30
0
41
1
10
131.290967672557
20
6.30787967955143
30
0
41
1
10
131.345102566764
20
5.99777880470589
30
0
41
1
10
131.453372355178
20
5.3636682612221
30
0
41
1
10
131.507507249385
20
5.03966703140293
30
0
41
1
10
131.615777037799
20
4.38290800107129
30
0
41
1
10
131.669911932006
20
4.0501579558771
30
0
41
1
10
131.778181720421
20
3.38095044061848
30
0
41
1
10
131.832316614628
20
3.04449940421287
30
0
41
1
10
131.940586403042
20
2.37262085643917
30
0
41
1
10
131.994721297249
20
2.03719806662213
30
0
41
1
10
132.102991085663
20
1.37162016199295
30
0
41
1
10
132.15712597987
20
1.04146792884563
30
0
41
1
10
132.238328321181
20
0.552922614788656
30
0
41
1
10
132.265395768285
20
0.391183062770125
30
0
41
1
10
132.319530662492
20
0.0703151637462156
30
0
41
1
10
132.346598109595
20
-0.0881736074029789
30
0
41
1
10
132.427800450906
20
-0.569766440454458
30
0
41
1
10
132.481935345113
20
-0.896043527839794
30
0
41
1
10
132.590205133527
20
-1.55570295676941
30
0
41
1
10
132.644340027734
20
-1.88908327834537
30
0
41
1
10
132.752609816149
20
-2.55898717084563
30
0
41
1
10
132.806744710356
20
-2.89550690522594
30
0
41
1
10
132.91501449877
20
-3.56717881745166
30
0
41
1
10
132.969149392977
20
-3.90232535352183
30
0
41
1
10
133.077419181392
20
-4.56633371082276
30
0
41
1
10
133.131554075599
20
-4.89518834749592
30
0
41
1
10
133.239823864013
20
-5.54148307944806
30
0
41
1
10
133.29395875822
20
-5.8589149718419
30
0
41
1
10
133.402228546634
20
-6.47725482857842
30
0
41
1
10
133.456363440841
20
-6.77815431304231
30
0
41
1
10
133.564633229256
20
-7.3585937176972
30
0
41
1
10
133.618768123463
20
-7.63812573768723
30
0
41
1
10
133.727037911877
20
-8.17151742467911
30
0
41
1
10
133.781172806084
20
-8.42537060304701
30
0
41
1
10
133.889442594498
20
-8.9038336511625
30
0
41
1
10
133.943577488705
20
-9.12843910517441
30
0
41
1
10
134.05184727712
20
-9.54574350303974
30
0
41
1
10
134.105982171327
20
-9.73844048116823
30
0
41
1
10
134.214251959741
20
-10.090269364595
30
0
41
1
10
134.268386853948
20
-10.2494017947527
30
0
41
1
10
134.376656642362
20
-10.5334691055233
30
0
41
1
10
134.430791536569
20
-10.6584067249245
30
0
41
1
10
134.539061324984
20
-10.8744277157242
30
0
41
1
10
134.593196219191
20
-10.9655155256821
30
0
41
1
10
134.701466007605
20
-11.1150461341319
30
0
41
1
10
134.755600901812
20
-11.1734944326992
30
0
41
1
10
134.863870690226
20
-11.2596695559048
30
0
41
1
10
134.918005584434
20
-11.2874022955241
30
0
41
1
10
134.999207925744
20
-11.3078083943534
30
0
41
1
10
135.026275372848
20
-11.3110819695142
30
0
41
1
10
135.080410267055
20
-11.3109149157135
30
0
41
1
10
135.107477714158
20
-11.3074700100191
30
0
41
1
10
135.188680055469
20
-11.2865373515109
30
0
41
1
10
135.242814949676
20
-11.258436960197
30
0
41
1
10
135.35108473809
20
-11.1714989290342
30
0
41
1
10
135.405219632298
20
-11.1126553756618
30
0
41
1
10
135.513489420712
20
-10.9623144768678
30
0
41
1
10
135.567624314919
20
-10.8708116405063
30
0
41
1
10
135.675894103333
20
-10.6539507002365
30
0
41
1
10
135.73002899754
20
-10.5285881751145
30
0
41
1
10
135.838298785954
20
-10.2436727042396
30
0
41
1
10
135.892433680162
20
-10.0841170444475
30
0
41
1
10
136.000703468576
20
-9.73145592898797
30
0
41
1
10
136.054838362783
20
-9.53834997832021
30
0
41
1
10
136.163108151197
20
-9.12025463690352
30
0
41
1
10
136.217243045404
20
-8.89526724329258
30
0
41
1
10
136.325512833818
20
-8.41607935622622
30
0
41
1
10
136.379647728026
20
-8.16188330726294
30
0
41
1
10
136.48791751644
20
-7.62785530326252
30
0
41
1
10
136.542052410647
20
-7.34802985895791
30
0
41
1
10
136.650322199061
20
-6.76706098121801
30
0
41
1
10
136.704457093268
20
-6.4659254605036
30
0
41
1
10
136.812726881683
20
-5.84717589632976
30
0
41
1
10
136.86686177589
20
-5.52957033445944
30
0
41
1
10
136.975131564304
20
-4.88299243982553
30
0
41
1
10
137.029266458511
20
-4.55402830147216
30
0
41
1
10
137.137536246925
20
-3.88986385557865
30
0
41
1
10
137.191671141133
20
-3.55467071611508
30
0
41
1
10
137.299940929547
20
-2.88296456170923
30
0
41
1
10
137.354075823754
20
-2.54645716715879
30
0
41
1
10
137.462345612168
20
-1.87663086070637
30
0
41
1
10
137.516480506375
20
-1.54331576235643
30
0
41
1
10
137.624750294789
20
-0.88383219832636
30
0
41
1
10
137.678885188996
20
-0.557665730871292
30
0
41
1
10
137.760087530307
20
-0.0762667144639693
30
0
41
1
10
137.787154977411
20
0.0822195297065207
30
0
41
1
10
137.841289871618
20
0.403216870590853
30
0
41
1
10
137.868357318722
20
0.565016505446863
30
0
41
1
10
137.949559660032
20
1.0537265985561
30
0
41
1
10
138.003694554239
20
1.38396803338037
30
0
41
1
10
138.111964342653
20
2.04967513583603
30
0
41
1
10
138.166099236861
20
2.38513789913159
30
0
41
1
10
138.274369025275
20
3.05704031919558
30
0
41
1
10
138.328503919482
20
3.39347523181883
30
0
41
1
10
138.436773707896
20
4.06258932006733
30
0
41
1
10
138.490908602103
20
4.39526204265442
30
0
41
1
10
138.599178390517
20
5.05180255021256
30
0
41
1
10
138.653313284725
20
5.37566256699011
30
0
41
1
10
138.761583073139
20
6.00942701186167
30
0
41
1
10
138.815717967346
20
6.3193229975036
30
0
41
1
10
138.92398775576
20
6.92015315995803
30
0
41
1
10
138.978122649967
20
7.21107903406619
30
0
41
1
10
139.086392438381
20
7.76936165825754
30
0
41
1
10
139.140527332589
20
8.03671110857476
30
0
41
1
10
139.248797121003
20
8.54386986181999
30
0
41
1
10
139.30293201521
20
8.78367363266136
30
0
41
1
10
139.411201803624
20
9.23260159491639
30
0
41
1
10
139.465336697831
20
9.44172255379797
30
0
41
1
10
139.573606486245
20
9.82711032201786
30
0
41
1
10
139.627741380453
20
10.0033764113746
30
0
41
1
10
139.736011168867
20
10.3219045259377
30
0
41
1
10
139.790146063074
20
10.4641682209797
30
0
41
1
10
139.898415851488
20
10.7145512545674
30
0
41
1
10
139.952550745696
20
10.8226742460369
30
0
41
1
10
140.06082053411
20
11.0055635442344
30
0
41
1
10
140.114955428317
20
11.0803348965118
30
0
41
1
10
140.277360110938
20
11.2569880265674
30
0
41
1
10
140.385629899352
20
11.311
30
0
41
1
10
140.493899687767
20
11.311
30
0
0
SPLINE
5
E7
100
AcDbEntity
8
1
62
256
6
ByLayer
370
13
48
1
60
0
100
AcDbSpline
70
4
71
3
72
14
73
10
40
0
40
0
40
0
40
0
40
0.25
40
0.25
40
0.5
40
0.5
40
0.75
40
0.75
40
1
40
1
40
1
40
1
41
1
10
139.884671276256
20
11.311
30
0
41
1
10
139.976209726586
20
11.311
30
0
41
1
10
140.067748176916
20
11.2724556365808
30
0
41
1
10
140.250825077576
20
11.1061475454483
30
0
41
1
10
140.342363527906
20
10.9783032332967
30
0
41
1
10
140.525440428566
20
10.6257937838246
30
0
41
1
10
140.616978878895
20
10.4010659883156
30
0
41
1
10
140.800055779555
20
9.85411188462777
30
0
41
1
10
140.891594229885
20
9.53186523088118
30
0
41
1
10
140.983132680215
20
9.16466027589058
30
0
0
SPLINE
5
E8
100
AcDbEntity
8
1
62
256
6
ByLayer
370
13
48
1
60
0
100
AcDbSpline
70
4
71
3
72
118
73
114
40
0
40
0
40
0
40
0
40
0.015625
40
0.015625
40
0.0312500000000001
40
0.0312500000000001
40
0.0468750000000001
40
0.0468750000000001
40
0.0625000000000002
40
0.0625000000000002
40
0.0781250000000002
40
0.0781250000000002
40
0.0937500000000003
40
0.0937500000000003
40
0.125
40
0.125
40
0.15625
40
0.15625
40
0.171875
40
0.171875
40
0.1796875
40
0.1796875
40
0.1875
40
0.1875
40
0.218749999999999
40
0.218749999999999
40
0.249999999999999
40
0.249999999999999
40
0.265624999999999
40
0.265624999999999
40
0.281249999999999
40
0.281249999999999
40
0.296874999999999
40
0.296874999999999
40
0.312499999999999
40
0.312499999999999
40
0.328124999999998
40
0.328124999999998
40
0.343749999999998
40
0.343749999999998
40
0.359374999999998
40
0.359374999999998
40
0.374999999999998
40
0.374999999999998
40
0.406249999999998
40
0.406249999999998
40
0.437499999999997
40
0.437499999999997
40
0.445312499999998
40
0.445312499999998
40
0.449218749999998
40
0.449218749999998
40
0.453124999999998
40
0.453124999999998
40
0.468749999999997
40
0.468749999999997
40
0.499999999999997
40
0.499999999999997
40
0.531249999999997
40
0.531249999999997
40
0.546874999999997
40
0.546874999999997
40
0.562499999999996
40
0.562499999999996
40
0.578124999999996
40
0.578124999999996
40
0.593749999999996
40
0.593749999999996
40
0.609374999999996
40
0.609374999999996
40
0.624999999999995
40
0.624999999999995
40
0.640624999999995
40
0.640624999999995
40
0.656249999999995
40
0.656249999999995
40
0.687499999999995
40
0.687499999999995
40
0.718749999999994
40
0.718749999999994
40
0.722656249999994
40
0.722656249999994
40
0.726562499999994
40
0.726562499999994
40
0.734374999999995
40
0.734374999999995
40
0.749999999999995
40
0.749999999999995
40
0.781249999999996
40
0.781249999999996
40
0.796874999999996
40
0.796874999999996
40
0.812499999999996
40
0.812499999999996
40
0.828124999999997
40
0.828124999999997
40
0.843749999999997
40
0.843749999999997
40
0.859374999999998
40
0.859374999999998
40
0.874999999999998
40
0.874999999999998
40
0.890624999999998
40
0.890624999999998
40
0.906249999999998
40
0.906249999999998
40
0.921874999999999
40
0.921874999999999
40
0.937499999999999
40
0.937499999999999
40
0.968749999999999
40
0.968749999999999
40
1
40
1
40
1
40
1
41
1
10
130.1
20
9.62001119828579
30
0
41
1
10
130.151586802871
20
9.43561124990788
30
0
41
1
10
130.203173605741
20
9.23631667048454
30
0
41
1
10
130.306347211482
20
8.80981565924264
30
0
41
1
10
130.357934014353
20
8.58261172521406
30
0
41
1
10
130.461107620094
20
8.10296837849199
30
0
41
1
10
130.512694422965
20
7.85053320032728
30
0
41
1
10
130.615868028706
20
7.32379969008755
30
0
41
1
10
130.667454831577
20
7.04950696333788
30
0
41
1
10
130.770628437318
20
6.48297741003617
30
0
41
1
10
130.822215240189
20
6.19074702762777
30
0
41
1
10
130.92538884593
20
5.59262500199392
30
0
41
1
10
130.976975648801
20
5.28674002867677
30
0
41
1
10
131.131736057413
20
4.35526444524942
30
0
41
1
10
131.234909663154
20
3.71597700358913
30
0
41
1
10
131.441256874637
20
2.43524919435529
30
0
41
1
10
131.544430480378
20
1.79394324271936
30
0
41
1
10
131.69919088899
20
0.852264846317382
30
0
41
1
10
131.75077769186
20
0.541695454876816
30
0
41
1
10
131.828157896166
20
0.0829687758700288
30
0
41
1
10
131.853951297602
20
-0.0680865079816044
30
0
41
1
10
131.905538100472
20
-0.373749700357706
30
0
41
1
10
131.931331501907
20
-0.527770190970728
30
0
41
1
10
132.060298509084
20
-1.30296995337508
30
0
41
1
10
132.163472114825
20
-1.93975829671524
30
0
41
1
10
132.369819326308
20
-3.21964446906395
30
0
41
1
10
132.472992932049
20
-3.86262974131398
30
0
41
1
10
132.627753340661
20
-4.80659682644645
30
0
41
1
10
132.679340143532
20
-5.1177933992968
30
0
41
1
10
132.782513749273
20
-5.72882678793025
30
0
41
1
10
132.834100552144
20
-6.02865705582801
30
0
41
1
10
132.937274157885
20
-6.6125650249746
30
0
41
1
10
132.988860960755
20
-6.89663608770266
30
0
41
1
10
133.092034566497
20
-7.44489341165485
30
0
41
1
10
133.143621369368
20
-7.70907356068372
30
0
41
1
10
133.246794975109
20
-8.21387108688762
30
0
41
1
10
133.298381777979
20
-8.45448346390248
30
0
41
1
10
133.401555383721
20
-8.9090906373649
30
0
41
1
10
133.453142186591
20
-9.1230820064016
30
0
41
1
10
133.556315792332
20
-9.52214357038966
30
0
41
1
10
133.607902595203
20
-9.70721217469085
30
0
41
1
10
133.711076200944
20
-10.0469519213411
30
0
41
1
10
133.762663003815
20
-10.201623344172
30
0
41
1
10
133.917423412427
20
-10.6190972944855
30
0
41
1
10
134.020597018168
20
-10.8349995767209
30
0
41
1
10
134.226944229651
20
-11.146363453344
30
0
41
1
10
134.330117835392
20
-11.241957024208
30
0
41
1
10
134.459084842569
20
-11.2951976383923
30
0
41
1
10
134.484878244004
20
-11.3025513270229
30
0
41
1
10
134.523568346157
20
-11.3088539129803
30
0
41
1
10
134.536465046874
20
-11.3101669378715
30
0
41
1
10
134.56225844831
20
-11.3112546010672
30
0
41
1
10
134.575155149027
20
-11.3110348701724
30
0
41
1
10
134.639638652616
20
-11.3060784804337
30
0
41
1
10
134.691225455486
20
-11.2897069454557
30
0
41
1
10
134.845985864098
20
-11.1999917788432
30
0
41
1
10
134.94915946984
20
-11.0857700586776
30
0
41
1
10
135.155506681322
20
-10.7356305723177
30
0
41
1
10
135.258680287063
20
-10.4995883477044
30
0
41
1
10
135.413440695675
20
-10.0522140639985
30
0
41
1
10
135.465027498546
20
-9.8876316328201
30
0
41
1
10
135.568201104287
20
-9.52845201333432
30
0
41
1
10
135.619787907158
20
-9.33385513764915
30
0
41
1
10
135.722961512899
20
-8.91639079487805
30
0
41
1
10
135.77454831577
20
-8.69352552571721
30
0
41
1
10
135.877721921511
20
-8.22207764664657
30
0
41
1
10
135.929308724382
20
-7.97349901068768
30
0
41
1
10
136.032482330123
20
-7.45389350115477
30
0
41
1
10
136.084069132993
20
-7.18287204441779
30
0
41
1
10
136.187242738735
20
-6.62222348336235
30
0
41
1
10
136.238829541605
20
-6.33260272843342
30
0
41
1
10
136.342003147347
20
-5.73899302337696
30
0
41
1
10
136.393589950217
20
-5.43501074871094
30
0
41
1
10
136.496763555958
20
-4.8171125286558
30
0
41
1
10
136.548350358829
20
-4.50320297833912
30
0
41
1
10
136.703110767441
20
-3.55322364123839
30
0
41
1
10
136.806284373182
20
-2.90908736672165
30
0
41
1
10
137.012631584665
20
-1.63181601520478
30
0
41
1
10
137.115805190406
20
-0.998779492993236
30
0
41
1
10
137.231875496865
20
-0.307334928008174
30
0
41
1
10
137.244772197583
20
-0.230790161558247
30
0
41
1
10
137.270565599018
20
-0.0783060989967623
30
0
41
1
10
137.283462299736
20
-0.0025770958712883
30
0
41
1
10
137.322152401889
20
0.225496783803578
30
0
41
1
10
137.347945803324
20
0.378785888872898
30
0
41
1
10
137.42532600763
20
0.841881145652565
30
0
41
1
10
137.476912810501
20
1.15493189584873
30
0
41
1
10
137.631673219113
20
2.10250032095755
30
0
41
1
10
137.734846824854
20
2.74564472878509
30
0
41
1
10
137.889607233466
20
3.7049572150095
30
0
41
1
10
137.941194036336
20
4.02376980038483
30
0
41
1
10
138.044367642078
20
4.65519918202273
30
0
41
1
10
138.095954444948
20
4.96781022335213
30
0
41
1
10
138.199128050689
20
5.58239162709017
30
0
41
1
10
138.25071485356
20
5.884355510966
30
0
41
1
10
138.353888459301
20
6.47322660300983
30
0
41
1
10
138.405475262172
20
6.76012714612094
30
0
41
1
10
138.508648867913
20
7.31468381966698
30
0
41
1
10
138.560235670784
20
7.58233371144149
30
0
41
1
10
138.663409276525
20
8.09462558908089
30
0
41
1
10
138.714996079396
20
8.33926236003981
30
0
41
1
10
138.818169685137
20
8.80236282249575
30
0
41
1
10
138.869756488008
20
9.02082280938109
30
0
41
1
10
138.972930093749
20
9.42913839524186
30
0
41
1
10
139.02451689662
20
9.61899209900255
30
0
41
1
10
139.127690502361
20
9.96848263495946
30
0
41
1
10
139.179277305232
20
10.1281194530974
30
0
41
1
10
139.282450910973
20
10.4164112555339
30
0
41
1
10
139.334037713843
20
10.5450679559137
30
0
41
1
10
139.488798122455
20
10.8846496687196
30
0
41
1
10
139.591971728197
20
11.0488768675763
30
0
41
1
10
139.798318939679
20
11.261979836752
30
0
41
1
10
139.90149254542
20
11.311
30
0
41
1
10
140.004666151162
20
11.311
30
0
0
SPLINE
5
E9
100
AcDbEntity
8
1
62
256
6
ByLayer
370
13
48
1
60
0
100
AcDbSpline
70
4
71
3
72
22
73
18
40
0
40
0
40
0
40
0
40
0.125
40
0.125
40
0.25
40
0.25
40
0.375
40
0.375
40
0.5
40
0.5
40
0.625
40
0.625
40
0.75
40
0.75
40
0.875
40
0.875
40
1
40
1
40
1
40
1
41
1
10
139.395437739651
20
11.311
30
0
41
1
10
139.461591695508
20
11.311
30
0
41
1
10
139.527745651365
20
11.2909056415643
30
0
41
1
10
139.660053563078
20
11.2057656267097
30
0
41
1
10
139.726207518935
20
11.1407038567302
30
0
41
1
10
139.858515430649
20
10.9619304638489
30
0
41
1
10
139.924669386506
20
10.8482037971985
30
0
41
1
10
140.056977298219
20
10.569972525984
30
0
41
1
10
140.123131254076
20
10.4054565455032
30
0
41
1
10
140.25543916579
20
10.0254956891449
30
0
41
1
10
140.321593121647
20
9.81004561910419
30
0
41
1
10
140.45390103336
20
9.33030068467588
30
0
41
1
10
140.520054989217
20
9.06600854167149
30
0
41
1
10
140.652362900931
20
8.49294135728334
30
0
41
1
10
140.718516856788
20
8.18417729544709
30
0
41
1
10
140.850824768501
20
7.52860021092002
30
0
41
1
10
140.916978724358
20
7.18180511670775
30
0
41
1
10
140.983132680215
20
6.82001838035509
30
0
0
SPLINE
5
EA
100
AcDbEntity
8
1
62
256
6
ByLayer
370
13
48
1
60
0
100
AcDbSpline
70
4
71
3
72
80
73
76
40
0
40
0
40
0
40
0
40
0.0312499999999989
40
0.0312499999999989
40
0.0624999999999978
40
0.0624999999999978
40
0.0937499999999967
40
0.0937499999999967
40
0.124999999999996
40
0.124999999999996
40
0.132812499999995
40
0.132812499999995
40
0.140624999999995
40
0.140624999999995
40
0.156249999999995
40
0.156249999999995
40
0.187499999999995
40
0.187499999999995
40
0.218749999999995
40
0.218749999999995
40
0.249999999999995
40
0.249999999999995
40
0.281249999999994
40
0.281249999999994
40
0.312499999999994
40
0.312499999999994
40
0.343749999999994
40
0.343749999999994
40
0.374999999999994
40
0.374999999999994
40
0.406249999999994
40
0.406249999999994
40
0.421874999999994
40
0.421874999999994
40
0.437499999999994
40
0.437499999999994
40
0.468749999999994
40
0.468749999999994
40
0.499999999999994
40
0.499999999999994
40
0.531249999999993
40
0.531249999999993
40
0.562499999999993
40
0.562499999999993
40
0.593749999999993
40
0.593749999999993
40
0.624999999999993
40
0.624999999999993
40
0.656249999999993
40
0.656249999999993
40
0.687499999999993
40
0.687499999999993
40
0.703124999999993
40
0.703124999999993
40
0.710937499999993
40
0.710937499999993
40
0.718749999999993
40
0.718749999999993
40
0.749999999999993
40
0.749999999999993
40
0.781249999999994
40
0.781249999999994
40
0.812499999999995
40
0.812499999999995
40
0.843749999999996
40
0.843749999999996
40
0.874999999999997
40
0.874999999999997
40
0.906249999999998
40
0.906249999999998
40
0.937499999999998
40
0.937499999999998
40
0.968749999999999
40
0.968749999999999
40
1
40
1
40
1
40
1
41
1
10
130.1
20
7.45893427657134
30
0
41
1
10
130.198077423068
20
6.95162330407271
30
0
41
1
10
130.296154846137
20
6.40576503067763
30
0
41
1
10
130.492309692273
20
5.26540222183732
30
0
41
1
10
130.590387115342
20
4.67106136319782
30
0
41
1
10
130.786541961478
20
3.46449936806968
30
0
41
1
10
130.884619384546
20
2.85241299159745
30
0
41
1
10
131.080774230683
20
1.63849735873728
30
0
41
1
10
131.178851653751
20
1.03674372776243
30
0
41
1
10
131.301448432587
20
0.304876366179514
30
0
41
1
10
131.325967788354
20
0.159502439497146
30
0
41
1
10
131.375006499888
20
-0.128969312013993
30
0
41
1
10
131.399525855655
20
-0.274038730963071
30
0
41
1
10
131.473083922956
20
-0.712734172384785
30
0
41
1
10
131.52212263449
20
-1.00925068707389
30
0
41
1
10
131.669238769093
20
-1.9071555891737
30
0
41
1
10
131.767316192161
20
-2.51708056218587
30
0
41
1
10
131.963471038298
20
-3.73440418258659
30
0
41
1
10
132.061548461366
20
-4.34169674631949
30
0
41
1
10
132.257703307503
20
-5.52393164590157
30
0
41
1
10
132.355780730571
20
-6.09871981861826
30
0
41
1
10
132.551935576708
20
-7.18554575069049
30
0
41
1
10
132.650012999776
20
-7.69742357693397
30
0
41
1
10
132.846167845912
20
-8.63234905393415
30
0
41
1
10
132.944245268981
20
-9.05528346220271
30
0
41
1
10
133.140400115117
20
-9.79485957688524
30
0
41
1
10
133.238477538186
20
-10.1114699097171
30
0
41
1
10
133.434632384322
20
-10.6318287796906
30
0
41
1
10
133.53270980739
20
-10.8356278902157
30
0
41
1
10
133.728864653527
20
-11.1343659485754
30
0
41
1
10
133.826942076595
20
-11.2294071588036
30
0
41
1
10
133.974058211198
20
-11.299431192609
30
0
41
1
10
134.023096922732
20
-11.3107359253416
30
0
41
1
10
134.1211743458
20
-11.3112549183914
30
0
41
1
10
134.170213057334
20
-11.3004933492572
30
0
41
1
10
134.317329191937
20
-11.2321654478907
30
0
41
1
10
134.415406615005
20
-11.1383439746242
30
0
41
1
10
134.611561461142
20
-10.8421478593434
30
0
41
1
10
134.70963888421
20
-10.63967058855
30
0
41
1
10
134.905793730346
20
-10.1219457663878
30
0
41
1
10
135.003871153415
20
-9.80664681563474
30
0
41
1
10
135.200025999551
20
-9.06955303782499
30
0
41
1
10
135.29810342262
20
-8.64778854752103
30
0
41
1
10
135.494258268757
20
-7.71494215566287
30
0
41
1
10
135.592335691825
20
-7.20397267868918
30
0
41
1
10
135.788490537961
20
-6.11862238209085
30
0
41
1
10
135.88656796103
20
-5.54440124463866
30
0
41
1
10
136.082722807166
20
-4.36293620163696
30
0
41
1
10
136.180800230234
20
-3.75584681664086
30
0
41
1
10
136.376955076371
20
-2.53859757890632
30
0
41
1
10
136.475032499439
20
-1.92854452243392
30
0
41
1
10
136.622148634042
20
-1.03025132249653
30
0
41
1
10
136.671187345576
20
-0.733572903204248
30
0
41
1
10
136.744745412877
20
-0.294593662792664
30
0
41
1
10
136.769264768644
20
-0.1492702159087
30
0
41
1
10
136.818303480178
20
0.139094398952551
30
0
41
1
10
136.842822835945
20
0.284314447397549
30
0
41
1
10
136.965419614781
20
1.01571041662402
30
0
41
1
10
137.063497037849
20
1.61719681479877
30
0
41
1
10
137.259651883986
20
2.83087700128382
30
0
41
1
10
137.357729307054
20
3.44299592302514
30
0
41
1
10
137.553884153191
20
4.64997625344446
30
0
41
1
10
137.651961576259
20
5.24470347788599
30
0
41
1
10
137.848116422395
20
6.38619887181355
30
0
41
1
10
137.946193845464
20
6.93280343074852
30
0
41
1
10
138.1423486916
20
7.94922599459599
30
0
41
1
10
138.240426114669
20
8.41890157891532
30
0
41
1
10
138.436580960805
20
9.25930918429202
30
0
41
1
10
138.534658383874
20
9.62996701542221
30
0
41
1
10
138.73081323001
20
10.2602656705972
30
0
41
1
10
138.828890653079
20
10.5199188460311
30
0
41
1
10
139.025045499215
20
10.9271815335205
30
0
41
1
10
139.123122922283
20
11.0748727101871
30
0
41
1
10
139.31927776842
20
11.2667254910199
30
0
41
1
10
139.417355191488
20
11.311
30
0
41
1
10
139.515432614557
20
11.311
30
0
0
SPLINE
5
EB
100
AcDbEntity
8
1
62
256
6
ByLayer
370
13
48
1
60
0
100
AcDbSpline
70
4
71
3
72
22
73
18
40
0
40
0
40
0
40
0
40
0.125
40
0.125
40
0.25
40
0.25
40
0.375
40
0.375
40
0.5
40
0.5
40
0.625
40
0.625
40
0.75
40
0.75
40
0.875
40
0.875
40
1
40
1
40
1
40
1
41
1
10
138.906204203046
20
11.311
30
0
41
1
10
138.992742889595
20
11.311
30
0
41
1
10
139.079281576144
20
11.2765657323474
30
0
41
1
10
139.252358949241
20
11.1284942735975
30
0
41
1
10
139.33889763579
20
11.0147959391019
30
0
41
1
10
139.511975008887
20
10.701381872476
30
0
41
1
10
139.598513695436
20
10.501616306808
30
0
41
1
10
139.771591068533
20
10.0146155926001
30
0
41
1
10
139.858129755082
20
9.72735871382332
30
0
41
1
10
140.031207128179
20
9.07042263333253
30
0
41
1
10
140.117745814728
20
8.7007613220083
30
0
41
1
10
140.290823187825
20
7.89065625580977
30
0
41
1
10
140.377361874374
20
7.4502696826672
30
0
41
1
10
140.550439247471
20
6.51580560683848
30
0
41
1
10
140.63697793402
20
6.02181090855296
30
0
41
1
10
140.810055307117
20
5.00050954637558
30
0
41
1
10
140.896593993666
20
4.47328967542578
30
0
41
1
10
140.983132680215
20
3.93993143960378
30
0
0
SPLINE
5
EC
100
AcDbEntity
8
1
62
256
6
ByLayer
370
13
48
1
60
0
100
AcDbSpline
70
4
71
3
72
82
73
78
40
0
40
0
40
0
40
0
40
0.0312500000000005
40
0.0312500000000005
40
0.0625000000000009
40
0.0625000000000009
40
0.078125000000001
40
0.078125000000001
40
0.0859375000000012
40
0.0859375000000012
40
0.0937500000000013
40
0.0937500000000013
40
0.125000000000003
40
0.125000000000003
40
0.156250000000004
40
0.156250000000004
40
0.187500000000006
40
0.187500000000006
40
0.218750000000007
40
0.218750000000007
40
0.250000000000009
40
0.250000000000009
40
0.28125000000001
40
0.28125000000001
40
0.312500000000012
40
0.312500000000012
40
0.343750000000013
40
0.343750000000013
40
0.375000000000015
40
0.375000000000015
40
0.382812500000015
40
0.382812500000015
40
0.390625000000015
40
0.390625000000015
40
0.406250000000015
40
0.406250000000015
40
0.437500000000015
40
0.437500000000015
40
0.468750000000015
40
0.468750000000015
40
0.500000000000015
40
0.500000000000015
40
0.531250000000015
40
0.531250000000015
40
0.562500000000015
40
0.562500000000015
40
0.593750000000015
40
0.593750000000015
40
0.625000000000015
40
0.625000000000015
40
0.656250000000015
40
0.656250000000015
40
0.687500000000015
40
0.687500000000015
40
0.695312500000015
40
0.695312500000015
40
0.703125000000015
40
0.703125000000015
40
0.718750000000014
40
0.718750000000014
40
0.750000000000013
40
0.750000000000013
40
0.781250000000011
40
0.781250000000011
40
0.812500000000009
40
0.812500000000009
40
0.843750000000008
40
0.843750000000008
40
0.875000000000006
40
0.875000000000006
40
0.906250000000005
40
0.906250000000005
40
0.937500000000003
40
0.937500000000003
40
0.968750000000002
40
0.968750000000002
40
1
40
1
40
1
40
1
41
1
10
130.1
20
4.67451902072978
30
0
41
1
10
130.192981240395
20
4.10994455240382
30
0
41
1
10
130.285962480791
20
3.53282902138713
30
0
41
1
10
130.471924961581
20
2.37845718347285
30
0
41
1
10
130.564906201977
20
1.80127778934448
30
0
41
1
10
130.70437806257
20
0.951351391637928
30
0
41
1
10
130.750868682767
20
0.670645435621623
30
0
41
1
10
130.820604613064
20
0.255095266346274
30
0
41
1
10
130.843849923163
20
0.117671551227488
30
0
41
1
10
130.89034054336
20
-0.155849032881775
30
0
41
1
10
130.913585853459
20
-0.293631029442025
30
0
41
1
10
131.029812403953
20
-0.987060480027367
30
0
41
1
10
131.122793644349
20
-1.55648330893891
30
0
41
1
10
131.308756125139
20
-2.70605601584825
30
0
41
1
10
131.401737365535
20
-3.28615108021137
30
0
41
1
10
131.587699846325
20
-4.43355437109426
30
0
41
1
10
131.680681086721
20
-5.00076372653348
30
0
41
1
10
131.866643567511
20
-6.09634333642501
30
0
41
1
10
131.959624807907
20
-6.62458928984458
30
0
41
1
10
132.145587288697
20
-7.61709015198025
30
0
41
1
10
132.238568529093
20
-8.0812290595814
30
0
41
1
10
132.424531009883
20
-8.92500873189357
30
0
41
1
10
132.517512250279
20
-9.3045765790763
30
0
41
1
10
132.703474731069
20
-9.96631230639696
30
0
41
1
10
132.796455971465
20
-10.2484693158311
30
0
41
1
10
132.982418452255
20
-10.7113955025682
30
0
41
1
10
133.075399692651
20
-10.8922109979532
30
0
41
1
10
133.261362173441
20
-11.1568077667316
30
0
41
1
10
133.354343413836
20
-11.2406695684435
30
0
41
1
10
133.470569964331
20
-11.2915332533256
30
0
41
1
10
133.49381527443
20
-11.2990196420496
30
0
41
1
10
133.540305894627
20
-11.3088261974552
30
0
41
1
10
133.563551204726
20
-11.311146656262
30
0
41
1
10
133.633287135023
20
-11.3106852160152
30
0
41
1
10
133.67977775522
20
-11.3004485387615
30
0
41
1
10
133.819249615813
20
-11.2374097716655
30
0
41
1
10
133.912230856209
20
-11.1521124717037
30
0
41
1
10
134.098193336999
20
-10.8845217110795
30
0
41
1
10
134.191174577394
20
-10.7021480361531
30
0
41
1
10
134.377137058185
20
-10.2360984830912
30
0
41
1
10
134.470118298581
20
-9.95237702950433
30
0
41
1
10
134.656080779371
20
-9.28764342194827
30
0
41
1
10
134.749062019767
20
-8.90664312503094
30
0
41
1
10
134.935024500557
20
-8.06026272841376
30
0
41
1
10
135.028005740952
20
-7.59495641772679
30
0
41
1
10
135.213968221743
20
-6.60048389817555
30
0
41
1
10
135.306949462139
20
-6.07143410547221
30
0
41
1
10
135.492911942929
20
-4.97465426383715
30
0
41
1
10
135.585893183324
20
-4.40704835348171
30
0
41
1
10
135.771855664115
20
-3.25924503804649
30
0
41
1
10
135.86483690451
20
-2.67914591322816
30
0
41
1
10
136.050799385301
20
-1.52989723909744
30
0
41
1
10
136.143780625696
20
-0.960801775327553
30
0
41
1
10
136.260007176191
20
-0.267935031402459
30
0
41
1
10
136.283252486289
20
-0.130335404769312
30
0
41
1
10
136.329743106487
20
0.143058275451324
30
0
41
1
10
136.352988416586
20
0.280780292888693
30
0
41
1
10
136.422724346882
20
0.696669506948325
30
0
41
1
10
136.46921496708
20
0.977570988460627
30
0
41
1
10
136.608686827673
20
1.82797585051412
30
0
41
1
10
136.701668068069
20
2.40532922065873
30
0
41
1
10
136.887630548859
20
3.55968365865624
30
0
41
1
10
136.980611789254
20
4.13660711547098
30
0
41
1
10
137.166574270045
20
5.26496568741948
30
0
41
1
10
137.25955551044
20
5.81628592788914
30
0
41
1
10
137.445517991231
20
6.86735585711955
30
0
41
1
10
137.538499231626
20
7.36698062841657
30
0
41
1
10
137.724461712417
20
8.29134925833
30
0
41
1
10
137.817442952812
20
8.71599461721362
30
0
41
1
10
138.003405433603
20
9.47335949923746
30
0
41
1
10
138.096386673998
20
9.80603573561021
30
0
41
1
10
138.282349154789
20
10.3709052221572
30
0
41
1
10
138.375330395184
20
10.6031177602522
30
0
41
1
10
138.561292875975
20
10.9673553833228
30
0
41
1
10
138.65427411637
20
11.0994471204323
30
0
41
1
10
138.840236597161
20
11.2712259273879
30
0
41
1
10
138.933217837556
20
11.311
30
0
41
1
10
139.026199077952
20
11.311
30
0
0
SPLINE
5
ED
100
AcDbEntity
8
1
62
256
6
ByLayer
370
13
48
1
60
0
100
AcDbSpline
70
4
71
3
72
36
73
32
40
0
40
0
40
0
40
0
40
0.125000000000001
40
0.125000000000001
40
0.187500000000001
40
0.187500000000001
40
0.250000000000001
40
0.250000000000001
40
0.312500000000001
40
0.312500000000001
40
0.375000000000001
40
0.375000000000001
40
0.437500000000001
40
0.437500000000001
40
0.500000000000001
40
0.500000000000001
40
0.562500000000001
40
0.562500000000001
40
0.625
40
0.625
40
0.6875
40
0.6875
40
0.75
40
0.75
40
0.8125
40
0.8125
40
0.875
40
0.875
40
0.9375
40
0.9375
40
1
40
1
40
1
40
1
41
1
10
138.416970666441
20
11.311
30
0
41
1
10
138.523894083682
20
11.311
30
0
41
1
10
138.630817500922
20
11.2583308046396
30
0
41
1
10
138.791202626783
20
11.0862096124407
30
0
41
1
10
138.844664335404
20
11.0133657632293
30
0
41
1
10
138.951587752644
20
10.8352017232321
30
0
41
1
10
139.005049461264
20
10.729876755253
30
0
41
1
10
139.111972878505
20
10.4859530856422
30
0
41
1
10
139.165434587125
20
10.3473508728257
30
0
41
1
10
139.272358004366
20
10.0369515910907
30
0
41
1
10
139.325819712986
20
9.86515282385329
30
0
41
1
10
139.432743130227
20
9.48939575427335
30
0
41
1
10
139.486204838847
20
9.28543795287172
30
0
41
1
10
139.593128256088
20
8.84737384240029
30
0
41
1
10
139.646589964708
20
8.61327036788856
30
0
41
1
10
139.753513381948
20
8.11785185706498
30
0
41
1
10
139.806975090569
20
7.85654182089203
30
0
41
1
10
139.913898507809
20
7.31045457284259
30
0
41
1
10
139.96736021643
20
7.02568406565899
30
0
41
1
10
140.07428363367
20
6.43705006880475
30
0
41
1
10
140.12774534229
20
6.13319430570175
30
0
41
1
10
140.234668759531
20
5.51117449803209
30
0
41
1
10
140.288130468151
20
5.19301841441629
30
0
41
1
10
140.395053885392
20
4.54735474786486
30
0
41
1
10
140.448515594012
20
4.21985460046753
30
0
41
1
10
140.555439011253
20
3.56039784002561
30
0
41
1
10
140.608900719873
20
3.22844752045731
30
0
41
1
10
140.715824137113
20
2.56471553487626
30
0
41
1
10
140.769285845734
20
2.2329386205318
30
0
41
1
10
140.876209262974
20
1.57374163433326
30
0
41
1
10
140.929670971595
20
1.24632461172902
30
0
41
1
10
140.983132680215
20
0.922902928835128
30
0
0
SPLINE
5
EE
100
AcDbEntity
8
1
62
256
6
ByLayer
370
13
48
1
60
0
100
AcDbSpline
70
4
71
3
72
85
73
81
40
0
40
0
40
0
40
0
40
0.0312500000000007
40
0.0312500000000007
40
0.0351562500000008
40
0.0351562500000008
40
0.0390625000000009
40
0.0468750000000011
40
0.0468750000000011
40
0.0625000000000013
40
0.0625000000000013
40
0.0937500000000015
40
0.0937500000000015
40
0.125000000000002
40
0.125000000000002
40
0.156250000000002
40
0.156250000000002
40
0.187500000000002
40
0.187500000000002
40
0.218750000000002
40
0.218750000000002
40
0.250000000000002
40
0.250000000000002
40
0.281250000000003
40
0.281250000000003
40
0.312500000000003
40
0.312500000000003
40
0.343750000000003
40
0.343750000000003
40
0.351562500000003
40
0.351562500000003
40
0.359375000000003
40
0.359375000000003
40
0.375000000000004
40
0.375000000000004
40
0.406250000000004
40
0.406250000000004
40
0.437500000000005
40
0.437500000000005
40
0.468750000000006
40
0.468750000000006
40
0.500000000000006
40
0.500000000000006
40
0.531250000000007
40
0.531250000000007
40
0.562500000000008
40
0.562500000000008
40
0.593750000000008
40
0.593750000000008
40
0.625000000000009
40
0.625000000000009
40
0.65625000000001
40
0.65625000000001
40
0.67187500000001
40
0.67187500000001
40
0.67578125000001
40
0.67578125000001
40
0.67968750000001
40
0.67968750000001
40
0.68750000000001
40
0.68750000000001
40
0.718750000000009
40
0.718750000000009
40
0.750000000000008
40
0.750000000000008
40
0.781250000000007
40
0.781250000000007
40
0.812500000000006
40
0.812500000000006
40
0.843750000000005
40
0.843750000000005
40
0.875000000000004
40
0.875000000000004
40
0.906250000000003
40
0.906250000000003
40
0.937500000000002
40
0.937500000000002
40
0.968750000000001
40
0.968750000000001
40
1
40
1
40
1
40
1
41
1
10
130.1
20
1.65477029612438
30
0
41
1
10
130.187885057722
20
1.11493502202484
30
0
41
1
10
130.275770115445
20
0.582424509475658
30
0
41
1
10
130.374640805382
20
-0.0002211601503461
30
0
41
1
10
130.385626437598
20
-0.0647350704586813
30
0
41
1
10
130.407597702028
20
-0.194510804347061
30
0
41
1
10
130.440554598674
20
-0.389837738079819
30
0
41
1
10
130.47351149532
20
-0.587044671799475
30
0
41
1
10
130.539425288612
20
-0.983646368790403
30
0
41
1
10
130.583367817473
20
-1.2509732865681
30
0
41
1
10
130.715195404056
20
-2.0588594071547
30
0
41
1
10
130.803080461779
20
-2.60543764915934
30
0
41
1
10
130.978850577224
20
-3.69617656752325
30
0
41
1
10
131.066735634946
20
-4.24027539139612
30
0
41
1
10
131.242505750391
20
-5.30468812686956
30
0
41
1
10
131.330390808113
20
-5.82491444415268
30
0
41
1
10
131.506160923558
20
-6.81958001121794
30
0
41
1
10
131.59404598128
20
-7.29392480569365
30
0
41
1
10
131.769816096725
20
-8.17700416595952
30
0
41
1
10
131.857701154447
20
-8.58566214736709
30
0
41
1
10
132.033471269892
20
-9.32238613308942
30
0
41
1
10
132.121356327614
20
-9.65041368458961
30
0
41
1
10
132.297126443059
20
-10.2175309935854
30
0
41
1
10
132.385011500781
20
-10.4566274208738
30
0
41
1
10
132.560781616226
20
-10.8446614153986
30
0
41
1
10
132.648666673948
20
-10.9936427565897
30
0
41
1
10
132.824436789393
20
-11.2065501007916
30
0
41
1
10
132.912321847116
20
-11.2705396158075
30
0
41
1
10
133.022178169269
20
-11.3034586915106
30
0
41
1
10
133.044149433699
20
-11.307697653664
30
0
41
1
10
133.08809196256
20
-11.3116662726574
30
0
41
1
10
133.110063226991
20
-11.3114218364491
30
0
41
1
10
133.175977020283
20
-11.3039558330089
30
0
41
1
10
133.219919549144
20
-11.2899135034963
30
0
41
1
10
133.351747135727
20
-11.2185011903253
30
0
41
1
10
133.43963219345
20
-11.1317088042573
30
0
41
1
10
133.615402308894
20
-10.8712219976907
30
0
41
1
10
133.703287366617
20
-10.6974676106815
30
0
41
1
10
133.879057482062
20
-10.259519728846
30
0
41
1
10
133.966942539784
20
-9.99529127324303
30
0
41
1
10
134.142712655229
20
-9.37948495238592
30
0
41
1
10
134.230597712951
20
-9.02791274042141
30
0
41
1
10
134.406367828396
20
-8.24762787965693
30
0
41
1
10
134.494252886118
20
-7.81896565308253
30
0
41
1
10
134.670023001563
20
-6.90098945101659
30
0
41
1
10
134.757908059285
20
-6.41175945206507
30
0
41
1
10
134.93367817473
20
-5.39334222593928
30
0
41
1
10
135.021563232452
20
-4.86424994886139
30
0
41
1
10
135.197333347897
20
-3.78823048091246
30
0
41
1
10
135.285218405619
20
-3.24138517788788
30
0
41
1
10
135.460988521064
20
-2.15066791126034
30
0
41
1
10
135.548873578786
20
-1.60684882924389
30
0
41
1
10
135.68070116537
20
-0.806416297059315
30
0
41
1
10
135.724643694231
20
-0.542123517638288
30
0
41
1
10
135.779571855308
20
-0.216003405835551
30
0
41
1
10
135.790557487523
20
-0.15099097356287
30
0
41
1
10
135.812528751954
20
-0.0214139181452708
30
0
41
1
10
135.823514384169
20
0.0430660280258337
30
0
41
1
10
135.856471280815
20
0.237581071946323
30
0
41
1
10
135.878442545245
20
0.368148570166085
30
0
41
1
10
135.988298867398
20
1.024933572235
30
0
41
1
10
136.076183925121
20
1.56316639324399
30
0
41
1
10
136.251954040565
20
2.64944696304261
30
0
41
1
10
136.339839098288
20
3.19745387605542
30
0
41
1
10
136.515609213732
20
4.2835700434901
30
0
41
1
10
136.603494271455
20
4.82160665934509
30
0
41
1
10
136.7792643869
20
5.86588248043472
30
0
41
1
10
136.867149444622
20
6.37202894015294
30
0
41
1
10
137.042919560067
20
7.33097594985767
30
0
41
1
10
137.130804617789
20
7.7836856402684
30
0
41
1
10
137.306574733234
20
8.61740843076279
30
0
41
1
10
137.394459790956
20
8.99835693766676
30
0
41
1
10
137.570229906401
20
9.67582776789078
30
0
41
1
10
137.658114964123
20
9.9723279586506
30
0
41
1
10
137.833885079568
20
10.4751448968966
30
0
41
1
10
137.92177013729
20
10.6814833012324
30
0
41
1
10
138.097540252735
20
11.0051890521473
30
0
41
1
10
138.185425310457
20
11.1226095240378
30
0
41
1
10
138.361195425902
20
11.2754820119485
30
0
41
1
10
138.449080483624
20
11.311
30
0
41
1
10
138.536965541347
20
11.311
30
0
0
SPLINE
5
EF
100
AcDbEntity
8
1
62
256
6
ByLayer
370
13
48
1
60
0
100
AcDbSpline
70
4
71
3
72
41
73
37
40
0
40
0
40
0
40
0
40
0.0625
40
0.0625
40
0.125
40
0.125
40
0.1875
40
0.1875
40
0.25
40
0.25
40
0.3125
40
0.3125
40
0.375
40
0.375
40
0.4375
40
0.4375
40
0.5
40
0.5
40
0.5625
40
0.5625
40
0.625
40
0.625
40
0.6875
40
0.6875
40
0.75
40
0.75
40
0.812500000000001
40
0.812500000000001
40
0.875000000000001
40
0.875000000000001
40
0.890625000000001
40
0.890625000000001
40
0.906250000000001
40
0.937500000000001
40
0.937500000000001
40
1
40
1
40
1
40
1
41
1
10
137.927737129836
20
11.311
30
0
41
1
10
137.991391203802
20
11.311
30
0
41
1
10
138.055045277769
20
11.2923981998073
30
0
41
1
10
138.182353425701
20
11.2137330814157
30
0
41
1
10
138.246007499667
20
11.1536564710697
30
0
41
1
10
138.3733156476
20
10.9886812971894
30
0
41
1
10
138.436969721566
20
10.8837701788273
30
0
41
1
10
138.564277869499
20
10.6270823632958
30
0
41
1
10
138.627931943465
20
10.4752958222226
30
0
41
1
10
138.755240091397
20
10.124474228651
30
0
41
1
10
138.818894165363
20
9.92543400136952
30
0
41
1
10
138.946202313296
20
9.48161546555991
30
0
41
1
10
139.009856387262
20
9.23683810436611
30
0
41
1
10
139.137164535195
20
8.7050174250179
30
0
41
1
10
139.200818609161
20
8.41798166720056
30
0
41
1
10
139.328126757093
20
7.80695119529707
30
0
41
1
10
139.391780831059
20
7.4829699378665
30
0
41
1
10
139.519088978992
20
6.80487109759579
30
0
41
1
10
139.582743052958
20
6.45077103285752
30
0
41
1
10
139.71005120089
20
5.72030013589963
30
0
41
1
10
139.773705274857
20
5.34394834967497
30
0
41
1
10
139.901013422789
20
4.57732376158992
30
0
41
1
10
139.964667496755
20
4.18706890852226
30
0
41
1
10
140.091975644688
20
3.40090718790893
30
0
41
1
10
140.155629718654
20
3.0050150362085
30
0
41
1
10
140.282937866587
20
2.215269355857
30
0
41
1
10
140.346591940553
20
1.82142603547118
30
0
41
1
10
140.473900088485
20
1.0425123557925
30
0
41
1
10
140.537554162451
20
0.657447369802384
30
0
41
1
10
140.617121754909
20
0.18506416283887
30
0
41
1
10
140.633035273401
20
0.0910488835465344
30
0
41
1
10
140.664862310384
20
-0.0960875407353114
30
0
41
1
10
140.712602865859
20
-0.378233088982
30
0
41
1
10
140.760343421333
20
-0.664376397259332
30
0
41
1
10
140.855824532283
20
-1.24101450441199
30
0
41
1
10
140.919478606249
20
-1.63127877788375
30
0
41
1
10
140.983132680215
20
-2.02430742113779
30
0
0
SPLINE
5
F0
100
AcDbEntity
8
1
62
256
6
ByLayer
370
13
48
1
60
0
100
AcDbSpline
70
4
71
3
72
80
73
76
40
0
40
0
40
0
40
0
40
0.0312499999999996
40
0.0312499999999996
40
0.0624999999999991
40
0.0624999999999991
40
0.0937499999999987
40
0.0937499999999987
40
0.124999999999998
40
0.124999999999998
40
0.156249999999998
40
0.156249999999998
40
0.187499999999997
40
0.187499999999997
40
0.218749999999997
40
0.218749999999997
40
0.249999999999997
40
0.249999999999997
40
0.281249999999996
40
0.281249999999996
40
0.312499999999996
40
0.312499999999996
40
0.316406249999996
40
0.316406249999996
40
0.320312499999996
40
0.328124999999996
40
0.328124999999996
40
0.343749999999996
40
0.343749999999996
40
0.374999999999995
40
0.374999999999995
40
0.406249999999995
40
0.406249999999995
40
0.437499999999994
40
0.437499999999994
40
0.468749999999994
40
0.468749999999994
40
0.499999999999994
40
0.499999999999994
40
0.531249999999993
40
0.531249999999993
40
0.562499999999993
40
0.562499999999993
40
0.593749999999993
40
0.593749999999993
40
0.624999999999992
40
0.624999999999992
40
0.656249999999992
40
0.656249999999992
40
0.660156249999992
40
0.660156249999992
40
0.664062499999992
40
0.671874999999992
40
0.671874999999992
40
0.687499999999992
40
0.687499999999992
40
0.718749999999993
40
0.718749999999993
40
0.749999999999994
40
0.749999999999994
40
0.781249999999995
40
0.781249999999995
40
0.812499999999995
40
0.812499999999995
40
0.843749999999996
40
0.843749999999996
40
0.874999999999997
40
0.874999999999997
40
0.906249999999998
40
0.906249999999998
40
0.937499999999999
40
0.937499999999999
40
0.968749999999999
40
0.968749999999999
40
1
40
1
40
1
40
1
41
1
10
130.1
20
-1.28743476231554
30
0
41
1
10
130.182788875049
20
-1.79250524193202
30
0
41
1
10
130.265577750099
20
-2.30568619934371
30
0
41
1
10
130.431155500198
20
-3.3334438832606
30
0
41
1
10
130.513944375247
20
-3.8479795270469
30
0
41
1
10
130.679522125346
20
-4.86100855020686
30
0
41
1
10
130.762311000395
20
-5.35944082362116
30
0
41
1
10
130.927888750494
20
-6.32180064419398
30
0
41
1
10
131.010677625543
20
-6.78565772594007
30
0
41
1
10
131.176255375642
20
-7.66140224763342
30
0
41
1
10
131.259044250691
20
-8.07322567098217
30
0
41
1
10
131.42462200079
20
-8.8305167971026
30
0
41
1
10
131.50741087584
20
-9.17594231814527
30
0
41
1
10
131.672988625938
20
-9.79077944703545
30
0
41
1
10
131.755777500988
20
-10.0601796235019
30
0
41
1
10
131.921355251087
20
-10.5188660606885
30
0
41
1
10
132.004144126136
20
-10.7081709945182
30
0
41
1
10
132.169721876235
20
-11.008004846306
30
0
41
1
10
132.252510751284
20
-11.1185737536331
30
0
41
1
10
132.418088501383
20
-11.2667915288256
30
0
41
1
10
132.500877376432
20
-11.3044893255567
30
0
41
1
10
132.594014860863
20
-11.3109394558375
30
0
41
1
10
132.604363470244
20
-11.3111592122586
30
0
41
1
10
132.625060689006
20
-11.3106171688801
30
0
41
1
10
132.65610651715
20
-11.3083233471804
30
0
41
1
10
132.687152345294
20
-11.3014991822107
30
0
41
1
10
132.749244001581
20
-11.2815856140889
30
0
41
1
10
132.790638439105
20
-11.2599512646052
30
0
41
1
10
132.914821751679
20
-11.1683309191985
30
0
41
1
10
132.997610626729
20
-11.0715108235527
30
0
41
1
10
133.163188376827
20
-10.7999420347418
30
0
41
1
10
133.245977251877
20
-10.6251507934112
30
0
41
1
10
133.411555001976
20
-10.195358025853
30
0
41
1
10
133.494343877025
20
-9.94033313771942
30
0
41
1
10
133.659921627124
20
-9.35309408463178
30
0
41
1
10
133.742710502173
20
-9.0208855670368
30
0
41
1
10
133.908288252272
20
-8.28790153544949
30
0
41
1
10
133.991077127321
20
-7.8871630293433
30
0
41
1
10
134.15665487742
20
-7.03070270911854
30
0
41
1
10
134.23944375247
20
-6.57504197952687
30
0
41
1
10
134.405021502569
20
-5.62577359560194
30
0
41
1
10
134.487810377618
20
-5.13223648513809
30
0
41
1
10
134.653388127717
20
-4.12566865533893
30
0
41
1
10
134.736177002766
20
-3.61270173303655
30
0
41
1
10
134.901754752865
20
-2.5850681445595
30
0
41
1
10
134.984543627914
20
-2.07044664432615
30
0
41
1
10
135.150121378013
20
-1.05496388723978
30
0
41
1
10
135.232910253062
20
-0.554124649032389
30
0
41
1
10
135.326047737493
20
-0.0052313406790461
30
0
41
1
10
135.336396346874
20
0.0555344845962225
30
0
41
1
10
135.357093565636
20
0.177729196998911
30
0
41
1
10
135.38813939378
20
0.361612070297809
30
0
41
1
10
135.419185221924
20
0.547175722946207
30
0
41
1
10
135.481276878211
20
0.920279603943982
30
0
41
1
10
135.522671315735
20
1.17165783877641
30
0
41
1
10
135.646854628309
20
1.93134987876027
30
0
41
1
10
135.729643503359
20
2.44531365176249
30
0
41
1
10
135.895221253457
20
3.47314471820511
30
0
41
1
10
135.978010128507
20
3.986968871979
30
0
41
1
10
136.143587878606
20
4.99691670992988
30
0
41
1
10
136.226376753655
20
5.4929778953653
30
0
41
1
10
136.391954503754
20
6.44894010662711
30
0
41
1
10
136.474743378803
20
6.90877055993377
30
0
41
1
10
136.640321128902
20
7.77500256103519
30
0
41
1
10
136.723110003951
20
8.18134149442758
30
0
41
1
10
136.88868775405
20
8.92657484855349
30
0
41
1
10
136.9714766291
20
9.26542964021567
30
0
41
1
10
137.137054379198
20
9.86652001993946
30
0
41
1
10
137.219843254248
20
10.1287470755093
30
0
41
1
10
137.385421004347
20
10.5729933644563
30
0
41
1
10
137.468209879396
20
10.7550336553519
30
0
41
1
10
137.633787629495
20
11.0407011570293
30
0
41
1
10
137.716576504544
20
11.1443696893365
30
0
41
1
10
137.882154254643
20
11.279494541378
30
0
41
1
10
137.964943129692
20
11.311
30
0
41
1
10
138.047732004742
20
11.311
30
0
0
SPLINE
5
F1
100
AcDbEntity
8
1
62
256
6
ByLayer
370
13
48
1
60
0
100
AcDbSpline
70
4
71
3
72
42
73
38
40
0
40
0
40
0
40
0
40
0.0624999999999995
40
0.0624999999999995
40
0.124999999999999
40
0.124999999999999
40
0.187499999999998
40
0.187499999999998
40
0.249999999999998
40
0.249999999999998
40
0.312499999999997
40
0.312499999999997
40
0.374999999999997
40
0.374999999999997
40
0.437499999999996
40
0.437499999999996
40
0.499999999999996
40
0.499999999999996
40
0.562499999999995
40
0.562499999999995
40
0.624999999999995
40
0.624999999999995
40
0.687499999999994
40
0.687499999999994
40
0.749999999999994
40
0.749999999999994
40
0.765624999999993
40
0.765624999999993
40
0.781249999999993
40
0.781249999999993
40
0.812499999999994
40
0.812499999999994
40
0.874999999999996
40
0.874999999999996
40
0.937499999999998
40
0.937499999999998
40
1
40
1
40
1
40
1
41
1
10
137.438503593231
20
11.311
30
0
41
1
10
137.512350032544
20
11.311
30
0
41
1
10
137.586196471856
20
11.2859489762533
30
0
41
1
10
137.73388935048
20
11.1791946073103
30
0
41
1
10
137.807735789792
20
11.0974633820307
30
0
41
1
10
137.955428668416
20
10.8725316998615
30
0
41
1
10
138.029275107729
20
10.7293062862666
30
0
41
1
10
138.176967986353
20
10.3791673233259
30
0
41
1
10
138.250814425665
20
10.1722373906043
30
0
41
1
10
138.398507304289
20
9.69571079898157
30
0
41
1
10
138.472353743602
20
9.42611129570196
30
0
41
1
10
138.620046622226
20
8.8288134024223
30
0
41
1
10
138.693893061538
20
8.50112814979173
30
0
41
1
10
138.841585940162
20
7.79562483957838
30
0
41
1
10
138.915432379475
20
7.41783456972527
30
0
41
1
10
139.063125258099
20
6.62286256732816
30
0
41
1
10
139.136971697411
20
6.20571824415137
30
0
41
1
10
139.284664576035
20
5.34455416346302
30
0
41
1
10
139.358511015347
20
4.9005742255614
30
0
41
1
10
139.506203893972
20
3.9988421113556
30
0
41
1
10
139.580050333284
20
3.5411250516313
30
0
41
1
10
139.727743211908
20
2.62445852690959
30
0
41
1
10
139.80158965122
20
2.1655344584301
30
0
41
1
10
139.949282529845
20
1.2575057981546
30
0
41
1
10
140.023128969157
20
0.808414899212778
30
0
41
1
10
140.115437018297
20
0.258796419657216
30
0
41
1
10
140.133898628125
20
0.149454484465139
30
0
41
1
10
140.170821847781
20
-0.0679484000170305
30
0
41
1
10
140.189283457609
20
-0.176717596170562
30
0
41
1
10
140.244668287094
20
-0.50560480129036
30
0
41
1
10
140.28159150675
20
-0.727254930670824
30
0
41
1
10
140.392361165718
20
-1.39783623438163
30
0
41
1
10
140.46620760503
20
-1.85246339325789
30
0
41
1
10
140.613900483654
20
-2.76696930295111
30
0
41
1
10
140.687746922966
20
-3.2268291929062
30
0
41
1
10
140.835439801591
20
-4.14002643457954
30
0
41
1
10
140.909286240903
20
-4.59333370813945
30
0
41
1
10
140.983132680215
20
-5.03692913406877
30
0
0
SPLINE
5
F2
100
AcDbEntity
8
1
62
256
6
ByLayer
370
13
48
1
60
0
100
AcDbSpline
70
4
71
3
72
79
73
75
40
0
40
0
40
0
40
0
40
0.0312499999999989
40
0.0312499999999989
40
0.0624999999999978
40
0.0624999999999978
40
0.0937499999999968
40
0.0937499999999968
40
0.124999999999996
40
0.124999999999996
40
0.156249999999995
40
0.156249999999995
40
0.187499999999994
40
0.187499999999994
40
0.218749999999993
40
0.218749999999993
40
0.249999999999992
40
0.249999999999992
40
0.265624999999991
40
0.265624999999991
40
0.273437499999991
40
0.273437499999991
40
0.281249999999991
40
0.281249999999991
40
0.312499999999991
40
0.312499999999991
40
0.343749999999991
40
0.343749999999991
40
0.374999999999991
40
0.374999999999991
40
0.406249999999991
40
0.406249999999991
40
0.437499999999991
40
0.437499999999991
40
0.468749999999991
40
0.468749999999991
40
0.499999999999991
40
0.499999999999991
40
0.531249999999991
40
0.531249999999991
40
0.562499999999992
40
0.562499999999992
40
0.593749999999992
40
0.593749999999992
40
0.624999999999992
40
0.624999999999992
40
0.632812499999992
40
0.632812499999992
40
0.636718749999992
40
0.636718749999992
40
0.640624999999992
40
0.656249999999992
40
0.656249999999992
40
0.687499999999993
40
0.687499999999993
40
0.718749999999994
40
0.718749999999994
40
0.749999999999994
40
0.749999999999994
40
0.781249999999995
40
0.781249999999995
40
0.812499999999996
40
0.812499999999996
40
0.843749999999997
40
0.843749999999997
40
0.874999999999997
40
0.874999999999997
40
0.906249999999998
40
0.906249999999998
40
0.937499999999999
40
0.937499999999999
40
0.968749999999999
40
0.968749999999999
40
1
40
1
40
1
40
1
41
1
10
130.1
20
-4.3085878017032
30
0
41
1
10
130.177692692376
20
-4.78437398295142
30
0
41
1
10
130.255385384753
20
-5.25328563331101
30
0
41
1
10
130.410770769506
20
-6.16220200538561
30
0
41
1
10
130.488463461882
20
-6.6021555507462
30
0
41
1
10
130.643848846635
20
-7.43853353161472
30
0
41
1
10
130.721541539011
20
-7.83490979510881
30
0
41
1
10
130.876926923764
20
-8.57166616044955
30
0
41
1
10
130.954619616141
20
-8.91201133602573
30
0
41
1
10
131.110005000893
20
-9.52767827269162
30
0
41
1
10
131.18769769327
20
-9.80298526105619
30
0
41
1
10
131.343083078023
20
-10.283756009975
30
0
41
1
10
131.420775770399
20
-10.4892264593011
30
0
41
1
10
131.576161155152
20
-10.8298323778193
30
0
41
1
10
131.653853847528
20
-10.9649918250378
30
0
41
1
10
131.809239232281
20
-11.168331443533
30
0
41
1
10
131.886931924658
20
-11.2365454120871
30
0
41
1
10
132.003470963222
20
-11.2933612496896
30
0
41
1
10
132.042317309411
20
-11.3047353624379
30
0
41
1
10
132.100586828693
20
-11.311177585313
30
0
41
1
10
132.120010001787
20
-11.3115678896246
30
0
41
1
10
132.158856347975
20
-11.3088774334775
30
0
41
1
10
132.178279521069
20
-11.3057777064663
30
0
41
1
10
132.27539538654
20
-11.2811924280369
30
0
41
1
10
132.353088078916
20
-11.2323685374844
30
0
41
1
10
132.508473463669
20
-11.0694819153423
30
0
41
1
10
132.586166156046
20
-10.9553840044271
30
0
41
1
10
132.741551540798
20
-10.6575651812875
30
0
41
1
10
132.819244233175
20
-10.4738164086438
30
0
41
1
10
132.974629617928
20
-10.0359013851702
30
0
41
1
10
133.052322310304
20
-9.78172248685391
30
0
41
1
10
133.207707695057
20
-9.20637980247983
30
0
41
1
10
133.285400387433
20
-8.88522406221864
30
0
41
1
10
133.440785772186
20
-8.18367382058923
30
0
41
1
10
133.518478464563
20
-7.80330855991738
30
0
41
1
10
133.673863849315
20
-6.9948358636255
30
0
41
1
10
133.751556541692
20
-6.5667735345645
30
0
41
1
10
133.906941926445
20
-5.67701251980785
30
0
41
1
10
133.984634618821
20
-5.21536523574673
30
0
41
1
10
134.140020003574
20
-4.27366191903133
30
0
41
1
10
134.21771269595
20
-3.79365311651176
30
0
41
1
10
134.373098080703
20
-2.83005694213705
30
0
41
1
10
134.45079077308
20
-2.34650466462901
30
0
41
1
10
134.606176157833
20
-1.38899206200671
30
0
41
1
10
134.683868850209
20
-0.915051125362709
30
0
41
1
10
134.78098471568
20
-0.335297486493317
30
0
41
1
10
134.800407888774
20
-0.219973710951081
30
0
41
1
10
134.829542648415
20
-0.0480328450976231
30
0
41
1
10
134.839254234962
20
0.0089903536880058
30
0
41
1
10
134.858677408056
20
0.123458246405136
30
0
41
1
10
134.907235340791
20
0.410505945028774
30
0
41
1
10
134.955793273526
20
0.70175132978099
30
0
41
1
10
135.072332312091
20
1.40701313345443
30
0
41
1
10
135.150025004468
20
1.88563096653439
30
0
41
1
10
135.30541038922
20
2.84819407065155
30
0
41
1
10
135.383103081597
20
3.33211439632265
30
0
41
1
10
135.53848846635
20
4.2914488959774
30
0
41
1
10
135.616181158726
20
4.7668231258173
30
0
41
1
10
135.771566543479
20
5.69395610409296
30
0
41
1
10
135.849259235855
20
6.14566508847113
30
0
41
1
10
136.004644620608
20
7.01045287751009
30
0
41
1
10
136.082337312985
20
7.42348124326995
30
0
41
1
10
136.237722697738
20
8.19752929635192
30
0
41
1
10
136.315415390114
20
8.55850844795407
30
0
41
1
10
136.470800774867
20
9.21812117784319
30
0
41
1
10
136.548493467243
20
9.51673254404733
30
0
41
1
10
136.703878851996
20
10.0452845604023
30
0
41
1
10
136.781571544372
20
10.2752246861297
30
0
41
1
10
136.936956929125
20
10.6644693039322
30
0
41
1
10
137.014649621502
20
10.8237925215157
30
0
41
1
10
137.170035006255
20
11.0739110660756
30
0
41
1
10
137.247727698631
20
11.1647377168535
30
0
41
1
10
137.403113083384
20
11.2832642454805
30
0
41
1
10
137.48080577576
20
11.311
30
0
41
1
10
137.558498468137
20
11.311
30
0
0
SPLINE
5
F3
100
AcDbEntity
8
1
62
256
6
ByLayer
370
13
48
1
60
0
100
AcDbSpline
70
4
71
3
72
44
73
40
40
0
40
0
40
0
40
0
40
0.0624999999999999
40
0.0624999999999999
40
0.125
40
0.125
40
0.1875
40
0.1875
40
0.25
40
0.25
40
0.3125
40
0.3125
40
0.375
40
0.375
40
0.4375
40
0.4375
40
0.5
40
0.5
40
0.5625
40
0.5625
40
0.625
40
0.625
40
0.65625
40
0.65625
40
0.671875
40
0.671875
40
0.6796875
40
0.6796875
40
0.6875
40
0.6875
40
0.75
40
0.75
40
0.8125
40
0.8125
40
0.875
40
0.875
40
0.9375
40
0.9375
40
1
40
1
40
1
40
1
41
1
10
136.949270056626
20
11.311
30
0
41
1
10
137.033308861284
20
11.311
30
0
41
1
10
137.117347665943
20
11.278532898854
30
0
41
1
10
137.285425275259
20
11.139161864976
30
0
41
1
10
137.369464079917
20
11.032205018474
30
0
41
1
10
137.537541689233
20
10.7374386019948
30
0
41
1
10
137.621580493891
20
10.5495849816196
30
0
41
1
10
137.789658103207
20
10.0913004880665
30
0
41
1
10
137.873696907865
20
9.82084820832102
30
0
41
1
10
138.041774517182
20
9.20136779052976
30
0
41
1
10
138.12581332184
20
8.85235093226598
30
0
41
1
10
138.293890931156
20
8.08565284269389
30
0
41
1
10
138.377929735814
20
7.66801660765287
30
0
41
1
10
138.54600734513
20
6.77905056106164
30
0
41
1
10
138.630046149788
20
6.30778972181952
30
0
41
1
10
138.798123759104
20
5.3298475993096
30
0
41
1
10
138.882162563763
20
4.82324220512558
30
0
41
1
10
139.050240173079
20
3.79394339544459
30
0
41
1
10
139.134278977737
20
3.27131530154807
30
0
41
1
10
139.302356587053
20
2.22817989524424
30
0
41
1
10
139.386395391711
20
1.70771573888888
30
0
41
1
10
139.512453598698
20
0.940175467845194
30
0
41
1
10
139.554473001027
20
0.686495639549264
30
0
41
1
10
139.617502104521
20
0.310411510520851
30
0
41
1
10
139.638511805685
20
0.185787544358703
30
0
41
1
10
139.670026357432
20
8.88995270714E-05
30
0
41
1
10
139.680531208014
20
-0.0616038836770372
30
0
41
1
10
139.701540909179
20
-0.185674008195662
30
0
41
1
10
139.712045759761
20
-0.247911675092894
30
0
41
1
10
139.806589415001
20
-0.809776447507858
30
0
41
1
10
139.89062821966
20
-1.32163877362473
30
0
41
1
10
140.058705828976
20
-2.3569548064994
30
0
41
1
10
140.142744633634
20
-2.88038025949228
30
0
41
1
10
140.31082224295
20
-3.92213434240918
30
0
41
1
10
140.394861047608
20
-4.44040971349324
30
0
41
1
10
140.562938656925
20
-5.4529834594359
30
0
41
1
10
140.646977461583
20
-5.94721025673218
30
0
41
1
10
140.815055070899
20
-6.89252196580148
30
0
41
1
10
140.899093875557
20
-7.34353159888494
30
0
41
1
10
140.983132680215
20
-7.7643784935444
30
0
0
SPLINE
5
F4
100
AcDbEntity
8
1
62
256
6
ByLayer
370
13
48
1
60
0
100
AcDbSpline
70
4
71
3
72
76
73
72
40
0
40
0
40
0
40
0
40
0.0312500000000005
40
0.0312500000000005
40
0.0625000000000011
40
0.0625000000000011
40
0.0937500000000016
40
0.0937500000000016
40
0.125000000000002
40
0.125000000000002
40
0.156250000000003
40
0.156250000000003
40
0.187500000000003
40
0.187500000000003
40
0.218750000000004
40
0.218750000000004
40
0.226562500000004
40
0.226562500000004
40
0.234375000000004
40
0.234375000000004
40
0.250000000000003
40
0.250000000000003
40
0.281250000000003
40
0.281250000000003
40
0.312500000000002
40
0.312500000000002
40
0.343750000000002
40
0.343750000000002
40
0.375000000000002
40
0.375000000000002
40
0.406250000000001
40
0.406250000000001
40
0.437500000000001
40
0.437500000000001
40
0.46875
40
0.46875
40
0.5
40
0.5
40
0.531249999999999
40
0.531249999999999
40
0.562499999999999
40
0.562499999999999
40
0.593749999999998
40
0.593749999999998
40
0.609374999999998
40
0.609374999999998
40
0.624999999999998
40
0.624999999999998
40
0.656249999999998
40
0.656249999999998
40
0.687499999999998
40
0.687499999999998
40
0.718749999999999
40
0.718749999999999
40
0.749999999999999
40
0.749999999999999
40
0.781249999999999
40
0.781249999999999
40
0.812499999999999
40
0.812499999999999
40
0.843749999999999
40
0.843749999999999
40
0.875
40
0.875
40
0.90625
40
0.90625
40
0.9375
40
0.9375
40
0.96875
40
0.96875
40
1
40
1
40
1
40
1
41
1
10
130.1
20
-7.14391617010628
30
0
41
1
10
130.172596509704
20
-7.53059705797972
30
0
41
1
10
130.245193019407
20
-7.8976566120532
30
0
41
1
10
130.390386038814
20
-8.58259334803117
30
0
41
1
10
130.462982548517
20
-8.90044604085668
30
0
41
1
10
130.608175567924
20
-9.47961223030916
30
0
41
1
10
130.680772077628
20
-9.74091469802627
30
0
41
1
10
130.825965097035
20
-10.2028203573202
30
0
41
1
10
130.898561606738
20
-10.4034269121411
30
0
41
1
10
131.043754626145
20
-10.7430926699463
30
0
41
1
10
131.116351135848
20
-10.8821672996374
30
0
41
1
10
131.261544155255
20
-11.1009395326547
30
0
41
1
10
131.334140664959
20
-11.1806601608019
30
0
41
1
10
131.479333684366
20
-11.2853176980884
30
0
41
1
10
131.551930194069
20
-11.3102802141256
30
0
41
1
10
131.642675831198
20
-11.3111607175402
30
0
41
1
10
131.660824958624
20
-11.3098291658746
30
0
41
1
10
131.697123213476
20
-11.3040482799899
30
0
41
1
10
131.715272340902
20
-11.2995985821733
30
0
41
1
10
131.769719723179
20
-11.2814211841221
30
0
41
1
10
131.806017978031
20
-11.2628622661705
30
0
41
1
10
131.914912742586
20
-11.1867520210401
30
0
41
1
10
131.98750925229
20
-11.1087013326786
30
0
41
1
10
132.132702271697
20
-10.8933722183322
30
0
41
1
10
132.2052987814
20
-10.7560706225493
30
0
41
1
10
132.350491800807
20
-10.4199743535166
30
0
41
1
10
132.423088310511
20
-10.2211639625713
30
0
41
1
10
132.568281329918
20
-9.76278041107645
30
0
41
1
10
132.640877839621
20
-9.50320348910506
30
0
41
1
10
132.786070859028
20
-8.92732124412316
30
0
41
1
10
132.858667368731
20
-8.61102652683539
30
0
41
1
10
133.003860388138
20
-7.92895105592248
30
0
41
1
10
133.076456897842
20
-7.56319444483603
30
0
41
1
10
133.221649917249
20
-6.79211766033663
30
0
41
1
10
133.294246426952
20
-6.38683103099299
30
0
41
1
10
133.439439446359
20
-5.54841258046261
30
0
41
1
10
133.512035956062
20
-5.11531744280802
30
0
41
1
10
133.657228975469
20
-4.23371729457705
30
0
41
1
10
133.729825485173
20
-3.78524564415753
30
0
41
1
10
133.87501850458
20
-2.88496970503303
30
0
41
1
10
133.947615014283
20
-2.43319059872934
30
0
41
1
10
134.09280803369
20
-1.53712402456688
30
0
41
1
10
134.165404543394
20
-1.09285129583162
30
0
41
1
10
134.274299307949
20
-0.438785604889745
30
0
41
1
10
134.3105975628
20
-0.222805115903071
30
0
41
1
10
134.383194072504
20
0.204153608267205
30
0
41
1
10
134.419492327356
20
0.419858181900054
30
0
41
1
10
134.528387091911
20
1.07356683002351
30
0
41
1
10
134.600983601614
20
1.51765906097825
30
0
41
1
10
134.746176621021
20
2.41350932015149
30
0
41
1
10
134.818773130725
20
2.8652527647514
30
0
41
1
10
134.963966150132
20
3.7656255821679
30
0
41
1
10
135.036562659835
20
4.21422991511361
30
0
41
1
10
135.181755679242
20
5.09627617231118
30
0
41
1
10
135.254352188945
20
5.52968482628597
30
0
41
1
10
135.399545208352
20
6.36890897516051
30
0
41
1
10
135.472141718056
20
6.77468779055005
30
0
41
1
10
135.617334737463
20
7.54690939112939
30
0
41
1
10
135.689931247166
20
7.91331853861897
30
0
41
1
10
135.835124266573
20
8.5968264864398
30
0
41
1
10
135.907720776277
20
8.91390097050808
30
0
41
1
10
136.052913795683
20
9.4914264022612
30
0
41
1
10
136.125510305387
20
9.75186653253692
30
0
41
1
10
136.270703324794
20
10.2120116539924
30
0
41
1
10
136.343299834497
20
10.4117202077673
30
0
41
1
10
136.488492853904
20
10.7496010608807
30
0
41
1
10
136.561089363607
20
10.887788932911
30
0
41
1
10
136.706282383014
20
11.1048388679639
30
0
41
1
10
136.778878892718
20
11.18372402884
30
0
41
1
10
136.924071912125
20
11.2867917897643
30
0
41
1
10
136.996668421828
20
11.311
30
0
41
1
10
137.069264931532
20
11.311
30
0
0
SPLINE
5
F5
100
AcDbEntity
8
1
62
256
6
ByLayer
370
13
48
1
60
0
100
AcDbSpline
70
4
71
3
72
42
73
38
40
0
40
0
40
0
40
0
40
0.0624999999999988
40
0.0624999999999988
40
0.124999999999998
40
0.124999999999998
40
0.187499999999996
40
0.187499999999996
40
0.249999999999995
40
0.249999999999995
40
0.312499999999994
40
0.312499999999994
40
0.374999999999993
40
0.374999999999993
40
0.437499999999992
40
0.437499999999992
40
0.499999999999991
40
0.499999999999991
40
0.562499999999989
40
0.562499999999989
40
0.593749999999989
40
0.593749999999989
40
0.609374999999989
40
0.609374999999989
40
0.624999999999989
40
0.624999999999989
40
0.687499999999991
40
0.687499999999991
40
0.749999999999993
40
0.749999999999993
40
0.812499999999995
40
0.812499999999995
40
0.874999999999996
40
0.874999999999996
40
0.937499999999998
40
0.937499999999998
40
1
40
1
40
1
40
1
41
1
10
136.460036520021
20
11.311
30
0
41
1
10
136.554267690025
20
11.311
30
0
41
1
10
136.648498860029
20
11.270144763428
30
0
41
1
10
136.836961200038
20
11.0935508657552
30
0
41
1
10
136.931192370042
20
10.9577193266388
30
0
41
1
10
137.11965471005
20
10.5831596779902
30
0
41
1
10
137.213885880054
20
10.3443613587495
30
0
41
1
10
137.402348220062
20
9.7637522920466
30
0
41
1
10
137.496579390066
20
9.42192346545289
30
0
41
1
10
137.685041730074
20
8.64446754102542
30
0
41
1
10
137.779272900078
20
8.20889031901916
30
0
41
1
10
137.967735240086
20
7.26204480385118
30
0
41
1
10
138.06196641009
20
6.7508848246317
30
0
41
1
10
138.250428750098
20
5.67743763172547
30
0
41
1
10
138.344659920102
20
5.11528446127076
30
0
41
1
10
138.53312226011
20
3.96709330514744
30
0
41
1
10
138.627353430114
20
3.38117531004323
30
0
41
1
10
138.815815770122
20
2.21141427029647
30
0
41
1
10
138.910046940126
20
1.62764896986352
30
0
41
1
10
139.051393695132
20
0.76977177188445
30
0
41
1
10
139.098509280134
20
0.486733470346053
30
0
41
1
10
139.169182657637
20
0.0681662792090094
30
0
41
1
10
139.192740450138
20
-0.0698387383134502
30
0
41
1
10
139.23985603514
20
-0.348899497089661
30
0
41
1
10
139.263413827641
20
-0.489424787560324
30
0
41
1
10
139.381202790146
20
-1.19638486286016
30
0
41
1
10
139.47543396015
20
-1.77604455557503
30
0
41
1
10
139.663896300159
20
-2.94344687841823
30
0
41
1
10
139.758127470163
20
-3.53112427514364
30
0
41
1
10
139.946589810171
20
-4.68954179006943
30
0
41
1
10
140.040820980175
20
-5.26017055282662
30
0
41
1
10
140.229283320183
20
-6.35726247525253
30
0
41
1
10
140.323514490187
20
-6.88359154662436
30
0
41
1
10
140.511976830195
20
-7.86644021485981
30
0
41
1
10
140.606208000199
20
-8.32284141101439
30
0
41
1
10
140.794670340207
20
-9.14571859640597
30
0
41
1
10
140.888901510211
20
-9.51212819990519
30
0
41
1
10
140.983132680215
20
-9.82773148694048
30
0
0
SPLINE
5
F6
100
AcDbEntity
8
1
62
256
6
ByLayer
370
13
48
1
60
0
100
AcDbSpline
70
4
71
3
72
78
73
74
40
0
40
0
40
0
40
0
40
0.0312499999999982
40
0.0312499999999982
40
0.0624999999999965
40
0.0624999999999965
40
0.0937499999999947
40
0.0937499999999947
40
0.124999999999993
40
0.124999999999993
40
0.156249999999991
40
0.156249999999991
40
0.164062499999991
40
0.164062499999991
40
0.17187499999999
40
0.18749999999999
40
0.18749999999999
40
0.21874999999999
40
0.21874999999999
40
0.249999999999989
40
0.249999999999989
40
0.281249999999989
40
0.281249999999989
40
0.312499999999989
40
0.312499999999989
40
0.343749999999988
40
0.343749999999988
40
0.374999999999988
40
0.374999999999988
40
0.406249999999988
40
0.406249999999988
40
0.437499999999987
40
0.437499999999987
40
0.468749999999987
40
0.468749999999987
40
0.499999999999987
40
0.499999999999987
40
0.531249999999986
40
0.531249999999986
40
0.562499999999986
40
0.562499999999986
40
0.578124999999986
40
0.578124999999986
40
0.582031249999986
40
0.582031249999986
40
0.585937499999986
40
0.593749999999986
40
0.593749999999986
40
0.624999999999987
40
0.624999999999987
40
0.656249999999988
40
0.656249999999988
40
0.687499999999989
40
0.687499999999989
40
0.71874999999999
40
0.71874999999999
40
0.749999999999991
40
0.749999999999991
40
0.781249999999992
40
0.781249999999992
40
0.812499999999993
40
0.812499999999993
40
0.843749999999995
40
0.843749999999995
40
0.874999999999996
40
0.874999999999996
40
0.906249999999997
40
0.906249999999997
40
0.937499999999998
40
0.937499999999998
40
0.968749999999999
40
0.968749999999999
40
1
40
1
40
1
40
1
41
1
10
130.1
20
-9.39888757545839
30
0
41
1
10
130.16750032703
20
-9.65509342273222
30
0
41
1
10
130.235000654061
20
-9.88629263900592
30
0
41
1
10
130.370001308122
20
-10.2959130768829
30
0
41
1
10
130.437501635152
20
-10.474338298786
30
0
41
1
10
130.572502289213
20
-10.7780928165696
30
0
41
1
10
130.640002616244
20
-10.9034335769325
30
0
41
1
10
130.775003270305
20
-11.1029183774602
30
0
41
1
10
130.842503597335
20
-11.1770785649186
30
0
41
1
10
130.977504251396
20
-11.2778929304195
30
0
41
1
10
131.045004578427
20
-11.3045649153449
30
0
41
1
10
131.129379987215
20
-11.3113144310292
30
0
41
1
10
131.146255068973
20
-11.3113475549345
30
0
41
1
10
131.180005232488
20
-11.3087834844076
30
0
41
1
10
131.230630477761
20
-11.3009600454266
30
0
41
1
10
131.281255723033
20
-11.280826300973
30
0
41
1
10
131.382506213579
20
-11.2232177822599
30
0
41
1
10
131.45000654061
20
-11.1616453655266
30
0
41
1
10
131.585007194671
20
-10.9881328844472
30
0
41
1
10
131.652507521701
20
-10.8761759672845
30
0
41
1
10
131.787508175762
20
-10.5994821497747
30
0
41
1
10
131.855008502793
20
-10.4347322950655
30
0
41
1
10
131.990009156854
20
-10.0521566659667
30
0
41
1
10
132.057509483884
20
-9.83432475794163
30
0
41
1
10
132.192510137945
20
-9.34770275719586
30
0
41
1
10
132.260010464976
20
-9.07891540693416
30
0
41
1
10
132.395011119036
20
-8.49497153374293
30
0
41
1
10
132.462511446067
20
-8.17982707541645
30
0
41
1
10
132.597512100128
20
-7.5100070679643
30
0
41
1
10
132.665012427159
20
-7.15535141576766
30
0
41
1
10
132.80001308122
20
-6.41510908899957
30
0
41
1
10
132.86751340825
20
-6.02954700443578
30
0
41
1
10
133.002514062311
20
-5.23717307084934
30
0
41
1
10
133.070014389341
20
-4.83038654378629
30
0
41
1
10
133.205015043402
20
-4.00556177612972
30
0
41
1
10
133.272515370433
20
-3.58754585238535
30
0
41
1
10
133.407516024494
20
-2.74984867942192
30
0
41
1
10
133.475016351524
20
-2.33018409151211
30
0
41
1
10
133.610017005585
20
-1.49777061901671
30
0
41
1
10
133.677517332616
20
-1.08503158234055
30
0
41
1
10
133.778767823162
20
-0.476491013960754
30
0
41
1
10
133.812517986677
20
-0.275393628202067
30
0
41
1
10
133.854705691071
20
-0.0266753914875437
30
0
41
1
10
133.86314323195
20
0.0228649261371743
30
0
41
1
10
133.880018313707
20
0.122338664780841
30
0
41
1
10
133.905330936344
20
0.271946873984916
30
0
41
1
10
133.93064355898
20
0.422698795612575
30
0
41
1
10
134.015018967768
20
0.927513757744293
30
0
41
1
10
134.082519294799
20
1.33881402033271
30
0
41
1
10
134.21751994886
20
2.16935264784959
30
0
41
1
10
134.28502027589
20
2.58858204619094
30
0
41
1
10
134.420020929951
20
3.42657386763318
30
0
41
1
10
134.487521256982
20
3.84532047040929
30
0
41
1
10
134.622521911043
20
4.67287147769434
30
0
41
1
10
134.690022238073
20
5.08165417185862
30
0
41
1
10
134.825022892134
20
5.87930021987174
30
0
41
1
10
134.892523219165
20
6.26813844408821
30
0
41
1
10
135.027523873226
20
7.01613014020342
30
0
41
1
10
135.095024200256
20
7.37525870132598
30
0
41
1
10
135.230024854317
20
8.05504298919908
30
0
41
1
10
135.297525181348
20
8.37567801481472
30
0
41
1
10
135.432525835408
20
8.97136404662956
30
0
41
1
10
135.500026162439
20
9.24640186072844
30
0
41
1
10
135.6350268165
20
9.7459792719155
30
0
41
1
10
135.70252714353
20
9.97051491654622
30
0
41
1
10
135.837527797591
20
10.3666328971751
30
0
41
1
10
135.905028124622
20
10.5382203161376
30
0
41
1
10
136.040028778683
20
10.8284262850653
30
0
41
1
10
136.107529105713
20
10.9470570685362
30
0
41
1
10
136.242529759774
20
11.1335053428083
30
0
41
1
10
136.310030086805
20
11.2013393587621
30
0
41
1
10
136.445030740866
20
11.2900777780433
30
0
41
1
10
136.512531067896
20
11.311
30
0
41
1
10
136.580031394927
20
11.311
30
0
0
SPLINE
5
F7
100
AcDbEntity
8
1
62
256
6
ByLayer
370
13
48
1
60
0
100
AcDbSpline
70
4
71
3
72
66
73
62
40
0
40
0
40
0
40
0
40
0.0624999999999982
40
0.0624999999999982
40
0.124999999999996
40
0.124999999999996
40
0.156249999999996
40
0.156249999999996
40
0.187499999999995
40
0.187499999999995
40
0.218749999999995
40
0.218749999999995
40
0.249999999999994
40
0.249999999999994
40
0.281249999999993
40
0.281249999999993
40
0.312499999999993
40
0.312499999999993
40
0.343749999999992
40
0.343749999999992
40
0.374999999999991
40
0.374999999999991
40
0.406249999999991
40
0.406249999999991
40
0.43749999999999
40
0.43749999999999
40
0.499999999999989
40
0.499999999999989
40
0.531249999999989
40
0.531249999999989
40
0.539062499999989
40
0.539062499999989
40
0.546874999999989
40
0.546874999999989
40
0.56249999999999
40
0.56249999999999
40
0.624999999999991
40
0.624999999999991
40
0.656249999999992
40
0.656249999999992
40
0.687499999999993
40
0.687499999999993
40
0.718749999999994
40
0.718749999999994
40
0.749999999999994
40
0.749999999999994
40
0.781249999999995
40
0.781249999999995
40
0.812499999999996
40
0.812499999999996
40
0.843749999999997
40
0.843749999999997
40
0.874999999999997
40
0.874999999999997
40
0.906249999999998
40
0.906249999999998
40
0.937499999999999
40
0.937499999999999
40
0.968749999999999
40
0.968749999999999
40
1
40
1
40
1
40
1
41
1
10
135.970802983416
20
11.311
30
0
41
1
10
136.075226518766
20
11.311
30
0
41
1
10
136.179650054116
20
11.2607783271267
30
0
41
1
10
136.388497124816
20
11.0422828093823
30
0
41
1
10
136.492920660166
20
10.8738559105966
30
0
41
1
10
136.649555963191
20
10.5256179142277
30
0
41
1
10
136.701767730866
20
10.3936874185262
30
0
41
1
10
136.806191266216
20
10.0981140530652
30
0
41
1
10
136.858403033891
20
9.93446946405973
30
0
41
1
10
136.962826569241
20
9.57631560925861
30
0
41
1
10
137.015038336916
20
9.38180650105102
30
0
41
1
10
137.119461872266
20
8.96366016828193
30
0
41
1
10
137.171673639941
20
8.74002512585179
30
0
41
1
10
137.276097175291
20
8.26621760369682
30
0
41
1
10
137.328308942966
20
8.0160492311073
30
0
41
1
10
137.432732478316
20
7.49252486812614
30
0
41
1
10
137.484944245991
20
7.21917456221124
30
0
41
1
10
137.589367781341
20
6.65324683444544
30
0
41
1
10
137.641579549016
20
6.36067612760939
30
0
41
1
10
137.746003084366
20
5.76069049811917
30
0
41
1
10
137.798214852041
20
5.45328266374827
30
0
41
1
10
137.902638387391
20
4.82821840348825
30
0
41
1
10
137.954850155066
20
4.51056877826423
30
0
41
1
10
138.059273690416
20
3.86961841471628
30
0
41
1
10
138.111485458091
20
3.54632362431471
30
0
41
1
10
138.268120761116
20
2.57457162154674
30
0
41
1
10
138.372544296466
20
1.92449696159051
30
0
41
1
10
138.529179599491
20
0.968911132090938
30
0
41
1
10
138.581391367166
20
0.653579187609012
30
0
41
1
10
138.646656076759
20
0.265304098598222
30
0
41
1
10
138.659709018678
20
0.187942180917048
30
0
41
1
10
138.685814902516
20
0.0338462821489713
30
0
41
1
10
138.698867844434
20
-0.0427392132430384
30
0
41
1
10
138.738026670191
20
-0.273955611410997
30
0
41
1
10
138.764132554028
20
-0.429353746953012
30
0
41
1
10
138.894661973216
20
-1.21175464379508
30
0
41
1
10
138.999085508566
20
-1.85532434065232
30
0
41
1
10
139.15572081159
20
-2.82648618785444
30
0
41
1
10
139.207932579265
20
-3.15110545400066
30
0
41
1
10
139.312356114615
20
-3.797993059106
30
0
41
1
10
139.36456788229
20
-4.12025634925419
30
0
41
1
10
139.46899141764
20
-4.75796161237363
30
0
41
1
10
139.521203185315
20
-5.07339737009914
30
0
41
1
10
139.625626720665
20
-5.69283242461489
30
0
41
1
10
139.677838488341
20
-5.99682478635279
30
0
41
1
10
139.78226202369
20
-6.58881232900038
30
0
41
1
10
139.834473791365
20
-6.87680045327357
30
0
41
1
10
139.938897326715
20
-7.43248555433917
30
0
41
1
10
139.99110909439
20
-7.70017602314906
30
0
41
1
10
140.09553262974
20
-8.21144471111899
30
0
41
1
10
140.147744397415
20
-8.45501760952371
30
0
41
1
10
140.252167932765
20
-8.91488276237777
30
0
41
1
10
140.30437970044
20
-9.13117138562629
30
0
41
1
10
140.40880323579
20
-9.53408836788446
30
0
41
1
10
140.461015003465
20
-9.72071507124946
30
0
41
1
10
140.565438538815
20
-10.0627975540212
30
0
41
1
10
140.61765030649
20
-10.2182536865682
30
0
41
1
10
140.72207384184
20
-10.4973727524875
30
0
41
1
10
140.774285609515
20
-10.6210378419542
30
0
41
1
10
140.878709144865
20
-10.8368022813585
30
0
41
1
10
140.93092091254
20
-10.9289052018051
30
0
41
1
10
140.983132680215
20
-11.0057200723556
30
0
0
SPLINE
5
F8
100
AcDbEntity
8
1
62
256
6
ByLayer
370
13
48
1
60
0
100
AcDbSpline
70
4
71
3
72
78
73
74
40
0
40
0
40
0
40
0
40
0.0312499999999997
40
0.0312499999999997
40
0.0624999999999993
40
0.0624999999999993
40
0.078124999999999
40
0.078124999999999
40
0.0859374999999988
40
0.0859374999999988
40
0.0937499999999986
40
0.0937499999999986
40
0.124999999999999
40
0.124999999999999
40
0.15625
40
0.15625
40
0.1875
40
0.1875
40
0.21875
40
0.21875
40
0.250000000000001
40
0.250000000000001
40
0.281250000000001
40
0.281250000000001
40
0.312500000000002
40
0.312500000000002
40
0.343750000000002
40
0.343750000000002
40
0.375000000000003
40
0.375000000000003
40
0.406250000000003
40
0.406250000000003
40
0.437500000000003
40
0.437500000000003
40
0.468750000000004
40
0.468750000000004
40
0.500000000000004
40
0.500000000000004
40
0.531250000000005
40
0.531250000000005
40
0.539062500000005
40
0.539062500000005
40
0.546875000000004
40
0.546875000000004
40
0.562500000000004
40
0.562500000000004
40
0.593750000000004
40
0.593750000000004
40
0.625000000000003
40
0.625000000000003
40
0.656250000000003
40
0.656250000000003
40
0.687500000000003
40
0.687500000000003
40
0.718750000000002
40
0.718750000000002
40
0.750000000000002
40
0.750000000000002
40
0.781250000000002
40
0.781250000000002
40
0.812500000000001
40
0.812500000000001
40
0.843750000000001
40
0.843750000000001
40
0.875000000000001
40
0.875000000000001
40
0.906250000000001
40
0.906250000000001
40
0.937500000000001
40
0.937500000000001
40
0.96875
40
0.96875
40
1
40
1
40
1
40
1
41
1
10
130.1
20
-10.8020469369219
30
0
41
1
10
130.162404144358
20
-10.9222045658824
30
0
41
1
10
130.224808288715
20
-11.0199241650865
30
0
41
1
10
130.34961657743
20
-11.1725485008765
30
0
41
1
10
130.412020721788
20
-11.2274647601241
30
0
41
1
10
130.505626938324
20
-11.2801752321371
30
0
41
1
10
130.536829010503
20
-11.2928095242466
30
0
41
1
10
130.583632118771
20
-11.3047225341956
30
0
41
1
10
130.59923315486
20
-11.3075208320241
30
0
41
1
10
130.630435227039
20
-11.3108368335438
30
0
41
1
10
130.646036263128
20
-11.3113580314344
30
0
41
1
10
130.724041443575
20
-11.3083889454006
30
0
41
1
10
130.786445587933
20
-11.2879929676832
30
0
41
1
10
130.911253876648
20
-11.2071855135622
30
0
41
1
10
130.973658021005
20
-11.1467619923001
30
0
41
1
10
131.09846630972
20
-10.9827715319871
30
0
41
1
10
131.160870454078
20
-10.8791932598325
30
0
41
1
10
131.285678742793
20
-10.626990848386
30
0
41
1
10
131.34808288715
20
-10.4783578115992
30
0
41
1
10
131.472891175865
20
-10.1356792425303
30
0
41
1
10
131.535295320223
20
-9.9416289536525
30
0
41
1
10
131.660103608938
20
-9.5094963234767
30
0
41
1
10
131.722507753296
20
-9.27141464214117
30
0
41
1
10
131.847316042011
20
-8.75441253529391
30
0
41
1
10
131.909720186368
20
-8.47549864740446
30
0
41
1
10
132.034528475083
20
-7.88173118902805
30
0
41
1
10
132.096932619441
20
-7.56688946609944
30
0
41
1
10
132.221740908156
20
-6.90759213416663
30
0
41
1
10
132.284145052513
20
-6.56315214504448
30
0
41
1
10
132.408953341228
20
-5.85199198529585
30
0
41
1
10
132.471357485586
20
-5.48528903407987
30
0
41
1
10
132.596165774301
20
-4.73744311563465
30
0
41
1
10
132.658569918658
20
-4.35631666153583
30
0
41
1
10
132.783378207373
20
-3.58745550941461
30
0
41
1
10
132.845782351731
20
-3.19973467799355
30
0
41
1
10
132.970590640446
20
-2.42504542993117
30
0
41
1
10
133.032994784803
20
-2.03808699921868
30
0
41
1
10
133.157803073518
20
-1.27145025053997
30
0
41
1
10
133.220207217876
20
-0.89177761770992
30
0
41
1
10
133.298212398323
20
-0.42514863042058
30
0
41
1
10
133.313813434412
20
-0.33221813150115
30
0
41
1
10
133.345015506591
20
-0.147221521136061
30
0
41
1
10
133.36061654268
20
-0.0553516922780375
30
0
41
1
10
133.407419650948
20
0.220181270153262
30
0
41
1
10
133.438621723127
20
0.40570356232837
30
0
41
1
10
133.532227939664
20
0.96689896003025
30
0
41
1
10
133.594632084021
20
1.3472357413068
30
0
41
1
10
133.719440372736
20
2.1147999608568
30
0
41
1
10
133.781844517094
20
2.5020214312155
30
0
41
1
10
133.906652805809
20
3.27677198846885
30
0
41
1
10
133.969056950166
20
3.66429081049108
30
0
41
1
10
134.093865238881
20
4.4322393501252
30
0
41
1
10
134.156269383239
20
4.81265497871183
30
0
41
1
10
134.281077671954
20
5.55855468223263
30
0
41
1
10
134.343481816311
20
5.92402213090409
30
0
41
1
10
134.468290105026
20
6.632203836218
30
0
41
1
10
134.530694249384
20
6.97490090672039
30
0
41
1
10
134.655502538099
20
7.63025647057262
30
0
41
1
10
134.717906682456
20
7.94289953130706
30
0
41
1
10
134.842714971171
20
8.53189634479696
30
0
41
1
10
134.905119115529
20
8.80823856371316
30
0
41
1
10
135.029927404244
20
9.31983005897277
30
0
41
1
10
135.092331548601
20
9.55507318127624
30
0
41
1
10
135.217139837317
20
9.98138020172539
30
0
41
1
10
135.279543981674
20
10.1724438237235
30
0
41
1
10
135.404352270389
20
10.5091202993857
30
0
41
1
10
135.466756414747
20
10.6547382304965
30
0
41
1
10
135.591564703462
20
10.9009915516324
30
0
41
1
10
135.653968847819
20
11.0016360555939
30
0
41
1
10
135.778777136534
20
11.1599319343081
30
0
41
1
10
135.841181280892
20
11.2175947407606
30
0
41
1
10
135.965989569607
20
11.2931227550614
30
0
41
1
10
136.028393713964
20
11.311
30
0
41
1
10
136.090797858322
20
11.311
30
0
0
SPLINE
5
F9
100
AcDbEntity
8
1
62
256
6
ByLayer
370
13
48
1
60
0
100
AcDbSpline
70
4
71
3
72
78
73
74
40
0
40
0
40
0
40
0
40
0.0312499999999999
40
0.0312499999999999
40
0.0624999999999998
40
0.0624999999999998
40
0.0937499999999997
40
0.0937499999999997
40
0.125
40
0.125
40
0.15625
40
0.15625
40
0.187499999999999
40
0.187499999999999
40
0.218749999999999
40
0.218749999999999
40
0.249999999999999
40
0.249999999999999
40
0.281249999999999
40
0.281249999999999
40
0.312499999999999
40
0.312499999999999
40
0.343749999999999
40
0.343749999999999
40
0.374999999999999
40
0.374999999999999
40
0.406249999999999
40
0.406249999999999
40
0.437499999999999
40
0.437499999999999
40
0.468749999999999
40
0.468749999999999
40
0.484375
40
0.484375
40
0.4921875
40
0.4921875
40
0.5
40
0.5
40
0.53125
40
0.53125
40
0.5625
40
0.5625
40
0.59375
40
0.59375
40
0.625
40
0.625
40
0.65625
40
0.65625
40
0.6875
40
0.6875
40
0.71875
40
0.71875
40
0.75
40
0.75
40
0.78125
40
0.78125
40
0.8125
40
0.8125
40
0.84375
40
0.84375
40
0.875
40
0.875
40
0.90625
40
0.90625
40
0.9375
40
0.9375
40
0.96875
40
0.96875
40
0.984375
40
0.984375
40
0.9921875
40
0.9921875
40
1
40
1
40
1
40
1
41
1
10
135.481569446811
20
11.311
30
0
41
1
10
135.538877397159
20
11.311
30
0
41
1
10
135.596185347507
20
11.2959272151037
30
0
41
1
10
135.710801248203
20
11.2325015307594
30
0
41
1
10
135.768109198551
20
11.1841407744927
30
0
41
1
10
135.882725099247
20
11.0515698697957
30
0
41
1
10
135.940033049595
20
10.9673521090251
30
0
41
1
10
136.054648950291
20
10.7613130811716
30
0
41
1
10
136.111956900639
20
10.6394853739382
30
0
41
1
10
136.226572801335
20
10.3575020342437
30
0
41
1
10
136.283880751683
20
10.1973421037496
30
0
41
1
10
136.398496652379
20
9.83916441234791
30
0
41
1
10
136.455804602727
20
9.64114532387256
30
0
41
1
10
136.570420503422
20
9.20900130563911
30
0
41
1
10
136.62772845377
20
8.97487851165175
30
0
41
1
10
136.742344354466
20
8.47355035197756
30
0
41
1
10
136.799652304814
20
8.20635059555681
30
0
41
1
10
136.91426820551
20
7.64304640898612
30
0
41
1
10
136.971576155858
20
7.34695054118524
30
0
41
1
10
137.086192056554
20
6.73097155206821
30
0
41
1
10
137.143500006902
20
6.411098972351
30
0
41
1
10
137.258115907598
20
5.75333277722757
30
0
41
1
10
137.315423857946
20
5.4154504418496
30
0
41
1
10
137.430039758642
20
4.72774743814381
30
0
41
1
10
137.48734770899
20
4.37793752290676
30
0
41
1
10
137.601963609686
20
3.67244320343426
30
0
41
1
10
137.659271560034
20
3.31676796404807
30
0
41
1
10
137.77388746073
20
2.60528535134051
30
0
41
1
10
137.831195411077
20
2.24948485320525
30
0
41
1
10
137.945811311773
20
1.54292963189425
30
0
41
1
10
138.003119262121
20
1.19217920762117
30
0
41
1
10
138.089081187643
20
0.673171739371156
30
0
41
1
10
138.117735162817
20
0.501349500885283
30
0
41
1
10
138.160716125578
20
0.245745360911826
30
0
41
1
10
138.175043113165
20
0.160898443428948
30
0
41
1
10
138.203697088339
20
-0.0080315787646441
30
0
41
1
10
138.218024075926
20
-0.0921659141747568
30
0
41
1
10
138.289659013861
20
-0.515981341263455
30
0
41
1
10
138.346966964209
20
-0.861006031151021
30
0
41
1
10
138.461582864905
20
-1.55909089037465
30
0
41
1
10
138.518890815253
20
-1.912148409851
30
0
41
1
10
138.633506715949
20
-2.62158897735918
30
0
41
1
10
138.690814666297
20
-2.97796682005816
30
0
41
1
10
138.805430566993
20
-3.68865508625797
30
0
41
1
10
138.862738517341
20
-4.04295778178869
30
0
41
1
10
138.977354418037
20
-4.74361430236689
30
0
41
1
10
139.034662368384
20
-5.08995830805398
30
0
41
1
10
139.14927826908
20
-5.76859280486619
30
0
41
1
10
139.206586219428
20
-6.10087222382472
30
0
41
1
10
139.321202120124
20
-6.74536673422881
30
0
41
1
10
139.378510070472
20
-7.05757065558939
30
0
41
1
10
139.493125971168
20
-7.65633556636513
30
0
41
1
10
139.550433921516
20
-7.94288657271923
30
0
41
1
10
139.665049822212
20
-8.48552158582174
30
0
41
1
10
139.72235777256
20
-8.74159797029029
30
0
41
1
10
139.836973673256
20
-9.21948264390241
30
0
41
1
10
139.894281623604
20
-9.44128650355788
30
0
41
1
10
140.0088975243
20
-9.84803160720401
30
0
41
1
10
140.066205474648
20
-10.0329719520309
30
0
41
1
10
140.180821375344
20
-10.3646828168141
30
0
41
1
10
140.238129325691
20
-10.5114557779051
30
0
41
1
10
140.352745226387
20
-10.7667876262658
30
0
41
1
10
140.410053176735
20
-10.8753516646577
30
0
41
1
10
140.524669077431
20
-11.0553676880448
30
0
41
1
10
140.581977027779
20
-11.1268266337769
30
0
41
1
10
140.696592928475
20
-11.2346954063245
30
0
41
1
10
140.753900878823
20
-11.271113029393
30
0
41
1
10
140.839862804345
20
-11.3015516553943
30
0
41
1
10
140.868516779519
20
-11.3076715601453
30
0
41
1
10
140.91149774228
20
-11.3111104258115
30
0
41
1
10
140.925824729867
20
-11.3113050491071
30
0
41
1
10
140.954478705041
20
-11.3098068986177
30
0
41
1
10
140.968805692628
20
-11.3081065712586
30
0
41
1
10
140.983132680215
20
-11.3054295299149
30
0
0
SPLINE
5
FA
100
AcDbEntity
8
1
62
256
6
ByLayer
370
13
48
1
60
0
100
AcDbSpline
70
4
71
3
72
77
73
73
40
0
40
0
40
0
40
0
40
0.0078125000000001
40
0.0078125000000001
40
0.0156250000000002
40
0.0156250000000002
40
0.0312500000000004
40
0.0312500000000004
40
0.0625000000000012
40
0.0625000000000012
40
0.093750000000002
40
0.093750000000002
40
0.125000000000003
40
0.125000000000003
40
0.156250000000004
40
0.156250000000004
40
0.187500000000004
40
0.187500000000004
40
0.218750000000005
40
0.218750000000005
40
0.250000000000006
40
0.250000000000006
40
0.281250000000007
40
0.281250000000007
40
0.312500000000008
40
0.312500000000008
40
0.343750000000008
40
0.343750000000008
40
0.375000000000009
40
0.375000000000009
40
0.40625000000001
40
0.40625000000001
40
0.437500000000011
40
0.437500000000011
40
0.468750000000012
40
0.468750000000012
40
0.500000000000013
40
0.500000000000013
40
0.507812500000013
40
0.507812500000013
40
0.515625000000012
40
0.531250000000012
40
0.531250000000012
40
0.562500000000011
40
0.562500000000011
40
0.593750000000011
40
0.593750000000011
40
0.62500000000001
40
0.62500000000001
40
0.656250000000009
40
0.656250000000009
40
0.687500000000008
40
0.687500000000008
40
0.718750000000007
40
0.718750000000007
40
0.750000000000007
40
0.750000000000007
40
0.781250000000006
40
0.781250000000006
40
0.812500000000005
40
0.812500000000005
40
0.843750000000004
40
0.843750000000004
40
0.875000000000003
40
0.875000000000003
40
0.906250000000003
40
0.906250000000003
40
0.937500000000002
40
0.937500000000002
40
0.968750000000001
40
0.968750000000001
40
1
40
1
40
1
40
1
41
1
10
130.1
20
-11.3054293265583
30
0
41
1
10
130.114326990421
20
-11.3081064178907
30
0
41
1
10
130.128653980842
20
-11.3098067942173
30
0
41
1
10
130.157307961684
20
-11.3113050405899
30
0
41
1
10
130.171634952106
20
-11.3111104640663
30
0
41
1
10
130.214615923369
20
-11.3076717407733
30
0
41
1
10
130.243269904211
20
-11.3015519319879
30
0
41
1
10
130.329231846738
20
-11.2711135961688
30
0
41
1
10
130.386539808423
20
-11.2346961696314
30
0
41
1
10
130.501155731792
20
-11.1268277909297
30
0
41
1
10
130.558463693476
20
-11.0553690425026
30
0
41
1
10
130.673079616845
20
-10.8753534083161
30
0
41
1
10
130.73038757853
20
-10.7667895618054
30
0
41
1
10
130.845003501899
20
-10.5114580851573
30
0
41
1
10
130.902311463584
20
-10.36468530388
30
0
41
1
10
131.016927386953
20
-10.032974780075
30
0
41
1
10
131.074235348637
20
-9.84803459639392
30
0
41
1
10
131.188851272006
20
-9.44128979039121
30
0
41
1
10
131.246159233691
20
-9.21948606721622
30
0
41
1
10
131.36077515706
20
-8.74160163707089
30
0
41
1
10
131.418083118745
20
-8.48552535957597
30
0
41
1
10
131.532699042114
20
-7.94289052769258
30
0
41
1
10
131.590007003798
20
-7.65633959557803
30
0
41
1
10
131.704622927167
20
-7.05757479921948
30
0
41
1
10
131.761930888852
20
-6.74537091803816
30
0
41
1
10
131.876546812221
20
-6.10087645456557
30
0
41
1
10
131.933854773906
20
-5.76859704236787
30
0
41
1
10
132.048470697275
20
-5.08996252809601
30
0
41
1
10
132.105778658959
20
-4.7436184982023
30
0
41
1
10
132.220394582328
20
-4.04296190213952
30
0
41
1
10
132.277702544013
20
-3.68865915534744
30
0
41
1
10
132.392318467382
20
-2.97797076446062
30
0
41
1
10
132.449626429067
20
-2.62159284835258
30
0
41
1
10
132.564242352436
20
-1.91215211725881
30
0
41
1
10
132.62155031412
20
-1.55909450762036
30
0
41
1
10
132.736166237489
20
-0.861009456719273
30
0
41
1
10
132.793474199174
20
-0.515984665327267
30
0
41
1
10
132.86510915128
20
-0.092169107416936
30
0
41
1
10
132.879436141701
20
-0.0080347439163404
30
0
41
1
10
132.908090122543
20
0.160895292663469
30
0
41
1
10
132.951071093806
20
0.41543525390415
30
0
41
1
10
132.99405206507
20
0.673168639046168
30
0
41
1
10
133.080014007597
20
1.19217616801717
30
0
41
1
10
133.137321969281
20
1.54292664065835
30
0
41
1
10
133.25193789265
20
2.24948197410194
30
0
41
1
10
133.309245854335
20
2.60528253600467
30
0
41
1
10
133.423861777704
20
3.31676529033999
30
0
41
1
10
133.481169739388
20
3.6724406075862
30
0
41
1
10
133.595785662758
20
4.37793509459047
30
0
41
1
10
133.653093624442
20
4.727745099495
30
0
41
1
10
133.767709547811
20
5.41544829115648
30
0
41
1
10
133.825017509496
20
5.75333072481448
30
0
41
1
10
133.939633432865
20
6.4110971212061
30
0
41
1
10
133.996941394549
20
6.73096980390011
30
0
41
1
10
134.111557317919
20
7.34694899934118
30
0
41
1
10
134.168865279603
20
7.64304497047644
30
0
41
1
10
134.283481202972
20
8.20634935969295
30
0
41
1
10
134.340789164657
20
8.47354921541267
30
0
41
1
10
134.455405088026
20
8.97487756560045
30
0
41
1
10
134.51271304971
20
9.20900045079227
30
0
41
1
10
134.62732897308
20
9.64114463996657
30
0
41
1
10
134.684636934764
20
9.83916380817189
30
0
41
1
10
134.799252858133
20
10.1973416451107
30
0
41
1
10
134.856560819818
20
10.35750164141
30
0
41
1
10
134.971176743187
20
10.6394850973921
30
0
41
1
10
135.028484704871
20
10.7613128551104
30
0
41
1
10
135.14310062824
20
10.9673519682605
30
0
41
1
10
135.200408589925
20
11.0515697638485
30
0
41
1
10
135.315024513294
20
11.1841407230896
30
0
41
1
10
135.372332474979
20
11.2325014990904
30
0
41
1
10
135.486948398348
20
11.2959272091323
30
0
41
1
10
135.544256360032
20
11.311
30
0
41
1
10
135.601564321717
20
11.311
30
0
0
SPLINE
5
FB
100
AcDbEntity
8
1
62
256
6
ByLayer
370
13
48
1
60
0
100
AcDbSpline
70
4
71
3
72
77
73
73
40
0
40
0
40
0
40
0
40
0.0312500000000001
40
0.0312500000000001
40
0.0625000000000003
40
0.0625000000000003
40
0.0937500000000004
40
0.0937500000000004
40
0.125000000000001
40
0.125000000000001
40
0.156250000000001
40
0.156250000000001
40
0.187500000000001
40
0.187500000000001
40
0.218750000000001
40
0.218750000000001
40
0.250000000000001
40
0.250000000000001
40
0.281250000000001
40
0.281250000000001
40
0.312500000000001
40
0.312500000000001
40
0.343750000000002
40
0.343750000000002
40
0.375000000000002
40
0.375000000000002
40
0.406250000000002
40
0.406250000000002
40
0.437500000000002
40
0.437500000000002
40
0.453125000000002
40
0.453125000000002
40
0.460937500000002
40
0.460937500000002
40
0.468750000000002
40
0.468750000000002
40
0.500000000000002
40
0.500000000000002
40
0.531250000000002
40
0.531250000000002
40
0.562500000000001
40
0.562500000000001
40
0.593750000000001
40
0.593750000000001
40
0.625000000000001
40
0.625000000000001
40
0.656250000000001
40
0.656250000000001
40
0.687500000000001
40
0.687500000000001
40
0.718750000000001
40
0.718750000000001
40
0.75
40
0.75
40
0.78125
40
0.78125
40
0.8125
40
0.8125
40
0.84375
40
0.84375
40
0.874999999999999
40
0.874999999999999
40
0.906249999999999
40
0.906249999999999
40
0.914062499999999
40
0.914062499999999
40
0.921874999999999
40
0.937499999999999
40
0.937499999999999
40
0.96875
40
0.96875
40
1
40
1
40
1
40
1
41
1
10
134.992335910206
20
11.311
30
0
41
1
10
135.054740043227
20
11.311
30
0
41
1
10
135.117144176248
20
11.2931227615673
30
0
41
1
10
135.24195244229
20
11.2175947754168
30
0
41
1
10
135.304356575311
20
11.1599319906197
30
0
41
1
10
135.429164841353
20
11.0016361718224
30
0
41
1
10
135.491568974374
20
10.9009917061324
30
0
41
1
10
135.616377240415
20
10.654738478615
30
0
41
1
10
135.678781373436
20
10.5091206028579
30
0
41
1
10
135.803589639478
20
10.1724442541957
30
0
41
1
10
135.865993772499
20
9.98138070384516
30
0
41
1
10
135.990802038541
20
9.55507384082696
30
0
41
1
10
136.053206171562
20
9.31983080430143
30
0
41
1
10
136.178014437604
20
8.80823949126548
30
0
41
1
10
136.240418570625
20
8.53189736878306
30
0
41
1
10
136.365226836667
20
7.9429007543126
30
0
41
1
10
136.427630969688
20
7.63025779614725
30
0
41
1
10
136.55243923573
20
6.97490243845638
30
0
41
1
10
136.61484336875
20
6.63220547152801
30
0
41
1
10
136.739651634792
20
5.92402396917717
30
0
41
1
10
136.802055767813
20
5.55855661987823
30
0
41
1
10
136.926864033855
20
4.81265710616333
30
0
41
1
10
136.989268166876
20
4.43224156799798
30
0
41
1
10
137.114076432918
20
3.66429319640614
30
0
41
1
10
137.176480565939
20
3.27677445199868
30
0
41
1
10
137.301288831981
20
2.50202403448432
30
0
41
1
10
137.363692965001
20
2.11480262624966
30
0
41
1
10
137.488501231043
20
1.34723851403146
30
0
41
1
10
137.550905364064
20
0.966901777967394
30
0
41
1
10
137.644511563596
20
0.405706435221731
30
0
41
1
10
137.675713630106
20
0.220184159230428
30
0
41
1
10
137.722516729872
20
-0.055348782078056
30
0
41
1
10
137.738117763127
20
-0.147218572958451
30
0
41
1
10
137.769319829637
20
-0.332215131195227
30
0
41
1
10
137.784920862893
20
-0.425145604276452
30
0
41
1
10
137.862926029169
20
-0.89177446373003
30
0
41
1
10
137.92533016219
20
-1.27144699860654
30
0
41
1
10
138.050138428232
20
-2.03808356617219
30
0
41
1
10
138.112542561252
20
-2.42504191374272
30
0
41
1
10
138.237350827294
20
-3.19973101678531
30
0
41
1
10
138.299754960315
20
-3.58745178635061
30
0
41
1
10
138.424563226357
20
-4.3563128421759
30
0
41
1
10
138.486967359378
20
-4.73743926185813
30
0
41
1
10
138.61177562542
20
-5.48528514401832
30
0
41
1
10
138.674179758441
20
-5.85198809338689
30
0
41
1
10
138.798988024483
20
-6.56314828541389
30
0
41
1
10
138.861392157504
20
-6.90758830867586
30
0
41
1
10
138.986200423546
20
-7.56688574603515
30
0
41
1
10
139.048604556566
20
-7.8817275402541
30
0
41
1
10
139.173412822608
20
-8.47549517700318
30
0
41
1
10
139.235816955629
20
-8.75440917196693
30
0
41
1
10
139.360625221671
20
-9.27141152493411
30
0
41
1
10
139.423029354692
20
-9.50949334529702
30
0
41
1
10
139.547837620734
20
-9.94162627961293
30
0
41
1
10
139.610241753755
20
-10.1356767335787
30
0
41
1
10
139.735050019796
20
-10.478355651617
30
0
41
1
10
139.797454152817
20
-10.6269888722587
30
0
41
1
10
139.922262418859
20
-10.8791916622979
30
0
41
1
10
139.98466655188
20
-10.9827701291666
30
0
41
1
10
140.109474817922
20
-11.1467609820312
30
0
41
1
10
140.171878950943
20
-11.2071847011132
30
0
41
1
10
140.296687216985
20
-11.2879925470244
30
0
41
1
10
140.359091350006
20
-11.3083887187017
30
0
41
1
10
140.437096516282
20
-11.3113580411815
30
0
41
1
10
140.452697549537
20
-11.3108368904927
30
0
41
1
10
140.483899616048
20
-11.307520986514
30
0
41
1
10
140.530702715813
20
-11.2991269744468
30
0
41
1
10
140.577505815579
20
-11.2801756959219
30
0
41
1
10
140.67111201511
20
-11.2274655561578
30
0
41
1
10
140.733516148131
20
-11.1725495357894
30
0
41
1
10
140.858324414173
20
-11.019925708722
30
0
41
1
10
140.920728547194
20
-10.9222063793645
30
0
41
1
10
140.983132680215
20
-10.8020490324397
30
0
0
SPLINE
5
FC
100
AcDbEntity
8
1
62
256
6
ByLayer
370
13
48
1
60
0
100
AcDbSpline
70
4
71
3
72
66
73
62
40
0
40
0
40
0
40
0
40
0.0312499999999995
40
0.0312499999999995
40
0.0624999999999989
40
0.0624999999999989
40
0.0937499999999984
40
0.0937499999999984
40
0.124999999999998
40
0.124999999999998
40
0.156249999999997
40
0.156249999999997
40
0.187499999999997
40
0.187499999999997
40
0.218749999999996
40
0.218749999999996
40
0.249999999999996
40
0.249999999999996
40
0.281249999999995
40
0.281249999999995
40
0.312499999999995
40
0.312499999999995
40
0.343749999999994
40
0.343749999999994
40
0.374999999999994
40
0.374999999999994
40
0.437499999999993
40
0.437499999999993
40
0.453124999999992
40
0.453124999999992
40
0.460937499999992
40
0.460937499999992
40
0.468749999999992
40
0.468749999999992
40
0.499999999999992
40
0.499999999999992
40
0.562499999999993
40
0.562499999999993
40
0.593749999999994
40
0.593749999999994
40
0.624999999999994
40
0.624999999999994
40
0.656249999999995
40
0.656249999999995
40
0.687499999999995
40
0.687499999999995
40
0.718749999999996
40
0.718749999999996
40
0.749999999999996
40
0.749999999999996
40
0.781249999999997
40
0.781249999999997
40
0.812499999999997
40
0.812499999999997
40
0.843749999999998
40
0.843749999999998
40
0.874999999999998
40
0.874999999999998
40
0.937499999999999
40
0.937499999999999
40
1
40
1
40
1
40
1
41
1
10
130.1
20
-11.0057216734989
30
0
41
1
10
130.152211779012
20
-10.9289069983149
30
0
41
1
10
130.204423558023
20
-10.8368042712101
30
0
41
1
10
130.308847116046
20
-10.6210402089934
30
0
41
1
10
130.361058895058
20
-10.4973753033607
30
0
41
1
10
130.465482453081
20
-10.2182565900823
30
0
41
1
10
130.517694232093
20
-10.0628006263294
30
0
41
1
10
130.622117790116
20
-9.72071846089915
30
0
41
1
10
130.674329569128
20
-9.53409190606897
30
0
41
1
10
130.778753127151
20
-9.13117519611527
30
0
41
1
10
130.830964906162
20
-8.91488669662581
30
0
41
1
10
130.935388464185
20
-8.45502176306172
30
0
41
1
10
130.987600243197
20
-8.21144896018083
30
0
41
1
10
131.09202380122
20
-7.70018043289241
30
0
41
1
10
131.144235580232
20
-7.43249002923773
30
0
41
1
10
131.248659138255
20
-6.87680502745059
30
0
41
1
10
131.300870917266
20
-6.58881693730296
30
0
41
1
10
131.40529447529
20
-5.99682943268508
30
0
41
1
10
131.457506254301
20
-5.69283707485789
30
0
41
1
10
131.561929812324
20
-5.07340200009415
30
0
41
1
10
131.614141591336
20
-4.75796621821968
30
0
41
1
10
131.718565149359
20
-4.12026088197729
30
0
41
1
10
131.770776928371
20
-3.79799754286651
30
0
41
1
10
131.875200486394
20
-3.15110981902544
30
0
41
1
10
131.927412265405
20
-2.8264904831176
30
0
41
1
10
132.08404760244
20
-1.85532840206687
30
0
41
1
10
132.188471160463
20
-1.21175851668806
30
0
41
1
10
132.319000607992
20
-0.429357365504529
30
0
41
1
10
132.345106497498
20
-0.273959178150875
30
0
41
1
10
132.384265331757
20
-0.0427427012278372
30
0
41
1
10
132.39731827651
20
0.0338428118787704
30
0
41
1
10
132.423424166015
20
0.187938725295709
30
0
41
1
10
132.436477110768
20
0.265300650741864
30
0
41
1
10
132.501741834533
20
0.653575780796444
30
0
41
1
10
132.553953613544
20
0.968907765237901
30
0
41
1
10
132.710588950579
20
1.92449373607926
30
0
41
1
10
132.815012508602
20
2.57456851925312
30
0
41
1
10
132.971647845637
20
3.54632074459133
30
0
41
1
10
133.023859624649
20
3.869615615382
30
0
41
1
10
133.128283182672
20
4.51056615005515
30
0
41
1
10
133.180494961683
20
4.82821586601184
30
0
41
1
10
133.284918519707
20
5.45328031535954
30
0
41
1
10
133.337130298718
20
5.76068824807956
30
0
41
1
10
133.441553856741
20
6.36067407863263
30
0
41
1
10
133.493765635753
20
6.65324488817456
30
0
41
1
10
133.598189193776
20
7.21917282213226
30
0
41
1
10
133.650400972788
20
7.49252323152433
30
0
41
1
10
133.754824530811
20
8.01604779858121
30
0
41
1
10
133.807036309822
20
8.26621627176047
30
0
41
1
10
133.911459867846
20
8.74002398875155
30
0
41
1
10
133.963671646857
20
8.96365912542052
30
0
41
1
10
134.06809520488
20
9.38180563730219
30
0
41
1
10
134.120306983892
20
9.57631483037818
30
0
41
1
10
134.224730541915
20
9.93446884317083
30
0
41
1
10
134.276942320927
20
10.0981135052967
30
0
41
1
10
134.38136587895
20
10.3936870036391
30
0
41
1
10
134.433577657961
20
10.5256175591017
30
0
41
1
10
134.590212994996
20
10.873855713505
30
0
41
1
10
134.694636553019
20
11.0422826889875
30
0
41
1
10
134.903483669066
20
11.2607783051974
30
0
41
1
10
135.007907227089
20
11.311
30
0
41
1
10
135.112330785112
20
11.311
30
0
0
SPLINE
5
FD
100
AcDbEntity
8
1
62
256
6
ByLayer
370
13
48
1
60
0
100
AcDbSpline
70
4
71
3
72
79
73
75
40
0
40
0
40
0
40
0
40
0.0312500000000001
40
0.0312500000000001
40
0.0625000000000002
40
0.0625000000000002
40
0.0937500000000003
40
0.0937500000000003
40
0.125
40
0.125
40
0.15625
40
0.15625
40
0.187500000000001
40
0.187500000000001
40
0.218750000000001
40
0.218750000000001
40
0.250000000000001
40
0.250000000000001
40
0.281250000000001
40
0.281250000000001
40
0.312500000000001
40
0.312500000000001
40
0.343750000000001
40
0.343750000000001
40
0.375000000000001
40
0.375000000000001
40
0.406250000000001
40
0.406250000000001
40
0.414062500000001
40
0.417968750000002
40
0.417968750000002
40
0.421875000000002
40
0.421875000000002
40
0.437500000000002
40
0.437500000000002
40
0.468750000000002
40
0.468750000000002
40
0.500000000000002
40
0.500000000000002
40
0.531250000000002
40
0.531250000000002
40
0.562500000000002
40
0.562500000000002
40
0.593750000000003
40
0.593750000000003
40
0.625000000000003
40
0.625000000000003
40
0.656250000000003
40
0.656250000000003
40
0.687500000000003
40
0.687500000000003
40
0.718750000000003
40
0.718750000000003
40
0.750000000000003
40
0.750000000000003
40
0.781250000000003
40
0.781250000000003
40
0.812500000000003
40
0.812500000000003
40
0.828125000000003
40
0.828125000000003
40
0.835937500000003
40
0.835937500000003
40
0.843750000000003
40
0.843750000000003
40
0.875000000000002
40
0.875000000000002
40
0.906250000000002
40
0.906250000000002
40
0.937500000000001
40
0.937500000000001
40
0.968750000000001
40
0.968750000000001
40
1
40
1
40
1
40
1
41
1
10
134.503102373601
20
11.311
30
0
41
1
10
134.570602689295
20
11.311
30
0
41
1
10
134.638103004989
20
11.2900777850848
30
0
41
1
10
134.773103636377
20
11.2013393964311
30
0
41
1
10
134.840603952071
20
11.1335054040782
30
0
41
1
10
134.975604583459
20
10.9470571951487
30
0
41
1
10
135.043104899153
20
10.8284264534325
30
0
41
1
10
135.17810553054
20
10.5382205864279
30
0
41
1
10
135.245605846234
20
10.3666332276412
30
0
41
1
10
135.380606477622
20
9.97051538441033
30
0
41
1
10
135.448106793316
20
9.74597981700055
30
0
41
1
10
135.583107424704
20
9.24640257419441
30
0
41
1
10
135.650607740398
20
8.97136485124423
30
0
41
1
10
135.785608371785
20
8.37567901100508
30
0
41
1
10
135.853108687479
20
8.05504408579657
30
0
41
1
10
135.988109318867
20
7.37526000227584
30
0
41
1
10
136.055609634561
20
7.01613154507405
30
0
41
1
10
136.190610265949
20
6.2681400542001
30
0
41
1
10
136.258110581643
20
5.87930193128022
30
0
41
1
10
136.39311121303
20
5.08165607746898
30
0
41
1
10
136.460611528724
20
4.67287347619154
30
0
41
1
10
136.595612160112
20
3.84532264149704
30
0
41
1
10
136.663112475806
20
3.42657611841463
30
0
41
1
10
136.798113107194
20
2.58858443981919
30
0
41
1
10
136.865613422888
20
2.16935510462994
30
0
41
1
10
137.000614054275
20
1.33881658511808
30
0
41
1
10
137.068114369969
20
0.927516367388876
30
0
41
1
10
137.152489764587
20
0.42270144974043
30
0
41
1
10
137.177802382972
20
0.271949540593454
30
0
41
1
10
137.203115001357
20
0.122341342583553
30
0
41
1
10
137.219990080281
20
0.0228676111184143
30
0
41
1
10
137.228427619742
20
-0.0266726978251199
30
0
41
1
10
137.270615317051
20
-0.275390868750378
30
0
41
1
10
137.304365474898
20
-0.476488202741422
30
0
41
1
10
137.405615948439
20
-1.0850286196742
30
0
41
1
10
137.473116264133
20
-1.49776756051114
30
0
41
1
10
137.60811689552
20
-2.33018085889128
30
0
41
1
10
137.675617211214
20
-2.74984536855075
30
0
41
1
10
137.810617842602
20
-3.58754241012673
30
0
41
1
10
137.878118158296
20
-4.00555828076537
30
0
41
1
10
138.013118789684
20
-4.83038297420714
30
0
41
1
10
138.080619105378
20
-5.23716948019288
30
0
41
1
10
138.215619736765
20
-6.02954340886777
30
0
41
1
10
138.283120052459
20
-6.41510550962229
30
0
41
1
10
138.418120683847
20
-7.1553479087454
30
0
41
1
10
138.485620999541
20
-7.51000361711806
30
0
41
1
10
138.620621630929
20
-8.1798237765349
30
0
41
1
10
138.688121946623
20
-8.49496833064489
30
0
41
1
10
138.82312257801
20
-9.07891243145349
30
0
41
1
10
138.890622893704
20
-9.34769991352778
30
0
41
1
10
139.025623525092
20
-9.83432220758851
30
0
41
1
10
139.093123840786
20
-10.0521542770836
30
0
41
1
10
139.228124472174
20
-10.4347302504822
30
0
41
1
10
139.295624787868
20
-10.5994802879851
30
0
41
1
10
139.430625419256
20
-10.8761744832039
30
0
41
1
10
139.498125734949
20
-10.9881315952493
30
0
41
1
10
139.633126366337
20
-11.1616444691313
30
0
41
1
10
139.700626682031
20
-11.2232170837606
30
0
41
1
10
139.801877155572
20
-11.2808258955488
30
0
41
1
10
139.835627313419
20
-11.2942484889252
30
0
41
1
10
139.886252550189
20
-11.3061751743666
30
0
41
1
10
139.903127629113
20
-11.3087833678479
30
0
41
1
10
139.93687778696
20
-11.3113475332585
30
0
41
1
10
139.953752865883
20
-11.3113144561152
30
0
41
1
10
140.038128260501
20
-11.304565182272
30
0
41
1
10
140.105628576195
20
-11.2778934102615
30
0
41
1
10
140.240629207582
20
-11.1770795073318
30
0
41
1
10
140.308129523276
20
-11.1029195695435
30
0
41
1
10
140.443130154664
20
-10.9034352996261
30
0
41
1
10
140.510630470358
20
-10.7780948202018
30
0
41
1
10
140.645631101746
20
-10.4743408865174
30
0
41
1
10
140.713131417439
20
-10.2959159677534
30
0
41
1
10
140.848132048827
20
-9.88629614608902
30
0
41
1
10
140.915632364521
20
-9.65509724284769
30
0
41
1
10
140.983132680215
20
-9.39889170628388
30
0
0
SPLINE
5
FE
100
AcDbEntity
8
1
62
256
6
ByLayer
370
13
48
1
60
0
100
AcDbSpline
70
4
71
3
72
42
73
38
40
0
40
0
40
0
40
0
40
0.0624999999999995
40
0.0624999999999995
40
0.124999999999999
40
0.124999999999999
40
0.187499999999999
40
0.187499999999999
40
0.249999999999998
40
0.249999999999998
40
0.312499999999998
40
0.312499999999998
40
0.374999999999998
40
0.374999999999998
40
0.390624999999998
40
0.390624999999998
40
0.406249999999998
40
0.406249999999998
40
0.437499999999998
40
0.437499999999998
40
0.499999999999999
40
0.499999999999999
40
0.562499999999999
40
0.562499999999999
40
0.624999999999999
40
0.624999999999999
40
0.687499999999999
40
0.687499999999999
40
0.749999999999999
40
0.749999999999999
40
0.812499999999999
40
0.812499999999999
40
0.875
40
0.875
40
0.9375
40
0.9375
40
1
40
1
40
1
40
1
41
1
10
130.1
20
-9.82773513196608
30
0
41
1
10
130.194231192677
20
-9.51213215721279
30
0
41
1
10
130.288462385354
20
-9.1457228279651
30
0
41
1
10
130.476924770709
20
-8.32284608920403
30
0
41
1
10
130.571155963386
20
-7.86644506527503
30
0
41
1
10
130.759618348741
20
-6.88359662860304
30
0
41
1
10
130.853849541418
20
-6.35726761658964
30
0
41
1
10
131.042311926772
20
-5.26017570647323
30
0
41
1
10
131.136543119449
20
-4.68954689684278
30
0
41
1
10
131.325005504804
20
-3.53112920263817
30
0
41
1
10
131.419236697481
20
-2.9434516737499
30
0
41
1
10
131.607699082836
20
-1.77604902966408
30
0
41
1
10
131.701930275513
20
-1.19638914808206
30
0
41
1
10
131.819719266359
20
-0.489428819356988
30
0
41
1
10
131.843277064529
20
-0.348903477327468
30
0
41
1
10
131.890392660867
20
-0.0698426140988033
30
0
41
1
10
131.913950459037
20
0.0681624367484801
30
0
41
1
10
131.984623853544
20
0.486729674045478
30
0
41
1
10
132.031739449883
20
0.769768012755634
30
0
41
1
10
132.173086238899
20
1.62764534166118
30
0
41
1
10
132.267317431576
20
2.2114107555272
30
0
41
1
10
132.455779816931
20
3.38117206979487
30
0
41
1
10
132.550011009608
20
3.96709022598895
30
0
41
1
10
132.738473394962
20
5.11528173877821
30
0
41
1
10
132.83270458764
20
5.67743510471794
30
0
41
1
10
133.021166972994
20
6.75088270251322
30
0
41
1
10
133.115398165671
20
7.26204289096876
30
0
41
1
10
133.303860551026
20
8.20888881455897
30
0
41
1
10
133.398091743703
20
8.64446623556779
30
0
41
1
10
133.586554129057
20
9.42192252612332
30
0
41
1
10
133.680785321735
20
9.76375151971749
30
0
41
1
10
133.869247707089
20
10.3443608737625
30
0
41
1
10
133.963478899766
20
10.5831593133203
30
0
41
1
10
134.151941285121
20
10.9577191505663
30
0
41
1
10
134.246172477798
20
11.0935507580284
30
0
41
1
10
134.434634863152
20
11.2701447436827
30
0
41
1
10
134.52886605583
20
11.311
30
0
41
1
10
134.623097248507
20
11.311
30
0
0
SPLINE
5
FF
100
AcDbEntity
8
1
62
256
6
ByLayer
370
13
48
1
60
0
100
AcDbSpline
70
4
71
3
72
76
73
72
40
0
40
0
40
0
40
0
40
0.0312500000000005
40
0.0312500000000005
40
0.0625000000000009
40
0.0625000000000009
40
0.0937500000000014
40
0.0937500000000014
40
0.125000000000002
40
0.125000000000002
40
0.156250000000002
40
0.156250000000002
40
0.187500000000003
40
0.187500000000003
40
0.218750000000003
40
0.218750000000003
40
0.250000000000003
40
0.250000000000003
40
0.281250000000004
40
0.281250000000004
40
0.312500000000004
40
0.312500000000004
40
0.343750000000004
40
0.343750000000004
40
0.375000000000005
40
0.375000000000005
40
0.390625000000005
40
0.390625000000005
40
0.406250000000005
40
0.406250000000005
40
0.437500000000005
40
0.437500000000005
40
0.468750000000005
40
0.468750000000005
40
0.500000000000005
40
0.500000000000005
40
0.531250000000005
40
0.531250000000005
40
0.562500000000005
40
0.562500000000005
40
0.593750000000005
40
0.593750000000005
40
0.625000000000005
40
0.625000000000005
40
0.656250000000005
40
0.656250000000005
40
0.687500000000005
40
0.687500000000005
40
0.718750000000005
40
0.718750000000005
40
0.750000000000005
40
0.750000000000005
40
0.765625000000005
40
0.765625000000005
40
0.773437500000005
40
0.773437500000005
40
0.781250000000005
40
0.781250000000005
40
0.812500000000004
40
0.812500000000004
40
0.843750000000003
40
0.843750000000003
40
0.875000000000003
40
0.875000000000003
40
0.906250000000002
40
0.906250000000002
40
0.937500000000001
40
0.937500000000001
40
0.968750000000001
40
0.968750000000001
40
1
40
1
40
1
40
1
41
1
10
134.013868836996
20
11.311
30
0
41
1
10
134.086465335363
20
11.311
30
0
41
1
10
134.15906183373
20
11.2867917973425
30
0
41
1
10
134.304254830464
20
11.1837240695466
30
0
41
1
10
134.376851328831
20
11.1048389342406
30
0
41
1
10
134.522044325565
20
10.8877890700001
30
0
41
1
10
134.594640823931
20
10.7496012432284
30
0
41
1
10
134.739833820665
20
10.4117205002877
30
0
41
1
10
134.812430319032
20
10.2120120114342
30
0
41
1
10
134.957623315766
20
9.75186703736455
30
0
41
1
10
135.030219814132
20
9.49142698954739
30
0
41
1
10
135.175412810866
20
8.91390173600843
30
0
41
1
10
135.248009309233
20
8.59682734767597
30
0
41
1
10
135.393202305967
20
7.91331959862885
30
0
41
1
10
135.465798804334
20
7.54691055414713
30
0
41
1
10
135.610991801067
20
6.77468915990815
30
0
41
1
10
135.683588299434
20
6.368910447818
30
0
41
1
10
135.828781296168
20
5.5296864988855
30
0
41
1
10
135.901377794535
20
5.09627794152522
30
0
41
1
10
136.046570791268
20
4.2142318648643
30
0
41
1
10
136.119167289635
20
3.76562761582355
30
0
41
1
10
136.264360286369
20
2.86525494913451
30
0
41
1
10
136.336956784736
20
2.4135115713529
30
0
41
1
10
136.48214978147
20
1.51766142631377
30
0
41
1
10
136.554746279837
20
1.07356924268177
30
0
41
1
10
136.663641027387
20
0.419860650539988
30
0
41
1
10
136.69993927657
20
0.204156055699656
30
0
41
1
10
136.772535774937
20
-0.222802562828065
30
0
41
1
10
136.808834024121
20
-0.438782999873098
30
0
41
1
10
136.917728771671
20
-1.0928485390836
30
0
41
1
10
136.990325270038
20
-1.53712117210372
30
0
41
1
10
137.135518266771
20
-2.43318757418155
30
0
41
1
10
137.208114765138
20
-2.88496660415058
30
0
41
1
10
137.353307761872
20
-3.78524241866248
30
0
41
1
10
137.425904260239
20
-4.23371402084652
30
0
41
1
10
137.571097256973
20
-5.11531410838916
30
0
41
1
10
137.643693755339
20
-5.54840923363224
30
0
41
1
10
137.788886752073
20
-6.38682770056803
30
0
41
1
10
137.86148325044
20
-6.79211435875777
30
0
41
1
10
138.006676247174
20
-7.56319124424382
30
0
41
1
10
138.079272745541
20
-7.92894792747873
30
0
41
1
10
138.224465742274
20
-8.6110235840822
30
0
41
1
10
138.297062240641
20
-8.92731841489541
30
0
41
1
10
138.442255237375
20
-9.50320092258039
30
0
41
1
10
138.514851735742
20
-9.76277799369231
30
0
41
1
10
138.660044732476
20
-10.2211618703691
30
0
41
1
10
138.732641230842
20
-10.4199724373082
30
0
41
1
10
138.877834227576
20
-10.7560690747819
30
0
41
1
10
138.950430725943
20
-10.8933708629658
30
0
41
1
10
139.095623722677
20
-11.1087003678781
30
0
41
1
10
139.168220221044
20
-11.1867512543689
30
0
41
1
10
139.277114968594
20
-11.2628617937629
30
0
41
1
10
139.313413217777
20
-11.2814208093255
30
0
41
1
10
139.367860591552
20
-11.2995983523011
30
0
41
1
10
139.386009716144
20
-11.3040480981781
30
0
41
1
10
139.422307965327
20
-11.3098290795712
30
0
41
1
10
139.440457089919
20
-11.3111606785084
30
0
41
1
10
139.531202712878
20
-11.310280411497
30
0
41
1
10
139.603799211245
20
-11.2853181055402
30
0
41
1
10
139.748992207978
20
-11.180661028118
30
0
41
1
10
139.821588706345
20
-11.1009406497735
30
0
41
1
10
139.966781703079
20
-10.8821689497385
30
0
41
1
10
140.039378201446
20
-10.7430946032236
30
0
41
1
10
140.184571198179
20
-10.4034294343761
30
0
41
1
10
140.257167696546
20
-10.2028231853047
30
0
41
1
10
140.40236069328
20
-9.74091814541003
30
0
41
1
10
140.474957191647
20
-9.4796159912832
30
0
41
1
10
140.620150188381
20
-8.90045041965865
30
0
41
1
10
140.692746686748
20
-8.58259803099418
30
0
41
1
10
140.837939683481
20
-7.89766187627527
30
0
41
1
10
140.910536181848
20
-7.53060259922341
30
0
41
1
10
140.983132680215
20
-7.14392196693905
30
0
0
SPLINE
5
100
100
AcDbEntity
8
1
62
256
6
ByLayer
370
13
48
1
60
0
100
AcDbSpline
70
4
71
3
72
44
73
40
40
0
40
0
40
0
40
0
40
0.0625000000000032
40
0.0625000000000032
40
0.125000000000006
40
0.125000000000006
40
0.187500000000009
40
0.187500000000009
40
0.250000000000013
40
0.250000000000013
40
0.312500000000016
40
0.312500000000016
40
0.320312500000016
40
0.320312500000016
40
0.328125000000015
40
0.328125000000015
40
0.343750000000015
40
0.343750000000015
40
0.375000000000014
40
0.375000000000014
40
0.437500000000013
40
0.437500000000013
40
0.500000000000011
40
0.500000000000011
40
0.56250000000001
40
0.56250000000001
40
0.625000000000008
40
0.625000000000008
40
0.687500000000007
40
0.687500000000007
40
0.750000000000006
40
0.750000000000006
40
0.812500000000004
40
0.812500000000004
40
0.875000000000003
40
0.875000000000003
40
0.937500000000001
40
0.937500000000001
40
1
40
1
40
1
40
1
41
1
10
130.1
20
-7.76438394356373
30
0
41
1
10
130.184038827331
20
-7.34353719457869
30
0
41
1
10
130.268077654663
20
-6.8925276574868
30
0
41
1
10
130.436155309325
20
-5.9472160418328
30
0
41
1
10
130.520194136656
20
-5.45298924203962
30
0
41
1
10
130.688271791319
20
-4.44041540472781
30
0
41
1
10
130.77231061865
20
-3.92213994491351
30
0
41
1
10
130.940388273313
20
-2.88038561830203
30
0
41
1
10
131.024427100644
20
-2.35696001049766
30
0
41
1
10
131.192504755307
20
-1.32164362523289
30
0
41
1
10
131.276543582638
20
-0.809781101658103
30
0
41
1
10
131.371087263386
20
-0.247916095726083
30
0
41
1
10
131.381592116802
20
-0.185678402722686
30
0
41
1
10
131.402601823635
20
-0.0616082257121491
30
0
41
1
10
131.413106677051
20
8.45837514305E-05
30
0
41
1
10
131.444621237301
20
0.185783249997257
30
0
41
1
10
131.465630944133
20
0.310407231851428
30
0
41
1
10
131.528660064632
20
0.686491412253105
30
0
41
1
10
131.570679478298
20
0.940171280537584
30
0
41
1
10
131.696737719295
20
1.70771168882405
30
0
41
1
10
131.780776546626
20
2.22817595990034
30
0
41
1
10
131.948854201288
20
3.27131163822764
30
0
41
1
10
132.03289302862
20
3.79393988942951
30
0
41
1
10
132.200970683282
20
4.82323904636493
30
0
41
1
10
132.285009510614
20
5.32984463044841
30
0
41
1
10
132.453087165276
20
6.30778714997237
30
0
41
1
10
132.537125992607
20
6.77904819623163
30
0
41
1
10
132.70520364727
20
7.66801465539857
30
0
41
1
10
132.789242474601
20
8.08565109587943
30
0
41
1
10
132.957320129264
20
8.85234957631812
30
0
41
1
10
133.041358956595
20
9.20136661990699
30
0
41
1
10
133.209436611258
20
9.82084737335589
30
0
41
1
10
133.293475438589
20
10.0912998033809
30
0
41
1
10
133.461553093251
20
10.549584553522
30
0
41
1
10
133.545591920583
20
10.7374382802112
30
0
41
1
10
133.713669575245
20
11.0322048630997
30
0
41
1
10
133.797708402577
20
11.1391617697477
30
0
41
1
10
133.965786057239
20
11.2785328812776
30
0
41
1
10
134.049824884571
20
11.311
30
0
41
1
10
134.133863711902
20
11.311
30
0
0
SPLINE
5
101
100
AcDbEntity
8
1
62
256
6
ByLayer
370
13
48
1
60
0
100
AcDbSpline
70
4
71
3
72
8
73
4
40
0
40
0
40
0
40
0
40
1
40
1
40
1
40
1
41
1
10
140.983132680215
20
6.52311825767347
30
0
41
1
10
142.35542178681
20
4.33606480755867
30
0
41
1
10
143.727710893405
20
2.16167366456352
30
0
41
1
10
145.1
20
-2.558E-13
30
0
0
SPLINE
5
102
100
AcDbEntity
8
1
62
256
6
ByLayer
370
13
48
1
60
0
100
AcDbSpline
70
4
71
3
72
8
73
4
40
0
40
0
40
0
40
0
40
1
40
1
40
1
40
1
41
1
10
140.983132680215
20
-10.9160387583565
30
0
41
1
10
142.35542178681
20
-7.28142513745433
30
0
41
1
10
143.727710893405
20
-3.6427147046376
30
0
41
1
10
145.1
20
-1.705E-13
30
0
0
SPLINE
5
103
100
AcDbEntity
8
1
62
256
6
ByLayer
370
13
48
1
60
0
100
AcDbSpline
70
4
71
3
72
8
73
4
40
0
40
0
40
0
40
0
40
1
40
1
40
1
40
1
41
1
10
140.983132680215
20
2.15061209039394
30
0
41
1
10
142.35542178681
20
1.4489802046472
30
0
41
1
10
143.727710893405
20
0.732103389835629
30
0
41
1
10
145.1
20
-8.53E-14
30
0
0
SPLINE
5
104
100
AcDbEntity
8
1
62
256
6
ByLayer
370
13
48
1
60
0
100
AcDbSpline
70
4
71
3
72
8
73
4
40
0
40
0
40
0
40
0
40
1
40
1
40
1
40
1
41
1
10
140.983132680215
20
6.55426206496176
30
0
41
1
10
142.35542178681
20
4.38215846271379
30
0
41
1
10
143.727710893405
20
2.19738589109434
30
0
41
1
10
145.1
20
-8.53E-14
30
0
0
SPLINE
5
105
100
AcDbEntity
8
1
62
256
6
ByLayer
370
13
48
1
60
0
100
AcDbSpline
70
4
71
3
72
8
73
4
40
0
40
0
40
0
40
0
40
1
40
1
40
1
40
1
41
1
10
140.983132680215
20
10.762896534927
30
0
41
1
10
142.35542178681
20
7.18003763090522
30
0
41
1
10
143.727710893405
20
3.59237503649064
30
0
41
1
10
145.1
20
2.84E-14
30
0
0
SPLINE
5
106
100
AcDbEntity
8
1
62
256
6
ByLayer
370
13
48
1
60
0
100
AcDbSpline
70
4
71
3
72
8
73
4
40
0
40
0
40
0
40
0
40
1
40
1
40
1
40
1
41
1
10
140.983132680215
20
8.33201902885497
30
0
41
1
10
142.35542178681
20
5.5441819077825
30
0
41
1
10
143.727710893405
20
2.76681872517864
30
0
41
1
10
145.1
20
-3.411E-13
30
0
0
SPLINE
5
107
100
AcDbEntity
8
1
62
256
6
ByLayer
370
13
48
1
60
0
100
AcDbSpline
70
4
71
3
72
8
73
4
40
0
40
0
40
0
40
0
40
1
40
1
40
1
40
1
41
1
10
140.983132680215
20
9.78219925821566
30
0
41
1
10
142.35542178681
20
6.52925894981391
30
0
41
1
10
143.727710893405
20
3.26849820934356
30
0
41
1
10
145.1
20
2.84E-14
30
0
0
SPLINE
5
108
100
AcDbEntity
8
1
62
256
6
ByLayer
370
13
48
1
60
0
100
AcDbSpline
70
4
71
3
72
8
73
4
40
0
40
0
40
0
40
0
40
1
40
1
40
1
40
1
41
1
10
140.983132680215
20
-10.0410178835494
30
0
41
1
10
142.35542178681
20
-6.7011579366644
30
0
41
1
10
143.727710893405
20
-3.35412359180876
30
0
41
1
10
145.1
20
-1.705E-13
30
0
0
SPLINE
5
109
100
AcDbEntity
8
1
62
256
6
ByLayer
370
13
48
1
60
0
100
AcDbSpline
70
4
71
3
72
8
73
4
40
0
40
0
40
0
40
0
40
1
40
1
40
1
40
1
41
1
10
140.983132680215
20
0.955857423657847
30
0
41
1
10
142.35542178681
20
0.652704720835061
30
0
41
1
10
143.727710893405
20
0.334082835856918
30
0
41
1
10
145.1
20
-2.84E-14
30
0
0
SPLINE
5
10A
100
AcDbEntity
8
1
62
256
6
ByLayer
370
13
48
1
60
0
100
AcDbSpline
70
4
71
3
72
8
73
4
40
0
40
0
40
0
40
0
40
1
40
1
40
1
40
1
41
1
10
140.983132680215
20
-11.2959110715693
30
0
41
1
10
142.35542178681
20
-7.53140886610032
30
0
41
1
10
143.727710893405
20
-3.76607326505183
30
0
41
1
10
145.1
20
-1.705E-13
30
0
0
SPLINE
5
10B
100
AcDbEntity
8
1
62
256
6
ByLayer
370
13
48
1
60
0
100
AcDbSpline
70
4
71
3
72
8
73
4
40
0
40
0
40
0
40
0
40
1
40
1
40
1
40
1
41
1
10
140.983132680215
20
-2.67591690207575
30
0
41
1
10
142.35542178681
20
-1.79902593940011
30
0
41
1
10
143.727710893405
20
-0.907046037278292
30
0
41
1
10
145.1
20
1.137E-13
30
0
0
SPLINE
5
10C
100
AcDbEntity
8
1
62
256
6
ByLayer
370
13
48
1
60
0
100
AcDbSpline
70
4
71
3
72
8
73
4
40
0
40
0
40
0
40
0
40
1
40
1
40
1
40
1
41
1
10
140.983132680215
20
11.0721015705796
30
0
41
1
10
142.35542178681
20
7.38457435629016
30
0
41
1
10
143.727710893405
20
3.69384254774693
30
0
41
1
10
145.1
20
2.84E-14
30
0
0
SPLINE
5
10D
100
AcDbEntity
8
1
62
256
6
ByLayer
370
13
48
1
60
0
100
AcDbSpline
70
4
71
3
72
8
73
4
40
0
40
0
40
0
40
0
40
1
40
1
40
1
40
1
41
1
10
140.983132680215
20
4.45344050525529
30
0
41
1
10
142.35542178681
20
2.98322855328226
30
0
41
1
10
143.727710893405
20
1.49873576464952
30
0
41
1
10
145.1
20
-5.68E-14
30
0
0
SPLINE
5
10E
100
AcDbEntity
8
1
62
256
6
ByLayer
370
13
48
1
60
0
100
AcDbSpline
70
4
71
3
72
8
73
4
40
0
40
0
40
0
40
0
40
1
40
1
40
1
40
1
41
1
10
140.983132680215
20
-1.45255201437672
30
0
41
1
10
142.35542178681
20
-0.95297457016602
30
0
41
1
10
143.727710893405
20
-0.468786505742713
30
0
41
1
10
145.1
20
5.68E-14
30
0
0
SPLINE
5
10F
100
AcDbEntity
8
1
62
256
6
ByLayer
370
13
48
1
60
0
100
AcDbSpline
70
4
71
3
72
8
73
4
40
0
40
0
40
0
40
0
40
1
40
1
40
1
40
1
41
1
10
140.983132680215
20
-10.5245277860823
30
0
41
1
10
142.35542178681
20
-7.01066504167801
30
0
41
1
10
143.727710893405
20
-3.50245939976068
30
0
41
1
10
145.1
20
-1.705E-13
30
0
0
SPLINE
5
110
100
AcDbEntity
8
1
62
256
6
ByLayer
370
13
48
1
60
0
100
AcDbSpline
70
4
71
3
72
8
73
4
40
0
40
0
40
0
40
0
40
1
40
1
40
1
40
1
41
1
10
140.983132680215
20
11.0642355906313
30
0
41
1
10
142.35542178681
20
7.37293249876643
30
0
41
1
10
143.727710893405
20
3.68482272383156
30
0
41
1
10
145.1
20
7.958E-13
30
0
0
SPLINE
5
111
100
AcDbEntity
8
1
62
256
6
ByLayer
370
13
48
1
60
0
100
AcDbSpline
70
4
71
3
72
8
73
4
40
0
40
0
40
0
40
0
40
1
40
1
40
1
40
1
41
1
10
140.983132680215
20
-7.8926244512727
30
0
41
1
10
142.35542178681
20
-5.27286815733237
30
0
41
1
10
143.727710893405
20
-2.64197101404792
30
0
41
1
10
145.1
20
-1.137E-13
30
0
0
SPLINE
5
112
100
AcDbEntity
8
1
62
256
6
ByLayer
370
13
48
1
60
0
100
AcDbSpline
70
4
71
3
72
8
73
4
40
0
40
0
40
0
40
0
40
1
40
1
40
1
40
1
41
1
10
140.983132680215
20
10.3156963064737
30
0
41
1
10
142.35542178681
20
6.87076411046195
30
0
41
1
10
143.727710893405
20
3.43216955356684
30
0
41
1
10
145.100000000001
20
-1.5348E-12
30
0
0
SPLINE
5
113
100
AcDbEntity
8
1
62
256
6
ByLayer
370
13
48
1
60
0
100
AcDbSpline
70
4
71
3
72
8
73
4
40
0
40
0
40
0
40
0
40
1
40
1
40
1
40
1
41
1
10
140.983132680215
20
-11.1694860894158
30
0
41
1
10
142.35542178681
20
-7.44877170236617
30
0
41
1
10
143.727710893405
20
-3.72557811450599
30
0
41
1
10
145.1
20
-1.705E-13
30
0
0
SPLINE
5
114
100
AcDbEntity
8
1
62
256
6
ByLayer
370
13
48
1
60
0
100
AcDbSpline
70
4
71
3
72
8
73
4
40
0
40
0
40
0
40
0
40
1
40
1
40
1
40
1
41
1
10
140.983132680215
20
-5.96545262580713
30
0
41
1
10
142.35542178681
20
-3.9637807191782
30
0
41
1
10
143.727710893405
20
-1.9752796968435
30
0
41
1
10
145.1
20
-8.53E-14
30
0
0
SPLINE
5
115
100
AcDbEntity
8
1
62
256
6
ByLayer
370
13
48
1
60
0
100
AcDbSpline
70
4
71
3
72
8
73
4
40
0
40
0
40
0
40
0
40
1
40
1
40
1
40
1
41
1
10
140.983132680215
20
-5.99784628652696
30
0
41
1
10
142.35542178681
20
-4.01172419033412
30
0
41
1
10
143.727710893405
20
-2.0124251151623
30
0
41
1
10
145.1
20
2.274E-13
30
0
0
SPLINE
5
116
100
AcDbEntity
8
1
62
256
6
ByLayer
370
13
48
1
60
0
100
AcDbSpline
70
4
71
3
72
8
73
4
40
0
40
0
40
0
40
0
40
1
40
1
40
1
40
1
41
1
10
140.983132680215
20
-3.79507408644631
30
0
41
1
10
142.35542178681
20
-2.51542719276674
30
0
41
1
10
143.727710893405
20
-1.25039181840745
30
0
41
1
10
145.1
20
-5.68E-14
30
0
0
SPLINE
5
117
100
AcDbEntity
8
1
62
256
6
ByLayer
370
13
48
1
60
0
100
AcDbSpline
70
4
71
3
72
8
73
4
40
0
40
0
40
0
40
0
40
1
40
1
40
1
40
1
41
1
10
140.983132680215
20
7.49866144903891
30
0
41
1
10
142.35542178681
20
5.01072832054717
30
0
41
1
10
143.727710893405
20
2.51115328944047
30
0
41
1
10
145.1
20
-8.53E-14
30
0
0
SPLINE
5
118
100
AcDbEntity
8
1
62
256
6
ByLayer
370
13
48
1
60
0
100
AcDbSpline
70
4
71
3
72
8
73
4
40
0
40
0
40
0
40
0
40
1
40
1
40
1
40
1
41
1
10
140.983132680215
20
3.28440520702034
30
0
41
1
10
142.35542178681
20
2.17475029409749
30
0
41
1
10
143.727710893405
20
1.07993932271737
30
0
41
1
10
145.1
20
-1.421E-13
30
0
0
SPLINE
5
119
100
AcDbEntity
8
1
62
256
6
ByLayer
370
13
48
1
60
0
100
AcDbSpline
70
4
71
3
72
8
73
4
40
0
40
0
40
0
40
0
40
1
40
1
40
1
40
1
41
1
10
140.983132680215
20
-4.94253074579728
30
0
41
1
10
142.35542178681
20
-3.30898215542916
30
0
41
1
10
143.727710893405
20
-1.6614579059181
30
0
41
1
10
145.1
20
1.99E-13
30
0
0
SPLINE
5
11A
100
AcDbEntity
8
1
62
256
6
ByLayer
370
13
48
1
60
0
100
AcDbSpline
70
4
71
3
72
8
73
4
40
0
40
0
40
0
40
0
40
1
40
1
40
1
40
1
41
1
10
140.983132680215
20
0.917821096189016
30
0
41
1
10
142.35542178681
20
0.596409954255051
30
0
41
1
10
143.727710893405
20
0.290467039933702
30
0
41
1
10
145.100000000001
20
-1.421E-13
30
0
0
SPLINE
5
11B
100
AcDbEntity
8
1
62
256
6
ByLayer
370
13
48
1
60
0
100
AcDbSpline
70
4
71
3
72
8
73
4
40
0
40
0
40
0
40
0
40
1
40
1
40
1
40
1
41
1
10
140.983132680215
20
-4.90817187021588
30
0
41
1
10
142.35542178681
20
-3.25813011451157
30
0
41
1
10
143.727710893405
20
-1.62205899952454
30
0
41
1
10
145.1
20
5.68E-14
30
0
0
SPLINE
5
11C
100
AcDbEntity
8
1
62
256
6
ByLayer
370
13
48
1
60
0
100
AcDbSpline
70
4
71
3
72
8
73
4
40
0
40
0
40
0
40
0
40
1
40
1
40
1
40
1
41
1
10
140.983132680215
20
-11.2938759664945
30
0
41
1
10
142.35542178681
20
-7.52839685698237
30
0
41
1
10
143.727710893405
20
-3.76373963471656
30
0
41
1
10
145.1
20
-1.705E-13
30
0
0
SPLINE
5
11D
100
AcDbEntity
8
1
62
256
6
ByLayer
370
13
48
1
60
0
100
AcDbSpline
70
4
71
3
72
8
73
4
40
0
40
0
40
0
40
0
40
1
40
1
40
1
40
1
41
1
10
140.983132680215
20
-6.9548926769337
30
0
41
1
10
142.35542178681
20
-4.62435416152363
30
0
41
1
10
143.727710893405
20
-2.30603699120633
30
0
41
1
10
145.1
20
-1.137E-13
30
0
0
SPLINE
5
11E
100
AcDbEntity
8
1
62
256
6
ByLayer
370
13
48
1
60
0
100
AcDbSpline
70
4
71
3
72
8
73
4
40
0
40
0
40
0
40
0
40
1
40
1
40
1
40
1
41
1
10
140.983132680215
20
-10.9059786885506
30
0
41
1
10
142.35542178681
20
-7.2665359691463
30
0
41
1
10
143.727710893405
20
-3.63117894446236
30
0
41
1
10
145.1
20
-1.705E-13
30
0
0
SPLINE
5
11F
100
AcDbEntity
8
1
62
256
6
ByLayer
370
13
48
1
60
0
100
AcDbSpline
70
4
71
3
72
8
73
4
40
0
40
0
40
0
40
0
40
1
40
1
40
1
40
1
41
1
10
140.983132680215
20
11.255391739822
30
0
41
1
10
142.35542178681
20
7.50513174969004
30
0
41
1
10
143.727710893405
20
3.75330270493635
30
0
41
1
10
145.1
20
2.84E-14
30
0
0
SPLINE
5
120
100
AcDbEntity
8
1
62
256
6
ByLayer
370
13
48
1
60
0
100
AcDbSpline
70
4
71
3
72
8
73
4
40
0
40
0
40
0
40
0
40
1
40
1
40
1
40
1
41
1
10
140.983132680215
20
9.76298167352002
30
0
41
1
10
142.35542178681
20
6.50081641824818
30
0
41
1
10
143.727710893405
20
3.24646163778172
30
0
41
1
10
145.1
20
6.821E-13
30
0
0
SPLINE
5
121
100
AcDbEntity
8
1
62
256
6
ByLayer
370
13
48
1
60
0
100
AcDbSpline
70
4
71
3
72
8
73
4
40
0
40
0
40
0
40
0
40
1
40
1
40
1
40
1
41
1
10
140.983132680215
20
-7.8652398497363
30
0
41
1
10
142.35542178681
20
-5.23233822571265
30
0
41
1
10
143.727710893405
20
-2.61056942321275
30
0
41
1
10
145.1
20
-1.137E-13
30
0
0
SPLINE
5
122
100
AcDbEntity
8
1
62
256
6
ByLayer
370
13
48
1
60
0
100
AcDbSpline
70
4
71
3
72
8
73
4
40
0
40
0
40
0
40
0
40
1
40
1
40
1
40
1
41
1
10
140.983132680215
20
-8.71053915703985
30
0
41
1
10
142.35542178681
20
-5.81692802679967
30
0
41
1
10
143.727710893405
20
-2.91339034128163
30
0
41
1
10
145.1
20
-1.421E-13
30
0
0
SPLINE
5
123
100
AcDbEntity
8
1
62
256
6
ByLayer
370
13
48
1
60
0
100
AcDbSpline
70
4
71
3
72
8
73
4
40
0
40
0
40
0
40
0
40
1
40
1
40
1
40
1
41
1
10
140.983132680215
20
-10.0233891710541
30
0
41
1
10
142.35542178681
20
-6.67506697780823
30
0
41
1
10
143.727710893405
20
-3.33390896075076
30
0
41
1
10
145.1
20
-1.705E-13
30
0
0
SPLINE
5
124
100
AcDbEntity
8
1
62
256
6
ByLayer
370
13
48
1
60
0
100
AcDbSpline
70
4
71
3
72
8
73
4
40
0
40
0
40
0
40
0
40
1
40
1
40
1
40
1
41
1
10
140.983132680215
20
-0.287924192417705
30
0
41
1
10
142.35542178681
20
-0.207466394005536
30
0
41
1
10
143.727710893405
20
-0.111490806050597
30
0
41
1
10
145.1
20
0
30
0
0
SPLINE
5
125
100
AcDbEntity
8
1
62
256
6
ByLayer
370
13
48
1
60
0
100
AcDbSpline
70
4
71
3
72
8
73
4
40
0
40
0
40
0
40
0
40
1
40
1
40
1
40
1
41
1
10
140.983132680215
20
4.41833060903616
30
0
41
1
10
142.35542178681
20
2.9312649820377
30
0
41
1
10
143.727710893405
20
1.45847567198845
30
0
41
1
10
145.1
20
-1.705E-13
30
0
0
SPLINE
5
126
100
AcDbEntity
8
1
62
256
6
ByLayer
370
13
48
1
60
0
100
AcDbSpline
70
4
71
3
72
8
73
4
40
0
40
0
40
0
40
0
40
1
40
1
40
1
40
1
41
1
10
140.983132680215
20
-2.63881771678726
30
0
41
1
10
142.35542178681
20
-1.74411816793264
30
0
41
1
10
143.727710893405
20
-0.864504850940591
30
0
41
1
10
145.1
20
2.84E-14
30
0
0
SPLINE
5
127
100
AcDbEntity
8
1
62
256
6
ByLayer
370
13
48
1
60
0
100
AcDbSpline
70
4
71
3
72
8
73
4
40
0
40
0
40
0
40
0
40
1
40
1
40
1
40
1
41
1
10
140.983132680215
20
11.2515476551895
30
0
41
1
10
142.35542178681
20
7.49944240317529
30
0
41
1
10
143.727710893405
20
3.74889473965621
30
0
41
1
10
145.1
20
-4.547E-13
30
0
0
SPLINE
5
128
100
AcDbEntity
8
1
62
256
6
ByLayer
370
13
48
1
60
0
100
AcDbSpline
70
4
71
3
72
8
73
4
40
0
40
0
40
0
40
0
40
1
40
1
40
1
40
1
41
1
10
140.983132680215
20
7.47004430267054
30
0
41
1
10
142.35542178681
20
4.96837419010899
30
0
41
1
10
143.727710893405
20
2.47833835437763
30
0
41
1
10
145.1
20
-2.842E-13
30
0
0
SPLINE
5
129
100
AcDbEntity
8
1
62
256
6
ByLayer
370
13
48
1
60
0
100
AcDbSpline
70
4
71
3
72
8
73
4
40
0
40
0
40
0
40
0
40
1
40
1
40
1
40
1
41
1
10
140.983132680215
20
-10.5384513484492
30
0
41
1
10
142.35542178681
20
-7.03127228074561
30
0
41
1
10
143.727710893405
20
-3.51842538005184
30
0
41
1
10
145.1
20
-1.705E-13
30
0
0
SPLINE
5
12A
100
AcDbEntity
8
1
62
256
6
ByLayer
370
13
48
1
60
0
100
AcDbSpline
70
4
71
3
72
8
73
4
40
0
40
0
40
0
40
0
40
1
40
1
40
1
40
1
41
1
10
140.983132680215
20
-3.83100743867223
30
0
41
1
10
142.35542178681
20
-2.56860950059195
30
0
41
1
10
143.727710893405
20
-1.29159615809547
30
0
41
1
10
145.1
20
1.421E-13
30
0
0
SPLINE
5
12B
100
AcDbEntity
8
1
62
256
6
ByLayer
370
13
48
1
60
0
100
AcDbSpline
70
4
71
3
72
8
73
4
40
0
40
0
40
0
40
0
40
1
40
1
40
1
40
1
41
1
10
140.983132680215
20
5.53532587980266
30
0
41
1
10
142.35542178681
20
3.703753540245
30
0
41
1
10
143.727710893405
20
1.85862923942855
30
0
41
1
10
145.1
20
-5.68E-14
30
0
0
SPLINE
5
12C
100
AcDbEntity
8
1
62
256
6
ByLayer
370
13
48
1
60
0
100
AcDbSpline
70
4
71
3
72
8
73
4
40
0
40
0
40
0
40
0
40
1
40
1
40
1
40
1
41
1
10
140.983132680215
20
8.35778407254884
30
0
41
1
10
142.35542178681
20
5.58231485113439
30
0
41
1
10
143.727710893405
20
2.79636318865607
30
0
41
1
10
145.1
20
-1.137E-13
30
0
0
SPLINE
5
12D
100
AcDbEntity
8
1
62
256
6
ByLayer
370
13
48
1
60
0
100
AcDbSpline
70
4
71
3
72
8
73
4
40
0
40
0
40
0
40
0
40
1
40
1
40
1
40
1
41
1
10
140.983132680215
20
9.12185976587384
30
0
41
1
10
142.35542178681
20
6.09041782132806
30
0
41
1
10
143.727710893405
20
3.04977210636076
30
0
41
1
10
145.1
20
2.84E-14
30
0
0
SPLINE
5
12E
100
AcDbEntity
8
1
62
256
6
ByLayer
370
13
48
1
60
0
100
AcDbSpline
70
4
71
3
72
8
73
4
40
0
40
0
40
0
40
0
40
1
40
1
40
1
40
1
41
1
10
140.983132680215
20
-9.40826192429199
30
0
41
1
10
142.35542178681
20
-6.26355828744795
30
0
41
1
10
143.727710893405
20
-3.12744442758807
30
0
41
1
10
145.1
20
-1.421E-13
30
0
0
SPLINE
5
12F
100
AcDbEntity
8
1
62
256
6
ByLayer
370
13
48
1
60
0
100
AcDbSpline
70
4
71
3
72
8
73
4
40
0
40
0
40
0
40
0
40
1
40
1
40
1
40
1
41
1
10
140.983132680215
20
10.3312929942805
30
0
41
1
10
142.35542178681
20
6.89384761925373
30
0
41
1
10
143.727710893405
20
3.45005408653248
30
0
41
1
10
145.1
20
2.84E-14
30
0
0
SPLINE
5
130
100
AcDbEntity
8
1
62
256
6
ByLayer
370
13
48
1
60
0
100
AcDbSpline
70
4
71
3
72
8
73
4
40
0
40
0
40
0
40
0
40
1
40
1
40
1
40
1
41
1
10
140.983132680215
20
-0.24976750641892
30
0
41
1
10
142.35542178681
20
-0.150993493630836
30
0
41
1
10
143.727710893405
20
-0.0677369964592458
30
0
41
1
10
145.1
20
0
30
0
0
SPLINE
5
131
100
AcDbEntity
8
1
62
256
6
ByLayer
370
13
48
1
60
0
100
AcDbSpline
70
4
71
3
72
8
73
4
40
0
40
0
40
0
40
0
40
1
40
1
40
1
40
1
41
1
10
140.983132680215
20
-8.68614143547939
30
0
41
1
10
142.35542178681
20
-5.78081875622263
30
0
41
1
10
143.727710893405
20
-2.8854137695308
30
0
41
1
10
145.1
20
-1.421E-13
30
0
0
SPLINE
5
132
100
AcDbEntity
8
1
62
256
6
ByLayer
370
13
48
1
60
0
100
AcDbSpline
70
4
71
3
72
8
73
4
40
0
40
0
40
0
40
0
40
1
40
1
40
1
40
1
41
1
10
140.983132680215
20
5.50200958720495
30
0
41
1
10
142.35542178681
20
3.65444454960598
30
0
41
1
10
143.727710893405
20
1.82042585031178
30
0
41
1
10
145.1
20
-2.274E-13
30
0
0
SPLINE
5
133
100
AcDbEntity
8
1
62
256
6
ByLayer
370
13
48
1
60
0
100
AcDbSpline
70
4
71
3
72
8
73
4
40
0
40
0
40
0
40
0
40
1
40
1
40
1
40
1
41
1
10
140.983132680215
20
3.32090942783839
30
0
41
1
10
142.35542178681
20
2.22877750247673
30
0
41
1
10
143.727710893405
20
1.12179827050465
30
0
41
1
10
145.1
20
-2.84E-14
30
0
0
SPLINE
5
134
100
AcDbEntity
8
1
62
256
6
ByLayer
370
13
48
1
60
0
100
AcDbSpline
70
4
71
3
72
8
73
4
40
0
40
0
40
0
40
0
40
1
40
1
40
1
40
1
41
1
10
140.983132680215
20
10.7510981136665
30
0
41
1
10
142.35542178681
20
7.16257565665347
30
0
41
1
10
143.727710893405
20
3.57884592976075
30
0
41
1
10
145.1
20
-4.263E-13
30
0
0
SPLINE
5
135
100
AcDbEntity
8
1
62
256
6
ByLayer
370
13
48
1
60
0
100
AcDbSpline
70
4
71
3
72
8
73
4
40
0
40
0
40
0
40
0
40
1
40
1
40
1
40
1
41
1
10
140.983132680215
20
-6.98495273351716
30
0
41
1
10
142.35542178681
20
-4.66884383708796
30
0
41
1
10
143.727710893405
20
-2.34050649393257
30
0
41
1
10
145.1
20
-1.137E-13
30
0
0
SPLINE
5
136
100
AcDbEntity
8
1
62
256
6
ByLayer
370
13
48
1
60
0
100
AcDbSpline
70
4
71
3
72
8
73
4
40
0
40
0
40
0
40
0
40
1
40
1
40
1
40
1
41
1
10
140.983132680215
20
2.11312868062746
30
0
41
1
10
142.35542178681
20
1.39350377083124
30
0
41
1
10
143.727710893405
20
0.689121617943528
30
0
41
1
10
145.1
20
-8.53E-14
30
0
0
SPLINE
5
137
100
AcDbEntity
8
1
62
256
6
ByLayer
370
13
48
1
60
0
100
AcDbSpline
70
4
71
3
72
8
73
4
40
0
40
0
40
0
40
0
40
1
40
1
40
1
40
1
41
1
10
140.983132680215
20
-11.1634039179444
30
0
41
1
10
142.35542178681
20
-7.43976992837631
30
0
41
1
10
143.727710893405
20
-3.71860376216134
30
0
41
1
10
145.1
20
-1.705E-13
30
0
0
SPLINE
5
138
100
AcDbEntity
8
1
62
256
6
ByLayer
370
13
48
1
60
0
100
AcDbSpline
70
4
71
3
72
8
73
4
40
0
40
0
40
0
40
0
40
1
40
1
40
1
40
1
41
1
10
140.983132680215
20
9.09923983174338
30
0
41
1
10
142.35542178681
20
6.05693972297621
30
0
41
1
10
143.727710893405
20
3.02383410191862
30
0
41
1
10
145.1
20
-3.695E-13
30
0
0
SPLINE
5
139
100
AcDbEntity
8
1
62
256
6
ByLayer
370
13
48
1
60
0
100
AcDbSpline
70
4
71
3
72
8
73
4
40
0
40
0
40
0
40
0
40
1
40
1
40
1
40
1
41
1
10
140.983132680215
20
-9.42939530853641
30
0
41
1
10
142.35542178681
20
-6.2948362528104
30
0
41
1
10
143.727710893405
20
-3.15167782328393
30
0
41
1
10
145.1
20
-1.421E-13
30
0
0
SPLINE
5
13A
100
AcDbEntity
8
1
62
256
6
ByLayer
370
13
48
1
60
0
100
AcDbSpline
70
4
71
3
72
8
73
4
40
0
40
0
40
0
40
0
40
1
40
1
40
1
40
1
41
1
10
140.983132680215
20
-1.49039513098407
30
0
41
1
10
142.35542178681
20
-1.00898337958151
30
0
41
1
10
143.727710893405
20
-0.512180749111565
30
0
41
1
10
145.1
20
5.68E-14
30
0
0
LINE
5
7D
100
AcDbEntity
8
4
62
256
6
ByLayer
370
18
48
0.05
60
0
100
AcDbLine
10
-5
20
0
30
0
11
150.1
21
0
31
0
39
0
210
0
220
0
230
1
0
LINE
5
7F
100
AcDbEntity
8
81
62
256
6
ByLayer
370
18
48
1
60
0
100
AcDbLine
10
145.1
20
0
30
0
11
150.1
21
0
31
0
39
0
210
0
220
0
230
1
0
LINE
5
80
100
AcDbEntity
8
SK4
62
256
6
ByLayer
370
18
48
0.05
60
0
100
AcDbLine
10
-61
20
0
30
0
11
150.1
21
0
31
0
39
0
210
0
220
0
230
1
0
LINE
5
82
100
AcDbEntity
8
80
62
256
6
ByLayer
370
18
48
1
60
0
100
AcDbLine
10
0
20
0
30
0
11
-5
21
0
31
0
39
0
210
0
220
0
230
1
0
LINE
5
83
100
AcDbEntity
8
1
62
256
6
ByLayer
370
18
48
1
60
0
100
AcDbLine
10
36.12186
20
-10.7
30
0
11
87.111338
21
-10.7
31
0
39
0
210
0
220
0
230
1
0
LINE
5
84
100
AcDbEntity
8
1
62
256
6
ByLayer
370
18
48
1
60
0
100
AcDbLine
10
87.111338
20
10.7
30
0
11
36.12186
21
10.7
31
0
39
0
210
0
220
0
230
1
0
LINE
5
85
100
AcDbEntity
8
1
62
256
6
ByLayer
370
18
48
1
60
0
100
AcDbLine
10
145.1
20
0
30
0
11
140.983133
21
11.311
31
0
39
0
210
0
220
0
230
1
0
LINE
5
86
100
AcDbEntity
8
1
62
256
6
ByLayer
370
18
48
1
60
0
100
AcDbLine
10
140.983133
20
-11.311
30
0
11
145.1
21
0
31
0
39
0
210
0
220
0
230
1
0
LINE
5
87
100
AcDbEntity
8
1
62
256
6
ByLayer
370
18
48
1
60
0
100
AcDbLine
10
3.037111
20
12.092578
30
0
11
0
21
12.7
31
0
39
0
210
0
220
0
230
1
0
LINE
5
88
100
AcDbEntity
8
1
62
256
6
ByLayer
370
18
48
1
60
0
100
AcDbLine
10
0
20
-12.7
30
0
11
3.037111
21
-12.092578
31
0
39
0
210
0
220
0
230
1
0
LINE
5
89
100
AcDbEntity
8
1
62
256
6
ByLayer
370
18
48
1
60
0
100
AcDbLine
10
145.1
20
0
30
0
11
140.983133
21
11.311
31
0
39
0
210
0
220
0
230
1
0
LINE
5
8A
100
AcDbEntity
8
1
62
256
6
ByLayer
370
18
48
1
60
0
100
AcDbLine
10
140.983133
20
-11.311
30
0
11
145.1
21
0
31
0
39
0
210
0
220
0
230
1
0
LINE
5
8B
100
AcDbEntity
8
1
62
256
6
ByLayer
370
18
48
1
60
0
100
AcDbLine
10
140.983133
20
11.311
30
0
11
130.1
21
11.311
31
0
39
0
210
0
220
0
230
1
0
LINE
5
8C
100
AcDbEntity
8
1
62
256
6
ByLayer
370
18
48
1
60
0
100
AcDbLine
10
130.1
20
-11.311
30
0
11
140.983133
21
-11.311
31
0
39
0
210
0
220
0
230
1
0
LINE
5
8D
100
AcDbEntity
8
SK1
62
256
6
ByLayer
370
18
48
1
60
0
100
AcDbLine
10
-56
20
-11.7
30
0
11
-55
21
-12.7
31
0
39
0
210
0
220
0
230
1
0
LINE
5
8F
100
AcDbEntity
8
SK1
62
256
6
ByLayer
370
18
48
1
60
0
100
AcDbLine
10
-55
20
12.7
30
0
11
-56
21
11.7
31
0
39
0
210
0
220
0
230
1
0
LINE
5
90
100
AcDbEntity
8
SK1
62
256
6
ByLayer
370
18
48
1
60
0
100
AcDbLine
10
-55
20
-12.7
30
0
11
0
21
-12.7
31
0
39
0
210
0
220
0
230
1
0
LINE
5
91
100
AcDbEntity
8
SK1
62
256
6
ByLayer
370
18
48
1
60
0
100
AcDbLine
10
0
20
12.7
30
0
11
-55
21
12.7
31
0
39
0
210
0
220
0
230
1
0
LINE
5
92
100
AcDbEntity
8
1
62
256
6
ByLayer
370
18
48
1
60
0
100
AcDbLine
10
0
20
12.7
30
0
11
0
21
-12.7
31
0
39
0
210
0
220
0
230
1
0
LINE
5
93
100
AcDbEntity
8
1
62
256
6
ByLayer
370
18
48
1
60
0
100
AcDbLine
10
140.983133
20
11.311
30
0
11
140.983133
21
10.951828
31
0
39
0
210
0
220
0
230
1
0
LINE
5
94
100
AcDbEntity
8
1
62
256
6
ByLayer
370
18
48
1
60
0
100
AcDbLine
10
140.983133
20
-11.311
30
0
11
140.983133
21
-1.611864
31
0
39
0
210
0
220
0
230
1
0
LINE
5
95
100
AcDbEntity
8
1
62
256
6
ByLayer
370
18
48
1
60
0
100
AcDbLine
10
10
20
-8.610914
30
0
11
10
21
8.64218
31
0
39
0
210
0
220
0
230
1
0
LINE
5
96
100
AcDbEntity
8
SK1
62
256
6
ByLayer
370
18
48
1
60
0
100
AcDbLine
10
-9.573685
20
-7.42967
30
0
11
-9.573685
21
7.42967
31
0
39
0
210
0
220
0
230
1
0
LINE
5
97
100
AcDbEntity
8
SK1
62
256
6
ByLayer
370
18
48
1
60
0
100
AcDbLine
10
-56
20
-11.7
30
0
11
-56
21
11.7
31
0
39
0
210
0
220
0
230
1
0
LINE
5
98
100
AcDbEntity
8
SK1
62
256
6
ByLayer
370
18
48
1
60
0
100
AcDbLine
10
0
20
12.7
30
0
11
0
21
-12.7
31
0
39
0
210
0
220
0
230
1
0
LINE
5
99
100
AcDbEntity
8
SK1
62
256
6
ByLayer
370
18
48
1
60
0
100
AcDbLine
10
-55
20
-12.7
30
0
11
-55
21
12.7
31
0
39
0
210
0
220
0
230
1
0
LINE
5
9A
100
AcDbEntity
8
SK1
62
256
6
ByLayer
370
18
48
1
60
0
100
AcDbLine
10
-9.573685
20
-7.42967
30
0
11
-46.761964
21
-7.42967
31
0
39
0
210
0
220
0
230
1
0
LINE
5
9B
100
AcDbEntity
8
SK1
62
256
6
ByLayer
370
18
48
1
60
0
100
AcDbLine
10
-46.761964
20
7.42967
30
0
11
-9.573685
21
7.42967
31
0
39
0
210
0
220
0
230
1
0
LINE
5
9C
100
AcDbEntity
8
SK1
62
256
6
ByLayer
370
18
48
1
60
0
100
AcDbLine
10
-46.761964
20
-7.42967
30
0
11
-46.761964
21
7.42967
31
0
39
0
210
0
220
0
230
1
0
LINE
5
9D
100
AcDbEntity
8
1
62
256
6
ByLayer
370
18
48
1
60
0
100
AcDbLine
10
140.983133
20
11.311
30
0
11
140.983133
21
-11.311
31
0
39
0
210
0
220
0
230
1
0
LINE
5
9E
100
AcDbEntity
8
1
62
256
6
ByLayer
370
18
48
1
60
0
100
AcDbLine
10
140.983133
20
11.311
30
0
11
140.983133
21
-11.311
31
0
39
0
210
0
220
0
230
1
0
LINE
5
9F
100
AcDbEntity
8
1
62
256
6
ByLayer
370
18
48
1
60
0
100
AcDbLine
10
140.983133
20
11.311
30
0
11
140.983133
21
-11.311
31
0
39
0
210
0
220
0
230
1
0
LINE
5
A0
100
AcDbEntity
8
1
62
256
6
ByLayer
370
18
48
1
60
0
100
AcDbLine
10
130.1
20
11.311
30
0
11
130.1
21
-11.311
31
0
39
0
210
0
220
0
230
1
0
LINE
5
A1
100
AcDbEntity
8
1
62
256
6
ByLayer
370
18
48
1
60
0
100
AcDbLine
10
130.1
20
11.311
30
0
11
130.1
21
-11.311
31
0
39
0
210
0
220
0
230
1
0
LINE
5
A2
100
AcDbEntity
8
1
62
256
6
ByLayer
370
18
48
1
60
0
100
AcDbLine
10
140.983133
20
11.311
30
0
11
140.983133
21
-11.311
31
0
39
0
210
0
220
0
230
1
0
LINE
5
A3
100
AcDbEntity
8
1
62
256
6
ByLayer
370
18
48
1
60
0
100
AcDbLine
10
130.1
20
11.311
30
0
11
130.1
21
-11.311
31
0
39
0
210
0
220
0
230
1
0
LINE
5
A4
100
AcDbEntity
8
1
62
256
6
ByLayer
370
18
48
1
60
0
100
AcDbLine
10
140.983133
20
11.311
30
0
11
140.983133
21
-11.311
31
0
39
0
210
0
220
0
230
1
0
LINE
5
A5
100
AcDbEntity
8
SK2
62
256
6
ByLayer
370
13
48
1
60
0
100
AcDbLine
10
-62.5
20
-12.7
30
0
11
-62.5
21
42.040455
31
0
39
0
210
0
220
0
230
1
0
LINE
5
A7
100
AcDbEntity
8
SK2
62
256
6
ByLayer
370
13
48
1
60
0
100
AcDbLine
10
-57.5875
20
12.7
30
0
11
-64.5
21
12.7
31
0
39
0
210
0
220
0
230
1
0
LINE
5
A8
100
AcDbEntity
8
SK2
62
256
6
ByLayer
370
13
48
1
60
0
100
AcDbLine
10
-57.5875
20
-12.7
30
0
11
-64.5
21
-12.7
31
0
39
0
210
0
220
0
230
1
0
LINE
5
A9
100
AcDbEntity
8
1
62
256
6
ByLayer
370
18
48
1
60
1
100
AcDbLine
10
-62.5
20
12.7
30
0
11
-62.039216
21
9.200002
31
0
39
0
210
0
220
0
230
1
0
LINE
5
AA
100
AcDbEntity
8
1
62
256
6
ByLayer
370
18
48
1
60
1
100
AcDbLine
10
-62.039216
20
9.200002
30
0
11
-62.960784
21
9.199998
31
0
39
0
210
0
220
0
230
1
0
LINE
5
AB
100
AcDbEntity
8
1
62
256
6
ByLayer
370
18
48
1
60
1
100
AcDbLine
10
-62.960784
20
9.199998
30
0
11
-62.5
21
12.7
31
0
39
0
210
0
220
0
230
1
0
LINE
5
AC
100
AcDbEntity
8
1
62
256
6
ByLayer
370
18
48
1
60
1
100
AcDbLine
10
-62.5
20
-12.7
30
0
11
-62.960784
21
-9.200002
31
0
39
0
210
0
220
0
230
1
0
LINE
5
AD
100
AcDbEntity
8
1
62
256
6
ByLayer
370
18
48
1
60
1
100
AcDbLine
10
-62.960784
20
-9.200002
30
0
11
-62.039216
21
-9.199998
31
0
39
0
210
0
220
0
230
1
0
LINE
5
AE
100
AcDbEntity
8
1
62
256
6
ByLayer
370
18
48
1
60
1
100
AcDbLine
10
-62.039216
20
-9.199998
30
0
11
-62.5
21
-12.7
31
0
39
0
210
0
220
0
230
1
0
LINE
5
AF
100
AcDbEntity
8
2
62
256
6
ByLayer
370
13
48
1
60
0
100
AcDbLine
10
152.6
20
-11.311
30
0
11
152.6
21
40.335569
31
0
39
0
210
0
220
0
230
1
0
LINE
5
B1
100
AcDbEntity
8
2
62
256
6
ByLayer
370
13
48
1
60
0
100
AcDbLine
10
142.570633
20
11.311
30
0
11
154.6
21
11.311
31
0
39
0
210
0
220
0
230
1
0
LINE
5
B2
100
AcDbEntity
8
2
62
256
6
ByLayer
370
13
48
1
60
0
100
AcDbLine
10
142.570633
20
-11.311
30
0
11
154.6
21
-11.311
31
0
39
0
210
0
220
0
230
1
0
LINE
5
B3
100
AcDbEntity
8
1
62
256
6
ByLayer
370
18
48
1
60
1
100
AcDbLine
10
152.6
20
11.311
30
0
11
153.060784
21
7.811002
31
0
39
0
210
0
220
0
230
1
0
LINE
5
B4
100
AcDbEntity
8
1
62
256
6
ByLayer
370
18
48
1
60
1
100
AcDbLine
10
153.060784
20
7.811002
30
0
11
152.139216
21
7.810998
31
0
39
0
210
0
220
0
230
1
0
LINE
5
B5
100
AcDbEntity
8
1
62
256
6
ByLayer
370
18
48
1
60
1
100
AcDbLine
10
152.139216
20
7.810998
30
0
11
152.6
21
11.311
31
0
39
0
210
0
220
0
230
1
0
LINE
5
B6
100
AcDbEntity
8
1
62
256
6
ByLayer
370
18
48
1
60
1
100
AcDbLine
10
152.6
20
-11.311
30
0
11
152.139216
21
-7.811002
31
0
39
0
210
0
220
0
230
1
0
LINE
5
B7
100
AcDbEntity
8
1
62
256
6
ByLayer
370
18
48
1
60
1
100
AcDbLine
10
152.139216
20
-7.811002
30
0
11
153.060784
21
-7.810998
31
0
39
0
210
0
220
0
230
1
0
LINE
5
B8
100
AcDbEntity
8
1
62
256
6
ByLayer
370
18
48
1
60
1
100
AcDbLine
10
153.060784
20
-7.810998
30
0
11
152.6
21
-11.311
31
0
39
0
210
0
220
0
230
1
0
LINE
5
B9
100
AcDbEntity
8
SK2
62
256
6
ByLayer
370
13
48
1
60
0
100
AcDbLine
10
145.642957
20
-1.491762
30
0
11
152.282423
21
-19.733545
31
0
39
0
210
0
220
0
230
1
0
LINE
5
BA
100
AcDbEntity
8
SK2
62
256
6
ByLayer
370
13
48
1
60
0
100
AcDbLine
10
145.642957
20
1.491762
30
0
11
152.282423
21
19.733545
31
0
39
0
210
0
220
0
230
1
0
LINE
5
BB
100
AcDbEntity
8
1
62
256
6
ByLayer
370
18
48
1
60
1
100
AcDbLine
10
151.598383
20
-17.85416
30
0
11
154.651575
21
-16.082064
31
0
39
0
210
0
220
0
230
1
0
LINE
5
BC
100
AcDbEntity
8
1
62
256
6
ByLayer
370
18
48
1
60
1
100
AcDbLine
10
154.651575
20
-16.082064
30
0
11
155.006196
21
-16.93267
31
0
39
0
210
0
220
0
230
1
0
LINE
5
BD
100
AcDbEntity
8
1
62
256
6
ByLayer
370
18
48
1
60
1
100
AcDbLine
10
155.006196
20
-16.93267
30
0
11
151.598383
21
-17.85416
31
0
39
0
210
0
220
0
230
1
0
LINE
5
BE
100
AcDbEntity
8
1
62
256
6
ByLayer
370
18
48
1
60
1
100
AcDbLine
10
151.598383
20
17.85416
30
0
11
155.006193
21
16.932671
31
0
39
0
210
0
220
0
230
1
0
LINE
5
BF
100
AcDbEntity
8
1
62
256
6
ByLayer
370
18
48
1
60
1
100
AcDbLine
10
155.006193
20
16.932671
30
0
11
154.651579
21
16.082063
31
0
39
0
210
0
220
0
230
1
0
LINE
5
C0
100
AcDbEntity
8
1
62
256
6
ByLayer
370
18
48
1
60
1
100
AcDbLine
10
154.651579
20
16.082063
30
0
11
151.598383
21
17.85416
31
0
39
0
210
0
220
0
230
1
0
LINE
5
13F
100
AcDbEntity
8
1
62
256
6
ByLayer
370
18
48
1
60
1
100
AcDbLine
10
-62.5
20
12.7
30
0
11
-62.039216
21
9.200002
31
0
39
0
210
0
220
0
230
1
0
LINE
5
140
100
AcDbEntity
8
1
62
256
6
ByLayer
370
18
48
1
60
1
100
AcDbLine
10
-62.039216
20
9.200002
30
0
11
-62.960784
21
9.199998
31
0
39
0
210
0
220
0
230
1
0
LINE
5
141
100
AcDbEntity
8
1
62
256
6
ByLayer
370
18
48
1
60
1
100
AcDbLine
10
-62.960784
20
9.199998
30
0
11
-62.5
21
12.7
31
0
39
0
210
0
220
0
230
1
0
LINE
5
143
100
AcDbEntity
8
1
62
256
6
ByLayer
370
18
48
1
60
1
100
AcDbLine
10
-62.5
20
-12.7
30
0
11
-62.960784
21
-9.200002
31
0
39
0
210
0
220
0
230
1
0
LINE
5
144
100
AcDbEntity
8
1
62
256
6
ByLayer
370
18
48
1
60
1
100
AcDbLine
10
-62.960784
20
-9.200002
30
0
11
-62.039216
21
-9.199998
31
0
39
0
210
0
220
0
230
1
0
LINE
5
145
100
AcDbEntity
8
1
62
256
6
ByLayer
370
18
48
1
60
1
100
AcDbLine
10
-62.039216
20
-9.199998
30
0
11
-62.5
21
-12.7
31
0
39
0
210
0
220
0
230
1
0
LINE
5
149
100
AcDbEntity
8
1
62
256
6
ByLayer
370
18
48
1
60
1
100
AcDbLine
10
152.6
20
11.311
30
0
11
153.060784
21
7.811002
31
0
39
0
210
0
220
0
230
1
0
LINE
5
14A
100
AcDbEntity
8
1
62
256
6
ByLayer
370
18
48
1
60
1
100
AcDbLine
10
153.060784
20
7.811002
30
0
11
152.139216
21
7.810998
31
0
39
0
210
0
220
0
230
1
0
LINE
5
14B
100
AcDbEntity
8
1
62
256
6
ByLayer
370
18
48
1
60
1
100
AcDbLine
10
152.139216
20
7.810998
30
0
11
152.6
21
11.311
31
0
39
0
210
0
220
0
230
1
0
LINE
5
14D
100
AcDbEntity
8
1
62
256
6
ByLayer
370
18
48
1
60
1
100
AcDbLine
10
152.6
20
-11.311
30
0
11
152.139216
21
-7.811002
31
0
39
0
210
0
220
0
230
1
0
LINE
5
14E
100
AcDbEntity
8
1
62
256
6
ByLayer
370
18
48
1
60
1
100
AcDbLine
10
152.139216
20
-7.811002
30
0
11
153.060784
21
-7.810998
31
0
39
0
210
0
220
0
230
1
0
LINE
5
14F
100
AcDbEntity
8
1
62
256
6
ByLayer
370
18
48
1
60
1
100
AcDbLine
10
153.060784
20
-7.810998
30
0
11
152.6
21
-11.311
31
0
39
0
210
0
220
0
230
1
0
LINE
5
152
100
AcDbEntity
8
1
62
256
6
ByLayer
370
18
48
1
60
1
100
AcDbLine
10
151.598383
20
-17.85416
30
0
11
154.651575
21
-16.082064
31
0
39
0
210
0
220
0
230
1
0
LINE
5
153
100
AcDbEntity
8
1
62
256
6
ByLayer
370
18
48
1
60
1
100
AcDbLine
10
154.651575
20
-16.082064
30
0
11
155.006196
21
-16.93267
31
0
39
0
210
0
220
0
230
1
0
LINE
5
154
100
AcDbEntity
8
1
62
256
6
ByLayer
370
18
48
1
60
1
100
AcDbLine
10
155.006196
20
-16.93267
30
0
11
151.598383
21
-17.85416
31
0
39
0
210
0
220
0
230
1
0
LINE
5
156
100
AcDbEntity
8
1
62
256
6
ByLayer
370
18
48
1
60
1
100
AcDbLine
10
151.598383
20
17.85416
30
0
11
155.006193
21
16.932671
31
0
39
0
210
0
220
0
230
1
0
LINE
5
157
100
AcDbEntity
8
1
62
256
6
ByLayer
370
18
48
1
60
1
100
AcDbLine
10
155.006193
20
16.932671
30
0
11
154.651579
21
16.082063
31
0
39
0
210
0
220
0
230
1
0
LINE
5
158
100
AcDbEntity
8
1
62
256
6
ByLayer
370
18
48
1
60
1
100
AcDbLine
10
154.651579
20
16.082063
30
0
11
151.598383
21
17.85416
31
0
39
0
210
0
220
0
230
1
0
MTEXT
5
13B
100
AcDbEntity
8
SK2
62
256
6
ByLayer
370
18
48
1
60
0
100
AcDbMText
10
-63.841114
20
24.358437
30
0
210
0
220
0
230
1
1
%%c
40
3
41
0
44
1.084337
50
90
71
7
72
5
7
iso_b_vert
0
MTEXT
5
13E
100
AcDbEntity
8
SK2
62
256
6
ByLayer
370
18
48
1
60
0
100
AcDbMText
10
-63.841114
20
30.335
30
0
210
0
220
0
230
1
1
\W0.7728;25.400
40
3
41
0
44
1.084337
50
90
71
7
72
5
7
iso_b_vert
0
MTEXT
5
147
100
AcDbEntity
8
2
62
256
6
ByLayer
370
18
48
1
60
0
100
AcDbMText
10
151.258886
20
22.969438
30
0
210
0
220
0
230
1
1
%%c
40
3
41
0
44
1.084337
50
90
71
7
72
5
7
iso_b_vert
0
MTEXT
5
148
100
AcDbEntity
8
2
62
256
6
ByLayer
370
18
48
1
60
0
100
AcDbMText
10
151.258886
20
28.946
30
0
210
0
220
0
230
1
1
\W0.7513;22.622
40
3
41
0
44
1.084337
50
90
71
7
72
5
7
iso_b_vert
0
MTEXT
5
151
100
AcDbEntity
8
SK2
62
256
6
ByLayer
370
18
48
1
60
0
100
AcDbMText
10
165.009114
20
3.734657
30
0
210
0
220
0
230
1
1
\W0.7071;140%%d
40
3
41
0
44
1.084337
50
270
71
7
72
5
7
iso_b_vert
0
MTEXT
5
15A
100
AcDbEntity
8
SK6
62
256
6
ByLayer
370
18
48
1
60
0
100
AcDbMText
10
16.007603
20
-67.114886
30
0
210
0
220
0
230
1
1
\W0.7930;H85557/64
40
3
41
0
44
1.084337
50
0
71
7
72
5
7
iso_b_vert
0
HATCH
5
142
100
AcDbEntity
8
SK2
62
256
6
ByLayer
370
13
48
1
60
0
100
AcDbHatch
10
0
20
0
30
0
210
0
220
0
230
1
2
ANSI31
70
0
71
0
91
1
92
5
93
3
72
1
10
-62.5
20
12.7
11
-62.0392162584472
21
9.20000169255317
72
1
10
-62.0392162584472
20
9.20000169255317
11
-62.9607837415528
21
9.1999983074468
72
1
10
-62.9607837415528
20
9.1999983074468
11
-62.5
21
12.7
97
0
75
0
76
1
52
0
41
0.0062
77
0
78
1
53
45
43
0
44
0
45
-0.0139193969876572
46
0.0139193969876572
79
0
47
0
98
1
10
0
20
0
0
HATCH
5
146
100
AcDbEntity
8
SK2
62
256
6
ByLayer
370
13
48
1
60
0
100
AcDbHatch
10
0
20
0
30
0
210
0
220
0
230
1
2
ANSI31
70
0
71
0
91
1
92
5
93
3
72
1
10
-62.5
20
-12.7
11
-62.9607837415528
21
-9.20000169255317
72
1
10
-62.9607837415528
20
-9.20000169255317
11
-62.0392162584472
21
-9.1999983074468
72
1
10
-62.0392162584472
20
-9.1999983074468
11
-62.5
21
-12.7
97
0
75
0
76
1
52
0
41
0.0062
77
0
78
1
53
45
43
0
44
0
45
-0.0139193969876572
46
0.0139193969876572
79
0
47
0
98
1
10
0
20
0
0
HATCH
5
14C
100
AcDbEntity
8
2
62
256
6
ByLayer
370
13
48
1
60
0
100
AcDbHatch
10
0
20
0
30
0
210
0
220
0
230
1
2
ANSI31
70
0
71
0
91
1
92
5
93
3
72
1
10
152.6
20
11.311
11
153.060783741553
21
7.81100169255319
72
1
10
153.060783741553
20
7.81100169255319
11
152.139216258447
21
7.81099830744682
72
1
10
152.139216258447
20
7.81099830744682
11
152.6
21
11.311
97
0
75
0
76
1
52
0
41
0.0062
77
0
78
1
53
45
43
0
44
0
45
-0.0139193969876572
46
0.0139193969876572
79
0
47
0
98
1
10
0
20
0
0
HATCH
5
150
100
AcDbEntity
8
2
62
256
6
ByLayer
370
13
48
1
60
0
100
AcDbHatch
10
0
20
0
30
0
210
0
220
0
230
1
2
ANSI31
70
0
71
0
91
1
92
5
93
3
72
1
10
152.6
20
-11.311
11
152.139216258447
21
-7.81100169255319
72
1
10
152.139216258447
20
-7.81100169255319
11
153.060783741553
21
-7.81099830744682
72
1
10
153.060783741553
20
-7.81099830744682
11
152.6
21
-11.311
97
0
75
0
76
1
52
0
41
0.0062
77
0
78
1
53
45
43
0
44
0
45
-0.0139193969876572
46
0.0139193969876572
79
0
47
0
98
1
10
0
20
0
0
HATCH
5
155
100
AcDbEntity
8
SK2
62
256
6
ByLayer
370
13
48
1
60
0
100
AcDbHatch
10
0
20
0
30
0
210
0
220
0
230
1
2
ANSI31
70
0
71
0
91
1
92
5
93
3
72
1
10
151.598382723188
20
-17.8541597949322
11
154.651575425693
21
-16.0820638240607
72
1
10
154.651575425693
20
-16.0820638240607
11
155.006195833975
21
-16.9326700737196
72
1
10
155.006195833975
20
-16.9326700737196
11
151.598382723188
21
-17.8541597949322
97
0
75
0
76
1
52
0
41
0.0062
77
0
78
1
53
45
43
0
44
0
45
-0.0139193969876572
46
0.0139193969876572
79
0
47
0
98
1
10
0
20
0
0
HATCH
5
159
100
AcDbEntity
8
SK2
62
256
6
ByLayer
370
13
48
1
60
0
100
AcDbHatch
10
0
20
0
30
0
210
0
220
0
230
1
2
ANSI31
70
0
71
0
91
1
92
5
93
3
72
1
10
151.598382723188
20
17.8541597949322
11
155.006192709519
21
16.9326713763016
72
1
10
155.006192709519
20
16.9326713763016
11
154.651578550149
21
16.0820625214787
72
1
10
154.651578550149
20
16.0820625214787
11
151.598382723188
21
17.8541597949322
97
0
75
0
76
1
52
0
41
0.0062
77
0
78
1
53
45
43
0
44
0
45
-0.0139193969876572
46
0.0139193969876572
79
0
47
0
98
1
10
0
20
0
0
DIMENSION
5
15D
100
AcDbEntity
8
SK2
62
256
6
ByLayer
370
18
48
1
60
0
100
AcDbDimension
2
_U0
10
145.1
20
-45.952229
30
0
11
44.55
21
-45.952229
31
0
70
32
71
1
72
1
41
1
210
0
220
0
230
1
3
Standard
100
AcDbAlignedDimension
13
-56
23
-12.7
33
0
14
145.1
24
0
34
0
50
0
100
AcDbRotatedDimension
1001
ACAD
1000
DSTYLE
1002
{
1070
   371
1070
    13
1070
   372
1070
    13
1070
     3
1000

1070
   170
1070
     0
1070
   144
1040
1.0
1070
   277
1070
     2
1070
   284
1070
     8
1070
   278
1070
    46
1070
   146
1040
1.166667
1070
   345
1005
16
1070
   347
1005
16
1070
   346
1005
16
1070
   344
1005
0
1070
   343
1005
0
1070
   172
1070
     1
1070
    76
1070
     0
1070
    75
1070
     0
1070
   282
1070
     0
1070
   281
1070
     0
1070
    71
1070
     0
1070
    74
1070
     0
1070
   279
1070
     0
1070
   173
1070
     1
1070
   340
1005
13C
1070
   271
1070
     2
1070
   272
1070
     3
1070
    77
1070
     1
1070
    73
1070
     1
1070
   171
1070
     3
1070
   274
1070
     4
1070
   177
1070
     2
1070
   176
1070
     2
1070
   178
1070
     2
1070
    78
1070
     8
1070
    48
1040
-0.1
1070
    41
1040
3.5
1070
   147
1040
1.5
1070
    42
1040
1.5875
1070
    44
1040
2.0
1070
   140
1040
3.0
1002
}
1001
ACAD_DSTYLE_DIM_LINETYPE
1070
   380
1005
16
1001
ACAD_DSTYLE_DIM_EXT1_LINETYPE
1070
   381
1005
16
1001
ACAD_DSTYLE_DIM_EXT2_LINETYPE
1070
   382
1005
16
0
DIMENSION
5
176
100
AcDbEntity
8
SK2
62
256
6
ByLayer
370
18
48
1
60
0
100
AcDbDimension
2
_U1
10
3
20
-35.952229
30
0
11
74.05
21
-35.952229
31
0
70
32
71
1
72
1
41
1
210
0
220
0
230
1
3
Standard
100
AcDbAlignedDimension
13
145.1
23
0
33
0
14
3
24
-11.311
34
0
50
0
100
AcDbRotatedDimension
1001
ACAD
1000
DSTYLE
1002
{
1070
   371
1070
    13
1070
   372
1070
    13
1070
     3
1000

1070
   170
1070
     0
1070
   144
1040
1.0
1070
   277
1070
     2
1070
   284
1070
     8
1070
   278
1070
    46
1070
   146
1040
1.166667
1070
   345
1005
16
1070
   347
1005
16
1070
   346
1005
16
1070
   344
1005
0
1070
   343
1005
0
1070
   172
1070
     1
1070
    76
1070
     0
1070
    75
1070
     0
1070
   282
1070
     0
1070
   281
1070
     0
1070
    71
1070
     0
1070
    74
1070
     0
1070
   279
1070
     0
1070
   173
1070
     1
1070
   340
1005
13C
1070
   271
1070
     2
1070
   272
1070
     3
1070
    77
1070
     1
1070
    73
1070
     1
1070
   171
1070
     3
1070
   274
1070
     4
1070
   177
1070
     2
1070
   176
1070
     2
1070
   178
1070
     2
1070
    78
1070
     8
1070
    48
1040
-0.1
1070
    41
1040
3.5
1070
   147
1040
1.5
1070
    42
1040
1.5875
1070
    44
1040
2.0
1070
   140
1040
3.0
1002
}
1001
ACAD_DSTYLE_DIM_LINETYPE
1070
   380
1005
16
1001
ACAD_DSTYLE_DIM_EXT1_LINETYPE
1070
   381
1005
16
1001
ACAD_DSTYLE_DIM_EXT2_LINETYPE
1070
   382
1005
16
0
DIMENSION
5
18E
100
AcDbEntity
8
SK2
62
256
6
ByLayer
370
18
48
1
60
0
100
AcDbDimension
2
_U2
10
0
20
-35.952229
30
0
11
-28
21
-35.952229
31
0
70
32
71
1
72
1
41
1
210
0
220
0
230
1
3
Standard
100
AcDbAlignedDimension
13
-56
23
-12.7
33
0
14
0
24
-12.7
34
0
50
0
100
AcDbRotatedDimension
1001
ACAD
1000
DSTYLE
1002
{
1070
   371
1070
    13
1070
   372
1070
    13
1070
     3
1000

1070
   170
1070
     0
1070
   144
1040
1.0
1070
   277
1070
     2
1070
   284
1070
     8
1070
   278
1070
    46
1070
   146
1040
1.166667
1070
   345
1005
16
1070
   347
1005
16
1070
   346
1005
16
1070
   344
1005
0
1070
   343
1005
0
1070
   172
1070
     1
1070
    76
1070
     0
1070
    75
1070
     0
1070
   282
1070
     0
1070
   281
1070
     0
1070
    71
1070
     0
1070
    74
1070
     0
1070
   279
1070
     0
1070
   173
1070
     1
1070
   340
1005
13C
1070
   271
1070
     2
1070
   272
1070
     3
1070
    77
1070
     1
1070
    73
1070
     1
1070
   171
1070
     3
1070
   274
1070
     4
1070
   177
1070
     2
1070
   176
1070
     2
1070
   178
1070
     2
1070
    78
1070
     8
1070
    48
1040
-0.1
1070
    41
1040
3.5
1070
   147
1040
1.5
1070
    42
1040
1.5875
1070
    44
1040
2.0
1070
   140
1040
3.0
1002
}
1001
ACAD_DSTYLE_DIM_LINETYPE
1070
   380
1005
16
1001
ACAD_DSTYLE_DIM_EXT1_LINETYPE
1070
   381
1005
16
1001
ACAD_DSTYLE_DIM_EXT2_LINETYPE
1070
   382
1005
16
0
DIMENSION
5
1A6
100
AcDbEntity
8
SK2
62
256
6
ByLayer
370
18
48
1
60
0
100
AcDbDimension
2
_U3
10
20
20
32.952229
30
0
11
82.55
21
32.952229
31
0
70
32
71
1
72
1
41
1
210
0
220
0
230
1
3
Standard
100
AcDbAlignedDimension
13
145.1
23
0
33
0
14
20
24
11.311
34
0
50
0
100
AcDbRotatedDimension
1001
ACAD
1000
DSTYLE
1002
{
1070
   371
1070
    13
1070
   372
1070
    13
1070
     3
1000

1070
   170
1070
     0
1070
   144
1040
1.0
1070
   277
1070
     2
1070
   284
1070
     8
1070
   278
1070
    46
1070
   146
1040
1.166667
1070
   345
1005
16
1070
   347
1005
16
1070
   346
1005
16
1070
   344
1005
0
1070
   343
1005
0
1070
   172
1070
     1
1070
    76
1070
     0
1070
    75
1070
     0
1070
   282
1070
     0
1070
   281
1070
     0
1070
    71
1070
     0
1070
    74
1070
     0
1070
   279
1070
     0
1070
   173
1070
     1
1070
   340
1005
13C
1070
   271
1070
     2
1070
   272
1070
     3
1070
    77
1070
     1
1070
    73
1070
     1
1070
   171
1070
     3
1070
   274
1070
     4
1070
   177
1070
     2
1070
   176
1070
     2
1070
   178
1070
     2
1070
    78
1070
     8
1070
    48
1040
-0.1
1070
    41
1040
3.5
1070
   147
1040
1.5
1070
    42
1040
1.5875
1070
    44
1040
2.0
1070
   140
1040
3.0
1002
}
1001
ACAD_DSTYLE_DIM_LINETYPE
1070
   380
1005
16
1001
ACAD_DSTYLE_DIM_EXT1_LINETYPE
1070
   381
1005
16
1001
ACAD_DSTYLE_DIM_EXT2_LINETYPE
1070
   382
1005
16
0
ENDSEC
0
SECTION
2
OBJECTS
0
DICTIONARY
5
22e
330
0
100
AcDbDictionary
280
0
281
1
3
ACAD_GROUP
350
22f
3
ACAD_MLINESTYLE
350
230
0
DICTIONARY
5
22f
330
0
100
AcDbDictionary
280
0
281
1
0
DICTIONARY
5
230
330
0
100
AcDbDictionary
280
0
281
1
3
Standard
350
18
0
MLINESTYLE
5
18
330
230
100
AcDbMlineStyle
2
Standard
70
0
3

62
256
51
90
52
90
71
2
49
-0.5
62
256
6
ByLayer
49
0.5
62
256
6
ByLayer
0
RASTERVARIABLES
5
21c
330

100
AcDbRasterVariables
90
0
70
1
71
1
72
1
0
ENDSEC
0
EOF
