0
SECTION
2
HEADER
9
$ACADVER
1
AC1015
9
$DWGCODEPAGE
3
ANSI_1252
9
$HANDSEED
5
22d
9
$ANGBASE
50
0
9
$ANGDIR
70
0
9
$ATTMODE
70
1
9
$AUNITS
70
0
9
$AUPREC
70
0
9
$CECOLOR
62
256
9
$CELTSCALE
40
1
9
$CELTYPE
6
ByLayer
9
$CELWEIGHT
370
18
9
$CLAYER
8
0
9
$CMLJUST
70
0
9
$CMLSCALE
40
1
9
$CMLSTYLE
2
Standard
9
$DIMSTYLE
2
Standard
9
$TEXTSIZE
40
0.2
9
$TEXTSTYLE
7
Standard
9
$LUNITS
70
2
9
$LUPREC
70
4
9
$EXTNAMES
290
1
9
$INSUNITS
70
4
9
$LTSCALE
40
1
9
$LWDISPLAY
290
1
9
$PDMODE
70
0
9
$PDSIZE
40
0
9
$PLINEGEN
70
0
0
ENDSEC
0
SECTION
2
CLASSES
0
CLASS
1
RASTERVARIABLES
2
AcDbRasterVariables
3
ISM
90
0
280
0
281
0
0
ENDSEC
0
SECTION
2
TABLES
0
TABLE
2
VPORT
5
223
100
AcDbSymbolTable
0
VPORT
5
1
100
AcDbSymbolTableRecord
100
AcDbViewportTableRecord
2
*Active
70
0
10
0
20
0
11
1
21
1
12
-1
22
1
13
0
23
0
14
0.5
24
0.5
15
10
25
10
16
0
26
0
36
1
17
0
27
0
37
0
0
ENDTAB
0
TABLE
2
LTYPE
5
224
100
AcDbSymbolTable
0
LTYPE
5
14
100
AcDbSymbolTableRecord
100
AcDbLinetypeTableRecord
70
0
2
ByBlock
3

72
65
73
0
40
0
0
LTYPE
5
15
100
AcDbSymbolTableRecord
100
AcDbLinetypeTableRecord
70
0
2
ByLayer
3

72
65
73
0
40
0
0
LTYPE
5
16
100
AcDbSymbolTableRecord
100
AcDbLinetypeTableRecord
70
0
2
Continuous
3
Solid line
72
65
73
0
40
0
0
LTYPE
5
6E
100
AcDbSymbolTableRecord
100
AcDbLinetypeTableRecord
70
0
2
CENTER
3
____ _ ____ _ ____ _ ____
72
65
73
4
40
47.5
49
22
74
0
49
-8.5
74
0
49
8.5
74
0
49
-8.5
74
0
0
LTYPE
5
6F
100
AcDbSymbolTableRecord
100
AcDbLinetypeTableRecord
70
0
2
DASHED
3
__ __ __ __ __ __ __ __ __
72
65
73
2
40
25.72
49
12.86
74
0
49
-12.86
74
0
0
ENDTAB
0
TABLE
2
LAYER
5
225
100
AcDbSymbolTable
0
LAYER
5
10
100
AcDbSymbolTableRecord
100
AcDbLayerTableRecord
2
0
70
0
62
7
6
Continuous
290
1
370
-3
390
0
0
LAYER
5
71
100
AcDbSymbolTableRecord
100
AcDbLayerTableRecord
2
81
70
0
62
-3
6
Continuous
290
1
370
-3
390
0
0
LAYER
5
73
100
AcDbSymbolTableRecord
100
AcDbLayerTableRecord
2
80
70
0
62
-6
6
Continuous
290
1
370
-3
390
0
0
LAYER
5
75
100
AcDbSymbolTableRecord
100
AcDbLayerTableRecord
2
1
70
0
62
4
6
Continuous
290
1
370
-3
390
0
0
LAYER
5
7F
100
AcDbSymbolTableRecord
100
AcDbLayerTableRecord
2
4
70
0
62
-2
6
CENTER
290
1
370
-3
390
0
0
LAYER
5
AF
100
AcDbSymbolTableRecord
100
AcDbLayerTableRecord
2
2
70
0
62
7
6
Continuous
290
1
370
-3
390
0
0
LAYER
5
152
100
AcDbSymbolTableRecord
100
AcDbLayerTableRecord
2
Defpoints
70
0
62
7
6
Continuous
290
0
370
-3
390
0
0
LAYER
5
20f
100
AcDbSymbolTableRecord
100
AcDbLayerTableRecord
2
SK4
70
0
62
2
6
CENTER
290
1
370
-3
390
0
0
LAYER
5
210
100
AcDbSymbolTableRecord
100
AcDbLayerTableRecord
2
SK1
70
0
62
4
6
Continuous
290
1
370
-3
390
0
0
LAYER
5
211
100
AcDbSymbolTableRecord
100
AcDbLayerTableRecord
2
SK2
70
0
62
7
6
Continuous
290
1
370
-3
390
0
0
LAYER
5
212
100
AcDbSymbolTableRecord
100
AcDbLayerTableRecord
2
SK6
70
0
62
5
6
Continuous
290
1
370
-3
390
0
0
ENDTAB
0
TABLE
2
STYLE
5
226
100
AcDbSymbolTable
0
STYLE
5
11
100
AcDbSymbolTableRecord
100
AcDbTextStyleTableRecord
2
Standard
3
txt
70
0
71
0
40
0
41
1
42
0
50
0
0
STYLE
5
12E
100
AcDbSymbolTableRecord
100
AcDbTextStyleTableRecord
2
iso_b_vert
3
simplex.shx
70
0
71
0
40
0
41
1
42
0
50
0
0
STYLE
5
12F
100
AcDbSymbolTableRecord
100
AcDbTextStyleTableRecord
2
DWGDirectTextStyle
3
simplex
70
0
71
0
40
0
41
1
42
0
50
0
0
ENDTAB
0
TABLE
2
DIMSTYLE
5
227
100
AcDbSymbolTable
100
AcDbDimStyleTable
0
DIMSTYLE
105
27
100
AcDbSymbolTableRecord
100
AcDbDimStyleTableRecord
2
Standard
70
0
3
<>
41
0.18
42
0.0625
44
0.18
140
0.18
147
0.09
73
0
74
0
77
1
271
2
275
0
278
52
280
0
340
11
0
ENDTAB
0
TABLE
2
VIEW
5
228
100
AcDbSymbolTable
0
ENDTAB
0
TABLE
2
UCS
5
229
100
AcDbSymbolTable
0
ENDTAB
0
TABLE
2
APPID
5
22a
100
AcDbSymbolTable
0
APPID
5
12
100
AcDbSymbolTableRecord
100
AcDbRegAppTableRecord
2
ACAD
70
0
0
APPID
5
14E
100
AcDbSymbolTableRecord
100
AcDbRegAppTableRecord
2
ACAD_DSTYLE_DIMBREAK
70
0
0
APPID
5
1CE
100
AcDbSymbolTableRecord
100
AcDbRegAppTableRecord
2
ACAD_DSTYLE_DIM_LINETYPE
70
0
0
APPID
5
1CF
100
AcDbSymbolTableRecord
100
AcDbRegAppTableRecord
2
ACAD_DSTYLE_DIM_EXT1_LINETYPE
70
0
0
APPID
5
1D0
100
AcDbSymbolTableRecord
100
AcDbRegAppTableRecord
2
ACAD_DSTYLE_DIM_EXT2_LINETYPE
70
0
0
APPID
5
20B
100
AcDbSymbolTableRecord
100
AcDbRegAppTableRecord
2
ACAD_MLEADERVER
70
0
0
ENDTAB
0
TABLE
2
BLOCK_RECORD
5
22b
100
AcDbSymbolTable
0
BLOCK_RECORD
5
1F
100
AcDbSymbolTableRecord
100
AcDbBlockTableRecord
2
*Model_Space
340
0
70
0
0
BLOCK_RECORD
5
1B
100
AcDbSymbolTableRecord
100
AcDbBlockTableRecord
2
*Paper_Space
340
0
70
0
0
BLOCK_RECORD
5
23
100
AcDbSymbolTableRecord
100
AcDbBlockTableRecord
2
*Paper_Space0
340
0
70
0
0
BLOCK_RECORD
5
153
100
AcDbSymbolTableRecord
100
AcDbBlockTableRecord
2
*D1
340
0
70
0
0
BLOCK_RECORD
5
15F
100
AcDbSymbolTableRecord
100
AcDbBlockTableRecord
2
_U0
340
0
70
0
0
BLOCK_RECORD
5
16B
100
AcDbSymbolTableRecord
100
AcDbBlockTableRecord
2
*D3
340
0
70
0
0
BLOCK_RECORD
5
177
100
AcDbSymbolTableRecord
100
AcDbBlockTableRecord
2
_U1
340
0
70
0
0
BLOCK_RECORD
5
183
100
AcDbSymbolTableRecord
100
AcDbBlockTableRecord
2
*D5
340
0
70
0
0
BLOCK_RECORD
5
18F
100
AcDbSymbolTableRecord
100
AcDbBlockTableRecord
2
_U2
340
0
70
0
0
BLOCK_RECORD
5
19B
100
AcDbSymbolTableRecord
100
AcDbBlockTableRecord
2
*D7
340
0
70
0
0
BLOCK_RECORD
5
1A7
100
AcDbSymbolTableRecord
100
AcDbBlockTableRecord
2
_U3
340
0
70
0
0
ENDTAB
0
ENDSEC
0
SECTION
2
BLOCKS
0
BLOCK
5
20
100
AcDbEntity
8
0
100
AcDbBlockBegin
2
*Model_Space
70
0
10
0
20
0
30
0
3
*Model_Space
0
ENDBLK
5
21
100
AcDbEntity
8
0
100
AcDbBlockEnd
0
BLOCK
5
1C
100
AcDbEntity
8
0
100
AcDbBlockBegin
2
*Paper_Space
70
0
10
0
20
0
30
0
3
*Paper_Space
0
ENDBLK
5
1D
100
AcDbEntity
8
0
100
AcDbBlockEnd
0
BLOCK
5
24
100
AcDbEntity
8
0
100
AcDbBlockBegin
2
*Paper_Space0
70
0
10
0
20
0
30
0
3
*Paper_Space0
0
ENDBLK
5
25
100
AcDbEntity
8
0
100
AcDbBlockEnd
0
BLOCK
5
154
100
AcDbEntity
8
0
100
AcDbBlockBegin
2
*D1
70
1
10
0
20
0
30
0
3
*D1
0
LINE
5
156
100
AcDbEntity
8
0
62
256
6
ByLayer
370
-2
48
1
60
0
100
AcDbLine
10
-56
20
-14.2875
30
0
11
-56
21
-47.952229
31
0
39
0
210
0
220
0
230
1
0
LINE
5
157
100
AcDbEntity
8
0
62
256
6
ByLayer
370
-2
48
1
60
0
100
AcDbLine
10
135.5
20
-1.5875
30
0
11
135.5
21
-47.952229
31
0
39
0
210
0
220
0
230
1
0
LINE
5
158
100
AcDbEntity
8
0
62
256
6
ByLayer
370
-2
48
1
60
0
100
AcDbLine
10
-52.5
20
-45.952229
30
0
11
132
21
-45.952229
31
0
39
0
210
0
220
0
230
1
0
SOLID
5
159
100
AcDbEntity
8
0
62
256
6
ByLayer
370
-1
48
1
60
0
100
AcDbTrace
10
-52.5
20
-45.368896
30
0
11
-52.5
21
-46.535563
31
0
12
-56
22
-45.952229
32
0
13
-56
23
-45.952229
33
0
39
0
210
0
220
0
230
1
0
SOLID
5
15A
100
AcDbEntity
8
0
62
256
6
ByLayer
370
-1
48
1
60
0
100
AcDbTrace
10
132
20
-46.535563
30
0
11
132
21
-45.368896
31
0
12
135.5
22
-45.952229
32
0
13
135.5
23
-45.952229
33
0
39
0
210
0
220
0
230
1
0
MTEXT
5
15B
100
AcDbEntity
8
0
62
256
6
ByLayer
370
18
48
1
60
0
100
AcDbMText
10
39.75
20
-39.952229
30
0
210
0
220
0
230
1
1
\A1;191.5
40
3
41
0
44
1
50
0
71
5
72
5
7
iso_b_vert
0
POINT
5
15C
100
AcDbEntity
8
Defpoints
62
0
6
ByLayer
370
-1
48
1
60
0
100
AcDbPoint
10
-56
20
-12.7
30
0
39
0
210
0
220
0
230
1
50
360
0
POINT
5
15D
100
AcDbEntity
8
Defpoints
62
0
6
ByLayer
370
-1
48
1
60
0
100
AcDbPoint
10
135.5
20
0
30
0
39
0
210
0
220
0
230
1
50
360
0
POINT
5
15E
100
AcDbEntity
8
Defpoints
62
0
6
ByLayer
370
-1
48
1
60
0
100
AcDbPoint
10
135.5
20
-45.952229
30
0
39
0
210
0
220
0
230
1
50
360
0
ENDBLK
5
155
100
AcDbEntity
8
0
100
AcDbBlockEnd
0
BLOCK
5
166
100
AcDbEntity
8
0
100
AcDbBlockBegin
2
_U0
70
0
10
0
20
0
30
0
3
_U0
0
MTEXT
5
160
100
AcDbEntity
8
SK2
62
256
6
ByLayer
370
18
48
1
60
0
100
AcDbMText
10
34.896601
20
-45.067115
30
0
210
0
220
0
230
1
1
\W0.6532;191.50
40
3
41
0
44
1.084337
50
0
71
7
72
5
7
iso_b_vert
0
LINE
5
161
100
AcDbEntity
8
SK2
62
256
6
ByLayer
370
13
48
1
60
0
100
AcDbLine
10
-56
20
-14.2875
30
0
11
-56
21
-47.952229
31
0
39
0
210
0
220
0
230
1
0
LINE
5
162
100
AcDbEntity
8
SK2
62
256
6
ByLayer
370
13
48
1
60
0
100
AcDbLine
10
135.5
20
-1.5875
30
0
11
135.5
21
-47.952229
31
0
39
0
210
0
220
0
230
1
0
LINE
5
163
100
AcDbEntity
8
SK2
62
256
6
ByLayer
370
13
48
1
60
0
100
AcDbLine
10
-56
20
-45.952229
30
0
11
135.5
21
-45.952229
31
0
39
0
210
0
220
0
230
1
0
SOLID
5
164
100
AcDbEntity
8
SK2
62
256
6
ByLayer
370
18
48
1
60
0
100
AcDbTrace
10
-56
20
-45.952229
30
0
11
-52.500002
21
-45.491446
31
0
12
-52.499998
22
-46.413013
32
0
13
-52.499998
23
-46.413013
33
0
39
0
210
0
220
0
230
1
0
SOLID
5
165
100
AcDbEntity
8
SK2
62
256
6
ByLayer
370
18
48
1
60
0
100
AcDbTrace
10
135.5
20
-45.952229
30
0
11
132.000002
21
-46.413013
31
0
12
131.999998
22
-45.491446
32
0
13
131.999998
23
-45.491446
33
0
39
0
210
0
220
0
230
1
0
ENDBLK
5
167
100
AcDbEntity
8
0
100
AcDbBlockEnd
0
BLOCK
5
16C
100
AcDbEntity
8
0
100
AcDbBlockBegin
2
*D3
70
1
10
0
20
0
30
0
3
*D3
0
LINE
5
16E
100
AcDbEntity
8
0
62
256
6
ByLayer
370
-2
48
1
60
0
100
AcDbLine
10
135.5
20
-1.5875
30
0
11
135.5
21
-37.952229
31
0
39
0
210
0
220
0
230
1
0
LINE
5
16F
100
AcDbEntity
8
0
62
256
6
ByLayer
370
-2
48
1
60
0
100
AcDbLine
10
3
20
-11.311
30
0
11
3
21
-37.952229
31
0
39
0
210
0
220
0
230
1
0
LINE
5
170
100
AcDbEntity
8
0
62
256
6
ByLayer
370
-2
48
1
60
0
100
AcDbLine
10
132
20
-35.952229
30
0
11
6.5
21
-35.952229
31
0
39
0
210
0
220
0
230
1
0
SOLID
5
171
100
AcDbEntity
8
0
62
256
6
ByLayer
370
-1
48
1
60
0
100
AcDbTrace
10
132
20
-36.535563
30
0
11
132
21
-35.368896
31
0
12
135.5
22
-35.952229
32
0
13
135.5
23
-35.952229
33
0
39
0
210
0
220
0
230
1
0
SOLID
5
172
100
AcDbEntity
8
0
62
256
6
ByLayer
370
-1
48
1
60
0
100
AcDbTrace
10
6.5
20
-35.368896
30
0
11
6.5
21
-36.535563
31
0
12
3
22
-35.952229
32
0
13
3
23
-35.952229
33
0
39
0
210
0
220
0
230
1
0
MTEXT
5
173
100
AcDbEntity
8
0
62
256
6
ByLayer
370
18
48
1
60
0
100
AcDbMText
10
69.25
20
-29.952229
30
0
210
0
220
0
230
1
1
\A1;132.5
40
3
41
0
44
1
50
0
71
5
72
5
7
iso_b_vert
0
POINT
5
174
100
AcDbEntity
8
Defpoints
62
0
6
ByLayer
370
-1
48
1
60
0
100
AcDbPoint
10
135.5
20
0
30
0
39
0
210
0
220
0
230
1
50
360
0
POINT
5
175
100
AcDbEntity
8
Defpoints
62
0
6
ByLayer
370
-1
48
1
60
0
100
AcDbPoint
10
3
20
-9.7235
30
0
39
0
210
0
220
0
230
1
50
360
0
POINT
5
176
100
AcDbEntity
8
Defpoints
62
0
6
ByLayer
370
-1
48
1
60
0
100
AcDbPoint
10
3
20
-35.952229
30
0
39
0
210
0
220
0
230
1
50
360
0
ENDBLK
5
16D
100
AcDbEntity
8
0
100
AcDbBlockEnd
0
BLOCK
5
17E
100
AcDbEntity
8
0
100
AcDbBlockBegin
2
_U1
70
0
10
0
20
0
30
0
3
_U1
0
MTEXT
5
178
100
AcDbEntity
8
SK2
62
256
6
ByLayer
370
18
48
1
60
0
100
AcDbMText
10
64.021658
20
-35.067115
30
0
210
0
220
0
230
1
1
\W0.7022;132.50
40
3
41
0
44
1.084337
50
0
71
7
72
5
7
iso_b_vert
0
LINE
5
179
100
AcDbEntity
8
SK2
62
256
6
ByLayer
370
13
48
1
60
0
100
AcDbLine
10
135.5
20
-1.5875
30
0
11
135.5
21
-37.952229
31
0
39
0
210
0
220
0
230
1
0
LINE
5
17A
100
AcDbEntity
8
SK2
62
256
6
ByLayer
370
13
48
1
60
0
100
AcDbLine
10
3
20
-11.311
30
0
11
3
21
-37.952229
31
0
39
0
210
0
220
0
230
1
0
LINE
5
17B
100
AcDbEntity
8
SK2
62
256
6
ByLayer
370
13
48
1
60
0
100
AcDbLine
10
135.5
20
-35.952229
30
0
11
3
21
-35.952229
31
0
39
0
210
0
220
0
230
1
0
SOLID
5
17C
100
AcDbEntity
8
SK2
62
256
6
ByLayer
370
18
48
1
60
0
100
AcDbTrace
10
135.5
20
-35.952229
30
0
11
132.000002
21
-36.413013
31
0
12
131.999998
22
-35.491446
32
0
13
131.999998
23
-35.491446
33
0
39
0
210
0
220
0
230
1
0
SOLID
5
17D
100
AcDbEntity
8
SK2
62
256
6
ByLayer
370
18
48
1
60
0
100
AcDbTrace
10
3
20
-35.952229
30
0
11
6.499998
21
-35.491446
31
0
12
6.500002
22
-36.413013
32
0
13
6.500002
23
-36.413013
33
0
39
0
210
0
220
0
230
1
0
ENDBLK
5
17F
100
AcDbEntity
8
0
100
AcDbBlockEnd
0
BLOCK
5
184
100
AcDbEntity
8
0
100
AcDbBlockBegin
2
*D5
70
1
10
0
20
0
30
0
3
*D5
0
LINE
5
186
100
AcDbEntity
8
0
62
256
6
ByLayer
370
-2
48
1
60
0
100
AcDbLine
10
-56
20
-14.2875
30
0
11
-56
21
-37.952229
31
0
39
0
210
0
220
0
230
1
0
LINE
5
187
100
AcDbEntity
8
0
62
256
6
ByLayer
370
-2
48
1
60
0
100
AcDbLine
10
0
20
-14.2875
30
0
11
0
21
-37.952229
31
0
39
0
210
0
220
0
230
1
0
LINE
5
188
100
AcDbEntity
8
0
62
256
6
ByLayer
370
-2
48
1
60
0
100
AcDbLine
10
-52.5
20
-35.952229
30
0
11
-3.5
21
-35.952229
31
0
39
0
210
0
220
0
230
1
0
SOLID
5
189
100
AcDbEntity
8
0
62
256
6
ByLayer
370
-1
48
1
60
0
100
AcDbTrace
10
-52.5
20
-35.368896
30
0
11
-52.5
21
-36.535563
31
0
12
-56
22
-35.952229
32
0
13
-56
23
-35.952229
33
0
39
0
210
0
220
0
230
1
0
SOLID
5
18A
100
AcDbEntity
8
0
62
256
6
ByLayer
370
-1
48
1
60
0
100
AcDbTrace
10
-3.5
20
-36.535563
30
0
11
-3.5
21
-35.368896
31
0
12
0
22
-35.952229
32
0
13
0
23
-35.952229
33
0
39
0
210
0
220
0
230
1
0
MTEXT
5
18B
100
AcDbEntity
8
0
62
256
6
ByLayer
370
18
48
1
60
0
100
AcDbMText
10
-28
20
-29.952229
30
0
210
0
220
0
230
1
1
\A1;56
40
3
41
0
44
1
50
0
71
5
72
5
7
iso_b_vert
0
POINT
5
18C
100
AcDbEntity
8
Defpoints
62
0
6
ByLayer
370
-1
48
1
60
0
100
AcDbPoint
10
-56
20
-12.7
30
0
39
0
210
0
220
0
230
1
50
360
0
POINT
5
18D
100
AcDbEntity
8
Defpoints
62
0
6
ByLayer
370
-1
48
1
60
0
100
AcDbPoint
10
0
20
-12.7
30
0
39
0
210
0
220
0
230
1
50
360
0
POINT
5
18E
100
AcDbEntity
8
Defpoints
62
0
6
ByLayer
370
-1
48
1
60
0
100
AcDbPoint
10
0
20
-35.952229
30
0
39
0
210
0
220
0
230
1
50
360
0
ENDBLK
5
185
100
AcDbEntity
8
0
100
AcDbBlockEnd
0
BLOCK
5
196
100
AcDbEntity
8
0
100
AcDbBlockBegin
2
_U2
70
0
10
0
20
0
30
0
3
_U2
0
MTEXT
5
190
100
AcDbEntity
8
SK2
62
256
6
ByLayer
370
18
48
1
60
0
100
AcDbMText
10
-32.48237
20
-35.067115
30
0
210
0
220
0
230
1
1
\W0.7468;56.00
40
3
41
0
44
1.084337
50
0
71
7
72
5
7
iso_b_vert
0
LINE
5
191
100
AcDbEntity
8
SK2
62
256
6
ByLayer
370
13
48
1
60
0
100
AcDbLine
10
-56
20
-14.2875
30
0
11
-56
21
-37.952229
31
0
39
0
210
0
220
0
230
1
0
LINE
5
192
100
AcDbEntity
8
SK2
62
256
6
ByLayer
370
13
48
1
60
0
100
AcDbLine
10
0
20
-14.2875
30
0
11
0
21
-37.952229
31
0
39
0
210
0
220
0
230
1
0
LINE
5
193
100
AcDbEntity
8
SK2
62
256
6
ByLayer
370
13
48
1
60
0
100
AcDbLine
10
-56
20
-35.952229
30
0
11
0
21
-35.952229
31
0
39
0
210
0
220
0
230
1
0
SOLID
5
194
100
AcDbEntity
8
SK2
62
256
6
ByLayer
370
18
48
1
60
0
100
AcDbTrace
10
-56
20
-35.952229
30
0
11
-52.500002
21
-35.491446
31
0
12
-52.499998
22
-36.413013
32
0
13
-52.499998
23
-36.413013
33
0
39
0
210
0
220
0
230
1
0
SOLID
5
195
100
AcDbEntity
8
SK2
62
256
6
ByLayer
370
18
48
1
60
0
100
AcDbTrace
10
0
20
-35.952229
30
0
11
-3.499998
21
-36.413013
31
0
12
-3.500002
22
-35.491446
32
0
13
-3.500002
23
-35.491446
33
0
39
0
210
0
220
0
230
1
0
ENDBLK
5
197
100
AcDbEntity
8
0
100
AcDbBlockEnd
0
BLOCK
5
19C
100
AcDbEntity
8
0
100
AcDbBlockBegin
2
*D7
70
1
10
0
20
0
30
0
3
*D7
0
LINE
5
19E
100
AcDbEntity
8
0
62
256
6
ByLayer
370
-2
48
1
60
0
100
AcDbLine
10
135.5
20
1.5875
30
0
11
135.5
21
34.952229
31
0
39
0
210
0
220
0
230
1
0
LINE
5
19F
100
AcDbEntity
8
0
62
256
6
ByLayer
370
-2
48
1
60
0
100
AcDbLine
10
27
20
11.311
30
0
11
27
21
34.952229
31
0
39
0
210
0
220
0
230
1
0
LINE
5
1A0
100
AcDbEntity
8
0
62
256
6
ByLayer
370
-2
48
1
60
0
100
AcDbLine
10
132
20
32.952229
30
0
11
30.5
21
32.952229
31
0
39
0
210
0
220
0
230
1
0
SOLID
5
1A1
100
AcDbEntity
8
0
62
256
6
ByLayer
370
-1
48
1
60
0
100
AcDbTrace
10
132
20
32.368896
30
0
11
132
21
33.535563
31
0
12
135.5
22
32.952229
32
0
13
135.5
23
32.952229
33
0
39
0
210
0
220
0
230
1
0
SOLID
5
1A2
100
AcDbEntity
8
0
62
256
6
ByLayer
370
-1
48
1
60
0
100
AcDbTrace
10
30.5
20
33.535563
30
0
11
30.5
21
32.368896
31
0
12
27
22
32.952229
32
0
13
27
23
32.952229
33
0
39
0
210
0
220
0
230
1
0
MTEXT
5
1A3
100
AcDbEntity
8
0
62
256
6
ByLayer
370
18
48
1
60
0
100
AcDbMText
10
81.25
20
38.952229
30
0
210
0
220
0
230
1
1
\A1;108.5
40
3
41
0
44
1
50
0
71
5
72
5
7
iso_b_vert
0
POINT
5
1A4
100
AcDbEntity
8
Defpoints
62
0
6
ByLayer
370
-1
48
1
60
0
100
AcDbPoint
10
135.5
20
0
30
0
39
0
210
0
220
0
230
1
50
360
0
POINT
5
1A5
100
AcDbEntity
8
Defpoints
62
0
6
ByLayer
370
-1
48
1
60
0
100
AcDbPoint
10
27
20
9.7235
30
0
39
0
210
0
220
0
230
1
50
360
0
POINT
5
1A6
100
AcDbEntity
8
Defpoints
62
0
6
ByLayer
370
-1
48
1
60
0
100
AcDbPoint
10
27
20
32.952229
30
0
39
0
210
0
220
0
230
1
50
360
0
ENDBLK
5
19D
100
AcDbEntity
8
0
100
AcDbBlockEnd
0
BLOCK
5
1AE
100
AcDbEntity
8
0
100
AcDbBlockBegin
2
_U3
70
0
10
0
20
0
30
0
3
_U3
0
MTEXT
5
1A8
100
AcDbEntity
8
SK2
62
256
6
ByLayer
370
18
48
1
60
0
100
AcDbMText
10
76.021658
20
33.837344
30
0
210
0
220
0
230
1
1
\W0.7022;108.50
40
3
41
0
44
1.084337
50
0
71
7
72
5
7
iso_b_vert
0
LINE
5
1A9
100
AcDbEntity
8
SK2
62
256
6
ByLayer
370
13
48
1
60
0
100
AcDbLine
10
135.5
20
1.5875
30
0
11
135.5
21
34.952229
31
0
39
0
210
0
220
0
230
1
0
LINE
5
1AA
100
AcDbEntity
8
SK2
62
256
6
ByLayer
370
13
48
1
60
0
100
AcDbLine
10
27
20
11.311
30
0
11
27
21
34.952229
31
0
39
0
210
0
220
0
230
1
0
LINE
5
1AB
100
AcDbEntity
8
SK2
62
256
6
ByLayer
370
13
48
1
60
0
100
AcDbLine
10
135.5
20
32.952229
30
0
11
27
21
32.952229
31
0
39
0
210
0
220
0
230
1
0
SOLID
5
1AC
100
AcDbEntity
8
SK2
62
256
6
ByLayer
370
18
48
1
60
0
100
AcDbTrace
10
135.5
20
32.952229
30
0
11
132.000002
21
32.491446
31
0
12
131.999998
22
33.413013
32
0
13
131.999998
23
33.413013
33
0
39
0
210
0
220
0
230
1
0
SOLID
5
1AD
100
AcDbEntity
8
SK2
62
256
6
ByLayer
370
18
48
1
60
0
100
AcDbTrace
10
27
20
32.952229
30
0
11
30.499998
21
33.413013
31
0
12
30.500002
22
32.491446
32
0
13
30.500002
23
32.491446
33
0
39
0
210
0
220
0
230
1
0
ENDBLK
5
1AF
100
AcDbEntity
8
0
100
AcDbBlockEnd
0
ENDSEC
0
SECTION
2
ENTITIES
0
ARC
5
C0
100
AcDbEntity
8
SK2
62
256
6
ByLayer
370
13
48
1
60
0
100
AcDbCircle
39
0
10
135.5
20
0
30
0
40
19
210
0
220
0
230
1
100
AcDbArc
50
290
51
70
0
ELLIPSE
5
C1
100
AcDbEntity
8
SK1
62
256
6
ByLayer
370
18
48
1
60
0
100
AcDbEllipse
10
-20.619083
20
0
30
0
11
13.6190826173124
21
-1.54317782980885E-14
31
0
210
0
220
0
230
1
40
0.932515
41
-0.624896586633934
42
0.624896586633934
0
ELLIPSE
5
C2
100
AcDbEntity
8
SK1
62
256
6
ByLayer
370
18
48
1
60
0
100
AcDbEllipse
10
-37.157058
20
0
30
0
11
-2.33287510403163E-15
21
-12.7
31
0
210
0
220
0
230
1
40
0.932515
41
-2.1956929134288
42
-0.945899740160989
0
POINT
5
70
100
AcDbEntity
8
81
62
256
6
ByLayer
370
18
48
1
60
0
100
AcDbPoint
10
135.5
20
0
30
0
39
0
210
0
220
0
230
1
50
360
0
POINT
5
72
100
AcDbEntity
8
80
62
256
6
ByLayer
370
18
48
1
60
0
100
AcDbPoint
10
0
20
0
30
0
39
0
210
0
220
0
230
1
50
360
0
POINT
5
74
100
AcDbEntity
8
1
62
256
6
ByLayer
370
18
48
1
60
1
100
AcDbPoint
10
-56
20
-12.7
30
0
39
0
210
0
220
0
230
1
50
360
0
POINT
5
76
100
AcDbEntity
8
1
62
256
6
ByLayer
370
18
48
1
60
1
100
AcDbPoint
10
135.5
20
0
30
0
39
0
210
0
220
0
230
1
50
360
0
POINT
5
77
100
AcDbEntity
8
1
62
256
6
ByLayer
370
18
48
1
60
1
100
AcDbPoint
10
135.5
20
0
30
0
39
0
210
0
220
0
230
1
50
360
0
POINT
5
78
100
AcDbEntity
8
1
62
256
6
ByLayer
370
18
48
1
60
1
100
AcDbPoint
10
3
20
-9.7235
30
0
39
0
210
0
220
0
230
1
50
360
0
POINT
5
79
100
AcDbEntity
8
1
62
256
6
ByLayer
370
18
48
1
60
1
100
AcDbPoint
10
-56
20
-12.7
30
0
39
0
210
0
220
0
230
1
50
360
0
POINT
5
7A
100
AcDbEntity
8
1
62
256
6
ByLayer
370
18
48
1
60
1
100
AcDbPoint
10
0
20
-12.7
30
0
39
0
210
0
220
0
230
1
50
360
0
POINT
5
7B
100
AcDbEntity
8
1
62
256
6
ByLayer
370
18
48
1
60
1
100
AcDbPoint
10
135.5
20
0
30
0
39
0
210
0
220
0
230
1
50
360
0
POINT
5
7C
100
AcDbEntity
8
1
62
256
6
ByLayer
370
18
48
1
60
1
100
AcDbPoint
10
27
20
9.7235
30
0
39
0
210
0
220
0
230
1
50
360
0
SPLINE
5
C3
100
AcDbEntity
8
1
62
256
6
ByLayer
370
18
48
1
60
0
100
AcDbSpline
70
4
71
3
72
14
73
10
40
0
40
0
40
0
40
0
40
0.25
40
0.25
40
0.5
40
0.5
40
0.75
40
0.75
40
1
40
1
40
1
40
1
41
1
10
13.9685872307865
20
8.2498369417487
30
0
41
1
10
13.6288590592222
20
8.30340338681688
30
0
41
1
10
13.2919316707422
20
8.3576266818082
30
0
41
1
10
12.6225192930681
20
8.46491224307073
30
0
41
1
10
12.2900281206061
20
8.51797635656317
30
0
41
1
10
11.628895049095
20
8.62123367871428
30
0
41
1
10
11.3002509342788
20
8.67143725432004
30
0
41
1
10
10.6469342372585
20
8.7678565096532
30
0
41
1
10
10.3222630661372
20
8.81408856276929
30
0
41
1
10
10
20
8.85785825065494
30
0
0
SPLINE
5
C4
100
AcDbEntity
8
1
62
256
6
ByLayer
370
18
48
1
60
0
100
AcDbSpline
70
4
71
3
72
16
73
12
40
0
40
0
40
0
40
0
40
0.193901809702095
40
0.193901809702095
40
0.38780361940419
40
0.38780361940419
40
0.581705429106286
40
0.581705429106286
40
0.775607238808381
40
0.775607238808381
40
1
40
1
40
1
40
1
41
1
10
122
20
-9.65118755935896
30
0
41
1
10
122.20780666308
20
-9.66032313302941
30
0
41
1
10
122.415523778217
20
-9.66859193603406
30
0
41
1
10
122.83077064626
20
-9.68338425520221
30
0
41
1
10
123.038290712447
20
-9.68990966326021
30
0
41
1
10
123.453182604285
20
-9.70118916420307
30
0
41
1
10
123.660613852702
20
-9.70593054745501
30
0
41
1
10
124.075555266783
20
-9.71361902433506
30
0
41
1
10
124.283046939662
20
-9.71657009050301
30
0
41
1
10
124.73068200158
20
-9.72103256732586
30
0
41
1
10
124.970827258338
20
-9.72224961027436
30
0
41
1
10
125.210976157107
20
-9.72229302543087
30
0
0
SPLINE
5
C5
100
AcDbEntity
8
1
62
256
6
ByLayer
370
18
48
1
60
0
100
AcDbSpline
70
4
71
3
72
185
73
181
40
0
40
0
40
0
40
0
40
0.0125135554846682
40
0.0125135554846682
40
0.0206077066692202
40
0.0206077066692202
40
0.0246547822614961
40
0.0246547822614961
40
0.0287018578537721
40
0.0287018578537721
40
0.0448901602228771
40
0.0448901602228771
40
0.0610784625919822
40
0.0610784625919822
40
0.0772667649610872
40
0.0772667649610872
40
0.0853609161456395
40
0.0853609161456395
40
0.0894079917379159
40
0.0894079917379159
40
0.0934550673301922
40
0.0934550673301922
40
0.109643369699297
40
0.109643369699297
40
0.125831672068402
40
0.125831672068402
40
0.142019974437506
40
0.142019974437506
40
0.146067050029783
40
0.146067050029783
40
0.150114125622059
40
0.150114125622059
40
0.158208276806612
40
0.158208276806612
40
0.174396579175718
40
0.174396579175718
40
0.190584881544824
40
0.190584881544824
40
0.20677318391393
40
0.20677318391393
40
0.214867335098483
40
0.214867335098483
40
0.222961486283036
40
0.222961486283036
40
0.239149788652142
40
0.239149788652142
40
0.255338091021247
40
0.255338091021247
40
0.271526393390353
40
0.271526393390353
40
0.27557346898263
40
0.27557346898263
40
0.279620544574906
40
0.287714695759458
40
0.287714695759458
40
0.303902998128562
40
0.303902998128562
40
0.320091300497667
40
0.320091300497667
40
0.328185451682219
40
0.328185451682219
40
0.332232527274495
40
0.332232527274495
40
0.336279602866771
40
0.336279602866771
40
0.352467905235875
40
0.352467905235875
40
0.36865620760498
40
0.36865620760498
40
0.384844509974084
40
0.384844509974084
40
0.392938661158636
40
0.392938661158636
40
0.396985736750912
40
0.396985736750912
40
0.401032812343189
40
0.401032812343189
40
0.417221114712294
40
0.417221114712294
40
0.4334094170814
40
0.4334094170814
40
0.449597719450505
40
0.449597719450505
40
0.453644795042781
40
0.453644795042781
40
0.457691870635058
40
0.457691870635058
40
0.465786021819611
40
0.465786021819611
40
0.481974324188717
40
0.481974324188717
40
0.498162626557823
40
0.498162626557823
40
0.514350928926929
40
0.514350928926929
40
0.522445080111483
40
0.522445080111483
40
0.530539231296036
40
0.530539231296036
40
0.546727533665142
40
0.546727533665142
40
0.562915836034248
40
0.562915836034248
40
0.571009987218801
40
0.571009987218801
40
0.579104138403354
40
0.579104138403354
40
0.58315121399563
40
0.58315121399563
40
0.587198289587907
40
0.595292440772458
40
0.595292440772458
40
0.611480743141562
40
0.611480743141562
40
0.627669045510666
40
0.627669045510666
40
0.635763196695218
40
0.639810272287494
40
0.639810272287494
40
0.64385734787977
40
0.64385734787977
40
0.660045650248872
40
0.660045650248872
40
0.676233952617973
40
0.676233952617973
40
0.692422254987075
40
0.692422254987075
40
0.700516406171626
40
0.700516406171626
40
0.708610557356177
40
0.708610557356177
40
0.724798859725278
40
0.724798859725278
40
0.74098716209438
40
0.74098716209438
40
0.757175464463482
40
0.757175464463482
40
0.765269615648033
40
0.765269615648033
40
0.769316691240309
40
0.769316691240309
40
0.773363766832584
40
0.773363766832584
40
0.789552069201686
40
0.789552069201686
40
0.805740371570788
40
0.805740371570788
40
0.82192867393989
40
0.82192867393989
40
0.825975749532165
40
0.825975749532165
40
0.83002282512444
40
0.83002282512444
40
0.838116976308991
40
0.838116976308991
40
0.854305278678091
40
0.854305278678091
40
0.870493581047192
40
0.870493581047192
40
0.886681883416293
40
0.886681883416293
40
0.890728959008569
40
0.890728959008569
40
0.894776034600844
40
0.902870185785394
40
0.902870185785394
40
0.919058488154495
40
0.919058488154495
40
0.935246790523596
40
0.935246790523596
40
0.943340941708146
40
0.947388017300422
40
0.947388017300422
40
0.951435092892697
40
0.951435092892697
40
0.967623395261798
40
0.967623395261798
40
0.983811697630899
40
0.983811697630899
40
1
40
1
40
1
40
1
41
1
10
21.7549358066133
20
6.72651724312101
30
0
41
1
10
22.1729987908371
20
6.82435514167562
30
0
41
1
10
22.5909199213537
20
6.91980788394514
30
0
41
1
10
23.2788532258406
20
7.07319169486237
30
0
41
1
10
23.5489764457247
20
7.13246520822526
30
0
41
1
10
23.9540305869018
20
7.21992128641071
30
0
41
1
10
24.0890249238599
20
7.24883430758843
30
0
41
1
10
24.3589771524776
20
7.30615828099508
30
0
41
1
10
24.4939424108365
20
7.33455555452255
30
0
41
1
10
25.1689427777313
20
7.4748191670744
30
0
41
1
10
25.7093588548295
20
7.58178555822107
30
0
41
1
10
26.7906987721436
20
7.78598870664877
30
0
41
1
10
27.3316312581131
20
7.88320861467326
30
0
41
1
10
28.4138194479523
20
8.06820853402556
30
0
41
1
10
28.9550698899723
20
8.15599612463541
30
0
41
1
10
29.7670474432431
20
8.28066241823637
30
0
41
1
10
30.0377247597465
20
8.32104540817076
30
0
41
1
10
30.4437576493874
20
8.37984549475661
30
0
41
1
10
30.5791028376083
20
8.39915127095196
30
0
41
1
10
30.8497647134389
20
8.43702795726358
30
0
41
1
10
30.9850972402975
20
8.45560326208368
30
0
41
1
10
31.6617550263142
20
8.54669777393161
30
0
41
1
10
32.2030591879462
20
8.61389155443732
30
0
41
1
10
33.2853530673805
20
8.73747137176423
30
0
41
1
10
33.8263523944508
20
8.7938453709767
30
0
41
1
10
34.9078502838897
20
8.89596551014398
30
0
41
1
10
35.4483429040665
20
8.94171542144696
30
0
41
1
10
36.123530430222
20
8.992213700159
30
0
41
1
10
36.2585467512145
20
9.00197815988011
30
0
41
1
10
36.5285349524328
20
9.02083273776844
30
0
41
1
10
36.6634997327857
20
9.02992643151018
30
0
41
1
10
37.0684290354715
20
9.05613338755026
30
0
41
1
10
37.3384849859365
20
9.07214462414044
30
0
41
1
10
38.1489314316536
20
9.11588202936665
30
0
41
1
10
38.6895759734381
20
9.13933299566961
30
0
41
1
10
39.7713076588589
20
9.17507395762067
30
0
41
1
10
40.3124024061822
20
9.18736075007041
30
0
41
1
10
41.3948412563902
20
9.20073360458514
30
0
41
1
10
41.9361808209378
20
9.20181868241201
30
0
41
1
10
42.748269056899
20
9.19481800285155
30
0
41
1
10
43.0189429100641
20
9.19103242837986
30
0
41
1
10
43.5602455539714
20
9.18063596860867
30
0
41
1
10
43.830898665504
20
9.17402640043076
30
0
41
1
10
44.6428030097784
20
9.15001997458816
30
0
41
1
10
45.1839924123258
20
9.12845127206435
30
0
41
1
10
46.2660014462355
20
9.07427399636325
30
0
41
1
10
46.8068244496562
20
9.04166664973332
30
0
41
1
10
47.8878922150658
20
8.96523512284486
30
0
41
1
10
48.4281206586063
20
8.92139652388107
30
0
41
1
10
49.1029922599285
20
8.8593768858544
30
0
41
1
10
49.2379601123691
20
8.84662192682322
30
0
41
1
10
49.5079669995491
20
8.82048045296034
30
0
41
1
10
49.9130570833244
20
8.78030038468188
30
0
41
1
10
50.3183608755552
20
8.73722332640477
30
0
41
1
10
51.1291899933711
20
8.64719675288831
30
0
41
1
10
51.670037289356
20
8.58202206806936
30
0
41
1
10
52.7521179179452
20
8.44121554312224
30
0
41
1
10
53.2933495897905
20
8.36558212535968
30
0
41
1
10
54.1053350066968
20
8.24398518918252
30
0
41
1
10
54.3760206778398
20
8.20209400342705
30
0
41
1
10
54.7820736384121
20
8.13717291608734
30
0
41
1
10
54.9174286138098
20
8.11518483818159
30
0
41
1
10
55.1881456355927
20
8.07050617327684
30
0
41
1
10
55.3234581136689
20
8.04782405714016
30
0
41
1
10
56.000048982919
20
7.93307796152249
30
0
41
1
10
56.5413495139739
20
7.83693585485014
30
0
41
1
10
57.6236986180624
20
7.6357429065757
30
0
41
1
10
58.1647548007432
20
7.53070116148893
30
0
41
1
10
59.2464326286709
20
7.3114521416955
30
0
41
1
10
59.7870493936539
20
7.19723616862888
30
0
41
1
10
60.5974953417735
20
7.01867182732877
30
0
41
1
10
60.8675651581037
20
6.95794398425159
30
0
41
1
10
61.2725388438471
20
6.86499588001476
30
0
41
1
10
61.4075016201218
20
6.83369037065788
30
0
41
1
10
61.6774598990742
20
6.77060771812671
30
0
41
1
10
61.812465292506
20
6.73885058825462
30
0
41
1
10
62.4876231784466
20
6.57899712811769
30
0
41
1
10
63.028147620896
20
6.44766584289806
30
0
41
1
10
64.1096951062593
20
6.17765842574175
30
0
41
1
10
64.6507280008964
20
6.0390013553012
30
0
41
1
10
65.733108158351
20
5.75391497376199
30
0
41
1
10
66.2744495115823
20
5.607471695377
30
0
41
1
10
66.9512154117803
20
5.41918796185337
30
0
41
1
10
67.0865733345358
20
5.38126993471394
30
0
41
1
10
67.3572969813061
20
5.30490258875409
30
0
41
1
10
67.4926562188653
20
5.26643718142466
30
0
41
1
10
67.8986080473784
20
5.15045263623864
30
0
41
1
10
68.1692264603986
20
5.07253653648473
30
0
41
1
10
68.9811004153466
20
4.83720578569935
30
0
41
1
10
69.522313279113
20
4.6780602702689
30
0
41
1
10
70.6044212080693
20
4.35471580361457
30
0
41
1
10
71.1453244924744
20
4.19053742210224
30
0
41
1
10
72.2266186474604
20
3.85661207618943
30
0
41
1
10
72.7670044323457
20
3.68685110580719
30
0
41
1
10
73.5770721944291
20
3.42762557397876
30
0
41
1
10
73.8469590491404
20
3.34031233340866
30
0
41
1
10
74.3869901289049
20
3.16531571585929
30
0
41
1
10
74.6571130008005
20
3.07757700552801
30
0
41
1
10
75.4677377841345
20
2.81348157963205
30
0
41
1
10
76.0084876861571
20
2.63622584591744
30
0
41
1
10
77.0904279421321
20
2.27874145094404
30
0
41
1
10
77.6316228113343
20
2.09852553434675
30
0
41
1
10
78.4435959743439
20
1.82551025023514
30
0
41
1
10
78.7142837645915
20
1.73405550931324
30
0
41
1
10
79.2557021661422
20
1.5501824502891
30
0
41
1
10
79.5264820260448
20
1.45774347544619
30
0
41
1
10
79.9325014940807
20
1.31839104704687
30
0
41
1
10
80.0677989581823
20
1.27184250631254
30
0
41
1
10
80.3384102973855
20
1.17885016519131
30
0
41
1
10
80.7443340316208
20
1.03946548701921
30
0
41
1
10
81.1502546022035
20
0.90032042315508
30
0
41
1
10
81.9620318165614
20
0.622168188070987
30
0
41
1
10
82.5031290249284
20
0.436909653565095
30
0
41
1
10
83.5849504900676
20
0.0661517050440068
30
0
41
1
10
84.1256741491312
20
-0.119349477586042
30
0
41
1
10
84.9363202318439
20
-0.398244963775426
30
0
41
1
10
85.3415343226791
20
-0.53785073687979
30
0
41
1
10
85.7465647063724
20
-0.677750001227508
30
0
41
1
10
86.0165421440954
20
-0.771086784456884
30
0
41
1
10
86.1515037308901
20
-0.817807144326252
30
0
41
1
10
86.8264168731384
20
-1.05096548563171
30
0
41
1
10
87.3667969872917
20
-1.23574563978383
30
0
41
1
10
88.4481257077831
20
-1.60279775009295
30
0
41
1
10
88.9890798598759
20
-1.78505330719847
30
0
41
1
10
90.0713667448647
20
-2.14760825574149
30
0
41
1
10
90.6126951943551
20
-2.32792002904947
30
0
41
1
10
91.4248265766861
20
-2.59732763138831
30
0
41
1
10
91.6955616158619
20
-2.68695013223174
30
0
41
1
10
92.2370648393372
20
-2.86587141910815
30
0
41
1
10
92.5076113913806
20
-2.95516225122091
30
0
41
1
10
93.3194191677915
20
-3.22030998301176
30
0
41
1
10
93.8606368429099
20
-3.39406269636279
30
0
41
1
10
94.9428104577162
20
-3.73648850064237
30
0
41
1
10
95.4837759718237
20
-3.90513382840766
30
0
41
1
10
96.5652619177869
20
-4.23785193724993
30
0
41
1
10
97.1057764436739
20
-4.40193990433301
30
0
41
1
10
97.9160700980613
20
-4.64494179149563
30
0
41
1
10
98.1860771748559
20
-4.72544738261087
30
0
41
1
10
98.590998481387
20
-4.84532974503779
30
0
41
1
10
98.725975249433
20
-4.88509968219427
30
0
41
1
10
98.9960001230605
20
-4.96409766616611
30
0
41
1
10
99.1310397092429
20
-5.00334707415266
30
0
41
1
10
99.8063594431582
20
-5.19838789833699
30
0
41
1
10
100.346996273122
20
-5.35058827070682
30
0
41
1
10
101.428763283763
20
-5.64806584561427
30
0
41
1
10
101.969902390848
20
-5.79332112103228
30
0
41
1
10
103.052485140807
20
-6.07731409048219
30
0
41
1
10
103.593923410464
20
-6.21606335550587
30
0
41
1
10
104.270815519281
20
-6.38554573985058
30
0
41
1
10
104.406197558264
20
-6.41924612404031
30
0
41
1
10
104.676858933974
20
-6.48621000670278
30
0
41
1
10
104.812158052999
20
-6.51946540591766
30
0
41
1
10
105.218108121564
20
-6.61824831168215
30
0
41
1
10
105.488781110648
20
-6.6828590478213
30
0
41
1
10
106.300855433504
20
-6.87314503750204
30
0
41
1
10
106.842303789919
20
-6.99529725803018
30
0
41
1
10
107.925103140249
20
-7.23076800456263
30
0
41
1
10
108.466459673631
20
-7.34407581299726
30
0
41
1
10
109.548870322586
20
-7.56216802234226
30
0
41
1
10
110.089921258562
20
-7.66695636432416
30
0
41
1
10
110.765952839877
20
-7.79261923978493
30
0
41
1
10
110.901141289991
20
-7.81749048285263
30
0
41
1
10
111.171586013382
20
-7.86654955407326
30
0
41
1
10
111.577361123408
20
-7.93910509664434
30
0
41
1
10
111.983433764803
20
-8.00862578301647
30
0
41
1
10
112.795910127722
20
-8.14375785880929
30
0
41
1
10
113.338146180394
20
-8.22866549002356
30
0
41
1
10
114.421865338955
20
-8.38822477868328
30
0
41
1
10
114.963487121602
20
-8.46290166072774
30
0
41
1
10
115.775401810144
20
-8.56738719834743
30
0
41
1
10
116.181230278838
20
-8.61774357682975
30
0
41
1
10
116.586844588442
20
-8.66525729927662
30
0
41
1
10
116.857204461143
20
-8.69629811830495
30
0
41
1
10
116.992352287944
20
-8.71150757271462
30
0
41
1
10
117.668126252056
20
-8.78580896821407
30
0
41
1
10
118.209130769137
20
-8.83943138628899
30
0
41
1
10
119.291636902992
20
-8.93556141566984
30
0
41
1
10
119.833132891292
20
-8.97807113157714
30
0
41
1
10
120.916407959935
20
-9.05216317219487
30
0
41
1
10
121.45818322114
20
-9.08374782383942
30
0
41
1
10
122
20
-9.10982960321203
30
0
0
SPLINE
5
C6
100
AcDbEntity
8
1
62
256
6
ByLayer
370
18
48
1
60
0
100
AcDbSpline
70
4
71
3
72
158
73
154
40
0
40
0
40
0
40
0
40
0.0061288725977499
40
0.0061288725977499
40
0.0245338934755672
40
0.0245338934755672
40
0.0429389143533845
40
0.0429389143533845
40
0.0521414247922935
40
0.0521414247922935
40
0.0613439352312026
40
0.0613439352312026
40
0.0797489561090215
40
0.0797489561090215
40
0.0889514665479305
40
0.0889514665479305
40
0.0981539769868396
40
0.0981539769868396
40
0.116558997864659
40
0.116558997864659
40
0.121160253084113
40
0.121160253084113
40
0.125761508303568
40
0.125761508303568
40
0.134964018742477
40
0.134964018742477
40
0.153369039620297
40
0.171774060498117
40
0.171774060498117
40
0.190179081375937
40
0.190179081375937
40
0.194780336595391
40
0.194780336595391
40
0.199381591814846
40
0.208584102253756
40
0.217786612692665
40
0.217786612692665
40
0.226989123131574
40
0.226989123131574
40
0.245394144009393
40
0.245394144009393
40
0.254596654448302
40
0.254596654448302
40
0.263799164887212
40
0.263799164887212
40
0.300609206642852
40
0.300609206642852
40
0.319014227520672
40
0.319014227520672
40
0.323615482740127
40
0.323615482740127
40
0.328216737959582
40
0.328216737959582
40
0.337419248398491
40
0.337419248398491
40
0.355824269276311
40
0.355824269276311
40
0.36502677971522
40
0.36502677971522
40
0.37422929015413
40
0.37422929015413
40
0.392634311031948
40
0.392634311031948
40
0.397235566251403
40
0.397235566251403
40
0.401836821470858
40
0.411039331909768
40
0.411039331909768
40
0.429444352787588
40
0.429444352787588
40
0.447849373665408
40
0.447849373665408
40
0.457051884104318
40
0.457051884104318
40
0.466254394543228
40
0.466254394543228
40
0.484659415421049
40
0.484659415421049
40
0.493861925859959
40
0.493861925859959
40
0.503064436298869
40
0.503064436298869
40
0.521469457176689
40
0.521469457176689
40
0.526070712396144
40
0.526070712396144
40
0.5306719676156
40
0.5306719676156
40
0.539874478054509
40
0.539874478054509
40
0.558279498932329
40
0.576684519810148
40
0.576684519810148
40
0.595089540687968
40
0.595089540687968
40
0.604292051126878
40
0.604292051126878
40
0.613494561565788
40
0.622697072004698
40
0.622697072004698
40
0.631899582443608
40
0.631899582443608
40
0.650304603321427
40
0.650304603321427
40
0.659507113760337
40
0.659507113760337
40
0.668709624199247
40
0.668709624199247
40
0.705519665954885
40
0.705519665954885
40
0.723924686832704
40
0.723924686832704
40
0.728525942052159
40
0.728525942052159
40
0.733127197271614
40
0.733127197271614
40
0.742329707710524
40
0.742329707710524
40
0.760734728588345
40
0.760734728588345
40
0.779139749466165
40
0.779139749466165
40
0.797544770343986
40
0.797544770343986
40
0.806747280782895
40
0.806747280782895
40
0.815949791221806
40
0.815949791221806
40
0.834354812099626
40
0.834354812099626
40
0.852759832977446
40
0.852759832977446
40
0.861962343416356
40
0.861962343416356
40
0.871164853855265
40
0.871164853855265
40
0.889569874733085
40
0.889569874733085
40
0.907974895610906
40
0.907974895610906
40
0.926379916488726
40
0.926379916488726
40
0.930981171708181
40
0.930981171708181
40
0.935582426927635
40
0.935582426927635
40
0.944784937366545
40
0.944784937366545
40
0.963189958244363
40
0.963189958244363
40
0.981594979122182
40
0.981594979122182
40
1
40
1
40
1
40
1
41
1
10
105.681641104904
20
-6.73295097671664
30
0
41
1
10
105.494421911158
20
-6.77694916898312
30
0
41
1
10
105.307197166317
20
-6.82040170251079
30
0
41
1
10
104.557718514589
20
-6.99218064825862
30
0
41
1
10
103.995429431695
20
-7.11618201086864
30
0
41
1
10
102.870849848138
20
-7.35466769753114
30
0
41
1
10
102.308556096011
20
-7.46914660589047
30
0
41
1
10
101.465181782455
20
-7.63378313119213
30
0
41
1
10
101.184068389114
20
-7.68748090908681
30
0
41
1
10
100.621878354713
20
-7.79251157109138
30
0
41
1
10
100.340834777056
20
-7.84389197967707
30
0
41
1
10
99.4972581892952
20
-7.99368774535273
30
0
41
1
10
98.9343795740423
20
-8.08793479370144
30
0
41
1
10
98.0893763015787
20
-8.22105334946474
30
0
41
1
10
97.8075944258288
20
-8.26404980136857
30
0
41
1
10
97.2438124468671
20
-8.34730466601846
30
0
41
1
10
96.9619068404597
20
-8.38754865214887
30
0
41
1
10
96.1166707382798
20
-8.50407530434333
30
0
41
1
10
95.5536138283477
20
-8.57618976203423
30
0
41
1
10
94.8504066850528
20
-8.65937661010142
30
0
41
1
10
94.7097960122476
20
-8.67566567589793
30
0
41
1
10
94.4286382572657
20
-8.70754540451583
30
0
41
1
10
94.2880965008832
20
-8.72314069322346
30
0
41
1
10
93.8664823552039
20
-8.76879601878932
30
0
41
1
10
93.5853910745387
20
-8.79770023802715
30
0
41
1
10
92.7420745888037
20
-8.87986971721895
30
0
41
1
10
91.6175430447066
20
-8.97733047727874
30
0
41
1
10
90.4929407169291
20
-9.05098933620647
30
0
41
1
10
89.36838183548
20
-9.11275000713616
30
0
41
1
10
88.8061303040099
20
-9.13768472654735
30
0
41
1
10
88.1034054084379
20
-9.16129261702295
30
0
41
1
10
87.9628606334841
20
-9.16563383197851
30
0
41
1
10
87.6816964951368
20
-9.17353657334678
30
0
41
1
10
87.259856887156
20
-9.18422713628962
30
0
41
1
10
86.556329492426
20
-9.19625787678848
30
0
41
1
10
85.9930347274268
20
-9.19975460899121
30
0
41
1
10
85.4295132733953
20
-9.20019728324829
30
0
41
1
10
85.1475712669365
20
-9.19889076055955
30
0
41
1
10
84.3019607179594
20
-9.19039220766695
30
0
41
1
10
83.7386370097823
20
-9.17863339076305
30
0
41
1
10
82.8943512110744
20
-9.15180295718355
30
0
41
1
10
82.6130396439897
20
-9.1413256952298
30
0
41
1
10
82.0506663060106
20
-9.11727313965841
30
0
41
1
10
81.7696326553481
20
-9.1036812612567
30
0
41
1
10
80.3642290476222
20
-9.02831264342169
30
0
41
1
10
79.2396289458901
20
-8.94431281099125
30
0
41
1
10
77.5527490648027
20
-8.78312740937605
30
0
41
1
10
76.9904589902202
20
-8.7235117506649
30
0
41
1
10
76.2876676894235
20
-8.64146462802785
30
0
41
1
10
76.1471130125061
20
-8.62467826322364
30
0
41
1
10
75.8660126418945
20
-8.59034507391431
30
0
41
1
10
75.7254718410216
20
-8.57279259060647
30
0
41
1
10
75.3037684966771
20
-8.51909075453602
30
0
41
1
10
75.0225069169379
20
-8.48191925540542
30
0
41
1
10
74.1783544866023
20
-8.36632373469055
30
0
41
1
10
73.6150967199291
20
-8.28382417721048
30
0
41
1
10
72.769534882591
20
-8.15191114883186
30
0
41
1
10
72.4875760038354
20
-8.10657789820402
30
0
41
1
10
71.9240113585136
20
-8.01326632936809
30
0
41
1
10
71.6423342785563
20
-7.96527752461316
30
0
41
1
10
70.7976367338688
20
-7.81728003084663
30
0
41
1
10
70.2349573855709
20
-7.71323367694279
30
0
41
1
10
69.5322229688695
20
-7.57628023476488
30
0
41
1
10
69.3916993638271
20
-7.54855636418642
30
0
41
1
10
69.1106296273588
20
-7.49255985662015
30
0
41
1
10
68.6890117731319
20
-7.40770820310158
30
0
41
1
10
68.2673565165587
20
-7.32029831910211
30
0
41
1
10
67.4240085731108
20
-7.14207687881043
30
0
41
1
10
66.8617264778596
20
-7.01873227028904
30
0
41
1
10
65.737139951349
20
-6.762895596551
30
0
41
1
10
65.1748321425671
20
-6.63041058789142
30
0
41
1
10
64.331421903878
20
-6.42462187476352
30
0
41
1
10
64.0502940067534
20
-6.35484694308394
30
0
41
1
10
63.4880699275267
20
-6.21288452718201
30
0
41
1
10
63.2069970838374
20
-6.14064190186363
30
0
41
1
10
62.3632981888987
20
-5.92143532370477
30
0
41
1
10
61.8003273478003
20
-5.77171538173013
30
0
41
1
10
60.9551703595061
20
-5.54171727815708
30
0
41
1
10
60.6732970261781
20
-5.46413635311654
30
0
41
1
10
60.1094914517843
20
-5.30718816246844
30
0
41
1
10
59.8276905531077
20
-5.2278577347449
30
0
41
1
10
58.9826061012494
20
-4.98726833566212
30
0
41
1
10
58.4196402486971
20
-4.82341553662647
30
0
41
1
10
57.7165349383532
20
-4.61406219151596
30
0
41
1
10
57.5759440317484
20
-4.57196429627126
30
0
41
1
10
57.2948246198496
20
-4.48730712745672
30
0
41
1
10
57.1542997931899
20
-4.44473816545164
30
0
41
1
10
56.7327124592415
20
-4.31661268406154
30
0
41
1
10
56.4516350946907
20
-4.23064385494831
30
0
41
1
10
55.6083537745153
20
-3.97108076948575
30
0
41
1
10
54.4838478684479
20
-3.62058290914465
30
0
41
1
10
53.3592287992435
20
-3.26097035423922
30
0
41
1
10
52.2346329434275
20
-2.89656343944961
30
0
41
1
10
51.672359426379
20
-2.7119271140183
30
0
41
1
10
50.8290207189984
20
-2.43115313925674
30
0
41
1
10
50.5478404329517
20
-2.33714864620291
30
0
41
1
10
49.9851782567819
20
-2.14879809839209
30
0
41
1
10
49.4222647249652
20
-1.95996371628476
30
0
41
1
10
48.858867930225
20
-1.77012127193609
30
0
41
1
10
48.2952393075186
20
-1.57974942496978
30
0
41
1
10
48.0132615804705
20
-1.4842822286447
30
0
41
1
10
47.1678112993669
20
-1.19731955480336
30
0
41
1
10
46.6045838515668
20
-1.00519549826896
30
0
41
1
10
45.7604280993746
20
-0.715563182973597
30
0
41
1
10
45.4791574392598
20
-0.618777100141358
30
0
41
1
10
44.9168611480068
20
-0.424675944388326
30
0
41
1
10
44.6358519503669
20
-0.327312858820108
30
0
41
1
10
43.230522285391
20
0.158186988543292
30
0
41
1
10
42.1059375771244
20
0.544116166916439
30
0
41
1
10
40.4190187928893
20
1.12063049766755
30
0
41
1
10
39.8567056327563
20
1.31240405035601
30
0
41
1
10
39.1538728752654
20
1.55181236158432
30
0
41
1
10
39.0133092903965
20
1.59967865018152
30
0
41
1
10
38.7321897839459
20
1.69538519172545
30
0
41
1
10
38.5916359537677
20
1.74323147471921
30
0
41
1
10
38.1698723618624
20
1.8864015611841
30
0
41
1
10
37.888567784062
20
1.98137790626359
30
0
41
1
10
37.0442786373621
20
2.26493064660676
30
0
41
1
10
36.4809193591315
20
2.4521331940133
30
0
41
1
10
35.3532798315686
20
2.82310549376206
30
0
41
1
10
34.7896653320405
20
3.00665571637316
30
0
41
1
10
33.6631624358754
20
3.37002895632429
30
0
41
1
10
33.1002537520203
20
3.54991404725067
30
0
41
1
10
32.2564230755808
20
3.81701933304825
30
0
41
1
10
31.9751453033261
20
3.90535980915999
30
0
41
1
10
31.4124526145569
20
4.08030521988113
30
0
41
1
10
31.1310585930895
20
4.16696610082982
30
0
41
1
10
30.2867471194829
20
4.42456534003568
30
0
41
1
10
29.7237001062115
20
4.59312276091848
30
0
41
1
10
28.5973401311427
20
4.9241141425332
30
0
41
1
10
28.0340237536227
20
5.08653989061142
30
0
41
1
10
27.1889173772086
20
5.32570707849499
30
0
41
1
10
26.9071486647208
20
5.40469634140294
30
0
41
1
10
26.3437865534982
20
5.56114234589703
30
0
41
1
10
26.0622897877325
20
5.63858807902415
30
0
41
1
10
25.2177892162533
20
5.86726795439236
30
0
41
1
10
24.6549308730924
20
6.0152340401103
30
0
41
1
10
23.5295576825646
20
6.30250170481921
30
0
41
1
10
22.9670442434805
20
6.44180634086419
30
0
41
1
10
21.8424371526616
20
6.71194129092726
30
0
41
1
10
21.2803431752447
20
6.8427718313724
30
0
41
1
10
20.5780588161748
20
7.00107815975375
30
0
41
1
10
20.4376189237402
20
7.03247801388821
30
0
41
1
10
20.1567733067675
20
7.09475181641363
30
0
41
1
10
20.0163671405363
20
7.12562446510245
30
0
41
1
10
19.5950800783874
20
7.21722979081289
30
0
41
1
10
19.3141483875332
20
7.27698477282834
30
0
41
1
10
18.4711440498923
20
7.45235962016523
30
0
41
1
10
17.9088643573915
20
7.56409789975277
30
0
41
1
10
16.7838152245265
20
7.7774049135131
30
0
41
1
10
16.2210440050475
20
7.87897136721639
30
0
41
1
10
15.0950908158335
20
8.07199511856706
30
0
41
1
10
14.5319095245908
20
8.16345508553684
30
0
41
1
10
13.9685872307865
20
8.24983694174867
30
0
0
SPLINE
5
C7
100
AcDbEntity
8
1
62
256
6
ByLayer
370
18
48
1
60
0
100
AcDbSpline
70
4
71
3
72
22
73
18
40
0
40
0
40
0
40
0
40
0.0624999999999977
40
0.0624999999999977
40
0.124999999999995
40
0.124999999999995
40
0.249999999999991
40
0.249999999999991
40
0.499999999999989
40
0.499999999999989
40
0.624999999999988
40
0.624999999999988
40
0.687499999999988
40
0.687499999999988
40
0.749999999999987
40
0.749999999999987
40
1
40
1
40
1
40
1
41
1
10
131.960935427107
20
-1.38797150764935
30
0
41
1
10
131.753194736481
20
-1.31294424880434
30
0
41
1
10
131.545551312921
20
-1.2376856634952
30
0
41
1
10
131.130417076114
20
-1.08682301856575
30
0
41
1
10
130.922882449886
20
-1.01134080952903
30
0
41
1
10
130.30024739731
20
-0.785098099278088
30
0
41
1
10
129.885166552099
20
-0.634400260663227
30
0
41
1
10
128.640007409344
20
-0.182537090849166
30
0
41
1
10
127.810006218918
20
0.118381960075539
30
0
41
1
10
126.565422996494
20
0.57000076863477
30
0
41
1
10
126.150634713299
20
0.720588421623518
30
0
41
1
10
125.528604935418
20
0.94665888191102
30
0
41
1
10
125.321297542589
20
1.02207586168288
30
0
41
1
10
124.906687502618
20
1.17284502978777
30
0
41
1
10
124.699337574999
20
1.24806709065382
30
0
41
1
10
123.662229708809
20
1.62299837465224
30
0
41
1
10
122.83153664105
20
1.919556507121
30
0
41
1
10
122
20
2.21318295453449
30
0
0
SPLINE
5
C8
100
AcDbEntity
8
1
62
256
6
ByLayer
370
18
48
1
60
0
100
AcDbSpline
70
4
71
3
72
89
73
85
40
0
40
0
40
0
40
0
40
0.0312500000000026
40
0.0312500000000026
40
0.0625000000000053
40
0.0625000000000053
40
0.12500000000001
40
0.12500000000001
40
0.140625000000011
40
0.140625000000011
40
0.148437500000011
40
0.148437500000011
40
0.156250000000011
40
0.18750000000001
40
0.218750000000009
40
0.218750000000009
40
0.250000000000008
40
0.250000000000008
40
0.281250000000008
40
0.281250000000008
40
0.296875000000007
40
0.296875000000007
40
0.312500000000007
40
0.312500000000007
40
0.343750000000006
40
0.343750000000006
40
0.375000000000006
40
0.375000000000006
40
0.406250000000005
40
0.406250000000005
40
0.437500000000005
40
0.437500000000005
40
0.445312500000004
40
0.445312500000004
40
0.453125000000004
40
0.468750000000003
40
0.468750000000003
40
0.500000000000001
40
0.500000000000001
40
0.53125
40
0.53125
40
0.539062499999999
40
0.539062499999999
40
0.546874999999999
40
0.562499999999998
40
0.562499999999998
40
0.593749999999997
40
0.593749999999997
40
0.624999999999996
40
0.624999999999996
40
0.632812499999996
40
0.632812499999996
40
0.640624999999997
40
0.656249999999997
40
0.656249999999997
40
0.687499999999998
40
0.687499999999998
40
0.718749999999998
40
0.718749999999998
40
0.726562499999998
40
0.726562499999998
40
0.734374999999998
40
0.734374999999998
40
0.749999999999998
40
0.749999999999998
40
0.781249999999997
40
0.781249999999997
40
0.812499999999996
40
0.812499999999996
40
0.843749999999994
40
0.843749999999994
40
0.851562499999995
40
0.851562499999995
40
0.859374999999995
40
0.874999999999996
40
0.874999999999996
40
0.906249999999998
40
0.937499999999999
40
0.968750000000001
40
0.968750000000001
40
0.976562500000001
40
0.976562500000001
40
0.984375000000001
40
1
40
1
40
1
40
1
41
1
10
131.960935427113
20
9.41474293924463
30
0
41
1
10
132.021662695951
20
9.26418355175255
30
0
41
1
10
132.082485817134
20
9.11136241704637
30
0
41
1
10
132.204427119351
20
8.80155274350366
30
0
41
1
10
132.265545193569
20
8.64456341205653
30
0
41
1
10
132.449450908713
20
8.16772925287353
30
0
41
1
10
132.572806742421
20
7.84205160140851
30
0
41
1
10
132.728075464562
20
7.42593639216943
30
0
41
1
10
132.759181567568
20
7.34225974677537
30
0
41
1
10
132.805917287964
20
7.21606983240707
30
0
41
1
10
132.821519418623
20
7.1738646641997
30
0
41
1
10
132.852693114746
20
7.08938008209645
30
0
41
1
10
132.930512773733
20
6.87808472059831
30
0
41
1
10
133.069570862936
20
6.49700989491927
30
0
41
1
10
133.191631115729
20
6.15721295829763
30
0
41
1
10
133.312779494367
20
5.81684505344083
30
0
41
1
10
133.372898756485
20
5.64637597966279
30
0
41
1
10
133.491965812112
20
5.30478097913684
30
0
41
1
10
133.55091600319
20
5.13365591207642
30
0
41
1
10
133.638137180699
20
4.87636192172405
30
0
41
1
10
133.667008635326
20
4.79049559939804
30
0
41
1
10
133.724268404116
20
4.61853163041866
30
0
41
1
10
133.752667667987
20
4.53239815421267
30
0
41
1
10
133.836583631456
20
4.27486577325053
30
0
41
1
10
133.890970821769
20
4.10392667063996
30
0
41
1
10
133.99563667974
20
3.76326253699176
30
0
41
1
10
134.045921725962
20
3.59353896603761
30
0
41
1
10
134.140856884704
20
3.25494802903904
30
0
41
1
10
134.185516499519
20
3.08607974091996
30
0
41
1
10
134.266925842132
20
2.74872534382746
30
0
41
1
10
134.303679512923
20
2.5802380457271
30
0
41
1
10
134.342631747721
20
2.36952329904045
30
0
41
1
10
134.350074021984
20
2.32735243520733
30
0
41
1
10
134.364178220152
20
2.24308718623229
30
0
41
1
10
134.384110736624
20
2.11713154690256
30
0
41
1
10
134.400157433003
20
1.99252046306276
30
0
41
1
10
134.426547395845
20
1.74516213767916
30
0
41
1
10
134.436479961125
20
1.5827333283091
30
0
41
1
10
134.439168198364
20
1.26341379617907
30
0
41
1
10
134.431908324944
20
1.10652576465171
30
0
41
1
10
134.412164810128
20
0.914390006498166
30
0
41
1
10
134.407683940991
20
0.876132909625284
30
0
41
1
10
134.397703499508
20
0.800156088253289
30
0
41
1
10
134.381261294015
20
0.687404196663834
30
0
41
1
10
134.360659633551
20
0.57824743580133
30
0
41
1
10
134.314602994326
20
0.364610750693401
30
0
41
1
10
134.277454099881
20
0.228413426672319
30
0
41
1
10
134.193621298122
20
-0.0320180406882571
30
0
41
1
10
134.146944453062
20
-0.156255738951785
30
0
41
1
10
134.084191337546
20
-0.304193058366138
30
0
41
1
10
134.071410106925
20
-0.333429250489417
30
0
41
1
10
134.045466531841
20
-0.391086351980817
30
0
41
1
10
134.006065449807
20
-0.476159162780476
30
0
41
1
10
133.965358335616
20
-0.557077134309282
30
0
41
1
10
133.88251941613
20
-0.713540840836288
30
0
41
1
10
133.825412764003
20
-0.810701944115692
30
0
41
1
10
133.708547877113
20
-0.991211473511612
30
0
41
1
10
133.648781722615
20
-1.07455728614772
30
0
41
1
10
133.572777145966
20
-1.17012356301907
30
0
41
1
10
133.557510419129
20
-1.18880500735273
30
0
41
1
10
133.526851039679
20
-1.22530078693606
30
0
41
1
10
133.511444275001
20
-1.2431302322957
30
0
41
1
10
133.465230926038
20
-1.29510223864341
30
0
41
1
10
133.434386209457
20
-1.32778732713538
30
0
41
1
10
133.341792910892
20
-1.42008733582418
30
0
41
1
10
133.279989776398
20
-1.47395889261983
30
0
41
1
10
133.156347382024
20
-1.56677161522734
30
0
41
1
10
133.094506188671
20
-1.60571122030879
30
0
41
1
10
132.970768748949
20
-1.6686846491356
30
0
41
1
10
132.90887161798
20
-1.69271847062328
30
0
41
1
10
132.831401301391
20
-1.71324781189861
30
0
41
1
10
132.815888044534
20
-1.71687924584413
30
0
41
1
10
132.784982346665
20
-1.72315685665512
30
0
41
1
10
132.738766301185
20
-1.73110792921722
30
0
41
1
10
132.692962549014
20
-1.73471223503165
30
0
41
1
10
132.601864470725
20
-1.73622450135397
30
0
41
1
10
132.481758446091
20
-1.72307064118999
30
0
41
1
10
132.305039161721
20
-1.65866121950742
30
0
41
1
10
132.189103840998
20
-1.58588614677828
30
0
41
1
10
132.117100525774
20
-1.53087460304445
30
0
41
1
10
132.10272798046
20
-1.51939844683673
30
0
41
1
10
132.074104199363
20
-1.4955541706849
30
0
41
1
10
132.031321854157
20
-1.45842804137106
30
0
41
1
10
131.988981350977
20
-1.41723616417474
30
0
41
1
10
131.960935427113
20
-1.3879715076516
30
0
0
SPLINE
5
C9
100
AcDbEntity
8
1
62
256
6
ByLayer
370
18
48
1
60
0
100
AcDbSpline
70
4
71
3
72
20
73
16
40
0
40
0
40
0
40
0
40
0.262179849867889
40
0.262179849867889
40
0.446634887400917
40
0.446634887400917
40
0.538862406167431
40
0.538862406167431
40
0.631089924933945
40
0.631089924933945
40
0.723317443700458
40
0.723317443700458
40
0.815544962466972
40
0.815544962466972
40
1
40
1
40
1
40
1
41
1
10
125.210976025585
20
9.72229302540708
30
0
41
1
10
125.800895053806
20
9.72239967457287
30
0
41
1
10
126.390836058858
20
9.71542435514942
30
0
41
1
10
127.395630514371
20
9.69155821612983
30
0
41
1
10
127.810539774724
20
9.67820757564883
30
0
41
1
10
128.432749221778
20
9.65286032146543
30
0
41
1
10
128.640127144298
20
9.6435237672417
30
0
41
1
10
129.0548252426
20
9.62305553665118
30
0
41
1
10
129.262131715533
20
9.61191765620126
30
0
41
1
10
129.676750743659
20
9.58785361088627
30
0
41
1
10
129.884127199471
20
9.57495586225753
30
0
41
1
10
130.299077517501
20
9.54747816879893
30
0
41
1
10
130.50663855156
20
9.53289265631028
30
0
41
1
10
131.129547969752
20
9.48660264414093
30
0
41
1
10
131.545118792534
20
9.45236522944083
30
0
41
1
10
131.960935427106
20
9.4147429392452
30
0
0
SPLINE
5
CA
100
AcDbEntity
8
1
62
256
6
ByLayer
370
18
48
1
60
0
100
AcDbSpline
70
4
71
3
72
48
73
44
40
0
40
0
40
0
40
0
40
0.068540095455372
40
0.068540095455372
40
0.137080190910744
40
0.137080190910744
40
0.205620286366116
40
0.205620286366116
40
0.239890334093803
40
0.239890334093803
40
0.257025357957647
40
0.257025357957647
40
0.274160381821491
40
0.274160381821491
40
0.342700477276863
40
0.342700477276863
40
0.411240572732235
40
0.411240572732235
40
0.479780668187607
40
0.479780668187607
40
0.514050715915293
40
0.514050715915293
40
0.531185739779136
40
0.531185739779136
40
0.548320763642979
40
0.548320763642979
40
0.616860859098351
40
0.616860859098351
40
0.685400954553723
40
0.685400954553723
40
0.753941050009095
40
0.753941050009095
40
0.771076073872938
40
0.771076073872938
40
0.78821109773678
40
0.78821109773678
40
0.822481145464466
40
0.822481145464466
40
0.891021240919836
40
0.891021240919836
40
0.959561336375206
40
0.959561336375206
40
1
40
1
40
1
40
1
41
1
10
18.1392835589703
20
-5.81874891770693
30
0
41
1
10
18.6806382117251
20
-5.96446288405539
30
0
41
1
10
19.222001245361
20
-6.10547105152972
30
0
41
1
10
20.3045121745631
20
-6.37889704583111
30
0
41
1
10
20.8456591949014
20
-6.51131548354431
30
0
41
1
10
21.9275279325554
20
-6.76809404188688
30
0
41
1
10
22.4682483010742
20
-6.89245662694512
30
0
41
1
10
23.2788532258408
20
-7.0731916948624
30
0
41
1
10
23.5489764457249
20
-7.13246520822528
30
0
41
1
10
23.954030586902
20
-7.21992128641074
30
0
41
1
10
24.0890249238602
20
-7.24883430758848
30
0
41
1
10
24.3589771524779
20
-7.30615828099508
30
0
41
1
10
24.4939424108367
20
-7.33455555452258
30
0
41
1
10
25.1689427777316
20
-7.47481916707443
30
0
41
1
10
25.7093588548298
20
-7.58178555822113
30
0
41
1
10
26.790698772144
20
-7.78598870664879
30
0
41
1
10
27.3316312581135
20
-7.88320861467332
30
0
41
1
10
28.4138194479527
20
-8.06820853402564
30
0
41
1
10
28.9550698899728
20
-8.15599612463546
30
0
41
1
10
29.7670474432435
20
-8.28066241823643
30
0
41
1
10
30.0377247597471
20
-8.32104540817082
30
0
41
1
10
30.4437576493879
20
-8.37984549475669
30
0
41
1
10
30.5791028376088
20
-8.39915127095202
30
0
41
1
10
30.8497647134394
20
-8.43702795726364
30
0
41
1
10
30.9850972402981
20
-8.45560326208377
30
0
41
1
10
31.6617550263147
20
-8.5466977739317
30
0
41
1
10
32.2030591879468
20
-8.61389155443737
30
0
41
1
10
33.2853530673811
20
-8.73747137176431
30
0
41
1
10
33.8263523944514
20
-8.79384537097675
30
0
41
1
10
34.9078502838903
20
-8.89596551014401
30
0
41
1
10
35.4483429040672
20
-8.94171542144701
30
0
41
1
10
36.1235304302228
20
-8.99221370015906
30
0
41
1
10
36.2585467512152
20
-9.00197815988014
30
0
41
1
10
36.5285349524336
20
-9.02083273776847
30
0
41
1
10
36.6634997327864
20
-9.02992643151023
30
0
41
1
10
37.0684290354722
20
-9.05613338755032
30
0
41
1
10
37.3384849859373
20
-9.07214462414049
30
0
41
1
10
38.1489314316544
20
-9.1158820293667
30
0
41
1
10
38.689575973439
20
-9.13933299566963
30
0
41
1
10
39.7713076588598
20
-9.1750739576207
30
0
41
1
10
40.3124024061832
20
-9.18736075007044
30
0
41
1
10
41.1729413497906
20
-9.19799217012238
30
0
41
1
10
41.4923026888494
20
-9.19998733247564
30
0
41
1
10
41.8116919757858
20
-9.20000168333817
30
0
0
SPLINE
5
CB
100
AcDbEntity
8
1
62
256
6
ByLayer
370
18
48
1
60
0
100
AcDbSpline
70
4
71
3
72
34
73
30
40
0
40
0
40
0
40
0
40
0.0047770894573035
40
0.0047770894573035
40
0.104299380511556
40
0.104299380511556
40
0.203821671565808
40
0.203821671565808
40
0.30334396262006
40
0.30334396262006
40
0.328224535383626
40
0.328224535383626
40
0.353105108147193
40
0.40286625367433
40
0.40286625367433
40
0.502388544728606
40
0.502388544728606
40
0.60191083578288
40
0.60191083578288
40
0.651671981310018
40
0.67655255407359
40
0.67655255407359
40
0.701433126837161
40
0.701433126837161
40
0.80095541789144
40
0.80095541789144
40
0.90047770894572
40
0.90047770894572
40
1
40
1
40
1
40
1
41
1
10
105.681513627478
20
6.72798744404173
30
0
41
1
10
105.707499752987
20
6.73409846395873
30
0
41
1
10
105.733486067268
20
6.74019853454033
30
0
41
1
10
106.300855433508
20
6.87314503750287
30
0
41
1
10
106.842303789922
20
6.99529725803103
30
0
41
1
10
107.925103140253
20
7.23076800456343
30
0
41
1
10
108.466459673635
20
7.34407581299806
30
0
41
1
10
109.548870322589
20
7.56216802234303
30
0
41
1
10
110.089921258565
20
7.66695636432488
30
0
41
1
10
110.765952839881
20
7.79261923978561
30
0
41
1
10
110.901141289994
20
7.81749048285332
30
0
41
1
10
111.171586013385
20
7.86654955407394
30
0
41
1
10
111.577361123412
20
7.93910509664499
30
0
41
1
10
111.983433764807
20
8.0086257830171
30
0
41
1
10
112.795910127726
20
8.14375785880992
30
0
41
1
10
113.338146180398
20
8.22866549002418
30
0
41
1
10
114.421865338958
20
8.38822477868385
30
0
41
1
10
114.963487121606
20
8.46290166072828
30
0
41
1
10
115.775401810148
20
8.56738719834794
30
0
41
1
10
116.181230278842
20
8.61774357683024
30
0
41
1
10
116.586844588446
20
8.6652572992771
30
0
41
1
10
116.857204461148
20
8.69629811830541
30
0
41
1
10
116.992352287948
20
8.71150757271511
30
0
41
1
10
117.66812625206
20
8.78580896821441
30
0
41
1
10
118.209130769141
20
8.83943138628939
30
0
41
1
10
119.291636902996
20
8.93556141567018
30
0
41
1
10
119.833132891296
20
8.97807113157745
30
0
41
1
10
120.916407959939
20
9.05216317219512
30
0
41
1
10
121.45818322114
20
9.08374782383942
30
0
41
1
10
122
20
9.10982960321203
30
0
0
SPLINE
5
CC
100
AcDbEntity
8
1
62
256
6
ByLayer
370
18
48
1
60
0
100
AcDbSpline
70
4
71
3
72
68
73
64
40
0
40
0
40
0
40
0
40
0.0464295659744582
40
0.0464295659744582
40
0.0696443489616863
40
0.0696443489616863
40
0.0928591319489144
40
0.0928591319489144
40
0.185718263897821
40
0.185718263897821
40
0.232147829872275
40
0.232147829872275
40
0.255362612859503
40
0.255362612859503
40
0.278577395846731
40
0.278577395846731
40
0.325006961821185
40
0.325006961821185
40
0.348221744808412
40
0.348221744808412
40
0.371436527795639
40
0.371436527795639
40
0.417866093770093
40
0.417866093770093
40
0.429473485263705
40
0.429473485263705
40
0.441080876757317
40
0.464295659744544
40
0.464295659744544
40
0.510725225718996
40
0.510725225718996
40
0.557154791693448
40
0.557154791693448
40
0.580369574680675
40
0.580369574680675
40
0.603584357667902
40
0.603584357667902
40
0.650013923642354
40
0.650013923642354
40
0.67322870662958
40
0.67322870662958
40
0.696443489616806
40
0.696443489616806
40
0.742873055591256
40
0.742873055591256
40
0.754480447084868
40
0.754480447084868
40
0.76608783857848
40
0.76608783857848
40
0.789302621565704
40
0.789302621565704
40
0.835732187540152
40
0.8821617535146
40
0.8821617535146
40
0.928591319489048
40
0.928591319489048
40
0.940198710982659
40
0.940198710982659
40
0.951806102476271
40
0.975020885463494
40
0.998235668450717
40
0.998235668450717
40
1
40
1
40
1
40
1
41
1
10
122
20
1.91842247960679
30
0
41
1
10
121.436149045841
20
2.10776354747233
30
0
41
1
10
120.872725402269
20
2.29569069374745
30
0
41
1
10
120.028304026055
20
2.57565805815128
30
0
41
1
10
119.746949711062
20
2.66866055877856
30
0
41
1
10
119.184495643201
20
2.85405922098653
30
0
41
1
10
118.903432173496
20
2.94655496769366
30
0
41
1
10
117.497945109866
20
3.40524922079692
30
0
41
1
10
116.373322201474
20
3.76105292084856
30
0
41
1
10
114.686470068609
20
4.27950275149252
30
0
41
1
10
114.124199384826
20
4.44976569168784
30
0
41
1
10
113.280893988585
20
4.70148348752932
30
0
41
1
10
112.999833796091
20
4.78483788608935
30
0
41
1
10
112.437635013776
20
4.95002280068132
30
0
41
1
10
112.156416494995
20
5.03165426838672
30
0
41
1
10
111.312395169279
20
5.27366330894986
30
0
41
1
10
110.749235193087
20
5.43117984276762
30
0
41
1
10
109.903835564977
20
5.66189427836252
30
0
41
1
10
109.621859643269
20
5.73788960601092
30
0
41
1
10
109.058189203154
20
5.88791382228928
30
0
41
1
10
108.776461849308
20
5.96195140369022
30
0
41
1
10
107.93162080417
20
6.18117594916433
30
0
41
1
10
107.368850347384
20
6.32348534742252
30
0
41
1
10
106.666027643782
20
6.49663103514635
30
0
41
1
10
106.525493147285
20
6.53101804919754
30
0
41
1
10
106.244406401777
20
6.59914671166459
30
0
41
1
10
105.822765191508
20
6.7004050126267
30
0
41
1
10
105.401092819177
20
6.79888101446795
30
0
41
1
10
104.557718514589
20
6.99218064825862
30
0
41
1
10
103.995429431695
20
7.11618201086867
30
0
41
1
10
102.870849848138
20
7.35466769753117
30
0
41
1
10
102.308556096011
20
7.46914660589047
30
0
41
1
10
101.465181782454
20
7.63378313119213
30
0
41
1
10
101.184068389114
20
7.68748090908681
30
0
41
1
10
100.621878354713
20
7.79251157109138
30
0
41
1
10
100.340834777056
20
7.84389197967707
30
0
41
1
10
99.4972581892952
20
7.99368774535273
30
0
41
1
10
98.9343795740424
20
8.08793479370144
30
0
41
1
10
98.0893763015787
20
8.22105334946474
30
0
41
1
10
97.8075944258288
20
8.26404980136857
30
0
41
1
10
97.243812446867
20
8.34730466601846
30
0
41
1
10
96.9619068404598
20
8.38754865214887
30
0
41
1
10
96.1166707382798
20
8.50407530434333
30
0
41
1
10
95.5536138283479
20
8.57618976203423
30
0
41
1
10
94.850406685053
20
8.65937661010142
30
0
41
1
10
94.7097960122476
20
8.67566567589793
30
0
41
1
10
94.4286382572658
20
8.70754540451583
30
0
41
1
10
94.2880965008833
20
8.72314069322346
30
0
41
1
10
93.8664823552037
20
8.76879601878926
30
0
41
1
10
93.5853910745387
20
8.79770023802715
30
0
41
1
10
92.7420745888037
20
8.87986971721895
30
0
41
1
10
91.6175430447065
20
8.97733047727874
30
0
41
1
10
90.4929407169291
20
9.0509893362065
30
0
41
1
10
89.3683818354801
20
9.11275000713616
30
0
41
1
10
88.8061303040098
20
9.13768472654735
30
0
41
1
10
88.1034054084379
20
9.16129261702295
30
0
41
1
10
87.962860633484
20
9.16563383197848
30
0
41
1
10
87.6816964951368
20
9.17353657334678
30
0
41
1
10
87.259856887156
20
9.18422713628962
30
0
41
1
10
86.5563295699667
20
9.19625789337093
30
0
41
1
10
85.9930347274268
20
9.19975460899121
30
0
41
1
10
85.689860087548
20
9.1999927678182
30
0
41
1
10
85.6684451276054
20
9.20000076451788
30
0
41
1
10
85.6470292316907
20
9.19999993689115
30
0
0
SPLINE
5
CD
100
AcDbEntity
8
1
62
256
6
ByLayer
370
18
48
1
60
0
100
AcDbSpline
70
4
71
3
72
20
73
16
40
0
40
0
40
0
40
0
40
0.133261115664306
40
0.133261115664306
40
0.187432295935287
40
0.187432295935287
40
0.241603476206266
40
0.241603476206266
40
0.34994583674823
40
0.34994583674823
40
0.566630557832154
40
0.566630557832154
40
0.783315278916077
40
0.783315278916077
40
1
40
1
40
1
40
1
41
1
10
21.7553766360578
20
-6.73099560487842
30
0
41
1
10
21.4096643538263
20
-6.81206040008394
30
0
41
1
10
21.0640396242778
20
-6.89153017338475
30
0
41
1
10
20.5780588161748
20
-7.00107815975377
30
0
41
1
10
20.4376189237402
20
-7.03247801388821
30
0
41
1
10
20.1567733067674
20
-7.09475181641366
30
0
41
1
10
20.0163671405363
20
-7.12562446510245
30
0
41
1
10
19.5950800783874
20
-7.21722979081292
30
0
41
1
10
19.3141483875332
20
-7.27698477282837
30
0
41
1
10
18.4711440498923
20
-7.45235962016525
30
0
41
1
10
17.9088643573916
20
-7.56409789975277
30
0
41
1
10
16.7838152245265
20
-7.77740491351312
30
0
41
1
10
16.2210440050475
20
-7.87897136721642
30
0
41
1
10
15.0950908158334
20
-8.07199511856706
30
0
41
1
10
14.5319095245908
20
-8.16345508553684
30
0
41
1
10
13.9685872307865
20
-8.2498369417487
30
0
0
SPLINE
5
CE
100
AcDbEntity
8
1
62
256
6
ByLayer
370
18
48
1
60
0
100
AcDbSpline
70
4
71
3
72
14
73
10
40
0
40
0
40
0
40
0
40
0.25
40
0.25
40
0.5
40
0.5
40
0.75
40
0.75
40
1
40
1
40
1
40
1
41
1
10
13.9685872307865
20
-8.2498369417487
30
0
41
1
10
13.6288590592222
20
-8.30340338681691
30
0
41
1
10
13.2919316707423
20
-8.3576266818082
30
0
41
1
10
12.6225192930681
20
-8.46491224307073
30
0
41
1
10
12.2900281206061
20
-8.51797635656317
30
0
41
1
10
11.628895049095
20
-8.62123367871428
30
0
41
1
10
11.3002509342788
20
-8.67143725432004
30
0
41
1
10
10.6469342372586
20
-8.76785650965323
30
0
41
1
10
10.3222630661372
20
-8.81408856276931
30
0
41
1
10
10
20
-8.85785825065497
30
0
0
SPLINE
5
CF
100
AcDbEntity
8
1
62
256
6
ByLayer
370
18
48
1
60
0
100
AcDbSpline
70
4
71
4
72
10
73
5
40
0
40
0
40
0
40
0
40
0
40
1
40
1
40
1
40
1
40
1
41
0.998788449736638
10
14.6599320544906
20
-5.07203086562491
30
0
41
0.997132775866024
10
14.4308066521792
20
-5.73493749483563
30
0
41
0.994784478757879
10
14.2269216511791
20
-6.51680790887148
30
0
41
0.995088023208733
10
14.071255110199
20
-7.37745355277512
30
0
41
0.996444253743178
10
13.9685872307865
20
-8.24983694174869
30
0
0
SPLINE
5
D0
100
AcDbEntity
8
1
62
256
6
ByLayer
370
18
48
1
60
0
100
AcDbSpline
70
4
71
3
72
25
73
21
40
0
40
0
40
0
40
0
40
0.124999999999997
40
0.124999999999997
40
0.249999999999995
40
0.249999999999995
40
0.374999999999992
40
0.374999999999992
40
0.406249999999991
40
0.406249999999991
40
0.437499999999989
40
0.49999999999999
40
0.49999999999999
40
0.624999999999992
40
0.624999999999992
40
0.749999999999995
40
0.749999999999995
40
0.874999999999997
40
0.874999999999997
40
1
40
1
40
1
40
1
41
1
10
10.0000000000006
20
-5.1815488859009
30
0
41
1
10
10.3398304367596
20
-5.11616944846918
30
0
41
1
10
10.6810964989865
20
-5.06446238766654
30
0
41
1
10
11.3662712723327
20
-4.98722583045483
30
0
41
1
10
11.7101817314841
20
-4.96170823991608
30
0
41
1
10
12.40049948109
20
-4.93587928945917
30
0
41
1
10
12.7469080836449
20
-4.93557819723927
30
0
41
1
10
13.1814091706575
20
-4.95024925375617
30
0
41
1
10
13.2684714283909
20
-4.95394002501385
30
0
41
1
10
13.4422007738424
20
-4.962773145222
30
0
41
1
10
13.7022288524479
20
-4.97819514529223
30
0
41
1
10
13.96060925644
20
-4.99991628980999
30
0
41
1
10
14.4753017032034
20
-5.0511679843481
30
0
41
1
10
14.8156717212667
20
-5.09575572194601
30
0
41
1
10
15.4915681935658
20
-5.20249043979115
30
0
41
1
10
15.8270936363039
20
-5.26463665859816
30
0
41
1
10
16.4939972435747
20
-5.40298466525559
30
0
41
1
10
16.8253762723614
20
-5.47917918299731
30
0
41
1
10
17.484715293953
20
-5.64200524699882
30
0
41
1
10
17.81267814806
20
-5.72862387757556
30
0
41
1
10
18.1392835589702
20
-5.8187489177069
30
0
0
SPLINE
5
D1
100
AcDbEntity
8
1
62
256
6
ByLayer
370
18
48
1
60
0
100
AcDbSpline
70
4
71
3
72
108
73
104
40
0
40
0
40
0
40
0
40
0.0624999999999905
40
0.0624999999999905
40
0.0937499999999857
40
0.0937499999999857
40
0.124999999999981
40
0.124999999999981
40
0.156249999999976
40
0.156249999999976
40
0.187499999999971
40
0.187499999999971
40
0.195312499999971
40
0.195312499999971
40
0.20312499999997
40
0.20312499999997
40
0.218749999999968
40
0.218749999999968
40
0.249999999999966
40
0.249999999999966
40
0.281249999999964
40
0.281249999999964
40
0.296874999999962
40
0.296874999999962
40
0.304687499999962
40
0.304687499999962
40
0.312499999999962
40
0.312499999999962
40
0.343749999999961
40
0.343749999999961
40
0.37499999999996
40
0.37499999999996
40
0.37890624999996
40
0.37890624999996
40
0.38281249999996
40
0.38281249999996
40
0.390624999999959
40
0.390624999999959
40
0.406249999999959
40
0.406249999999959
40
0.421874999999959
40
0.421874999999959
40
0.437499999999959
40
0.437499999999959
40
0.445312499999959
40
0.445312499999959
40
0.453124999999959
40
0.453124999999959
40
0.468749999999959
40
0.468749999999959
40
0.499999999999958
40
0.499999999999958
40
0.503906249999958
40
0.503906249999958
40
0.507812499999958
40
0.515624999999957
40
0.515624999999957
40
0.531249999999957
40
0.531249999999957
40
0.546874999999956
40
0.546874999999956
40
0.554687499999956
40
0.554687499999956
40
0.558593749999956
40
0.558593749999956
40
0.562499999999956
40
0.562499999999956
40
0.593749999999958
40
0.593749999999958
40
0.609374999999959
40
0.609374999999959
40
0.617187499999959
40
0.617187499999959
40
0.62499999999996
40
0.62499999999996
40
0.656249999999963
40
0.656249999999963
40
0.687499999999966
40
0.687499999999966
40
0.71874999999997
40
0.71874999999997
40
0.72656249999997
40
0.72656249999997
40
0.734374999999971
40
0.749999999999973
40
0.749999999999973
40
0.781249999999976
40
0.781249999999976
40
0.81249999999998
40
0.81249999999998
40
0.843749999999983
40
0.843749999999983
40
0.874999999999987
40
0.874999999999987
40
0.90624999999999
40
0.90624999999999
40
0.921874999999992
40
0.921874999999992
40
0.937499999999993
40
0.937499999999993
40
0.968749999999997
40
0.968749999999997
40
1
40
1
40
1
40
1
41
1
10
10.000000000001
20
-5.18154888590067
30
0
41
1
10
9.5909216578099
20
-5.34307636900257
30
0
41
1
10
9.18869555205055
20
-5.51812205266964
30
0
41
1
10
8.5955248419549
20
-5.80090613898693
30
0
41
1
10
8.39949817412611
20
-5.8985414945941
30
0
41
1
10
8.01085323870501
20
-6.10062192159828
30
0
41
1
10
7.81823467521446
20
-6.20506634381277
30
0
41
1
10
7.43645063700967
20
-6.42089247324273
30
0
41
1
10
7.24728469333741
20
-6.53227314974086
30
0
41
1
10
6.87249220849824
20
-6.76219052298032
30
0
41
1
10
6.68686488475407
20
-6.88072549902569
30
0
41
1
10
6.45713414128232
20
-7.03358531408824
30
0
41
1
10
6.41130334646871
20
-7.06439223404735
30
0
41
1
10
6.31987557674341
20
-7.12648327389186
30
0
41
1
10
6.27423466292399
20
-7.15779804704863
30
0
41
1
10
6.13805648825735
20
-7.25219983210658
30
0
41
1
10
6.04827300987571
20
-7.31573432371127
30
0
41
1
10
5.78198762610285
20
-7.50810324365767
30
0
41
1
10
5.60854277322517
20
-7.63870072696804
30
0
41
1
10
5.27028972533253
20
-7.90446604551136
30
0
41
1
10
5.10547683968463
20
-8.03963276263005
30
0
41
1
10
4.86532228649995
20
-8.24577700114372
30
0
41
1
10
4.78645104802331
20
-8.31505823184509
30
0
41
1
10
4.67002202426485
20
-8.41983486086022
30
0
41
1
10
4.63150056354388
20
-8.4549271240459
30
0
41
1
10
4.55548965309936
20
-8.52504012187072
30
0
41
1
10
4.51795473158018
20
-8.56010115196781
30
0
41
1
10
4.33267175328581
20
-8.73540201683841
30
0
41
1
10
4.19206608768224
20
-8.87563264243357
30
0
41
1
10
3.92756688566942
20
-9.15533458733955
30
0
41
1
10
3.80365187447228
20
-9.2948095998357
30
0
41
1
10
3.67509635895061
20
-9.45079659341036
30
0
41
1
10
3.66096411924505
20
-9.46811552601022
30
0
41
1
10
3.63301010904243
20
-9.50272546871304
30
0
41
1
10
3.61917450992519
20
-9.52003411062728
30
0
41
1
10
3.57827673531915
20
-9.57174733986128
30
0
41
1
10
3.5518133933542
20
-9.60594987038218
30
0
41
1
10
3.47486615401223
20
-9.70770696278998
30
0
41
1
10
3.42682156611954
20
-9.77441209269921
30
0
41
1
10
3.33751461000318
20
-9.90536518810779
30
0
41
1
10
3.29625124124505
20
-9.96961355331368
30
0
41
1
10
3.22090334580045
20
-10.0954235819201
30
0
41
1
10
3.18681727839774
20
-10.1569858329726
30
0
41
1
10
3.14148984380671
20
-10.2471020605983
30
0
41
1
10
3.12732154110358
20
-10.2768374858933
30
0
41
1
10
3.1012702334121
20
-10.3349168991285
30
0
41
1
10
3.08935429463591
20
-10.3633187986776
30
0
41
1
10
3.05692818060899
20
-10.4466048040116
30
0
41
1
10
3.03973533638157
20
-10.4995710554438
30
0
41
1
10
3.00152736398945
20
-10.650681670801
30
0
41
1
10
2.99380309820535
20
-10.7410730435372
30
0
41
1
10
3.00636944527301
20
-10.8303460926918
30
0
41
1
10
3.00806603792159
20
-10.8401066709796
30
0
41
1
10
3.01203927932914
20
-10.8591837809739
30
0
41
1
10
3.01886717350499
20
-10.8871436104649
30
0
41
1
10
3.02826048494973
20
-10.9131670796873
30
0
41
1
10
3.05038039224578
20
-10.9627049888966
30
0
41
1
10
3.06956698143784
20
-10.9923877114322
30
0
41
1
10
3.11647381926136
20
-11.0453794214316
30
0
41
1
10
3.14419500213938
20
-11.0686877809993
30
0
41
1
10
3.19201632325272
20
-11.0990401595936
30
0
41
1
10
3.20899761575245
20
-11.1083886686238
30
0
41
1
10
3.23601826967123
20
-11.1212745181461
30
0
41
1
10
3.24527401298377
20
-11.1253750848335
30
0
41
1
10
3.26420433395018
20
-11.1331655504843
30
0
41
1
10
3.27388867123545
20
-11.1368602059545
30
0
41
1
10
3.36297326741464
20
-11.1683561450444
30
0
41
1
10
3.45576388958079
20
-11.1839502964774
30
0
41
1
10
3.61235633639711
20
-11.1919761002063
30
0
41
1
10
3.66747132092465
20
-11.1920747727568
30
0
41
1
10
3.75425840056983
20
-11.188652594099
30
0
41
1
10
3.78387380420685
20
-11.186916232933
30
0
41
1
10
3.84444014640027
20
-11.182294942499
30
0
41
1
10
3.87544677016189
20
-11.1794033223308
30
0
41
1
10
4.03287542267384
20
-11.1622712256738
30
0
41
1
10
4.16648880006883
20
-11.140104872057
30
0
41
1
10
4.44631981845507
20
-11.0824257944751
30
0
41
1
10
4.59255520476228
20
-11.0468910571961
30
0
41
1
10
4.8957491563842
20
-10.9648592170713
30
0
41
1
10
5.05271633010557
20
-10.9183514231345
30
0
41
1
10
5.25471485637391
20
-10.8544475005877
30
0
41
1
10
5.29541054099337
20
-10.8413747126123
30
0
41
1
10
5.37706466541846
20
-10.8147710210702
30
0
41
1
10
5.50005204387318
20
-10.7741428401226
30
0
41
1
10
5.62448224574467
20
-10.7314654779128
30
0
41
1
10
5.87508645006912
20
-10.6436465567093
30
0
41
1
10
6.04447598094532
20
-10.5818262083442
30
0
41
1
10
6.38708452337659
20
-10.4527338781709
30
0
41
1
10
6.56030493524776
20
-10.3854580574066
30
0
41
1
10
6.90991399236688
20
-10.246226473884
30
0
41
1
10
7.08630302654396
20
-10.1742683231922
30
0
41
1
10
7.44170683556095
20
-10.0262202854323
30
0
41
1
10
7.62072139469254
20
-9.95012870306212
30
0
41
1
10
7.9809513321442
20
-9.79419722432817
30
0
41
1
10
8.16216616032389
20
-9.71435592296106
30
0
41
1
10
8.43541787106926
20
-9.59198057037469
30
0
41
1
10
8.52677150487273
20
-9.55073846003509
30
0
41
1
10
8.70971385944932
20
-9.4675076003648
30
0
41
1
10
8.8013165311749
20
-9.42551279507546
30
0
41
1
10
9.07650486711236
20
-9.29842584869363
30
0
41
1
10
9.26046652451078
20
-9.2122312733824
30
0
41
1
10
9.62941979355682
20
-9.03707536074455
30
0
41
1
10
9.81441119471509
20
-8.94811269889726
30
0
41
1
10
10
20
-8.85785825065491
30
0
0
SPLINE
5
D2
100
AcDbEntity
8
1
62
256
6
ByLayer
370
18
48
1
60
0
100
AcDbSpline
70
4
71
3
72
24
73
20
40
0
40
0
40
0
40
0
40
0.124233685794125
40
0.124233685794125
40
0.249343159252105
40
0.249343159252105
40
0.374452632710084
40
0.374452632710084
40
0.499562106168064
40
0.499562106168064
40
0.624671579626043
40
0.624671579626043
40
0.687226316355035
40
0.687226316355035
40
0.749781053084028
40
0.749781053084028
40
0.874890526542014
40
0.874890526542014
40
1
40
1
40
1
40
1
41
1
10
5.71152586583676
20
10.700962528137
30
0
41
1
10
5.87745805514024
20
10.6427809171616
30
0
41
1
10
6.04567514007658
20
10.5813743741739
30
0
41
1
10
6.38708452337664
20
10.4527338781709
30
0
41
1
10
6.56030493524781
20
10.3854580574066
30
0
41
1
10
6.90991399236691
20
10.246226473884
30
0
41
1
10
7.08630302654404
20
10.1742683231922
30
0
41
1
10
7.44170683556101
20
10.0262202854323
30
0
41
1
10
7.62072139469259
20
9.95012870306209
30
0
41
1
10
7.98095133214423
20
9.79419722432814
30
0
41
1
10
8.16216616032392
20
9.71435592296103
30
0
41
1
10
8.43541787106926
20
9.59198057037469
30
0
41
1
10
8.52677150487278
20
9.55073846003506
30
0
41
1
10
8.70971385944938
20
9.46750760036477
30
0
41
1
10
8.8013165311749
20
9.42551279507543
30
0
41
1
10
9.07650486711242
20
9.2984258486936
30
0
41
1
10
9.26046652451083
20
9.21223127338237
30
0
41
1
10
9.62941979355679
20
9.03707536074452
30
0
41
1
10
9.81441119471509
20
8.94811269889726
30
0
41
1
10
10
20
8.85785825065491
30
0
0
SPLINE
5
D3
100
AcDbEntity
8
1
62
256
6
ByLayer
370
13
48
1
60
0
100
AcDbSpline
70
4
71
3
72
82
73
78
40
0
40
0
40
0
40
0
40
0.0312499999999999
40
0.0312499999999999
40
0.0624999999999998
40
0.0624999999999998
40
0.0937499999999996
40
0.0937499999999996
40
0.125
40
0.125
40
0.156249999999999
40
0.156249999999999
40
0.164062499999999
40
0.164062499999999
40
0.171874999999999
40
0.171874999999999
40
0.187499999999999
40
0.187499999999999
40
0.218749999999998
40
0.218749999999998
40
0.249999999999997
40
0.249999999999997
40
0.281249999999996
40
0.281249999999996
40
0.312499999999995
40
0.312499999999995
40
0.343749999999994
40
0.343749999999994
40
0.374999999999993
40
0.374999999999993
40
0.406249999999992
40
0.406249999999992
40
0.437499999999991
40
0.437499999999991
40
0.445312499999991
40
0.445312499999991
40
0.453124999999991
40
0.453124999999991
40
0.468749999999991
40
0.468749999999991
40
0.499999999999991
40
0.499999999999991
40
0.531249999999992
40
0.531249999999992
40
0.562499999999992
40
0.562499999999992
40
0.593749999999992
40
0.593749999999992
40
0.624999999999993
40
0.624999999999993
40
0.656249999999993
40
0.656249999999993
40
0.687499999999994
40
0.687499999999994
40
0.718749999999994
40
0.718749999999994
40
0.726562499999994
40
0.726562499999994
40
0.734374999999995
40
0.734374999999995
40
0.749999999999995
40
0.749999999999995
40
0.781249999999995
40
0.781249999999995
40
0.812499999999996
40
0.812499999999996
40
0.843749999999997
40
0.843749999999997
40
0.874999999999997
40
0.874999999999997
40
0.906249999999998
40
0.906249999999998
40
0.937499999999999
40
0.937499999999999
40
0.968749999999999
40
0.968749999999999
40
1
40
1
40
1
40
1
41
1
10
122
20
7.94751035484791
30
0
41
1
10
122.093479819303
20
7.60163519242721
30
0
41
1
10
122.186959638607
20
7.20715020544995
30
0
41
1
10
122.373919277213
20
6.33939847049572
30
0
41
1
10
122.467399096517
20
5.86626454026415
30
0
41
1
10
122.654358735123
20
4.86780222007059
30
0
41
1
10
122.747838554427
20
4.34264561893522
30
0
41
1
10
122.934798193033
20
3.27000329155297
30
0
41
1
10
123.028278012337
20
2.72266883992492
30
0
41
1
10
123.215237650944
20
1.63374321451909
30
0
41
1
10
123.308717470247
20
1.09224234252898
30
0
41
1
10
123.425567244376
20
0.433036105053418
30
0
41
1
10
123.448937199202
20
0.302061917234767
30
0
41
1
10
123.495677108854
20
0.0421288086809852
30
0
41
1
10
123.519047063679
20
-0.0864412412427384
30
0
41
1
10
123.589156928157
20
-0.477024894194585
30
0
41
1
10
123.635896837809
20
-0.741397292704505
30
0
41
1
10
123.776116566764
20
-1.54288276547888
30
0
41
1
10
123.869596386067
20
-2.08855139114868
30
0
41
1
10
124.056556024674
20
-3.17846399651609
30
0
41
1
10
124.150035843977
20
-3.72259854065814
30
0
41
1
10
124.336995482584
20
-4.78052088237422
30
0
41
1
10
124.430475301887
20
-5.29414633465476
30
0
41
1
10
124.617434940494
20
-6.26157612018966
30
0
41
1
10
124.710914759797
20
-6.71521345665798
30
0
41
1
10
124.897874398404
20
-7.53779224603403
30
0
41
1
10
124.991354217707
20
-7.906621343734
30
0
41
1
10
125.178313856314
20
-8.54372165763229
30
0
41
1
10
125.271793675617
20
-8.81197199087575
30
0
41
1
10
125.458753314224
20
-9.24317020790221
30
0
41
1
10
125.552233133527
20
-9.40618346024254
30
0
41
1
10
125.739192772134
20
-9.6325528021915
30
0
41
1
10
125.832672591437
20
-9.69602245148343
30
0
41
1
10
125.949522365566
20
-9.72131465306651
30
0
41
1
10
125.972892320392
20
-9.72368450365701
30
0
41
1
10
126.019632230044
20
-9.72329317090555
30
0
41
1
10
126.04300218487
20
-9.72052302694061
30
0
41
1
10
126.113112049348
20
-9.70411826297703
30
0
41
1
10
126.159851958999
20
-9.68237949709589
30
0
41
1
10
126.300071687954
20
-9.58208565865206
30
0
41
1
10
126.393551507257
20
-9.46820559808859
30
0
41
1
10
126.580511145864
20
-9.13689071040838
30
0
41
1
10
126.673990965168
20
-8.91936153074576
30
0
41
1
10
126.860950603774
20
-8.3801048241441
30
0
41
1
10
126.954430423078
20
-8.05835349355314
30
0
41
1
10
127.141390061684
20
-7.3210633722324
30
0
41
1
10
127.234869880988
20
-6.9055950764461
30
0
41
1
10
127.421829519594
20
-6.00169328112364
30
0
41
1
10
127.515309338898
20
-5.51340727024751
30
0
41
1
10
127.702268977504
20
-4.49172428241022
30
0
41
1
10
127.795748796808
20
-3.95849933983956
30
0
41
1
10
127.982708435414
20
-2.87680797088032
30
0
41
1
10
128.076188254718
20
-2.32848063871017
30
0
41
1
10
128.263147893324
20
-1.24359260347291
30
0
41
1
10
128.356627712628
20
-0.707105257491008
30
0
41
1
10
128.473477486757
20
-0.0568905495483705
30
0
41
1
10
128.496847441583
20
0.0716613746647567
30
0
41
1
10
128.543587351234
20
0.331899256695692
30
0
41
1
10
128.56695730606
20
0.463015634686116
30
0
41
1
10
128.637067170538
20
0.858932114373658
30
0
41
1
10
128.68380708019
20
1.12631312064795
30
0
41
1
10
128.824026809145
20
1.93486514240337
30
0
41
1
10
128.917506628448
20
2.4826121246127
30
0
41
1
10
129.104466267055
20
3.57002883004452
30
0
41
1
10
129.197946086358
20
4.10957357205473
30
0
41
1
10
129.384905724965
20
5.15108887119186
30
0
41
1
10
129.478385544268
20
5.65289062277935
30
0
41
1
10
129.665345182875
20
6.59007800428475
30
0
41
1
10
129.758825002178
20
7.02530466267538
30
0
41
1
10
129.945784640785
20
7.80629804278217
30
0
41
1
10
130.039264460088
20
8.15197251260514
30
0
41
1
10
130.226224098695
20
8.74058922912235
30
0
41
1
10
130.319703917998
20
8.98353341000947
30
0
41
1
10
130.506663556605
20
9.3646096560376
30
0
41
1
10
130.600143375908
20
9.50282286981056
30
0
41
1
10
130.787103014515
20
9.68220894860053
30
0
41
1
10
130.880582833818
20
9.7235
30
0
41
1
10
130.974062653122
20
9.7235
30
0
0
SPLINE
5
D4
100
AcDbEntity
8
1
62
256
6
ByLayer
370
13
48
1
60
0
100
AcDbSpline
70
4
71
3
72
10
73
6
40
0
40
0
40
0
40
0
40
0.5
40
0.5
40
1
40
1
40
1
40
1
41
1
10
131.375296582405
20
9.7235
30
0
41
1
10
131.472903056523
20
9.7235
30
0
41
1
10
131.57050953064
20
9.67846146975899
30
0
41
1
10
131.765722478877
20
9.48224902055495
30
0
41
1
10
131.863328952994
20
9.33092947095994
30
0
41
1
10
131.960935427113
20
9.1223876493404
30
0
0
SPLINE
5
D5
100
AcDbEntity
8
1
62
256
6
ByLayer
370
13
48
1
60
0
100
AcDbSpline
70
4
71
3
72
87
73
83
40
0
40
0
40
0
40
0
40
0.0312500000000012
40
0.0312500000000012
40
0.0625000000000023
40
0.0625000000000023
40
0.0937500000000035
40
0.0937500000000035
40
0.109375000000004
40
0.109375000000004
40
0.117187500000004
40
0.117187500000004
40
0.121093750000004
40
0.121093750000004
40
0.125000000000005
40
0.125000000000005
40
0.156250000000006
40
0.156250000000006
40
0.187500000000007
40
0.187500000000007
40
0.218750000000009
40
0.218750000000009
40
0.25000000000001
40
0.25000000000001
40
0.281250000000012
40
0.281250000000012
40
0.312500000000013
40
0.312500000000013
40
0.343750000000015
40
0.343750000000015
40
0.375000000000016
40
0.375000000000016
40
0.406250000000017
40
0.406250000000017
40
0.410156250000017
40
0.410156250000017
40
0.414062500000018
40
0.414062500000018
40
0.421875000000017
40
0.421875000000017
40
0.437500000000018
40
0.437500000000018
40
0.468750000000018
40
0.468750000000018
40
0.500000000000019
40
0.500000000000019
40
0.531250000000019
40
0.531250000000019
40
0.56250000000002
40
0.56250000000002
40
0.59375000000002
40
0.59375000000002
40
0.62500000000002
40
0.62500000000002
40
0.656250000000021
40
0.656250000000021
40
0.687500000000021
40
0.687500000000021
40
0.703125000000021
40
0.703125000000021
40
0.707031250000021
40
0.707031250000021
40
0.710937500000021
40
0.718750000000021
40
0.718750000000021
40
0.750000000000018
40
0.750000000000018
40
0.781250000000016
40
0.781250000000016
40
0.812500000000014
40
0.812500000000014
40
0.843750000000012
40
0.843750000000012
40
0.875000000000009
40
0.875000000000009
40
0.906250000000007
40
0.906250000000007
40
0.937500000000005
40
0.937500000000005
40
0.968750000000002
40
0.968750000000002
40
1
40
1
40
1
40
1
41
1
10
122
20
5.72252235984115
30
0
41
1
10
122.088339854345
20
5.2632802453825
30
0
41
1
10
122.17667970869
20
4.77780979693893
30
0
41
1
10
122.353359417379
20
3.77904294336446
30
0
41
1
10
122.441699271724
20
3.26586950917192
30
0
41
1
10
122.618378980414
20
2.23627729687567
30
0
41
1
10
122.706718834759
20
1.71994466556382
30
0
41
1
10
122.839228616276
20
0.958782722199118
30
0
41
1
10
122.883398543448
20
0.707249131530659
30
0
41
1
10
122.949653434207
20
0.334820092993198
30
0
41
1
10
122.971738397793
20
0.211486222955528
30
0
41
1
10
123.004865843172
20
0.0278727484554508
30
0
41
1
10
123.015908324965
20
-0.032988859529155
30
0
41
1
10
123.037993288552
20
-0.155423627354679
30
0
41
1
10
123.049035770345
20
-0.21687167075595
30
0
41
1
10
123.148418106483
20
-0.771852805839984
30
0
41
1
10
123.236757960828
20
-1.27925658668582
30
0
41
1
10
123.413437669517
20
-2.30456944881325
30
0
41
1
10
123.501777523862
20
-2.82242305479218
30
0
41
1
10
123.678457232551
20
-3.84605488112842
30
0
41
1
10
123.766797086896
20
-4.35173030822455
30
0
41
1
10
123.943476795586
20
-5.32592282110042
30
0
41
1
10
124.031816649931
20
-5.79431078230144
30
0
41
1
10
124.208496358621
20
-6.66992493804506
30
0
41
1
10
124.296836212965
20
-7.07703365918451
30
0
41
1
10
124.473515921655
20
-7.81102124595697
30
0
41
1
10
124.561855776
20
-8.13783207435523
30
0
41
1
10
124.738535484689
20
-8.70000888633137
30
0
41
1
10
124.826875339034
20
-8.93537421332005
30
0
41
1
10
125.003555047724
20
-9.312372115432
30
0
41
1
10
125.091894902069
20
-9.45406199073977
30
0
41
1
10
125.268574610758
20
-9.6494381667363
30
0
41
1
10
125.356914465103
20
-9.70321191809066
30
0
41
1
10
125.456296801241
20
-9.72065054919506
30
0
41
1
10
125.467339283034
20
-9.72199277419134
30
0
41
1
10
125.489424246621
20
-9.72351250211483
30
0
41
1
10
125.500466728414
20
-9.72369207739666
30
0
41
1
10
125.533594173793
20
-9.72250815732212
30
0
41
1
10
125.555679137379
20
-9.71940577870376
30
0
41
1
10
125.621934028138
20
-9.70284800432981
30
0
41
1
10
125.66610395531
20
-9.68213413789823
30
0
41
1
10
125.798613736827
20
-9.58871477349194
30
0
41
1
10
125.886953591172
20
-9.48453790176114
30
0
41
1
10
126.063633299862
20
-9.18410930098466
30
0
41
1
10
126.151973154207
20
-8.98778392603643
30
0
41
1
10
126.328652862896
20
-8.50171992953142
30
0
41
1
10
126.416992717241
20
-8.21195540616804
30
0
41
1
10
126.593672425931
20
-7.54640655315612
30
0
41
1
10
126.682012280276
20
-7.17066292798583
30
0
41
1
10
126.858691988965
20
-6.34911184294828
30
0
41
1
10
126.94703184331
20
-5.90340519348871
30
0
41
1
10
127.123711552
20
-4.964270753091
30
0
41
1
10
127.212051406345
20
-4.4709723474588
30
0
41
1
10
127.388731115034
20
-3.46179064194863
30
0
41
1
10
127.477070969379
20
-2.94602482255905
30
0
41
1
10
127.653750678069
20
-1.91598058179505
30
0
41
1
10
127.742090532413
20
-1.40177835453886
30
0
41
1
10
127.874600313931
20
-0.646596009486814
30
0
41
1
10
127.918770241103
20
-0.397516650140204
30
0
41
1
10
127.973982650069
20
-0.0907108616350456
30
0
41
1
10
127.985025131862
20
-0.029696964837143
30
0
41
1
10
128.007110095448
20
0.0924185328025828
30
0
41
1
10
128.040237540827
20
0.276297439197663
30
0
41
1
10
128.073364986207
20
0.462170808633203
30
0
41
1
10
128.183789804137
20
1.08558307279904
30
0
41
1
10
128.272129658482
20
1.59679310334587
30
0
41
1
10
128.448809367172
20
2.62538538671151
30
0
41
1
10
128.537149221517
20
3.14270173380419
30
0
41
1
10
128.713828930206
20
4.1601631115991
30
0
41
1
10
128.802168784551
20
4.66019744937009
30
0
41
1
10
128.978848493241
20
5.61791520235482
30
0
41
1
10
129.067188347586
20
6.0754684758694
30
0
41
1
10
129.243868056275
20
6.92493955799114
30
0
41
1
10
129.33220791062
20
7.31674743721229
30
0
41
1
10
129.50888761931
20
8.01709861602782
30
0
41
1
10
129.597227473655
20
8.32558727356556
30
0
41
1
10
129.773907182344
20
8.84991541700859
30
0
41
1
10
129.862247036689
20
9.06576785763212
30
0
41
1
10
130.038926745379
20
9.40432952722762
30
0
41
1
10
130.127266599723
20
9.52710489436694
30
0
41
1
10
130.303946308413
20
9.68664524757213
30
0
41
1
10
130.392286162758
20
9.7235
30
0
41
1
10
130.480626017103
20
9.7235
30
0
0
SPLINE
5
D6
100
AcDbEntity
8
1
62
256
6
ByLayer
370
13
48
1
60
0
100
AcDbSpline
70
4
71
3
72
14
73
10
40
0
40
0
40
0
40
0
40
0.25
40
0.25
40
0.5
40
0.5
40
0.75
40
0.75
40
1
40
1
40
1
40
1
41
1
10
130.881859946386
20
9.7235
30
0
41
1
10
130.971782903113
20
9.7235
30
0
41
1
10
131.06170585984
20
9.68530617012181
30
0
41
1
10
131.241551773295
20
9.51978437332897
30
0
41
1
10
131.331474730022
20
9.39235852223626
30
0
41
1
10
131.511320643476
20
9.04097905670858
30
0
41
1
10
131.601243600204
20
8.81695478866897
30
0
41
1
10
131.781089513658
20
8.27318527397136
30
0
41
1
10
131.871012470385
20
7.95342969629652
30
0
41
1
10
131.960935427113
20
7.59098431023708
30
0
0
SPLINE
5
D7
100
AcDbEntity
8
1
62
256
6
ByLayer
370
13
48
1
60
0
100
AcDbSpline
70
4
71
3
72
85
73
81
40
0
40
0
40
0
40
0
40
0.0312499999999978
40
0.0312499999999978
40
0.0624999999999957
40
0.0624999999999957
40
0.0664062499999956
40
0.0664062499999956
40
0.0703124999999955
40
0.0781249999999957
40
0.0781249999999957
40
0.0937499999999961
40
0.0937499999999961
40
0.124999999999997
40
0.124999999999997
40
0.156249999999997
40
0.156249999999997
40
0.187499999999998
40
0.187499999999998
40
0.218749999999998
40
0.218749999999998
40
0.249999999999999
40
0.249999999999999
40
0.281249999999999
40
0.281249999999999
40
0.312499999999999
40
0.312499999999999
40
0.34375
40
0.34375
40
0.375
40
0.375
40
0.378906250000001
40
0.378906250000001
40
0.382812500000001
40
0.390625000000001
40
0.390625000000001
40
0.406250000000001
40
0.406250000000001
40
0.437500000000002
40
0.437500000000002
40
0.468750000000003
40
0.468750000000003
40
0.500000000000004
40
0.500000000000004
40
0.531250000000005
40
0.531250000000005
40
0.562500000000007
40
0.562500000000007
40
0.593750000000008
40
0.593750000000008
40
0.625000000000009
40
0.625000000000009
40
0.65625000000001
40
0.65625000000001
40
0.687500000000011
40
0.687500000000011
40
0.691406250000011
40
0.691406250000011
40
0.69531250000001
40
0.70312500000001
40
0.70312500000001
40
0.718750000000009
40
0.718750000000009
40
0.750000000000008
40
0.750000000000008
40
0.781250000000007
40
0.781250000000007
40
0.812500000000006
40
0.812500000000006
40
0.843750000000005
40
0.843750000000005
40
0.875000000000004
40
0.875000000000004
40
0.906250000000003
40
0.906250000000003
40
0.937500000000002
40
0.937500000000002
40
0.968750000000001
40
0.968750000000001
40
1
40
1
40
1
40
1
41
1
10
122
20
2.9642435834489
30
0
41
1
10
122.083199889386
20
2.48005639360318
30
0
41
1
10
122.166399778773
20
1.99305408515284
30
0
41
1
10
122.332799557545
20
1.03147422499299
30
0
41
1
10
122.415999446931
20
0.556930986125877
30
0
41
1
10
122.509599322491
20
0.038000450078215
30
0
41
1
10
122.519999308664
20
-0.0193295456531644
30
0
41
1
10
122.540799281011
20
-0.134558657206441
30
0
41
1
10
122.571999239531
20
-0.308019264115416
30
0
41
1
10
122.603199198051
20
-0.483227039426765
30
0
41
1
10
122.66559911509
20
-0.835670628193043
30
0
41
1
10
122.707199059784
20
-1.07334561746126
30
0
41
1
10
122.831998893863
20
-1.79177980338278
30
0
41
1
10
122.915198783249
20
-2.27805905229045
30
0
41
1
10
123.081598562022
20
-3.24769462072007
30
0
41
1
10
123.164798451408
20
-3.73098678768977
30
0
41
1
10
123.331198230181
20
-4.67422069114909
30
0
41
1
10
123.414398119567
20
-5.13407206770739
30
0
41
1
10
123.58079789834
20
-6.00956193075604
30
0
41
1
10
123.663997787726
20
-6.42510510676684
30
0
41
1
10
123.830397566499
20
-7.19355906948766
30
0
41
1
10
123.913597455885
20
-7.54639646361471
30
0
41
1
10
124.079997234657
20
-8.17609665920995
30
0
41
1
10
124.163197124044
20
-8.45292836525059
30
0
41
1
10
124.329596902816
20
-8.92398641937837
30
0
41
1
10
124.412796792202
20
-9.11822857804458
30
0
41
1
10
124.579196570975
20
-9.42441836510781
30
0
41
1
10
124.662396460361
20
-9.53641720089578
30
0
41
1
10
124.828796239134
20
-9.68431053721423
30
0
41
1
10
124.91199612852
20
-9.72027175848075
30
0
41
1
10
125.00559600408
20
-9.72366856728544
30
0
41
1
10
125.015995990253
20
-9.72353636069832
30
0
41
1
10
125.0367959626
20
-9.72224417253119
30
0
41
1
10
125.06799592112
20
-9.71875859674583
30
0
41
1
10
125.099195879639
20
-9.71053175226547
30
0
41
1
10
125.161595796679
20
-9.68750462969271
30
0
41
1
10
125.203195741372
20
-9.66338197455153
30
0
41
1
10
125.327995575452
20
-9.56289488550217
30
0
41
1
10
125.411195464838
20
-9.45825449863904
30
0
41
1
10
125.577595243611
20
-9.16713590140066
30
0
41
1
10
125.660795132997
20
-8.98060417203922
30
0
41
1
10
125.827194911769
20
-8.52472057762537
30
0
41
1
10
125.910394801156
20
-8.25534894995226
30
0
41
1
10
126.076794579928
20
-7.63966991697114
30
0
41
1
10
126.159994469315
20
-7.29338919388479
30
0
41
1
10
126.326394248087
20
-6.536575909401
30
0
41
1
10
126.409594137473
20
-6.12611349349632
30
0
41
1
10
126.575993916246
20
-5.25893894124252
30
0
41
1
10
126.659193805632
20
-4.80232121062713
30
0
41
1
10
126.825593584405
20
-3.86360091733607
30
0
41
1
10
126.908793473791
20
-3.38159022443588
30
0
41
1
10
127.075193252564
20
-2.41271258103038
30
0
41
1
10
127.15839314195
20
-1.92591277080749
30
0
41
1
10
127.324792920723
20
-0.965487413434261
30
0
41
1
10
127.407992810109
20
-0.49189457085248
30
0
41
1
10
127.501592685668
20
0.0256624379007633
30
0
41
1
10
127.511992671842
20
0.083113360335517
30
0
41
1
10
127.532792644188
20
0.198643268643224
30
0
41
1
10
127.563992602708
20
0.372542264440341
30
0
41
1
10
127.595192561228
20
0.548148140873963
30
0
41
1
10
127.657592478268
20
0.901329288132928
30
0
41
1
10
127.699192422961
20
1.13941772890368
30
0
41
1
10
127.823992257041
20
1.85881963988061
30
0
41
1
10
127.907192146427
20
2.34537830992048
30
0
41
1
10
128.073591925199
20
3.31467617501036
30
0
41
1
10
128.156791814586
20
3.79734971403511
30
0
41
1
10
128.323191593358
20
4.73837140621867
30
0
41
1
10
128.406391482744
20
5.19662842064434
30
0
41
1
10
128.572791261517
20
6.06800277814111
30
0
41
1
10
128.655991150903
20
6.4810252332986
30
0
41
1
10
128.822390929676
20
7.2436925570897
30
0
41
1
10
128.905590819062
20
7.5932656346985
30
0
41
1
10
129.071990597835
20
8.21597595447017
30
0
41
1
10
129.155190487221
20
8.48908430379069
30
0
41
1
10
129.321590265994
20
8.95256099927121
30
0
41
1
10
129.40479015538
20
9.14294714573686
30
0
41
1
10
129.571189934153
20
9.44159348401266
30
0
41
1
10
129.654389823539
20
9.54990606127876
30
0
41
1
10
129.820789602311
20
9.69082584628569
30
0
41
1
10
129.903989491698
20
9.7235
30
0
41
1
10
129.987189381084
20
9.7235
30
0
0
SPLINE
5
D8
100
AcDbEntity
8
1
62
256
6
ByLayer
370
13
48
1
60
0
100
AcDbSpline
70
4
71
3
72
22
73
18
40
0
40
0
40
0
40
0
40
0.125
40
0.125
40
0.25
40
0.25
40
0.375
40
0.375
40
0.5
40
0.5
40
0.625
40
0.625
40
0.75
40
0.75
40
0.875
40
0.875
40
1
40
1
40
1
40
1
41
1
10
130.388423310367
20
9.7235
30
0
41
1
10
130.453944648565
20
9.7235
30
0
41
1
10
130.519465986762
20
9.70326523663002
30
0
41
1
10
130.650508663158
20
9.61717903527716
30
0
41
1
10
130.716030001356
20
9.55130706336888
30
0
41
1
10
130.847072677751
20
9.37009716224139
30
0
41
1
10
130.912594015949
20
9.25474060442031
30
0
41
1
10
131.043636692344
20
8.97264962598132
30
0
41
1
10
131.109158030542
20
8.80590238758927
30
0
41
1
10
131.240200706937
20
8.42154263921128
30
0
41
1
10
131.305722045135
20
8.20392666477872
30
0
41
1
10
131.436764721531
20
7.72102358906861
30
0
41
1
10
131.502286059728
20
7.4557443481435
30
0
41
1
10
131.633328736124
20
6.88333007148748
30
0
41
1
10
131.698850074322
20
6.57621372345201
30
0
41
1
10
131.829892750717
20
5.92815895801732
30
0
41
1
10
131.895414088915
20
5.58724698722304
30
0
41
1
10
131.960935427113
20
5.23420444498467
30
0
0
SPLINE
5
D9
100
AcDbEntity
8
1
62
256
6
ByLayer
370
13
48
1
60
0
100
AcDbSpline
70
4
71
3
72
82
73
78
40
0
40
0
40
0
40
0
40
0.0078125
40
0.0078125
40
0.015625
40
0.015625
40
0.0312500000000001
40
0.0312500000000001
40
0.0625000000000002
40
0.0625000000000002
40
0.0937500000000002
40
0.0937500000000002
40
0.125
40
0.125
40
0.15625
40
0.15625
40
0.187500000000001
40
0.187500000000001
40
0.218750000000001
40
0.218750000000001
40
0.250000000000001
40
0.250000000000001
40
0.281250000000001
40
0.281250000000001
40
0.312500000000001
40
0.312500000000001
40
0.328125000000001
40
0.328125000000001
40
0.335937500000001
40
0.335937500000001
40
0.34375
40
0.34375
40
0.375
40
0.375
40
0.40625
40
0.40625
40
0.4375
40
0.4375
40
0.468749999999999
40
0.468749999999999
40
0.499999999999999
40
0.499999999999999
40
0.531249999999999
40
0.531249999999999
40
0.562499999999999
40
0.562499999999999
40
0.593749999999999
40
0.593749999999999
40
0.624999999999998
40
0.624999999999998
40
0.656249999999998
40
0.656249999999998
40
0.664062499999998
40
0.664062499999998
40
0.671874999999998
40
0.671874999999998
40
0.687499999999998
40
0.687499999999998
40
0.718749999999999
40
0.718749999999999
40
0.749999999999999
40
0.749999999999999
40
0.781249999999999
40
0.781249999999999
40
0.812499999999999
40
0.812499999999999
40
0.843749999999999
40
0.843749999999999
40
0.874999999999999
40
0.874999999999999
40
0.90625
40
0.90625
40
0.9375
40
0.9375
40
0.96875
40
0.96875
40
1
40
1
40
1
40
1
41
1
10
122
20
0.127629450266142
30
0
41
1
10
122.019514981107
20
0.0192947425497323
30
0
41
1
10
122.039029962214
20
-0.0881645588609956
30
0
41
1
10
122.078059924428
20
-0.305432583901308
30
0
41
1
10
122.097574905535
20
-0.414763057594684
30
0
41
1
10
122.156119848855
20
-0.744598775857327
30
0
41
1
10
122.195149811069
20
-0.966955006595384
30
0
41
1
10
122.312239697711
20
-1.63921482057705
30
0
41
1
10
122.390299622139
20
-2.09439952096798
30
0
41
1
10
122.546419470994
20
-3.00463123191918
30
0
41
1
10
122.624479395422
20
-3.45963513050074
30
0
41
1
10
122.780599244278
20
-4.35292676881457
30
0
41
1
10
122.858659168705
20
-4.7911517030347
30
0
41
1
10
123.014779017561
20
-5.63354076457759
30
0
41
1
10
123.092838941989
20
-6.03763455760333
30
0
41
1
10
123.248958790844
20
-6.7957020398994
30
0
41
1
10
123.327018715272
20
-7.14961492039856
30
0
41
1
10
123.483138564127
20
-7.79458184140972
30
0
41
1
10
123.561198488555
20
-8.08559999827844
30
0
41
1
10
123.717318337411
20
-8.59686422636801
30
0
41
1
10
123.795378261839
20
-8.81710669247798
30
0
41
1
10
123.951498110694
20
-9.18434281739042
30
0
41
1
10
124.029558035122
20
-9.33136205855774
30
0
41
1
10
124.185677883977
20
-9.55476051553177
30
0
41
1
10
124.263737808405
20
-9.63118364518832
30
0
41
1
10
124.380827695047
20
-9.69779199178967
30
0
41
1
10
124.41985765726
20
-9.71201714920232
30
0
41
1
10
124.478402600582
20
-9.7221935166591
30
0
41
1
10
124.497917581688
20
-9.72372719480862
30
0
41
1
10
124.536947543902
20
-9.72321880753589
30
0
41
1
10
124.556462525009
20
-9.72116768053701
30
0
41
1
10
124.654037430544
20
-9.70156618390325
30
0
41
1
10
124.732097354972
20
-9.65588089417113
30
0
41
1
10
124.888217203827
20
-9.49662171504349
30
0
41
1
10
124.966277128255
20
-9.38299993612333
30
0
41
1
10
125.122396977111
20
-9.0832114859524
30
0
41
1
10
125.200456901538
20
-8.89700909105338
30
0
41
1
10
125.356576750394
20
-8.45202754215504
30
0
41
1
10
125.434636674822
20
-8.19323746581924
30
0
41
1
10
125.590756523677
20
-7.6084193510755
30
0
41
1
10
125.668816448105
20
-7.28241247429455
30
0
41
1
10
125.82493629696
20
-6.5737368184906
30
0
41
1
10
125.902996221388
20
-6.19111881297201
30
0
41
1
10
126.059116070244
20
-5.38393505484151
30
0
41
1
10
126.137175994671
20
-4.95943740419585
30
0
41
1
10
126.293295843527
20
-4.08550802411332
30
0
41
1
10
126.371355767955
20
-3.63614453205449
30
0
41
1
10
126.52747561681
20
-2.72968360032158
30
0
41
1
10
126.605535541238
20
-2.27263944235389
30
0
41
1
10
126.761655390093
20
-1.36632747313823
30
0
41
1
10
126.839715314521
20
-0.917090029989453
30
0
41
1
10
126.937290220056
20
-0.368242574862165
30
0
41
1
10
126.956805201163
20
-0.259099845425055
30
0
41
1
10
126.995835163377
20
-0.0422293394362612
30
0
41
1
10
127.015350144484
20
0.0651859983301222
30
0
41
1
10
127.073895087805
20
0.390791067060292
30
0
41
1
10
127.112925050019
20
0.610675936906802
30
0
41
1
10
127.23001493666
20
1.27674349831307
30
0
41
1
10
127.308074861088
20
1.72943672027137
30
0
41
1
10
127.464194709943
20
2.63877163271121
30
0
41
1
10
127.542254634371
20
3.09537651904623
30
0
41
1
10
127.698374483227
20
3.99646106936831
30
0
41
1
10
127.776434407654
20
4.4408823211283
30
0
41
1
10
127.93255425651
20
5.30027033131685
30
0
41
1
10
128.010614180938
20
5.71516720253314
30
0
41
1
10
128.166734029793
20
6.49889337681998
30
0
41
1
10
128.244793954221
20
6.86765761055503
30
0
41
1
10
128.400913803076
20
7.54531284846757
30
0
41
1
10
128.478973727504
20
7.85416015605352
30
0
41
1
10
128.63509357636
20
8.40267564143642
30
0
41
1
10
128.713153500787
20
8.64233145359745
30
0
41
1
10
128.869273349643
20
9.04852833779483
30
0
41
1
10
128.947333274071
20
9.2150880095472
30
0
41
1
10
129.103453122926
20
9.47642236646197
30
0
41
1
10
129.181513047354
20
9.57123735509919
30
0
41
1
10
129.337632896209
20
9.6947517122932
30
0
41
1
10
129.415692820637
20
9.7235
30
0
41
1
10
129.493752745065
20
9.7235
30
0
0
SPLINE
5
DA
100
AcDbEntity
8
1
62
256
6
ByLayer
370
13
48
1
60
0
100
AcDbSpline
70
4
71
3
72
22
73
18
40
0
40
0
40
0
40
0
40
0.125
40
0.125
40
0.25
40
0.25
40
0.375
40
0.375
40
0.5
40
0.5
40
0.625
40
0.625
40
0.75
40
0.75
40
0.875
40
0.875
40
1
40
1
40
1
40
1
41
1
10
129.894986674348
20
9.7235
30
0
41
1
10
129.98106787238
20
9.7235
30
0
41
1
10
130.067149070412
20
9.68851376356486
30
0
41
1
10
130.239311466475
20
9.53730616956554
30
0
41
1
10
130.325392664507
20
9.4210057144858
30
0
41
1
10
130.497555060571
20
9.10030457469131
30
0
41
1
10
130.583636258603
20
8.89584398036806
30
0
41
1
10
130.755798654667
20
8.39868761969137
30
0
41
1
10
130.841879852698
20
8.10597614622438
30
0
41
1
10
131.014042248762
20
7.44013960738431
30
0
41
1
10
131.100123446794
20
7.06705656777982
30
0
41
1
10
131.272285842858
20
6.25589464391555
30
0
41
1
10
131.35836704089
20
5.81790762116751
30
0
41
1
10
131.530529436953
20
4.89789012124112
30
0
41
1
10
131.616610634985
20
4.415973727493
30
0
41
1
10
131.788773031049
20
3.43137468885107
30
0
41
1
10
131.874854229081
20
2.92879456929174
30
0
41
1
10
131.960935427113
20
2.42694367312296
30
0
0
SPLINE
5
DB
100
AcDbEntity
8
1
62
256
6
ByLayer
370
13
48
1
60
0
100
AcDbSpline
70
4
71
3
72
78
73
74
40
0
40
0
40
0
40
0
40
0.0312499999999999
40
0.0312499999999999
40
0.0624999999999999
40
0.0624999999999999
40
0.0937499999999998
40
0.0937499999999998
40
0.125
40
0.125
40
0.15625
40
0.15625
40
0.1875
40
0.1875
40
0.21875
40
0.21875
40
0.25
40
0.25
40
0.28125
40
0.28125
40
0.2890625
40
0.2890625
40
0.296875
40
0.296875
40
0.3125
40
0.3125
40
0.34375
40
0.34375
40
0.375
40
0.375
40
0.40625
40
0.40625
40
0.4375
40
0.4375
40
0.46875
40
0.46875
40
0.5
40
0.5
40
0.53125
40
0.53125
40
0.5625
40
0.5625
40
0.59375
40
0.59375
40
0.625
40
0.625
40
0.640625
40
0.640625
40
0.6484375
40
0.6484375
40
0.65625
40
0.65625
40
0.6875
40
0.6875
40
0.71875
40
0.71875
40
0.75
40
0.75
40
0.78125
40
0.78125
40
0.8125
40
0.8125
40
0.84375
40
0.84375
40
0.875
40
0.875
40
0.90625
40
0.90625
40
0.9375
40
0.9375
40
0.96875
40
0.96875
40
1
40
1
40
1
40
1
41
1
10
122
20
-2.69570733329044
30
0
41
1
10
122.072919959469
20
-3.12073454254497
30
0
41
1
10
122.145839918938
20
-3.54492072849979
30
0
41
1
10
122.291679837877
20
-4.37806776378071
30
0
41
1
10
122.364599797346
20
-4.78698345271826
30
0
41
1
10
122.510439716285
20
-5.57545888062953
30
0
41
1
10
122.583359675754
20
-5.95496850245084
30
0
41
1
10
122.729199594692
20
-6.67144222856115
30
0
41
1
10
122.802119554161
20
-7.00836188594835
30
0
41
1
10
122.9479594731
20
-7.62886813548391
30
0
41
1
10
123.020879432569
20
-7.91242586070945
30
0
41
1
10
123.166719351508
20
-8.41895825341666
30
0
41
1
10
123.239639310977
20
-8.64192519534984
30
0
41
1
10
123.385479229915
20
-9.02412858032756
30
0
41
1
10
123.458399189385
20
-9.18337789844801
30
0
41
1
10
123.604239108323
20
-9.43901600480689
30
0
41
1
10
123.677159067792
20
-9.53543254827989
30
0
41
1
10
123.822998986731
20
-9.66965707841189
30
0
41
1
10
123.8959189462
20
-9.70749957937321
30
0
41
1
10
123.987068895536
20
-9.72233963851622
30
0
41
1
10
124.005298885404
20
-9.72368942327444
30
0
41
1
10
124.041758865139
20
-9.72326806029204
30
0
41
1
10
124.059988855006
20
-9.72148984266755
30
0
41
1
10
124.114678824608
20
-9.71127558602487
30
0
41
1
10
124.151138804342
20
-9.6979566181115
30
0
41
1
10
124.260518743546
20
-9.63715875661327
30
0
41
1
10
124.333438703015
20
-9.5687593024042
30
0
41
1
10
124.479278621954
20
-9.37077980880176
30
0
41
1
10
124.552198581423
20
-9.24116782569823
30
0
41
1
10
124.698038500362
20
-8.91818863940961
30
0
41
1
10
124.770958459831
20
-8.72480068852565
30
0
41
1
10
124.916798378769
20
-8.27545842242125
30
0
41
1
10
124.989718338239
20
-8.0195017930788
30
0
41
1
10
125.135558257177
20
-7.45034604354211
30
0
41
1
10
125.208478216646
20
-7.13716626170799
30
0
41
1
10
125.354318135585
20
-6.46277493368996
30
0
41
1
10
125.427238095054
20
-6.10160160829722
30
0
41
1
10
125.573078013992
20
-5.34344052224716
30
0
41
1
10
125.645997973462
20
-4.94650160753963
30
0
41
1
10
125.7918378924
20
-4.13069100885238
30
0
41
1
10
125.864757851869
20
-3.71186800581231
30
0
41
1
10
126.010597770808
20
-2.86632989325807
30
0
41
1
10
126.083517730277
20
-2.4396538368228
30
0
41
1
10
126.229357649215
20
-1.59125941420191
30
0
41
1
10
126.302277608685
20
-1.16956512151293
30
0
41
1
10
126.411657547888
20
-0.548763767913073
30
0
41
1
10
126.448117527623
20
-0.343767668088304
30
0
41
1
10
126.502807497225
20
-0.0399969443202508
30
0
41
1
10
126.521037487092
20
0.0603652362557341
30
0
41
1
10
126.557497466827
20
0.263045060940612
30
0
41
1
10
126.575727456694
20
0.364999992643163
30
0
41
1
10
126.666877406031
20
0.877520731900489
30
0
41
1
10
126.7397973655
20
1.29642533028519
30
0
41
1
10
126.885637284439
20
2.14194515279493
30
0
41
1
10
126.958557243908
20
2.56854004218147
30
0
41
1
10
127.104397162846
20
3.41705498107959
30
0
41
1
10
127.177317122316
20
3.8389391723903
30
0
41
1
10
127.323157041254
20
4.66418306886959
30
0
41
1
10
127.396077000723
20
5.06749561216753
30
0
41
1
10
127.541916919662
20
5.84154900990657
30
0
41
1
10
127.614836879131
20
6.21224008010142
30
0
41
1
10
127.760676798069
20
6.9082973351683
30
0
41
1
10
127.833596757539
20
7.23362192893421
30
0
41
1
10
127.979436676477
20
7.82890002409212
30
0
41
1
10
128.052356635946
20
8.0988293061626
30
0
41
1
10
128.198196554885
20
8.57699687561515
30
0
41
1
10
128.271116514354
20
8.78523251309466
30
0
41
1
10
128.416956433293
20
9.13783272630985
30
0
41
1
10
128.489876392762
20
9.28221429878633
30
0
41
1
10
128.6357163117
20
9.50883799055393
30
0
41
1
10
128.708636271169
20
9.59111018930673
30
0
41
1
10
128.854476190108
20
9.69842372646329
30
0
41
1
10
128.927396149577
20
9.7235
30
0
41
1
10
129.000316109046
20
9.7235
30
0
0
SPLINE
5
DC
100
AcDbEntity
8
1
62
256
6
ByLayer
370
13
48
1
60
0
100
AcDbSpline
70
4
71
3
72
42
73
38
40
0
40
0
40
0
40
0
40
0.0625000000000001
40
0.0625000000000001
40
0.125
40
0.125
40
0.1875
40
0.1875
40
0.25
40
0.25
40
0.3125
40
0.3125
40
0.375
40
0.375
40
0.4375
40
0.4375
40
0.5
40
0.5
40
0.5625
40
0.5625
40
0.625
40
0.625
40
0.6875
40
0.6875
40
0.75
40
0.75
40
0.812499999999999
40
0.812499999999999
40
0.874999999999999
40
0.874999999999999
40
0.937499999999999
40
0.937499999999999
40
0.968749999999999
40
0.968749999999999
40
0.984375
40
0.984375
40
1
40
1
40
1
40
1
41
1
10
129.401550038329
20
9.7235
30
0
41
1
10
129.454870567262
20
9.7235
30
0
41
1
10
129.508191096195
20
9.71010935711007
30
0
41
1
10
129.614832154061
20
9.65371971954218
30
0
41
1
10
129.668152682994
20
9.61071339126877
30
0
41
1
10
129.77479374086
20
9.49278759233286
30
0
41
1
10
129.828114269793
20
9.41786104076002
30
0
41
1
10
129.934755327659
20
9.23454527546849
30
0
41
1
10
129.988075856592
20
9.12615013136968
30
0
41
1
10
130.094716914458
20
8.87530172157923
30
0
41
1
10
130.148037443391
20
8.73284460830919
30
0
41
1
10
130.254678501257
20
8.4143811199059
30
0
41
1
10
130.30799903019
20
8.23837376217841
30
0
41
1
10
130.414640088056
20
7.854498223967
30
0
41
1
10
130.467960616989
20
7.64663236640357
30
0
41
1
10
130.574601674855
20
7.20188904313139
30
0
41
1
10
130.627922203788
20
6.96501716481058
30
0
41
1
10
130.734563261654
20
6.46615246564875
30
0
41
1
10
130.787883790587
20
6.20416793836449
30
0
41
1
10
130.894524848453
20
5.65979918443429
30
0
41
1
10
130.947845377386
20
5.37742497295073
30
0
41
1
10
131.054486435252
20
4.7975498665102
30
0
41
1
10
131.107806964185
20
4.50005949394404
30
0
41
1
10
131.214448022051
20
3.89546394471253
30
0
41
1
10
131.267768550984
20
3.58836859697132
30
0
41
1
10
131.37440960885
20
2.97000401045824
30
0
41
1
10
131.427730137783
20
2.65874293895172
30
0
41
1
10
131.534371195649
20
2.03714343109519
30
0
41
1
10
131.587691724582
20
1.72681090249844
30
0
41
1
10
131.694332782448
20
1.11160754214489
30
0
41
1
10
131.747653311381
20
0.806740165787545
30
0
41
1
10
131.82763410478
20
0.356415945624576
30
0
41
1
10
131.854294369247
20
0.207464918138527
30
0
41
1
10
131.894284765946
20
-0.0139199195942012
30
0
41
1
10
131.90761489818
20
-0.0874698673715955
30
0
41
1
10
131.934275162646
20
-0.235672606334816
30
0
41
1
10
131.947605294879
20
-0.310102721513403
30
0
41
1
10
131.960935427113
20
-0.384836133273126
30
0
0
SPLINE
5
DD
100
AcDbEntity
8
1
62
256
6
ByLayer
370
13
48
1
60
0
100
AcDbSpline
70
4
71
3
72
76
73
72
40
0
40
0
40
0
40
0
40
0.0312499999999994
40
0.0312499999999994
40
0.0624999999999988
40
0.0624999999999988
40
0.0937499999999981
40
0.0937499999999981
40
0.124999999999998
40
0.124999999999998
40
0.156249999999997
40
0.156249999999997
40
0.187499999999996
40
0.187499999999996
40
0.218749999999996
40
0.218749999999996
40
0.234374999999995
40
0.234374999999995
40
0.249999999999995
40
0.249999999999995
40
0.281249999999995
40
0.281249999999995
40
0.312499999999996
40
0.312499999999996
40
0.343749999999996
40
0.343749999999996
40
0.374999999999996
40
0.374999999999996
40
0.406249999999996
40
0.406249999999996
40
0.437499999999996
40
0.437499999999996
40
0.468749999999997
40
0.468749999999997
40
0.499999999999997
40
0.499999999999997
40
0.531249999999997
40
0.531249999999997
40
0.562499999999997
40
0.562499999999997
40
0.593749999999997
40
0.593749999999997
40
0.609374999999997
40
0.609374999999997
40
0.617187499999997
40
0.617187499999997
40
0.624999999999997
40
0.624999999999997
40
0.656249999999998
40
0.656249999999998
40
0.687499999999998
40
0.687499999999998
40
0.718749999999998
40
0.718749999999998
40
0.749999999999998
40
0.749999999999998
40
0.781249999999999
40
0.781249999999999
40
0.812499999999999
40
0.812499999999999
40
0.843749999999999
40
0.843749999999999
40
0.874999999999999
40
0.874999999999999
40
0.906249999999999
40
0.906249999999999
40
0.9375
40
0.9375
40
0.96875
40
0.96875
40
1
40
1
40
1
40
1
41
1
10
122
20
-5.48054393145375
30
0
41
1
10
122.067779994511
20
-5.83960886704986
30
0
41
1
10
122.135559989021
20
-6.18443849484055
30
0
41
1
10
122.271119978043
20
-6.83544036352401
30
0
41
1
10
122.338899972554
20
-7.14158326360493
30
0
41
1
10
122.474459961575
20
-7.7069324339335
30
0
41
1
10
122.542239956086
20
-7.96612021344311
30
0
41
1
10
122.677799945107
20
-8.43199408103729
30
0
41
1
10
122.745579939618
20
-8.63867548298327
30
0
41
1
10
122.881139928639
20
-8.99704167918176
30
0
41
1
10
122.94891992315
20
-9.14873509559948
30
0
41
1
10
123.084479912171
20
-9.39763634968932
30
0
41
1
10
123.152259906682
20
-9.49486272027559
30
0
41
1
10
123.287819895703
20
-9.63792417914229
30
0
41
1
10
123.355599890214
20
-9.68378286421316
30
0
41
1
10
123.45726988198
20
-9.71779707692502
30
0
41
1
10
123.491159879235
20
-9.72335228298383
30
0
41
1
10
123.558939873746
20
-9.72364189878454
30
0
41
1
10
123.592829871001
20
-9.71838644145356
30
0
41
1
10
123.694499862768
20
-9.68530056844639
30
0
41
1
10
123.762279857278
20
-9.64009932875854
30
0
41
1
10
123.8978398463
20
-9.49840899749643
30
0
41
1
10
123.96561984081
20
-9.4018962751023
30
0
41
1
10
124.101179829832
20
-9.15444816593833
30
0
41
1
10
124.168959824342
20
-9.00349414505982
30
0
41
1
10
124.304519813364
20
-8.64659463624545
30
0
41
1
10
124.372299807875
20
-8.44064036585317
30
0
41
1
10
124.507859796896
20
-7.97616711735978
30
0
41
1
10
124.575639791407
20
-7.71765263621415
30
0
41
1
10
124.711199780428
20
-7.15355667003669
30
0
41
1
10
124.778979774939
20
-6.84799350290035
30
0
41
1
10
124.91453976396
20
-6.19802536451556
30
0
41
1
10
124.982319758471
20
-5.85364962170516
30
0
41
1
10
125.117879747492
20
-5.13628128658934
30
0
41
1
10
125.185659742003
20
-4.76332321761683
30
0
41
1
10
125.321219731024
20
-4.00003496280578
30
0
41
1
10
125.388999725535
20
-3.60973806251954
30
0
41
1
10
125.524559714557
20
-2.82299424619083
30
0
41
1
10
125.592339709067
20
-2.42657392301069
30
0
41
1
10
125.727899698089
20
-1.63786515332373
30
0
41
1
10
125.795679692599
20
-1.24559355934807
30
0
41
1
10
125.897349684365
20
-0.66679560094704
30
0
41
1
10
125.931239681621
20
-0.475450488057078
30
0
41
1
10
125.982074677504
20
-0.191490601275092
30
0
41
1
10
125.999019676131
20
-0.0973459640044041
30
0
41
1
10
126.032909673387
20
0.0898250254021491
30
0
41
1
10
126.049854672015
20
0.183911610517583
30
0
41
1
10
126.134579665153
20
0.657041717645029
30
0
41
1
10
126.202359659664
20
1.04378349280398
30
0
41
1
10
126.337919648685
20
1.82605018437061
30
0
41
1
10
126.405699643196
20
2.22156347891436
30
0
41
1
10
126.541259632217
20
3.0118596073111
30
0
41
1
10
126.609039626728
20
3.40662057665958
30
0
41
1
10
126.744599615749
20
4.18458276178222
30
0
41
1
10
126.81237961026
20
4.56775353352944
30
0
41
1
10
126.947939599281
20
5.31118416278181
30
0
41
1
10
127.015719593792
20
5.67140933292376
30
0
41
1
10
127.151279582813
20
6.35807203232531
30
0
41
1
10
127.219059577324
20
6.68447684167762
30
0
41
1
10
127.354619566346
20
7.29413290512954
30
0
41
1
10
127.422399560856
20
7.57735974659153
30
0
41
1
10
127.557959549878
20
8.09368552142686
30
0
41
1
10
127.625739544388
20
8.32677280417414
30
0
41
1
10
127.76129953341
20
8.73879227822312
30
0
41
1
10
127.82907952792
20
8.91772679770085
30
0
41
1
10
127.964639516942
20
9.22050192763768
30
0
41
1
10
128.032419511453
20
9.34435673712053
30
0
41
1
10
128.167979500474
20
9.53886310448723
30
0
41
1
10
128.235759494985
20
9.60953639172291
30
0
41
1
10
128.371319484006
20
9.70184268655626
30
0
41
1
10
128.439099478517
20
9.7235
30
0
41
1
10
128.506879473027
20
9.7235
30
0
0
SPLINE
5
DE
100
AcDbEntity
8
1
62
256
6
ByLayer
370
13
48
1
60
0
100
AcDbSpline
70
4
71
3
72
41
73
37
40
0
40
0
40
0
40
0
40
0.0624999999999999
40
0.0624999999999999
40
0.125
40
0.125
40
0.1875
40
0.1875
40
0.249999999999999
40
0.249999999999999
40
0.312499999999999
40
0.312499999999999
40
0.374999999999999
40
0.374999999999999
40
0.437499999999999
40
0.437499999999999
40
0.499999999999999
40
0.499999999999999
40
0.562499999999998
40
0.562499999999998
40
0.624999999999998
40
0.624999999999998
40
0.687499999999998
40
0.687499999999998
40
0.749999999999998
40
0.749999999999998
40
0.812499999999997
40
0.812499999999997
40
0.828124999999997
40
0.828124999999997
40
0.843749999999997
40
0.874999999999997
40
0.874999999999997
40
0.937499999999999
40
0.937499999999999
40
1
40
1
40
1
40
1
41
1
10
128.90811340231
20
9.7235
30
0
41
1
10
128.97171386116
20
9.7235
30
0
41
1
10
129.035314320011
20
9.70443675004913
30
0
41
1
10
129.162515237711
20
9.62346158160176
30
0
41
1
10
129.226115696561
20
9.56153195851971
30
0
41
1
10
129.353316614261
20
9.39123917291371
30
0
41
1
10
129.416917073111
20
9.28285976035502
30
0
41
1
10
129.544117990811
20
9.01777325841118
30
0
41
1
10
129.607718449661
20
8.86105453960042
30
0
41
1
10
129.734919367361
20
8.49951676803002
30
0
41
1
10
129.798519826211
20
8.2946936560709
30
0
41
1
10
129.925720743911
20
7.83954206485694
30
0
41
1
10
129.989321202761
20
7.58921890001329
30
0
41
1
10
130.116522120461
20
7.04801641902645
30
0
41
1
10
130.180122579311
20
6.75715170619557
30
0
41
1
10
130.307323497011
20
6.14186843500019
30
0
41
1
10
130.370923955861
20
5.81747161117897
30
0
41
1
10
130.498124873562
20
5.14362416694479
30
0
41
1
10
130.561725332412
20
4.79419870692337
30
0
41
1
10
130.688926250112
20
4.07957289035659
30
0
41
1
10
130.752526708962
20
3.7143969162214
30
0
41
1
10
130.879727626662
20
2.97756840821907
30
0
41
1
10
130.943328085512
20
2.6059359127529
30
0
41
1
10
131.070529003212
20
1.86483299988512
30
0
41
1
10
131.134129462062
20
1.49537613103732
30
0
41
1
10
131.261330379762
20
0.766092777902259
30
0
41
1
10
131.324930838612
20
0.406272837332523
30
0
41
1
10
131.404431412175
20
-0.0337355789709761
30
0
41
1
10
131.420331526887
20
-0.121552533998198
30
0
41
1
10
131.452131756312
20
-0.298667213001607
30
0
41
1
10
131.49983210045
20
-0.565718002688357
30
0
41
1
10
131.547532444587
20
-0.836519583564552
30
0
41
1
10
131.642933132862
20
-1.3819602975598
30
0
41
1
10
131.706533591712
20
-1.7507466916752
30
0
41
1
10
131.833734509412
20
-2.49133650113086
30
0
41
1
10
131.897334968263
20
-2.86312709127944
30
0
41
1
10
131.960935427113
20
-3.23216360919381
30
0
0
SPLINE
5
DF
100
AcDbEntity
8
1
62
256
6
ByLayer
370
13
48
1
60
0
100
AcDbSpline
70
4
71
3
72
76
73
72
40
0
40
0
40
0
40
0
40
0.0312500000000002
40
0.0312500000000002
40
0.0625000000000003
40
0.0625000000000003
40
0.0937500000000005
40
0.0937500000000005
40
0.125000000000001
40
0.125000000000001
40
0.156250000000001
40
0.156250000000001
40
0.171875000000001
40
0.171875000000001
40
0.187500000000001
40
0.187500000000001
40
0.21875
40
0.21875
40
0.249999999999999
40
0.249999999999999
40
0.281249999999999
40
0.281249999999999
40
0.312499999999998
40
0.312499999999998
40
0.343749999999997
40
0.343749999999997
40
0.374999999999997
40
0.374999999999997
40
0.406249999999996
40
0.406249999999996
40
0.437499999999995
40
0.437499999999995
40
0.468749999999994
40
0.468749999999994
40
0.499999999999994
40
0.499999999999994
40
0.531249999999993
40
0.531249999999993
40
0.562499999999992
40
0.562499999999992
40
0.578124999999992
40
0.578124999999992
40
0.585937499999992
40
0.585937499999992
40
0.593749999999992
40
0.593749999999992
40
0.624999999999993
40
0.624999999999993
40
0.656249999999993
40
0.656249999999993
40
0.687499999999994
40
0.687499999999994
40
0.718749999999994
40
0.718749999999994
40
0.749999999999995
40
0.749999999999995
40
0.781249999999996
40
0.781249999999996
40
0.812499999999996
40
0.812499999999996
40
0.843749999999997
40
0.843749999999997
40
0.874999999999998
40
0.874999999999998
40
0.906249999999998
40
0.906249999999998
40
0.937499999999999
40
0.937499999999999
40
0.968749999999999
40
0.968749999999999
40
1
40
1
40
1
40
1
41
1
10
122
20
-7.77305498751616
30
0
41
1
10
122.062640029552
20
-8.0153149137698
30
0
41
1
10
122.125280059104
20
-8.23636722379121
30
0
41
1
10
122.250560118209
20
-8.6326115776686
30
0
41
1
10
122.313200147761
20
-8.8078037723219
30
0
41
1
10
122.438480206865
20
-9.11112274740395
30
0
41
1
10
122.501120236417
20
-9.23925748739316
30
0
41
1
10
122.626400295522
20
-9.44938656312004
30
0
41
1
10
122.689040325074
20
-9.53139436817153
30
0
41
1
10
122.814320384178
20
-9.6519934344463
30
0
41
1
10
122.87696041373
20
-9.69060081473415
30
0
41
1
10
122.970920458059
20
-9.71900018059739
30
0
41
1
10
123.002240472835
20
-9.72355696825016
30
0
41
1
10
123.064880502387
20
-9.72344195705691
30
0
41
1
10
123.096200517163
20
-9.71876638561727
30
0
41
1
10
123.190160561491
20
-9.68999999006135
30
0
41
1
10
123.252800591043
20
-9.6511336827771
30
0
41
1
10
123.378080650148
20
-9.52999510870336
30
0
41
1
10
123.4407206797
20
-9.44770673058892
30
0
41
1
10
123.566000738804
20
-9.23700469993454
30
0
41
1
10
123.628640768357
20
-9.10857760370453
30
0
41
1
10
123.753920827461
20
-8.80467449267118
30
0
41
1
10
123.816560857013
20
-8.62919056085855
30
0
41
1
10
123.941840916117
20
-8.23237720359057
30
0
41
1
10
124.00448094567
20
-8.01104768071792
30
0
41
1
10
124.129761004774
20
-7.52600180914786
30
0
41
1
10
124.192401034326
20
-7.26229412617386
30
0
41
1
10
124.31768109343
20
-6.69807935166165
30
0
41
1
10
124.380321122982
20
-6.39758881308106
30
0
41
1
10
124.505601182087
20
-5.76714096314063
30
0
41
1
10
124.568241211639
20
-5.43720549557506
30
0
41
1
10
124.693521270743
20
-4.75635815752105
30
0
41
1
10
124.756161300296
20
-4.40546978538063
30
0
41
1
10
124.8814413594
20
-3.69166990987461
30
0
41
1
10
124.944081388952
20
-3.328779881505
30
0
41
1
10
125.069361448056
20
-2.59970438697704
30
0
41
1
10
125.132001477609
20
-2.23353556810125
30
0
41
1
10
125.257281536713
20
-1.50582300031451
30
0
41
1
10
125.319921566265
20
-1.1442896520937
30
0
41
1
10
125.413881610594
20
-0.610486023766583
30
0
41
1
10
125.44520162537
20
-0.43395710302218
30
0
41
1
10
125.492181647534
20
-0.171799809663355
30
0
41
1
10
125.507841654922
20
-0.0848644780653842
30
0
41
1
10
125.539161669698
20
0.0880969782458294
30
0
41
1
10
125.554821677086
20
0.175055536708101
30
0
41
1
10
125.633121714026
20
0.61203895061999
30
0
41
1
10
125.695761743578
20
0.968691860830347
30
0
41
1
10
125.821041802683
20
1.69013816224552
30
0
41
1
10
125.883681832235
20
2.05492434006538
30
0
41
1
10
126.008961891339
20
2.78529503797387
30
0
41
1
10
126.071601920891
20
3.15086592959764
30
0
41
1
10
126.196881979996
20
3.87442787862676
30
0
41
1
10
126.259522009548
20
4.23239958972351
30
0
41
1
10
126.384802068652
20
4.93184772441714
30
0
41
1
10
126.447442098204
20
5.27330123197962
30
0
41
1
10
126.572722157309
20
5.93090393889511
30
0
41
1
10
126.635362186861
20
6.24702999080711
30
0
41
1
10
126.760642245965
20
6.84598003669944
30
0
41
1
10
126.823282275517
20
7.12878443787298
30
0
41
1
10
126.948562334622
20
7.65456051367261
30
0
41
1
10
127.011202364174
20
7.89751937693501
30
0
41
1
10
127.136482423278
20
8.33903838893511
30
0
41
1
10
127.19912245283
20
8.53759429042634
30
0
41
1
10
127.324402511935
20
8.88796720523411
30
0
41
1
10
127.387042541487
20
9.0397884689111
30
0
41
1
10
127.512322600591
20
9.29657567916968
30
0
41
1
10
127.574962630143
20
9.40155266503874
30
0
41
1
10
127.700242689248
20
9.56652134715324
30
0
41
1
10
127.7628827188
20
9.62652818985541
30
0
41
1
10
127.888162777904
20
9.70500931084334
30
0
41
1
10
127.950802807456
20
9.7235
30
0
41
1
10
128.013442837009
20
9.7235
30
0
0
SPLINE
5
E0
100
AcDbEntity
8
1
62
256
6
ByLayer
370
13
48
1
60
0
100
AcDbSpline
70
4
71
3
72
42
73
38
40
0
40
0
40
0
40
0
40
0.0625
40
0.0625
40
0.125
40
0.125
40
0.1875
40
0.1875
40
0.25
40
0.25
40
0.3125
40
0.3125
40
0.375
40
0.375
40
0.4375
40
0.4375
40
0.5
40
0.5
40
0.5625
40
0.5625
40
0.625
40
0.625
40
0.6875
40
0.6875
40
0.703125
40
0.703125
40
0.71875
40
0.71875
40
0.75
40
0.75
40
0.8125
40
0.8125
40
0.875
40
0.875
40
0.9375
40
0.9375
40
1
40
1
40
1
40
1
41
1
10
128.414676766292
20
9.7235
30
0
41
1
10
128.488557155059
20
9.7235
30
0
41
1
10
128.562437543826
20
9.69775683887173
30
0
41
1
10
128.71019832136
20
9.58750710833135
30
0
41
1
10
128.784078710127
20
9.50296326544083
30
0
41
1
10
128.931839487661
20
9.27005104019838
30
0
41
1
10
129.005719876428
20
9.12165081179964
30
0
41
1
10
129.153480653963
20
8.75931996387979
30
0
41
1
10
129.22736104273
20
8.54537192653041
30
0
41
1
10
129.375121820264
20
8.05436861732491
30
0
41
1
10
129.449002209031
20
7.77731739371012
30
0
41
1
10
129.596762986565
20
7.16688399757444
30
0
41
1
10
129.670643375332
20
6.83352910580882
30
0
41
1
10
129.818404152866
20
6.12114828260823
30
0
41
1
10
129.892284541634
20
5.74216783846984
30
0
41
1
10
130.040045319168
20
4.95196196965443
30
0
41
1
10
130.113925707935
20
4.54078989768792
30
0
41
1
10
130.261686485469
20
3.70086673459002
30
0
41
1
10
130.335566874236
20
3.27216507768139
30
0
41
1
10
130.48332765177
20
2.41150183765094
30
0
41
1
10
130.557208040537
20
1.97957670003379
30
0
41
1
10
130.704968818072
20
1.12511940050086
30
0
41
1
10
130.778849206839
20
0.702606704581825
30
0
41
1
10
130.871199692798
20
0.186672440684902
30
0
41
1
10
130.88966978999
20
0.0842305921329398
30
0
41
1
10
130.926609984373
20
-0.119908194622923
30
0
41
1
10
130.945080081565
20
-0.222639087333022
30
0
41
1
10
131.00049037314
20
-0.532618666250528
30
0
41
1
10
131.037430567524
20
-0.741659718223048
30
0
41
1
10
131.148251150674
20
-1.37416701689489
30
0
41
1
10
131.222131539442
20
-1.80309441073132
30
0
41
1
10
131.369892316976
20
-2.66397591114557
30
0
41
1
10
131.443772705743
20
-3.09590140200638
30
0
41
1
10
131.591533483277
20
-3.94913714111701
30
0
41
1
10
131.665413872044
20
-4.3704032255354
30
0
41
1
10
131.813174649578
20
-5.18764706124821
30
0
41
1
10
131.887055038345
20
-5.58357191865625
30
0
41
1
10
131.960935427113
20
-5.9597442639635
30
0
0
SPLINE
5
E1
100
AcDbEntity
8
1
62
256
6
ByLayer
370
13
48
1
60
0
100
AcDbSpline
70
4
71
3
72
77
73
73
40
0
40
0
40
0
40
0
40
0.0312500000000029
40
0.0312500000000029
40
0.0625000000000058
40
0.0625000000000058
40
0.0937500000000086
40
0.0937500000000086
40
0.101562500000009
40
0.101562500000009
40
0.10937500000001
40
0.12500000000001
40
0.12500000000001
40
0.156250000000011
40
0.156250000000011
40
0.187500000000011
40
0.187500000000011
40
0.218750000000012
40
0.218750000000012
40
0.250000000000012
40
0.250000000000012
40
0.281250000000013
40
0.281250000000013
40
0.312500000000013
40
0.312500000000013
40
0.343750000000014
40
0.343750000000014
40
0.375000000000015
40
0.375000000000015
40
0.406250000000015
40
0.406250000000015
40
0.437500000000016
40
0.437500000000016
40
0.468750000000016
40
0.468750000000016
40
0.500000000000017
40
0.500000000000017
40
0.531250000000017
40
0.531250000000017
40
0.546875000000018
40
0.546875000000018
40
0.554687500000018
40
0.554687500000018
40
0.562500000000018
40
0.562500000000018
40
0.593750000000016
40
0.593750000000016
40
0.625000000000015
40
0.625000000000015
40
0.656250000000014
40
0.656250000000014
40
0.687500000000012
40
0.687500000000012
40
0.718750000000011
40
0.718750000000011
40
0.75000000000001
40
0.75000000000001
40
0.781250000000009
40
0.781250000000009
40
0.812500000000007
40
0.812500000000007
40
0.843750000000006
40
0.843750000000006
40
0.875000000000005
40
0.875000000000005
40
0.906250000000004
40
0.906250000000004
40
0.937500000000002
40
0.937500000000002
40
0.968750000000001
40
0.968750000000001
40
1
40
1
40
1
40
1
41
1
10
122
20
-9.21666732986012
30
0
41
1
10
122.057500064594
20
-9.32901001324561
30
0
41
1
10
122.115000129187
20
-9.4216889815734
30
0
41
1
10
122.230000258375
20
-9.56927082738184
30
0
41
1
10
122.287500322968
20
-9.62418366951448
30
0
41
1
10
122.402500452155
20
-9.69890787796842
30
0
41
1
10
122.460000516749
20
-9.71872995164381
30
0
41
1
10
122.531875597491
20
-9.72373569206587
30
0
41
1
10
122.54625061364
20
-9.72375696157724
30
0
41
1
10
122.575000645936
20
-9.72184168037984
30
0
41
1
10
122.618125694382
20
-9.71600996559749
30
0
41
1
10
122.661250742827
20
-9.70103947518271
30
0
41
1
10
122.747500839717
20
-9.65826531685704
30
0
41
1
10
122.805000904311
20
-9.61261014165575
30
0
41
1
10
122.920001033498
20
-9.48413447225832
30
0
41
1
10
122.977501098092
20
-9.40130368090234
30
0
41
1
10
123.092501227279
20
-9.19659485846245
30
0
41
1
10
123.150001291873
20
-9.07470842668479
30
0
41
1
10
123.26500142106
20
-8.79131961119117
30
0
41
1
10
123.322501485654
20
-8.62981228726215
30
0
41
1
10
123.437501614841
20
-8.268132270515
30
0
41
1
10
123.495001679435
20
-8.06795933810699
30
0
41
1
10
123.610001808622
20
-7.63150000476318
30
0
41
1
10
123.667501873216
20
-7.39521861675777
30
0
41
1
10
123.782502002403
20
-6.89062531813656
30
0
41
1
10
123.840002066997
20
-6.6223233080587
30
0
41
1
10
123.955002196184
20
-6.05907669522367
30
0
41
1
10
124.012502260777
20
-5.76414561136247
30
0
41
1
10
124.127502389965
20
-5.15397673837754
30
0
41
1
10
124.185002454559
20
-4.83875418508958
30
0
41
1
10
124.300002583746
20
-4.19484707092391
30
0
41
1
10
124.357502648339
20
-3.86617737458892
30
0
41
1
10
124.472502777527
20
-3.20226988750389
30
0
41
1
10
124.53000284212
20
-2.86704477946182
30
0
41
1
10
124.645002971308
20
-2.19654978139548
30
0
41
1
10
124.702503035901
20
-1.86128919418229
30
0
41
1
10
124.817503165088
20
-1.19654216603183
30
0
41
1
10
124.875003229682
20
-0.867061187294155
30
0
41
1
10
124.961253326573
20
-0.380839294279298
30
0
41
1
10
124.990003358869
20
-0.220090865925243
30
0
41
1
10
125.033128407315
20
0.0186576738367137
30
0
41
1
10
125.047503423463
20
0.0979855588238365
30
0
41
1
10
125.07625345576
20
0.257909285078739
30
0
41
1
10
125.090628471908
20
0.33825135558314
30
0
41
1
10
125.162503552651
20
0.741702102625112
30
0
41
1
10
125.220003617244
20
1.07007148623393
30
0
41
1
10
125.335003746431
20
1.73327432802765
30
0
41
1
10
125.392503811025
20
2.06810281213956
30
0
41
1
10
125.507503940212
20
2.73852109943471
30
0
41
1
10
125.565004004806
20
3.0741020801093
30
0
41
1
10
125.680004133993
20
3.7395825770391
30
0
41
1
10
125.737504198587
20
4.06946979078685
30
0
41
1
10
125.852504327774
20
4.7166989719679
30
0
41
1
10
125.910004392368
20
5.03402626306524
30
0
41
1
10
126.025004521555
20
5.64926053982754
30
0
41
1
10
126.082504586149
20
5.94715222228785
30
0
41
1
10
126.197504715336
20
6.51708596634876
30
0
41
1
10
126.255004779929
20
6.78911417506672
30
0
41
1
10
126.370004909117
20
7.30178295760945
30
0
41
1
10
126.42750497371
20
7.54241308101945
30
0
41
1
10
126.542505102898
20
7.98801078466724
30
0
41
1
10
126.600005167491
20
8.1929726870155
30
0
41
1
10
126.715005296679
20
8.56446866764892
30
0
41
1
10
126.772505361272
20
8.73100232742007
30
0
41
1
10
126.88750549046
20
9.02447859879163
30
0
41
1
10
126.945005555053
20
9.15142560803136
30
0
41
1
10
127.060005684241
20
9.36610517124655
30
0
41
1
10
127.117505748834
20
9.45384576801573
30
0
41
1
10
127.232505878022
20
9.59183720863459
30
0
41
1
10
127.290005942615
20
9.64209819618708
30
0
41
1
10
127.405006071803
20
9.70792424176187
30
0
41
1
10
127.462506136396
20
9.7235
30
0
41
1
10
127.52000620099
20
9.7235
30
0
0
SPLINE
5
E2
100
AcDbEntity
8
1
62
256
6
ByLayer
370
13
48
1
60
0
100
AcDbSpline
70
4
71
3
72
42
73
38
40
0
40
0
40
0
40
0
40
0.0624999999999999
40
0.0624999999999999
40
0.125
40
0.125
40
0.1875
40
0.1875
40
0.25
40
0.25
40
0.3125
40
0.3125
40
0.374999999999999
40
0.374999999999999
40
0.437499999999999
40
0.437499999999999
40
0.499999999999999
40
0.499999999999999
40
0.562499999999999
40
0.562499999999999
40
0.593749999999999
40
0.593749999999999
40
0.609374999999999
40
0.609374999999999
40
0.624999999999999
40
0.624999999999999
40
0.687499999999999
40
0.687499999999999
40
0.75
40
0.75
40
0.8125
40
0.8125
40
0.875
40
0.875
40
0.9375
40
0.9375
40
1
40
1
40
1
40
1
41
1
10
127.921240130273
20
9.7235
30
0
41
1
10
128.005400448957
20
9.7235
30
0
41
1
10
128.089560767641
20
9.6900640595473
30
0
41
1
10
128.257881405009
20
9.54575754674173
30
0
41
1
10
128.342041723694
20
9.43481615199946
30
0
41
1
10
128.510362361062
20
9.12890916391194
30
0
41
1
10
128.594522679746
20
8.93388873327459
30
0
41
1
10
128.762843317114
20
8.45930923441756
30
0
41
1
10
128.847003635799
20
8.17973290679285
30
0
41
1
10
129.015324273167
20
7.54276398550886
30
0
41
1
10
129.099484591851
20
7.18540431844949
30
0
41
1
10
129.267805229219
20
6.40662732990376
30
0
41
1
10
129.351965547903
20
5.98528812742592
30
0
41
1
10
129.520286185272
20
5.09764282125454
30
0
41
1
10
129.604446503956
20
4.6314378248708
30
0
41
1
10
129.772767141324
20
3.67569658493949
30
0
41
1
10
129.856927460009
20
3.18625536228021
30
0
41
1
10
130.025248097377
20
2.20516801316839
30
0
41
1
10
130.109408416061
20
1.71358820854152
30
0
41
1
10
130.235648894087
20
0.98815524566885
30
0
41
1
10
130.277729053429
20
0.748304076213174
30
0
41
1
10
130.340849292442
20
0.392853208278041
30
0
41
1
10
130.361889372113
20
0.275088310068753
30
0
41
1
10
130.403969531456
20
0.0411993506371289
30
0
41
1
10
130.425009611127
20
-0.0745882700739742
30
0
41
1
10
130.530210009482
20
-0.660089394842629
30
0
41
1
10
130.614370328166
20
-1.14164968131672
30
0
41
1
10
130.782690965534
20
-2.11620454212948
30
0
41
1
10
130.866851284219
20
-2.60915977910676
30
0
41
1
10
131.035171921587
20
-3.58744064077331
30
0
41
1
10
131.119332240271
20
-4.07269059472961
30
0
41
1
10
131.287652877639
20
-5.01405818825901
30
0
41
1
10
131.371813196323
20
-5.4700764065648
30
0
41
1
10
131.540133833692
20
-6.33172939125444
30
0
41
1
10
131.624294152376
20
-6.73726649034202
30
0
41
1
10
131.792614789744
20
-7.480021976476
30
0
41
1
10
131.876775108428
20
-7.81717302018393
30
0
41
1
10
131.960935427113
20
-8.1141459689791
30
0
0
SPLINE
5
E3
100
AcDbEntity
8
1
62
256
6
ByLayer
370
13
48
1
60
0
100
AcDbSpline
70
4
71
3
72
77
73
73
40
0
40
0
40
0
40
0
40
0.0078124999999995
40
0.0078124999999995
40
0.015624999999999
40
0.015624999999999
40
0.0312499999999986
40
0.0312499999999986
40
0.0624999999999977
40
0.0624999999999977
40
0.0937499999999967
40
0.0937499999999967
40
0.124999999999996
40
0.124999999999996
40
0.156249999999995
40
0.156249999999995
40
0.187499999999994
40
0.187499999999994
40
0.218749999999993
40
0.218749999999993
40
0.249999999999992
40
0.249999999999992
40
0.281249999999991
40
0.281249999999991
40
0.31249999999999
40
0.31249999999999
40
0.343749999999989
40
0.343749999999989
40
0.374999999999988
40
0.374999999999988
40
0.406249999999987
40
0.406249999999987
40
0.437499999999986
40
0.437499999999986
40
0.468749999999985
40
0.468749999999985
40
0.499999999999984
40
0.499999999999984
40
0.507812499999984
40
0.507812499999984
40
0.515624999999983
40
0.531249999999984
40
0.531249999999984
40
0.562499999999985
40
0.562499999999985
40
0.593749999999986
40
0.593749999999986
40
0.624999999999987
40
0.624999999999987
40
0.656249999999988
40
0.656249999999988
40
0.687499999999989
40
0.687499999999989
40
0.71874999999999
40
0.71874999999999
40
0.749999999999991
40
0.749999999999991
40
0.781249999999992
40
0.781249999999992
40
0.812499999999993
40
0.812499999999993
40
0.843749999999994
40
0.843749999999994
40
0.874999999999995
40
0.874999999999995
40
0.906249999999996
40
0.906249999999996
40
0.937499999999998
40
0.937499999999998
40
0.968749999999999
40
0.968749999999999
40
1
40
1
40
1
40
1
41
1
10
122
20
-9.72013157824915
30
0
41
1
10
122.013090024909
20
-9.72205451340128
30
0
41
1
10
122.026180049817
20
-9.72314558039599
30
0
41
1
10
122.052360099635
20
-9.72370781883325
30
0
41
1
10
122.065450124544
20
-9.72318429583387
30
0
41
1
10
122.10472019927
20
-9.71914413864948
30
0
41
1
10
122.130900249088
20
-9.71315267461947
30
0
41
1
10
122.20944039854
20
-9.68477766201022
30
0
41
1
10
122.261800498176
20
-9.65197608979327
30
0
41
1
10
122.366520697446
20
-9.55625159086986
30
0
41
1
10
122.418880797081
20
-9.4933220379703
30
0
41
1
10
122.523600996351
20
-9.33561387738561
30
0
41
1
10
122.575961095986
20
-9.2408293960612
30
0
41
1
10
122.680681295257
20
-9.0185113624236
30
0
41
1
10
122.733041394892
20
-8.89097351690481
30
0
41
1
10
122.837761594162
20
-8.60323216875395
30
0
41
1
10
122.890121693797
20
-8.44302671066879
30
0
41
1
10
122.994841893067
20
-8.09111351724169
30
0
41
1
10
123.047201992702
20
-7.89940668472175
30
0
41
1
10
123.151922191973
20
-7.48675159885264
30
0
41
1
10
123.204282291608
20
-7.26580724853076
30
0
41
1
10
123.309002490878
20
-6.7979635054688
30
0
41
1
10
123.361362590513
20
-6.5510707095697
30
0
41
1
10
123.466082789783
20
-6.03548284191879
30
0
41
1
10
123.518442889418
20
-5.76679633881267
30
0
41
1
10
123.623163088689
20
-5.21240955702027
30
0
41
1
10
123.675523188324
20
-4.92671881412238
30
0
41
1
10
123.780243387594
20
-4.34347211390386
30
0
41
1
10
123.832603487229
20
-4.04592556887846
30
0
41
1
10
123.937323686499
20
-3.44418742572645
30
0
41
1
10
123.989683786134
20
-3.14000414312545
30
0
41
1
10
124.094403985404
20
-2.53001476558643
30
0
41
1
10
124.14676408504
20
-2.22421518858371
30
0
41
1
10
124.25148428431
20
-1.61559261075652
30
0
41
1
10
124.303844383945
20
-1.31277397588036
30
0
41
1
10
124.408564583215
20
-0.714125509501145
30
0
41
1
10
124.46092468285
20
-0.418297873858677
30
0
41
1
10
124.526374807394
20
-0.0549606163446015
30
0
41
1
10
124.539464832303
20
0.0171763972870735
30
0
41
1
10
124.565644882121
20
0.162286868410575
30
0
41
1
10
124.604914956847
20
0.380925785754499
30
0
41
1
10
124.644185031573
20
0.60227659093249
30
0
41
1
10
124.722725181026
20
1.04797722369165
30
0
41
1
10
124.775085280661
20
1.34913047357608
30
0
41
1
10
124.879805479931
20
1.9556650672215
30
0
41
1
10
124.932165579566
20
2.26104269362753
30
0
41
1
10
125.036885778837
20
2.87158926339214
30
0
41
1
10
125.089245878472
20
3.17675229955628
30
0
41
1
10
125.193966077742
20
3.78195460636985
30
0
41
1
10
125.246326177377
20
4.08198603126732
30
0
41
1
10
125.351046376647
20
4.67173934955221
30
0
41
1
10
125.403406476282
20
4.96145206148722
30
0
41
1
10
125.508126675553
20
5.52536960653228
30
0
41
1
10
125.560486775188
20
5.79956482862542
30
0
41
1
10
125.665206974458
20
6.32752213791474
30
0
41
1
10
125.717567074093
20
6.58127526056163
30
0
41
1
10
125.822287273363
20
7.06397911969248
30
0
41
1
10
125.874647372998
20
7.29292258984197
30
0
41
1
10
125.979367572269
20
7.72244134092395
30
0
41
1
10
126.031727671904
20
7.92301187629252
30
0
41
1
10
126.136447871174
20
8.29320548279156
30
0
41
1
10
126.188807970809
20
8.46282676573924
30
0
41
1
10
126.293528170079
20
8.76962841159053
30
0
41
1
10
126.345888269714
20
8.90680993035502
30
0
41
1
10
126.450608468985
20
9.14833341710312
30
0
41
1
10
126.50296856862
20
9.25267906326704
30
0
41
1
10
126.60768876789
20
9.42915250283559
30
0
41
1
10
126.660048867525
20
9.50128579181967
30
0
41
1
10
126.764769066795
20
9.6148359925798
30
0
41
1
10
126.817129166431
20
9.65625939342951
30
0
41
1
10
126.921849365701
20
9.71058804959884
30
0
41
1
10
126.974209465336
20
9.7235
30
0
41
1
10
127.026569564971
20
9.7235
30
0
0
SPLINE
5
E4
100
AcDbEntity
8
1
62
256
6
ByLayer
370
13
48
1
60
0
100
AcDbSpline
70
4
71
3
72
44
73
40
40
0
40
0
40
0
40
0
40
0.0624999999999986
40
0.0624999999999986
40
0.124999999999997
40
0.124999999999997
40
0.187499999999996
40
0.187499999999996
40
0.249999999999995
40
0.249999999999995
40
0.312499999999993
40
0.312499999999993
40
0.374999999999992
40
0.374999999999992
40
0.437499999999991
40
0.437499999999991
40
0.499999999999989
40
0.499999999999989
40
0.531249999999989
40
0.531249999999989
40
0.546874999999988
40
0.546874999999988
40
0.554687499999988
40
0.554687499999988
40
0.562499999999988
40
0.562499999999988
40
0.62499999999999
40
0.62499999999999
40
0.687499999999992
40
0.687499999999992
40
0.749999999999993
40
0.749999999999993
40
0.812499999999995
40
0.812499999999995
40
0.874999999999997
40
0.874999999999997
40
0.937499999999998
40
0.937499999999998
40
1
40
1
40
1
40
1
41
1
10
127.427803494254
20
9.7235
30
0
41
1
10
127.522243742855
20
9.7235
30
0
41
1
10
127.616683991456
20
9.68135156565225
30
0
41
1
10
127.805564488659
20
9.4981205822528
30
0
41
1
10
127.90000473726
20
9.35691384727468
30
0
41
1
10
128.088885234462
20
8.96760604994319
30
0
41
1
10
128.183325483064
20
8.71942094578947
30
0
41
1
10
128.372205980266
20
8.11842278818096
30
0
41
1
10
128.466646228867
20
7.76561074956908
30
0
41
1
10
128.65552672607
20
6.96925464158403
30
0
41
1
10
128.749966974671
20
6.52581138638683
30
0
41
1
10
128.938847471873
20
5.57220493688641
30
0
41
1
10
129.033287720475
20
5.06221110411823
30
0
41
1
10
129.222168217677
20
4.00541568155279
30
0
41
1
10
129.316608466278
20
3.45879026099863
30
0
41
1
10
129.505488963481
20
2.3591102108654
30
0
41
1
10
129.599929212082
20
1.80618233433501
30
0
41
1
10
129.741589584984
20
0.991548260414618
30
0
41
1
10
129.788809709284
20
0.722417906538993
30
0
41
1
10
129.859639895735
20
0.324297695341016
30
0
41
1
10
129.883249957886
20
0.192516596588632
30
0
41
1
10
129.918665051111
20
-0.0035552991276688
30
0
41
1
10
129.930470082186
20
-0.0686660639134686
30
0
41
1
10
129.954080144337
20
-0.199768942562628
30
0
41
1
10
129.965885175412
20
-0.265580561159567
30
0
41
1
10
130.072130455088
20
-0.860069365140987
30
0
41
1
10
130.166570703689
20
-1.404332902856
30
0
41
1
10
130.355451200892
20
-2.50246367825025
30
0
41
1
10
130.449891449493
20
-3.05624607897977
30
0
41
1
10
130.638771946695
20
-4.14517770679913
30
0
41
1
10
130.733212195297
20
-4.6801742757612
30
0
41
1
10
130.922092692499
20
-5.70075136200367
30
0
41
1
10
131.0165329411
20
-6.18615055200206
30
0
41
1
10
131.205413438303
20
-7.07940010127328
30
0
41
1
10
131.299853686904
20
-7.48710347617839
30
0
41
1
10
131.488734184107
20
-8.20465516121919
30
0
41
1
10
131.583174432708
20
-8.51444354750194
30
0
41
1
10
131.77205492991
20
-9.02696379298703
30
0
41
1
10
131.866495178511
20
-9.22973463435494
30
0
41
1
10
131.960935427113
20
-9.38008587976842
30
0
0
SPLINE
5
E5
100
AcDbEntity
8
1
62
256
6
ByLayer
370
13
48
1
60
0
100
AcDbSpline
70
4
71
3
72
44
73
40
40
0
40
0
40
0
40
0
40
0.0625
40
0.0625
40
0.125
40
0.125
40
0.1875
40
0.1875
40
0.25
40
0.25
40
0.3125
40
0.3125
40
0.375
40
0.375
40
0.4375
40
0.4375
40
0.4453125
40
0.4453125
40
0.453124999999999
40
0.453124999999999
40
0.468749999999999
40
0.468749999999999
40
0.499999999999999
40
0.499999999999999
40
0.562499999999999
40
0.562499999999999
40
0.624999999999999
40
0.624999999999999
40
0.6875
40
0.6875
40
0.75
40
0.75
40
0.8125
40
0.8125
40
0.875
40
0.875
40
0.9375
40
0.9375
40
1
40
1
40
1
40
1
41
1
10
122
20
-9.38008746557239
30
0
41
1
10
122.094440269353
20
-9.22973655272955
30
0
41
1
10
122.188880538706
20
-9.02696603355182
30
0
41
1
10
122.377761077413
20
-8.51444637480174
30
0
41
1
10
122.472201346766
20
-8.20465825272802
30
0
41
1
10
122.661081885472
20
-7.48710700689648
30
0
41
1
10
122.755522154825
20
-7.07940380674611
30
0
41
1
10
122.944402693532
20
-6.18615450142113
30
0
41
1
10
123.038842962885
20
-5.70075538058703
30
0
41
1
10
123.227723501591
20
-4.68017833045789
30
0
41
1
10
123.322163770944
20
-4.14518172863941
30
0
41
1
10
123.511044309651
20
-3.05624995330589
30
0
41
1
10
123.605484579004
20
-2.50246743821651
30
0
41
1
10
123.79436511771
20
-1.40433638186485
30
0
41
1
10
123.888805387063
20
-0.86007267781028
30
0
41
1
10
123.995050690086
20
-0.265583674106523
30
0
41
1
10
124.006855723755
20
-0.199772033140874
30
0
41
1
10
124.030465791093
20
-0.0686691094520029
30
0
41
1
10
124.042270824762
20
-0.003558321183732
30
0
41
1
10
124.07768592577
20
0.192513593038626
30
0
41
1
10
124.101295993108
20
0.324294705623771
30
0
41
1
10
124.172126195123
20
0.72241496286577
30
0
41
1
10
124.219346329799
20
0.991545353514908
30
0
41
1
10
124.361006733829
20
1.80617955591106
30
0
41
1
10
124.455447003182
20
2.35910754260945
30
0
41
1
10
124.644327541889
20
3.45878785482296
30
0
41
1
10
124.738767811242
20
4.00541342725475
30
0
41
1
10
124.927648349948
20
5.06220917852283
30
0
41
1
10
125.022088619301
20
5.57220318795692
30
0
41
1
10
125.210969158008
20
6.52580999218711
30
0
41
1
10
125.305409427361
20
6.96925342521951
30
0
41
1
10
125.494289966067
20
7.76560986607348
30
0
41
1
10
125.58873023542
20
8.1184220595284
30
0
41
1
10
125.777610774127
20
8.71942048589202
30
0
41
1
10
125.87205104348
20
8.96760570389063
30
0
41
1
10
126.060931582186
20
9.35691368005692
30
0
41
1
10
126.155371851539
20
9.49812048008764
30
0
41
1
10
126.344252390246
20
9.68135154702992
30
0
41
1
10
126.438692659599
20
9.7235
30
0
41
1
10
126.533132928952
20
9.7235
30
0
0
SPLINE
5
E6
100
AcDbEntity
8
1
62
256
6
ByLayer
370
13
48
1
60
0
100
AcDbSpline
70
4
71
3
72
78
73
74
40
0
40
0
40
0
40
0
40
0.0312499999999994
40
0.0312499999999994
40
0.0624999999999989
40
0.0624999999999989
40
0.0937499999999983
40
0.0937499999999983
40
0.124999999999998
40
0.124999999999998
40
0.156249999999997
40
0.156249999999997
40
0.187499999999997
40
0.187499999999997
40
0.218749999999996
40
0.218749999999996
40
0.249999999999996
40
0.249999999999996
40
0.281249999999995
40
0.281249999999995
40
0.312499999999995
40
0.312499999999995
40
0.343749999999994
40
0.343749999999994
40
0.374999999999994
40
0.374999999999994
40
0.406249999999993
40
0.406249999999993
40
0.437499999999993
40
0.437499999999993
40
0.468749999999992
40
0.468749999999992
40
0.484374999999992
40
0.484374999999992
40
0.492187499999992
40
0.492187499999992
40
0.499999999999992
40
0.499999999999992
40
0.531249999999993
40
0.531249999999993
40
0.562499999999993
40
0.562499999999993
40
0.593749999999994
40
0.593749999999994
40
0.624999999999994
40
0.624999999999994
40
0.656249999999995
40
0.656249999999995
40
0.687499999999995
40
0.687499999999995
40
0.718749999999996
40
0.718749999999996
40
0.749999999999996
40
0.749999999999996
40
0.781249999999997
40
0.781249999999997
40
0.812499999999997
40
0.812499999999997
40
0.843749999999998
40
0.843749999999998
40
0.874999999999998
40
0.874999999999998
40
0.906249999999999
40
0.906249999999999
40
0.937499999999999
40
0.937499999999999
40
0.96875
40
0.96875
40
0.984375
40
0.984375
40
0.9921875
40
0.9921875
40
1
40
1
40
1
40
1
41
1
10
126.934366858235
20
9.7235
30
0
41
1
10
126.986726947494
20
9.7235
30
0
41
1
10
127.039087036753
20
9.7105880547231
30
0
41
1
10
127.143807215272
20
9.65625942060348
30
0
41
1
10
127.196167304531
20
9.6148360366858
30
0
41
1
10
127.300887483049
20
9.50128588272415
30
0
41
1
10
127.353247572308
20
9.42915262361268
30
0
41
1
10
127.457967750826
20
9.25267925722872
30
0
41
1
10
127.510327840086
20
9.14833365438139
30
0
41
1
10
127.615048018604
20
8.90681026741666
30
0
41
1
10
127.667408107863
20
8.76962880512082
30
0
41
1
10
127.772128286381
20
8.46282728417219
30
0
41
1
10
127.82448837564
20
8.29320606965689
30
0
41
1
10
127.929208554159
20
7.92301260990104
30
0
41
1
10
127.981568643418
20
7.72244215283794
30
0
41
1
10
128.086288821936
20
7.29292356536112
30
0
41
1
10
128.138648911195
20
7.06398018050277
30
0
41
1
10
128.243369089713
20
6.58127649547916
30
0
41
1
10
128.295729178973
20
6.32752346163778
30
0
41
1
10
128.400449357491
20
5.79956632972355
30
0
41
1
10
128.45280944675
20
5.52537119618901
30
0
41
1
10
128.557529625268
20
4.96145382430328
30
0
41
1
10
128.609889714527
20
4.67174119695935
30
0
41
1
10
128.714609893046
20
4.08198804053251
30
0
41
1
10
128.766969982305
20
3.78195669289497
30
0
41
1
10
128.871690160823
20
3.17675453052263
30
0
41
1
10
128.924050250082
20
2.87159156153606
30
0
41
1
10
129.028770428601
20
2.26104511406905
30
0
41
1
10
129.08113051786
20
1.95566754278269
30
0
41
1
10
129.185850696378
20
1.34913304617703
30
0
41
1
10
129.238210785637
20
1.04797983821516
30
0
41
1
10
129.316750919526
20
0.602279258186343
30
0
41
1
10
129.342930964155
20
0.454712070624879
30
0
41
1
10
129.3822010311
20
0.235169443383
30
0
41
1
10
129.395291053415
20
0.16228957956946
30
0
41
1
10
129.421471098044
20
0.0171791209961896
30
0
41
1
10
129.434561120359
20
-0.0549578740374272
30
0
41
1
10
129.500011231933
20
-0.418295018901603
30
0
41
1
10
129.552371321192
20
-0.714122567072707
30
0
41
1
10
129.65709149971
20
-1.31277086809871
30
0
41
1
10
129.70945158897
20
-1.61558942510229
30
0
41
1
10
129.814171767488
20
-2.22421186140059
30
0
41
1
10
129.866531856747
20
-2.53001137475923
30
0
41
1
10
129.971252035265
20
-3.1400006438522
30
0
41
1
10
130.023612124524
20
-3.44418388166537
30
0
41
1
10
130.128332303043
20
-4.04592195830867
30
0
41
1
10
130.180692392302
20
-4.34346848162741
30
0
41
1
10
130.28541257082
20
-4.92671516489139
30
0
41
1
10
130.337772660079
20
-5.21240591255344
30
0
41
1
10
130.442492838598
20
-5.76679273249025
30
0
41
1
10
130.494852927857
20
-6.03547926898423
30
0
41
1
10
130.599573106375
20
-6.5510672326476
30
0
41
1
10
130.651933195634
20
-6.79796009117288
30
0
41
1
10
130.756653374152
20
-7.26580398766393
30
0
41
1
10
130.809013463412
20
-7.48674842878387
30
0
41
1
10
130.91373364193
20
-7.89940372173299
30
0
41
1
10
130.966093731189
20
-8.0911106705243
30
0
41
1
10
131.070813909707
20
-8.4430241178888
30
0
41
1
10
131.123173998966
20
-8.60322971362535
30
0
41
1
10
131.227894177485
20
-8.89097135337354
30
0
41
1
10
131.280254266744
20
-9.01850935282206
30
0
41
1
10
131.384974445262
20
-9.2408277049723
30
0
41
1
10
131.437334534521
20
-9.33561235086435
30
0
41
1
10
131.54205471304
20
-9.49332084553453
30
0
41
1
10
131.594414802299
20
-9.55625056793951
30
0
41
1
10
131.699134980817
20
-9.65197540548257
30
0
41
1
10
131.751495070076
20
-9.68477714680512
30
0
41
1
10
131.830035203965
20
-9.71315240928499
30
0
41
1
10
131.856215248594
20
-9.71914395598003
30
0
41
1
10
131.895485315539
20
-9.72318423584903
30
0
41
1
10
131.908575337853
20
-9.72370779923554
30
0
41
1
10
131.934755382483
20
-9.72314564244027
30
0
41
1
10
131.947845404798
20
-9.72205461714731
30
0
41
1
10
131.960935427113
20
-9.72013172457449
30
0
0
SPLINE
5
E7
100
AcDbEntity
8
1
62
256
6
ByLayer
370
13
48
1
60
0
100
AcDbSpline
70
4
71
3
72
42
73
38
40
0
40
0
40
0
40
0
40
0.0624999999999999
40
0.0624999999999999
40
0.125
40
0.125
40
0.1875
40
0.1875
40
0.25
40
0.25
40
0.3125
40
0.3125
40
0.375
40
0.375
40
0.390625
40
0.390625
40
0.40625
40
0.40625
40
0.4375
40
0.4375
40
0.5
40
0.5
40
0.5625
40
0.5625
40
0.625
40
0.625
40
0.6875
40
0.6875
40
0.75
40
0.75
40
0.8125
40
0.8125
40
0.875
40
0.875
40
0.9375
40
0.9375
40
1
40
1
40
1
40
1
41
1
10
122
20
-8.11414948385024
30
0
41
1
10
122.084160339436
20
-7.81717677659299
30
0
41
1
10
122.168320678872
20
-7.48002593768212
30
0
41
1
10
122.336641357744
20
-6.737270770702
30
0
41
1
10
122.420801697181
20
-6.33173378589791
30
0
41
1
10
122.589122376053
20
-5.47008093537784
30
0
41
1
10
122.673282715489
20
-5.01406273702025
30
0
41
1
10
122.841603394361
20
-4.07269509860978
30
0
41
1
10
122.925763733797
20
-3.58744507998648
30
0
41
1
10
123.094084412669
20
-2.60916402384845
30
0
41
1
10
123.178244752106
20
-2.1162086572561
30
0
41
1
10
123.346565430978
20
-1.14165349616397
30
0
41
1
10
123.430725770414
20
-0.660093039176047
30
0
41
1
10
123.535926194709
20
-0.0745916901137491
30
0
41
1
10
123.556966279568
20
0.0411959637830535
30
0
41
1
10
123.599046449286
20
0.275084949358018
30
0
41
1
10
123.620086534145
20
0.392849861976884
30
0
41
1
10
123.683206788722
20
0.748300777195283
30
0
41
1
10
123.72528695844
20
0.988151983590853
30
0
41
1
10
123.851527467594
20
1.71358507346679
30
0
41
1
10
123.935687807031
20
2.20516498455865
30
0
41
1
10
124.104008485903
20
3.18625258497818
30
0
41
1
10
124.188168825339
20
3.67569395246858
30
0
41
1
10
124.356489504211
20
4.63143550841355
30
0
41
1
10
124.440649843647
20
5.09764067589671
30
0
41
1
10
124.608970522519
20
5.98528633308052
30
0
41
1
10
124.693130861956
20
6.40662571533494
30
0
41
1
10
124.861451540828
20
7.18540305259759
30
0
41
1
10
124.945611880264
20
7.54276288845668
30
0
41
1
10
125.113932559136
20
8.17973211910675
30
0
41
1
10
125.198092898572
20
8.45930858720709
30
0
41
1
10
125.366413577444
20
8.93388832730398
30
0
41
1
10
125.450573916881
20
9.12890885869226
30
0
41
1
10
125.618894595753
20
9.43481600464241
30
0
41
1
10
125.703054935189
20
9.54575745655001
30
0
41
1
10
125.871375614061
20
9.69006404299128
30
0
41
1
10
125.955535953497
20
9.7235
30
0
41
1
10
126.039696292933
20
9.7235
30
0
0
SPLINE
5
E8
100
AcDbEntity
8
1
62
256
6
ByLayer
370
13
48
1
60
0
100
AcDbSpline
70
4
71
3
72
78
73
74
40
0
40
0
40
0
40
0
40
0.03125
40
0.03125
40
0.0624999999999999
40
0.0624999999999999
40
0.0937499999999999
40
0.0937499999999999
40
0.125
40
0.125
40
0.15625
40
0.15625
40
0.1875
40
0.1875
40
0.21875
40
0.21875
40
0.25
40
0.25
40
0.28125
40
0.28125
40
0.3125
40
0.3125
40
0.34375
40
0.34375
40
0.375
40
0.375
40
0.40625
40
0.40625
40
0.4375
40
0.4375
40
0.4453125
40
0.4453125
40
0.453125
40
0.453125
40
0.46875
40
0.46875
40
0.5
40
0.5
40
0.53125
40
0.53125
40
0.5625
40
0.5625
40
0.59375
40
0.59375
40
0.625
40
0.625
40
0.65625
40
0.65625
40
0.6875
40
0.6875
40
0.71875
40
0.71875
40
0.75
40
0.75
40
0.78125
40
0.78125
40
0.8125
40
0.8125
40
0.84375
40
0.84375
40
0.875
40
0.875
40
0.890625
40
0.890625
40
0.8984375
40
0.8984375
40
0.90625
40
0.90625
40
0.9375
40
0.9375
40
0.96875
40
0.96875
40
1
40
1
40
1
40
1
41
1
10
126.440930222216
20
9.7235
30
0
41
1
10
126.498430276434
20
9.7235
30
0
41
1
10
126.555930330652
20
9.70792424739255
30
0
41
1
10
126.670930439087
20
9.64209822619162
30
0
41
1
10
126.728430493305
20
9.59183725739197
30
0
41
1
10
126.84343060174
20
9.45384586866291
30
0
41
1
10
126.900930655958
20
9.36610530503935
30
0
41
1
10
127.015930764393
20
9.15142582289184
30
0
41
1
10
127.073430818611
20
9.02447886157984
30
0
41
1
10
127.188430927046
20
8.73100270013069
30
0
41
1
10
127.245930981264
20
8.5644691023551
30
0
41
1
10
127.360931089699
20
8.19297325786448
30
0
41
1
10
127.418431143917
20
7.98801142965843
30
0
41
1
10
127.533431252352
20
7.54241388338627
30
0
41
1
10
127.59093130657
20
7.30178384319899
30
0
41
1
10
127.705931415005
20
6.78911523222615
30
0
41
1
10
127.763431469223
20
6.51708711184068
30
0
41
1
10
127.878431577658
20
5.94715354508568
30
0
41
1
10
127.935931631876
20
5.64926195158276
30
0
41
1
10
128.050931740311
20
5.03402784884889
30
0
41
1
10
128.108431794529
20
4.71670064280815
30
0
41
1
10
128.223431902964
20
4.06947162375124
30
0
41
1
10
128.280931957182
20
3.73958448706065
30
0
41
1
10
128.395932065617
20
3.07410413295767
30
0
41
1
10
128.453432119835
20
2.73852321804773
30
0
41
1
10
128.56843222827
20
2.06810504873459
30
0
41
1
10
128.625932282488
20
1.7332766168403
30
0
41
1
10
128.740932390923
20
1.07007386478392
30
0
41
1
10
128.798432445141
20
0.741704518699265
30
0
41
1
10
128.870307512913
20
0.338253809303438
30
0
41
1
10
128.884682526467
20
0.257911745867574
30
0
41
1
10
128.913432553576
20
0.0979880328353318
30
0
41
1
10
128.92780756713
20
0.018660149994588
30
0
41
1
10
128.970932607794
20
-0.220088321879757
30
0
41
1
10
128.999682634903
20
-0.380836705663768
30
0
41
1
10
129.085932716229
20
-0.867058467972242
30
0
41
1
10
129.143432770447
20
-1.19653936356525
30
0
41
1
10
129.258432878882
20
-1.86128623882755
30
0
41
1
10
129.3159329331
20
-2.19654675631318
30
0
41
1
10
129.430933041535
20
-2.86704163396007
30
0
41
1
10
129.488433095753
20
-3.20226669133007
30
0
41
1
10
129.603433204188
20
-3.86617410139419
30
0
41
1
10
129.660933258406
20
-4.19484377140122
30
0
41
1
10
129.775933366841
20
-4.83875086155265
30
0
41
1
10
129.833433421059
20
-5.15397341717232
30
0
41
1
10
129.948433529494
20
-5.76414232621272
30
0
41
1
10
130.005933583712
20
-6.05907344380896
30
0
41
1
10
130.120933692147
20
-6.62232015623354
30
0
41
1
10
130.178433746365
20
-6.89062223216769
30
0
41
1
10
130.2934338548
20
-7.39521569311955
30
0
41
1
10
130.350933909018
20
-7.63149717759083
30
0
41
1
10
130.465934017453
20
-8.0679567308546
30
0
41
1
10
130.523434071671
20
-8.26812978669949
30
0
41
1
10
130.638434180106
20
-8.62981007194435
30
0
41
1
10
130.695934234324
20
-8.79131754091182
30
0
41
1
10
130.810934342759
20
-9.07470666161595
30
0
41
1
10
130.868434396977
20
-9.19659325354246
30
0
41
1
10
130.983434505412
20
-9.4013024044983
30
0
41
1
10
131.04093455963
20
-9.48413336420114
30
0
41
1
10
131.155934668065
20
-9.61260937183624
30
0
41
1
10
131.213434722283
20
-9.65826471691364
30
0
41
1
10
131.299684803609
20
-9.70103912678482
30
0
41
1
10
131.328434830718
20
-9.71101953703914
30
0
41
1
10
131.371559871381
20
-9.71989742457075
30
0
41
1
10
131.385934884936
20
-9.72184157999365
30
0
41
1
10
131.414684912045
20
-9.72375694272355
30
0
41
1
10
131.429059925599
20
-9.72373571343121
30
0
41
1
10
131.500934993371
20
-9.71873018052213
30
0
41
1
10
131.558435047589
20
-9.69890828840036
30
0
41
1
10
131.673435156024
20
-9.62418447264818
30
0
41
1
10
131.730935210242
20
-9.56927184167316
30
0
41
1
10
131.845935318677
20
-9.42169044399586
30
0
41
1
10
131.903435372895
20
-9.3290117126422
30
0
41
1
10
131.960935427113
20
-9.21666927600936
30
0
0
SPLINE
5
E9
100
AcDbEntity
8
1
62
256
6
ByLayer
370
13
48
1
60
0
100
AcDbSpline
70
4
71
3
72
42
73
38
40
0
40
0
40
0
40
0
40
0.0625
40
0.0625
40
0.125
40
0.125
40
0.1875
40
0.1875
40
0.25
40
0.25
40
0.28125
40
0.28125
40
0.296875
40
0.296875
40
0.3125
40
0.3125
40
0.375
40
0.375
40
0.4375
40
0.4375
40
0.5
40
0.5
40
0.5625
40
0.5625
40
0.625
40
0.625
40
0.6875
40
0.6875
40
0.75
40
0.75
40
0.8125
40
0.8125
40
0.875
40
0.875
40
0.9375
40
0.9375
40
1
40
1
40
1
40
1
41
1
10
122
20
-5.95974933571199
30
0
41
1
10
122.073880409519
20
-5.58357706174866
30
0
41
1
10
122.147760819038
20
-5.18765223434465
30
0
41
1
10
122.295521638076
20
-4.3704083822843
30
0
41
1
10
122.369402047595
20
-3.94914225160403
30
0
41
1
10
122.517162866633
20
-3.09590635731283
30
0
41
1
10
122.591043276152
20
-2.66398075764639
30
0
41
1
10
122.738804095191
20
-1.80309899479514
30
0
41
1
10
122.812684504709
20
-1.37417144743014
30
0
41
1
10
122.923505118988
20
-0.741663898798151
30
0
41
1
10
122.960445323748
20
-0.532622760223774
30
0
41
1
10
123.015855630887
20
-0.222643048097268
30
0
41
1
10
123.034325733267
20
-0.119912110432011
30
0
41
1
10
123.071265938026
20
0.0842267670850845
30
0
41
1
10
123.089736040406
20
0.186668600759077
30
0
41
1
10
123.182086552305
20
0.702602935033468
30
0
41
1
10
123.255966961824
20
1.12511570628681
30
0
41
1
10
123.403727780862
20
1.97957319410165
30
0
41
1
10
123.477608190381
20
2.41149844468734
30
0
41
1
10
123.625369009419
20
3.27216194344783
30
0
41
1
10
123.699249418938
20
3.70086374610707
30
0
41
1
10
123.847010237976
20
4.54078722403185
30
0
41
1
10
123.920890647495
20
4.95195946502608
30
0
41
1
10
124.068651466533
20
5.74216568198887
30
0
41
1
10
124.142531876053
20
6.12114630516865
30
0
41
1
10
124.290292695091
20
6.83352748149082
30
0
41
1
10
124.36417310461
20
7.16688254724997
30
0
41
1
10
124.511933923648
20
7.77731627210363
30
0
41
1
10
124.585814333167
20
8.05436765037408
30
0
41
1
10
124.733575152205
20
8.54537123849101
30
0
41
1
10
124.807455561724
20
8.75931940006413
30
0
41
1
10
124.955216380762
20
9.12165045965304
30
0
41
1
10
125.029096790281
20
9.27005077550569
30
0
41
1
10
125.176857609319
20
9.5029631376031
30
0
41
1
10
125.250738018838
20
9.58750702993351
30
0
41
1
10
125.398498837876
20
9.69775682436685
30
0
41
1
10
125.472379247395
20
9.7235
30
0
41
1
10
125.546259656915
20
9.7235
30
0
0
SPLINE
5
EA
100
AcDbEntity
8
1
62
256
6
ByLayer
370
13
48
1
60
0
100
AcDbSpline
70
4
71
3
72
76
73
72
40
0
40
0
40
0
40
0
40
0.0312499999999996
40
0.0312499999999996
40
0.0624999999999991
40
0.0624999999999991
40
0.0937499999999987
40
0.0937499999999987
40
0.124999999999998
40
0.124999999999998
40
0.156249999999998
40
0.156249999999998
40
0.187499999999997
40
0.187499999999997
40
0.218749999999997
40
0.218749999999997
40
0.249999999999997
40
0.249999999999997
40
0.281249999999996
40
0.281249999999996
40
0.312499999999996
40
0.312499999999996
40
0.343749999999995
40
0.343749999999995
40
0.374999999999995
40
0.374999999999995
40
0.406249999999994
40
0.406249999999994
40
0.414062499999994
40
0.414062499999994
40
0.421874999999994
40
0.421874999999994
40
0.437499999999994
40
0.437499999999994
40
0.468749999999995
40
0.468749999999995
40
0.499999999999995
40
0.499999999999995
40
0.531249999999995
40
0.531249999999995
40
0.562499999999996
40
0.562499999999996
40
0.593749999999996
40
0.593749999999996
40
0.624999999999997
40
0.624999999999997
40
0.656249999999997
40
0.656249999999997
40
0.687499999999998
40
0.687499999999998
40
0.718749999999998
40
0.718749999999998
40
0.749999999999999
40
0.749999999999999
40
0.781249999999999
40
0.781249999999999
40
0.812499999999999
40
0.812499999999999
40
0.828125
40
0.828125
40
0.84375
40
0.84375
40
0.875
40
0.875
40
0.90625
40
0.90625
40
0.9375
40
0.9375
40
0.96875
40
0.96875
40
1
40
1
40
1
40
1
41
1
10
125.947493586197
20
9.7235
30
0
41
1
10
126.010133605373
20
9.7235
30
0
41
1
10
126.07277362455
20
9.70500931698149
30
0
41
1
10
126.198053662902
20
9.62652822271713
30
0
41
1
10
126.260693682078
20
9.56652140061391
30
0
41
1
10
126.385973720431
20
9.40155277553498
30
0
41
1
10
126.448613739607
20
9.29657582611418
30
0
41
1
10
126.573893777959
20
9.039788704785
30
0
41
1
10
126.636533797135
20
8.88796749359551
30
0
41
1
10
126.761813835488
20
8.53759469851289
30
0
41
1
10
126.824453854664
20
8.33903886425765
30
0
41
1
10
126.949733893017
20
7.89751999864012
30
0
41
1
10
127.012373912193
20
7.65456121451345
30
0
41
1
10
127.137653950545
20
7.12878530468618
30
0
41
1
10
127.200293969721
20
6.8459809903307
30
0
41
1
10
127.325574008074
20
6.2470311206437
30
0
41
1
10
127.38821402725
20
5.93090515809655
30
0
41
1
10
127.513494065603
20
5.27330262705604
30
0
41
1
10
127.576134084779
20
4.93184920598239
30
0
41
1
10
127.701414123131
20
4.23240123637044
30
0
41
1
10
127.764054142307
20
3.87442960385067
30
0
41
1
10
127.88933418066
20
3.15086779999467
30
0
41
1
10
127.951974199836
20
2.7852969749591
30
0
41
1
10
128.077254238188
20
2.05492639548169
30
0
41
1
10
128.139894257364
20
1.69014026950487
30
0
41
1
10
128.265174295717
20
0.96869405570024
30
0
41
1
10
128.327814314893
20
0.612041181263919
30
0
41
1
10
128.406114338863
20
0.175057802018728
30
0
41
1
10
128.421774343657
20
0.0880992499901652
30
0
41
1
10
128.453094353245
20
-0.0848621944422803
30
0
41
1
10
128.468754358039
20
-0.171797487036315
30
0
41
1
10
128.515734372422
20
-0.433954713442006
30
0
41
1
10
128.54705438201
20
-0.610483590438832
30
0
41
1
10
128.641014410774
20
-1.14428709133361
30
0
41
1
10
128.70365442995
20
-1.5058203596698
30
0
41
1
10
128.828934468303
20
-2.23353278437585
30
0
41
1
10
128.891574487479
20
-2.5997015400803
30
0
41
1
10
129.016854525831
20
-3.32877693157022
30
0
41
1
10
129.079494545007
20
-3.69166692010225
30
0
41
1
10
129.20477458336
20
-4.40546674506572
30
0
41
1
10
129.267414602536
20
-4.75635510652916
30
0
41
1
10
129.392694640888
20
-5.43720245652233
30
0
41
1
10
129.455334660065
20
-5.76713794672423
30
0
41
1
10
129.580614698417
20
-6.39758587697531
30
0
41
1
10
129.643254717593
20
-6.69807647323699
30
0
41
1
10
129.768534755946
20
-7.26229139705399
30
0
41
1
10
129.831174775122
20
-7.52599917164264
30
0
41
1
10
129.956454813474
20
-8.01104525647622
30
0
41
1
10
130.01909483265
20
-8.23237490097478
30
0
41
1
10
130.144374871003
20
-8.62918852529671
30
0
41
1
10
130.207014890179
20
-8.80467260250609
30
0
41
1
10
130.332294928531
20
-9.10857602041665
30
0
41
1
10
130.394934947708
20
-9.23700327809456
30
0
41
1
10
130.52021498606
20
-9.44770563950971
30
0
41
1
10
130.582855005236
20
-9.52999418690951
30
0
41
1
10
130.708135043588
20
-9.65113309962362
30
0
41
1
10
130.770775062765
20
-9.68999957624436
30
0
41
1
10
130.864735091529
20
-9.71876622085458
30
0
41
1
10
130.896055101117
20
-9.72344187449767
30
0
41
1
10
130.958695120293
20
-9.72355704777814
30
0
41
1
10
130.990015129881
20
-9.71900034525748
30
0
41
1
10
131.083975158646
20
-9.69060124749052
30
0
41
1
10
131.146615177822
20
-9.65199406269625
30
0
41
1
10
131.271895216174
20
-9.53139541795048
30
0
41
1
10
131.334535235351
20
-9.44938783894196
30
0
41
1
10
131.459815273703
20
-9.23925923975258
30
0
41
1
10
131.522455292879
20
-9.11112475024925
30
0
41
1
10
131.647735331232
20
-8.80780629135302
30
0
41
1
10
131.710375350408
20
-8.63261436237227
30
0
41
1
10
131.83565538876
20
-8.23637054320261
30
0
41
1
10
131.898295407936
20
-8.01531850217248
30
0
41
1
10
131.960935427113
20
-7.77305883989996
30
0
0
SPLINE
5
EB
100
AcDbEntity
8
1
62
256
6
ByLayer
370
13
48
1
60
0
100
AcDbSpline
70
4
71
3
72
42
73
38
40
0
40
0
40
0
40
0
40
0.0624999999999985
40
0.0624999999999985
40
0.124999999999997
40
0.124999999999997
40
0.156249999999997
40
0.156249999999997
40
0.171874999999996
40
0.171874999999996
40
0.187499999999996
40
0.187499999999996
40
0.249999999999997
40
0.249999999999997
40
0.312499999999997
40
0.312499999999997
40
0.374999999999997
40
0.374999999999997
40
0.437499999999997
40
0.437499999999997
40
0.499999999999998
40
0.499999999999998
40
0.562499999999998
40
0.562499999999998
40
0.624999999999998
40
0.624999999999998
40
0.687499999999999
40
0.687499999999999
40
0.749999999999999
40
0.749999999999999
40
0.812499999999999
40
0.812499999999999
40
0.874999999999999
40
0.874999999999999
40
0.9375
40
0.9375
40
1
40
1
40
1
40
1
41
1
10
122
20
-3.23216938894569
30
0
41
1
10
122.063600479602
20
-2.86313277978425
30
0
41
1
10
122.127200959204
20
-2.49134207316499
30
0
41
1
10
122.254401918408
20
-1.75075199362996
30
0
41
1
10
122.31800239801
20
-1.38196544596133
30
0
41
1
10
122.413403117413
20
-0.836524484093673
30
0
41
1
10
122.445203357214
20
-0.655990011292118
30
0
41
1
10
122.492903716915
20
-0.38768932254726
30
0
41
1
10
122.508803836816
20
-0.29867185211117
30
0
41
1
10
122.540604076617
20
-0.121557083509885
30
0
41
1
10
122.556504196517
20
-0.0337400705923301
30
0
41
1
10
122.63600479602
20
0.406268407110758
30
0
41
1
10
122.699605275622
20
0.766088412993213
30
0
41
1
10
122.826806234826
20
1.4953719295649
30
0
41
1
10
122.890406714428
20
1.86482889655241
30
0
41
1
10
123.017607673632
20
2.60593203630251
30
0
41
1
10
123.081208153234
20
2.97756466051436
30
0
41
1
10
123.208409112438
20
3.71439345141792
30
0
41
1
10
123.27200959204
20
4.07956957969463
30
0
41
1
10
123.399210551244
20
4.79419572192737
30
0
41
1
10
123.462811030846
20
5.14362135344166
30
0
41
1
10
123.59001199005
20
5.81746914787158
30
0
41
1
10
123.653612469652
20
6.14186615035135
30
0
41
1
10
123.780813428856
20
6.75714977491739
30
0
41
1
10
123.844413908458
20
7.04801466241258
30
0
41
1
10
123.971614867662
20
7.58921747806303
30
0
41
1
10
124.035215347264
20
7.83954080286551
30
0
41
1
10
124.162416306468
20
8.29469269041712
30
0
41
1
10
124.22601678607
20
8.49951593873064
30
0
41
1
10
124.353217745274
20
8.86105395332237
30
0
41
1
10
124.416818224876
20
9.01777277879529
30
0
41
1
10
124.54401918408
20
9.28285946152431
30
0
41
1
10
124.607619663682
20
9.39123894821881
30
0
41
1
10
124.734820622886
20
9.56153184982946
30
0
41
1
10
124.798421102488
20
9.6234615148048
30
0
41
1
10
124.925622061692
20
9.70443673758285
30
0
41
1
10
124.989222541294
20
9.7235
30
0
41
1
10
125.052823020896
20
9.7235
30
0
0
SPLINE
5
EC
100
AcDbEntity
8
1
62
256
6
ByLayer
370
13
48
1
60
0
100
AcDbSpline
70
4
71
3
72
76
73
72
40
0
40
0
40
0
40
0
40
0.0312500000000001
40
0.0312500000000001
40
0.0625000000000002
40
0.0625000000000002
40
0.0937500000000003
40
0.0937500000000003
40
0.125
40
0.125
40
0.156250000000001
40
0.156250000000001
40
0.187500000000001
40
0.187500000000001
40
0.218750000000001
40
0.218750000000001
40
0.250000000000001
40
0.250000000000001
40
0.281250000000001
40
0.281250000000001
40
0.312500000000001
40
0.312500000000001
40
0.343750000000001
40
0.343750000000001
40
0.375000000000001
40
0.375000000000001
40
0.382812500000001
40
0.382812500000001
40
0.390625000000002
40
0.390625000000002
40
0.406250000000002
40
0.406250000000002
40
0.437500000000002
40
0.437500000000002
40
0.468750000000002
40
0.468750000000002
40
0.500000000000002
40
0.500000000000002
40
0.531250000000003
40
0.531250000000003
40
0.562500000000003
40
0.562500000000003
40
0.593750000000003
40
0.593750000000003
40
0.625000000000003
40
0.625000000000003
40
0.656250000000003
40
0.656250000000003
40
0.687500000000004
40
0.687500000000004
40
0.718750000000004
40
0.718750000000004
40
0.750000000000004
40
0.750000000000004
40
0.765625000000004
40
0.765625000000004
40
0.781250000000004
40
0.781250000000004
40
0.812500000000003
40
0.812500000000003
40
0.843750000000003
40
0.843750000000003
40
0.875000000000002
40
0.875000000000002
40
0.906250000000002
40
0.906250000000002
40
0.937500000000001
40
0.937500000000001
40
0.968750000000001
40
0.968750000000001
40
1
40
1
40
1
40
1
41
1
10
125.454056950179
20
9.7235
30
0
41
1
10
125.521836934313
20
9.7235
30
0
41
1
10
125.589616918448
20
9.70184269320316
30
0
41
1
10
125.725176886718
20
9.60953642746765
30
0
41
1
10
125.792956870852
20
9.5388631627014
30
0
41
1
10
125.928516839122
20
9.34435685756023
30
0
41
1
10
125.996296823256
20
9.22050208784839
30
0
41
1
10
126.131856791526
20
8.91772705463799
30
0
41
1
10
126.199636775661
20
8.73879259212185
30
0
41
1
10
126.33519674393
20
8.32677324715416
30
0
41
1
10
126.402976728065
20
8.09368603652007
30
0
41
1
10
126.538536696334
20
7.57736041710976
30
0
41
1
10
126.606316680469
20
7.29413365894007
30
0
41
1
10
126.741876648738
20
6.68447776777214
30
0
41
1
10
126.809656632873
20
6.35807304738287
30
0
41
1
10
126.945216601143
20
5.67141052531218
30
0
41
1
10
127.012996585277
20
5.31118544350747
30
0
41
1
10
127.148556553547
20
4.56775498416431
30
0
41
1
10
127.216336537681
20
4.18458429396426
30
0
41
1
10
127.351896505951
20
3.4066222599856
30
0
41
1
10
127.419676490086
20
3.01186136022008
30
0
41
1
10
127.555236458355
20
2.2215653554357
30
0
41
1
10
127.62301644249
20
1.82605211491969
30
0
41
1
10
127.758576410759
20
1.04378551406572
30
0
41
1
10
127.826356394894
20
0.657043775599988
30
0
41
1
10
127.911081375063
20
0.183913703445654
30
0
41
1
10
127.928026371096
20
0.0898271086674072
30
0
41
1
10
127.961916363164
20
-0.0973438353196343
30
0
41
1
10
127.978861359197
20
-0.191488450073138
30
0
41
1
10
128.029696347298
20
-0.475448270040658
30
0
41
1
10
128.063586339366
20
-0.66679333936861
30
0
41
1
10
128.165256315568
20
-1.2455911713769
30
0
41
1
10
128.233036299702
20
-1.63786268680528
30
0
41
1
10
128.368596267972
20
-2.42657131853264
30
0
41
1
10
128.436376252107
20
-2.82299158233556
30
0
41
1
10
128.571936220376
20
-3.60973530670015
30
0
41
1
10
128.639716204511
20
-4.00003217443972
30
0
41
1
10
128.77527617278
20
-4.76332039734763
30
0
41
1
10
128.843056156915
20
-5.13627846699958
30
0
41
1
10
128.978616125184
20
-5.8536468406275
30
0
41
1
10
129.046396109319
20
-6.19802262129167
30
0
41
1
10
129.181956077589
20
-6.84799087316855
30
0
41
1
10
129.249736061723
20
-7.15355411594228
30
0
41
1
10
129.385296029993
20
-7.71765026815325
30
0
41
1
10
129.453076014128
20
-7.9761648596714
30
0
41
1
10
129.588635982397
20
-8.44063835735872
30
0
41
1
10
129.656415966532
20
-8.64659276653262
30
0
41
1
10
129.791975934801
20
-9.00349257274723
30
0
41
1
10
129.859755918936
20
-9.15444675219936
30
0
41
1
10
129.995315887205
20
-9.40189518875067
30
0
41
1
10
130.06309587134
20
-9.49840807991899
30
0
41
1
10
130.19865583961
20
-9.64009874969645
30
0
41
1
10
130.266435823744
20
-9.68530015909855
30
0
41
1
10
130.368105799946
20
-9.71838628145406
30
0
41
1
10
130.401995792014
20
-9.72364182089092
30
0
41
1
10
130.469775776149
20
-9.72335236739286
30
0
41
1
10
130.503665768216
20
-9.71779724705459
30
0
41
1
10
130.605335744418
20
-9.68378330500133
30
0
41
1
10
130.673115728553
20
-9.63792481848745
30
0
41
1
10
130.808675696822
20
-9.49486378915117
30
0
41
1
10
130.876455680957
20
-9.39763764954608
30
0
41
1
10
131.012015649226
20
-9.14873688204935
30
0
41
1
10
131.079795633361
20
-8.99704372122628
30
0
41
1
10
131.215355601631
20
-8.6386780491608
30
0
41
1
10
131.283135585765
20
-8.43199691570834
30
0
41
1
10
131.418695554035
20
-7.96612358338569
30
0
41
1
10
131.486475538169
20
-7.7069360705878
30
0
41
1
10
131.622035506439
20
-7.14158741603597
30
0
41
1
10
131.689815490574
20
-6.83544476494686
30
0
41
1
10
131.825375458843
20
-6.18444336155414
30
0
41
1
10
131.893155442978
20
-5.83961395000046
30
0
41
1
10
131.960935427113
20
-5.48054920826431
30
0
0
SPLINE
5
ED
100
AcDbEntity
8
1
62
256
6
ByLayer
370
13
48
1
60
0
100
AcDbSpline
70
4
71
3
72
42
73
38
40
0
40
0
40
0
40
0
40
0.0156250000000005
40
0.0156250000000005
40
0.031250000000001
40
0.031250000000001
40
0.0625000000000011
40
0.0625000000000011
40
0.125000000000001
40
0.125000000000001
40
0.187500000000001
40
0.187500000000001
40
0.250000000000001
40
0.250000000000001
40
0.312500000000001
40
0.312500000000001
40
0.375000000000001
40
0.375000000000001
40
0.437500000000001
40
0.437500000000001
40
0.500000000000001
40
0.500000000000001
40
0.562500000000001
40
0.562500000000001
40
0.625000000000001
40
0.625000000000001
40
0.687500000000001
40
0.687500000000001
40
0.75
40
0.75
40
0.8125
40
0.8125
40
0.875
40
0.875
40
0.9375
40
0.9375
40
1
40
1
40
1
40
1
41
1
10
122
20
-0.38484171772447
30
0
41
1
10
122.013330137421
20
-0.310108261776151
30
0
41
1
10
122.026660274842
20
-0.23567810199242
30
0
41
1
10
122.053320549685
20
-0.0874752731199351
30
0
41
1
10
122.066650687106
20
-0.0139252739176356
30
0
41
1
10
122.10664109937
20
0.207459600783096
30
0
41
1
10
122.133301374212
20
0.356410656292155
30
0
41
1
10
122.21328219874
20
0.806734970802125
30
0
41
1
10
122.266602748425
20
1.1116024238103
30
0
41
1
10
122.373243847795
20
1.72680596466782
30
0
41
1
10
122.426564397479
20
2.03713859712414
30
0
41
1
10
122.533205496849
20
2.65873833797073
30
0
41
1
10
122.586526046534
20
2.96999953860842
30
0
41
1
10
122.693167145904
20
3.58836440495855
30
0
41
1
10
122.746487695589
20
3.89545990339928
30
0
41
1
10
122.853128794959
20
4.50005577022358
30
0
41
1
10
122.906449344644
20
4.7975463096692
30
0
41
1
10
123.013090444014
20
5.37742175930029
30
0
41
1
10
123.066410993699
20
5.65979614707496
30
0
41
1
10
123.173052093069
20
6.20416525538914
30
0
41
1
10
123.226372642753
20
6.46614996074283
30
0
41
1
10
123.333013742123
20
6.96501501001052
30
0
41
1
10
123.386334291808
20
7.20188706034455
30
0
41
1
10
123.492975391178
20
7.64663071428393
30
0
41
1
10
123.546295940863
20
7.85449673048217
30
0
41
1
10
123.652937040233
20
8.23837256643628
30
0
41
1
10
123.706257589918
20
8.4143800632593
30
0
41
1
10
123.812898689288
20
8.73284380580156
30
0
41
1
10
123.866219238973
20
8.87530103411081
30
0
41
1
10
123.972860338343
20
9.12614964729812
30
0
41
1
10
124.026180888027
20
9.23454487975809
30
0
41
1
10
124.132821987397
20
9.41786079436423
30
0
41
1
10
124.186142537082
20
9.49278740690011
30
0
41
1
10
124.292783636452
20
9.61071330132648
30
0
41
1
10
124.346104186137
20
9.65371966414054
30
0
41
1
10
124.452745285507
20
9.71010934667243
30
0
41
1
10
124.506065835192
20
9.7235
30
0
41
1
10
124.559386384877
20
9.7235
30
0
0
SPLINE
5
EE
100
AcDbEntity
8
1
62
256
6
ByLayer
370
13
48
1
60
0
100
AcDbSpline
70
4
71
3
72
78
73
74
40
0
40
0
40
0
40
0
40
0.0312499999999987
40
0.0312499999999987
40
0.0624999999999973
40
0.0624999999999973
40
0.093749999999996
40
0.093749999999996
40
0.124999999999995
40
0.124999999999995
40
0.156249999999993
40
0.156249999999993
40
0.187499999999992
40
0.187499999999992
40
0.218749999999991
40
0.218749999999991
40
0.249999999999989
40
0.249999999999989
40
0.281249999999988
40
0.281249999999988
40
0.312499999999986
40
0.312499999999986
40
0.343749999999985
40
0.343749999999985
40
0.351562499999985
40
0.351562499999985
40
0.359374999999985
40
0.359374999999985
40
0.374999999999985
40
0.374999999999985
40
0.406249999999985
40
0.406249999999985
40
0.437499999999985
40
0.437499999999985
40
0.468749999999985
40
0.468749999999985
40
0.499999999999985
40
0.499999999999985
40
0.531249999999985
40
0.531249999999985
40
0.562499999999985
40
0.562499999999985
40
0.593749999999985
40
0.593749999999985
40
0.624999999999985
40
0.624999999999985
40
0.656249999999985
40
0.656249999999985
40
0.687499999999986
40
0.687499999999986
40
0.703124999999986
40
0.703124999999986
40
0.710937499999986
40
0.710937499999986
40
0.718749999999986
40
0.718749999999986
40
0.749999999999988
40
0.749999999999988
40
0.781249999999989
40
0.781249999999989
40
0.812499999999991
40
0.812499999999991
40
0.843749999999992
40
0.843749999999992
40
0.874999999999994
40
0.874999999999994
40
0.906249999999995
40
0.906249999999995
40
0.937499999999997
40
0.937499999999997
40
0.968749999999998
40
0.968749999999998
40
1
40
1
40
1
40
1
41
1
10
124.96062031416
20
9.7235
30
0
41
1
10
125.033540263253
20
9.7235
30
0
41
1
10
125.106460212346
20
9.69842373362027
30
0
41
1
10
125.252300110533
20
9.59111022795955
30
0
41
1
10
125.325220059626
20
9.50883805357026
30
0
41
1
10
125.471059957813
20
9.28221442925133
30
0
41
1
10
125.543979906906
20
9.13783289987876
30
0
41
1
10
125.689819805092
20
8.78523279107748
30
0
41
1
10
125.762739754186
20
8.57699721491272
30
0
41
1
10
125.908579652372
20
8.09882978334173
30
0
41
1
10
125.981499601465
20
7.82890057782387
30
0
41
1
10
126.127339499652
20
7.23362264575783
30
0
41
1
10
126.200259448745
20
6.90829813849939
30
0
41
1
10
126.346099346932
20
6.21224105955918
30
0
41
1
10
126.419019296025
20
5.84155007894267
30
0
41
1
10
126.564859194211
20
5.06749685611567
30
0
41
1
10
126.637779143305
20
4.66418439811343
30
0
41
1
10
126.783619041491
20
3.83894066137378
30
0
41
1
10
126.856538990584
20
3.41705654448216
30
0
41
1
10
127.002378888771
20
2.5685417386897
30
0
41
1
10
127.075298837864
20
2.14194690798251
30
0
41
1
10
127.221138736051
20
1.29642718443537
30
0
41
1
10
127.294058685144
20
0.877522626342255
30
0
41
1
10
127.385208621511
20
0.365001925654639
30
0
41
1
10
127.403438608784
20
0.263047001081105
30
0
41
1
10
127.439898583331
20
0.0603671894950537
30
0
41
1
10
127.458128570604
20
-0.0399949785096396
30
0
41
1
10
127.512818532424
20
-0.343765634750668
30
0
41
1
10
127.54927850697
20
-0.548761690493876
30
0
41
1
10
127.65865843061
20
-1.16956291619772
30
0
41
1
10
127.731578379704
20
-1.59125712940678
30
0
41
1
10
127.87741827789
20
-2.43965141352666
30
0
41
1
10
127.950338226983
20
-2.86632741098759
30
0
41
1
10
128.09617812517
20
-3.7118654349006
30
0
41
1
10
128.169098074263
20
-4.13068840832767
30
0
41
1
10
128.31493797245
20
-4.94649898429071
30
0
41
1
10
128.387857921543
20
-5.34343790593314
30
0
41
1
10
128.533697819729
20
-6.10159904633468
30
0
41
1
10
128.606617768823
20
-6.46277241916647
30
0
41
1
10
128.752457667009
20
-7.13716388222321
30
0
41
1
10
128.825377616102
20
-7.45034375164656
30
0
41
1
10
128.971217514289
20
-8.0194997116925
30
0
41
1
10
129.044137463382
20
-8.27545646391411
30
0
41
1
10
129.189977361569
20
-8.72479900255959
30
0
41
1
10
129.262897310662
20
-8.91818710304727
30
0
41
1
10
129.408737208848
20
-9.24116660460513
30
0
41
1
10
129.481657157942
20
-9.37077875331622
30
0
41
1
10
129.627497056128
20
-9.56875858311341
30
0
41
1
10
129.700417005222
20
-9.63715820786618
30
0
41
1
10
129.809796928861
20
-9.69795632151195
30
0
41
1
10
129.846256903408
20
-9.71127537287671
30
0
41
1
10
129.900946865228
20
-9.72148975302957
30
0
41
1
10
129.919176852501
20
-9.72326801154748
30
0
41
1
10
129.955636827048
20
-9.72368945564924
30
0
41
1
10
129.973866814321
20
-9.72233971227897
30
0
41
1
10
130.065016750688
20
-9.70749986712832
30
0
41
1
10
130.137936699781
20
-9.66965755708239
30
0
41
1
10
130.283776597968
20
-9.53543344474718
30
0
41
1
10
130.356696547061
20
-9.43901712817089
30
0
41
1
10
130.502536445247
20
-9.18337950323843
30
0
41
1
10
130.575456394341
20
-9.02413043962838
30
0
41
1
10
130.721296292527
20
-8.64192757805557
30
0
41
1
10
130.79421624162
20
-8.41896090495786
30
0
41
1
10
130.940056139807
20
-7.91242904730836
30
0
41
1
10
131.0129760889
20
-7.62887158821542
30
0
41
1
10
131.158815987087
20
-7.00836584986652
30
0
41
1
10
131.23173593618
20
-6.67144643743598
30
0
41
1
10
131.377575834367
20
-5.95497316313208
30
0
41
1
10
131.45049578346
20
-5.57546374808334
30
0
41
1
10
131.596335681646
20
-4.78698868274608
30
0
41
1
10
131.66925563074
20
-4.37807314957388
30
0
41
1
10
131.815095528926
20
-3.5449263679208
30
0
41
1
10
131.888015478019
20
-3.12074027983849
30
0
41
1
10
131.960935427113
20
-2.69571313920218
30
0
0
SPLINE
5
EF
100
AcDbEntity
8
1
62
256
6
ByLayer
370
13
48
1
60
0
100
AcDbSpline
70
4
71
3
72
22
73
18
40
0
40
0
40
0
40
0
40
0.125
40
0.125
40
0.25
40
0.25
40
0.375
40
0.375
40
0.5
40
0.5
40
0.625
40
0.625
40
0.75
40
0.75
40
0.875
40
0.875
40
1
40
1
40
1
40
1
41
1
10
122
20
2.42693786592653
30
0
41
1
10
122.086081239536
20
2.92878899932208
30
0
41
1
10
122.172162479072
20
3.43136939687841
30
0
41
1
10
122.344324958143
20
4.41596905028868
30
0
41
1
10
122.430406197679
20
4.89788578065071
30
0
41
1
10
122.60256867675
20
5.81790397723032
30
0
41
1
10
122.688649916286
20
6.2558913597301
30
0
41
1
10
122.860812395357
20
7.06705398545989
30
0
41
1
10
122.946893634893
20
7.44013736686537
30
0
41
1
10
123.119056113965
20
8.10597453435958
30
0
41
1
10
123.2051373535
20
8.39868629446761
30
0
41
1
10
123.377299832572
20
8.89584314826377
30
0
41
1
10
123.463381072108
20
9.10030394902458
30
0
41
1
10
123.635543551179
20
9.42100541239938
30
0
41
1
10
123.721624790715
20
9.53730598473385
30
0
41
1
10
123.893787269786
20
9.68851372968308
30
0
41
1
10
123.979868509322
20
9.7235
30
0
41
1
10
124.065949748858
20
9.7235
30
0
0
SPLINE
5
F0
100
AcDbEntity
8
1
62
256
6
ByLayer
370
13
48
1
60
0
100
AcDbSpline
70
4
71
3
72
82
73
78
40
0
40
0
40
0
40
0
40
0.0312499999999984
40
0.0312499999999984
40
0.0624999999999968
40
0.0624999999999968
40
0.0937499999999953
40
0.0937499999999953
40
0.124999999999994
40
0.124999999999994
40
0.156249999999992
40
0.156249999999992
40
0.187499999999991
40
0.187499999999991
40
0.218749999999989
40
0.218749999999989
40
0.249999999999987
40
0.249999999999987
40
0.281249999999986
40
0.281249999999986
40
0.312499999999984
40
0.312499999999984
40
0.328124999999984
40
0.328124999999984
40
0.335937499999984
40
0.335937499999984
40
0.343749999999983
40
0.343749999999983
40
0.374999999999984
40
0.374999999999984
40
0.406249999999984
40
0.406249999999984
40
0.437499999999984
40
0.437499999999984
40
0.468749999999984
40
0.468749999999984
40
0.499999999999984
40
0.499999999999984
40
0.531249999999984
40
0.531249999999984
40
0.562499999999984
40
0.562499999999984
40
0.593749999999984
40
0.593749999999984
40
0.624999999999984
40
0.624999999999984
40
0.656249999999985
40
0.656249999999985
40
0.664062499999985
40
0.664062499999985
40
0.671874999999985
40
0.671874999999985
40
0.687499999999986
40
0.687499999999986
40
0.718749999999987
40
0.718749999999987
40
0.749999999999988
40
0.749999999999988
40
0.78124999999999
40
0.78124999999999
40
0.812499999999991
40
0.812499999999991
40
0.843749999999993
40
0.843749999999993
40
0.874999999999994
40
0.874999999999994
40
0.906249999999996
40
0.906249999999996
40
0.937499999999997
40
0.937499999999997
40
0.968749999999998
40
0.968749999999998
40
0.984374999999999
40
0.984374999999999
40
0.9921875
40
0.9921875
40
1
40
1
40
1
40
1
41
1
10
124.467183678141
20
9.7235
30
0
41
1
10
124.545243592193
20
9.7235
30
0
41
1
10
124.623303506244
20
9.6947517199618
30
0
41
1
10
124.779423334348
20
9.57123739668435
30
0
41
1
10
124.8574832484
20
9.47642243432725
30
0
41
1
10
125.013603076503
20
9.21508815010631
30
0
41
1
10
125.091662990555
20
9.04852852479027
30
0
41
1
10
125.247782818659
20
8.64233175253889
30
0
41
1
10
125.325842732711
20
8.40267600588885
30
0
41
1
10
125.481962560814
20
7.85416066652618
30
0
41
1
10
125.560022474866
20
7.54531343942375
30
0
41
1
10
125.71614230297
20
6.8676583707402
30
0
41
1
10
125.794202217021
20
6.49889422570317
30
0
41
1
10
125.950322045125
20
5.71516822880682
30
0
41
1
10
126.028381959177
20
5.30027144622906
30
0
41
1
10
126.18450178728
20
4.44088360510054
30
0
41
1
10
126.262561701332
20
3.99646243371944
30
0
41
1
10
126.418681529436
20
3.09537802929589
30
0
41
1
10
126.496741443487
20
2.63877320846083
30
0
41
1
10
126.652861271591
20
1.7294384080576
30
0
41
1
10
126.730921185643
20
1.27674523264014
30
0
41
1
10
126.84801105672
20
0.610677725818107
30
0
41
1
10
126.887041013746
20
0.390792871649467
30
0
41
1
10
126.945585949285
20
0.0651878227049281
30
0
41
1
10
126.965100927798
20
-0.0422275025815111
30
0
41
1
10
127.004130884824
20
-0.259097963581524
30
0
41
1
10
127.023645863337
20
-0.36824067077751
30
0
41
1
10
127.121220755902
20
-0.917088016327057
30
0
41
1
10
127.199280669953
20
-1.36632537698253
30
0
41
1
10
127.355400498057
20
-2.27263720159399
30
0
41
1
10
127.433460412109
20
-2.72968129750939
30
0
41
1
10
127.589580240212
20
-3.63614213576912
30
0
41
1
10
127.667640154264
20
-4.08550559647756
30
0
41
1
10
127.823759982368
20
-4.95943495288108
30
0
41
1
10
127.90181989642
20
-5.38393261125879
30
0
41
1
10
128.057939724523
20
-6.19111642834937
30
0
41
1
10
128.135999638575
20
-6.57373448512323
30
0
41
1
10
128.292119466679
20
-7.28241028608852
30
0
41
1
10
128.37017938073
20
-7.6084172567563
30
0
41
1
10
128.526299208834
20
-8.19323559560701
30
0
41
1
10
128.604359122886
20
-8.45202580210312
30
0
41
1
10
128.760478950989
20
-8.8970076370922
30
0
41
1
10
128.838538865041
20
-9.08321018784312
30
0
41
1
10
128.994658693145
20
-9.38299896284747
30
0
41
1
10
129.072718607196
20
-9.49662091067782
30
0
41
1
10
129.2288384353
20
-9.65588042838107
30
0
41
1
10
129.306898349352
20
-9.7015658877323
30
0
41
1
10
129.404473241916
20
-9.7211675904328
30
0
41
1
10
129.423988220429
20
-9.72321875835382
30
0
41
1
10
129.463018177455
20
-9.72372722675732
30
0
41
1
10
129.482533155968
20
-9.72219359003876
30
0
41
1
10
129.541078091507
20
-9.71201735143106
30
0
41
1
10
129.580108048533
20
-9.69779228515665
30
0
41
1
10
129.697197919611
20
-9.63118422715269
30
0
41
1
10
129.775257833662
20
-9.55476131033225
30
0
41
1
10
129.931377661766
20
-9.33136331269898
30
0
41
1
10
130.009437575818
20
-9.18434431802967
30
0
41
1
10
130.165557403921
20
-8.81710870645873
30
0
41
1
10
130.243617317973
20
-8.5968665071305
30
0
41
1
10
130.399737146077
20
-8.08560281442908
30
0
41
1
10
130.477797060128
20
-7.7945849260567
30
0
41
1
10
130.633916888232
20
-7.14961852277213
30
0
41
1
10
130.711976802284
20
-6.79570589137469
30
0
41
1
10
130.868096630387
20
-6.03763886807076
30
0
41
1
10
130.946156544439
20
-5.6335452848302
30
0
41
1
10
131.102276372543
20
-4.79115658851623
30
0
41
1
10
131.180336286595
20
-4.35293180969086
30
0
41
1
10
131.336456114698
20
-3.45964041993196
30
0
41
1
10
131.41451602875
20
-3.00463661452619
30
0
41
1
10
131.570635856854
20
-2.09440502754228
30
0
41
1
10
131.648695770905
20
-1.63922035800644
30
0
41
1
10
131.765785641983
20
-0.966960548260744
30
0
41
1
10
131.804815599009
20
-0.744604311970704
30
0
41
1
10
131.863360534548
20
-0.414768575831033
30
0
41
1
10
131.882875513061
20
-0.305438094588908
30
0
41
1
10
131.921905470087
20
-0.0881700514390502
30
0
41
1
10
131.9414204486
20
0.0192892515158576
30
0
41
1
10
131.960935427113
20
0.127623920591844
30
0
0
SPLINE
5
F1
100
AcDbEntity
8
1
62
256
6
ByLayer
370
13
48
1
60
0
100
AcDbSpline
70
4
71
3
72
22
73
18
40
0
40
0
40
0
40
0
40
0.125
40
0.125
40
0.25
40
0.25
40
0.375
40
0.375
40
0.5
40
0.5
40
0.625
40
0.625
40
0.75
40
0.75
40
0.875
40
0.875
40
1
40
1
40
1
40
1
41
1
10
122
20
5.23419907782548
30
0
41
1
10
122.065521379702
20
5.58724196621023
30
0
41
1
10
122.131042759403
20
5.92815429317164
30
0
41
1
10
122.262085518807
20
6.57620976770315
30
0
41
1
10
122.327606898508
20
6.88332646856023
30
0
41
1
10
122.458649657911
20
7.45574142443763
30
0
41
1
10
122.524171037613
20
7.72102099166673
30
0
41
1
10
122.655213797017
20
8.20392467382064
30
0
41
1
10
122.720735176718
20
8.42154092833161
30
0
41
1
10
122.851777936121
20
8.80590117683766
30
0
41
1
10
122.917299315823
20
8.97264863526311
30
0
41
1
10
123.048342075226
20
9.25473998694622
30
0
41
1
10
123.113863454928
20
9.37009669800366
30
0
41
1
10
123.244906214331
20
9.55130683889178
30
0
41
1
10
123.310427594033
20
9.61717889737827
30
0
41
1
10
123.441470353436
20
9.7032652109373
30
0
41
1
10
123.506991733138
20
9.7235
30
0
41
1
10
123.572513112839
20
9.7235
30
0
0
SPLINE
5
F2
100
AcDbEntity
8
1
62
256
6
ByLayer
370
13
48
1
60
0
100
AcDbSpline
70
4
71
3
72
85
73
81
40
0
40
0
40
0
40
0
40
0.0312500000000005
40
0.0312500000000005
40
0.0625000000000009
40
0.0625000000000009
40
0.0937500000000014
40
0.0937500000000014
40
0.125000000000002
40
0.125000000000002
40
0.156250000000002
40
0.156250000000002
40
0.187500000000003
40
0.187500000000003
40
0.218750000000003
40
0.218750000000003
40
0.250000000000004
40
0.250000000000004
40
0.281250000000004
40
0.281250000000004
40
0.296875000000005
40
0.296875000000005
40
0.304687500000005
40
0.308593750000005
40
0.308593750000005
40
0.312500000000005
40
0.312500000000005
40
0.343750000000006
40
0.343750000000006
40
0.375000000000007
40
0.375000000000007
40
0.406250000000008
40
0.406250000000008
40
0.43750000000001
40
0.43750000000001
40
0.468750000000011
40
0.468750000000011
40
0.500000000000012
40
0.500000000000012
40
0.531250000000013
40
0.531250000000013
40
0.562500000000014
40
0.562500000000014
40
0.593750000000015
40
0.593750000000015
40
0.609375000000015
40
0.609375000000015
40
0.617187500000016
40
0.621093750000016
40
0.621093750000016
40
0.625000000000016
40
0.625000000000016
40
0.656250000000015
40
0.656250000000015
40
0.687500000000014
40
0.687500000000014
40
0.718750000000013
40
0.718750000000013
40
0.750000000000013
40
0.750000000000013
40
0.781250000000012
40
0.781250000000012
40
0.812500000000011
40
0.812500000000011
40
0.84375000000001
40
0.84375000000001
40
0.875000000000009
40
0.875000000000009
40
0.906250000000008
40
0.906250000000008
40
0.921875000000008
40
0.921875000000008
40
0.929687500000007
40
0.933593750000007
40
0.933593750000007
40
0.937500000000007
40
0.937500000000007
40
0.968750000000003
40
0.968750000000003
40
1
40
1
40
1
40
1
41
1
10
123.973747042122
20
9.7235
30
0
41
1
10
124.056946921132
20
9.7235
30
0
41
1
10
124.140146800143
20
9.69082585446759
30
0
41
1
10
124.306546558163
20
9.54990610581979
30
0
41
1
10
124.389746437174
20
9.44159355677186
30
0
41
1
10
124.556146195194
20
9.14294729644524
30
0
41
1
10
124.639346074204
20
8.95256119973675
30
0
41
1
10
124.805745832225
20
8.48908462353256
30
0
41
1
10
124.888945711236
20
8.21597634372614
30
0
41
1
10
125.055345469256
20
7.59326617735132
30
0
41
1
10
125.138545348267
20
7.24369318358345
30
0
41
1
10
125.304945106287
20
6.48102603350438
30
0
41
1
10
125.388144985297
20
6.06800366815165
30
0
41
1
10
125.554544743318
20
5.19662948669935
30
0
41
1
10
125.637744622328
20
4.73837255844728
30
0
41
1
10
125.804144380349
20
3.79735102628516
30
0
41
1
10
125.887344259359
20
3.31467756106599
30
0
41
1
10
126.05374401738
20
2.34537982504457
30
0
41
1
10
126.13694389639
20
1.85882121025904
30
0
41
1
10
126.261743714906
20
1.13941936609015
30
0
41
1
10
126.303343654411
20
0.901330944936319
30
0
41
1
10
126.365743563669
20
0.548149823078006
30
0
41
1
10
126.396943518298
20
0.372543958340742
30
0
41
1
10
126.428143472926
20
0.198644972743949
30
0
41
1
10
126.448943442679
20
0.083115070906274
30
0
41
1
10
126.459343427555
20
0.0256641477722042
30
0
41
1
10
126.552943291442
20
-0.491892758962905
30
0
41
1
10
126.636143170452
20
-0.965485514676999
30
0
41
1
10
126.802542928473
20
-1.92591071695728
30
0
41
1
10
126.885742807483
20
-2.412710459023
30
0
41
1
10
127.052142565504
20
-3.38158799656023
30
0
41
1
10
127.135342444514
20
-3.86359865183883
30
0
41
1
10
127.301742202535
20
-4.8023189104286
30
0
41
1
10
127.384942081545
20
-5.25893664404609
30
0
41
1
10
127.551341839566
20
-6.12611124853728
30
0
41
1
10
127.634541718576
20
-6.53657371371642
30
0
41
1
10
127.800941476597
20
-7.29338714232287
30
0
41
1
10
127.884141355607
20
-7.63966796023337
30
0
41
1
10
128.050541113628
20
-8.25534722114395
30
0
41
1
10
128.133740992638
20
-8.52471898184325
30
0
41
1
10
128.300140750659
20
-8.98060286827237
30
0
41
1
10
128.383340629669
20
-9.16713475652122
30
0
41
1
10
128.54974038769
20
-9.45825368300368
30
0
41
1
10
128.6329402667
20
-9.56289424013633
30
0
41
1
10
128.757740085215
20
-9.66338158291603
30
0
41
1
10
128.79934002472
20
-9.68750432236965
30
0
41
1
10
128.861739933978
20
-9.71053156993196
30
0
41
1
10
128.892939888607
20
-9.7187584765397
30
0
41
1
10
128.924139843236
20
-9.72224411372119
30
0
41
1
10
128.944939812989
20
-9.72353634263825
30
0
41
1
10
128.955339797865
20
-9.72366856936219
30
0
41
1
10
129.048939661751
20
-9.72027194519916
30
0
41
1
10
129.132139540762
20
-9.68431091071085
30
0
41
1
10
129.298539298782
20
-9.53641798936863
30
0
41
1
10
129.381739177793
20
-9.42441938180613
30
0
41
1
10
129.548138935813
20
-9.11823008157785
30
0
41
1
10
129.631338814824
20
-8.92398818148149
30
0
41
1
10
129.797738572844
20
-8.4529306566406
30
0
41
1
10
129.880938451855
20
-8.17609922120232
30
0
41
1
10
130.047338209875
20
-7.54639955583718
30
0
41
1
10
130.130538088885
20
-7.19356242117615
30
0
41
1
10
130.296937846906
20
-6.42510894269898
30
0
41
1
10
130.380137725917
20
-6.00956599131371
30
0
41
1
10
130.546537483937
20
-5.13407652346621
30
0
41
1
10
130.629737362948
20
-4.67422531739678
30
0
41
1
10
130.796137120968
20
-3.73099168963458
30
0
41
1
10
130.879336999978
20
-3.2476996278755
30
0
41
1
10
131.045736757999
20
-2.27806420280169
30
0
41
1
10
131.128936637009
20
-1.79178499211369
30
0
41
1
10
131.253736455525
20
-1.0733508180291
30
0
41
1
10
131.29533639503
20
-0.835675825180346
30
0
41
1
10
131.357736304288
20
-0.48323222074427
30
0
41
1
10
131.388936258917
20
-0.308024435026709
30
0
41
1
10
131.420136213546
20
-0.134563814065927
30
0
41
1
10
131.440936183298
20
-0.0193346923595641
30
0
41
1
10
131.451336168174
20
0.0379952921840641
30
0
41
1
10
131.544936032061
20
0.556925653367216
30
0
41
1
10
131.628135911071
20
1.03146875556334
30
0
41
1
10
131.794535669092
20
1.9930484020262
30
0
41
1
10
131.877735548102
20
2.48005063360691
30
0
41
1
10
131.960935427113
20
2.96423778661742
30
0
0
SPLINE
5
F3
100
AcDbEntity
8
1
62
256
6
ByLayer
370
13
48
1
60
0
100
AcDbSpline
70
4
71
3
72
14
73
10
40
0
40
0
40
0
40
0
40
0.25
40
0.25
40
0.5
40
0.5
40
0.75
40
0.75
40
1
40
1
40
1
40
1
41
1
10
122
20
7.59098029535957
30
0
41
1
10
122.089923039735
20
7.95342632838532
30
0
41
1
10
122.17984607947
20
8.27318250125182
30
0
41
1
10
122.35969215894
20
8.81695304380835
30
0
41
1
10
122.449615198675
20
9.04097774436127
30
0
41
1
10
122.629461278145
20
9.39235788843436
30
0
41
1
10
122.71938431788
20
9.51978398579885
30
0
41
1
10
122.89923039735
20
9.68530609927268
30
0
41
1
10
122.989153437085
20
9.7235
30
0
41
1
10
123.07907647682
20
9.7235
30
0
0
SPLINE
5
F4
100
AcDbEntity
8
1
62
256
6
ByLayer
370
13
48
1
60
0
100
AcDbSpline
70
4
71
3
72
87
73
83
40
0
40
0
40
0
40
0
40
0.0312499999999996
40
0.0312499999999996
40
0.0624999999999991
40
0.0624999999999991
40
0.0937499999999987
40
0.0937499999999987
40
0.124999999999998
40
0.124999999999998
40
0.156249999999998
40
0.156249999999998
40
0.187499999999997
40
0.187499999999997
40
0.218749999999997
40
0.218749999999997
40
0.249999999999996
40
0.249999999999996
40
0.281249999999996
40
0.281249999999996
40
0.289062499999996
40
0.292968749999996
40
0.292968749999996
40
0.296874999999996
40
0.296874999999996
40
0.312499999999996
40
0.312499999999996
40
0.343749999999997
40
0.343749999999997
40
0.374999999999997
40
0.374999999999997
40
0.406249999999997
40
0.406249999999997
40
0.437499999999997
40
0.437499999999997
40
0.468749999999997
40
0.468749999999997
40
0.499999999999997
40
0.499999999999997
40
0.531249999999997
40
0.531249999999997
40
0.562499999999997
40
0.562499999999997
40
0.578124999999998
40
0.578124999999998
40
0.585937499999998
40
0.585937499999998
40
0.589843749999998
40
0.589843749999998
40
0.593749999999998
40
0.593749999999998
40
0.624999999999998
40
0.624999999999998
40
0.656249999999998
40
0.656249999999998
40
0.687499999999998
40
0.687499999999998
40
0.718749999999998
40
0.718749999999998
40
0.749999999999998
40
0.749999999999998
40
0.781249999999998
40
0.781249999999998
40
0.812499999999998
40
0.812499999999998
40
0.843749999999999
40
0.843749999999999
40
0.874999999999999
40
0.874999999999999
40
0.878906249999999
40
0.878906249999999
40
0.882812499999999
40
0.882812499999999
40
0.890624999999999
40
0.890624999999999
40
0.906249999999999
40
0.906249999999999
40
0.937499999999999
40
0.937499999999999
40
0.96875
40
0.96875
40
1
40
1
40
1
40
1
41
1
10
123.480310406103
20
9.7235
30
0
41
1
10
123.568650250072
20
9.7235
30
0
41
1
10
123.656990094041
20
9.6866452562692
30
0
41
1
10
123.833669781979
20
9.52710494188642
30
0
41
1
10
123.922009625948
20
9.40432960492385
30
0
41
1
10
124.098689313885
20
9.06576801853083
30
0
41
1
10
124.187029157854
20
8.84991563096219
30
0
41
1
10
124.363708845792
20
8.32558761387747
30
0
41
1
10
124.452048689761
20
8.0170990296279
30
0
41
1
10
124.628728377698
20
7.31674801073072
30
0
41
1
10
124.717068221667
20
6.92494021807673
30
0
41
1
10
124.893747909605
20
6.07546931240552
30
0
41
1
10
124.982087753574
20
5.61791612868649
30
0
41
1
10
125.158767441511
20
4.66019854783892
30
0
41
1
10
125.24710728548
20
4.16016429233403
30
0
41
1
10
125.423786973418
20
3.14270306269771
30
0
41
1
10
125.512126817387
20
2.62538678146211
30
0
41
1
10
125.688806505324
20
1.59679460811932
30
0
41
1
10
125.777146349293
20
1.08558462174682
30
0
41
1
10
125.887571154254
20
0.462172398417465
30
0
41
1
10
125.920698595743
20
0.276299040167657
30
0
41
1
10
125.953826037231
20
0.092420143374909
30
0
41
1
10
125.975910998223
20
-0.0296953482121012
30
0
41
1
10
125.986953478719
20
-0.0907092296426981
30
0
41
1
10
126.0421658812
20
-0.397514961917352
30
0
41
1
10
126.086335803184
20
-0.646594277422906
30
0
41
1
10
126.218845569137
20
-1.40177649666168
30
0
41
1
10
126.307185413106
20
-1.91597864764711
30
0
41
1
10
126.483865101044
20
-2.94602276423362
30
0
41
1
10
126.572204945013
20
-3.46178853582447
30
0
41
1
10
126.748884632951
20
-4.4709701863722
30
0
41
1
10
126.837224476919
20
-4.96426858495133
30
0
41
1
10
127.013904164857
20
-5.90340305968576
30
0
41
1
10
127.102244008826
20
-6.34910975059842
30
0
41
1
10
127.278923696764
20
-7.17066096752671
30
0
41
1
10
127.367263540733
20
-7.54640468311524
30
0
41
1
10
127.54394322867
20
-8.21195375846062
30
0
41
1
10
127.632283072639
20
-8.50171841364298
30
0
41
1
10
127.808962760577
20
-8.98778270156842
30
0
41
1
10
127.897302604546
20
-9.18410823598933
30
0
41
1
10
128.073982292483
20
-9.48453716712356
30
0
41
1
10
128.162322136452
20
-9.58871420963072
30
0
41
1
10
128.294831902405
20
-9.68213382730818
30
0
41
1
10
128.33900182439
20
-9.70284777770041
30
0
41
1
10
128.405256707366
20
-9.71940567614521
30
0
41
1
10
128.427341668359
20
-9.72250809581084
30
0
41
1
10
128.460469109847
20
-9.72369207686353
30
0
41
1
10
128.471511590343
20
-9.72351252179905
30
0
41
1
10
128.493596551335
20
-9.72199283536648
30
0
41
1
10
128.504639031831
20
-9.72065063148673
30
0
41
1
10
128.604021356296
20
-9.70321219375771
30
0
41
1
10
128.692361200265
20
-9.64943863828282
30
0
41
1
10
128.869040888203
20
-9.45406289606856
30
0
41
1
10
128.957380732172
20
-9.31237325868094
30
0
41
1
10
129.13406042011
20
-8.93537585973206
30
0
41
1
10
129.222400264078
20
-8.70001079790677
30
0
41
1
10
129.399079952016
20
-8.13783452079656
30
0
41
1
10
129.487419795985
20
-7.81102396192731
30
0
41
1
10
129.664099483923
20
-7.07703689174735
30
0
41
1
10
129.752439327891
20
-6.66992841746159
30
0
41
1
10
129.929119015829
20
-5.79431470775412
30
0
41
1
10
130.017458859798
20
-5.3259269455757
30
0
41
1
10
130.194138547736
20
-4.35173476554573
30
0
41
1
10
130.282478391704
20
-3.84605947222417
30
0
41
1
10
130.459158079642
20
-2.82242784170393
30
0
41
1
10
130.547497923611
20
-2.30457429783004
30
0
41
1
10
130.724177611549
20
-1.27926149236288
30
0
41
1
10
130.812517455518
20
-0.771857706199512
30
0
41
1
10
130.911899779982
20
-0.216876533786291
30
0
41
1
10
130.922942260479
20
-0.15542848580526
30
0
41
1
10
130.945027221471
20
-0.032993707983735
30
0
41
1
10
130.956069701967
20
0.0278678939113206
30
0
41
1
10
130.989197143455
20
0.211481310056286
30
0
41
1
10
131.011282104447
20
0.334815142433769
30
0
41
1
10
131.077536987424
20
0.707244072297499
30
0
41
1
10
131.121706909408
20
0.958777596259324
30
0
41
1
10
131.254216675362
20
1.71993936142323
30
0
41
1
10
131.342556519331
20
2.23627190330896
30
0
41
1
10
131.519236207268
20
3.26586401895318
30
0
41
1
10
131.607576051237
20
3.77903744613559
30
0
41
1
10
131.784255739175
20
4.77780438430418
30
0
41
1
10
131.872595583144
20
5.2632749245079
30
0
41
1
10
131.960935427113
20
5.7225171815646
30
0
0
SPLINE
5
F5
100
AcDbEntity
8
1
62
256
6
ByLayer
370
13
48
1
60
0
100
AcDbSpline
70
4
71
3
72
10
73
6
40
0
40
0
40
0
40
0
40
0.5
40
0.5
40
1
40
1
40
1
40
1
41
1
10
122
20
9.12238552112757
30
0
41
1
10
122.097606640134
20
9.33092808377017
30
0
41
1
10
122.195213280267
20
9.48224817345871
30
0
41
1
10
122.390426560534
20
9.67846131566074
30
0
41
1
10
122.488033200668
20
9.7235
30
0
41
1
10
122.585639840802
20
9.7235
30
0
0
SPLINE
5
F6
100
AcDbEntity
8
1
62
256
6
ByLayer
370
13
48
1
60
0
100
AcDbSpline
70
4
71
3
72
82
73
78
40
0
40
0
40
0
40
0
40
0.0312499999999998
40
0.0312499999999998
40
0.0624999999999996
40
0.0624999999999996
40
0.0937499999999995
40
0.0937499999999995
40
0.124999999999999
40
0.124999999999999
40
0.156249999999999
40
0.156249999999999
40
0.187499999999999
40
0.187499999999999
40
0.218749999999999
40
0.218749999999999
40
0.249999999999999
40
0.249999999999999
40
0.265624999999999
40
0.265624999999999
40
0.273437499999999
40
0.273437499999999
40
0.281249999999999
40
0.281249999999999
40
0.312499999999999
40
0.312499999999999
40
0.343749999999999
40
0.343749999999999
40
0.374999999999999
40
0.374999999999999
40
0.406249999999999
40
0.406249999999999
40
0.437499999999999
40
0.437499999999999
40
0.468749999999999
40
0.468749999999999
40
0.499999999999999
40
0.499999999999999
40
0.531249999999999
40
0.531249999999999
40
0.546874999999999
40
0.546874999999999
40
0.554687499999999
40
0.554687499999999
40
0.562499999999999
40
0.562499999999999
40
0.593749999999999
40
0.593749999999999
40
0.625
40
0.625
40
0.65625
40
0.65625
40
0.6875
40
0.6875
40
0.71875
40
0.71875
40
0.75
40
0.75
40
0.78125
40
0.78125
40
0.8125
40
0.8125
40
0.828125
40
0.828125
40
0.8359375
40
0.8359375
40
0.84375
40
0.84375
40
0.875
40
0.875
40
0.90625
40
0.90625
40
0.9375
40
0.9375
40
0.96875
40
0.96875
40
1
40
1
40
1
40
1
41
1
10
122.986873770084
20
9.7235
30
0
41
1
10
123.080353579012
20
9.7235
30
0
41
1
10
123.173833387939
20
9.68220895781482
30
0
41
1
10
123.360793005794
20
9.5028229203302
30
0
41
1
10
123.454272814721
20
9.36460973871192
30
0
41
1
10
123.641232432576
20
8.98353358112496
30
0
41
1
10
123.734712241503
20
8.74058945655548
30
0
41
1
10
123.921671859358
20
8.15197287318392
30
0
41
1
10
124.015151668285
20
7.80629848015874
30
0
41
1
10
124.20211128614
20
7.0253052655533
30
0
41
1
10
124.295591095068
20
6.59007869577644
30
0
41
1
10
124.482550712922
20
5.65289149166162
30
0
41
1
10
124.57603052185
20
5.15108982874068
30
0
41
1
10
124.762990139704
20
4.10957469539616
30
0
41
1
10
124.856469948632
20
3.57003003043241
30
0
41
1
10
125.043429566487
20
2.48261345892337
30
0
41
1
10
125.136909375414
20
1.93486653356939
30
0
41
1
10
125.277129088805
20
1.12631457898826
30
0
41
1
10
125.323868993269
20
0.858933592125055
30
0
41
1
10
125.393978849964
20
0.463017137031983
30
0
41
1
10
125.417348802196
20
0.331900766488104
30
0
41
1
10
125.46408870666
20
0.0716628978614722
30
0
41
1
10
125.487458658892
20
-0.0568890130735724
30
0
41
1
10
125.604308420051
20
-0.707103608831119
30
0
41
1
10
125.697788228978
20
-1.24359086998618
30
0
41
1
10
125.884747846833
20
-2.32847875961923
30
0
41
1
10
125.97822765576
20
-2.87680603113103
30
0
41
1
10
126.165187273615
20
-3.95849731746236
30
0
41
1
10
126.258667082543
20
-4.4917222382075
30
0
41
1
10
126.445626700397
20
-5.51340523191712
30
0
41
1
10
126.539106509325
20
-6.00169127059442
30
0
41
1
10
126.726066127179
20
-6.90559317409171
30
0
41
1
10
126.819545936107
20
-7.32106155025414
30
0
41
1
10
127.006505553962
20
-8.0583518783788
30
0
41
1
10
127.099985362889
20
-8.38010333529184
30
0
41
1
10
127.286944980744
20
-8.91936032608405
30
0
41
1
10
127.380424789671
20
-9.13688966345529
30
0
41
1
10
127.567384407526
20
-9.4682048798436
30
0
41
1
10
127.660864216453
20
-9.58208511126699
30
0
41
1
10
127.801083929844
20
-9.68237920303989
30
0
41
1
10
127.847823834308
20
-9.70411805289214
30
0
41
1
10
127.917933691004
20
-9.72052294079006
30
0
41
1
10
127.941303643235
20
-9.72329312573171
30
0
41
1
10
127.988043547699
20
-9.72368453957782
30
0
41
1
10
128.011413499931
20
-9.72131473081265
30
0
41
1
10
128.12826326109
20
-9.69602274688549
30
0
41
1
10
128.221743070018
20
-9.63255329709961
30
0
41
1
10
128.408702687872
20
-9.40618439753251
30
0
41
1
10
128.502182496799
20
-9.24317138807828
30
0
41
1
10
128.689142114654
20
-8.81197368239916
30
0
41
1
10
128.782621923582
20
-8.54372361749589
30
0
41
1
10
128.969581541436
20
-7.90662383898865
30
0
41
1
10
129.063061350364
20
-7.5377950081041
30
0
41
1
10
129.250020968219
20
-6.71521672063272
30
0
41
1
10
129.343500777146
20
-6.26157961899804
30
0
41
1
10
129.530460395001
20
-5.29415024518596
30
0
41
1
10
129.623940203928
20
-4.78052496963636
30
0
41
1
10
129.810899821783
20
-3.72260290807796
30
0
41
1
10
129.90437963071
20
-3.17846846736134
30
0
41
1
10
130.091339248565
20
-2.08855599357605
30
0
41
1
10
130.184819057492
20
-1.54288739618809
30
0
41
1
10
130.325038770884
20
-0.741401916420557
30
0
41
1
10
130.371778675347
20
-0.477029507418251
30
0
41
1
10
130.441888532043
20
-0.086445827852657
30
0
41
1
10
130.465258484275
20
0.042124216302966
30
0
41
1
10
130.511998388738
20
0.302057248191971
30
0
41
1
10
130.53536834097
20
0.433031399039351
30
0
41
1
10
130.652218102129
20
1.09223745954654
30
0
41
1
10
130.745697911057
20
1.63373821526574
30
0
41
1
10
130.932657528912
20
2.7226636863154
30
0
41
1
10
131.026137337839
20
3.26999810012586
30
0
41
1
10
131.213096955694
20
4.34264045213985
30
0
41
1
10
131.306576764621
20
4.867797115956
30
0
41
1
10
131.493536382476
20
5.86625967001305
30
0
41
1
10
131.587016191403
20
6.3393937714938
30
0
41
1
10
131.773975809258
20
7.20714594689451
30
0
41
1
10
131.867455618185
20
7.60163120291128
30
0
41
1
10
131.960935427113
20
7.94750666930182
30
0
0
SPLINE
5
F7
100
AcDbEntity
8
1
62
256
6
ByLayer
370
13
48
1
60
0
100
AcDbSpline
70
4
71
3
72
8
73
4
40
0
40
0
40
0
40
0
40
1
40
1
40
1
40
1
41
1
10
122
20
9.709885514913
30
0
41
1
10
122.030734401594
20
9.71905492308255
30
0
41
1
10
122.061468803188
20
9.7235
30
0
41
1
10
122.092203204783
20
9.7235
30
0
0
SPLINE
5
F8
100
AcDbEntity
8
1
62
256
6
ByLayer
370
13
48
1
60
0
100
AcDbSpline
70
4
71
3
72
124
73
120
40
0
40
0
40
0
40
0
40
0.0312499999999988
40
0.0312499999999988
40
0.0624999999999976
40
0.0624999999999976
40
0.0781249999999969
40
0.0781249999999969
40
0.0937499999999962
40
0.0937499999999962
40
0.109374999999995
40
0.109374999999995
40
0.124999999999995
40
0.124999999999995
40
0.140624999999994
40
0.140624999999994
40
0.156249999999993
40
0.156249999999993
40
0.171874999999993
40
0.171874999999993
40
0.187499999999992
40
0.187499999999992
40
0.203124999999991
40
0.203124999999991
40
0.218749999999991
40
0.218749999999991
40
0.249999999999989
40
0.249999999999989
40
0.257812499999989
40
0.257812499999989
40
0.261718749999989
40
0.261718749999989
40
0.265624999999989
40
0.265624999999989
40
0.281249999999988
40
0.281249999999988
40
0.312499999999987
40
0.312499999999987
40
0.328124999999987
40
0.328124999999987
40
0.343749999999986
40
0.343749999999986
40
0.359374999999986
40
0.359374999999986
40
0.374999999999985
40
0.374999999999985
40
0.390624999999985
40
0.390624999999985
40
0.406249999999984
40
0.406249999999984
40
0.421874999999984
40
0.421874999999984
40
0.437499999999983
40
0.437499999999983
40
0.453124999999983
40
0.453124999999983
40
0.468749999999982
40
0.468749999999982
40
0.499999999999981
40
0.499999999999981
40
0.51562499999998
40
0.51562499999998
40
0.52343749999998
40
0.52343749999998
40
0.52734374999998
40
0.52734374999998
40
0.53124999999998
40
0.53124999999998
40
0.562499999999981
40
0.562499999999981
40
0.593749999999981
40
0.593749999999981
40
0.609374999999982
40
0.609374999999982
40
0.624999999999983
40
0.624999999999983
40
0.640624999999983
40
0.640624999999983
40
0.656249999999984
40
0.656249999999984
40
0.671874999999985
40
0.671874999999985
40
0.687499999999985
40
0.687499999999985
40
0.703124999999986
40
0.703124999999986
40
0.718749999999986
40
0.718749999999986
40
0.749999999999987
40
0.749999999999987
40
0.781249999999988
40
0.781249999999988
40
0.789062499999989
40
0.789062499999989
40
0.796874999999989
40
0.796874999999989
40
0.81249999999999
40
0.81249999999999
40
0.843749999999991
40
0.843749999999991
40
0.859374999999992
40
0.859374999999992
40
0.874999999999993
40
0.874999999999993
40
0.890624999999994
40
0.890624999999994
40
0.906249999999995
40
0.906249999999995
40
0.921874999999996
40
0.921874999999996
40
0.937499999999997
40
0.937499999999997
40
0.953124999999997
40
0.953124999999997
40
0.968749999999998
40
0.968749999999998
40
0.984374999999999
40
0.984374999999999
40
1
40
1
40
1
40
1
41
1
10
122.493437134066
20
9.7235
30
0
41
1
10
122.592056907952
20
9.7235
30
0
41
1
10
122.690676681837
20
9.67751590134719
30
0
41
1
10
122.887916229609
20
9.47704950001042
30
0
41
1
10
122.986536003495
20
9.32241413994143
30
0
41
1
10
123.134465664324
20
9.00277947423331
30
0
41
1
10
123.183775551267
20
8.88170223490985
30
0
41
1
10
123.282395325153
20
8.61058692637002
30
0
41
1
10
123.331705212096
20
8.46054741089608
30
0
41
1
10
123.430324985982
20
8.13245488763829
30
0
41
1
10
123.479634872925
20
7.95440242353027
30
0
41
1
10
123.578254646811
20
7.57209567875216
30
0
41
1
10
123.627564533754
20
7.36784404140755
30
0
41
1
10
123.726184307639
20
6.9357673292451
30
0
41
1
10
123.775494194582
20
6.70794682983845
30
0
41
1
10
123.874113968468
20
6.23206826558433
30
0
41
1
10
123.923423855411
20
5.98401627525178
30
0
41
1
10
124.022043629297
20
5.47155642079761
30
0
41
1
10
124.07135351624
20
5.20715550076366
30
0
41
1
10
124.169973290126
20
4.66622741808968
30
0
41
1
10
124.219283177069
20
4.3897073525703
30
0
41
1
10
124.317902950955
20
3.82890510742325
30
0
41
1
10
124.367212837898
20
3.54462949620645
30
0
41
1
10
124.465832611784
20
2.97260722655071
30
0
41
1
10
124.515142498727
20
2.68486606461346
30
0
41
1
10
124.663072159555
20
1.82248862539609
30
0
41
1
10
124.761691933441
20
1.24896093060823
30
0
41
1
10
124.884966650799
20
0.550695392449143
30
0
41
1
10
124.90962159427
20
0.41195464387053
30
0
41
1
10
124.946604009477
20
0.205466871752861
30
0
41
1
10
124.958931481213
20
0.136907899137327
30
0
41
1
10
124.983586424685
20
0.0003696873188801
30
0
41
1
10
124.99591389642
20
-0.0676069614671349
30
0
41
1
10
125.057551255099
20
-0.409894804757215
30
0
41
1
10
125.106861142042
20
-0.688283785206295
30
0
41
1
10
125.254790802871
20
-1.53298152691559
30
0
41
1
10
125.353410576757
20
-2.10905272282747
30
0
41
1
10
125.501340237586
20
-2.97132005114759
30
0
41
1
10
125.550650124529
20
-3.25837340926273
30
0
41
1
10
125.649269898415
20
-3.82761549511909
30
0
41
1
10
125.698579785357
20
-4.10979832171722
30
0
41
1
10
125.797199559243
20
-4.66496399196052
30
0
41
1
10
125.846509446186
20
-4.93794002273083
30
0
41
1
10
125.945129220072
20
-5.47034954124544
30
0
41
1
10
125.994439107015
20
-5.72977590294991
30
0
41
1
10
126.093058880901
20
-6.23094789079434
30
0
41
1
10
126.142368767844
20
-6.47268678399723
30
0
41
1
10
126.24098854173
20
-6.93476070859114
30
0
41
1
10
126.290298428673
20
-7.1550901013434
30
0
41
1
10
126.388918202559
20
-7.57122521347384
30
0
41
1
10
126.438228089502
20
-7.76702696340286
30
0
41
1
10
126.536847863388
20
-8.13173648418399
30
0
41
1
10
126.586157750331
20
-8.30064230459797
30
0
41
1
10
126.684777524217
20
-8.6100290808813
30
0
41
1
10
126.73408741116
20
-8.75051017914453
30
0
41
1
10
126.832707185046
20
-9.00238318463028
30
0
41
1
10
126.882017071989
20
-9.11377713261143
30
0
41
1
10
127.029946732817
20
-9.40457792646251
30
0
41
1
10
127.128566506703
20
-9.54030200734232
30
0
41
1
10
127.276496167532
20
-9.66403525711431
30
0
41
1
10
127.325806054475
20
-9.69205251312459
30
0
41
1
10
127.399770884889
20
-9.71574625076596
30
0
41
1
10
127.424425828361
20
-9.72059208760385
30
0
41
1
10
127.461408243568
20
-9.72349615656827
30
0
41
1
10
127.473735715304
20
-9.72373958604325
30
0
41
1
10
127.498390658775
20
-9.72279551488938
30
0
41
1
10
127.510718130511
20
-9.72160248402415
30
0
41
1
10
127.621665376133
20
-9.70421199310584
30
0
41
1
10
127.720285150019
20
-9.64117800162981
30
0
41
1
10
127.917524697791
20
-9.40450572204307
30
0
41
1
10
128.016144471676
20
-9.23071902456053
30
0
41
1
10
128.164074132505
20
-8.88215186066742
30
0
41
1
10
128.213384019448
20
-8.75140170634882
30
0
41
1
10
128.312003793334
20
-8.46115906496075
30
0
41
1
10
128.361313680277
20
-8.30166576468633
30
0
41
1
10
128.459933454163
20
-7.95517265757849
30
0
41
1
10
128.509243341106
20
-7.76817409297757
30
0
41
1
10
128.607863114992
20
-7.36876184692474
30
0
41
1
10
128.657173001935
20
-7.1563514830994
30
0
41
1
10
128.755792775821
20
-6.70899400181543
30
0
41
1
10
128.805102662764
20
-6.47405201736871
30
0
41
1
10
128.903722436649
20
-5.98516858899941
30
0
41
1
10
128.953032323592
20
-5.73123358507092
30
0
41
1
10
129.051652097478
20
-5.20838455441685
30
0
41
1
10
129.100961984421
20
-4.93947760282867
30
0
41
1
10
129.199581758307
20
-4.39098280019363
30
0
41
1
10
129.24889164525
20
-4.11140194124471
30
0
41
1
10
129.396821306079
20
-3.26318103053467
30
0
41
1
10
129.495441079965
20
-2.68523583817196
30
0
41
1
10
129.692680627737
20
-1.53694845093349
30
0
41
1
10
129.791300401622
20
-0.966720466815389
30
0
41
1
10
129.91457511898
20
-0.274892444389138
30
0
41
1
10
129.939230062451
20
-0.137554028042246
30
0
41
1
10
129.988539949394
20
0.134752091497035
30
0
41
1
10
130.013194892866
20
0.272059115735004
30
0
41
1
10
130.08715972328
20
0.687113687330253
30
0
41
1
10
130.136469610223
20
0.967947152085713
30
0
41
1
10
130.284399271052
20
1.81841781264654
30
0
41
1
10
130.383019044938
20
2.39623894808838
30
0
41
1
10
130.530948705767
20
3.25708243277847
30
0
41
1
10
130.58025859271
20
3.54299016964669
30
0
41
1
10
130.678878366596
20
4.1085141076739
30
0
41
1
10
130.728188253539
20
4.38812404879721
30
0
41
1
10
130.826808027425
20
4.93669198616951
30
0
41
1
10
130.876117914368
20
5.20564299178866
30
0
41
1
10
130.974737688253
20
5.72859452262884
30
0
41
1
10
131.024047575197
20
5.98258797177891
30
0
41
1
10
131.122667349082
20
6.47160137299991
30
0
41
1
10
131.171977236025
20
6.70661488168798
30
0
41
1
10
131.270597009911
20
7.15412651772797
30
0
41
1
10
131.319906896854
20
7.36661950659325
30
0
41
1
10
131.41852667074
20
7.76620560123777
30
0
41
1
10
131.467836557683
20
7.95329538256149
30
0
41
1
10
131.566456331569
20
8.29997666993916
30
0
41
1
10
131.615766218512
20
8.45956692651743
30
0
41
1
10
131.714385992398
20
8.75000624658009
30
0
41
1
10
131.763695879341
20
8.88085611655822
30
0
41
1
10
131.862315653227
20
9.11343352629819
30
0
41
1
10
131.91162554017
20
9.21516365605231
30
0
41
1
10
131.960935427113
20
9.30254683034957
30
0
0
SPLINE
5
F9
100
AcDbEntity
8
1
62
256
6
ByLayer
370
13
48
1
60
0
100
AcDbSpline
70
4
71
3
72
134
73
130
40
0
40
0
40
0
40
0
40
0.015625
40
0.015625
40
0.03125
40
0.03125
40
0.046875
40
0.046875
40
0.0625
40
0.0625
40
0.078125
40
0.078125
40
0.09375
40
0.09375
40
0.109375
40
0.109375
40
0.125
40
0.125
40
0.140625
40
0.140625
40
0.15625
40
0.15625
40
0.171875
40
0.171875
40
0.1875
40
0.1875
40
0.203125
40
0.203125
40
0.21875
40
0.21875
40
0.234375
40
0.234375
40
0.25
40
0.25
40
0.265625
40
0.265625
40
0.28125
40
0.28125
40
0.296875
40
0.296875
40
0.3125
40
0.3125
40
0.328125
40
0.328125
40
0.34375
40
0.34375
40
0.359375
40
0.359375
40
0.375
40
0.375
40
0.390625
40
0.390625
40
0.40625
40
0.40625
40
0.421875
40
0.421875
40
0.4375
40
0.4375
40
0.453125
40
0.453125
40
0.46875
40
0.46875
40
0.484375
40
0.484375
40
0.5
40
0.5
40
0.515625
40
0.515625
40
0.53125
40
0.53125
40
0.546875
40
0.546875
40
0.5625
40
0.5625
40
0.578125
40
0.578125
40
0.59375
40
0.59375
40
0.609375
40
0.609375
40
0.625
40
0.625
40
0.640625
40
0.640625
40
0.65625
40
0.65625
40
0.671875
40
0.671875
40
0.6875
40
0.6875
40
0.703125
40
0.703125
40
0.71875
40
0.71875
40
0.734375
40
0.734375
40
0.75
40
0.75
40
0.765625
40
0.765625
40
0.78125
40
0.78125
40
0.796875
40
0.796875
40
0.8125
40
0.8125
40
0.828125
40
0.828125
40
0.84375
40
0.84375
40
0.859375
40
0.859375
40
0.875
40
0.875
40
0.890625
40
0.890625
40
0.90625
40
0.90625
40
0.921875
40
0.921875
40
0.9375
40
0.9375
40
0.953125
40
0.953125
40
0.96875
40
0.96875
40
0.984375
40
0.984375
40
1
40
1
40
1
40
1
41
1
10
122.000000498047
20
9.7235
30
0
41
1
10
122.051880367469
20
9.7235
30
0
41
1
10
122.103760236891
20
9.71082412193306
30
0
41
1
10
122.207519975736
20
9.65751099385858
30
0
41
1
10
122.259399845158
20
9.61686735097527
30
0
41
1
10
122.363159584002
20
9.50547218204039
30
0
41
1
10
122.415039453425
20
9.43471444834813
30
0
41
1
10
122.518799192269
20
9.26161116941154
30
0
41
1
10
122.570679061691
20
9.15926033854754
30
0
41
1
10
122.674438800535
20
8.92233289437002
30
0
41
1
10
122.726318669958
20
8.78775269113444
30
0
41
1
10
122.830078408802
20
8.48670661546834
30
0
41
1
10
122.881958278224
20
8.32023951697221
30
0
41
1
10
122.985718017069
20
7.95681251678121
30
0
41
1
10
123.037597886491
20
7.75985416375454
30
0
41
1
10
123.141357625336
20
7.33788671807926
30
0
41
1
10
123.193237494758
20
7.11288198439289
30
0
41
1
10
123.296997233602
20
6.63822415893131
30
0
41
1
10
123.348877103024
20
6.38857785328977
30
0
41
1
10
123.452636841869
20
5.86883051245499
30
0
41
1
10
123.504516711291
20
5.59873794146557
30
0
41
1
10
123.608276450136
20
5.04285096644577
30
0
41
1
10
123.660156319558
20
4.75706572889305
30
0
41
1
10
123.763916058402
20
4.17483718294417
30
0
41
1
10
123.815795927824
20
3.87840272798204
30
0
41
1
10
123.919555666669
20
3.27993616610755
30
0
41
1
10
123.971435536091
20
2.97791172676042
30
0
41
1
10
124.075195274935
20
2.37309125673741
30
0
41
1
10
124.127075144358
20
2.07030110741945
30
0
41
1
10
124.230834883202
20
1.46833563696703
30
0
41
1
10
124.282714752624
20
1.16916413641309
30
0
41
1
10
124.386474491469
20
0.578236446970891
30
0
41
1
10
124.438354360891
20
0.286482047741515
30
0
41
1
10
124.542114099735
20
-0.286480672630972
30
0
41
1
10
124.593993969158
20
-0.57823504052331
30
0
41
1
10
124.697753708002
20
-1.16916270640777
30
0
41
1
10
124.749633577424
20
-1.46833419796243
30
0
41
1
10
124.853393316269
20
-2.07029965698976
30
0
41
1
10
124.905273185691
20
-2.37308980388525
30
0
41
1
10
125.009032924535
20
-2.97791027647426
30
0
41
1
10
125.060912793958
20
-3.27993472081306
30
0
41
1
10
125.164672532802
20
-3.87840130063694
30
0
41
1
10
125.216552402224
20
-4.17483576855926
30
0
41
1
10
125.320312141069
20
-4.75706434858083
30
0
41
1
10
125.372192010491
20
-5.04284960724726
30
0
41
1
10
125.475951749335
20
-5.59873663240646
30
0
41
1
10
125.527831618758
20
-5.86882923242123
30
0
41
1
10
125.631591357602
20
-6.38857663853611
30
0
41
1
10
125.683471227024
20
-6.63822298043047
30
0
41
1
10
125.787230965869
20
-7.11288088453594
30
0
41
1
10
125.839110835291
20
-7.33788566061
30
0
41
1
10
125.942870574135
20
-7.75985319577984
30
0
41
1
10
125.994750443558
20
-7.95681159590904
30
0
41
1
10
126.098510182402
20
-8.32023869339451
30
0
41
1
10
126.150390051824
20
-8.48670584207798
30
0
41
1
10
126.254149790669
20
-8.78775201950336
30
0
41
1
10
126.306029660091
20
-8.92233227430671
30
0
41
1
10
126.409789398935
20
-9.15925982135886
30
0
41
1
10
126.461669268357
20
-9.26161070352643
30
0
41
1
10
126.565429007202
20
-9.43471408333724
30
0
41
1
10
126.617308876624
20
-9.5054718665981
30
0
41
1
10
126.721068615468
20
-9.61686713172054
30
0
41
1
10
126.772948484891
20
-9.65751082122202
30
0
41
1
10
126.876708223735
20
-9.71082403866637
30
0
41
1
10
126.928588093158
20
-9.72349995948531
30
0
41
1
10
127.032347832002
20
-9.72350004051449
30
0
41
1
10
127.084227701424
20
-9.71082420519949
30
0
41
1
10
127.187987440269
20
-9.65751116649494
30
0
41
1
10
127.239867309691
20
-9.61686757022977
30
0
41
1
10
127.343627048535
20
-9.50547249748249
30
0
41
1
10
127.395506917957
20
-9.43471481335877
30
0
41
1
10
127.499266656802
20
-9.26161163529642
30
0
41
1
10
127.551146526224
20
-9.15926085573597
30
0
41
1
10
127.654906265069
20
-8.92233351443309
30
0
41
1
10
127.706786134491
20
-8.78775336276524
30
0
41
1
10
127.810545873335
20
-8.48670738885846
30
0
41
1
10
127.862425742757
20
-8.32024034054967
30
0
41
1
10
127.966185481602
20
-7.95681343765315
30
0
41
1
10
128.018065351024
20
-7.75985513172904
30
0
41
1
10
128.121825089868
20
-7.33788777554832
30
0
41
1
10
128.173704959291
20
-7.11288308424963
30
0
41
1
10
128.277464698135
20
-6.63822533743198
30
0
41
1
10
128.329344567557
20
-6.38857906804324
30
0
41
1
10
128.433104306402
20
-5.86883179248863
30
0
41
1
10
128.484984175824
20
-5.59873925052457
30
0
41
1
10
128.588743914668
20
-5.04285232564419
30
0
41
1
10
128.640623784091
20
-4.7570671092052
30
0
41
1
10
128.744383522935
20
-4.174838597329
30
0
41
1
10
128.796263392357
20
-3.87840415532707
30
0
41
1
10
128.900023131202
20
-3.279937611402
30
0
41
1
10
128.951903000624
20
-2.97791317704653
30
0
41
1
10
129.055662739468
20
-2.37309270958957
30
0
41
1
10
129.107542608891
20
-2.07030255784915
30
0
41
1
10
129.211302347735
20
-1.46833707597167
30
0
41
1
10
129.263182217157
20
-1.16916556641846
30
0
41
1
10
129.366941956002
20
-0.578237853418528
30
0
41
1
10
129.418821825424
20
-0.286483439633798
30
0
41
1
10
129.522581564268
20
0.286479314302085
30
0
41
1
10
129.574461433691
20
0.578233634075787
30
0
41
1
10
129.678221172535
20
1.16916127640249
30
0
41
1
10
129.730101041957
20
1.4683327589579
30
0
41
1
10
129.833860780802
20
2.0702982065601
30
0
41
1
10
129.885740650224
20
2.37308835103312
30
0
41
1
10
129.989500389068
20
2.9779088261881
30
0
41
1
10
130.04138025849
20
3.27993327551855
30
0
41
1
10
130.145139997335
20
3.87839987329178
30
0
41
1
10
130.197019866757
20
4.17483435417429
30
0
41
1
10
130.300779605602
20
4.75706296826849
30
0
41
1
10
130.352659475024
20
5.04284824804864
30
0
41
1
10
130.456419213868
20
5.5987353233472
30
0
41
1
10
130.50829908329
20
5.86882795238731
30
0
41
1
10
130.612058822135
20
6.3885754237823
30
0
41
1
10
130.663938691557
20
6.63822180192946
30
0
41
1
10
130.767698430402
20
7.11287978467877
30
0
41
1
10
130.819578299824
20
7.33788460314054
30
0
41
1
10
130.923338038668
20
7.75985222780488
30
0
41
1
10
130.975217908091
20
7.95681067503665
30
0
41
1
10
131.078977646935
20
8.32023786981657
30
0
41
1
10
131.130857516357
20
8.48670506868737
30
0
41
1
10
131.234617255202
20
8.78775134787205
30
0
41
1
10
131.286497124624
20
8.92233165424315
30
0
41
1
10
131.390256863468
20
9.15925930416992
30
0
41
1
10
131.44213673289
20
9.26161023764107
30
0
41
1
10
131.545896471735
20
9.43471371832612
30
0
41
1
10
131.597776341157
20
9.50547155115552
30
0
41
1
10
131.701536080001
20
9.61686691246558
30
0
41
1
10
131.753415949424
20
9.6575106485852
30
0
41
1
10
131.857175688268
20
9.71082395539952
30
0
41
1
10
131.90905555769
20
9.72349991897045
30
0
41
1
10
131.960935427113
20
9.7234999999996
30
0
0
SPLINE
5
FA
100
AcDbEntity
8
1
62
256
6
ByLayer
370
13
48
1
60
0
100
AcDbSpline
70
4
71
3
72
123
73
119
40
0
40
0
40
0
40
0
40
0.0156250000000006
40
0.0156250000000006
40
0.0312500000000012
40
0.0312500000000012
40
0.0468750000000019
40
0.0468750000000019
40
0.0625000000000025
40
0.0625000000000025
40
0.0781250000000031
40
0.0781250000000031
40
0.0937500000000037
40
0.0937500000000037
40
0.109375000000004
40
0.109375000000004
40
0.125000000000005
40
0.125000000000005
40
0.140625000000006
40
0.140625000000006
40
0.156250000000006
40
0.156250000000006
40
0.187500000000007
40
0.187500000000007
40
0.203125000000008
40
0.203125000000008
40
0.210937500000008
40
0.210937500000008
40
0.218750000000008
40
0.218750000000008
40
0.250000000000009
40
0.250000000000009
40
0.28125000000001
40
0.28125000000001
40
0.296875000000011
40
0.296875000000011
40
0.312500000000011
40
0.312500000000011
40
0.328125000000011
40
0.328125000000011
40
0.343750000000012
40
0.343750000000012
40
0.359375000000012
40
0.359375000000012
40
0.375000000000012
40
0.375000000000012
40
0.390625000000013
40
0.390625000000013
40
0.406250000000013
40
0.406250000000013
40
0.437500000000014
40
0.437500000000014
40
0.468750000000014
40
0.468750000000014
40
0.472656250000014
40
0.472656250000014
40
0.476562500000014
40
0.476562500000014
40
0.484375000000014
40
0.484375000000014
40
0.500000000000014
40
0.500000000000014
40
0.531250000000014
40
0.531250000000014
40
0.546875000000014
40
0.546875000000014
40
0.562500000000014
40
0.562500000000014
40
0.578125000000014
40
0.578125000000014
40
0.593750000000013
40
0.593750000000013
40
0.609375000000013
40
0.609375000000013
40
0.625000000000013
40
0.625000000000013
40
0.640625000000013
40
0.640625000000013
40
0.656250000000013
40
0.656250000000013
40
0.671875000000013
40
0.671875000000013
40
0.687500000000012
40
0.687500000000012
40
0.718750000000012
40
0.718750000000012
40
0.734375000000012
40
0.734375000000012
40
0.738281250000012
40
0.738281250000012
40
0.742187500000012
40
0.750000000000012
40
0.750000000000012
40
0.78125000000001
40
0.78125000000001
40
0.79687500000001
40
0.79687500000001
40
0.812500000000009
40
0.812500000000009
40
0.828125000000008
40
0.828125000000008
40
0.843750000000008
40
0.843750000000008
40
0.859375000000007
40
0.859375000000007
40
0.875000000000006
40
0.875000000000006
40
0.890625000000006
40
0.890625000000006
40
0.906250000000005
40
0.906250000000005
40
0.921875000000004
40
0.921875000000004
40
0.937500000000003
40
0.937500000000003
40
0.968750000000002
40
0.968750000000002
40
1
40
1
40
1
40
1
41
1
10
122
20
9.30254859554765
30
0
41
1
10
122.049309892131
20
9.21516560484616
30
0
41
1
10
122.098619784262
20
9.11343565836643
30
0
41
1
10
122.197239568524
20
8.88085860929959
30
0
41
1
10
122.246549460655
20
8.7500089167084
30
0
41
1
10
122.345169244917
20
8.45956994011283
30
0
41
1
10
122.394479137047
20
8.29997984960156
30
0
41
1
10
122.493098921309
20
7.95329887782049
30
0
41
1
10
122.54240881344
20
7.76620924601346
30
0
41
1
10
122.641028597702
20
7.36662342923307
30
0
41
1
10
122.690338489833
20
7.15413056870443
30
0
41
1
10
122.788958274095
20
6.70661916449762
30
0
41
1
10
122.838268166226
20
6.47160575929894
30
0
41
1
10
122.936887950488
20
5.98259253778326
30
0
41
1
10
122.986197842619
20
5.72859916484646
30
0
41
1
10
123.084817626881
20
5.20564775811374
30
0
41
1
10
123.134127519012
20
4.93669680039082
30
0
41
1
10
123.232747303273
20
4.38812893084224
30
0
41
1
10
123.282057195404
20
4.10851900965258
30
0
41
1
10
123.380676979666
20
3.54299508514276
30
0
41
1
10
123.429986871797
20
3.25708734186731
30
0
41
1
10
123.57791654819
20
2.39624380240966
30
0
41
1
10
123.676536332452
20
1.81842258288594
30
0
41
1
10
123.824466008845
20
0.967951746378162
30
0
41
1
10
123.873775900976
20
0.687118214728088
30
0
41
1
10
123.947740739172
20
0.272063533344976
30
0
41
1
10
123.972395685237
20
0.134756421112343
30
0
41
1
10
124.021705577368
20
-0.137549676755157
30
0
41
1
10
124.046360523434
20
-0.274888084102628
30
0
41
1
10
124.169635253761
20
-0.966716071399873
30
0
41
1
10
124.268255038023
20
-1.53694405931012
30
0
41
1
10
124.465494606547
20
-2.6852315312232
30
0
41
1
10
124.564114390809
20
-3.26317680465229
30
0
41
1
10
124.712044067202
20
-4.11139789642286
30
0
41
1
10
124.761353959333
20
-4.3909788255263
30
0
41
1
10
124.859973743594
20
-4.93947378689055
30
0
41
1
10
124.909283635726
20
-5.20838082705174
30
0
41
1
10
125.007903419987
20
-5.73123005112265
30
0
41
1
10
125.057213312118
20
-5.9851651598899
30
0
41
1
10
125.15583309638
20
-6.474048811187
30
0
41
1
10
125.205142988511
20
-6.7089909137149
30
0
41
1
10
125.303762772773
20
-7.15634864071467
30
0
41
1
10
125.353072664904
20
-7.36875913216491
30
0
41
1
10
125.451692449166
20
-7.76817163891641
30
0
41
1
10
125.501002341297
20
-7.95517033658081
30
0
41
1
10
125.599622125558
20
-8.30166371105858
30
0
41
1
10
125.64893201769
20
-8.46115714562998
30
0
41
1
10
125.747551801951
20
-8.75140005285132
30
0
41
1
10
125.796861694082
20
-8.88215033869866
30
0
41
1
10
125.944791370475
20
-9.2307178877266
30
0
41
1
10
126.043411154737
20
-9.40450482896907
30
0
41
1
10
126.240650723261
20
-9.64117755006259
30
0
41
1
10
126.339270507523
20
-9.70421173929938
30
0
41
1
10
126.450217764817
20
-9.72160242243541
30
0
41
1
10
126.46254523785
20
-9.72279547424517
30
0
41
1
10
126.487200183915
20
-9.72373958645892
30
0
41
1
10
126.499527656948
20
-9.723496177106
30
0
41
1
10
126.536510076046
20
-9.72059216935526
30
0
41
1
10
126.561165022112
20
-9.71574637374925
30
0
41
1
10
126.635129860308
20
-9.69205276074368
30
0
41
1
10
126.684439752439
20
-9.66403558908806
30
0
41
1
10
126.832369428832
20
-9.54030259314169
30
0
41
1
10
126.930989213094
20
-9.40457868257553
30
0
41
1
10
127.078918889487
20
-9.11377813136102
30
0
41
1
10
127.128228781618
20
-9.00238426209279
30
0
41
1
10
127.226848565879
20
-8.75051140718455
30
0
41
1
10
127.276158458011
20
-8.61003038077959
30
0
41
1
10
127.374778242273
20
-8.30064373899739
30
0
41
1
10
127.424088134403
20
-8.1317379812202
30
0
41
1
10
127.522707918665
20
-7.76702857448046
30
0
41
1
10
127.572017810796
20
-7.57122687595114
30
0
41
1
10
127.670637595058
20
-7.15509185389024
30
0
41
1
10
127.719947487189
20
-6.93476249980478
30
0
41
1
10
127.818567271451
20
-6.47268863895903
30
0
41
1
10
127.867877163582
20
-6.23094977083679
30
0
41
1
10
127.966496947844
20
-5.72977781941384
30
0
41
1
10
128.015806839975
20
-5.47035146905185
30
0
41
1
10
128.114426624237
20
-4.93794196001576
30
0
41
1
10
128.163736516367
20
-4.66496592738517
30
0
41
1
10
128.262356300629
20
-4.10980024135495
30
0
41
1
10
128.31166619276
20
-3.82761740083518
30
0
41
1
10
128.410285977022
20
-3.25837527668236
30
0
41
1
10
128.459595869153
20
-2.97132189419799
30
0
41
1
10
128.607525545546
20
-2.10905447997396
30
0
41
1
10
128.706145329808
20
-1.53298320975515
30
0
41
1
10
128.854075006201
20
-0.688285343337554
30
0
41
1
10
128.903384898331
20
-0.409896319111738
30
0
41
1
10
128.965022263495
20
-0.0676084195291082
30
0
41
1
10
128.977349736528
20
0.0003682404943106
30
0
41
1
10
129.002004682594
20
0.136906458507468
30
0
41
1
10
129.038987101692
20
0.342582838828633
30
0
41
1
10
129.07596952079
20
0.550693973345318
30
0
41
1
10
129.199244251117
20
1.24895955430222
30
0
41
1
10
129.297864035379
20
1.82248729623092
30
0
41
1
10
129.445793711772
20
2.68486482381621
30
0
41
1
10
129.495103603903
20
2.97260601811084
30
0
41
1
10
129.593723388165
20
3.54462835748774
30
0
41
1
10
129.643033280296
20
3.82890400606721
30
0
41
1
10
129.741653064558
20
4.38970632981571
30
0
41
1
10
129.790962956689
20
4.66622643657149
30
0
41
1
10
129.88958274095
20
5.20715460418336
30
0
41
1
10
129.938892633081
20
5.47155556791526
30
0
41
1
10
130.037512417343
20
5.98401551062773
30
0
41
1
10
130.086822309474
20
6.23206754551643
30
0
41
1
10
130.185442093736
20
6.70794619806787
30
0
41
1
10
130.234751985867
20
6.93576674121132
30
0
41
1
10
130.333371770129
20
7.36784353841054
30
0
41
1
10
130.38268166226
20
7.57209521705119
30
0
41
1
10
130.481301446522
20
7.95440204054356
30
0
41
1
10
130.530611338653
20
8.13245454206685
30
0
41
1
10
130.629231122914
20
8.46054713512115
30
0
41
1
10
130.678541015045
20
8.61058668297466
30
0
41
1
10
130.777160799307
20
8.88170205043679
30
0
41
1
10
130.826470691438
20
9.00277931630271
30
0
41
1
10
130.974400367831
20
9.32241405225008
30
0
41
1
10
131.073020152093
20
9.47704944646981
30
0
41
1
10
131.270259720617
20
9.67751589161347
30
0
41
1
10
131.368879504879
20
9.7235
30
0
41
1
10
131.467499289141
20
9.7235
30
0
0
SPLINE
5
FB
100
AcDbEntity
8
1
62
256
6
ByLayer
370
13
48
1
60
0
100
AcDbSpline
70
4
71
3
72
8
73
4
40
0
40
0
40
0
40
0
40
1
40
1
40
1
40
1
41
1
10
131.960935427113
20
-8.75030378613951
30
0
41
1
10
133.140623618075
20
-5.82853383539046
30
0
41
1
10
134.320311809037
20
-2.91174765091103
30
0
41
1
10
135.5
20
-3.695E-13
30
0
0
SPLINE
5
FC
100
AcDbEntity
8
1
62
256
6
ByLayer
370
13
48
1
60
0
100
AcDbSpline
70
4
71
3
72
8
73
4
40
0
40
0
40
0
40
0
40
1
40
1
40
1
40
1
41
1
10
131.960935427113
20
-9.52344357162349
30
0
41
1
10
133.140623618075
20
-6.34664752298227
30
0
41
1
10
134.320311809037
20
-3.17214645714043
30
0
41
1
10
135.5
20
2.274E-13
30
0
0
SPLINE
5
FD
100
AcDbEntity
8
1
62
256
6
ByLayer
370
13
48
1
60
0
100
AcDbSpline
70
4
71
3
72
8
73
4
40
0
40
0
40
0
40
0
40
1
40
1
40
1
40
1
41
1
10
131.960935427113
20
-3.56593631895242
30
0
41
1
10
133.140623618075
20
-2.3666193915999
30
0
41
1
10
134.320311809038
20
-1.1779665303545
30
0
41
1
10
135.5
20
8.53E-14
30
0
0
SPLINE
5
FE
100
AcDbEntity
8
1
62
256
6
ByLayer
370
13
48
1
60
0
100
AcDbSpline
70
4
71
3
72
8
73
4
40
0
40
0
40
0
40
0
40
1
40
1
40
1
40
1
41
1
10
131.960935427113
20
2.02885772749465
30
0
41
1
10
133.140623618075
20
1.34135359839266
30
0
41
1
10
134.320311809037
20
0.665063477417078
30
0
41
1
10
135.5
20
-5.68E-14
30
0
0
SPLINE
5
FF
100
AcDbEntity
8
1
62
256
6
ByLayer
370
13
48
1
60
0
100
AcDbSpline
70
4
71
3
72
8
73
4
40
0
40
0
40
0
40
0
40
1
40
1
40
1
40
1
41
1
10
131.960935427113
20
-9.71373389550843
30
0
41
1
10
133.140623618075
20
-6.47633657573388
30
0
41
1
10
134.320311809038
20
-3.23840499879506
30
0
41
1
10
135.5
20
8.527E-13
30
0
0
SPLINE
5
100
100
AcDbEntity
8
1
62
256
6
ByLayer
370
13
48
1
60
0
100
AcDbSpline
70
4
71
3
72
8
73
4
40
0
40
0
40
0
40
0
40
1
40
1
40
1
40
1
41
1
10
131.960935427113
20
-7.65227687979163
30
0
41
1
10
133.140623618075
20
-5.10859497843811
30
0
41
1
10
134.320311809037
20
-2.55782002965103
30
0
41
1
10
135.5
20
-3.126E-13
30
0
0
SPLINE
5
101
100
AcDbEntity
8
1
62
256
6
ByLayer
370
13
48
1
60
0
100
AcDbSpline
70
4
71
3
72
8
73
4
40
0
40
0
40
0
40
0
40
1
40
1
40
1
40
1
41
1
10
131.960935427113
20
-9.30952869594822
30
0
41
1
10
133.140623618075
20
-6.20966382323013
30
0
41
1
10
134.320311809037
20
-3.10646815074807
30
0
41
1
10
135.5
20
2.274E-13
30
0
0
SPLINE
5
102
100
AcDbEntity
8
1
62
256
6
ByLayer
370
13
48
1
60
0
100
AcDbSpline
70
4
71
3
72
8
73
4
40
0
40
0
40
0
40
0
40
1
40
1
40
1
40
1
41
1
10
131.960935427113
20
4.30125116671294
30
0
41
1
10
133.140623618075
20
2.85721340363611
30
0
41
1
10
134.320311809037
20
1.42345405736992
30
0
41
1
10
135.5
20
-8.53E-14
30
0
0
SPLINE
5
103
100
AcDbEntity
8
1
62
256
6
ByLayer
370
13
48
1
60
0
100
AcDbSpline
70
4
71
3
72
8
73
4
40
0
40
0
40
0
40
0
40
1
40
1
40
1
40
1
41
1
10
131.960935427113
20
9.07075621114893
30
0
41
1
10
133.140623618075
20
6.04303889434709
30
0
41
1
10
134.320311809038
20
3.01943456410504
30
0
41
1
10
135.500000000001
20
-1.3642E-12
30
0
0
SPLINE
5
104
100
AcDbEntity
8
1
62
256
6
ByLayer
370
13
48
1
60
0
100
AcDbSpline
70
4
71
3
72
8
73
4
40
0
40
0
40
0
40
0
40
1
40
1
40
1
40
1
41
1
10
131.960935427113
20
8.72076372691689
30
0
41
1
10
133.140623618075
20
5.81891579293068
30
0
41
1
10
134.320311809037
20
2.91197633549115
30
0
41
1
10
135.5
20
0
30
0
0
SPLINE
5
105
100
AcDbEntity
8
1
62
256
6
ByLayer
370
13
48
1
60
0
100
AcDbSpline
70
4
71
3
72
8
73
4
40
0
40
0
40
0
40
0
40
1
40
1
40
1
40
1
41
1
10
131.960935427113
20
0.83700432092644
30
0
41
1
10
133.140623618075
20
0.546574759661468
30
0
41
1
10
134.320311809037
20
0.267571595967183
30
0
41
1
10
135.5
20
-2.84E-14
30
0
0
SPLINE
5
106
100
AcDbEntity
8
1
62
256
6
ByLayer
370
13
48
1
60
0
100
AcDbSpline
70
4
71
3
72
8
73
4
40
0
40
0
40
0
40
0
40
1
40
1
40
1
40
1
41
1
10
131.960935427113
20
-7.44163188853429
30
0
41
1
10
133.140623618075
20
-4.95370487119482
30
0
41
1
10
134.320311809037
20
-2.47314538939895
30
0
41
1
10
135.5
20
1.705E-13
30
0
0
SPLINE
5
107
100
AcDbEntity
8
1
62
256
6
ByLayer
370
13
48
1
60
0
100
AcDbSpline
70
4
71
3
72
8
73
4
40
0
40
0
40
0
40
0
40
1
40
1
40
1
40
1
41
1
10
131.960935427113
20
2.35440190111945
30
0
41
1
10
133.140623618075
20
1.58073062636822
30
0
41
1
10
134.320311809037
20
0.795925054629066
30
0
41
1
10
135.5
20
2.84E-14
30
0
0
SPLINE
5
108
100
AcDbEntity
8
1
62
256
6
ByLayer
370
13
48
1
60
0
100
AcDbSpline
70
4
71
3
72
8
73
4
40
0
40
0
40
0
40
0
40
1
40
1
40
1
40
1
41
1
10
131.960935427113
20
9.68747536145992
30
0
41
1
10
133.140623618075
20
6.45930339318778
30
0
41
1
10
134.320311809037
20
3.23012471476025
30
0
41
1
10
135.5
20
0
30
0
0
SPLINE
5
109
100
AcDbEntity
8
1
62
256
6
ByLayer
370
13
48
1
60
0
100
AcDbSpline
70
4
71
3
72
8
73
4
40
0
40
0
40
0
40
0
40
1
40
1
40
1
40
1
41
1
10
131.960935427113
20
6.31040138851031
30
0
41
1
10
133.140623618075
20
4.19820733379373
30
0
41
1
10
134.320311809037
20
2.09472704958159
30
0
41
1
10
135.5
20
-1.421E-13
30
0
0
SPLINE
5
10A
100
AcDbEntity
8
1
62
256
6
ByLayer
370
13
48
1
60
0
100
AcDbSpline
70
4
71
3
72
8
73
4
40
0
40
0
40
0
40
0
40
1
40
1
40
1
40
1
41
1
10
131.960935427113
20
-1.56676648600509
30
0
41
1
10
133.140623618075
20
-1.05583179972496
30
0
41
1
10
134.320311809037
20
-0.533573010141879
30
0
41
1
10
135.5
20
2.84E-14
30
0
0
SPLINE
5
10B
100
AcDbEntity
8
1
62
256
6
ByLayer
370
13
48
1
60
0
100
AcDbSpline
70
4
71
3
72
8
73
4
40
0
40
0
40
0
40
0
40
1
40
1
40
1
40
1
41
1
10
131.960935427113
20
-0.0336309642661661
30
0
41
1
10
133.140623618075
20
-0.0109500133304152
30
0
41
1
10
134.320311809037
20
0.0002603543512123
30
0
41
1
10
135.5
20
0
30
0
0
SPLINE
5
10C
100
AcDbEntity
8
1
62
256
6
ByLayer
370
13
48
1
60
0
100
AcDbSpline
70
4
71
3
72
8
73
4
40
0
40
0
40
0
40
0
40
1
40
1
40
1
40
1
41
1
10
131.960935427113
20
-2.41960556267426
30
0
41
1
10
133.140623618075
20
-1.60196049529398
30
0
41
1
10
134.320311809037
20
-0.795420280015236
30
0
41
1
10
135.5
20
-2.84E-14
30
0
0
SPLINE
5
10D
100
AcDbEntity
8
1
62
256
6
ByLayer
370
13
48
1
60
0
100
AcDbSpline
70
4
71
3
72
8
73
4
40
0
40
0
40
0
40
0
40
1
40
1
40
1
40
1
41
1
10
131.960935427113
20
-4.94802189025143
30
0
41
1
10
133.140623618075
20
-3.30855571765346
30
0
41
1
10
134.320311809037
20
-1.65920473798994
30
0
41
1
10
135.5
20
1.137E-13
30
0
0
SPLINE
5
10E
100
AcDbEntity
8
1
62
256
6
ByLayer
370
13
48
1
60
0
100
AcDbSpline
70
4
71
3
72
8
73
4
40
0
40
0
40
0
40
0
40
1
40
1
40
1
40
1
41
1
10
131.960935427113
20
3.50327586091882
30
0
41
1
10
133.140623618075
20
2.34621757245114
30
0
41
1
10
134.320311809037
20
1.17845161674006
30
0
41
1
10
135.5
20
2.84E-14
30
0
0
SPLINE
5
10F
100
AcDbEntity
8
1
62
256
6
ByLayer
370
13
48
1
60
0
100
AcDbSpline
70
4
71
3
72
8
73
4
40
0
40
0
40
0
40
0
40
1
40
1
40
1
40
1
41
1
10
131.960935427113
20
4.59834173228535
30
0
41
1
10
133.140623618075
20
3.07566810928933
30
0
41
1
10
134.320311809037
20
1.54287791175113
30
0
41
1
10
135.5
20
5.68E-14
30
0
0
SPLINE
5
110
100
AcDbEntity
8
1
62
256
6
ByLayer
370
13
48
1
60
0
100
AcDbSpline
70
4
71
3
72
8
73
4
40
0
40
0
40
0
40
0
40
1
40
1
40
1
40
1
41
1
10
131.960935427113
20
5.3468886818377
30
0
41
1
10
133.140623618075
20
3.55501172793279
30
0
41
1
10
134.320311809037
20
1.77270435905433
30
0
41
1
10
135.5
20
-1.137E-13
30
0
0
SPLINE
5
111
100
AcDbEntity
8
1
62
256
6
ByLayer
370
13
48
1
60
0
100
AcDbSpline
70
4
71
3
72
8
73
4
40
0
40
0
40
0
40
0
40
1
40
1
40
1
40
1
41
1
10
131.960935427113
20
7.93334529490241
30
0
41
1
10
133.140623618075
20
5.2822644883218
30
0
41
1
10
134.320311809037
20
2.63779950972065
30
0
41
1
10
135.5
20
-1.705E-13
30
0
0
SPLINE
5
112
100
AcDbEntity
8
1
62
256
6
ByLayer
370
13
48
1
60
0
100
AcDbSpline
70
4
71
3
72
8
73
4
40
0
40
0
40
0
40
0
40
1
40
1
40
1
40
1
41
1
10
131.960935427113
20
8.1218356352484
30
0
41
1
10
133.140623618075
20
5.42086398150809
30
0
41
1
10
134.320311809037
20
2.71356846897518
30
0
41
1
10
135.5
20
-5.68E-14
30
0
0
SPLINE
5
113
100
AcDbEntity
8
1
62
256
6
ByLayer
370
13
48
1
60
0
100
AcDbSpline
70
4
71
3
72
8
73
4
40
0
40
0
40
0
40
0
40
1
40
1
40
1
40
1
41
1
10
131.960935427113
20
-0.367704939507462
30
0
41
1
10
133.140623618075
20
-0.256599119646182
30
0
41
1
10
134.320311809037
20
-0.134030014967209
30
0
41
1
10
135.5
20
0
30
0
0
SPLINE
5
114
100
AcDbEntity
8
1
62
256
6
ByLayer
370
13
48
1
60
0
100
AcDbSpline
70
4
71
3
72
8
73
4
40
0
40
0
40
0
40
0
40
1
40
1
40
1
40
1
41
1
10
131.960935427113
20
-4.65749656202718
30
0
41
1
10
133.140623618075
20
-3.09492851969876
30
0
41
1
10
134.320311809037
20
-1.54241996421217
30
0
41
1
10
135.5
20
1.137E-13
30
0
0
SPLINE
5
115
100
AcDbEntity
8
1
62
256
6
ByLayer
370
13
48
1
60
0
100
AcDbSpline
70
4
71
3
72
8
73
4
40
0
40
0
40
0
40
0
40
1
40
1
40
1
40
1
41
1
10
131.960935427113
20
-8.89082604164759
30
0
41
1
10
133.140623618075
20
-5.93186174789238
30
0
41
1
10
134.320311809038
20
-2.96823449810034
30
0
41
1
10
135.5
20
7.674E-13
30
0
0
SPLINE
5
116
100
AcDbEntity
8
1
62
256
6
ByLayer
370
13
48
1
60
0
100
AcDbSpline
70
4
71
3
72
8
73
4
40
0
40
0
40
0
40
0
40
1
40
1
40
1
40
1
41
1
10
131.960935427113
20
-1.23611120431116
30
0
41
1
10
133.140623618075
20
-0.812696504950708
30
0
41
1
10
134.320311809037
20
-0.400656880222812
30
0
41
1
10
135.5
20
-5.68E-14
30
0
0
SPLINE
5
117
100
AcDbEntity
8
1
62
256
6
ByLayer
370
13
48
1
60
0
100
AcDbSpline
70
4
71
3
72
8
73
4
40
0
40
0
40
0
40
0
40
1
40
1
40
1
40
1
41
1
10
131.960935427113
20
-9.58524291221917
30
0
41
1
10
133.140623618075
20
-6.39208941284295
30
0
41
1
10
134.320311809037
20
-3.19698842894093
30
0
41
1
10
135.5
20
2.274E-13
30
0
0
SPLINE
5
118
100
AcDbEntity
8
1
62
256
6
ByLayer
370
13
48
1
60
0
100
AcDbSpline
70
4
71
3
72
8
73
4
40
0
40
0
40
0
40
0
40
1
40
1
40
1
40
1
41
1
10
131.960935427113
20
-3.8746487631258
30
0
41
1
10
133.140623618075
20
-2.59361982156446
30
0
41
1
10
134.320311809037
20
-1.30206212358735
30
0
41
1
10
135.5
20
8.53E-14
30
0
0
SPLINE
5
119
100
AcDbEntity
8
1
62
256
6
ByLayer
370
13
48
1
60
0
100
AcDbSpline
70
4
71
3
72
8
73
4
40
0
40
0
40
0
40
0
40
1
40
1
40
1
40
1
41
1
10
131.960935427113
20
-6.61034157531824
30
0
41
1
10
133.140623618075
20
-4.39848213661242
30
0
41
1
10
134.320311809037
20
-2.1950211633507
30
0
41
1
10
135.5
20
1.421E-13
30
0
0
SPLINE
5
11A
100
AcDbEntity
8
1
62
256
6
ByLayer
370
13
48
1
60
0
100
AcDbSpline
70
4
71
3
72
8
73
4
40
0
40
0
40
0
40
0
40
1
40
1
40
1
40
1
41
1
10
131.960935427113
20
-9.6930281060589
30
0
41
1
10
133.140623618075
20
-6.46111132907959
30
0
41
1
10
134.320311809038
20
-3.23008172814761
30
0
41
1
10
135.5
20
8.527E-13
30
0
0
SPLINE
5
11B
100
AcDbEntity
8
1
62
256
6
ByLayer
370
13
48
1
60
0
100
AcDbSpline
70
4
71
3
72
8
73
4
40
0
40
0
40
0
40
0
40
1
40
1
40
1
40
1
41
1
10
131.960935427113
20
-5.67752062101735
30
0
41
1
10
133.140623618075
20
-3.77570151473447
30
0
41
1
10
134.320311809037
20
-1.88318280871008
30
0
41
1
10
135.5
20
1.421E-13
30
0
0
SPLINE
5
11C
100
AcDbEntity
8
1
62
256
6
ByLayer
370
13
48
1
60
0
100
AcDbSpline
70
4
71
3
72
8
73
4
40
0
40
0
40
0
40
0
40
1
40
1
40
1
40
1
41
1
10
131.960935427113
20
-8.15862347032299
30
0
41
1
10
133.140623618075
20
-5.43284185051226
30
0
41
1
10
134.320311809037
20
-2.71328367568591
30
0
41
1
10
135.5
20
1.99E-13
30
0
0
SPLINE
5
11D
100
AcDbEntity
8
1
62
256
6
ByLayer
370
13
48
1
60
0
100
AcDbSpline
70
4
71
3
72
8
73
4
40
0
40
0
40
0
40
0
40
1
40
1
40
1
40
1
41
1
10
131.960935427113
20
3.18954917013175
30
0
41
1
10
133.140623618075
20
2.11553009922426
30
0
41
1
10
134.320311809037
20
1.05234040696851
30
0
41
1
10
135.5
20
-8.53E-14
30
0
0
SPLINE
5
11E
100
AcDbEntity
8
1
62
256
6
ByLayer
370
13
48
1
60
0
100
AcDbSpline
70
4
71
3
72
8
73
4
40
0
40
0
40
0
40
0
40
1
40
1
40
1
40
1
41
1
10
131.960935427113
20
-5.94539654908385
30
0
41
1
10
133.140623618075
20
-3.97267430282883
30
0
41
1
10
134.320311809037
20
-1.99086302320623
30
0
41
1
10
135.5
20
1.421E-13
30
0
0
SPLINE
5
11F
100
AcDbEntity
8
1
62
256
6
ByLayer
370
13
48
1
60
0
100
AcDbSpline
70
4
71
3
72
8
73
4
40
0
40
0
40
0
40
0
40
1
40
1
40
1
40
1
41
1
10
131.960935427113
20
7.39816131534991
30
0
41
1
10
133.140623618075
20
4.93955114809361
30
0
41
1
10
134.320311809037
20
2.47348191715324
30
0
41
1
10
135.5
20
-5.68E-14
30
0
0
SPLINE
5
120
100
AcDbEntity
8
1
62
256
6
ByLayer
370
13
48
1
60
0
100
AcDbSpline
70
4
71
3
72
8
73
4
40
0
40
0
40
0
40
0
40
1
40
1
40
1
40
1
41
1
10
131.960935427113
20
8.56784910873975
30
0
41
1
10
133.140623618075
20
5.70647560877427
30
0
41
1
10
134.320311809038
20
2.85050803184774
30
0
41
1
10
135.500000000001
20
-1.3074E-12
30
0
0
SPLINE
5
121
100
AcDbEntity
8
1
62
256
6
ByLayer
370
13
48
1
60
0
100
AcDbSpline
70
4
71
3
72
8
73
4
40
0
40
0
40
0
40
0
40
1
40
1
40
1
40
1
41
1
10
131.960935427113
20
1.16936582599388
30
0
41
1
10
133.140623618075
20
0.790964663528172
30
0
41
1
10
134.320311809038
20
0.401173590047961
30
0
41
1
10
135.5
20
-2.84E-14
30
0
0
SPLINE
5
122
100
AcDbEntity
8
1
62
256
6
ByLayer
370
13
48
1
60
0
100
AcDbSpline
70
4
71
3
72
8
73
4
40
0
40
0
40
0
40
0
40
1
40
1
40
1
40
1
41
1
10
131.960935427113
20
9.43434226898745
30
0
41
1
10
133.140623618075
20
6.28678494709612
30
0
41
1
10
134.320311809037
20
3.14198450242856
30
0
41
1
10
135.5
20
-2.274E-13
30
0
0
SPLINE
5
123
100
AcDbEntity
8
1
62
256
6
ByLayer
370
13
48
1
60
0
100
AcDbSpline
70
4
71
3
72
8
73
4
40
0
40
0
40
0
40
0
40
1
40
1
40
1
40
1
41
1
10
131.960935427113
20
-9.20758500276105
30
0
41
1
10
133.140623618075
20
-6.13470324868132
30
0
41
1
10
134.320311809037
20
-3.06548903467723
30
0
41
1
10
135.5
20
-3.695E-13
30
0
0
SPLINE
5
124
100
AcDbEntity
8
1
62
256
6
ByLayer
370
13
48
1
60
0
100
AcDbSpline
70
4
71
3
72
8
73
4
40
0
40
0
40
0
40
0
40
1
40
1
40
1
40
1
41
1
10
131.960935427113
20
-8.33556595570786
30
0
41
1
10
133.140623618075
20
-5.56295004996926
30
0
41
1
10
134.320311809037
20
-2.78441065195904
30
0
41
1
10
135.5
20
1.99E-13
30
0
0
SPLINE
5
125
100
AcDbEntity
8
1
62
256
6
ByLayer
370
13
48
1
60
0
100
AcDbSpline
70
4
71
3
72
8
73
4
40
0
40
0
40
0
40
0
40
1
40
1
40
1
40
1
41
1
10
131.960935427113
20
7.17699034454492
30
0
41
1
10
133.140623618075
20
4.77692114591517
30
0
41
1
10
134.320311809037
20
2.38457606529667
30
0
41
1
10
135.5
20
-1.705E-13
30
0
0
SPLINE
5
126
100
AcDbEntity
8
1
62
256
6
ByLayer
370
13
48
1
60
0
100
AcDbSpline
70
4
71
3
72
8
73
4
40
0
40
0
40
0
40
0
40
1
40
1
40
1
40
1
41
1
10
131.960935427113
20
-6.85145369939508
30
0
41
1
10
133.140623618075
20
-4.57577513813581
30
0
41
1
10
134.320311809037
20
-2.29194291897696
30
0
41
1
10
135.5
20
1.705E-13
30
0
0
SPLINE
5
127
100
AcDbEntity
8
1
62
256
6
ByLayer
370
13
48
1
60
0
100
AcDbSpline
70
4
71
3
72
8
73
4
40
0
40
0
40
0
40
0
40
1
40
1
40
1
40
1
41
1
10
131.960935427113
20
9.65302283172105
30
0
41
1
10
133.140623618075
20
6.43396998272206
30
0
41
1
10
134.320311809037
20
3.2162755577306
30
0
41
1
10
135.5
20
-2.274E-13
30
0
0
SPLINE
5
128
100
AcDbEntity
8
1
62
256
6
ByLayer
370
13
48
1
60
0
100
AcDbSpline
70
4
71
3
72
8
73
4
40
0
40
0
40
0
40
0
40
1
40
1
40
1
40
1
41
1
10
131.960935427113
20
9.50964192363051
30
0
41
1
10
133.140623618075
20
6.34215380022403
30
0
41
1
10
134.320311809037
20
3.17225330269747
30
0
41
1
10
135.5
20
0
30
0
0
SPLINE
5
129
100
AcDbEntity
8
1
62
256
6
ByLayer
370
13
48
1
60
0
100
AcDbSpline
70
4
71
3
72
8
73
4
40
0
40
0
40
0
40
0
40
1
40
1
40
1
40
1
41
1
10
131.960935427113
20
6.56085594437212
30
0
41
1
10
133.140623618075
20
4.38236995159642
30
0
41
1
10
134.320311809037
20
2.19540425671787
30
0
41
1
10
135.5
20
5.68E-14
30
0
0
SPLINE
5
12A
100
AcDbEntity
8
1
62
256
6
ByLayer
370
13
48
1
60
0
100
AcDbSpline
70
4
71
3
72
8
73
4
40
0
40
0
40
0
40
0
40
1
40
1
40
1
40
1
41
1
10
131.960935427113
20
-2.74176349605756
30
0
41
1
10
133.140623618075
20
-1.83884757508216
30
0
41
1
10
134.320311809037
20
-0.924920663340913
30
0
41
1
10
135.5
20
5.68E-14
30
0
0
SPLINE
5
12B
100
AcDbEntity
8
1
62
256
6
ByLayer
370
13
48
1
60
0
100
AcDbSpline
70
4
71
3
72
8
73
4
40
0
40
0
40
0
40
0
40
1
40
1
40
1
40
1
41
1
10
131.960935427113
20
9.18574643590668
30
0
41
1
10
133.140623618075
20
6.1275927597793
30
0
41
1
10
134.320311809037
20
3.06565809809894
30
0
41
1
10
135.5
20
0
30
0
0
SPLINE
5
12C
100
AcDbEntity
8
1
62
256
6
ByLayer
370
13
48
1
60
0
100
AcDbSpline
70
4
71
3
72
8
73
4
40
0
40
0
40
0
40
0
40
1
40
1
40
1
40
1
41
1
10
131.960935427113
20
5.62278000011796
30
0
41
1
10
133.140623618075
20
3.75787834071483
30
0
41
1
10
134.320311809037
20
1.88360658361953
30
0
41
1
10
135.5
20
-1.421E-13
30
0
0
LINE
5
7D
100
AcDbEntity
8
80
62
256
6
ByLayer
370
18
48
1
60
0
100
AcDbLine
10
0
20
0
30
0
11
-5
21
0
31
0
39
0
210
0
220
0
230
1
0
LINE
5
7E
100
AcDbEntity
8
4
62
256
6
ByLayer
370
18
48
0.05
60
0
100
AcDbLine
10
-5
20
0
30
0
11
140.5
21
0
31
0
39
0
210
0
220
0
230
1
0
LINE
5
80
100
AcDbEntity
8
81
62
256
6
ByLayer
370
18
48
1
60
0
100
AcDbLine
10
135.5
20
0
30
0
11
140.5
21
0
31
0
39
0
210
0
220
0
230
1
0
LINE
5
81
100
AcDbEntity
8
SK4
62
256
6
ByLayer
370
18
48
0.05
60
0
100
AcDbLine
10
-61
20
0
30
0
11
140.5
21
0
31
0
39
0
210
0
220
0
230
1
0
LINE
5
83
100
AcDbEntity
8
1
62
256
6
ByLayer
370
18
48
1
60
0
100
AcDbLine
10
41.810925
20
-9.2
30
0
11
85.647958
21
-9.2
31
0
39
0
210
0
220
0
230
1
0
LINE
5
84
100
AcDbEntity
8
1
62
256
6
ByLayer
370
18
48
1
60
0
100
AcDbLine
10
85.647958
20
9.2
30
0
11
41.810925
21
9.2
31
0
39
0
210
0
220
0
230
1
0
LINE
5
85
100
AcDbEntity
8
1
62
256
6
ByLayer
370
18
48
1
60
0
100
AcDbLine
10
135.5
20
0
30
0
11
131.960935
21
9.7235
31
0
39
0
210
0
220
0
230
1
0
LINE
5
86
100
AcDbEntity
8
1
62
256
6
ByLayer
370
18
48
1
60
0
100
AcDbLine
10
131.960935
20
-9.7235
30
0
11
135.5
21
0
31
0
39
0
210
0
220
0
230
1
0
LINE
5
87
100
AcDbEntity
8
1
62
256
6
ByLayer
370
18
48
1
60
0
100
AcDbLine
10
5.717872
20
10.698745
30
0
11
0
21
12.7
31
0
39
0
210
0
220
0
230
1
0
LINE
5
88
100
AcDbEntity
8
1
62
256
6
ByLayer
370
18
48
1
60
0
100
AcDbLine
10
0
20
-12.7
30
0
11
5.717872
21
-10.698745
31
0
39
0
210
0
220
0
230
1
0
LINE
5
89
100
AcDbEntity
8
1
62
256
6
ByLayer
370
18
48
1
60
0
100
AcDbLine
10
135.5
20
0
30
0
11
131.960935
21
9.7235
31
0
39
0
210
0
220
0
230
1
0
LINE
5
8A
100
AcDbEntity
8
1
62
256
6
ByLayer
370
18
48
1
60
0
100
AcDbLine
10
131.960935
20
-9.7235
30
0
11
135.5
21
0
31
0
39
0
210
0
220
0
230
1
0
LINE
5
8B
100
AcDbEntity
8
1
62
256
6
ByLayer
370
18
48
1
60
0
100
AcDbLine
10
122
20
-9.7235
30
0
11
131.960935
21
-9.7235
31
0
39
0
210
0
220
0
230
1
0
LINE
5
8C
100
AcDbEntity
8
SK1
62
256
6
ByLayer
370
18
48
1
60
0
100
AcDbLine
10
-56
20
-11.7
30
0
11
-55
21
-12.7
31
0
39
0
210
0
220
0
230
1
0
LINE
5
8E
100
AcDbEntity
8
SK1
62
256
6
ByLayer
370
18
48
1
60
0
100
AcDbLine
10
-55
20
12.7
30
0
11
-56
21
11.7
31
0
39
0
210
0
220
0
230
1
0
LINE
5
8F
100
AcDbEntity
8
SK1
62
256
6
ByLayer
370
18
48
1
60
0
100
AcDbLine
10
-55
20
-12.7
30
0
11
0
21
-12.7
31
0
39
0
210
0
220
0
230
1
0
LINE
5
90
100
AcDbEntity
8
SK1
62
256
6
ByLayer
370
18
48
1
60
0
100
AcDbLine
10
0
20
12.7
30
0
11
-55
21
12.7
31
0
39
0
210
0
220
0
230
1
0
LINE
5
91
100
AcDbEntity
8
1
62
256
6
ByLayer
370
18
48
1
60
0
100
AcDbLine
10
0
20
12.7
30
0
11
0
21
-12.7
31
0
39
0
210
0
220
0
230
1
0
LINE
5
92
100
AcDbEntity
8
1
62
256
6
ByLayer
370
18
48
1
60
0
100
AcDbLine
10
131.960935
20
9.7235
30
0
11
131.960935
21
9.414743
31
0
39
0
210
0
220
0
230
1
0
LINE
5
93
100
AcDbEntity
8
1
62
256
6
ByLayer
370
18
48
1
60
0
100
AcDbLine
10
131.960935
20
-9.7235
30
0
11
131.960935
21
-1.387972
31
0
39
0
210
0
220
0
230
1
0
LINE
5
94
100
AcDbEntity
8
1
62
256
6
ByLayer
370
18
48
1
60
0
100
AcDbLine
10
10
20
-5.181549
30
0
11
10
21
8.857858
31
0
39
0
210
0
220
0
230
1
0
LINE
5
95
100
AcDbEntity
8
SK1
62
256
6
ByLayer
370
18
48
1
60
0
100
AcDbLine
10
-9.573685
20
-7.42967
30
0
11
-9.573685
21
7.42967
31
0
39
0
210
0
220
0
230
1
0
LINE
5
96
100
AcDbEntity
8
SK1
62
256
6
ByLayer
370
18
48
1
60
0
100
AcDbLine
10
-56
20
-11.7
30
0
11
-56
21
11.7
31
0
39
0
210
0
220
0
230
1
0
LINE
5
97
100
AcDbEntity
8
SK1
62
256
6
ByLayer
370
18
48
1
60
0
100
AcDbLine
10
0
20
12.7
30
0
11
0
21
-12.7
31
0
39
0
210
0
220
0
230
1
0
LINE
5
98
100
AcDbEntity
8
SK1
62
256
6
ByLayer
370
18
48
1
60
0
100
AcDbLine
10
-55
20
-12.7
30
0
11
-55
21
12.7
31
0
39
0
210
0
220
0
230
1
0
LINE
5
99
100
AcDbEntity
8
SK1
62
256
6
ByLayer
370
18
48
1
60
0
100
AcDbLine
10
-9.573685
20
-7.42967
30
0
11
-46.761964
21
-7.42967
31
0
39
0
210
0
220
0
230
1
0
LINE
5
9A
100
AcDbEntity
8
SK1
62
256
6
ByLayer
370
18
48
1
60
0
100
AcDbLine
10
-46.761964
20
7.42967
30
0
11
-9.573685
21
7.42967
31
0
39
0
210
0
220
0
230
1
0
LINE
5
9B
100
AcDbEntity
8
SK1
62
256
6
ByLayer
370
18
48
1
60
0
100
AcDbLine
10
-46.761964
20
-7.42967
30
0
11
-46.761964
21
7.42967
31
0
39
0
210
0
220
0
230
1
0
LINE
5
9C
100
AcDbEntity
8
1
62
256
6
ByLayer
370
18
48
1
60
0
100
AcDbLine
10
131.960935
20
9.7235
30
0
11
131.960935
21
-9.7235
31
0
39
0
210
0
220
0
230
1
0
LINE
5
9D
100
AcDbEntity
8
1
62
256
6
ByLayer
370
18
48
1
60
0
100
AcDbLine
10
131.960935
20
9.7235
30
0
11
131.960935
21
-9.7235
31
0
39
0
210
0
220
0
230
1
0
LINE
5
9E
100
AcDbEntity
8
1
62
256
6
ByLayer
370
18
48
1
60
0
100
AcDbLine
10
131.960935
20
9.7235
30
0
11
131.960935
21
-9.7235
31
0
39
0
210
0
220
0
230
1
0
LINE
5
9F
100
AcDbEntity
8
1
62
256
6
ByLayer
370
18
48
1
60
0
100
AcDbLine
10
122
20
9.7235
30
0
11
122
21
-9.7235
31
0
39
0
210
0
220
0
230
1
0
LINE
5
A0
100
AcDbEntity
8
1
62
256
6
ByLayer
370
18
48
1
60
0
100
AcDbLine
10
122
20
9.7235
30
0
11
122
21
-9.7235
31
0
39
0
210
0
220
0
230
1
0
LINE
5
A1
100
AcDbEntity
8
1
62
256
6
ByLayer
370
18
48
1
60
0
100
AcDbLine
10
131.960935
20
9.7235
30
0
11
131.960935
21
-9.7235
31
0
39
0
210
0
220
0
230
1
0
LINE
5
A2
100
AcDbEntity
8
1
62
256
6
ByLayer
370
18
48
1
60
0
100
AcDbLine
10
122
20
9.7235
30
0
11
122
21
-9.7235
31
0
39
0
210
0
220
0
230
1
0
LINE
5
A3
100
AcDbEntity
8
1
62
256
6
ByLayer
370
18
48
1
60
0
100
AcDbLine
10
131.960935
20
9.7235
30
0
11
131.960935
21
-9.7235
31
0
39
0
210
0
220
0
230
1
0
LINE
5
A4
100
AcDbEntity
8
SK2
62
256
6
ByLayer
370
13
48
1
60
0
100
AcDbLine
10
-62.5
20
-12.7
30
0
11
-62.5
21
42.040455
31
0
39
0
210
0
220
0
230
1
0
LINE
5
A6
100
AcDbEntity
8
SK2
62
256
6
ByLayer
370
13
48
1
60
0
100
AcDbLine
10
-57.5875
20
12.7
30
0
11
-64.5
21
12.7
31
0
39
0
210
0
220
0
230
1
0
LINE
5
A7
100
AcDbEntity
8
SK2
62
256
6
ByLayer
370
13
48
1
60
0
100
AcDbLine
10
-57.5875
20
-12.7
30
0
11
-64.5
21
-12.7
31
0
39
0
210
0
220
0
230
1
0
LINE
5
A8
100
AcDbEntity
8
1
62
256
6
ByLayer
370
18
48
1
60
1
100
AcDbLine
10
-62.5
20
12.7
30
0
11
-62.039216
21
9.200002
31
0
39
0
210
0
220
0
230
1
0
LINE
5
A9
100
AcDbEntity
8
1
62
256
6
ByLayer
370
18
48
1
60
1
100
AcDbLine
10
-62.039216
20
9.200002
30
0
11
-62.960784
21
9.199998
31
0
39
0
210
0
220
0
230
1
0
LINE
5
AA
100
AcDbEntity
8
1
62
256
6
ByLayer
370
18
48
1
60
1
100
AcDbLine
10
-62.960784
20
9.199998
30
0
11
-62.5
21
12.7
31
0
39
0
210
0
220
0
230
1
0
LINE
5
AB
100
AcDbEntity
8
1
62
256
6
ByLayer
370
18
48
1
60
1
100
AcDbLine
10
-62.5
20
-12.7
30
0
11
-62.960784
21
-9.200002
31
0
39
0
210
0
220
0
230
1
0
LINE
5
AC
100
AcDbEntity
8
1
62
256
6
ByLayer
370
18
48
1
60
1
100
AcDbLine
10
-62.960784
20
-9.200002
30
0
11
-62.039216
21
-9.199998
31
0
39
0
210
0
220
0
230
1
0
LINE
5
AD
100
AcDbEntity
8
1
62
256
6
ByLayer
370
18
48
1
60
1
100
AcDbLine
10
-62.039216
20
-9.199998
30
0
11
-62.5
21
-12.7
31
0
39
0
210
0
220
0
230
1
0
LINE
5
AE
100
AcDbEntity
8
2
62
256
6
ByLayer
370
13
48
1
60
0
100
AcDbLine
10
143
20
-9.7235
30
0
11
143
21
38.629955
31
0
39
0
210
0
220
0
230
1
0
LINE
5
B0
100
AcDbEntity
8
2
62
256
6
ByLayer
370
13
48
1
60
0
100
AcDbLine
10
133.548435
20
9.7235
30
0
11
145
21
9.7235
31
0
39
0
210
0
220
0
230
1
0
LINE
5
B1
100
AcDbEntity
8
2
62
256
6
ByLayer
370
13
48
1
60
0
100
AcDbLine
10
133.548435
20
-9.7235
30
0
11
145
21
-9.7235
31
0
39
0
210
0
220
0
230
1
0
LINE
5
B2
100
AcDbEntity
8
1
62
256
6
ByLayer
370
18
48
1
60
1
100
AcDbLine
10
143
20
9.7235
30
0
11
143.460784
21
6.223502
31
0
39
0
210
0
220
0
230
1
0
LINE
5
B3
100
AcDbEntity
8
1
62
256
6
ByLayer
370
18
48
1
60
1
100
AcDbLine
10
143.460784
20
6.223502
30
0
11
142.539216
21
6.223498
31
0
39
0
210
0
220
0
230
1
0
LINE
5
B4
100
AcDbEntity
8
1
62
256
6
ByLayer
370
18
48
1
60
1
100
AcDbLine
10
142.539216
20
6.223498
30
0
11
143
21
9.7235
31
0
39
0
210
0
220
0
230
1
0
LINE
5
B5
100
AcDbEntity
8
1
62
256
6
ByLayer
370
18
48
1
60
1
100
AcDbLine
10
143
20
-9.7235
30
0
11
142.539216
21
-6.223502
31
0
39
0
210
0
220
0
230
1
0
LINE
5
B6
100
AcDbEntity
8
1
62
256
6
ByLayer
370
18
48
1
60
1
100
AcDbLine
10
142.539216
20
-6.223502
30
0
11
143.460784
21
-6.223498
31
0
39
0
210
0
220
0
230
1
0
LINE
5
B7
100
AcDbEntity
8
1
62
256
6
ByLayer
370
18
48
1
60
1
100
AcDbLine
10
143.460784
20
-6.223498
30
0
11
143
21
-9.7235
31
0
39
0
210
0
220
0
230
1
0
LINE
5
B8
100
AcDbEntity
8
SK2
62
256
6
ByLayer
370
13
48
1
60
0
100
AcDbLine
10
136.042957
20
-1.491762
30
0
11
142.682423
21
-19.733545
31
0
39
0
210
0
220
0
230
1
0
LINE
5
B9
100
AcDbEntity
8
SK2
62
256
6
ByLayer
370
13
48
1
60
0
100
AcDbLine
10
136.042957
20
1.491762
30
0
11
142.682423
21
19.733545
31
0
39
0
210
0
220
0
230
1
0
LINE
5
BA
100
AcDbEntity
8
1
62
256
6
ByLayer
370
18
48
1
60
1
100
AcDbLine
10
141.998383
20
-17.85416
30
0
11
145.051575
21
-16.082064
31
0
39
0
210
0
220
0
230
1
0
LINE
5
BB
100
AcDbEntity
8
1
62
256
6
ByLayer
370
18
48
1
60
1
100
AcDbLine
10
145.051575
20
-16.082064
30
0
11
145.406196
21
-16.93267
31
0
39
0
210
0
220
0
230
1
0
LINE
5
BC
100
AcDbEntity
8
1
62
256
6
ByLayer
370
18
48
1
60
1
100
AcDbLine
10
145.406196
20
-16.93267
30
0
11
141.998383
21
-17.85416
31
0
39
0
210
0
220
0
230
1
0
LINE
5
BD
100
AcDbEntity
8
1
62
256
6
ByLayer
370
18
48
1
60
1
100
AcDbLine
10
141.998383
20
17.85416
30
0
11
145.406193
21
16.932671
31
0
39
0
210
0
220
0
230
1
0
LINE
5
BE
100
AcDbEntity
8
1
62
256
6
ByLayer
370
18
48
1
60
1
100
AcDbLine
10
145.406193
20
16.932671
30
0
11
145.051579
21
16.082063
31
0
39
0
210
0
220
0
230
1
0
LINE
5
BF
100
AcDbEntity
8
1
62
256
6
ByLayer
370
18
48
1
60
1
100
AcDbLine
10
145.051579
20
16.082063
30
0
11
141.998383
21
17.85416
31
0
39
0
210
0
220
0
230
1
0
LINE
5
131
100
AcDbEntity
8
1
62
256
6
ByLayer
370
18
48
1
60
1
100
AcDbLine
10
-62.5
20
12.7
30
0
11
-62.039216
21
9.200002
31
0
39
0
210
0
220
0
230
1
0
LINE
5
132
100
AcDbEntity
8
1
62
256
6
ByLayer
370
18
48
1
60
1
100
AcDbLine
10
-62.039216
20
9.200002
30
0
11
-62.960784
21
9.199998
31
0
39
0
210
0
220
0
230
1
0
LINE
5
133
100
AcDbEntity
8
1
62
256
6
ByLayer
370
18
48
1
60
1
100
AcDbLine
10
-62.960784
20
9.199998
30
0
11
-62.5
21
12.7
31
0
39
0
210
0
220
0
230
1
0
LINE
5
135
100
AcDbEntity
8
1
62
256
6
ByLayer
370
18
48
1
60
1
100
AcDbLine
10
-62.5
20
-12.7
30
0
11
-62.960784
21
-9.200002
31
0
39
0
210
0
220
0
230
1
0
LINE
5
136
100
AcDbEntity
8
1
62
256
6
ByLayer
370
18
48
1
60
1
100
AcDbLine
10
-62.960784
20
-9.200002
30
0
11
-62.039216
21
-9.199998
31
0
39
0
210
0
220
0
230
1
0
LINE
5
137
100
AcDbEntity
8
1
62
256
6
ByLayer
370
18
48
1
60
1
100
AcDbLine
10
-62.039216
20
-9.199998
30
0
11
-62.5
21
-12.7
31
0
39
0
210
0
220
0
230
1
0
LINE
5
13B
100
AcDbEntity
8
1
62
256
6
ByLayer
370
18
48
1
60
1
100
AcDbLine
10
143
20
9.7235
30
0
11
143.460784
21
6.223502
31
0
39
0
210
0
220
0
230
1
0
LINE
5
13C
100
AcDbEntity
8
1
62
256
6
ByLayer
370
18
48
1
60
1
100
AcDbLine
10
143.460784
20
6.223502
30
0
11
142.539216
21
6.223498
31
0
39
0
210
0
220
0
230
1
0
LINE
5
13D
100
AcDbEntity
8
1
62
256
6
ByLayer
370
18
48
1
60
1
100
AcDbLine
10
142.539216
20
6.223498
30
0
11
143
21
9.7235
31
0
39
0
210
0
220
0
230
1
0
LINE
5
13F
100
AcDbEntity
8
1
62
256
6
ByLayer
370
18
48
1
60
1
100
AcDbLine
10
143
20
-9.7235
30
0
11
142.539216
21
-6.223502
31
0
39
0
210
0
220
0
230
1
0
LINE
5
140
100
AcDbEntity
8
1
62
256
6
ByLayer
370
18
48
1
60
1
100
AcDbLine
10
142.539216
20
-6.223502
30
0
11
143.460784
21
-6.223498
31
0
39
0
210
0
220
0
230
1
0
LINE
5
141
100
AcDbEntity
8
1
62
256
6
ByLayer
370
18
48
1
60
1
100
AcDbLine
10
143.460784
20
-6.223498
30
0
11
143
21
-9.7235
31
0
39
0
210
0
220
0
230
1
0
LINE
5
144
100
AcDbEntity
8
1
62
256
6
ByLayer
370
18
48
1
60
1
100
AcDbLine
10
141.998383
20
-17.85416
30
0
11
145.051575
21
-16.082064
31
0
39
0
210
0
220
0
230
1
0
LINE
5
145
100
AcDbEntity
8
1
62
256
6
ByLayer
370
18
48
1
60
1
100
AcDbLine
10
145.051575
20
-16.082064
30
0
11
145.406196
21
-16.93267
31
0
39
0
210
0
220
0
230
1
0
LINE
5
146
100
AcDbEntity
8
1
62
256
6
ByLayer
370
18
48
1
60
1
100
AcDbLine
10
145.406196
20
-16.93267
30
0
11
141.998383
21
-17.85416
31
0
39
0
210
0
220
0
230
1
0
LINE
5
148
100
AcDbEntity
8
1
62
256
6
ByLayer
370
18
48
1
60
1
100
AcDbLine
10
141.998383
20
17.85416
30
0
11
145.406193
21
16.932671
31
0
39
0
210
0
220
0
230
1
0
LINE
5
149
100
AcDbEntity
8
1
62
256
6
ByLayer
370
18
48
1
60
1
100
AcDbLine
10
145.406193
20
16.932671
30
0
11
145.051579
21
16.082063
31
0
39
0
210
0
220
0
230
1
0
LINE
5
14A
100
AcDbEntity
8
1
62
256
6
ByLayer
370
18
48
1
60
1
100
AcDbLine
10
145.051579
20
16.082063
30
0
11
141.998383
21
17.85416
31
0
39
0
210
0
220
0
230
1
0
MTEXT
5
12D
100
AcDbEntity
8
SK2
62
256
6
ByLayer
370
18
48
1
60
0
100
AcDbMText
10
-63.841114
20
24.358437
30
0
210
0
220
0
230
1
1
%%c
40
3
41
0
44
1.084337
50
90
71
7
72
5
7
iso_b_vert
0
MTEXT
5
130
100
AcDbEntity
8
SK2
62
256
6
ByLayer
370
18
48
1
60
0
100
AcDbMText
10
-63.841114
20
30.335
30
0
210
0
220
0
230
1
1
\W0.7728;25.400
40
3
41
0
44
1.084337
50
90
71
7
72
5
7
iso_b_vert
0
MTEXT
5
139
100
AcDbEntity
8
2
62
256
6
ByLayer
370
18
48
1
60
0
100
AcDbMText
10
141.658886
20
21.381938
30
0
210
0
220
0
230
1
1
%%c
40
3
41
0
44
1.084337
50
90
71
7
72
5
7
iso_b_vert
0
MTEXT
5
13A
100
AcDbEntity
8
2
62
256
6
ByLayer
370
18
48
1
60
0
100
AcDbMText
10
141.658886
20
27.3585
30
0
210
0
220
0
230
1
1
\W0.7452;19.447
40
3
41
0
44
1.084337
50
90
71
7
72
5
7
iso_b_vert
0
MTEXT
5
143
100
AcDbEntity
8
SK2
62
256
6
ByLayer
370
18
48
1
60
0
100
AcDbMText
10
155.409114
20
3.734657
30
0
210
0
220
0
230
1
1
\W0.7071;140%%d
40
3
41
0
44
1.084337
50
270
71
7
72
5
7
iso_b_vert
0
MTEXT
5
14C
100
AcDbEntity
8
SK6
62
256
6
ByLayer
370
18
48
1
60
0
100
AcDbMText
10
10.891717
20
-67.114886
30
0
210
0
220
0
230
1
1
\W0.8039;H85549/64
40
3
41
0
44
1.084337
50
0
71
7
72
5
7
iso_b_vert
0
HATCH
5
134
100
AcDbEntity
8
SK2
62
256
6
ByLayer
370
13
48
1
60
0
100
AcDbHatch
10
0
20
0
30
0
210
0
220
0
230
1
2
ANSI31
70
0
71
0
91
1
92
5
93
3
72
1
10
-62.5
20
12.7
11
-62.0392162584472
21
9.20000169255317
72
1
10
-62.0392162584472
20
9.20000169255317
11
-62.9607837415528
21
9.1999983074468
72
1
10
-62.9607837415528
20
9.1999983074468
11
-62.5
21
12.7
97
0
75
0
76
1
52
0
41
0.0062
77
0
78
1
53
45
43
0
44
0
45
-0.0139193969876572
46
0.0139193969876572
79
0
47
0
98
1
10
0
20
0
0
HATCH
5
138
100
AcDbEntity
8
SK2
62
256
6
ByLayer
370
13
48
1
60
0
100
AcDbHatch
10
0
20
0
30
0
210
0
220
0
230
1
2
ANSI31
70
0
71
0
91
1
92
5
93
3
72
1
10
-62.5
20
-12.7
11
-62.9607837415528
21
-9.2000016925532
72
1
10
-62.9607837415528
20
-9.2000016925532
11
-62.0392162584472
21
-9.19999830744683
72
1
10
-62.0392162584472
20
-9.19999830744683
11
-62.5
21
-12.7
97
0
75
0
76
1
52
0
41
0.0062
77
0
78
1
53
45
43
0
44
0
45
-0.0139193969876572
46
0.0139193969876572
79
0
47
0
98
1
10
0
20
0
0
HATCH
5
13E
100
AcDbEntity
8
2
62
256
6
ByLayer
370
13
48
1
60
0
100
AcDbHatch
10
0
20
0
30
0
210
0
220
0
230
1
2
ANSI31
70
0
71
0
91
1
92
5
93
3
72
1
10
143
20
9.7235
11
143.460783741553
21
6.22350169255319
72
1
10
143.460783741553
20
6.22350169255319
11
142.539216258447
21
6.22349830744682
72
1
10
142.539216258447
20
6.22349830744682
11
143
21
9.7235
97
0
75
0
76
1
52
0
41
0.0062
77
0
78
1
53
45
43
0
44
0
45
-0.0139193969876572
46
0.0139193969876572
79
0
47
0
98
1
10
0
20
0
0
HATCH
5
142
100
AcDbEntity
8
2
62
256
6
ByLayer
370
13
48
1
60
0
100
AcDbHatch
10
0
20
0
30
0
210
0
220
0
230
1
2
ANSI31
70
0
71
0
91
1
92
5
93
3
72
1
10
143
20
-9.7235
11
142.539216258447
21
-6.22350169255319
72
1
10
142.539216258447
20
-6.22350169255319
11
143.460783741553
21
-6.22349830744682
72
1
10
143.460783741553
20
-6.22349830744682
11
143
21
-9.7235
97
0
75
0
76
1
52
0
41
0.0062
77
0
78
1
53
45
43
0
44
0
45
-0.0139193969876572
46
0.0139193969876572
79
0
47
0
98
1
10
0
20
0
0
HATCH
5
147
100
AcDbEntity
8
SK2
62
256
6
ByLayer
370
13
48
1
60
0
100
AcDbHatch
10
0
20
0
30
0
210
0
220
0
230
1
2
ANSI31
70
0
71
0
91
1
92
5
93
3
72
1
10
141.998382723188
20
-17.8541597949323
11
145.051575425693
21
-16.0820638240608
72
1
10
145.051575425693
20
-16.0820638240608
11
145.406195833975
21
-16.9326700737196
72
1
10
145.406195833975
20
-16.9326700737196
11
141.998382723188
21
-17.8541597949323
97
0
75
0
76
1
52
0
41
0.0062
77
0
78
1
53
45
43
0
44
0
45
-0.0139193969876572
46
0.0139193969876572
79
0
47
0
98
1
10
0
20
0
0
HATCH
5
14B
100
AcDbEntity
8
SK2
62
256
6
ByLayer
370
13
48
1
60
0
100
AcDbHatch
10
0
20
0
30
0
210
0
220
0
230
1
2
ANSI31
70
0
71
0
91
1
92
5
93
3
72
1
10
141.998382723188
20
17.8541597949323
11
145.406192709519
21
16.9326713763016
72
1
10
145.406192709519
20
16.9326713763016
11
145.051578550149
21
16.0820625214788
72
1
10
145.051578550149
20
16.0820625214788
11
141.998382723188
21
17.8541597949323
97
0
75
0
76
1
52
0
41
0.0062
77
0
78
1
53
45
43
0
44
0
45
-0.0139193969876572
46
0.0139193969876572
79
0
47
0
98
1
10
0
20
0
0
DIMENSION
5
14F
100
AcDbEntity
8
SK2
62
256
6
ByLayer
370
18
48
1
60
0
100
AcDbDimension
2
_U0
10
135.5
20
-45.952229
30
0
11
39.75
21
-45.952229
31
0
70
32
71
1
72
1
41
1
210
0
220
0
230
1
3
Standard
100
AcDbAlignedDimension
13
-56
23
-12.7
33
0
14
135.5
24
0
34
0
50
0
100
AcDbRotatedDimension
1001
ACAD
1000
DSTYLE
1002
{
1070
   371
1070
    13
1070
   372
1070
    13
1070
     3
1000

1070
   170
1070
     0
1070
   144
1040
1.0
1070
   277
1070
     2
1070
   284
1070
     8
1070
   278
1070
    46
1070
   146
1040
1.166667
1070
   345
1005
16
1070
   347
1005
16
1070
   346
1005
16
1070
   344
1005
0
1070
   343
1005
0
1070
   172
1070
     1
1070
    76
1070
     0
1070
    75
1070
     0
1070
   282
1070
     0
1070
   281
1070
     0
1070
    71
1070
     0
1070
    74
1070
     0
1070
   279
1070
     0
1070
   173
1070
     1
1070
   340
1005
12E
1070
   271
1070
     2
1070
   272
1070
     3
1070
    77
1070
     1
1070
    73
1070
     1
1070
   171
1070
     3
1070
   274
1070
     4
1070
   177
1070
     2
1070
   176
1070
     2
1070
   178
1070
     2
1070
    78
1070
     8
1070
    48
1040
-0.1
1070
    41
1040
3.5
1070
   147
1040
1.5
1070
    42
1040
1.5875
1070
    44
1040
2.0
1070
   140
1040
3.0
1002
}
1001
ACAD_DSTYLE_DIM_LINETYPE
1070
   380
1005
16
1001
ACAD_DSTYLE_DIM_EXT1_LINETYPE
1070
   381
1005
16
1001
ACAD_DSTYLE_DIM_EXT2_LINETYPE
1070
   382
1005
16
0
DIMENSION
5
168
100
AcDbEntity
8
SK2
62
256
6
ByLayer
370
18
48
1
60
0
100
AcDbDimension
2
_U1
10
3
20
-35.952229
30
0
11
69.25
21
-35.952229
31
0
70
32
71
1
72
1
41
1
210
0
220
0
230
1
3
Standard
100
AcDbAlignedDimension
13
135.5
23
0
33
0
14
3
24
-9.7235
34
0
50
0
100
AcDbRotatedDimension
1001
ACAD
1000
DSTYLE
1002
{
1070
   371
1070
    13
1070
   372
1070
    13
1070
     3
1000

1070
   170
1070
     0
1070
   144
1040
1.0
1070
   277
1070
     2
1070
   284
1070
     8
1070
   278
1070
    46
1070
   146
1040
1.166667
1070
   345
1005
16
1070
   347
1005
16
1070
   346
1005
16
1070
   344
1005
0
1070
   343
1005
0
1070
   172
1070
     1
1070
    76
1070
     0
1070
    75
1070
     0
1070
   282
1070
     0
1070
   281
1070
     0
1070
    71
1070
     0
1070
    74
1070
     0
1070
   279
1070
     0
1070
   173
1070
     1
1070
   340
1005
12E
1070
   271
1070
     2
1070
   272
1070
     3
1070
    77
1070
     1
1070
    73
1070
     1
1070
   171
1070
     3
1070
   274
1070
     4
1070
   177
1070
     2
1070
   176
1070
     2
1070
   178
1070
     2
1070
    78
1070
     8
1070
    48
1040
-0.1
1070
    41
1040
3.5
1070
   147
1040
1.5
1070
    42
1040
1.5875
1070
    44
1040
2.0
1070
   140
1040
3.0
1002
}
1001
ACAD_DSTYLE_DIM_LINETYPE
1070
   380
1005
16
1001
ACAD_DSTYLE_DIM_EXT1_LINETYPE
1070
   381
1005
16
1001
ACAD_DSTYLE_DIM_EXT2_LINETYPE
1070
   382
1005
16
0
DIMENSION
5
180
100
AcDbEntity
8
SK2
62
256
6
ByLayer
370
18
48
1
60
0
100
AcDbDimension
2
_U2
10
0
20
-35.952229
30
0
11
-28
21
-35.952229
31
0
70
32
71
1
72
1
41
1
210
0
220
0
230
1
3
Standard
100
AcDbAlignedDimension
13
-56
23
-12.7
33
0
14
0
24
-12.7
34
0
50
0
100
AcDbRotatedDimension
1001
ACAD
1000
DSTYLE
1002
{
1070
   371
1070
    13
1070
   372
1070
    13
1070
     3
1000

1070
   170
1070
     0
1070
   144
1040
1.0
1070
   277
1070
     2
1070
   284
1070
     8
1070
   278
1070
    46
1070
   146
1040
1.166667
1070
   345
1005
16
1070
   347
1005
16
1070
   346
1005
16
1070
   344
1005
0
1070
   343
1005
0
1070
   172
1070
     1
1070
    76
1070
     0
1070
    75
1070
     0
1070
   282
1070
     0
1070
   281
1070
     0
1070
    71
1070
     0
1070
    74
1070
     0
1070
   279
1070
     0
1070
   173
1070
     1
1070
   340
1005
12E
1070
   271
1070
     2
1070
   272
1070
     3
1070
    77
1070
     1
1070
    73
1070
     1
1070
   171
1070
     3
1070
   274
1070
     4
1070
   177
1070
     2
1070
   176
1070
     2
1070
   178
1070
     2
1070
    78
1070
     8
1070
    48
1040
-0.1
1070
    41
1040
3.5
1070
   147
1040
1.5
1070
    42
1040
1.5875
1070
    44
1040
2.0
1070
   140
1040
3.0
1002
}
1001
ACAD_DSTYLE_DIM_LINETYPE
1070
   380
1005
16
1001
ACAD_DSTYLE_DIM_EXT1_LINETYPE
1070
   381
1005
16
1001
ACAD_DSTYLE_DIM_EXT2_LINETYPE
1070
   382
1005
16
0
DIMENSION
5
198
100
AcDbEntity
8
SK2
62
256
6
ByLayer
370
18
48
1
60
0
100
AcDbDimension
2
_U3
10
27
20
32.952229
30
0
11
81.25
21
32.952229
31
0
70
32
71
1
72
1
41
1
210
0
220
0
230
1
3
Standard
100
AcDbAlignedDimension
13
135.5
23
0
33
0
14
27
24
9.7235
34
0
50
0
100
AcDbRotatedDimension
1001
ACAD
1000
DSTYLE
1002
{
1070
   371
1070
    13
1070
   372
1070
    13
1070
     3
1000

1070
   170
1070
     0
1070
   144
1040
1.0
1070
   277
1070
     2
1070
   284
1070
     8
1070
   278
1070
    46
1070
   146
1040
1.166667
1070
   345
1005
16
1070
   347
1005
16
1070
   346
1005
16
1070
   344
1005
0
1070
   343
1005
0
1070
   172
1070
     1
1070
    76
1070
     0
1070
    75
1070
     0
1070
   282
1070
     0
1070
   281
1070
     0
1070
    71
1070
     0
1070
    74
1070
     0
1070
   279
1070
     0
1070
   173
1070
     1
1070
   340
1005
12E
1070
   271
1070
     2
1070
   272
1070
     3
1070
    77
1070
     1
1070
    73
1070
     1
1070
   171
1070
     3
1070
   274
1070
     4
1070
   177
1070
     2
1070
   176
1070
     2
1070
   178
1070
     2
1070
    78
1070
     8
1070
    48
1040
-0.1
1070
    41
1040
3.5
1070
   147
1040
1.5
1070
    42
1040
1.5875
1070
    44
1040
2.0
1070
   140
1040
3.0
1002
}
1001
ACAD_DSTYLE_DIM_LINETYPE
1070
   380
1005
16
1001
ACAD_DSTYLE_DIM_EXT1_LINETYPE
1070
   381
1005
16
1001
ACAD_DSTYLE_DIM_EXT2_LINETYPE
1070
   382
1005
16
0
ENDSEC
0
SECTION
2
OBJECTS
0
DICTIONARY
5
220
330
0
100
AcDbDictionary
280
0
281
1
3
ACAD_GROUP
350
221
3
ACAD_MLINESTYLE
350
222
0
DICTIONARY
5
221
330
0
100
AcDbDictionary
280
0
281
1
0
DICTIONARY
5
222
330
0
100
AcDbDictionary
280
0
281
1
3
Standard
350
18
0
MLINESTYLE
5
18
330
222
100
AcDbMlineStyle
2
Standard
70
0
3

62
256
51
90
52
90
71
2
49
-0.5
62
256
6
ByLayer
49
0.5
62
256
6
ByLayer
0
RASTERVARIABLES
5
20e
330

100
AcDbRasterVariables
90
0
70
1
71
1
72
1
0
ENDSEC
0
EOF
