0
SECTION
2
HEADER
9
$ACADVER
1
AC1015
9
$DWGCODEPAGE
3
ANSI_1252
9
$HANDSEED
5
211
9
$ANGBASE
50
0
9
$ANGDIR
70
0
9
$ATTMODE
70
1
9
$AUNITS
70
0
9
$AUPREC
70
0
9
$CECOLOR
62
256
9
$CELTSCALE
40
1
9
$CELTYPE
6
ByLayer
9
$CELWEIGHT
370
18
9
$CLAYER
8
0
9
$CMLJUST
70
0
9
$CMLSCALE
40
1
9
$CMLSTYLE
2
Standard
9
$DIMSTYLE
2
Standard
9
$TEXTSIZE
40
0.2
9
$TEXTSTYLE
7
Standard
9
$LUNITS
70
2
9
$LUPREC
70
4
9
$EXTNAMES
290
1
9
$INSUNITS
70
4
9
$LTSCALE
40
1
9
$LWDISPLAY
290
1
9
$PDMODE
70
0
9
$PDSIZE
40
0
9
$PLINEGEN
70
0
0
ENDSEC
0
SECTION
2
CLASSES
0
CLASS
1
RASTERVARIABLES
2
AcDbRasterVariables
3
ISM
90
0
280
0
281
0
0
ENDSEC
0
SECTION
2
TABLES
0
TABLE
2
VPORT
5
207
100
AcDbSymbolTable
0
VPORT
5
1
100
AcDbSymbolTableRecord
100
AcDbViewportTableRecord
2
*Active
70
0
10
0
20
0
11
1
21
1
12
-1
22
1
13
0
23
0
14
0.5
24
0.5
15
10
25
10
16
0
26
0
36
1
17
0
27
0
37
0
0
ENDTAB
0
TABLE
2
LTYPE
5
208
100
AcDbSymbolTable
0
LTYPE
5
14
100
AcDbSymbolTableRecord
100
AcDbLinetypeTableRecord
70
0
2
ByBlock
3

72
65
73
0
40
0
0
LTYPE
5
15
100
AcDbSymbolTableRecord
100
AcDbLinetypeTableRecord
70
0
2
ByLayer
3

72
65
73
0
40
0
0
LTYPE
5
16
100
AcDbSymbolTableRecord
100
AcDbLinetypeTableRecord
70
0
2
Continuous
3
Solid line
72
65
73
0
40
0
0
LTYPE
5
6E
100
AcDbSymbolTableRecord
100
AcDbLinetypeTableRecord
70
0
2
CENTER
3
____ _ ____ _ ____ _ ____
72
65
73
4
40
47.5
49
22
74
0
49
-8.5
74
0
49
8.5
74
0
49
-8.5
74
0
0
LTYPE
5
6F
100
AcDbSymbolTableRecord
100
AcDbLinetypeTableRecord
70
0
2
DASHED
3
__ __ __ __ __ __ __ __ __
72
65
73
2
40
25.72
49
12.86
74
0
49
-12.86
74
0
0
ENDTAB
0
TABLE
2
LAYER
5
209
100
AcDbSymbolTable
0
LAYER
5
10
100
AcDbSymbolTableRecord
100
AcDbLayerTableRecord
2
0
70
0
62
7
6
Continuous
290
1
370
-3
390
0
0
LAYER
5
71
100
AcDbSymbolTableRecord
100
AcDbLayerTableRecord
2
80
70
0
62
-6
6
Continuous
290
1
370
-3
390
0
0
LAYER
5
73
100
AcDbSymbolTableRecord
100
AcDbLayerTableRecord
2
81
70
0
62
-3
6
Continuous
290
1
370
-3
390
0
0
LAYER
5
75
100
AcDbSymbolTableRecord
100
AcDbLayerTableRecord
2
1
70
0
62
4
6
Continuous
290
1
370
-3
390
0
0
LAYER
5
80
100
AcDbSymbolTableRecord
100
AcDbLayerTableRecord
2
4
70
0
62
-2
6
CENTER
290
1
370
-3
390
0
0
LAYER
5
AF
100
AcDbSymbolTableRecord
100
AcDbLayerTableRecord
2
2
70
0
62
7
6
Continuous
290
1
370
-3
390
0
0
LAYER
5
136
100
AcDbSymbolTableRecord
100
AcDbLayerTableRecord
2
Defpoints
70
0
62
7
6
Continuous
290
0
370
-3
390
0
0
LAYER
5
1f3
100
AcDbSymbolTableRecord
100
AcDbLayerTableRecord
2
SK4
70
0
62
2
6
CENTER
290
1
370
-3
390
0
0
LAYER
5
1f4
100
AcDbSymbolTableRecord
100
AcDbLayerTableRecord
2
SK1
70
0
62
4
6
Continuous
290
1
370
-3
390
0
0
LAYER
5
1f5
100
AcDbSymbolTableRecord
100
AcDbLayerTableRecord
2
SK2
70
0
62
7
6
Continuous
290
1
370
-3
390
0
0
LAYER
5
1f6
100
AcDbSymbolTableRecord
100
AcDbLayerTableRecord
2
SK6
70
0
62
5
6
Continuous
290
1
370
-3
390
0
0
ENDTAB
0
TABLE
2
STYLE
5
20a
100
AcDbSymbolTable
0
STYLE
5
11
100
AcDbSymbolTableRecord
100
AcDbTextStyleTableRecord
2
Standard
3
txt
70
0
71
0
40
0
41
1
42
0
50
0
0
STYLE
5
112
100
AcDbSymbolTableRecord
100
AcDbTextStyleTableRecord
2
iso_b_vert
3
simplex.shx
70
0
71
0
40
0
41
1
42
0
50
0
0
STYLE
5
113
100
AcDbSymbolTableRecord
100
AcDbTextStyleTableRecord
2
DWGDirectTextStyle
3
simplex
70
0
71
0
40
0
41
1
42
0
50
0
0
ENDTAB
0
TABLE
2
DIMSTYLE
5
20b
100
AcDbSymbolTable
100
AcDbDimStyleTable
0
DIMSTYLE
105
27
100
AcDbSymbolTableRecord
100
AcDbDimStyleTableRecord
2
Standard
70
0
3
<>
41
0.18
42
0.0625
44
0.18
140
0.18
147
0.09
73
0
74
0
77
1
271
2
275
0
278
52
280
0
340
11
0
ENDTAB
0
TABLE
2
VIEW
5
20c
100
AcDbSymbolTable
0
ENDTAB
0
TABLE
2
UCS
5
20d
100
AcDbSymbolTable
0
ENDTAB
0
TABLE
2
APPID
5
20e
100
AcDbSymbolTable
0
APPID
5
12
100
AcDbSymbolTableRecord
100
AcDbRegAppTableRecord
2
ACAD
70
0
0
APPID
5
132
100
AcDbSymbolTableRecord
100
AcDbRegAppTableRecord
2
ACAD_DSTYLE_DIMBREAK
70
0
0
APPID
5
1B2
100
AcDbSymbolTableRecord
100
AcDbRegAppTableRecord
2
ACAD_DSTYLE_DIM_LINETYPE
70
0
0
APPID
5
1B3
100
AcDbSymbolTableRecord
100
AcDbRegAppTableRecord
2
ACAD_DSTYLE_DIM_EXT1_LINETYPE
70
0
0
APPID
5
1B4
100
AcDbSymbolTableRecord
100
AcDbRegAppTableRecord
2
ACAD_DSTYLE_DIM_EXT2_LINETYPE
70
0
0
APPID
5
1EF
100
AcDbSymbolTableRecord
100
AcDbRegAppTableRecord
2
ACAD_MLEADERVER
70
0
0
ENDTAB
0
TABLE
2
BLOCK_RECORD
5
20f
100
AcDbSymbolTable
0
BLOCK_RECORD
5
1F
100
AcDbSymbolTableRecord
100
AcDbBlockTableRecord
2
*Model_Space
340
0
70
0
0
BLOCK_RECORD
5
1B
100
AcDbSymbolTableRecord
100
AcDbBlockTableRecord
2
*Paper_Space
340
0
70
0
0
BLOCK_RECORD
5
23
100
AcDbSymbolTableRecord
100
AcDbBlockTableRecord
2
*Paper_Space0
340
0
70
0
0
BLOCK_RECORD
5
137
100
AcDbSymbolTableRecord
100
AcDbBlockTableRecord
2
*D1
340
0
70
0
0
BLOCK_RECORD
5
143
100
AcDbSymbolTableRecord
100
AcDbBlockTableRecord
2
_U0
340
0
70
0
0
BLOCK_RECORD
5
14F
100
AcDbSymbolTableRecord
100
AcDbBlockTableRecord
2
*D3
340
0
70
0
0
BLOCK_RECORD
5
15B
100
AcDbSymbolTableRecord
100
AcDbBlockTableRecord
2
_U1
340
0
70
0
0
BLOCK_RECORD
5
167
100
AcDbSymbolTableRecord
100
AcDbBlockTableRecord
2
*D5
340
0
70
0
0
BLOCK_RECORD
5
173
100
AcDbSymbolTableRecord
100
AcDbBlockTableRecord
2
_U2
340
0
70
0
0
BLOCK_RECORD
5
17F
100
AcDbSymbolTableRecord
100
AcDbBlockTableRecord
2
*D7
340
0
70
0
0
BLOCK_RECORD
5
18B
100
AcDbSymbolTableRecord
100
AcDbBlockTableRecord
2
_U3
340
0
70
0
0
ENDTAB
0
ENDSEC
0
SECTION
2
BLOCKS
0
BLOCK
5
20
100
AcDbEntity
8
0
100
AcDbBlockBegin
2
*Model_Space
70
0
10
0
20
0
30
0
3
*Model_Space
0
ENDBLK
5
21
100
AcDbEntity
8
0
100
AcDbBlockEnd
0
BLOCK
5
1C
100
AcDbEntity
8
0
100
AcDbBlockBegin
2
*Paper_Space
70
0
10
0
20
0
30
0
3
*Paper_Space
0
ENDBLK
5
1D
100
AcDbEntity
8
0
100
AcDbBlockEnd
0
BLOCK
5
24
100
AcDbEntity
8
0
100
AcDbBlockBegin
2
*Paper_Space0
70
0
10
0
20
0
30
0
3
*Paper_Space0
0
ENDBLK
5
25
100
AcDbEntity
8
0
100
AcDbBlockEnd
0
BLOCK
5
138
100
AcDbEntity
8
0
100
AcDbBlockBegin
2
*D1
70
1
10
0
20
0
30
0
3
*D1
0
LINE
5
13A
100
AcDbEntity
8
0
62
256
6
ByLayer
370
-2
48
1
60
0
100
AcDbLine
10
-48
20
-9.525
30
0
11
-48
21
-47.952229
31
0
39
0
210
0
220
0
230
1
0
LINE
5
13B
100
AcDbEntity
8
0
62
256
6
ByLayer
370
-2
48
1
60
0
100
AcDbLine
10
82
20
-1.5875
30
0
11
82
21
-47.952229
31
0
39
0
210
0
220
0
230
1
0
LINE
5
13C
100
AcDbEntity
8
0
62
256
6
ByLayer
370
-2
48
1
60
0
100
AcDbLine
10
-44.5
20
-45.952229
30
0
11
78.5
21
-45.952229
31
0
39
0
210
0
220
0
230
1
0
SOLID
5
13D
100
AcDbEntity
8
0
62
256
6
ByLayer
370
-1
48
1
60
0
100
AcDbTrace
10
-44.5
20
-45.368896
30
0
11
-44.5
21
-46.535563
31
0
12
-48
22
-45.952229
32
0
13
-48
23
-45.952229
33
0
39
0
210
0
220
0
230
1
0
SOLID
5
13E
100
AcDbEntity
8
0
62
256
6
ByLayer
370
-1
48
1
60
0
100
AcDbTrace
10
78.5
20
-46.535563
30
0
11
78.5
21
-45.368896
31
0
12
82
22
-45.952229
32
0
13
82
23
-45.952229
33
0
39
0
210
0
220
0
230
1
0
MTEXT
5
13F
100
AcDbEntity
8
0
62
256
6
ByLayer
370
18
48
1
60
0
100
AcDbMText
10
17
20
-39.952229
30
0
210
0
220
0
230
1
1
\A1;130
40
3
41
0
44
1
50
0
71
5
72
5
7
iso_b_vert
0
POINT
5
140
100
AcDbEntity
8
Defpoints
62
0
6
ByLayer
370
-1
48
1
60
0
100
AcDbPoint
10
-48
20
-7.9375
30
0
39
0
210
0
220
0
230
1
50
360
0
POINT
5
141
100
AcDbEntity
8
Defpoints
62
0
6
ByLayer
370
-1
48
1
60
0
100
AcDbPoint
10
82
20
0
30
0
39
0
210
0
220
0
230
1
50
360
0
POINT
5
142
100
AcDbEntity
8
Defpoints
62
0
6
ByLayer
370
-1
48
1
60
0
100
AcDbPoint
10
82
20
-45.952229
30
0
39
0
210
0
220
0
230
1
50
360
0
ENDBLK
5
139
100
AcDbEntity
8
0
100
AcDbBlockEnd
0
BLOCK
5
14A
100
AcDbEntity
8
0
100
AcDbBlockBegin
2
_U0
70
0
10
0
20
0
30
0
3
_U0
0
MTEXT
5
144
100
AcDbEntity
8
SK2
62
256
6
ByLayer
370
18
48
1
60
0
100
AcDbMText
10
11.771658
20
-45.067115
30
0
210
0
220
0
230
1
1
\W0.7022;130.00
40
3
41
0
44
1.084337
50
0
71
7
72
5
7
iso_b_vert
0
LINE
5
145
100
AcDbEntity
8
SK2
62
256
6
ByLayer
370
13
48
1
60
0
100
AcDbLine
10
-48
20
-9.525
30
0
11
-48
21
-47.952229
31
0
39
0
210
0
220
0
230
1
0
LINE
5
146
100
AcDbEntity
8
SK2
62
256
6
ByLayer
370
13
48
1
60
0
100
AcDbLine
10
82
20
-1.5875
30
0
11
82
21
-47.952229
31
0
39
0
210
0
220
0
230
1
0
LINE
5
147
100
AcDbEntity
8
SK2
62
256
6
ByLayer
370
13
48
1
60
0
100
AcDbLine
10
-48
20
-45.952229
30
0
11
82
21
-45.952229
31
0
39
0
210
0
220
0
230
1
0
SOLID
5
148
100
AcDbEntity
8
SK2
62
256
6
ByLayer
370
18
48
1
60
0
100
AcDbTrace
10
-48
20
-45.952229
30
0
11
-44.500002
21
-45.491446
31
0
12
-44.499998
22
-46.413013
32
0
13
-44.499998
23
-46.413013
33
0
39
0
210
0
220
0
230
1
0
SOLID
5
149
100
AcDbEntity
8
SK2
62
256
6
ByLayer
370
18
48
1
60
0
100
AcDbTrace
10
82
20
-45.952229
30
0
11
78.500002
21
-46.413013
31
0
12
78.499998
22
-45.491446
32
0
13
78.499998
23
-45.491446
33
0
39
0
210
0
220
0
230
1
0
ENDBLK
5
14B
100
AcDbEntity
8
0
100
AcDbBlockEnd
0
BLOCK
5
150
100
AcDbEntity
8
0
100
AcDbBlockBegin
2
*D3
70
1
10
0
20
0
30
0
3
*D3
0
LINE
5
152
100
AcDbEntity
8
0
62
256
6
ByLayer
370
-2
48
1
60
0
100
AcDbLine
10
82
20
-1.5875
30
0
11
82
21
-37.952229
31
0
39
0
210
0
220
0
230
1
0
LINE
5
153
100
AcDbEntity
8
0
62
256
6
ByLayer
370
-2
48
1
60
0
100
AcDbLine
10
3
20
-7.739
30
0
11
3
21
-37.952229
31
0
39
0
210
0
220
0
230
1
0
LINE
5
154
100
AcDbEntity
8
0
62
256
6
ByLayer
370
-2
48
1
60
0
100
AcDbLine
10
78.5
20
-35.952229
30
0
11
6.5
21
-35.952229
31
0
39
0
210
0
220
0
230
1
0
SOLID
5
155
100
AcDbEntity
8
0
62
256
6
ByLayer
370
-1
48
1
60
0
100
AcDbTrace
10
78.5
20
-36.535563
30
0
11
78.5
21
-35.368896
31
0
12
82
22
-35.952229
32
0
13
82
23
-35.952229
33
0
39
0
210
0
220
0
230
1
0
SOLID
5
156
100
AcDbEntity
8
0
62
256
6
ByLayer
370
-1
48
1
60
0
100
AcDbTrace
10
6.5
20
-35.368896
30
0
11
6.5
21
-36.535563
31
0
12
3
22
-35.952229
32
0
13
3
23
-35.952229
33
0
39
0
210
0
220
0
230
1
0
MTEXT
5
157
100
AcDbEntity
8
0
62
256
6
ByLayer
370
18
48
1
60
0
100
AcDbMText
10
42.5
20
-29.952229
30
0
210
0
220
0
230
1
1
\A1;79
40
3
41
0
44
1
50
0
71
5
72
5
7
iso_b_vert
0
POINT
5
158
100
AcDbEntity
8
Defpoints
62
0
6
ByLayer
370
-1
48
1
60
0
100
AcDbPoint
10
82
20
0
30
0
39
0
210
0
220
0
230
1
50
360
0
POINT
5
159
100
AcDbEntity
8
Defpoints
62
0
6
ByLayer
370
-1
48
1
60
0
100
AcDbPoint
10
3
20
-6.1515
30
0
39
0
210
0
220
0
230
1
50
360
0
POINT
5
15A
100
AcDbEntity
8
Defpoints
62
0
6
ByLayer
370
-1
48
1
60
0
100
AcDbPoint
10
3
20
-35.952229
30
0
39
0
210
0
220
0
230
1
50
360
0
ENDBLK
5
151
100
AcDbEntity
8
0
100
AcDbBlockEnd
0
BLOCK
5
162
100
AcDbEntity
8
0
100
AcDbBlockBegin
2
_U1
70
0
10
0
20
0
30
0
3
_U1
0
MTEXT
5
15C
100
AcDbEntity
8
SK2
62
256
6
ByLayer
370
18
48
1
60
0
100
AcDbMText
10
38.01763
20
-35.067115
30
0
210
0
220
0
230
1
1
\W0.7468;79.00
40
3
41
0
44
1.084337
50
0
71
7
72
5
7
iso_b_vert
0
LINE
5
15D
100
AcDbEntity
8
SK2
62
256
6
ByLayer
370
13
48
1
60
0
100
AcDbLine
10
82
20
-1.5875
30
0
11
82
21
-37.952229
31
0
39
0
210
0
220
0
230
1
0
LINE
5
15E
100
AcDbEntity
8
SK2
62
256
6
ByLayer
370
13
48
1
60
0
100
AcDbLine
10
3
20
-7.739
30
0
11
3
21
-37.952229
31
0
39
0
210
0
220
0
230
1
0
LINE
5
15F
100
AcDbEntity
8
SK2
62
256
6
ByLayer
370
13
48
1
60
0
100
AcDbLine
10
82
20
-35.952229
30
0
11
3
21
-35.952229
31
0
39
0
210
0
220
0
230
1
0
SOLID
5
160
100
AcDbEntity
8
SK2
62
256
6
ByLayer
370
18
48
1
60
0
100
AcDbTrace
10
82
20
-35.952229
30
0
11
78.500002
21
-36.413013
31
0
12
78.499998
22
-35.491446
32
0
13
78.499998
23
-35.491446
33
0
39
0
210
0
220
0
230
1
0
SOLID
5
161
100
AcDbEntity
8
SK2
62
256
6
ByLayer
370
18
48
1
60
0
100
AcDbTrace
10
3
20
-35.952229
30
0
11
6.499998
21
-35.491446
31
0
12
6.500002
22
-36.413013
32
0
13
6.500002
23
-36.413013
33
0
39
0
210
0
220
0
230
1
0
ENDBLK
5
163
100
AcDbEntity
8
0
100
AcDbBlockEnd
0
BLOCK
5
168
100
AcDbEntity
8
0
100
AcDbBlockBegin
2
*D5
70
1
10
0
20
0
30
0
3
*D5
0
LINE
5
16A
100
AcDbEntity
8
0
62
256
6
ByLayer
370
-2
48
1
60
0
100
AcDbLine
10
-48
20
-9.525
30
0
11
-48
21
-37.952229
31
0
39
0
210
0
220
0
230
1
0
LINE
5
16B
100
AcDbEntity
8
0
62
256
6
ByLayer
370
-2
48
1
60
0
100
AcDbLine
10
0
20
-9.525
30
0
11
0
21
-37.952229
31
0
39
0
210
0
220
0
230
1
0
LINE
5
16C
100
AcDbEntity
8
0
62
256
6
ByLayer
370
-2
48
1
60
0
100
AcDbLine
10
-44.5
20
-35.952229
30
0
11
-3.5
21
-35.952229
31
0
39
0
210
0
220
0
230
1
0
SOLID
5
16D
100
AcDbEntity
8
0
62
256
6
ByLayer
370
-1
48
1
60
0
100
AcDbTrace
10
-44.5
20
-35.368896
30
0
11
-44.5
21
-36.535563
31
0
12
-48
22
-35.952229
32
0
13
-48
23
-35.952229
33
0
39
0
210
0
220
0
230
1
0
SOLID
5
16E
100
AcDbEntity
8
0
62
256
6
ByLayer
370
-1
48
1
60
0
100
AcDbTrace
10
-3.5
20
-36.535563
30
0
11
-3.5
21
-35.368896
31
0
12
0
22
-35.952229
32
0
13
0
23
-35.952229
33
0
39
0
210
0
220
0
230
1
0
MTEXT
5
16F
100
AcDbEntity
8
0
62
256
6
ByLayer
370
18
48
1
60
0
100
AcDbMText
10
-24
20
-29.952229
30
0
210
0
220
0
230
1
1
\A1;48
40
3
41
0
44
1
50
0
71
5
72
5
7
iso_b_vert
0
POINT
5
170
100
AcDbEntity
8
Defpoints
62
0
6
ByLayer
370
-1
48
1
60
0
100
AcDbPoint
10
-48
20
-7.9375
30
0
39
0
210
0
220
0
230
1
50
360
0
POINT
5
171
100
AcDbEntity
8
Defpoints
62
0
6
ByLayer
370
-1
48
1
60
0
100
AcDbPoint
10
0
20
-7.9375
30
0
39
0
210
0
220
0
230
1
50
360
0
POINT
5
172
100
AcDbEntity
8
Defpoints
62
0
6
ByLayer
370
-1
48
1
60
0
100
AcDbPoint
10
0
20
-35.952229
30
0
39
0
210
0
220
0
230
1
50
360
0
ENDBLK
5
169
100
AcDbEntity
8
0
100
AcDbBlockEnd
0
BLOCK
5
17A
100
AcDbEntity
8
0
100
AcDbBlockBegin
2
_U2
70
0
10
0
20
0
30
0
3
_U2
0
MTEXT
5
174
100
AcDbEntity
8
SK2
62
256
6
ByLayer
370
18
48
1
60
0
100
AcDbMText
10
-28.640313
20
-35.067115
30
0
210
0
220
0
230
1
1
\W0.7694;48.00
40
3
41
0
44
1.084337
50
0
71
7
72
5
7
iso_b_vert
0
LINE
5
175
100
AcDbEntity
8
SK2
62
256
6
ByLayer
370
13
48
1
60
0
100
AcDbLine
10
-48
20
-9.525
30
0
11
-48
21
-37.952229
31
0
39
0
210
0
220
0
230
1
0
LINE
5
176
100
AcDbEntity
8
SK2
62
256
6
ByLayer
370
13
48
1
60
0
100
AcDbLine
10
0
20
-9.525
30
0
11
0
21
-37.952229
31
0
39
0
210
0
220
0
230
1
0
LINE
5
177
100
AcDbEntity
8
SK2
62
256
6
ByLayer
370
13
48
1
60
0
100
AcDbLine
10
-48
20
-35.952229
30
0
11
0
21
-35.952229
31
0
39
0
210
0
220
0
230
1
0
SOLID
5
178
100
AcDbEntity
8
SK2
62
256
6
ByLayer
370
18
48
1
60
0
100
AcDbTrace
10
-48
20
-35.952229
30
0
11
-44.500002
21
-35.491446
31
0
12
-44.499998
22
-36.413013
32
0
13
-44.499998
23
-36.413013
33
0
39
0
210
0
220
0
230
1
0
SOLID
5
179
100
AcDbEntity
8
SK2
62
256
6
ByLayer
370
18
48
1
60
0
100
AcDbTrace
10
0
20
-35.952229
30
0
11
-3.499998
21
-36.413013
31
0
12
-3.500002
22
-35.491446
32
0
13
-3.500002
23
-35.491446
33
0
39
0
210
0
220
0
230
1
0
ENDBLK
5
17B
100
AcDbEntity
8
0
100
AcDbBlockEnd
0
BLOCK
5
180
100
AcDbEntity
8
0
100
AcDbBlockBegin
2
*D7
70
1
10
0
20
0
30
0
3
*D7
0
LINE
5
182
100
AcDbEntity
8
0
62
256
6
ByLayer
370
-2
48
1
60
0
100
AcDbLine
10
82
20
1.5875
30
0
11
82
21
34.952229
31
0
39
0
210
0
220
0
230
1
0
LINE
5
183
100
AcDbEntity
8
0
62
256
6
ByLayer
370
-2
48
1
60
0
100
AcDbLine
10
13
20
7.739
30
0
11
13
21
34.952229
31
0
39
0
210
0
220
0
230
1
0
LINE
5
184
100
AcDbEntity
8
0
62
256
6
ByLayer
370
-2
48
1
60
0
100
AcDbLine
10
78.5
20
32.952229
30
0
11
16.5
21
32.952229
31
0
39
0
210
0
220
0
230
1
0
SOLID
5
185
100
AcDbEntity
8
0
62
256
6
ByLayer
370
-1
48
1
60
0
100
AcDbTrace
10
78.5
20
32.368896
30
0
11
78.5
21
33.535563
31
0
12
82
22
32.952229
32
0
13
82
23
32.952229
33
0
39
0
210
0
220
0
230
1
0
SOLID
5
186
100
AcDbEntity
8
0
62
256
6
ByLayer
370
-1
48
1
60
0
100
AcDbTrace
10
16.5
20
33.535563
30
0
11
16.5
21
32.368896
31
0
12
13
22
32.952229
32
0
13
13
23
32.952229
33
0
39
0
210
0
220
0
230
1
0
MTEXT
5
187
100
AcDbEntity
8
0
62
256
6
ByLayer
370
18
48
1
60
0
100
AcDbMText
10
47.5
20
38.952229
30
0
210
0
220
0
230
1
1
\A1;69
40
3
41
0
44
1
50
0
71
5
72
5
7
iso_b_vert
0
POINT
5
188
100
AcDbEntity
8
Defpoints
62
0
6
ByLayer
370
-1
48
1
60
0
100
AcDbPoint
10
82
20
0
30
0
39
0
210
0
220
0
230
1
50
360
0
POINT
5
189
100
AcDbEntity
8
Defpoints
62
0
6
ByLayer
370
-1
48
1
60
0
100
AcDbPoint
10
13
20
6.1515
30
0
39
0
210
0
220
0
230
1
50
360
0
POINT
5
18A
100
AcDbEntity
8
Defpoints
62
0
6
ByLayer
370
-1
48
1
60
0
100
AcDbPoint
10
13
20
32.952229
30
0
39
0
210
0
220
0
230
1
50
360
0
ENDBLK
5
181
100
AcDbEntity
8
0
100
AcDbBlockEnd
0
BLOCK
5
192
100
AcDbEntity
8
0
100
AcDbBlockBegin
2
_U3
70
0
10
0
20
0
30
0
3
_U3
0
MTEXT
5
18C
100
AcDbEntity
8
SK2
62
256
6
ByLayer
370
18
48
1
60
0
100
AcDbMText
10
43.01763
20
33.837344
30
0
210
0
220
0
230
1
1
\W0.7468;69.00
40
3
41
0
44
1.084337
50
0
71
7
72
5
7
iso_b_vert
0
LINE
5
18D
100
AcDbEntity
8
SK2
62
256
6
ByLayer
370
13
48
1
60
0
100
AcDbLine
10
82
20
1.5875
30
0
11
82
21
34.952229
31
0
39
0
210
0
220
0
230
1
0
LINE
5
18E
100
AcDbEntity
8
SK2
62
256
6
ByLayer
370
13
48
1
60
0
100
AcDbLine
10
13
20
7.739
30
0
11
13
21
34.952229
31
0
39
0
210
0
220
0
230
1
0
LINE
5
18F
100
AcDbEntity
8
SK2
62
256
6
ByLayer
370
13
48
1
60
0
100
AcDbLine
10
82
20
32.952229
30
0
11
13
21
32.952229
31
0
39
0
210
0
220
0
230
1
0
SOLID
5
190
100
AcDbEntity
8
SK2
62
256
6
ByLayer
370
18
48
1
60
0
100
AcDbTrace
10
82
20
32.952229
30
0
11
78.500002
21
32.491446
31
0
12
78.499998
22
33.413013
32
0
13
78.499998
23
33.413013
33
0
39
0
210
0
220
0
230
1
0
SOLID
5
191
100
AcDbEntity
8
SK2
62
256
6
ByLayer
370
18
48
1
60
0
100
AcDbTrace
10
13
20
32.952229
30
0
11
16.499998
21
33.413013
31
0
12
16.500002
22
32.491446
32
0
13
16.500002
23
32.491446
33
0
39
0
210
0
220
0
230
1
0
ENDBLK
5
193
100
AcDbEntity
8
0
100
AcDbBlockEnd
0
ENDSEC
0
SECTION
2
ENTITIES
0
ARC
5
C0
100
AcDbEntity
8
SK2
62
256
6
ByLayer
370
13
48
1
60
0
100
AcDbCircle
39
0
10
82
20
0
30
0
40
19
210
0
220
0
230
1
100
AcDbArc
50
290
51
70
0
ELLIPSE
5
C1
100
AcDbEntity
8
SK1
62
256
6
ByLayer
370
18
48
1
60
0
100
AcDbEllipse
10
-15.511927
20
0
30
0
11
8.51192663582145
21
-9.64486143630667E-15
31
0
210
0
220
0
230
1
40
0.932515
41
-0.661655103696894
42
0.661655103696897
0
ELLIPSE
5
C2
100
AcDbEntity
8
SK1
62
256
6
ByLayer
370
18
48
1
60
0
100
AcDbEllipse
10
-33.598162
20
0
30
0
11
-1.45804694001977E-15
21
-7.93749999999999
31
0
210
0
220
0
230
1
40
0.932515
41
-2.23245143049182
42
-0.909141223097976
0
POINT
5
70
100
AcDbEntity
8
80
62
256
6
ByLayer
370
18
48
1
60
0
100
AcDbPoint
10
0
20
0
30
0
39
0
210
0
220
0
230
1
50
360
0
POINT
5
72
100
AcDbEntity
8
81
62
256
6
ByLayer
370
18
48
1
60
0
100
AcDbPoint
10
82
20
0
30
0
39
0
210
0
220
0
230
1
50
360
0
POINT
5
74
100
AcDbEntity
8
1
62
256
6
ByLayer
370
18
48
1
60
1
100
AcDbPoint
10
-48
20
-7.9375
30
0
39
0
210
0
220
0
230
1
50
360
0
POINT
5
76
100
AcDbEntity
8
1
62
256
6
ByLayer
370
18
48
1
60
1
100
AcDbPoint
10
82
20
0
30
0
39
0
210
0
220
0
230
1
50
360
0
POINT
5
77
100
AcDbEntity
8
1
62
256
6
ByLayer
370
18
48
1
60
1
100
AcDbPoint
10
82
20
0
30
0
39
0
210
0
220
0
230
1
50
360
0
POINT
5
78
100
AcDbEntity
8
1
62
256
6
ByLayer
370
18
48
1
60
1
100
AcDbPoint
10
3
20
-6.1515
30
0
39
0
210
0
220
0
230
1
50
360
0
POINT
5
79
100
AcDbEntity
8
1
62
256
6
ByLayer
370
18
48
1
60
1
100
AcDbPoint
10
-48
20
-7.9375
30
0
39
0
210
0
220
0
230
1
50
360
0
POINT
5
7A
100
AcDbEntity
8
1
62
256
6
ByLayer
370
18
48
1
60
1
100
AcDbPoint
10
0
20
-7.9375
30
0
39
0
210
0
220
0
230
1
50
360
0
POINT
5
7B
100
AcDbEntity
8
1
62
256
6
ByLayer
370
18
48
1
60
1
100
AcDbPoint
10
82
20
0
30
0
39
0
210
0
220
0
230
1
50
360
0
POINT
5
7C
100
AcDbEntity
8
1
62
256
6
ByLayer
370
18
48
1
60
1
100
AcDbPoint
10
13
20
6.1515
30
0
39
0
210
0
220
0
230
1
50
360
0
SPLINE
5
C3
100
AcDbEntity
8
1
62
256
6
ByLayer
370
18
48
1
60
0
100
AcDbSpline
70
4
71
3
72
20
73
16
40
0
40
0
40
0
40
0
40
0.125000000000002
40
0.125000000000002
40
0.250000000000004
40
0.250000000000004
40
0.500000000000004
40
0.500000000000004
40
0.625000000000005
40
0.625000000000005
40
0.687500000000006
40
0.687500000000006
40
0.750000000000007
40
0.750000000000007
40
1
40
1
40
1
40
1
41
1
10
10
20
-4.989011062743
30
0
41
1
10
10.2231853336847
20
-4.98927322899289
30
0
41
1
10
10.4451597055575
20
-4.99374774737618
30
0
41
1
10
10.8868815436311
20
-5.01031407144603
30
0
41
1
10
11.106628201712
20
-5.02240664300678
30
0
41
1
10
11.7627935456346
20
-5.06868678151071
30
0
41
1
10
12.1961259203775
20
-5.11295087844223
30
0
41
1
10
12.8411128515922
20
-5.19237779427584
30
0
41
1
10
13.0552756122315
20
-5.22100535777571
30
0
41
1
10
13.3754430795806
20
-5.26615482579322
30
0
41
1
10
13.481986353439
20
-5.28157199477053
30
0
41
1
10
13.6947458395589
20
-5.31296636402112
30
0
41
1
10
13.8009961946516
20
-5.32894883519469
30
0
41
1
10
14.3305478203041
20
-5.40967651943447
30
0
41
1
10
14.7494710981172
20
-5.47685694843813
30
0
41
1
10
15.1657872680144
20
-5.54181469020932
30
0
0
SPLINE
5
C4
100
AcDbEntity
8
1
62
256
6
ByLayer
370
18
48
1
60
0
100
AcDbSpline
70
4
71
3
72
14
73
10
40
0
40
0
40
0
40
0
40
0.25
40
0.25
40
0.5
40
0.5
40
0.75
40
0.75
40
1
40
1
40
1
40
1
41
1
10
12.464326859662
20
3.90118415999871
30
0
41
1
10
12.2568274137175
20
3.96074285574576
30
0
41
1
10
12.0501361957766
20
4.02081148154787
30
0
41
1
10
11.6378835534604
20
4.14078644460631
30
0
41
1
10
11.4323206915748
20
4.20069142297206
30
0
41
1
10
11.0219645981683
20
4.31949410919836
30
0
41
1
10
10.8171704971035
20
4.37839215416494
30
0
41
1
10
10.4081573683338
20
4.49469485755074
30
0
41
1
10
10.2039381570881
20
4.55210141875509
30
0
41
1
10
9.99999999999994
20
4.60868036530491
30
0
0
SPLINE
5
C5
100
AcDbEntity
8
1
62
256
6
ByLayer
370
18
48
1
60
0
100
AcDbSpline
70
4
71
3
72
20
73
16
40
0
40
0
40
0
40
0
40
0.124999999999999
40
0.124999999999999
40
0.249999999999999
40
0.249999999999999
40
0.500000000000002
40
0.500000000000002
40
0.625000000000003
40
0.625000000000003
40
0.687500000000004
40
0.687500000000004
40
0.750000000000005
40
0.750000000000005
40
1
40
1
40
1
40
1
41
1
10
10
20
4.989011062743
30
0
41
1
10
10.2231853336847
20
4.98927322899289
30
0
41
1
10
10.4451597055575
20
4.99374774737618
30
0
41
1
10
10.8868815436311
20
5.01031407144603
30
0
41
1
10
11.106628201712
20
5.0224066430068
30
0
41
1
10
11.7627935456346
20
5.06868678151073
30
0
41
1
10
12.1961259203775
20
5.11295087844223
30
0
41
1
10
12.8411128515922
20
5.19237779427584
30
0
41
1
10
13.0552756122315
20
5.22100535777571
30
0
41
1
10
13.3754430795807
20
5.26615482579322
30
0
41
1
10
13.481986353439
20
5.2815719947705
30
0
41
1
10
13.6947458395589
20
5.31296636402109
30
0
41
1
10
13.8009961946516
20
5.32894883519469
30
0
41
1
10
14.3305478203041
20
5.40967651943447
30
0
41
1
10
14.7494710981172
20
5.47685694843813
30
0
41
1
10
15.1657872680145
20
5.54181469020935
30
0
0
SPLINE
5
C6
100
AcDbEntity
8
1
62
256
6
ByLayer
370
18
48
1
60
0
100
AcDbSpline
70
4
71
3
72
14
73
10
40
0
40
0
40
0
40
0
40
0.618835781548608
40
0.618835781548608
40
0.77354472693576
40
0.77354472693576
40
0.928253672322913
40
0.928253672322913
40
1
40
1
40
1
40
1
41
1
10
72.6
20
-6.06037474750033
30
0
41
1
10
73.1979268392199
20
-6.09747192546084
30
0
41
1
10
73.7953972792557
20
-6.12309567403392
30
0
41
1
10
74.5412460594589
20
-6.14095868713557
30
0
41
1
10
74.6903658281593
20
-6.14381919320084
30
0
41
1
10
74.9884955723041
20
-6.14810487883264
30
0
41
1
10
75.1374964344558
20
-6.14953019011784
30
0
41
1
10
75.3555463199286
20
-6.15055281344252
30
0
41
1
10
75.4246267326025
20
-6.15072015909675
30
0
41
1
10
75.4937112203054
20
-6.15073158295081
30
0
0
SPLINE
5
C7
100
AcDbEntity
8
1
62
256
6
ByLayer
370
18
48
1
60
0
100
AcDbSpline
70
4
71
3
72
147
73
143
40
0
40
0
40
0
40
0
40
0.0312500000000028
40
0.0312500000000028
40
0.0625000000000055
40
0.0625000000000055
40
0.0703125000000062
40
0.0703125000000062
40
0.0781250000000069
40
0.0781250000000069
40
0.0937500000000082
40
0.0937500000000082
40
0.125000000000011
40
0.125000000000011
40
0.132812500000012
40
0.132812500000012
40
0.140625000000013
40
0.140625000000013
40
0.156250000000014
40
0.156250000000014
40
0.187500000000015
40
0.187500000000015
40
0.195312500000016
40
0.195312500000016
40
0.203125000000017
40
0.203125000000017
40
0.218750000000019
40
0.218750000000019
40
0.250000000000022
40
0.250000000000022
40
0.257812500000023
40
0.257812500000023
40
0.265625000000025
40
0.265625000000025
40
0.273437500000026
40
0.273437500000026
40
0.281250000000027
40
0.281250000000027
40
0.312500000000032
40
0.312500000000032
40
0.320312500000033
40
0.320312500000033
40
0.328125000000034
40
0.328125000000034
40
0.335937500000036
40
0.335937500000036
40
0.343750000000037
40
0.343750000000037
40
0.37500000000004
40
0.37500000000004
40
0.390625000000041
40
0.390625000000041
40
0.398437500000041
40
0.398437500000041
40
0.406250000000042
40
0.406250000000042
40
0.437500000000044
40
0.437500000000044
40
0.453125000000045
40
0.453125000000045
40
0.460937500000046
40
0.460937500000046
40
0.468750000000046
40
0.468750000000046
40
0.500000000000047
40
0.500000000000047
40
0.515625000000047
40
0.515625000000047
40
0.523437500000048
40
0.523437500000048
40
0.531250000000048
40
0.531250000000048
40
0.546875000000048
40
0.546875000000048
40
0.562500000000047
40
0.562500000000047
40
0.578125000000047
40
0.578125000000047
40
0.585937500000047
40
0.585937500000047
40
0.593750000000047
40
0.593750000000047
40
0.609375000000047
40
0.609375000000047
40
0.625000000000047
40
0.625000000000047
40
0.640625000000047
40
0.640625000000047
40
0.648437500000046
40
0.648437500000046
40
0.656250000000046
40
0.656250000000046
40
0.664062500000045
40
0.664062500000045
40
0.671875000000045
40
0.671875000000045
40
0.679687500000044
40
0.679687500000044
40
0.687500000000044
40
0.703125000000043
40
0.703125000000043
40
0.718750000000042
40
0.718750000000042
40
0.726562500000042
40
0.726562500000042
40
0.734375000000041
40
0.734375000000041
40
0.75000000000004
40
0.75000000000004
40
0.781250000000036
40
0.781250000000036
40
0.789062500000035
40
0.789062500000035
40
0.796875000000035
40
0.796875000000035
40
0.804687500000034
40
0.804687500000034
40
0.812500000000033
40
0.812500000000033
40
0.843750000000027
40
0.843750000000027
40
0.859375000000025
40
0.859375000000025
40
0.875000000000023
40
0.875000000000023
40
0.89062500000002
40
0.89062500000002
40
0.906250000000018
40
0.906250000000018
40
0.914062500000016
40
0.914062500000016
40
0.921875000000015
40
0.921875000000015
40
0.937500000000012
40
0.937500000000012
40
0.968750000000006
40
0.968750000000006
40
0.976562500000005
40
0.976562500000005
40
0.984375000000003
40
0.984375000000003
40
1
40
1
40
1
40
1
41
1
10
15.1657872680145
20
5.54181469020935
30
0
41
1
10
15.7646131636355
20
5.63285393925182
30
0
41
1
10
16.3633905743839
20
5.71228647053374
30
0
41
1
10
17.5600802098928
20
5.84960836883766
30
0
41
1
10
18.1579890126225
20
5.90748969513839
30
0
41
1
10
18.9044372178608
20
5.96632606441455
30
0
41
1
10
19.0536894350034
20
5.97740573779984
30
0
41
1
10
19.3523122992837
20
5.99808485802885
30
0
41
1
10
19.501675732441
20
6.00769082708069
30
0
41
1
10
19.9498822516231
20
6.0343535838351
30
0
41
1
10
20.2488331784819
20
6.04926158938076
30
0
41
1
10
21.1459802442234
20
6.08551696153751
30
0
41
1
10
21.7444826972728
20
6.09844073973343
30
0
41
1
10
22.4926972492646
20
6.10022486161029
30
0
41
1
10
22.6423324430826
20
6.09985742137499
30
0
41
1
10
22.9417343511086
20
6.09766548154286
30
0
41
1
10
23.0915103648099
20
6.09584373326359
30
0
41
1
10
23.5407279594753
20
6.0882395400545
30
0
41
1
10
23.8401569466601
20
6.08031830626064
30
0
41
1
10
24.7381129137346
20
6.04810377730877
30
0
41
1
10
25.3363439477966
20
6.01541425564128
30
0
41
1
10
26.0831813344234
20
5.96017113974838
30
0
41
1
10
26.2324937229001
20
5.94839464582813
30
0
41
1
10
26.5310564605328
20
5.92340072314818
30
0
41
1
10
26.6803257565193
20
5.91019426280496
30
0
41
1
10
27.1283240568157
20
5.86861897268599
30
0
41
1
10
27.4271667178364
20
5.83825192507729
30
0
41
1
10
28.3239780238877
20
5.73914160427685
30
0
41
1
10
28.9222746307704
20
5.66246850802102
30
0
41
1
10
29.6702444985494
20
5.55273846046191
30
0
41
1
10
29.8198437055178
20
5.53009447349152
30
0
41
1
10
30.1190445551623
20
5.48338242966682
30
0
41
1
10
30.2686431578828
20
5.45930819049826
30
0
41
1
10
30.5680244138542
20
5.40995691517887
30
0
41
1
10
30.7178447012636
20
5.38468845237443
30
0
41
1
10
31.0174084014171
20
5.33300255844696
30
0
41
1
10
31.1671733167051
20
5.30658033395156
30
0
41
1
10
31.9158649858329
20
5.17153183994833
30
0
41
1
10
32.5144218351329
20
5.05418066937028
30
0
41
1
10
33.2616940849784
20
4.89518393046711
30
0
41
1
10
33.411102019948
20
4.86276570920671
30
0
41
1
10
33.7098151729787
20
4.79666483617615
30
0
41
1
10
33.8591075135285
20
4.76295903782886
30
0
41
1
10
34.1576739455688
20
4.69441978824889
30
0
41
1
10
34.3069749398564
20
4.65963425036074
30
0
41
1
10
34.6056817051095
20
4.58916895168807
30
0
41
1
10
34.7550746138953
20
4.55346663092877
30
0
41
1
10
35.5021727081908
20
4.37251399114456
30
0
41
1
10
36.1002847798401
20
4.21999614467489
30
0
41
1
10
36.9976000401093
20
3.97854374096502
30
0
41
1
10
37.2967188849547
20
3.89591393642226
30
0
41
1
10
37.7454063614275
20
3.76864905492153
30
0
41
1
10
37.8949862051188
20
3.72570696486593
30
0
41
1
10
38.1943628604564
20
3.63919604759289
30
0
41
1
10
38.344175132805
20
3.59558966044671
30
0
41
1
10
39.0932902866411
20
3.37582304027185
30
0
41
1
10
39.6921975547883
20
3.19457221282349
30
0
41
1
10
40.5894834903032
20
2.91342696939847
30
0
41
1
10
40.8883965032603
20
2.81815447027807
30
0
41
1
10
41.3364324061141
20
2.6727321171538
30
0
41
1
10
41.4857112940012
20
2.62381081411598
30
0
41
1
10
41.7843052869472
20
2.52549816069316
30
0
41
1
10
41.9336409606461
20
2.4761598013969
30
0
41
1
10
42.6805042400271
20
2.22855533762544
30
0
41
1
10
43.2784691050672
20
2.02727533495849
30
0
41
1
10
44.1755751352842
20
1.71917432260136
30
0
41
1
10
44.4746368414165
20
1.61543853951193
30
0
41
1
10
44.9232103595117
20
1.4580924018945
30
0
41
1
10
45.0727217487583
20
1.40532535759019
30
0
41
1
10
45.3717898297984
20
1.29934498954887
30
0
41
1
10
45.5213692509736
20
1.24619431096889
30
0
41
1
10
45.9704246586408
20
1.08677174022921
30
0
41
1
10
46.2702579185049
20
0.98028179167332
30
0
41
1
10
46.869458161842
20
0.766907729754422
30
0
41
1
10
47.1689243086385
20
0.660018834055791
30
0
41
1
10
47.7675099410111
20
0.445613810307464
30
0
41
1
10
48.0666264442682
20
0.338089276948182
30
0
41
1
10
48.5149707538503
20
0.176136875983587
30
0
41
1
10
48.6643632319366
20
0.122040314608142
30
0
41
1
10
48.9630321486301
20
0.013609856773968
30
0
41
1
10
49.1123121087817
20
-0.040714020716706
30
0
41
1
10
49.5602807806313
20
-0.203193582137146
30
0
41
1
10
49.8590850905702
20
-0.310895072198832
30
0
41
1
10
50.4568223967362
20
-0.525594821262189
30
0
41
1
10
50.7557640731607
20
-0.632568700341409
30
0
41
1
10
51.3537179166844
20
-0.845975864861288
30
0
41
1
10
51.6527275502366
20
-0.9524162176468
30
0
41
1
10
52.1012246043326
20
-1.11186316571235
30
0
41
1
10
52.2507209486551
20
-1.16497587626546
30
0
41
1
10
52.5496995896408
20
-1.27115181021873
30
0
41
1
10
52.6991686107119
20
-1.32425164549932
30
0
41
1
10
52.9982003854741
20
-1.4301030511798
30
0
41
1
10
53.147789452985
20
-1.4827820299472
30
0
41
1
10
53.4471509122366
20
-1.58754555808463
30
0
41
1
10
53.5969140058828
20
-1.63965578947059
30
0
41
1
10
53.8965795169926
20
-1.74340381645339
30
0
41
1
10
54.0464821910996
20
-1.79503975447426
30
0
41
1
10
54.3461427345685
20
-1.89776981974396
30
0
41
1
10
54.7955200888925
20
-2.05108673497955
30
0
41
1
10
55.2445171066931
20
-2.20219369584174
30
0
41
1
10
55.8427466447073
20
-2.4019431134185
30
0
41
1
10
56.1416286885443
20
-2.50099519634352
30
0
41
1
10
56.5896228057967
20
-2.64824801629382
30
0
41
1
10
56.738923400834
20
-2.69704929214203
30
0
41
1
10
57.0376270464524
20
-2.79367889028606
30
0
41
1
10
57.1870130478074
20
-2.84155100098963
30
0
41
1
10
57.6352347018541
20
-2.98394824254248
30
0
41
1
10
57.9341276098205
20
-3.07727116304753
30
0
41
1
10
58.8309149511637
20
-3.35275907455812
30
0
41
1
10
59.4289209599809
20
-3.53046104211367
30
0
41
1
10
60.1761900461988
20
-3.74592821435385
30
0
41
1
10
60.3256261567867
20
-3.78869841205798
30
0
41
1
10
60.6246462700697
20
-3.87318273853285
30
0
41
1
10
60.774243930201
20
-3.91486805344476
30
0
41
1
10
61.0735941324262
20
-3.9971780621415
30
0
41
1
10
61.2233450218251
20
-4.03780634497932
30
0
41
1
10
61.5229767092739
20
-4.11806043467274
30
0
41
1
10
61.6728866501026
20
-4.15769111650295
30
0
41
1
10
62.4222484739673
20
-4.35325317036794
30
0
41
1
10
63.0213181097981
20
-4.50149525872453
30
0
41
1
10
63.9187563096706
20
-4.71236944838279
30
0
41
1
10
64.2176404052854
20
-4.78083594976405
30
0
41
1
10
64.8159403664128
20
-4.91228596809592
30
0
41
1
10
65.1152576447295
20
-4.97545969070015
30
0
41
1
10
65.714078878339
20
-5.09701171716836
30
0
41
1
10
66.0135923112624
20
-5.15537384047147
30
0
41
1
10
66.612742034519
20
-5.26738973608343
30
0
41
1
10
66.9124399321585
20
-5.32105881016827
30
0
41
1
10
67.3617950616297
20
-5.39802821950212
30
0
41
1
10
67.5115076799171
20
-5.42309206284369
30
0
41
1
10
67.8107971049255
20
-5.47200855293528
30
0
41
1
10
67.9603837614732
20
-5.49584663366713
30
0
41
1
10
68.4092552183377
20
-5.56516278766762
30
0
41
1
10
68.7086003804675
20
-5.60851837963389
30
0
41
1
10
69.6066595212569
20
-5.73048633739367
30
0
41
1
10
70.2054440599399
20
-5.8009886714683
30
0
41
1
10
70.9535845596102
20
-5.87588724611578
30
0
41
1
10
71.1031956621453
20
-5.89020177786256
30
0
41
1
10
71.4023749049534
20
-5.91749135567952
30
0
41
1
10
71.5519311080536
20
-5.93047274138593
30
0
41
1
10
72.0007454516211
20
-5.96725154932085
30
0
41
1
10
72.3002574192228
20
-5.98882790261044
30
0
41
1
10
72.6
20
-6.0075551290561
30
0
0
SPLINE
5
C8
100
AcDbEntity
8
1
62
256
6
ByLayer
370
18
48
1
60
0
100
AcDbSpline
70
4
71
4
72
10
73
5
40
0
40
0
40
0
40
0
40
0
40
1
40
1
40
1
40
1
40
1
41
0.997278436163442
10
15.1657872680144
20
5.54181469020931
30
0
41
0.9953846502789
10
15.1082411189857
20
4.92050665779664
30
0
41
0.994158742426955
10
15.0076611212164
20
4.29288644887001
30
0
41
0.996828872747035
10
14.865770465161
20
3.72118589098124
30
0
41
0.99871519672099
10
14.7033116675981
20
3.24345888695911
30
0
0
SPLINE
5
C9
100
AcDbEntity
8
1
62
256
6
ByLayer
370
18
48
1
60
0
100
AcDbSpline
70
4
71
3
72
142
73
138
40
0
40
0
40
0
40
0
40
0.0177909491052414
40
0.0177909491052414
40
0.0270570722268897
40
0.0270570722268897
40
0.036323195348538
40
0.036323195348538
40
0.0455893184701863
40
0.0455893184701863
40
0.0548554415918347
40
0.0733876878351321
40
0.0733876878351321
40
0.0919199340784295
40
0.0919199340784295
40
0.101186057200079
40
0.101186057200079
40
0.110452180321728
40
0.110452180321728
40
0.119718303443377
40
0.119718303443377
40
0.128984426565026
40
0.147516672808323
40
0.147516672808323
40
0.166048919051621
40
0.166048919051621
40
0.175315042173269
40
0.175315042173269
40
0.184581165294918
40
0.184581165294918
40
0.193847288416567
40
0.193847288416567
40
0.203113411538215
40
0.221645657781512
40
0.221645657781512
40
0.240177904024809
40
0.240177904024809
40
0.249444027146457
40
0.249444027146457
40
0.258710150268105
40
0.258710150268105
40
0.267976273389753
40
0.267976273389753
40
0.277242396511401
40
0.277242396511401
40
0.295774642754697
40
0.295774642754697
40
0.314306888997994
40
0.314306888997994
40
0.323573012119643
40
0.323573012119643
40
0.332839135241291
40
0.332839135241291
40
0.34210525836294
40
0.34210525836294
40
0.351371381484589
40
0.369903627727887
40
0.369903627727887
40
0.388435873971185
40
0.388435873971185
40
0.406968120214483
40
0.406968120214483
40
0.416234243336132
40
0.416234243336132
40
0.425500366457781
40
0.425500366457781
40
0.444032612701078
40
0.444032612701078
40
0.462564858944376
40
0.462564858944376
40
0.481097105187673
40
0.481097105187673
40
0.490363228309322
40
0.490363228309322
40
0.499629351430971
40
0.518161597674269
40
0.518161597674269
40
0.536693843917567
40
0.536693843917567
40
0.555226090160866
40
0.555226090160866
40
0.564492213282514
40
0.564492213282514
40
0.573758336404163
40
0.573758336404163
40
0.583024459525812
40
0.583024459525812
40
0.592290582647461
40
0.592290582647461
40
0.610822828890758
40
0.610822828890758
40
0.629355075134056
40
0.629355075134056
40
0.638621198255704
40
0.638621198255704
40
0.647887321377353
40
0.66641956762065
40
0.66641956762065
40
0.684951813863947
40
0.684951813863947
40
0.703484060107243
40
0.703484060107243
40
0.712750183228892
40
0.712750183228892
40
0.72201630635054
40
0.72201630635054
40
0.740548552593837
40
0.740548552593837
40
0.759080798837135
40
0.759080798837135
40
0.777613045080432
40
0.777613045080432
40
0.786879168202081
40
0.786879168202081
40
0.79614529132373
40
0.814677537567028
40
0.814677537567028
40
0.833209783810327
40
0.833209783810327
40
0.851742030053625
40
0.851742030053625
40
0.861008153175274
40
0.861008153175274
40
0.870274276296922
40
0.870274276296922
40
0.888806522540219
40
0.888806522540219
40
0.907338768783516
40
0.907338768783516
40
0.925871015026813
40
0.925871015026813
40
0.935137138148461
40
0.935137138148461
40
0.944403261270109
40
0.962935507513406
40
0.962935507513406
40
1
40
1
40
1
40
1
41
1
10
63.1656619586946
20
-4.52437826424409
30
0
41
1
10
62.864927104952
20
-4.5969685745132
30
0
41
1
10
62.5643095479193
20
-4.66739546893427
30
0
41
1
10
62.1073424888962
20
-4.77127943991997
30
0
41
1
10
61.9508866754382
20
-4.80628076736204
30
0
41
1
10
61.6380578810592
20
-4.87512937333915
30
0
41
1
10
61.4816933697371
20
-4.90899032540625
30
0
41
1
10
61.1689972396775
20
-4.97546478163935
30
0
41
1
10
61.0126447070581
20
-5.00804391705509
30
0
41
1
10
60.699854193346
20
-5.07177285301847
30
0
41
1
10
60.2305727870524
20
-5.16527523681381
30
0
41
1
10
59.7610415244481
20
-5.25260949736494
30
0
41
1
10
59.1348147790538
20
-5.36365058487849
30
0
41
1
10
58.8216079062636
20
-5.41646810874426
30
0
41
1
10
58.3517042837665
20
-5.49167013279231
30
0
41
1
10
58.1950543311794
20
-5.51606624960058
30
0
41
1
10
57.8817259821956
20
-5.56350711365465
30
0
41
1
10
57.7250558503243
20
-5.58656092832246
30
0
41
1
10
57.4116378442772
20
-5.63124714070111
30
0
41
1
10
57.2548647878108
20
-5.65285689270127
30
0
41
1
10
56.9411416413472
20
-5.69452980639633
30
0
41
1
10
56.4706389694551
20
-5.7547139121298
30
0
41
1
10
56.0004141284277
20
-5.80803017407393
30
0
41
1
10
55.3737278986139
20
-5.87310219700214
30
0
41
1
10
55.0605238950404
20
-5.90262991514993
30
0
41
1
10
54.590975300956
20
-5.9424280783285
30
0
41
1
10
54.4345021967852
20
-5.9549445340916
30
0
41
1
10
54.1216454434154
20
-5.97846978765688
30
0
41
1
10
53.9652701449064
20
-5.98948256734471
30
0
41
1
10
53.6525604310013
20
-6.00996220009827
30
0
41
1
10
53.496205322345
20
-6.01941843485037
30
0
41
1
10
53.1834158835268
20
-6.03673886887614
30
0
41
1
10
52.7141459947091
20
-6.06034782673203
30
0
41
1
10
52.2446559571233
20
-6.07691468745125
30
0
41
1
10
51.6185105134117
20
-6.09278577051498
30
0
41
1
10
51.305357433398
20
-6.09761281807531
30
0
41
1
10
50.8355543707423
20
-6.10015979932683
30
0
41
1
10
50.6789412812595
20
-6.10022570777431
30
0
41
1
10
50.3656934091245
20
-6.09877741179491
30
0
41
1
10
50.2090667726274
20
-6.09726203592041
30
0
41
1
10
49.8957439359294
20
-6.09263920913457
30
0
41
1
10
49.739027361601
20
-6.0895338877811
30
0
41
1
10
49.4254045937471
20
-6.08175650152751
30
0
41
1
10
49.2684849840706
20
-6.07708226809248
30
0
41
1
10
48.7979244373865
20
-6.06073294543313
30
0
41
1
10
48.4843541935962
20
-6.04673144971332
30
0
41
1
10
47.8575202203228
20
-6.01257099046126
30
0
41
1
10
47.544255465068
20
-5.99241312294418
30
0
41
1
10
47.0746352985066
20
-5.95752044679236
30
0
41
1
10
46.9181416261577
20
-5.94511265384426
30
0
41
1
10
46.605250341194
20
-5.91873134813
30
0
41
1
10
46.4488609577198
20
-5.90475162879844
30
0
41
1
10
46.1361310349962
20
-5.87524778702056
30
0
41
1
10
45.979770041633
20
-5.85973834569569
30
0
41
1
10
45.6669750682517
20
-5.82727781879194
30
0
41
1
10
45.1977067777798
20
-5.77639976701471
30
0
41
1
10
44.7282480178865
20
-5.71898625514231
30
0
41
1
10
44.1021705698795
20
-5.63662260616951
30
0
41
1
10
43.7890646093732
20
-5.59253637523068
30
0
41
1
10
43.1627811904022
20
-5.49844103676773
30
0
41
1
10
42.8496290390821
20
-5.4483972269895
30
0
41
1
10
42.3797773036505
20
-5.3688910479755
30
0
41
1
10
42.2231092133402
20
-5.34168834924065
30
0
41
1
10
41.9095894436466
20
-5.28600168036539
30
0
41
1
10
41.7527402043119
20
-5.25750132500653
30
0
41
1
10
41.2820194108206
20
-5.17003795512917
30
0
41
1
10
40.9683556818791
20
-5.10918588594143
30
0
41
1
10
40.3413609974311
20
-4.98239084851673
30
0
41
1
10
40.0280289921819
20
-4.91645004636985
30
0
41
1
10
39.4017602857673
20
-4.77936150014341
30
0
41
1
10
39.0888491898188
20
-4.70816619386923
30
0
41
1
10
38.6197140878502
20
-4.59753415126792
30
0
41
1
10
38.4633439138151
20
-4.56007185686886
30
0
41
1
10
38.1505368241067
20
-4.48413980893844
30
0
41
1
10
37.6812602575373
20
-4.36866811400355
30
0
41
1
10
37.2118228822644
20
-4.24844919170903
30
0
41
1
10
36.5858002048514
20
-4.08388993217218
30
0
41
1
10
36.2727347352398
20
-3.99947927473318
30
0
41
1
10
35.6465586636993
20
-3.82623087566023
30
0
41
1
10
35.3334728495026
20
-3.73733599289079
30
0
41
1
10
34.8637434896235
20
-3.60075763379532
30
0
41
1
10
34.7071204926958
20
-3.55475923836673
30
0
41
1
10
34.3936969600186
20
-3.46201842038337
30
0
41
1
10
34.2369079887217
20
-3.41524997440888
30
0
41
1
10
33.9231843414664
20
-3.32090286082826
30
0
41
1
10
33.7662282405727
20
-3.27331736625567
30
0
41
1
10
33.452468551866
20
-3.17741799497088
30
0
41
1
10
33.2956315057647
20
-3.12909414536875
30
0
41
1
10
32.8252552261717
20
-2.98298721287458
30
0
41
1
10
32.5118494717204
20
-2.88407323630247
30
0
41
1
10
31.8854592321148
20
-2.68306097753268
30
0
41
1
10
31.5724998212057
20
-2.58089803927524
30
0
41
1
10
31.103314613435
20
-2.42540033445272
30
0
41
1
10
30.9469319700478
20
-2.37326855587989
30
0
41
1
10
30.634106199087
20
-2.26863041361622
30
0
41
1
10
30.1648115102328
20
-2.11102237773767
30
0
41
1
10
29.6953856638403
20
-1.95138683377741
30
0
41
1
10
29.0694045896856
20
-1.73665305620747
30
0
41
1
10
28.7563730152064
20
-1.62834605561758
30
0
41
1
10
28.1302910478979
20
-1.40966699028294
30
0
41
1
10
27.817264940907
20
-1.29922721766155
30
0
41
1
10
27.3476478832665
20
-1.13216455758894
30
0
41
1
10
27.1910666136478
20
-1.07632402931145
30
0
41
1
10
26.8777326065423
20
-0.964582238620324
30
0
41
1
10
26.7209916448637
20
-0.908648449138155
30
0
41
1
10
26.2505599170891
20
-0.740626337069898
30
0
41
1
10
25.9365689778005
20
-0.628284488072751
30
0
41
1
10
25.3091539999259
20
-0.403303192003079
30
0
41
1
10
24.9956099881733
20
-0.290624444188666
30
0
41
1
10
24.3689135500767
20
-0.064710518609985
30
0
41
1
10
24.0557858577278
20
0.0485936350375482
30
0
41
1
10
23.5863277444306
20
0.218792643592394
30
0
41
1
10
23.4298510073941
20
0.275483364285662
30
0
41
1
10
23.1168286581284
20
0.388537236856933
30
0
41
1
10
22.6472271056913
20
0.557725224670918
30
0
41
1
10
22.1774589904791
20
0.725844471919771
30
0
41
1
10
21.5509903884058
20
0.949158982375877
30
0
41
1
10
21.2376994535617
20
1.06039107987806
30
0
41
1
10
20.6110675240173
20
1.28217551582441
30
0
41
1
10
20.2977508520062
20
1.39279438196215
30
0
41
1
10
19.8276741439078
20
1.55802904605497
30
0
41
1
10
19.670935611474
20
1.61291120417457
30
0
41
1
10
19.3572787339285
20
1.72204552011144
30
0
41
1
10
19.2003717822354
20
1.77633005722996
30
0
41
1
10
18.7298322195517
20
1.9382353243164
30
0
41
1
10
18.4162460789743
20
2.04495566353935
30
0
41
1
10
17.7893213661304
20
2.25608092346673
30
0
41
1
10
17.4759816992565
20
2.36048328384348
30
0
41
1
10
16.8496124899623
20
2.56712472863859
30
0
41
1
10
16.5366074585925
20
2.66942420035176
30
0
41
1
10
16.0672724856024
20
2.82106600671426
30
0
41
1
10
15.9108268865265
20
2.87123864890191
30
0
41
1
10
15.5978465073502
20
2.97062280195786
30
0
41
1
10
15.1282775248079
20
3.1183451267755
30
0
41
1
10
14.6584483222884
20
3.26211902695798
30
0
41
1
10
13.7185071053929
20
3.54457644217965
30
0
41
1
10
13.0914918747371
20
3.72609377472992
30
0
41
1
10
12.464326859662
20
3.90118415999859
30
0
0
SPLINE
5
CA
100
AcDbEntity
8
1
62
256
6
ByLayer
370
18
48
1
60
0
100
AcDbSpline
70
4
71
3
72
20
73
16
40
0
40
0
40
0
40
0
40
0.249999999999999
40
0.249999999999999
40
0.375000000000003
40
0.375000000000003
40
0.437500000000005
40
0.437500000000005
40
0.500000000000008
40
0.500000000000008
40
0.750000000000006
40
0.750000000000006
40
0.875000000000003
40
0.875000000000003
40
1
40
1
40
1
40
1
41
1
10
79.7610371039231
20
-0.876315523403122
30
0
41
1
10
79.1634704099497
20
-0.660435846407211
30
0
41
1
10
78.5662134327338
20
-0.444505851433121
30
0
41
1
10
77.6710143495193
20
-0.119890113500816
30
0
41
1
10
77.3727300910449
20
-0.0115624555899956
30
0
41
1
10
76.92551952577
20
0.151229010809232
30
0
41
1
10
76.776484598738
20
0.20554081626301
30
0
41
1
10
76.4784885192358
20
0.314268617242646
30
0
41
1
10
76.3295318173439
20
0.368696819348855
30
0
41
1
10
75.5846301697472
20
0.640260602906807
30
0
41
1
10
74.9881790775398
20
0.855250236387576
30
0
41
1
10
74.092956512774
20
1.17504818965793
30
0
41
1
10
73.7944558792171
20
1.28119334098452
30
0
41
1
10
73.1973259726391
20
1.49272937642553
30
0
41
1
10
72.8987215234534
20
1.59818772687765
30
0
41
1
10
72.6
20
1.70312124114812
30
0
0
SPLINE
5
CB
100
AcDbEntity
8
1
62
256
6
ByLayer
370
18
48
1
60
0
100
AcDbSpline
70
4
71
3
72
81
73
77
40
0
40
0
40
0
40
0
40
0.0625000000000133
40
0.0625000000000133
40
0.125000000000027
40
0.125000000000027
40
0.140625000000028
40
0.140625000000028
40
0.156250000000029
40
0.156250000000029
40
0.18750000000003
40
0.18750000000003
40
0.25000000000003
40
0.25000000000003
40
0.281250000000029
40
0.281250000000029
40
0.29687500000003
40
0.29687500000003
40
0.31250000000003
40
0.31250000000003
40
0.343750000000032
40
0.343750000000032
40
0.375000000000033
40
0.375000000000033
40
0.406250000000035
40
0.406250000000035
40
0.437500000000036
40
0.437500000000036
40
0.453125000000037
40
0.453125000000037
40
0.468750000000038
40
0.468750000000038
40
0.500000000000039
40
0.500000000000039
40
0.53125000000004
40
0.53125000000004
40
0.539062500000041
40
0.539062500000041
40
0.546875000000041
40
0.562500000000042
40
0.562500000000042
40
0.593750000000043
40
0.593750000000043
40
0.625000000000045
40
0.625000000000045
40
0.640625000000045
40
0.640625000000045
40
0.656250000000046
40
0.656250000000046
40
0.687500000000048
40
0.687500000000048
40
0.718750000000049
40
0.718750000000049
40
0.726562500000049
40
0.726562500000049
40
0.73437500000005
40
0.73437500000005
40
0.750000000000048
40
0.750000000000048
40
0.781250000000042
40
0.781250000000042
40
0.812500000000036
40
0.84375000000003
40
0.84375000000003
40
0.851562500000028
40
0.851562500000028
40
0.859375000000027
40
0.875000000000024
40
0.875000000000024
40
0.937500000000012
40
0.937500000000012
40
0.968750000000005
40
0.968750000000005
40
0.984375000000003
40
0.984375000000003
40
1
40
1
40
1
40
1
41
1
10
79.7610371039268
20
5.95617716559238
30
0
41
1
10
79.8378876742256
20
5.76559975460785
30
0
41
1
10
79.9149888784046
20
5.56934374687907
30
0
41
1
10
80.070134953578
20
5.16702634305037
30
0
41
1
10
80.1481807345284
20
4.96095587315432
30
0
41
1
10
80.2464118163514
20
4.69768729084575
30
0
41
1
10
80.2660908823862
20
4.64474783956268
30
0
41
1
10
80.3055130251553
20
4.53830218556746
30
0
41
1
10
80.3252634284845
20
4.48477539874179
30
0
41
1
10
80.3842547175001
20
4.32430536857044
30
0
41
1
10
80.4233542243334
20
4.21715832031427
30
0
41
1
10
80.5399206394204
20
3.89521267078058
30
0
41
1
10
80.6166947409079
20
3.67992468751134
30
0
41
1
10
80.7296973840021
20
3.35576962883113
30
0
41
1
10
80.7669969136927
20
3.24751086218049
30
0
41
1
10
80.8221865087493
20
3.08473944396786
30
0
41
1
10
80.8404554228163
20
3.03041805161931
30
0
41
1
10
80.8766884128113
20
2.92162907519983
30
0
41
1
10
80.8946615598049
20
2.8671323812776
30
0
41
1
10
80.9477738583868
20
2.70418352134675
30
0
41
1
10
80.9821996390136
20
2.59602242410986
30
0
41
1
10
81.0484571041278
20
2.38046437251313
30
0
41
1
10
81.0802931507234
20
2.27306810281863
30
0
41
1
10
81.1404038018665
20
2.0588151979704
30
0
41
1
10
81.1686834489132
20
1.95195903349364
30
0
41
1
10
81.2202242865494
20
1.73849598039647
30
0
41
1
10
81.2434877494097
20
1.63188820944154
30
0
41
1
10
81.2730629890006
20
1.47189695279837
30
0
41
1
10
81.2820344870753
20
1.41848448562342
30
0
41
1
10
81.2977423220366
20
1.31265233032107
30
0
41
1
10
81.3045021729987
20
1.26011423033361
30
0
41
1
10
81.3211700833843
20
1.10367669775036
30
0
41
1
10
81.3274309085641
20
1.00094867683072
30
0
41
1
10
81.329080461405
20
0.798980048742919
30
0
41
1
10
81.324459545232
20
0.699740936130382
30
0
41
1
10
81.3119314093159
20
0.578194402307787
30
0
41
1
10
81.3090874302306
20
0.553980869530051
30
0
41
1
10
81.3027625282978
20
0.505950052314972
30
0
41
1
10
81.2923452145516
20
0.434668354807315
30
0
41
1
10
81.279298950457
20
0.365652391010997
30
0
41
1
10
81.2501380173367
20
0.230569302013606
30
0
41
1
10
81.2266229547247
20
0.144440258685194
30
0
41
1
10
81.1735601072098
20
-0.020266951767212
30
0
41
1
10
81.1440168083863
20
-0.0988473515122905
30
0
41
1
10
81.0963531374991
20
-0.211138111374879
30
0
41
1
10
81.0798840806538
20
-0.247665469305559
30
0
41
1
10
81.0462813910399
20
-0.31821375908703
30
0
41
1
10
81.0291127370103
20
-0.352321826072654
30
0
41
1
10
80.9767043234702
20
-0.451252002002178
30
0
41
1
10
80.9405740334429
20
-0.512689501667921
30
0
41
1
10
80.8666312395058
20
-0.626831720908598
30
0
41
1
10
80.828813749355
20
-0.679534825847156
30
0
41
1
10
80.7807178285916
20
-0.73996284930962
30
0
41
1
10
80.771056830032
20
-0.751775271788745
30
0
41
1
10
80.751654792371
20
-0.774851456219835
30
0
41
1
10
80.7419077504594
20
-0.786121300950896
30
0
41
1
10
80.7126778433991
20
-0.818964147817155
30
0
41
1
10
80.6931679546751
20
-0.839618545437133
30
0
41
1
10
80.6345989579711
20
-0.897942506048821
30
0
41
1
10
80.5955034284477
20
-0.931980340434109
30
0
41
1
10
80.5172842873475
20
-0.990609604105401
30
0
41
1
10
80.4390351840914
20
-1.03979049965918
30
0
41
1
10
80.3607038798235
20
-1.07009976781154
30
0
41
1
10
80.3116805920362
20
-1.08301816901164
30
0
41
1
10
80.3018672988355
20
-1.08530041005034
30
0
41
1
10
80.2823217135721
20
-1.08924079175529
30
0
41
1
10
80.2530929349715
20
-1.09422453203774
30
0
41
1
10
80.2241233660999
20
-1.09645866205239
30
0
41
1
10
80.1280917750532
20
-1.09789924989505
30
0
41
1
10
80.0529727842161
20
-1.0799511622981
30
0
41
1
10
79.9420572746111
20
-1.02484794268537
30
0
41
1
10
79.9053796073451
20
-1.00175989978175
30
0
41
1
10
79.8507050496731
20
-0.959892047561567
30
0
41
1
10
79.8325918054945
20
-0.944768942949366
30
0
41
1
10
79.7966337247254
20
-0.912254333407418
30
0
41
1
10
79.7787783991232
20
-0.894854842955681
30
0
41
1
10
79.7610371039268
20
-0.876315523404486
30
0
0
SPLINE
5
CC
100
AcDbEntity
8
1
62
256
6
ByLayer
370
18
48
1
60
0
100
AcDbSpline
70
4
71
3
72
18
73
14
40
0
40
0
40
0
40
0
40
0.0562327699560657
40
0.0562327699560657
40
0.161095795516505
40
0.161095795516505
40
0.580547897758261
40
0.580547897758261
40
0.790273948879139
40
0.790273948879139
40
0.89513697443957
40
0.89513697443957
40
1
40
1
40
1
40
1
41
1
10
75.4937111807857
20
6.15073158294427
30
0
41
1
10
75.573595839326
20
6.15074479279008
30
0
41
1
10
75.6534859466086
20
6.15054951873506
30
0
41
1
10
75.8824018152235
20
6.14939603663908
30
0
41
1
10
76.0314498992147
20
6.14792540304492
30
0
41
1
10
76.7768178288936
20
6.13700727715929
30
0
41
1
10
77.3735042600541
20
6.11692038725926
30
0
41
1
10
78.2686214360408
20
6.06964099032322
30
0
41
1
10
78.567005529143
20
6.05100959696318
30
0
41
1
10
79.014546690386
20
6.01863364067202
30
0
41
1
10
79.1637201733269
20
6.00709964146432
30
0
41
1
10
79.4622434727103
20
5.98265844862331
30
0
41
1
10
79.6115997000566
20
5.96975804298307
30
0
41
1
10
79.7610371039231
20
5.95617716559272
30
0
0
SPLINE
5
CD
100
AcDbEntity
8
1
62
256
6
ByLayer
370
18
48
1
60
0
100
AcDbSpline
70
4
71
3
72
20
73
16
40
0
40
0
40
0
40
0
40
0.246244754708
40
0.246244754708
40
0.492489509415999
40
0.492489509415999
40
0.554050698092999
40
0.554050698092999
40
0.615611886769999
40
0.615611886769999
40
0.738734264123998
40
0.738734264123998
40
0.984979018831998
40
0.984979018831998
40
1
40
1
40
1
40
1
41
1
10
15.1657872680145
20
-5.54181469020932
30
0
41
1
10
15.7646131636355
20
-5.63285393925182
30
0
41
1
10
16.3633905743839
20
-5.71228647053374
30
0
41
1
10
17.5600802098928
20
-5.84960836883766
30
0
41
1
10
18.1579890126224
20
-5.90748969513842
30
0
41
1
10
18.9044372178608
20
-5.96632606441452
30
0
41
1
10
19.0536894350034
20
-5.97740573779984
30
0
41
1
10
19.3523122992837
20
-5.99808485802885
30
0
41
1
10
19.501675732441
20
-6.00769082708069
30
0
41
1
10
19.9498822516231
20
-6.0343535838351
30
0
41
1
10
20.2488331784819
20
-6.04926158938076
30
0
41
1
10
21.1459802442235
20
-6.08551696153751
30
0
41
1
10
21.7444826972728
20
-6.09844073973343
30
0
41
1
10
22.3795673332922
20
-6.09995510267888
30
0
41
1
10
22.4160798683008
20
-6.0999990480114
30
0
41
1
10
22.4525930112839
20
-6.0999998112741
30
0
0
SPLINE
5
CE
100
AcDbEntity
8
1
62
256
6
ByLayer
370
18
48
1
60
0
100
AcDbSpline
70
4
71
3
72
30
73
26
40
0
40
0
40
0
40
0
40
0.0480722982186166
40
0.0480722982186166
40
0.143265068396757
40
0.143265068396757
40
0.238457838574896
40
0.238457838574896
40
0.333650608753036
40
0.333650608753036
40
0.428843378931176
40
0.428843378931176
40
0.476439764020246
40
0.476439764020246
40
0.524036149109316
40
0.524036149109316
40
0.619228919287456
40
0.619228919287456
40
0.809614459643735
40
0.809614459643735
40
0.857210844732803
40
0.857210844732803
40
0.90480722982187
40
0.90480722982187
40
1
40
1
40
1
40
1
41
1
10
63.1662614767231
20
4.53411289157344
30
0
41
1
10
63.3174234639983
20
4.57059548930582
30
0
41
1
10
63.4685416387946
20
4.60658093402412
30
0
41
1
10
63.9187563096707
20
4.71236944838279
30
0
41
1
10
64.2176404052855
20
4.78083594976408
30
0
41
1
10
64.8159403664129
20
4.91228596809592
30
0
41
1
10
65.1152576447296
20
4.97545969070015
30
0
41
1
10
65.7140788783391
20
5.09701171716839
30
0
41
1
10
66.0135923112625
20
5.1553738404715
30
0
41
1
10
66.612742034519
20
5.26738973608343
30
0
41
1
10
66.9124399321585
20
5.32105881016827
30
0
41
1
10
67.3617950616298
20
5.39802821950215
30
0
41
1
10
67.5115076799173
20
5.42309206284369
30
0
41
1
10
67.8107971049257
20
5.47200855293528
30
0
41
1
10
67.9603837614733
20
5.49584663366713
30
0
41
1
10
68.4092552183377
20
5.56516278766762
30
0
41
1
10
68.7086003804676
20
5.60851837963389
30
0
41
1
10
69.6066595212569
20
5.7304863373937
30
0
41
1
10
70.20544405994
20
5.80098867146833
30
0
41
1
10
70.9535845596104
20
5.87588724611578
30
0
41
1
10
71.1031956621454
20
5.89020177786259
30
0
41
1
10
71.4023749049535
20
5.91749135567952
30
0
41
1
10
71.5519311080537
20
5.93047274138593
30
0
41
1
10
72.0007454516213
20
5.96725154932085
30
0
41
1
10
72.3002574192228
20
5.98882790261044
30
0
41
1
10
72.6
20
6.0075551290561
30
0
0
SPLINE
5
CF
100
AcDbEntity
8
1
62
256
6
ByLayer
370
18
48
1
60
0
100
AcDbSpline
70
4
71
3
72
70
73
66
40
0
40
0
40
0
40
0
40
0.021487816256207
40
0.021487816256207
40
0.042975632512414
40
0.0859512650248263
40
0.0859512650248263
40
0.128926897537238
40
0.128926897537238
40
0.150414713793446
40
0.150414713793446
40
0.171902530049653
40
0.171902530049653
40
0.193390346305859
40
0.193390346305859
40
0.214878162562066
40
0.257853795074482
40
0.257853795074482
40
0.300829427586898
40
0.300829427586898
40
0.322317243843106
40
0.322317243843106
40
0.343805060099313
40
0.343805060099313
40
0.365292876355521
40
0.365292876355521
40
0.386780692611729
40
0.429756325124143
40
0.429756325124143
40
0.472731957636557
40
0.472731957636557
40
0.494219773892764
40
0.494219773892764
40
0.515707590148971
40
0.515707590148971
40
0.537195406405178
40
0.537195406405178
40
0.558683222661385
40
0.6016588551738
40
0.6016588551738
40
0.644634487686216
40
0.644634487686216
40
0.666122303942423
40
0.666122303942423
40
0.68761012019863
40
0.68761012019863
40
0.709097936454837
40
0.709097936454837
40
0.730585752711044
40
0.77356138522346
40
0.77356138522346
40
0.816537017735875
40
0.816537017735875
40
0.838024833992083
40
0.838024833992083
40
0.859512650248291
40
0.859512650248291
40
0.881000466504499
40
0.881000466504499
40
0.902488282760706
40
0.94546391527312
40
0.94546391527312
40
0.988439547785534
40
0.988439547785534
40
1
40
1
40
1
40
1
41
1
10
72.6
20
1.67052868572887
30
0
41
1
10
72.4431854761543
20
1.72523006353592
30
0
41
1
10
72.2864177308745
20
1.77966383426627
30
0
41
1
10
71.9729026852011
20
1.8878034693779
30
0
41
1
10
71.5026920002179
20
2.04900698438905
30
0
41
1
10
71.0326990231192
20
2.2073150725696
30
0
41
1
10
70.4062692453771
20
2.41593542671947
30
0
41
1
10
70.0931671692842
20
2.51901492216302
30
0
41
1
10
69.6237322040849
20
2.67190404493081
30
0
41
1
10
69.4672903738691
20
2.72257866683691
30
0
41
1
10
69.1544829045265
20
2.82335376333035
30
0
41
1
10
68.9981258510801
20
2.87347517229639
30
0
41
1
10
68.685436615294
20
2.97301103694849
30
0
41
1
10
68.5290833168712
20
3.0223736596972
30
0
41
1
10
68.2162850524905
20
3.12011314346125
30
0
41
1
10
67.74698211011
20
3.26532189642822
30
0
41
1
10
67.2773995751768
20
3.40644569463816
30
0
41
1
10
66.6510780880031
20
3.59108008312774
30
0
41
1
10
66.3378106817572
20
3.68163013813017
30
0
41
1
10
65.8677963357432
20
3.81489093617699
30
0
41
1
10
65.7111061234763
20
3.85888365530892
30
0
41
1
10
65.3976904845894
20
3.94601198136041
30
0
41
1
10
65.2409734400723
20
3.98916545843485
30
0
41
1
10
64.9274533697652
20
4.07449746630078
30
0
41
1
10
64.7706022086224
20
4.11663824198828
30
0
41
1
10
64.4569863615106
20
4.19962687518947
30
0
41
1
10
63.9866345592329
20
4.32226383143012
30
0
41
1
10
63.5165305402539
20
4.43949029614328
30
0
41
1
10
62.8899790782709
20
4.59109592653968
30
0
41
1
10
62.5768293198369
20
4.66454930399314
30
0
41
1
10
62.1073424888962
20
4.77127943991997
30
0
41
1
10
61.9508866754382
20
4.80628076736204
30
0
41
1
10
61.6380578810592
20
4.87512937333918
30
0
41
1
10
61.4816933697371
20
4.90899032540628
30
0
41
1
10
61.1689972396775
20
4.97546478163935
30
0
41
1
10
61.0126447070581
20
5.00804391705509
30
0
41
1
10
60.699854193346
20
5.07177285301847
30
0
41
1
10
60.2305727870524
20
5.16527523681381
30
0
41
1
10
59.7610415244481
20
5.25260949736494
30
0
41
1
10
59.1348147790539
20
5.36365058487851
30
0
41
1
10
58.8216079062637
20
5.41646810874426
30
0
41
1
10
58.3517042837666
20
5.49167013279231
30
0
41
1
10
58.1950543311794
20
5.51606624960058
30
0
41
1
10
57.8817259821955
20
5.56350711365465
30
0
41
1
10
57.7250558503243
20
5.58656092832246
30
0
41
1
10
57.4116378442772
20
5.63124714070111
30
0
41
1
10
57.2548647878109
20
5.65285689270127
30
0
41
1
10
56.9411416413473
20
5.69452980639633
30
0
41
1
10
56.470638969455
20
5.75471391212983
30
0
41
1
10
56.0004141284277
20
5.80803017407393
30
0
41
1
10
55.3737278986139
20
5.87310219700214
30
0
41
1
10
55.0605238950404
20
5.90262991514993
30
0
41
1
10
54.590975300956
20
5.9424280783285
30
0
41
1
10
54.4345021967852
20
5.9549445340916
30
0
41
1
10
54.1216454434155
20
5.97846978765688
30
0
41
1
10
53.9652701449064
20
5.98948256734471
30
0
41
1
10
53.6525604310013
20
6.00996220009827
30
0
41
1
10
53.4962053223451
20
6.01941843485037
30
0
41
1
10
53.1834158835268
20
6.03673886887614
30
0
41
1
10
52.7141459947092
20
6.06034782673203
30
0
41
1
10
52.2446559571233
20
6.07691468745125
30
0
41
1
10
51.6185105134118
20
6.09278577051495
30
0
41
1
10
51.305357433398
20
6.09761281807531
30
0
41
1
10
50.9079039908759
20
6.09976756449336
30
0
41
1
10
50.8236490969367
20
6.09999766379076
30
0
41
1
10
50.7393909001034
20
6.10000001791548
30
0
0
SPLINE
5
D0
100
AcDbEntity
8
1
62
256
6
ByLayer
370
18
48
1
60
0
100
AcDbSpline
70
4
71
3
72
56
73
52
40
0
40
0
40
0
40
0
40
0.130526963440745
40
0.130526963440745
40
0.261053926881491
40
0.261053926881491
40
0.326317408601864
40
0.326317408601864
40
0.391580890322238
40
0.391580890322238
40
0.456844372042612
40
0.456844372042612
40
0.489476112902799
40
0.489476112902799
40
0.522107853762986
40
0.522107853762986
40
0.587371335483362
40
0.587371335483362
40
0.620003076343551
40
0.620003076343551
40
0.636318946773647
40
0.636318946773647
40
0.652634817203743
40
0.652634817203743
40
0.717898298924123
40
0.717898298924123
40
0.750530039784312
40
0.750530039784312
40
0.783161780644501
40
0.783161780644501
40
0.799477651074597
40
0.807635586289645
40
0.807635586289645
40
0.815793521504692
40
0.815793521504692
40
0.848425262364883
40
0.848425262364883
40
0.881057003225074
40
0.881057003225074
40
0.89737287365517
40
0.89737287365517
40
0.905530808870217
40
0.905530808870217
40
0.913688744085264
40
0.946320484945453
40
0.946320484945453
40
0.978952225805641
40
0.978952225805641
40
0.995268096235735
40
0.995268096235735
40
1
40
1
40
1
40
1
41
1
10
10
20
-4.989011062743
30
0
41
1
10
9.62898208252739
20
-5.04966608168459
30
0
41
1
10
9.26091801269453
20
-5.11862772886101
30
0
41
1
10
8.53097670864898
20
-5.27360076155486
30
0
41
1
10
8.16909453600812
20
-5.35960197106502
30
0
41
1
10
7.63108160766254
20
-5.50123518649295
30
0
41
1
10
7.45254577938471
20
-5.55054758836783
30
0
41
1
10
7.09711671222902
20
-5.65331600683163
30
0
41
1
10
6.92022316337861
20
-5.70677176441313
30
0
41
1
10
6.56813284325727
20
-5.81775400125136
30
0
41
1
10
6.39293557729098
20
-5.87528019890078
30
0
41
1
10
6.13147336938707
20
-5.96456384915874
30
0
41
1
10
6.04448863663166
20
-5.99484300537515
30
0
41
1
10
5.87120306437885
20
-6.0563102253532
30
0
41
1
10
5.78523960354568
20
-6.08737793710168
30
0
41
1
10
5.52946211329603
20
-6.18149811986154
30
0
41
1
10
5.36175194326225
20
-6.24547049560923
30
0
41
1
10
5.11483100640092
20
-6.34288439721232
30
0
41
1
10
5.0333000807392
20
-6.37559762088736
30
0
41
1
10
4.91224587674566
20
-6.42497483091074
30
0
41
1
10
4.87210170662513
20
-6.4414850664989
30
0
41
1
10
4.79224365011345
20
-6.47459772898074
30
0
41
1
10
4.75248989518965
20
-6.49121702098549
30
0
41
1
10
4.55538052456552
20
-6.57428923990244
30
0
41
1
10
4.40321851534196
20
-6.64057118853407
30
0
41
1
10
4.18452040995618
20
-6.73882868091309
30
0
41
1
10
4.11321841620742
20
-6.77138458500428
30
0
41
1
10
3.97413202215694
20
-6.83591110292235
30
0
41
1
10
3.9063459864152
20
-6.86788234376431
30
0
41
1
10
3.80763591874634
20
-6.91522288370663
30
0
41
1
10
3.75902475815491
20
-6.93873846050531
30
0
41
1
10
3.71161031842598
20
-6.96198161503042
30
0
41
1
10
3.68027723943828
20
-6.97741141479571
30
0
41
1
10
3.66474457970924
20
-6.98509576418203
30
0
41
1
10
3.58813974839779
20
-7.02317065236119
30
0
41
1
10
3.52996143959652
20
-7.05265775179336
30
0
41
1
10
3.42046284772047
20
-7.10930499735997
30
0
41
1
10
3.3691385054309
20
-7.13646680669362
30
0
41
1
10
3.29798849524928
20
-7.17509771269457
30
0
41
1
10
3.27524713392052
20
-7.18762171182632
30
0
41
1
10
3.24271479973473
20
-7.20582054426546
30
0
41
1
10
3.23211617221878
20
-7.21179919818178
30
0
41
1
10
3.21157931013789
20
-7.22348646040484
30
0
41
1
10
3.16188121585006
20
-7.25203294160252
30
0
41
1
10
3.12046817916837
20
-7.27716274872182
30
0
41
1
10
3.06551750838119
20
-7.31257410822028
30
0
41
1
10
3.04369300933772
20
-7.32788338762214
30
0
41
1
10
3.02025745856298
20
-7.34683191630114
30
0
41
1
10
3.01399923676169
20
-7.35247763644693
30
0
41
1
10
3.00805096308326
20
-7.35883890134141
30
0
41
1
10
3.00685620161534
20
-7.36020505106839
30
0
41
1
10
3.00580504288229
20
-7.36150531074995
30
0
0
SPLINE
5
D1
100
AcDbEntity
8
1
62
256
6
ByLayer
370
18
48
1
60
0
100
AcDbSpline
70
4
71
3
72
11
73
7
40
0
40
0
40
0
40
0
40
0.273532060576297
40
0.273532060576297
40
0.763725439318649
40
1
40
1
40
1
40
1
41
1
10
3.00578825989803
20
-7.37965697432855
30
0
41
1
10
3.0077772982122
20
-7.38030726061743
30
0
41
1
10
3.0102758542275
20
-7.38072245685197
30
0
41
1
10
3.0186607644282
20
-7.38123189436172
30
0
41
1
10
3.02904197197012
20
-7.38060747537872
30
0
41
1
10
3.04295749112802
20
-7.37835879818195
30
0
41
1
10
3.0478565750966
20
-7.37745631642446
30
0
0
SPLINE
5
D2
100
AcDbEntity
8
1
62
256
6
ByLayer
370
18
48
1
60
0
100
AcDbSpline
70
4
71
3
72
47
73
43
40
0
40
0
40
0
40
0
40
0.0019768279078484
40
0.0019768279078484
40
0.0431595980571131
40
0.0431595980571131
40
0.084342368206378
40
0.084342368206378
40
0.0946380607436952
40
0.0946380607436952
40
0.104933753281012
40
0.125525138355646
40
0.125525138355646
40
0.166707908504916
40
0.166707908504916
40
0.207890678654185
40
0.207890678654185
40
0.228482063728819
40
0.228482063728819
40
0.249073448803452
40
0.249073448803452
40
0.290256218952722
40
0.290256218952722
40
0.372621759251259
40
0.372621759251259
40
0.454987299549796
40
0.454987299549796
40
0.496170069699064
40
0.496170069699064
40
0.537352839848332
40
0.537352839848332
40
0.619718380146869
40
0.619718380146869
40
0.702083920445406
40
0.702083920445406
40
0.784449460743943
40
0.784449460743943
40
0.866815001042481
40
0.866815001042481
40
0.949180541341018
40
0.949180541341018
40
1
40
1
40
1
40
1
41
1
10
3.06158354997865
20
-7.37469251081731
30
0
41
1
10
3.06268828900136
20
-7.37445343067282
30
0
41
1
10
3.06380719356372
20
-7.37420772510595
30
0
41
1
10
3.08854006585656
20
-7.36869990411111
30
0
41
1
10
3.11794176453
20
-7.36065883800225
30
0
41
1
10
3.18693999477682
20
-7.33975545987374
30
0
41
1
10
3.22654274856566
20
-7.32689041136385
30
0
41
1
10
3.28179885028399
20
-7.3081434274778
30
0
41
1
10
3.29315488831318
20
-7.30425467517168
30
0
41
1
10
3.31631969024721
20
-7.29625589970365
30
0
41
1
10
3.35175935725249
20
-7.2839215606889
30
0
41
1
10
3.38917997843615
20
-7.27063221429262
30
0
41
1
10
3.46644416573523
20
-7.24290207239557
30
0
41
1
10
3.52117598079491
20
-7.22288459960797
30
0
41
1
10
3.6361755038314
20
-7.18029935841213
30
0
41
1
10
3.69644664014803
20
-7.15772983170854
30
0
41
1
10
3.79049958232565
20
-7.12224803950869
30
0
41
1
10
3.82245972107106
20
-7.11014869834341
30
0
41
1
10
3.88752783807115
20
-7.08544533230943
30
0
41
1
10
3.92068979205609
20
-7.07282066227012
30
0
41
1
10
4.02123506258255
20
-7.03445899863297
30
0
41
1
10
4.08975524146121
20
-7.00820635590367
30
0
41
1
10
4.29913553443345
20
-6.92777809835107
30
0
41
1
10
4.44378720711381
20
-6.87195155136672
30
0
41
1
10
4.74079788792093
20
-6.75714356030818
30
0
41
1
10
4.89317391545569
20
-6.69815197505102
30
0
41
1
10
5.1262938810703
20
-6.60782933858155
30
0
41
1
10
5.20476414967391
20
-6.57741271497949
30
0
41
1
10
5.36306434632314
20
-6.51602053977706
30
0
41
1
10
5.4429620821814
20
-6.48501857348254
30
0
41
1
10
5.68341663692235
20
-6.39164902788875
30
0
41
1
10
5.84503503009537
20
-6.32880405612471
30
0
41
1
10
6.17023971335965
20
-6.20198911290643
30
0
41
1
10
6.33382765743002
20
-6.13801736080197
30
0
41
1
10
6.66244214752027
20
-6.00889738757087
30
0
41
1
10
6.82746933517893
20
-5.94374784045698
30
0
41
1
10
7.15852797580044
20
-5.81214724790232
30
0
41
1
10
7.32455950031078
20
-5.74569498525594
30
0
41
1
10
7.65727820418562
20
-5.61132738794453
30
0
41
1
10
7.82396512198915
20
-5.54341078794013
30
0
41
1
10
8.0938182426988
20
-5.43227634737562
30
0
41
1
10
8.19686151804726
20
-5.38956100963776
30
0
41
1
10
8.29996154037229
20
-5.3465219529073
30
0
0
SPLINE
5
D3
100
AcDbEntity
8
1
62
256
6
ByLayer
370
18
48
1
60
0
100
AcDbSpline
70
4
71
3
72
10
73
6
40
0
40
0
40
0
40
0
40
0.646308108293808
40
0.646308108293808
40
1
40
1
40
1
40
1
41
1
10
10
20
4.989011062743
30
0
41
1
10
9.62898208252739
20
5.04966608168459
30
0
41
1
10
9.26091801269456
20
5.11862772886101
30
0
41
1
10
8.69621729590136
20
5.23851871483595
30
0
41
1
10
8.49741217569689
20
5.28347318341105
30
0
41
1
10
8.29955140607623
20
5.33096228461875
30
0
0
SPLINE
5
D4
100
AcDbEntity
8
1
62
256
6
ByLayer
370
18
48
1
60
0
100
AcDbSpline
70
4
71
3
72
55
73
51
40
0
40
0
40
0
40
0
40
0.000287871194561
40
0.000287871194561
40
0.008285568225004
40
0.008285568225004
40
0.0402763563467781
40
0.0402763563467781
40
0.072267144468552
40
0.072267144468552
40
0.080264841498995
40
0.080264841498995
40
0.0882625385294383
40
0.104257932590325
40
0.104257932590325
40
0.136248720712099
40
0.136248720712099
40
0.168239508833873
40
0.168239508833873
40
0.18423490289476
40
0.18423490289476
40
0.200230296955647
40
0.200230296955647
40
0.232221085077423
40
0.232221085077423
40
0.296202661320972
40
0.296202661320972
40
0.360184237564521
40
0.360184237564521
40
0.392175025686296
40
0.392175025686296
40
0.424165813808071
40
0.424165813808071
40
0.488147390051619
40
0.488147390051619
40
0.552128966295167
40
0.552128966295167
40
0.616110542538714
40
0.616110542538714
40
0.680092118782262
40
0.680092118782262
40
0.744073695025809
40
0.744073695025809
40
0.808055271269357
40
0.808055271269357
40
0.872036847512905
40
0.872036847512905
40
0.936018423756452
40
0.936018423756452
40
1
40
1
40
1
40
1
41
1
10
3.0478565784851
20
7.37745631580023
30
0
41
1
10
3.0480395016223
20
7.37742261872461
30
0
41
1
10
3.04822294510456
20
7.3773886830723
30
0
41
1
10
3.05351782907775
20
7.37640507437624
30
0
41
1
10
3.05904001718199
20
7.37526933872894
30
0
41
1
10
3.08854006585651
20
7.36869990411111
30
0
41
1
10
3.11794176452995
20
7.36065883800225
30
0
41
1
10
3.18693999477677
20
7.33975545987377
30
0
41
1
10
3.22654274856561
20
7.32689041136388
30
0
41
1
10
3.28179885028393
20
7.3081434274778
30
0
41
1
10
3.2931548883131
20
7.3042546751717
30
0
41
1
10
3.31631969024716
20
7.29625589970365
30
0
41
1
10
3.35175935725238
20
7.2839215606889
30
0
41
1
10
3.38917997843606
20
7.27063221429265
30
0
41
1
10
3.46644416573514
20
7.24290207239559
30
0
41
1
10
3.52117598079482
20
7.22288459960799
30
0
41
1
10
3.63617550383134
20
7.18029935841216
30
0
41
1
10
3.69644664014794
20
7.15772983170856
30
0
41
1
10
3.79049958232554
20
7.12224803950872
30
0
41
1
10
3.82245972107097
20
7.11014869834341
30
0
41
1
10
3.88752783807109
20
7.08544533230943
30
0
41
1
10
3.92068979205604
20
7.07282066227015
30
0
41
1
10
4.02123506258246
20
7.034458998633
30
0
41
1
10
4.08975524146112
20
7.00820635590367
30
0
41
1
10
4.29913553443336
20
6.9277780983511
30
0
41
1
10
4.44378720711376
20
6.87195155136678
30
0
41
1
10
4.74079788792088
20
6.75714356030824
30
0
41
1
10
4.89317391545561
20
6.69815197505105
30
0
41
1
10
5.12629388107018
20
6.60782933858158
30
0
41
1
10
5.20476414967382
20
6.57741271497952
30
0
41
1
10
5.36306434632306
20
6.51602053977706
30
0
41
1
10
5.44296208218131
20
6.48501857348254
30
0
41
1
10
5.68341663692226
20
6.39164902788875
30
0
41
1
10
5.84503503009529
20
6.32880405612474
30
0
41
1
10
6.17023971335959
20
6.20198911290646
30
0
41
1
10
6.33382765742996
20
6.138017360802
30
0
41
1
10
6.66244214752021
20
6.0088973875709
30
0
41
1
10
6.82746933517888
20
5.94374784045701
30
0
41
1
10
7.15852797580038
20
5.81214724790232
30
0
41
1
10
7.32455950031078
20
5.74569498525594
30
0
41
1
10
7.65727820418562
20
5.61132738794453
30
0
41
1
10
7.82396512198909
20
5.54341078794016
30
0
41
1
10
8.15773541537754
20
5.4059531415908
30
0
41
1
10
8.32481836544738
20
5.33641073746273
30
0
41
1
10
8.65922188494136
20
5.19557957106599
30
0
41
1
10
8.82654201700271
20
5.12428940273742
30
0
41
1
10
9.161374955605
20
4.9799219667637
30
0
41
1
10
9.32888745642725
20
4.90684336146361
30
0
41
1
10
9.6641857758498
20
4.7589811512147
30
0
41
1
10
9.83197153844242
20
4.68419643776588
30
0
41
1
10
10
20
4.60868036530508
30
0
0
SPLINE
5
D5
100
AcDbEntity
8
1
62
256
6
ByLayer
370
13
48
1
60
0
100
AcDbSpline
70
4
71
3
72
22
73
18
40
0
40
0
40
0
40
0
40
0.125
40
0.125
40
0.25
40
0.25
40
0.375
40
0.375
40
0.5
40
0.5
40
0.625
40
0.625
40
0.75
40
0.75
40
0.875
40
0.875
40
1
40
1
40
1
40
1
41
1
10
72.6
20
3.32981642368043
30
0
41
1
10
72.6469419259269
20
3.55197511108707
30
0
41
1
10
72.6938838518537
20
3.7664256228627
30
0
41
1
10
72.7877677037073
20
4.17397492858197
30
0
41
1
10
72.8347096296341
20
4.36705736015199
30
0
41
1
10
72.9285934814878
20
4.72685757367293
30
0
41
1
10
72.9755354074146
20
4.89356385921994
30
0
41
1
10
73.0694192592682
20
5.19698654013084
30
0
41
1
10
73.1163611851951
20
5.33369817105537
30
0
41
1
10
73.2102450370487
20
5.57514378757199
30
0
41
1
10
73.2571869629755
20
5.67988001933918
30
0
41
1
10
73.3510708148292
20
5.85706184539978
30
0
41
1
10
73.3980127407561
20
5.92951546049926
30
0
41
1
10
73.4918965926097
20
6.0433337799538
30
0
41
1
10
73.5388385185365
20
6.08471008520541
30
0
41
1
10
73.6327223703902
20
6.13878681050218
30
0
41
1
10
73.679664296317
20
6.1515
30
0
41
1
10
73.7266062222438
20
6.1515
30
0
0
SPLINE
5
D6
100
AcDbEntity
8
1
62
256
6
ByLayer
370
13
48
1
60
0
100
AcDbSpline
70
4
71
3
72
42
73
38
40
0
40
0
40
0
40
0
40
0.0624999999999983
40
0.0624999999999983
40
0.124999999999997
40
0.124999999999997
40
0.187499999999995
40
0.187499999999995
40
0.249999999999993
40
0.249999999999993
40
0.312499999999992
40
0.312499999999992
40
0.37499999999999
40
0.37499999999999
40
0.437499999999988
40
0.437499999999988
40
0.499999999999987
40
0.499999999999987
40
0.562499999999985
40
0.562499999999985
40
0.624999999999983
40
0.624999999999983
40
0.656249999999983
40
0.656249999999983
40
0.671874999999983
40
0.671874999999983
40
0.687499999999983
40
0.687499999999983
40
0.749999999999986
40
0.749999999999986
40
0.81249999999999
40
0.81249999999999
40
0.874999999999993
40
0.874999999999993
40
0.937499999999997
40
0.937499999999997
40
1
40
1
40
1
40
1
41
1
10
77.1258237878415
20
6.1515
30
0
41
1
10
77.1807240652597
20
6.1515
30
0
41
1
10
77.2356243426778
20
6.13409602118273
30
0
41
1
10
77.345424897514
20
6.05941766392789
30
0
41
1
10
77.4003251749322
20
6.00211551353692
30
0
41
1
10
77.5101257297683
20
5.84420384855292
30
0
41
1
10
77.5650260071865
20
5.74357110045793
30
0
41
1
10
77.6748265620226
20
5.49803019872886
30
0
41
1
10
77.7297268394409
20
5.35311048716909
30
0
41
1
10
77.8395273942771
20
5.0210457613878
30
0
41
1
10
77.8944276716952
20
4.83390613722801
30
0
41
1
10
78.0042282265314
20
4.4225794332296
30
0
41
1
10
78.0591285039496
20
4.19841538488748
30
0
41
1
10
78.1689290587858
20
3.72091635459162
30
0
41
1
10
78.2238293362039
20
3.46761718983152
30
0
41
1
10
78.3336298910402
20
2.94151652279424
30
0
41
1
10
78.3885301684584
20
2.66875489030099
30
0
41
1
10
78.4983307232947
20
2.1140185844412
30
0
41
1
10
78.5532310007127
20
1.83207870744462
30
0
41
1
10
78.663031555549
20
1.26874192781628
30
0
41
1
10
78.7179318329671
20
0.98736851490699
30
0
41
1
10
78.8002822490943
20
0.571961648324447
30
0
41
1
10
78.8277323878033
20
0.434588254725782
30
0
41
1
10
78.868907595867
20
0.230816253903953
30
0
41
1
10
78.8826326652214
20
0.163272627476687
30
0
41
1
10
78.9100828039306
20
0.0290416879587951
30
0
41
1
10
78.9238078732851
20
-0.0374412117749046
30
0
41
1
10
78.9924332200576
20
-0.373197344104938
30
0
41
1
10
79.0473334974758
20
-0.648700497354127
30
0
41
1
10
79.1571340523121
20
-1.20660911985078
30
0
41
1
10
79.2120343297302
20
-1.48900091548916
30
0
41
1
10
79.3218348845666
20
-2.05194751493241
30
0
41
1
10
79.3767351619846
20
-2.33247552244029
30
0
41
1
10
79.4865357168209
20
-2.88171983736686
30
0
41
1
10
79.541435994239
20
-3.15039926598152
30
0
41
1
10
79.6512365490752
20
-3.66570773271332
30
0
41
1
10
79.7061368264933
20
-3.91229702628837
30
0
41
1
10
79.7610371039115
20
-4.14320023731256
30
0
0
SPLINE
5
D7
100
AcDbEntity
8
1
62
256
6
ByLayer
370
13
48
1
60
0
100
AcDbSpline
70
4
71
3
72
14
73
10
40
0
40
0
40
0
40
0
40
0.25
40
0.25
40
0.5
40
0.5
40
0.75
40
0.75
40
1
40
1
40
1
40
1
41
1
10
72.6
20
5.29025761489061
30
0
41
1
10
72.6519780793556
20
5.43892018831267
30
0
41
1
10
72.7039561587112
20
5.56835476987376
30
0
41
1
10
72.8079123174224
20
5.78750163936553
30
0
41
1
10
72.859890396778
20
5.87722449459355
30
0
41
1
10
72.9638465554892
20
6.01806281485176
30
0
41
1
10
73.0158246348448
20
6.06919661125576
30
0
41
1
10
73.119780793556
20
6.13590461009071
30
0
41
1
10
73.1717588729116
20
6.1515
30
0
41
1
10
73.2237369522672
20
6.1515
30
0
0
SPLINE
5
D8
100
AcDbEntity
8
1
62
256
6
ByLayer
370
13
48
1
60
0
100
AcDbSpline
70
4
71
3
72
42
73
38
40
0
40
0
40
0
40
0
40
0.0625
40
0.0625
40
0.125
40
0.125
40
0.1875
40
0.1875
40
0.25
40
0.25
40
0.3125
40
0.3125
40
0.375
40
0.375
40
0.4375
40
0.4375
40
0.5
40
0.5
40
0.5625
40
0.5625
40
0.578125
40
0.578125
40
0.59375
40
0.59375
40
0.625
40
0.625
40
0.6875
40
0.6875
40
0.75
40
0.75
40
0.8125
40
0.8125
40
0.875
40
0.875
40
0.9375
40
0.9375
40
1
40
1
40
1
40
1
41
1
10
76.6229545178649
20
6.1515
30
0
41
1
10
76.6883312384075
20
6.1515
30
0
41
1
10
76.7537079589501
20
6.12678547887833
30
0
41
1
10
76.8844614000354
20
6.01960331064376
30
0
41
1
10
76.949838120578
20
5.93707025968507
30
0
41
1
10
77.0805915616633
20
5.70948918388987
30
0
41
1
10
77.145968282206
20
5.56439459276177
30
0
41
1
10
77.2767217232912
20
5.21238626147988
30
0
41
1
10
77.3420984438338
20
5.00546726499272
30
0
41
1
10
77.4728518849192
20
4.53682156423636
30
0
41
1
10
77.5382286054618
20
4.27514041231626
30
0
41
1
10
77.6689820465471
20
3.70971058216554
30
0
41
1
10
77.7343587670897
20
3.40604625840913
30
0
41
1
10
77.8651122081749
20
2.77310279996399
30
0
41
1
10
77.9304889287176
20
2.44391820449687
30
0
41
1
10
78.0612423698029
20
1.7772963060282
30
0
41
1
10
78.1266190903455
20
1.43993417149807
30
0
41
1
10
78.2573725314309
20
0.772576275117075
30
0
41
1
10
78.3227492519734
20
0.442620049772017
30
0
41
1
10
78.4044701526517
20
0.0423466942258699
30
0
41
1
10
78.4208143327874
20
-0.0367766277296653
30
0
41
1
10
78.4535026930587
20
-0.196830103338613
30
0
41
1
10
78.4698468731943
20
-0.277457512459392
30
0
41
1
10
78.5188794136013
20
-0.52089566770897
30
0
41
1
10
78.5515677738727
20
-0.685270057964345
30
0
41
1
10
78.6496328546866
20
-1.18238667121813
30
0
41
1
10
78.7150095752293
20
-1.51921928905705
30
0
41
1
10
78.8457630163146
20
-2.18901694337873
30
0
41
1
10
78.9111397368571
20
-2.52191508353474
30
0
41
1
10
79.0418931779425
20
-3.16675135916987
30
0
41
1
10
79.1072698984851
20
-3.47859744743565
30
0
41
1
10
79.2380233395704
20
-4.06436300539522
30
0
41
1
10
79.3034000601129
20
-4.33819244264123
30
0
41
1
10
79.4341535011984
20
-4.83393111688707
30
0
41
1
10
79.4995302217409
20
-5.05578286762486
30
0
41
1
10
79.6302836628262
20
-5.43887100287333
30
0
41
1
10
79.6956603833688
20
-5.60009975321557
30
0
41
1
10
79.7610371039115
20
-5.7298346216071
30
0
0
SPLINE
5
D9
100
AcDbEntity
8
1
62
256
6
ByLayer
370
13
48
1
60
0
100
AcDbSpline
70
4
71
3
72
8
73
4
40
0
40
0
40
0
40
0
40
1
40
1
40
1
40
1
41
1
10
72.6
20
6.12238689182701
30
0
41
1
10
72.6402892274302
20
6.14214031522397
30
0
41
1
10
72.6805784548604
20
6.1515
30
0
41
1
10
72.7208676822905
20
6.1515
30
0
0
SPLINE
5
DA
100
AcDbEntity
8
1
62
256
6
ByLayer
370
13
48
1
60
0
100
AcDbSpline
70
4
71
3
72
46
73
42
40
0
40
0
40
0
40
0
40
0.0624999999999995
40
0.0624999999999995
40
0.124999999999999
40
0.124999999999999
40
0.187499999999998
40
0.187499999999998
40
0.249999999999998
40
0.249999999999998
40
0.312499999999998
40
0.312499999999998
40
0.374999999999998
40
0.374999999999998
40
0.437499999999998
40
0.437499999999998
40
0.468749999999999
40
0.468749999999999
40
0.484374999999998
40
0.484374999999998
40
0.499999999999998
40
0.499999999999998
40
0.562499999999998
40
0.562499999999998
40
0.624999999999998
40
0.624999999999998
40
0.687499999999998
40
0.687499999999998
40
0.749999999999998
40
0.749999999999998
40
0.812499999999999
40
0.812499999999999
40
0.874999999999999
40
0.874999999999999
40
0.937499999999999
40
0.937499999999999
40
0.968749999999999
40
0.968749999999999
40
0.984374999999999
40
0.984374999999999
40
1
40
1
40
1
40
1
41
1
10
76.1200852478883
20
6.1515
30
0
41
1
10
76.1959384115554
20
6.1515
30
0
41
1
10
76.2717915752226
20
6.11817169592587
30
0
41
1
10
76.4234979025568
20
5.97223235051814
30
0
41
1
10
76.4993510662239
20
5.85948751787674
30
0
41
1
10
76.6510573935582
20
5.54906094995729
30
0
41
1
10
76.7269105572254
20
5.35130545718303
30
0
41
1
10
76.8786168845598
20
4.87580783664274
30
0
41
1
10
76.9544700482269
20
4.59810616158023
30
0
41
1
10
77.1061763755612
20
3.97894291582477
30
0
41
1
10
77.1820295392283
20
3.63763421153632
30
0
41
1
10
77.3337358665627
20
2.91578282657127
30
0
41
1
10
77.4095890302298
20
2.53543896894487
30
0
41
1
10
77.5612953575641
20
1.76276476897658
30
0
41
1
10
77.6371485212312
20
1.37059431507205
30
0
41
1
10
77.7509282667319
20
0.79155584579442
30
0
41
1
10
77.7888548485655
20
0.600040568576361
30
0
41
1
10
77.8457447213158
20
0.31682767520391
30
0
41
1
10
77.8647080122327
20
0.223096612704182
30
0
41
1
10
77.9026345940663
20
0.0372406074439482
30
0
41
1
10
77.9215978849831
20
-0.0545147849500154
30
0
41
1
10
78.016414339567
20
-0.519651850607886
30
0
41
1
10
78.0922675032341
20
-0.904766086166546
30
0
41
1
10
78.2439738305684
20
-1.68157692104853
30
0
41
1
10
78.3198269942355
20
-2.07317560831365
30
0
41
1
10
78.4715333215698
20
-2.83758392127137
30
0
41
1
10
78.547386485237
20
-3.21021645628696
30
0
41
1
10
78.6990928125713
20
-3.90960562981914
30
0
41
1
10
78.7749459762385
20
-4.23616696231645
30
0
41
1
10
78.9266523035728
20
-4.82048050127969
30
0
41
1
10
79.00250546724
20
-5.07810541698495
30
0
41
1
10
79.1542117945743
20
-5.51093261213717
30
0
41
1
10
79.2300649582414
20
-5.68612753420828
30
0
41
1
10
79.3817712855757
20
-5.95196057638782
30
0
41
1
10
79.4576244492428
20
-6.0426949752561
30
0
41
1
10
79.5714041947437
20
-6.1212940423477
30
0
41
1
10
79.6093307765772
20
-6.13797749242499
30
0
41
1
10
79.6662206493277
20
-6.14992695251993
30
0
41
1
10
79.6851839402444
20
-6.15173426021121
30
0
41
1
10
79.7231105220778
20
-6.15121748615448
30
0
41
1
10
79.7420738129946
20
-6.1488807181168
30
0
41
1
10
79.7610371039115
20
-6.14435371909931
30
0
0
SPLINE
5
DB
100
AcDbEntity
8
1
62
256
6
ByLayer
370
13
48
1
60
0
100
AcDbSpline
70
4
71
3
72
78
73
74
40
0
40
0
40
0
40
0
40
0.0312499999999999
40
0.0312499999999999
40
0.0624999999999998
40
0.0624999999999998
40
0.0937499999999997
40
0.0937499999999997
40
0.125
40
0.125
40
0.15625
40
0.15625
40
0.187499999999999
40
0.187499999999999
40
0.218749999999999
40
0.218749999999999
40
0.249999999999999
40
0.249999999999999
40
0.281249999999999
40
0.281249999999999
40
0.312499999999999
40
0.312499999999999
40
0.343749999999999
40
0.343749999999999
40
0.374999999999999
40
0.374999999999999
40
0.406249999999999
40
0.406249999999999
40
0.421874999999999
40
0.421874999999999
40
0.429687499999999
40
0.429687499999999
40
0.437499999999999
40
0.437499999999999
40
0.468749999999999
40
0.468749999999999
40
0.499999999999999
40
0.499999999999999
40
0.531249999999999
40
0.531249999999999
40
0.562499999999999
40
0.562499999999999
40
0.593749999999999
40
0.593749999999999
40
0.624999999999999
40
0.624999999999999
40
0.656249999999999
40
0.656249999999999
40
0.687499999999999
40
0.687499999999999
40
0.718749999999999
40
0.718749999999999
40
0.749999999999999
40
0.749999999999999
40
0.781249999999999
40
0.781249999999999
40
0.8125
40
0.8125
40
0.84375
40
0.84375
40
0.859375
40
0.859375
40
0.8671875
40
0.8671875
40
0.875
40
0.875
40
0.90625
40
0.90625
40
0.9375
40
0.9375
40
0.96875
40
0.96875
40
1
40
1
40
1
40
1
41
1
10
75.6172159779116
20
6.1515
30
0
41
1
10
75.6603807813074
20
6.1515
30
0
41
1
10
75.7035455847032
20
6.14075405688922
30
0
41
1
10
75.7898751914949
20
6.09524260466895
30
0
41
1
10
75.8330399948907
20
6.06046869223857
30
0
41
1
10
75.9193696016824
20
5.9649311910822
30
0
41
1
10
75.9625344050783
20
5.90415973608077
30
0
41
1
10
76.04886401187
20
5.75547894705952
30
0
41
1
10
76.0920288152657
20
5.66756361468336
30
0
41
1
10
76.1783584220574
20
5.4644820583577
30
0
41
1
10
76.2215232254533
20
5.34931299923576
30
0
41
1
10
76.3078528322449
20
5.09278351551905
30
0
41
1
10
76.3510176356408
20
4.95142432782731
30
0
41
1
10
76.4373472424324
20
4.64477361339195
30
0
41
1
10
76.4805120458283
20
4.47948760581548
30
0
41
1
10
76.5668416526199
20
4.1283404612355
30
0
41
1
10
76.6100064560158
20
3.9424884958143
30
0
41
1
10
76.6963360628074
20
3.55444120214372
30
0
41
1
10
76.7395008662032
20
3.35225733805348
30
0
41
1
10
76.8258304729949
20
2.93633716175526
30
0
41
1
10
76.8689952763908
20
2.72261285395979
30
0
41
1
10
76.9553248831824
20
2.28860282721547
30
0
41
1
10
76.9984896865782
20
2.06832794889533
30
0
41
1
10
77.0848192933699
20
1.62605887397621
30
0
41
1
10
77.1279840967657
20
1.40407308058977
30
0
41
1
10
77.2143137035573
20
0.9627822403381
30
0
41
1
10
77.2574785069532
20
0.743482520176173
30
0
41
1
10
77.3222257120469
20
0.419356165698758
30
0
41
1
10
77.3438081137449
20
0.312112361638157
30
0
41
1
10
77.3761817162918
20
0.152742112275348
30
0
41
1
10
77.3869729171407
20
0.0998675600748413
30
0
41
1
10
77.4085553188387
20
-0.0053387354746235
30
0
41
1
10
77.4193465196876
20
-0.0577095649288424
30
0
41
1
10
77.4733025239324
20
-0.321792981061804
30
0
41
1
10
77.5164673273281
20
-0.537291092893014
30
0
41
1
10
77.6027969341199
20
-0.973495201818906
30
0
41
1
10
77.6459617375158
20
-1.19419791021062
30
0
41
1
10
77.7322913443074
20
-1.63682213103962
30
0
41
1
10
77.7754561477032
20
-1.85873720891161
30
0
41
1
10
77.8617857544949
20
-2.29920884538274
30
0
41
1
10
77.9049505578907
20
-2.51775604056181
30
0
41
1
10
77.9912801646824
20
-2.94656478577525
30
0
41
1
10
78.0344449680782
20
-3.15681491451673
30
0
41
1
10
78.1207745748699
20
-3.56406841953429
30
0
41
1
10
78.1639393782657
20
-3.76105977485204
30
0
41
1
10
78.2502689850573
20
-4.13715844126867
30
0
41
1
10
78.2934337884532
20
-4.31625490241044
30
0
41
1
10
78.3797633952448
20
-4.65260038477291
30
0
41
1
10
78.4229281986406
20
-4.80984139025159
30
0
41
1
10
78.5092578054323
20
-5.09947560461762
30
0
41
1
10
78.5524226088281
20
-5.23186476485964
30
0
41
1
10
78.6387522156198
20
-5.46994267267144
30
0
41
1
10
78.6819170190157
20
-5.5756316735108
30
0
41
1
10
78.7682466258074
20
-5.75966180471355
30
0
41
1
10
78.8114114292032
20
-5.83800700816016
30
0
41
1
10
78.8977410359948
20
-5.96783976469285
30
0
41
1
10
78.9409058393907
20
-6.01933412613792
30
0
41
1
10
79.0272354461823
20
-6.09692523161468
30
0
41
1
10
79.0704002495781
20
-6.12303017366571
30
0
41
1
10
79.1351474546718
20
-6.1447889446635
30
0
41
1
10
79.1567298563698
20
-6.14914707278774
30
0
41
1
10
79.1891034589167
20
-6.15158356683599
30
0
41
1
10
79.1998946597656
20
-6.15171658611911
30
0
41
1
10
79.2214770614635
20
-6.15063680907343
30
0
41
1
10
79.2322682623125
20
-6.1494178701044
30
0
41
1
10
79.2862242665573
20
-6.13982450612659
30
0
41
1
10
79.3293890699531
20
-6.12093378245291
30
0
41
1
10
79.4157186767448
20
-6.05836496554235
30
0
41
1
10
79.4588834801406
20
-6.01467851607191
30
0
41
1
10
79.5452130869322
20
-5.9008084899904
30
0
41
1
10
79.588377890328
20
-5.83061754440516
30
0
41
1
10
79.6747074971198
20
-5.66293143735305
30
0
41
1
10
79.7178723005156
20
-5.56543124950085
30
0
41
1
10
79.7610371039115
20
-5.45442236054171
30
0
0
SPLINE
5
DC
100
AcDbEntity
8
1
62
256
6
ByLayer
370
13
48
1
60
0
100
AcDbSpline
70
4
71
3
72
78
73
74
40
0
40
0
40
0
40
0
40
0.0312499999999996
40
0.0312499999999996
40
0.0624999999999992
40
0.0624999999999992
40
0.0937499999999988
40
0.0937499999999988
40
0.124999999999998
40
0.124999999999998
40
0.156249999999998
40
0.156249999999998
40
0.187499999999998
40
0.187499999999998
40
0.218749999999997
40
0.218749999999997
40
0.249999999999997
40
0.249999999999997
40
0.281249999999996
40
0.281249999999996
40
0.312499999999996
40
0.312499999999996
40
0.343749999999996
40
0.343749999999996
40
0.374999999999995
40
0.374999999999995
40
0.382812499999995
40
0.382812499999995
40
0.390624999999995
40
0.390624999999995
40
0.406249999999994
40
0.406249999999994
40
0.437499999999993
40
0.437499999999993
40
0.468749999999992
40
0.468749999999992
40
0.49999999999999
40
0.49999999999999
40
0.531249999999989
40
0.531249999999989
40
0.562499999999987
40
0.562499999999987
40
0.593749999999986
40
0.593749999999986
40
0.624999999999985
40
0.624999999999985
40
0.656249999999983
40
0.656249999999983
40
0.687499999999982
40
0.687499999999982
40
0.718749999999981
40
0.718749999999981
40
0.74999999999998
40
0.74999999999998
40
0.765624999999979
40
0.765624999999979
40
0.77343749999998
40
0.77343749999998
40
0.78124999999998
40
0.78124999999998
40
0.812499999999983
40
0.812499999999983
40
0.843749999999985
40
0.843749999999985
40
0.874999999999988
40
0.874999999999988
40
0.906249999999991
40
0.906249999999991
40
0.937499999999994
40
0.937499999999994
40
0.968749999999997
40
0.968749999999997
40
1
40
1
40
1
40
1
41
1
10
75.1143467079349
20
6.1515
30
0
41
1
10
75.162749732893
20
6.1515
30
0
41
1
10
75.2111527578511
20
6.13798116377876
30
0
41
1
10
75.3079588077673
20
6.08038301725426
30
0
41
1
10
75.3563618327254
20
6.03628883308682
30
0
41
1
10
75.4531678826416
20
5.91494380647708
30
0
41
1
10
75.5015709075997
20
5.83767962660537
30
0
41
1
10
75.5983769575158
20
5.64878657592831
30
0
41
1
10
75.646779982474
20
5.53714889481603
30
0
41
1
10
75.7435860323901
20
5.28003293850006
30
0
41
1
10
75.7919890573482
20
5.13455301950825
30
0
41
1
10
75.8887951072644
20
4.81217505256734
30
0
41
1
10
75.9371981322224
20
4.6352838481437
30
0
41
1
10
76.0340041821386
20
4.25432955877238
30
0
41
1
10
76.0824072070967
20
4.05028114069603
30
0
41
1
10
76.179213257013
20
3.6207551449707
30
0
41
1
10
76.227616281971
20
3.39529743363744
30
0
41
1
10
76.3244223318873
20
2.92966220819776
30
0
41
1
10
76.3728253568453
20
2.68950595732849
30
0
41
1
10
76.4696314067614
20
2.20151733237765
30
0
41
1
10
76.5180344317195
20
1.95370383251958
30
0
41
1
10
76.6148404816357
20
1.45716251378394
30
0
41
1
10
76.6632435065937
20
1.20844847320666
30
0
41
1
10
76.7600495565099
20
0.716087051712435
30
0
41
1
10
76.8084525814681
20
0.472447240229826
30
0
41
1
10
76.8689563626657
20
0.174112345956672
30
0
41
1
10
76.8810571189052
20
0.114753180194612
30
0
41
1
10
76.9052586313843
20
-0.0032854648895579
30
0
41
1
10
76.9173593876237
20
-0.0619909892095336
30
0
41
1
10
76.9536616563424
20
-0.239788782003018
30
0
41
1
10
76.9778631688214
20
-0.359636245693565
30
0
41
1
10
77.0504677062585
20
-0.722306253244597
30
0
41
1
10
77.0988707312166
20
-0.968291616534742
30
0
41
1
10
77.1956767811328
20
-1.46341299152638
30
0
41
1
10
77.2440798060908
20
-1.7125392835859
30
0
41
1
10
77.340885856007
20
-2.20766037518265
30
0
41
1
10
77.3892888809651
20
-2.45363944307024
30
0
41
1
10
77.4860949308813
20
-2.93555268395383
30
0
41
1
10
77.5344979558394
20
-3.17146678864628
30
0
41
1
10
77.6313040057556
20
-3.62625060733089
30
0
41
1
10
77.6797070307137
20
-3.84509908342088
30
0
41
1
10
77.7765130806298
20
-4.25929919579261
30
0
41
1
10
77.8249161055879
20
-4.45463235380166
30
0
41
1
10
77.9217221555041
20
-4.81650766892642
30
0
41
1
10
77.9701251804622
20
-4.98303763100478
30
0
41
1
10
78.0669312303784
20
-5.28364348934514
30
0
41
1
10
78.1153342553365
20
-5.41771548011073
30
0
41
1
10
78.2121403052526
20
-5.65162088528214
30
0
41
1
10
78.2605433302107
20
-5.75145863076386
30
0
41
1
10
78.3573493801269
20
-5.91698102345126
30
0
41
1
10
78.405752405085
20
-5.98267636601588
30
0
41
1
10
78.5025584550011
20
-6.08163534909502
30
0
41
1
10
78.5509614799593
20
-6.114913179627
30
0
41
1
10
78.6235660173965
20
-6.14273545195334
30
0
41
1
10
78.6477675298754
20
-6.14833550345421
30
0
41
1
10
78.684069798594
20
-6.15156172914845
30
0
41
1
10
78.6961705548335
20
-6.151780345546
30
0
41
1
10
78.7203720673126
20
-6.15052674605303
30
0
41
1
10
78.7324728235521
20
-6.14904569234264
30
0
41
1
10
78.7929766047496
20
-6.13722373264608
30
0
41
1
10
78.8413796297078
20
-6.11359932244505
30
0
41
1
10
78.938185679624
20
-6.03477114802101
30
0
41
1
10
78.9865887045821
20
-5.97955271547829
30
0
41
1
10
79.0833947544982
20
-5.83536929422019
30
0
41
1
10
79.1317977794563
20
-5.74639217856324
30
0
41
1
10
79.2286038293726
20
-5.53404481218467
30
0
41
1
10
79.2770068543306
20
-5.4106679543811
30
0
41
1
10
79.3738129042468
20
-5.13068756055387
30
0
41
1
10
79.4222159292049
20
-4.97408522904212
30
0
41
1
10
79.519021979121
20
-4.63072215686347
30
0
41
1
10
79.567425004079
20
-4.44397111982215
30
0
41
1
10
79.6642310539953
20
-4.04511784458651
30
0
41
1
10
79.7126340789533
20
-3.83303243045657
30
0
41
1
10
79.7610371039115
20
-3.61134184486974
30
0
0
SPLINE
5
DD
100
AcDbEntity
8
1
62
256
6
ByLayer
370
13
48
1
60
0
100
AcDbSpline
70
4
71
3
72
76
73
72
40
0
40
0
40
0
40
0
40
0.0312500000000001
40
0.0312500000000001
40
0.0625000000000002
40
0.0625000000000002
40
0.0937500000000002
40
0.0937500000000002
40
0.125
40
0.125
40
0.15625
40
0.15625
40
0.1875
40
0.1875
40
0.218750000000001
40
0.218750000000001
40
0.250000000000001
40
0.250000000000001
40
0.281250000000001
40
0.281250000000001
40
0.312500000000001
40
0.312500000000001
40
0.343750000000001
40
0.343750000000001
40
0.351562500000001
40
0.351562500000001
40
0.359375000000001
40
0.359375000000001
40
0.375000000000001
40
0.375000000000001
40
0.406250000000001
40
0.406250000000001
40
0.437500000000001
40
0.437500000000001
40
0.46875
40
0.46875
40
0.5
40
0.5
40
0.53125
40
0.53125
40
0.5625
40
0.5625
40
0.59375
40
0.59375
40
0.625
40
0.625
40
0.65625
40
0.65625
40
0.6875
40
0.6875
40
0.703125
40
0.703125
40
0.71875
40
0.71875
40
0.75
40
0.75
40
0.78125
40
0.78125
40
0.8125
40
0.8125
40
0.84375
40
0.84375
40
0.875
40
0.875
40
0.90625
40
0.90625
40
0.9375
40
0.9375
40
0.96875
40
0.96875
40
1
40
1
40
1
40
1
41
1
10
74.6114774379583
20
6.1515
30
0
41
1
10
74.6651186844787
20
6.1515
30
0
41
1
10
74.7187599309991
20
6.13488753911491
30
0
41
1
10
74.8260424240397
20
6.06370127697858
30
0
41
1
10
74.87968367056
20
6.00910271266463
30
0
41
1
10
74.9869661636008
20
5.85867307382216
30
0
41
1
10
75.0406074101211
20
5.76282096973031
30
0
41
1
10
75.1478899031619
20
5.52883384806819
30
0
41
1
10
75.2015311496821
20
5.39068762762173
30
0
41
1
10
75.3088136427228
20
5.07378960735849
30
0
41
1
10
75.3624548892432
20
4.89504111979377
30
0
41
1
10
75.4697373822838
20
4.50147755850026
30
0
41
1
10
75.5233786288043
20
4.28668133156438
30
0
41
1
10
75.6306611218449
20
3.82809007589589
30
0
41
1
10
75.6843023683653
20
3.58432580401254
30
0
41
1
10
75.791584861406
20
3.07663256262347
30
0
41
1
10
75.8452261079263
20
2.81273911454892
30
0
41
1
10
75.952508600967
20
2.27436380683596
30
0
41
1
10
76.0061498474873
20
1.99991429604111
30
0
41
1
10
76.113432340528
20
1.44969719883807
30
0
41
1
10
76.1670735870483
20
1.17395288052521
30
0
41
1
10
76.274356080089
20
0.629256277354983
30
0
41
1
10
76.3279973266095
20
0.360315800687005
30
0
41
1
10
76.3950488847598
20
0.0323964350820347
30
0
41
1
10
76.40845919639
20
-0.0325652068792124
30
0
41
1
10
76.4352798196501
20
-0.163734358894004
30
0
41
1
10
76.4486901312802
20
-0.229727231769715
30
0
41
1
10
76.4889210661704
20
-0.428797047866766
30
0
41
1
10
76.5157416894306
20
-0.562968744494043
30
0
41
1
10
76.5962035592111
20
-0.96865963151771
30
0
41
1
10
76.6498448057314
20
-1.243403562476
30
0
41
1
10
76.7571272987722
20
-1.79377559281349
30
0
41
1
10
76.8107685452925
20
-2.06938320854033
30
0
41
1
10
76.9180510383331
20
-2.61245333195615
30
0
41
1
10
76.9716922848535
20
-2.87988533138599
30
0
41
1
10
77.0789747778942
20
-3.39702036464888
30
0
41
1
10
77.1326160244146
20
-3.6466879632934
30
0
41
1
10
77.2398985174552
20
-4.11916811660475
30
0
41
1
10
77.2935397639756
20
-4.34194797041522
30
0
41
1
10
77.4008222570163
20
-4.75303756006076
30
0
41
1
10
77.4544635035367
20
-4.94132496152926
30
0
41
1
10
77.5617459965774
20
-5.27817917744318
30
0
41
1
10
77.6153872430976
20
-5.42673871514015
30
0
41
1
10
77.7226697361383
20
-5.68170974923046
30
0
41
1
10
77.7763109826587
20
-5.7881291524069
30
0
41
1
10
77.8835934756993
20
-5.95920204140256
30
0
41
1
10
77.9372347222197
20
-6.0238746609345
30
0
41
1
10
78.0445172152605
20
-6.11422169233424
30
0
41
1
10
78.0981584617808
20
-6.13992049204319
30
0
41
1
10
78.1786203315613
20
-6.15257746182303
30
0
41
1
10
78.2054409548215
20
-6.15257396166663
30
0
41
1
10
78.2590822013418
20
-6.14412115858491
30
0
41
1
10
78.285902824602
20
-6.13558946504796
30
0
41
1
10
78.3663646943825
20
-6.09618787163021
30
0
41
1
10
78.4200059409029
20
-6.05145591916789
30
0
41
1
10
78.5272884339435
20
-5.92139418943938
30
0
41
1
10
78.5809296804639
20
-5.83604187829596
30
0
41
1
10
78.6882121735046
20
-5.62307571653071
30
0
41
1
10
78.7418534200249
20
-5.49544767148183
30
0
41
1
10
78.8491359130655
20
-5.19889647435343
30
0
41
1
10
78.9027771595859
20
-5.02997273900004
30
0
41
1
10
79.0100596526266
20
-4.6546668449908
30
0
41
1
10
79.063700899147
20
-4.44829981359345
30
0
41
1
10
79.1709833921877
20
-4.00460012128173
30
0
41
1
10
79.224624638708
20
-3.76729581297192
30
0
41
1
10
79.3319071317487
20
-3.27020404538808
30
0
41
1
10
79.3855483782691
20
-3.01045168380472
30
0
41
1
10
79.4928308713098
20
-2.47795616506429
30
0
41
1
10
79.5464721178301
20
-2.20524682115811
30
0
41
1
10
79.6537546108708
20
-1.65627474546591
30
0
41
1
10
79.7073958573911
20
-1.38003791928699
30
0
41
1
10
79.7610371039115
20
-1.10625613704536
30
0
0
SPLINE
5
DE
100
AcDbEntity
8
1
62
256
6
ByLayer
370
13
48
1
60
0
100
AcDbSpline
70
4
71
3
72
82
73
78
40
0
40
0
40
0
40
0
40
0.0312500000000004
40
0.0312500000000004
40
0.0625000000000008
40
0.0625000000000008
40
0.0937500000000012
40
0.0937500000000012
40
0.125000000000002
40
0.125000000000002
40
0.156250000000002
40
0.156250000000002
40
0.187500000000002
40
0.187500000000002
40
0.218750000000003
40
0.218750000000003
40
0.250000000000003
40
0.250000000000003
40
0.281250000000004
40
0.281250000000004
40
0.312500000000004
40
0.312500000000004
40
0.320312500000005
40
0.320312500000005
40
0.328125000000005
40
0.328125000000005
40
0.343750000000005
40
0.343750000000005
40
0.375000000000006
40
0.375000000000006
40
0.406250000000006
40
0.406250000000006
40
0.437500000000006
40
0.437500000000006
40
0.468750000000007
40
0.468750000000007
40
0.500000000000007
40
0.500000000000007
40
0.531250000000008
40
0.531250000000008
40
0.562500000000008
40
0.562500000000008
40
0.593750000000009
40
0.593750000000009
40
0.625000000000009
40
0.625000000000009
40
0.632812500000009
40
0.632812500000009
40
0.640625000000009
40
0.640625000000009
40
0.656250000000009
40
0.656250000000009
40
0.687500000000008
40
0.687500000000008
40
0.718750000000007
40
0.718750000000007
40
0.750000000000007
40
0.750000000000007
40
0.781250000000006
40
0.781250000000006
40
0.812500000000005
40
0.812500000000005
40
0.843750000000005
40
0.843750000000005
40
0.875000000000004
40
0.875000000000004
40
0.906250000000003
40
0.906250000000003
40
0.937500000000003
40
0.937500000000003
40
0.945312500000002
40
0.945312500000002
40
0.953125000000002
40
0.953125000000002
40
0.968750000000001
40
0.968750000000001
40
1
40
1
40
1
40
1
41
1
10
74.1086081679817
20
6.1515
30
0
41
1
10
74.1674876360643
20
6.1515
30
0
41
1
10
74.2263671041469
20
6.13147187063316
30
0
41
1
10
74.3441260403121
20
6.04517543648208
30
0
41
1
10
74.4030055083948
20
5.97886792827109
30
0
41
1
10
74.5207644445599
20
5.7960531756531
30
0
41
1
10
74.5796439126426
20
5.67951482851885
30
0
41
1
10
74.6974028488077
20
5.39567504505868
30
0
41
1
10
74.7562823168903
20
5.22836202403997
30
0
41
1
10
74.8740412530555
20
4.8464889036178
30
0
41
1
10
74.9329207211381
20
4.63194395273698
30
0
41
1
10
75.0506796573034
20
4.16316990616437
30
0
41
1
10
75.1095591253859
20
3.90898116712535
30
0
41
1
10
75.2273180615512
20
3.37168117262718
30
0
41
1
10
75.2861975296337
20
3.08862482047994
30
0
41
1
10
75.403956465799
20
2.50607241395477
30
0
41
1
10
75.4628359338816
20
2.20663064070473
30
0
41
1
10
75.5805948700468
20
1.6038138659317
30
0
41
1
10
75.6394743381294
20
1.30047958704947
30
0
41
1
10
75.7572332742946
20
0.700937720753387
30
0
41
1
10
75.8161127423772
20
0.40475118138869
30
0
41
1
10
75.8897120774805
20
0.0443911344075332
30
0
41
1
10
75.9044319445011
20
-0.0268986149278305
30
0
41
1
10
75.9338716785424
20
-0.170883558490232
30
0
41
1
10
75.948591545563
20
-0.24336784453169
30
0
41
1
10
75.992751146625
20
-0.462118574114527
30
0
41
1
10
76.0221908806663
20
-0.609688021143995
30
0
41
1
10
76.1105100827902
20
-1.0559943074901
30
0
41
1
10
76.1693895508728
20
-1.35839731777227
30
0
41
1
10
76.287148487038
20
-1.96252431202373
30
0
41
1
10
76.3460279551205
20
-2.26421261641858
30
0
41
1
10
76.4637868912857
20
-2.85470012745543
30
0
41
1
10
76.5226663593684
20
-3.14344767740783
30
0
41
1
10
76.6404252955336
20
-3.69540830863613
30
0
41
1
10
76.6993047636162
20
-3.95856513347934
30
0
41
1
10
76.8170636997814
20
-4.44793276234694
30
0
41
1
10
76.875943167864
20
-4.67409792024674
30
0
41
1
10
76.9937021040292
20
-5.08089270189777
30
0
41
1
10
77.0525815721118
20
-5.2614997928203
30
0
41
1
10
77.170340508277
20
-5.57247611721306
30
0
41
1
10
77.2292199763596
20
-5.70285011410022
30
0
41
1
10
77.3469789125248
20
-5.91281843871855
30
0
41
1
10
77.4058583806074
20
-5.99243964636133
30
0
41
1
10
77.5236173167726
20
-6.10401870715077
30
0
41
1
10
77.5824967848551
20
-6.13601472074768
30
0
41
1
10
77.6560961199584
20
-6.14981650321246
30
0
41
1
10
77.6708159869791
20
-6.1512719652327
30
0
41
1
10
77.7002557210204
20
-6.1516784798113
30
0
41
1
10
77.7149755880411
20
-6.15063696287734
30
0
41
1
10
77.7591351891031
20
-6.14362489497469
30
0
41
1
10
77.7885749231442
20
-6.13376079383576
30
0
41
1
10
77.8768941252682
20
-6.08743020373365
30
0
41
1
10
77.9357735933509
20
-6.0341411565993
30
0
41
1
10
78.053532529516
20
-5.87814005350316
30
0
41
1
10
78.1124119975987
20
-5.77539353822783
30
0
41
1
10
78.2301709337638
20
-5.51890496724019
30
0
41
1
10
78.2890504018465
20
-5.36514506145329
30
0
41
1
10
78.4068093380116
20
-5.00901226994301
30
0
41
1
10
78.4656888060942
20
-4.80664704007472
30
0
41
1
10
78.5834477422594
20
-4.35982309042413
30
0
41
1
10
78.642327210342
20
-4.11539863006246
30
0
41
1
10
78.7600861465071
20
-3.59447870814276
30
0
41
1
10
78.8189656145898
20
-3.31803564655732
30
0
41
1
10
78.9367245507551
20
-2.74526285199531
30
0
41
1
10
78.9956040188376
20
-2.44898905169046
30
0
41
1
10
79.1133629550029
20
-1.849216509869
30
0
41
1
10
79.1722424230854
20
-1.54576308614307
30
0
41
1
10
79.2900013592506
20
-0.943200489911561
30
0
41
1
10
79.3488808273333
20
-0.644117845584049
30
0
41
1
10
79.4224801624366
20
-0.278838648686616
30
0
41
1
10
79.4372000294571
20
-0.206205305765423
30
0
41
1
10
79.4666397634985
20
-0.061903718401453
30
0
41
1
10
79.4813596305191
20
0.0094263373055981
30
0
41
1
10
79.525519231581
20
0.225162897006982
30
0
41
1
10
79.5549589656224
20
0.370978126313702
30
0
41
1
10
79.6432781677462
20
0.812922772091952
30
0
41
1
10
79.7021576358288
20
1.11362566480423
30
0
41
1
10
79.7610371039115
20
1.41550910273367
30
0
0
SPLINE
5
DF
100
AcDbEntity
8
1
62
256
6
ByLayer
370
13
48
1
60
0
100
AcDbSpline
70
4
71
3
72
84
73
80
40
0
40
0
40
0
40
0
40
0.031250000000001
40
0.031250000000001
40
0.0625000000000019
40
0.0625000000000019
40
0.0937500000000029
40
0.0937500000000029
40
0.125000000000004
40
0.125000000000004
40
0.156250000000005
40
0.156250000000005
40
0.187500000000006
40
0.187500000000006
40
0.218750000000007
40
0.218750000000007
40
0.250000000000008
40
0.250000000000008
40
0.281250000000008
40
0.281250000000008
40
0.289062500000009
40
0.289062500000009
40
0.292968750000009
40
0.292968750000009
40
0.296875000000009
40
0.312500000000009
40
0.312500000000009
40
0.343750000000009
40
0.343750000000009
40
0.375000000000008
40
0.375000000000008
40
0.406250000000008
40
0.406250000000008
40
0.437500000000008
40
0.437500000000008
40
0.468750000000008
40
0.468750000000008
40
0.500000000000008
40
0.500000000000008
40
0.531250000000008
40
0.531250000000008
40
0.562500000000008
40
0.562500000000008
40
0.578125000000008
40
0.578125000000008
40
0.585937500000008
40
0.585937500000008
40
0.593750000000008
40
0.593750000000008
40
0.625000000000007
40
0.625000000000007
40
0.656250000000007
40
0.656250000000007
40
0.687500000000006
40
0.687500000000006
40
0.718750000000005
40
0.718750000000005
40
0.750000000000005
40
0.750000000000005
40
0.781250000000004
40
0.781250000000004
40
0.812500000000004
40
0.812500000000004
40
0.843750000000003
40
0.843750000000003
40
0.859375000000003
40
0.859375000000003
40
0.867187500000003
40
0.871093750000002
40
0.871093750000002
40
0.875000000000002
40
0.875000000000002
40
0.906250000000001
40
0.906250000000001
40
0.937500000000001
40
0.937500000000001
40
0.96875
40
0.96875
40
1
40
1
40
1
40
1
41
1
10
73.6057388980051
20
6.1515
30
0
41
1
10
73.6698565876499
20
6.1515
30
0
41
1
10
73.7339742772947
20
6.12773263995061
30
0
41
1
10
73.8622096565845
20
6.02478458184336
30
0
41
1
10
73.9263273462294
20
5.94554438798849
30
0
41
1
10
74.0545627255191
20
5.72703541325063
30
0
41
1
10
74.1186804151639
20
5.58772327061044
30
0
41
1
10
74.2469157944537
20
5.24945400713918
30
0
41
1
10
74.3110334840986
20
5.05048953030513
30
0
41
1
10
74.4392688633883
20
4.59913082578785
30
0
41
1
10
74.5033865530331
20
4.34677452669555
30
0
41
1
10
74.6316219323228
20
3.80024036722293
30
0
41
1
10
74.6957396219677
20
3.50613668461421
30
0
41
1
10
74.8239750012574
20
2.8913738383163
30
0
41
1
10
74.8880926909022
20
2.57080093624273
30
0
41
1
10
75.0163280701919
20
1.91951437208081
30
0
41
1
10
75.0804457598369
20
1.58887252322992
30
0
41
1
10
75.2086811391265
20
0.932542635052727
30
0
41
1
10
75.2727988287713
20
0.606895768701094
30
0
41
1
10
75.3529459408275
20
0.210452331326422
30
0
41
1
10
75.3689753632387
20
0.131685625493418
30
0
41
1
10
75.3930194968556
20
0.0144314845153133
30
0
41
1
10
75.4010342080612
20
-0.0244422454674691
30
0
41
1
10
75.4170636304724
20
-0.102662594917547
30
0
41
1
10
75.4571371865004
20
-0.298953346283014
30
0
41
1
10
75.4972107425284
20
-0.498738336207396
30
0
41
1
10
75.5933872769957
20
-0.982939900606851
30
0
41
1
10
75.6575049666405
20
-1.31212929740505
30
0
41
1
10
75.7857403459303
20
-1.9700367800481
30
0
41
1
10
75.8498580355752
20
-2.29870091278119
30
0
41
1
10
75.9780934148648
20
-2.93974912105767
30
0
41
1
10
76.0422111045096
20
-3.25205312253692
30
0
41
1
10
76.1704464837994
20
-3.84410606604592
30
0
41
1
10
76.2345641734443
20
-4.12377005959124
30
0
41
1
10
76.3627995527339
20
-4.63637103544576
30
0
41
1
10
76.4269172423789
20
-4.86924557249284
30
0
41
1
10
76.5551526216686
20
-5.27851472014126
30
0
41
1
10
76.6192703113135
20
-5.45488886366701
30
0
41
1
10
76.7475056906031
20
-5.7471280853774
30
0
41
1
10
76.811623380248
20
-5.8630163381664
30
0
41
1
10
76.9398587595377
20
-6.03592590554703
30
0
41
1
10
77.0039764491826
20
-6.09299935139083
30
0
41
1
10
77.1001529836499
20
-6.13904618681138
30
0
41
1
10
77.1322118284723
20
-6.14783077100827
30
0
41
1
10
77.1803000957059
20
-6.15193289660729
30
0
41
1
10
77.1963295181173
20
-6.15180775243763
30
0
41
1
10
77.2283883629397
20
-6.14855482143395
30
0
41
1
10
77.2444177853507
20
-6.1454111334692
30
0
41
1
10
77.3245648974068
20
-6.12177601114499
30
0
41
1
10
77.3886825870517
20
-6.07741493209633
30
0
41
1
10
77.5169179663413
20
-5.93100050478327
30
0
41
1
10
77.5810356559862
20
-5.82889134846346
30
0
41
1
10
77.7092710352759
20
-5.56413068325608
30
0
41
1
10
77.7733887249209
20
-5.40144766935495
30
0
41
1
10
77.9016241042107
20
-5.01813600983323
30
0
41
1
10
77.9657417938554
20
-4.79751730091434
30
0
41
1
10
78.0939771731452
20
-4.30675801563115
30
0
41
1
10
78.15809486279
20
-4.0366714498318
30
0
41
1
10
78.2863302420797
20
-3.46025985755136
30
0
41
1
10
78.3504479317246
20
-3.15401699606699
30
0
41
1
10
78.4786833110143
20
-2.52131549819646
30
0
41
1
10
78.5428010006591
20
-2.19494034232244
30
0
41
1
10
78.6710363799488
20
-1.53814405047811
30
0
41
1
10
78.7351540695936
20
-1.20778401378806
30
0
41
1
10
78.831330604061
20
-0.719758872583242
30
0
41
1
10
78.8633894488834
20
-0.558314134697923
30
0
41
1
10
78.9114777161171
20
-0.319068095368152
30
0
41
1
10
78.935521849734
20
-0.200172682318311
30
0
41
1
10
78.9595659833508
20
-0.0825456503977477
30
0
41
1
10
78.975595405762
20
-0.0044274071481993
30
0
41
1
10
78.9836101169676
20
0.0344596568973259
30
0
41
1
10
79.0557425178181
20
0.386679195006792
30
0
41
1
10
79.1198602074629
20
0.709366647395086
30
0
41
1
10
79.2480955867526
20
1.36282578589635
30
0
41
1
10
79.3122132763975
20
1.69356400926628
30
0
41
1
10
79.4404486556871
20
2.34867631370014
30
0
41
1
10
79.504566345332
20
2.67298469185732
30
0
41
1
10
79.6328017246217
20
3.29896312592271
30
0
41
1
10
79.6969194142665
20
3.6005480972488
30
0
41
1
10
79.7610371039114
20
3.88292725150541
30
0
0
SPLINE
5
E0
100
AcDbEntity
8
1
62
256
6
ByLayer
370
13
48
1
60
0
100
AcDbSpline
70
4
71
3
72
86
73
82
40
0
40
0
40
0
40
0
40
0.0312499999999996
40
0.0312499999999996
40
0.0624999999999991
40
0.0624999999999991
40
0.0937499999999987
40
0.0937499999999987
40
0.124999999999998
40
0.124999999999998
40
0.156249999999998
40
0.156249999999998
40
0.187499999999998
40
0.187499999999998
40
0.218749999999997
40
0.218749999999997
40
0.249999999999997
40
0.249999999999997
40
0.265624999999997
40
0.265624999999997
40
0.273437499999996
40
0.273437499999996
40
0.281249999999996
40
0.281249999999996
40
0.312499999999996
40
0.312499999999996
40
0.343749999999996
40
0.343749999999996
40
0.374999999999996
40
0.374999999999996
40
0.406249999999996
40
0.406249999999996
40
0.437499999999996
40
0.437499999999996
40
0.468749999999997
40
0.468749999999997
40
0.499999999999997
40
0.499999999999997
40
0.531249999999997
40
0.531249999999997
40
0.535156249999996
40
0.535156249999996
40
0.539062499999996
40
0.539062499999996
40
0.546874999999996
40
0.546874999999996
40
0.562499999999996
40
0.562499999999996
40
0.593749999999996
40
0.593749999999996
40
0.624999999999995
40
0.624999999999995
40
0.656249999999995
40
0.656249999999995
40
0.687499999999995
40
0.687499999999995
40
0.718749999999994
40
0.718749999999994
40
0.749999999999994
40
0.749999999999994
40
0.781249999999993
40
0.781249999999993
40
0.796874999999993
40
0.796874999999993
40
0.804687499999992
40
0.804687499999992
40
0.808593749999993
40
0.808593749999993
40
0.812499999999993
40
0.812499999999993
40
0.843749999999994
40
0.843749999999994
40
0.874999999999995
40
0.874999999999995
40
0.906249999999996
40
0.906249999999996
40
0.937499999999998
40
0.937499999999998
40
0.968749999999999
40
0.968749999999999
40
1
40
1
40
1
40
1
41
1
10
73.1028696280284
20
6.1515
30
0
41
1
10
73.1722255392356
20
6.1515
30
0
41
1
10
73.2415814504427
20
6.12366810954759
30
0
41
1
10
73.3802932728569
20
6.00250888550849
30
0
41
1
10
73.449649184064
20
5.90909446533132
30
0
41
1
10
73.5883610064782
20
5.65158910495069
30
0
41
1
10
73.6577169176854
20
5.48744109572166
30
0
41
1
10
73.7964287400996
20
5.09040607185258
30
0
41
1
10
73.8657846513067
20
4.85752434409901
30
0
41
1
10
74.004496473721
20
4.33296652935556
30
0
41
1
10
74.073852384928
20
4.04136680079378
30
0
41
1
10
74.2125642073423
20
3.4161008815168
30
0
41
1
10
74.2819201185494
20
3.0825565400593
30
0
41
1
10
74.4206319409637
20
2.3938099936521
30
0
41
1
10
74.4899878521708
20
2.03872905281497
30
0
41
1
10
74.628699674585
20
1.32716796263875
30
0
41
1
10
74.6980555857921
20
0.970769634891838
30
0
41
1
10
74.8020894526027
20
0.447821314618835
30
0
41
1
10
74.8367674082064
20
0.275413144327871
30
0
41
1
10
74.8887843416117
20
0.0208969631561047
30
0
41
1
10
74.9061233194134
20
-0.0630528315192009
30
0
41
1
10
74.940801275017
20
-0.233176969184825
30
0
41
1
10
74.9581402528187
20
-0.318903634149223
30
0
41
1
10
75.0448351418277
20
-0.750362538831723
30
0
41
1
10
75.1141910530348
20
-1.10475745110671
30
0
41
1
10
75.252902875449
20
-1.81617425489998
30
0
41
1
10
75.3222587866562
20
-2.17312516709356
30
0
41
1
10
75.4609706090704
20
-2.8699583336446
30
0
41
1
10
75.5303265202774
20
-3.20972504552256
30
0
41
1
10
75.6690383426917
20
-3.85151961016837
30
0
41
1
10
75.7383942538988
20
-4.15342175566821
30
0
41
1
10
75.877106076313
20
-4.70161718217864
30
0
41
1
10
75.9464619875201
20
-4.94782146747281
30
0
41
1
10
76.0851738099344
20
-5.37295166553284
30
0
41
1
10
76.1545297211415
20
-5.55185706712763
30
0
41
1
10
76.2932415435557
20
-5.83865812725722
30
0
41
1
10
76.3625974547629
20
-5.94660006284033
30
0
41
1
10
76.501309277177
20
-6.09525485984145
30
0
41
1
10
76.5706651883842
20
-6.13605159874695
30
0
41
1
10
76.6486905884922
20
-6.14931313449986
30
0
41
1
10
76.6573600773931
20
-6.1503358186915
30
0
41
1
10
76.6746990551949
20
-6.1515009691054
30
0
41
1
10
76.6833685440957
20
-6.15164506918606
30
0
41
1
10
76.7093770107984
20
-6.15077783268495
30
0
41
1
10
76.7267159886002
20
-6.1484535415112
30
0
41
1
10
76.7787329220056
20
-6.13598652856513
30
0
41
1
10
76.8134108776091
20
-6.12034236207612
30
0
41
1
10
76.9174447444198
20
-6.04958616879475
30
0
41
1
10
76.9868006556269
20
-5.97046698818687
30
0
41
1
10
77.1255124780411
20
-5.74210707772474
30
0
41
1
10
77.1948683892482
20
-5.59279997922408
30
0
41
1
10
77.3335802116624
20
-5.22438280507416
30
0
41
1
10
77.4029361228696
20
-5.00526321529847
30
0
41
1
10
77.5416479452838
20
-4.50552383666079
30
0
41
1
10
77.6110038564909
20
-4.22496660403357
30
0
41
1
10
77.7497156789051
20
-3.61787201898852
30
0
41
1
10
77.8190715901123
20
-3.29145054699072
30
0
41
1
10
77.9577834125265
20
-2.61258254578303
30
0
41
1
10
78.0271393237336
20
-2.26026124588213
30
0
41
1
10
78.1658511461479
20
-1.55018509364837
30
0
41
1
10
78.2352070573549
20
-1.19252233421165
30
0
41
1
10
78.3392409241656
20
-0.665317330648946
30
0
41
1
10
78.3739188797692
20
-0.491100159992101
30
0
41
1
10
78.4259358131745
20
-0.233385120794992
30
0
41
1
10
78.4432747909763
20
-0.1480794405133
30
0
41
1
10
78.469283257679
20
-0.0211640502369335
30
0
41
1
10
78.4779527465798
20
0.0208773835627198
30
0
41
1
10
78.4952917243816
20
0.105486070476331
30
0
41
1
10
78.5039612132825
20
0.1479641348661
30
0
41
1
10
78.5819866133905
20
0.531724995353954
30
0
41
1
10
78.6513425245977
20
0.883420459804597
30
0
41
1
10
78.7900543470118
20
1.59312879622345
30
0
41
1
10
78.859410258219
20
1.95108184282637
30
0
41
1
10
78.9981220806332
20
2.6542200779391
30
0
41
1
10
79.0674779918403
20
2.99929699167129
30
0
41
1
10
79.2061898142546
20
3.6559187982898
30
0
41
1
10
79.2755457254616
20
3.96733627048124
30
0
41
1
10
79.4142575478759
20
4.53787065814339
30
0
41
1
10
79.483613459083
20
4.79688739301614
30
0
41
1
10
79.6223252814972
20
5.24944541377229
30
0
41
1
10
79.6916811927043
20
5.44295086443057
30
0
41
1
10
79.7610371039115
20
5.60100806653492
30
0
0
SPLINE
5
E1
100
AcDbEntity
8
1
62
256
6
ByLayer
370
13
48
1
60
0
100
AcDbSpline
70
4
71
3
72
70
73
66
40
0
40
0
40
0
40
0
40
0.03125
40
0.03125
40
0.0625
40
0.0625
40
0.0937499999999999
40
0.0937499999999999
40
0.125
40
0.125
40
0.15625
40
0.15625
40
0.1875
40
0.1875
40
0.21875
40
0.21875
40
0.25
40
0.25
40
0.28125
40
0.28125
40
0.3125
40
0.3125
40
0.34375
40
0.34375
40
0.375
40
0.375
40
0.40625
40
0.40625
40
0.4375
40
0.4375
40
0.46875
40
0.46875
40
0.5
40
0.5
40
0.53125
40
0.53125
40
0.5625
40
0.5625
40
0.59375
40
0.59375
40
0.625
40
0.625
40
0.65625
40
0.65625
40
0.6875
40
0.6875
40
0.71875
40
0.71875
40
0.75
40
0.75
40
0.78125
40
0.78125
40
0.8125
40
0.8125
40
0.84375
40
0.84375
40
0.875
40
0.875
40
0.90625
40
0.90625
40
0.9375
40
0.9375
40
0.96875
40
0.96875
40
1
40
1
40
1
40
1
41
1
10
72.6000003580518
20
6.1515
30
0
41
1
10
72.6745944908212
20
6.1515
30
0
41
1
10
72.7491886235906
20
6.11927631000935
30
0
41
1
10
72.8983768891293
20
5.97832965876177
30
0
41
1
10
72.9729710218987
20
5.86948316542441
30
0
41
1
10
73.1221592874374
20
5.56970239248091
30
0
41
1
10
73.1967534202068
20
5.37869738103481
30
0
41
1
10
73.3459416857456
20
4.91885860041572
30
0
41
1
10
73.420535818515
20
4.65005628977798
30
0
41
1
10
73.5697240840537
20
4.04947879950663
30
0
41
1
10
73.6443182168231
20
3.71783882453258
30
0
41
1
10
73.7935064823618
20
3.01448329888149
30
0
41
1
10
73.8681006151312
20
2.64295036857786
30
0
41
1
10
74.0172888806699
20
1.88571952466964
30
0
41
1
10
74.0918830134393
20
1.50017509724222
30
0
41
1
10
74.241071278978
20
0.738517136325271
30
0
41
1
10
74.3156654117474
20
0.362481041175272
30
0
41
1
10
74.4648536772862
20
-0.362480171221819
30
0
41
1
10
74.5394478100555
20
-0.738516229563714
30
0
41
1
10
74.6886360755942
20
-1.50017417602464
30
0
41
1
10
74.7632302083637
20
-1.88571860463705
30
0
41
1
10
74.9124184739024
20
-2.64294947125637
30
0
41
1
10
74.9870126066717
20
-3.0144824231345
30
0
41
1
10
75.1362008722104
20
-3.71783801222622
30
0
41
1
10
75.2107950049798
20
-4.04947802906008
30
0
41
1
10
75.3599832705186
20
-4.65005561883839
30
0
41
1
10
75.4345774032879
20
-4.91885798705647
30
0
41
1
10
75.5837656688267
20
-5.37869689078082
30
0
41
1
10
75.658359801596
20
-5.56970196766102
30
0
41
1
10
75.8075480671348
20
-5.86948287077027
30
0
41
1
10
75.8821421999042
20
-5.97832942877335
30
0
41
1
10
76.031330465443
20
-6.11927620172565
30
0
41
1
10
76.1059245982124
20
-6.15149994873744
30
0
41
1
10
76.255112863751
20
-6.15150005126245
30
0
41
1
10
76.3297069965204
20
-6.11927641829291
30
0
41
1
10
76.4788952620592
20
-5.97832988875004
30
0
41
1
10
76.5534893948285
20
-5.86948346007839
30
0
41
1
10
76.7026776603673
20
-5.56970281730065
30
0
41
1
10
76.7772717931366
20
-5.37869787128867
30
0
41
1
10
76.9264600586753
20
-4.91885921377482
30
0
41
1
10
77.0010541914447
20
-4.65005696071745
30
0
41
1
10
77.1502424569835
20
-4.04947956995304
30
0
41
1
10
77.2248365897528
20
-3.71783963683888
30
0
41
1
10
77.3740248552916
20
-3.01448417462842
30
0
41
1
10
77.448618988061
20
-2.64295126589931
30
0
41
1
10
77.5978072535997
20
-1.8857204447022
30
0
41
1
10
77.6724013863691
20
-1.50017601845977
30
0
41
1
10
77.8215896519078
20
-0.738518043086856
30
0
41
1
10
77.8961837846772
20
-0.362481932362357
30
0
41
1
10
78.0453720502159
20
0.362479322501912
30
0
41
1
10
78.1199661829853
20
0.738515322802186
30
0
41
1
10
78.269154448524
20
1.50017325480709
30
0
41
1
10
78.3437485812934
20
1.88571768460443
30
0
41
1
10
78.4929368468322
20
2.64294857393483
30
0
41
1
10
78.5675309796015
20
3.01448154738745
30
0
41
1
10
78.7167192451402
20
3.71783719991976
30
0
41
1
10
78.7913133779097
20
4.04947725861345
30
0
41
1
10
78.9405016434483
20
4.65005494789867
30
0
41
1
10
79.0150957762178
20
4.91885737369711
30
0
41
1
10
79.1642840417566
20
5.37869640052665
30
0
41
1
10
79.2388781745259
20
5.56970154284099
30
0
41
1
10
79.3880664400647
20
5.86948257611596
30
0
41
1
10
79.462660572834
20
5.97832919878479
30
0
41
1
10
79.6118488383727
20
6.11927609344181
30
0
41
1
10
79.686442971142
20
6.15149989747474
30
0
41
1
10
79.7610371039114
20
6.15149999999974
30
0
0
SPLINE
5
E2
100
AcDbEntity
8
1
62
256
6
ByLayer
370
13
48
1
60
0
100
AcDbSpline
70
4
71
3
72
86
73
82
40
0
40
0
40
0
40
0
40
0.0312500000000001
40
0.0312500000000001
40
0.0625000000000002
40
0.0625000000000002
40
0.0937500000000004
40
0.0937500000000004
40
0.125000000000001
40
0.125000000000001
40
0.156250000000001
40
0.156250000000001
40
0.187500000000001
40
0.187500000000001
40
0.191406250000001
40
0.191406250000001
40
0.195312500000001
40
0.195312500000001
40
0.203125000000001
40
0.203125000000001
40
0.218750000000001
40
0.218750000000001
40
0.250000000000001
40
0.250000000000001
40
0.281250000000001
40
0.281250000000001
40
0.312500000000001
40
0.312500000000001
40
0.343750000000001
40
0.343750000000001
40
0.375000000000001
40
0.375000000000001
40
0.406250000000002
40
0.406250000000002
40
0.437500000000002
40
0.437500000000002
40
0.453125000000002
40
0.453125000000002
40
0.460937500000002
40
0.460937500000002
40
0.464843750000002
40
0.464843750000002
40
0.468750000000002
40
0.468750000000002
40
0.500000000000002
40
0.500000000000002
40
0.531250000000002
40
0.531250000000002
40
0.562500000000002
40
0.562500000000002
40
0.593750000000002
40
0.593750000000002
40
0.625000000000002
40
0.625000000000002
40
0.656250000000002
40
0.656250000000002
40
0.687500000000002
40
0.687500000000002
40
0.718750000000003
40
0.718750000000003
40
0.726562500000003
40
0.726562500000003
40
0.734375000000003
40
0.734375000000003
40
0.750000000000003
40
0.750000000000003
40
0.781250000000002
40
0.781250000000002
40
0.812500000000002
40
0.812500000000002
40
0.843750000000002
40
0.843750000000002
40
0.875000000000001
40
0.875000000000001
40
0.906250000000001
40
0.906250000000001
40
0.937500000000001
40
0.937500000000001
40
0.96875
40
0.96875
40
1
40
1
40
1
40
1
41
1
10
72.6
20
5.60100969848321
30
0
41
1
10
72.6693559186665
20
5.44295272109556
30
0
41
1
10
72.738711837333
20
5.2494474851157
30
0
41
1
10
72.8774236746661
20
4.79688984833624
30
0
41
1
10
72.9467795933326
20
4.53787328253688
30
0
41
1
10
73.0854914306657
20
3.96733916871096
30
0
41
1
10
73.1548473493322
20
3.65592180117525
30
0
41
1
10
73.2935591866653
20
2.99930013284924
30
0
41
1
10
73.3629151053318
20
2.65422325281216
30
0
41
1
10
73.5016269426648
20
1.95108502040222
30
0
41
1
10
73.5709828613314
20
1.59313194297994
30
0
41
1
10
73.7096946986645
20
0.883423495861535
30
0
41
1
10
73.779050617331
20
0.531727951719262
30
0
41
1
10
73.8570760258309
20
0.147966984732164
30
0
41
1
10
73.8657455156641
20
0.105488908275333
30
0
41
1
10
73.8830844953308
20
0.0208801967961563
30
0
41
1
10
73.8917539851641
20
-0.021161241463119
30
0
41
1
10
73.917762454664
20
-0.148076622306462
30
0
41
1
10
73.9351014343306
20
-0.233382297457041
30
0
41
1
10
73.9871183733305
20
-0.491097324978654
30
0
41
1
10
74.0217963326638
20
-0.665314492817743
30
0
41
1
10
74.1258302106637
20
-1.19251950452846
30
0
41
1
10
74.1951861293302
20
-1.55018229176238
30
0
41
1
10
74.3338979666632
20
-2.2602585490857
30
0
41
1
10
74.4032538853297
20
-2.61257992635214
30
0
41
1
10
74.5419657226627
20
-3.29144812845044
30
0
41
1
10
74.6113216413293
20
-3.61786972394231
30
0
41
1
10
74.7500334786624
20
-4.22496458963244
30
0
41
1
10
74.8193893973289
20
-4.50552197926945
30
0
41
1
10
74.958101234662
20
-5.00526168654562
30
0
41
1
10
75.0274571533284
20
-5.22438144776191
30
0
41
1
10
75.1661689906615
20
-5.59279895908028
30
0
41
1
10
75.2355249093281
20
-5.74210622316429
30
0
41
1
10
75.3742367466612
20
-5.97046644278549
30
0
41
1
10
75.4435926653276
20
-6.0495857669209
30
0
41
1
10
75.5476265433274
20
-6.12034215207154
30
0
41
1
10
75.5823045026607
20
-6.13598637867224
30
0
41
1
10
75.6343214416606
20
-6.14845347566683
30
0
41
1
10
75.6516604213272
20
-6.15077779384026
30
0
41
1
10
75.6776688908271
20
-6.15164506930034
30
0
41
1
10
75.6863383806605
20
-6.15150098195099
30
0
41
1
10
75.7036773603272
20
-6.15033585734983
30
0
41
1
10
75.7123468501604
20
-6.14931318612994
30
0
41
1
10
75.7903722586602
20
-6.13605176763963
30
0
41
1
10
75.8597281773268
20
-6.09525513677153
30
0
41
1
10
75.9984400146598
20
-5.94660055334424
30
0
41
1
10
76.0677959333264
20
-5.83865872321988
30
0
41
1
10
76.2065077706595
20
-5.55185785924436
30
0
41
1
10
76.2758636893259
20
-5.37295254823135
30
0
41
1
10
76.414575526659
20
-4.94782250517719
30
0
41
1
10
76.4839314453255
20
-4.70161828420737
30
0
41
1
10
76.6226432826586
20
-4.15342295307457
30
0
41
1
10
76.6919992013251
20
-3.85152083859529
30
0
41
1
10
76.8307110386582
20
-3.20972630205739
30
0
41
1
10
76.9000669573247
20
-2.86995958731669
30
0
41
1
10
77.0387787946578
20
-2.17312638664831
30
0
41
1
10
77.1081347133243
20
-1.81617544329899
30
0
41
1
10
77.2468465506573
20
-1.10475855815105
30
0
41
1
10
77.3162024693239
20
-0.750363595772171
30
0
41
1
10
77.402897367657
20
-0.318904622837209
30
0
41
1
10
77.4202363473237
20
-0.233177943939182
30
0
41
1
10
77.454914306657
20
-0.0630537779819917
30
0
41
1
10
77.4722532863236
20
0.0208960282871828
30
0
41
1
10
77.5242702253234
20
0.275412221928491
30
0
41
1
10
77.5589481846567
20
0.447820402479266
30
0
41
1
10
77.6629820626566
20
0.970768759435515
30
0
41
1
10
77.7323379813231
20
1.32716711961308
30
0
41
1
10
77.8710498186562
20
2.03872828870442
30
0
41
1
10
77.9404057373227
20
2.39380927602039
30
0
41
1
10
78.0791175746558
20
3.08255592431343
30
0
41
1
10
78.1484734933223
20
3.41610032112814
30
0
41
1
10
78.2871853306553
20
4.04136635244708
30
0
41
1
10
78.3565412493219
20
4.33296613761587
30
0
41
1
10
78.4952530866549
20
4.85752405882755
30
0
41
1
10
78.5646090053214
20
5.09040583637417
30
0
41
1
10
78.7033208426545
20
5.48744094688044
30
0
41
1
10
78.772676761321
20
5.65158899292732
30
0
41
1
10
78.911388598654
20
5.90909441118234
30
0
41
1
10
78.9807445173205
20
6.00250885243605
30
0
41
1
10
79.1194563546536
20
6.12366810352702
30
0
41
1
10
79.1888122733202
20
6.1515
30
0
41
1
10
79.2581681919867
20
6.1515
30
0
0
SPLINE
5
E3
100
AcDbEntity
8
1
62
256
6
ByLayer
370
13
48
1
60
0
100
AcDbSpline
70
4
71
3
72
85
73
81
40
0
40
0
40
0
40
0
40
0.031250000000003
40
0.031250000000003
40
0.0625000000000061
40
0.0625000000000061
40
0.0937500000000092
40
0.0937500000000092
40
0.125000000000012
40
0.125000000000012
40
0.128906250000013
40
0.128906250000013
40
0.132812500000013
40
0.140625000000013
40
0.140625000000013
40
0.156250000000014
40
0.156250000000014
40
0.187500000000015
40
0.187500000000015
40
0.218750000000016
40
0.218750000000016
40
0.250000000000017
40
0.250000000000017
40
0.281250000000018
40
0.281250000000018
40
0.312500000000019
40
0.312500000000019
40
0.343750000000019
40
0.343750000000019
40
0.37500000000002
40
0.37500000000002
40
0.406250000000021
40
0.406250000000021
40
0.414062500000021
40
0.414062500000021
40
0.421875000000022
40
0.421875000000022
40
0.437500000000022
40
0.437500000000022
40
0.468750000000022
40
0.468750000000022
40
0.500000000000023
40
0.500000000000023
40
0.531250000000023
40
0.531250000000023
40
0.562500000000023
40
0.562500000000023
40
0.593750000000024
40
0.593750000000024
40
0.625000000000024
40
0.625000000000024
40
0.656250000000025
40
0.656250000000025
40
0.687500000000025
40
0.687500000000025
40
0.703125000000025
40
0.703125000000025
40
0.707031250000025
40
0.707031250000025
40
0.710937500000025
40
0.710937500000025
40
0.718750000000025
40
0.718750000000025
40
0.750000000000022
40
0.750000000000022
40
0.781250000000019
40
0.781250000000019
40
0.812500000000016
40
0.812500000000016
40
0.843750000000014
40
0.843750000000014
40
0.875000000000011
40
0.875000000000011
40
0.906250000000008
40
0.906250000000008
40
0.937500000000005
40
0.937500000000005
40
0.968750000000003
40
0.968750000000003
40
1
40
1
40
1
40
1
41
1
10
72.6
20
3.88293040527949
30
0
41
1
10
72.6641176971042
20
3.60055136052429
30
0
41
1
10
72.7282353942085
20
3.29896646695431
30
0
41
1
10
72.8564707884171
20
2.67298812363873
30
0
41
1
10
72.9205884855213
20
2.34867975855406
30
0
41
1
10
73.0488238797299
20
1.69356742379566
30
0
41
1
10
73.1129415768341
20
1.36282915716564
30
0
41
1
10
73.2411769710427
20
0.709369890130887
30
0
41
1
10
73.305294668147
20
0.386682352602094
30
0
41
1
10
73.3774270773893
20
0.0344627042670709
30
0
41
1
10
73.3854417895274
20
-0.0044243703709412
30
0
41
1
10
73.4014712138033
20
-0.0825426071500317
30
0
41
1
10
73.4255153502175
20
-0.200169630162492
30
0
41
1
10
73.4495594866316
20
-0.319065036778426
30
0
41
1
10
73.4976477594597
20
-0.558311066743642
30
0
41
1
10
73.5297066080119
20
-0.719755803064231
30
0
41
1
10
73.6258831536683
20
-1.20778095502504
30
0
41
1
10
73.6900008507726
20
-1.53814101966734
30
0
41
1
10
73.8182362449812
20
-2.19493741305271
30
0
41
1
10
73.8823539420854
20
-2.5213126425715
30
0
41
1
10
74.0105893362941
20
-3.15401433108295
30
0
41
1
10
74.0747070333982
20
-3.46025730955068
30
0
41
1
10
74.2029424276068
20
-4.03666916955635
30
0
41
1
10
74.2670601247111
20
-4.30675588600704
30
0
41
1
10
74.3952955189196
20
-4.79751549100715
30
0
41
1
10
74.4594132160238
20
-5.01813436885618
30
0
41
1
10
74.5876486102324
20
-5.40144636711045
30
0
41
1
10
74.6517663073367
20
-5.56412955069075
30
0
41
1
10
74.7800017015453
20
-5.82889054049559
30
0
41
1
10
74.8441193986495
20
-5.93099985166759
30
0
41
1
10
74.972354792858
20
-6.07741456318507
30
0
41
1
10
75.0364724899623
20
-6.12177577158647
30
0
41
1
10
75.1166196113426
20
-6.14541103662572
30
0
41
1
10
75.1326490356187
20
-6.14855475219818
30
0
41
1
10
75.1647078841709
20
-6.15180773652278
30
0
41
1
10
75.1807373084469
20
-6.15193290606388
30
0
41
1
10
75.2288255812751
20
-6.14783085804109
30
0
41
1
10
75.2608844298272
20
-6.13904632651568
30
0
41
1
10
75.3570609754837
20
-6.09299965054385
30
0
41
1
10
75.421178672588
20
-6.03592631297033
30
0
41
1
10
75.5494140667964
20
-5.86301695666836
30
0
41
1
10
75.6135317639008
20
-5.74712880662094
30
0
41
1
10
75.7417671581094
20
-5.45488977437179
30
0
41
1
10
75.8058848552136
20
-5.27851571748101
30
0
41
1
10
75.9341202494221
20
-4.86924671778832
30
0
41
1
10
75.9982379465264
20
-4.63637224199346
30
0
41
1
10
76.1264733407349
20
-4.12377135774219
30
0
41
1
10
76.1905910378392
20
-3.8441073945275
30
0
41
1
10
76.3188264320478
20
-3.25205448033944
30
0
41
1
10
76.382944129152
20
-2.93975047788609
30
0
41
1
10
76.5111795233605
20
-2.29870224080258
30
0
41
1
10
76.5752972204648
20
-1.97003808030732
30
0
41
1
10
76.7035326146734
20
-1.31213052298438
30
0
41
1
10
76.7676503117776
20
-0.982941079340947
30
0
41
1
10
76.863826857434
20
-0.498739436791993
30
0
41
1
10
76.8958857059862
20
-0.338911417489186
30
0
41
1
10
76.9359592666764
20
-0.141922243381657
30
0
41
1
10
76.9439739788144
20
-0.102663625819503
30
0
41
1
10
76.9600034030905
20
-0.024443262090017
30
0
41
1
10
76.9680181152285
20
0.0144304730821148
30
0
41
1
10
76.9920622516426
20
0.13168461999652
30
0
41
1
10
77.0080916759186
20
0.21045133023415
30
0
41
1
10
77.088238797299
20
0.606894791895144
30
0
41
1
10
77.1523564944033
20
0.932541685008545
30
0
41
1
10
77.2805918886118
20
1.58887164070549
30
0
41
1
10
77.3447095857161
20
1.91951353032181
30
0
41
1
10
77.4729449799247
20
2.57080018682566
30
0
41
1
10
77.537062677029
20
2.89137314045448
30
0
41
1
10
77.6652980712375
20
3.50613609509543
30
0
41
1
10
77.7294157683417
20
3.80023983444346
30
0
41
1
10
77.8576511625503
20
4.34677410572311
30
0
41
1
10
77.9217688596545
20
4.59913045982526
30
0
41
1
10
78.0500042538631
20
5.0504892661381
30
0
41
1
10
78.1141219509673
20
5.24945378971543
30
0
41
1
10
78.2423573451758
20
5.58772313384776
30
0
41
1
10
78.3064750422802
20
5.72703531039471
30
0
41
1
10
78.4347104364887
20
5.94554433831715
30
0
41
1
10
78.498828133593
20
6.02478455146857
30
0
41
1
10
78.6270635278015
20
6.12773263439462
30
0
41
1
10
78.6911812249058
20
6.1515
30
0
41
1
10
78.7552989220101
20
6.1515
30
0
0
SPLINE
5
E4
100
AcDbEntity
8
1
62
256
6
ByLayer
370
13
48
1
60
0
100
AcDbSpline
70
4
71
3
72
82
73
78
40
0
40
0
40
0
40
0
40
0.0312500000000001
40
0.0312500000000001
40
0.0468750000000001
40
0.0468750000000001
40
0.0546875
40
0.0546875
40
0.0625
40
0.0625
40
0.0937499999999998
40
0.0937499999999998
40
0.125
40
0.125
40
0.15625
40
0.15625
40
0.187499999999999
40
0.187499999999999
40
0.218749999999999
40
0.218749999999999
40
0.249999999999999
40
0.249999999999999
40
0.281249999999999
40
0.281249999999999
40
0.312499999999999
40
0.312499999999999
40
0.343749999999999
40
0.343749999999999
40
0.359374999999999
40
0.359374999999999
40
0.367187499999999
40
0.367187499999999
40
0.374999999999999
40
0.374999999999999
40
0.406249999999999
40
0.406249999999999
40
0.437499999999999
40
0.437499999999999
40
0.468749999999999
40
0.468749999999999
40
0.5
40
0.5
40
0.53125
40
0.53125
40
0.5625
40
0.5625
40
0.59375
40
0.59375
40
0.625
40
0.625
40
0.65625
40
0.65625
40
0.671875
40
0.671875
40
0.6796875
40
0.6796875
40
0.6875
40
0.6875
40
0.71875
40
0.71875
40
0.75
40
0.75
40
0.781250000000001
40
0.781250000000001
40
0.8125
40
0.8125
40
0.84375
40
0.84375
40
0.875
40
0.875
40
0.90625
40
0.90625
40
0.9375
40
0.9375
40
0.96875
40
0.96875
40
1
40
1
40
1
40
1
41
1
10
72.6
20
1.41551277429963
30
0
41
1
10
72.658879475542
20
1.11362928934338
30
0
41
1
10
72.717758951084
20
0.812926327681851
30
0
41
1
10
72.806078164397
20
0.370981555567795
30
0
41
1
10
72.835517902168
20
0.225166280341654
30
0
41
1
10
72.8796775088246
20
0.0094296473158408
30
0
41
1
10
72.8943973777101
20
-0.0619004059489896
30
0
41
1
10
72.923837115481
20
-0.206201982032724
30
0
41
1
10
72.9385569843666
20
-0.278835320316091
30
0
41
1
10
73.0121563287941
20
-0.644114499326463
30
0
41
1
10
73.0710358043361
20
-0.943197146426684
30
0
41
1
10
73.1887947554201
20
-1.54575978818846
30
0
41
1
10
73.2476742309622
20
-1.84921325472973
30
0
41
1
10
73.3654331820462
20
-2.44898592409649
30
0
41
1
10
73.4243126575882
20
-2.74525980915939
30
0
41
1
10
73.5420716086722
20
-3.3180328116818
30
0
41
1
10
73.6009510842142
20
-3.59447599644867
30
0
41
1
10
73.7187100352983
20
-4.11539619413671
30
0
41
1
10
73.7775895108402
20
-4.35982080701487
30
0
41
1
10
73.8953484619243
20
-4.80664507788819
30
0
41
1
10
73.9542279374663
20
-5.0090104763656
30
0
41
1
10
74.0719868885503
20
-5.36514360651142
30
0
41
1
10
74.1308663640923
20
-5.51890368223582
30
0
41
1
10
74.2486253151764
20
-5.77539258111574
30
0
41
1
10
74.3075047907184
20
-5.87813925429299
30
0
41
1
10
74.4252637418025
20
-6.03414065140348
30
0
41
1
10
74.4841432173445
20
-6.08742983464185
30
0
41
1
10
74.5724624306575
20
-6.13376060859605
30
0
41
1
10
74.6019021684285
20
-6.14362476767067
30
0
41
1
10
74.6460617750851
20
-6.15063691726095
30
0
41
1
10
74.6607816439706
20
-6.15167846039839
30
0
41
1
10
74.6902213817415
20
-6.1512719971596
30
0
41
1
10
74.704941250627
20
-6.1498165610455
30
0
41
1
10
74.7785405950545
20
-6.1360149090635
30
0
41
1
10
74.8374200705966
20
-6.10401900297634
30
0
41
1
10
74.9551790216806
20
-5.99244015628131
30
0
41
1
10
75.0140584972227
20
-5.91281905518619
30
0
41
1
10
75.1318174483066
20
-5.70285093407463
30
0
41
1
10
75.1906969238486
20
-5.57247703409053
30
0
41
1
10
75.3084558749327
20
-5.2615008852122
30
0
41
1
10
75.3673353504747
20
-5.08089387284193
30
0
41
1
10
75.4850943015587
20
-4.67409922306118
30
0
41
1
10
75.5439737771007
20
-4.44793411843918
30
0
41
1
10
75.6617327281848
20
-3.9585665672862
30
0
41
1
10
75.7206122037268
20
-3.6954097668746
30
0
41
1
10
75.8383711548108
20
-3.14344915613029
30
0
41
1
10
75.8972506303529
20
-2.8547016022606
30
0
41
1
10
76.0150095814368
20
-2.26421405914869
30
0
41
1
10
76.0738890569788
20
-1.96252572664733
30
0
41
1
10
76.1916480080629
20
-1.35839865846552
30
0
41
1
10
76.2505274836049
20
-1.05599560241137
30
0
41
1
10
76.3388466969179
20
-0.609689239580746
30
0
41
1
10
76.368286434689
20
-0.462119765752846
30
0
41
1
10
76.4124460413455
20
-0.243368994658823
30
0
41
1
10
76.427165910231
20
-0.170884694560982
30
0
41
1
10
76.456605648002
20
-0.0268997225479382
30
0
41
1
10
76.4713255168874
20
0.0443900345176758
30
0
41
1
10
76.544924861315
20
0.404750102485849
30
0
41
1
10
76.603804336857
20
0.700936665302237
30
0
41
1
10
76.721563287941
20
1.30047859169696
30
0
41
1
10
76.7804427634831
20
1.60381290723586
30
0
41
1
10
76.8982017145671
20
2.20662976650644
30
0
41
1
10
76.9570811901091
20
2.50607158758979
30
0
41
1
10
77.0748401411931
20
3.08862409697548
30
0
41
1
10
77.1337196167352
20
3.37168050412271
30
0
41
1
10
77.2514785678192
20
3.90898061036441
30
0
41
1
10
77.3103580433612
20
4.16316940610693
30
0
41
1
10
77.4281169944452
20
4.63194356196274
30
0
41
1
10
77.4869964699873
20
4.84648856538439
30
0
41
1
10
77.6047554210713
20
5.2283617817213
30
0
41
1
10
77.6636348966134
20
5.39567484609032
30
0
41
1
10
77.7813938476974
20
5.67951470385137
30
0
41
1
10
77.8402733232393
20
5.79605308193419
30
0
41
1
10
77.9580322743234
20
5.97886788302566
30
0
41
1
10
78.0169117498654
20
6.04517540877754
30
0
41
1
10
78.1346707009495
20
6.13147186553914
30
0
41
1
10
78.1935501764915
20
6.1515
30
0
41
1
10
78.2524296520334
20
6.1515
30
0
0
SPLINE
5
E5
100
AcDbEntity
8
1
62
256
6
ByLayer
370
13
48
1
60
0
100
AcDbSpline
70
4
71
3
72
76
73
72
40
0
40
0
40
0
40
0
40
0.0312499999999999
40
0.0312499999999999
40
0.0624999999999998
40
0.0624999999999998
40
0.0937499999999997
40
0.0937499999999997
40
0.125
40
0.125
40
0.15625
40
0.15625
40
0.187499999999999
40
0.187499999999999
40
0.218749999999999
40
0.218749999999999
40
0.249999999999999
40
0.249999999999999
40
0.281249999999999
40
0.281249999999999
40
0.296874999999999
40
0.296874999999999
40
0.312499999999999
40
0.312499999999999
40
0.34375
40
0.34375
40
0.375
40
0.375
40
0.406250000000001
40
0.406250000000001
40
0.437500000000001
40
0.437500000000001
40
0.468750000000002
40
0.468750000000002
40
0.500000000000002
40
0.500000000000002
40
0.531250000000003
40
0.531250000000003
40
0.562500000000003
40
0.562500000000003
40
0.593750000000004
40
0.593750000000004
40
0.625000000000004
40
0.625000000000004
40
0.640625000000004
40
0.640625000000004
40
0.648437500000004
40
0.648437500000004
40
0.656250000000005
40
0.656250000000005
40
0.687500000000004
40
0.687500000000004
40
0.718750000000004
40
0.718750000000004
40
0.750000000000003
40
0.750000000000003
40
0.781250000000003
40
0.781250000000003
40
0.812500000000002
40
0.812500000000002
40
0.843750000000002
40
0.843750000000002
40
0.875000000000002
40
0.875000000000002
40
0.906250000000001
40
0.906250000000001
40
0.937500000000001
40
0.937500000000001
40
0.96875
40
0.96875
40
1
40
1
40
1
40
1
41
1
10
72.6
20
-1.10625248209414
30
0
41
1
10
72.6536412539797
20
-1.38003428107086
30
0
41
1
10
72.7072825079595
20
-1.65627114190636
30
0
41
1
10
72.814565015919
20
-2.20524332503334
30
0
41
1
10
72.8682062698988
20
-2.47795274174362
30
0
41
1
10
72.9754887778583
20
-3.01044844267503
30
0
41
1
10
73.029130031838
20
-3.27020091364284
30
0
41
1
10
73.1364125397976
20
-3.76729293074067
30
0
41
1
10
73.1900537937773
20
-4.00459737914471
30
0
41
1
10
73.2973363017368
20
-4.44829737281225
30
0
41
1
10
73.3509775557166
20
-4.65466456541068
30
0
41
1
10
73.4582600636761
20
-5.0299707911505
30
0
41
1
10
73.5119013176559
20
-5.19889469696562
30
0
41
1
10
73.6191838256154
20
-5.49544623224543
30
0
41
1
10
73.6728250795952
20
-5.62307444492882
30
0
41
1
10
73.7801075875547
20
-5.83604092874734
30
0
41
1
10
73.8337488415344
20
-5.92139339427993
30
0
41
1
10
73.941031349494
20
-6.05145541209552
30
0
41
1
10
73.9946726034737
20
-6.09618749825384
30
0
41
1
10
74.0751344844434
20
-6.13558927366836
30
0
41
1
10
74.1019551114332
20
-6.14412102480645
30
0
41
1
10
74.155596365413
20
-6.15257393675742
30
0
41
1
10
74.1824169924029
20
-6.15257748720634
30
0
41
1
10
74.2628788733725
20
-6.13992067360735
30
0
41
1
10
74.3165201273523
20
-6.11422198097227
30
0
41
1
10
74.4238026353118
20
-6.02387516381248
30
0
41
1
10
74.4774438892915
20
-5.95920265142331
30
0
41
1
10
74.584726397251
20
-5.78812996976077
30
0
41
1
10
74.6383676512309
20
-5.68171066673824
30
0
41
1
10
74.7456501591903
20
-5.42673981865576
30
0
41
1
10
74.7992914131701
20
-5.2781803667709
30
0
41
1
10
74.9065739211296
20
-4.9413263017409
30
0
41
1
10
74.9602151751093
20
-4.75303896530943
30
0
41
1
10
75.0674976830689
20
-4.34194948066221
30
0
41
1
10
75.1211389370487
20
-4.11916966679681
30
0
41
1
10
75.2284214450082
20
-3.64668956687541
30
0
41
1
10
75.2820626989879
20
-3.39702198168322
30
0
41
1
10
75.3893452069475
20
-2.87988695045411
30
0
41
1
10
75.4429864609272
20
-2.61245493963301
30
0
41
1
10
75.5502689688867
20
-2.0693847727016
30
0
41
1
10
75.6039102228665
20
-1.79377712488721
30
0
41
1
10
75.711192730826
20
-1.24340501528167
30
0
41
1
10
75.7648339848058
20
-0.968661037177583
30
0
41
1
10
75.8452958657755
20
-0.562970072634499
30
0
41
1
10
75.8721164927653
20
-0.428798349033571
30
0
41
1
10
75.9123474332501
20
-0.229728491304968
30
0
41
1
10
75.925757746745
20
-0.16373560435656
30
0
41
1
10
75.9525783737349
20
-0.0325664238887668
30
0
41
1
10
75.9659886872299
20
0.0323952270927919
30
0
41
1
10
76.0330402547046
20
0.360314613332605
30
0
41
1
10
76.0866815086843
20
0.629255112559264
30
0
41
1
10
76.1939640166438
20
1.17395177293682
30
0
41
1
10
76.2476052706236
20
1.44969612590603
30
0
41
1
10
76.3548877785831
20
1.9999133030999
30
0
41
1
10
76.4085290325629
20
2.27436285922664
30
0
41
1
10
76.5158115405224
20
2.812738265348
30
0
41
1
10
76.5694527945021
20
3.07663176648404
30
0
41
1
10
76.6767353024616
20
3.58432511754336
30
0
41
1
10
76.7303765564414
20
3.82808944601027
30
0
41
1
10
76.837659064401
20
4.28668081354985
30
0
41
1
10
76.8913003183807
20
4.50147709574469
30
0
41
1
10
76.9985828263402
20
4.89504076160824
30
0
41
1
10
77.0522240803199
20
5.07378929846089
30
0
41
1
10
77.1595065882794
20
5.3906874077008
30
0
41
1
10
77.2131478422593
20
5.5288336678249
30
0
41
1
10
77.3204303502188
20
5.76282085712694
30
0
41
1
10
77.3740716041985
20
5.85867298918353
30
0
41
1
10
77.481354112158
20
6.00910267178972
30
0
41
1
10
77.5349953661378
20
6.06370125191523
30
0
41
1
10
77.6422778740973
20
6.13488753448053
30
0
41
1
10
77.6959191280771
20
6.1515
30
0
41
1
10
77.7495603820568
20
6.1515
30
0
0
SPLINE
5
E6
100
AcDbEntity
8
1
62
256
6
ByLayer
370
13
48
1
60
0
100
AcDbSpline
70
4
71
3
72
78
73
74
40
0
40
0
40
0
40
0
40
0.0312500000000005
40
0.0312500000000005
40
0.062500000000001
40
0.062500000000001
40
0.0937500000000015
40
0.0937500000000015
40
0.125000000000002
40
0.125000000000002
40
0.156250000000002
40
0.156250000000002
40
0.187500000000003
40
0.187500000000003
40
0.218750000000003
40
0.218750000000003
40
0.226562500000003
40
0.226562500000003
40
0.234375000000003
40
0.234375000000003
40
0.250000000000004
40
0.250000000000004
40
0.281250000000004
40
0.281250000000004
40
0.312500000000005
40
0.312500000000005
40
0.343750000000005
40
0.343750000000005
40
0.375000000000006
40
0.375000000000006
40
0.406250000000006
40
0.406250000000006
40
0.437500000000007
40
0.437500000000007
40
0.468750000000008
40
0.468750000000008
40
0.500000000000008
40
0.500000000000008
40
0.531250000000009
40
0.531250000000009
40
0.562500000000009
40
0.562500000000009
40
0.59375000000001
40
0.59375000000001
40
0.60937500000001
40
0.60937500000001
40
0.61718750000001
40
0.61718750000001
40
0.62500000000001
40
0.62500000000001
40
0.656250000000009
40
0.656250000000009
40
0.687500000000008
40
0.687500000000008
40
0.718750000000008
40
0.718750000000008
40
0.750000000000007
40
0.750000000000007
40
0.781250000000006
40
0.781250000000006
40
0.812500000000005
40
0.812500000000005
40
0.843750000000004
40
0.843750000000004
40
0.875000000000003
40
0.875000000000003
40
0.906250000000003
40
0.906250000000003
40
0.937500000000002
40
0.937500000000002
40
0.968750000000001
40
0.968750000000001
40
1
40
1
40
1
40
1
41
1
10
72.6
20
-3.61133856504409
30
0
41
1
10
72.6484030324175
20
-3.83302927912311
30
0
41
1
10
72.696806064835
20
-4.04511483510447
30
0
41
1
10
72.79361212967
20
-4.4439684128277
30
0
41
1
10
72.8420151620875
20
-4.63071961046472
30
0
41
1
10
72.9388212269225
20
-4.97408301301255
30
0
41
1
10
72.98722425934
20
-5.13068551425255
30
0
41
1
10
73.084030324175
20
-5.41066624681193
30
0
41
1
10
73.1324333565925
20
-5.53404327358049
30
0
41
1
10
73.2292394214275
20
-5.74639096826925
30
0
41
1
10
73.277642453845
20
-5.83536824324685
30
0
41
1
10
73.3744485186801
20
-5.97955196661559
30
0
41
1
10
73.4228515510976
20
-6.03477054194073
30
0
41
1
10
73.5196576159325
20
-6.11359898096046
30
0
41
1
10
73.56806064835
20
-6.13722351298171
30
0
41
1
10
73.6285644388719
20
-6.14904561061635
30
0
41
1
10
73.6406651969763
20
-6.15052669120306
30
0
41
1
10
73.6648667131851
20
-6.15178034301653
30
0
41
1
10
73.6769674712893
20
-6.15156175200531
30
0
41
1
10
73.7132697456025
20
-6.14833560391412
30
0
41
1
10
73.7374712618113
20
-6.14273560486333
30
0
41
1
10
73.8100758104375
20
-6.1149134912346
30
0
41
1
10
73.8584788428551
20
-6.08163576832769
30
0
41
1
10
73.95528490769
20
-5.98267699907456
30
0
41
1
10
74.0036879401076
20
-5.91698176269304
30
0
41
1
10
74.1004940049426
20
-5.75145957509744
30
0
41
1
10
74.14889703736
20
-5.65162192849925
30
0
41
1
10
74.245703102195
20
-5.41771670787088
30
0
41
1
10
74.2941061346125
20
-5.28364480273709
30
0
41
1
10
74.3909121994475
20
-4.98303909720275
30
0
41
1
10
74.4393152318651
20
-4.81650920227508
30
0
41
1
10
74.5361212967001
20
-4.45463399927269
30
0
41
1
10
74.5845243291176
20
-4.25930088622241
30
0
41
1
10
74.6813303939525
20
-3.84510083994982
30
0
41
1
10
74.7297334263701
20
-3.62625238500138
30
0
41
1
10
74.8265394912051
20
-3.17146858541008
30
0
41
1
10
74.8749425236226
20
-2.93555447868366
30
0
41
1
10
74.9717485884576
20
-2.45364121319855
30
0
41
1
10
75.0201516208751
20
-2.20766212276612
30
0
41
1
10
75.1169576857101
20
-1.71254096965316
30
0
41
1
10
75.1653607181276
20
-1.46341463864692
30
0
41
1
10
75.2621667829626
20
-0.968293174156798
30
0
41
1
10
75.3105698153802
20
-0.722307760335923
30
0
41
1
10
75.3831743640064
20
-0.359637671906739
30
0
41
1
10
75.4073758802151
20
-0.239790180407851
30
0
41
1
10
75.4436781545282
20
-0.0619923450449846
30
0
41
1
10
75.4557789126326
20
-0.0032868058933957
30
0
41
1
10
75.4799804288414
20
0.114751847122676
30
0
41
1
10
75.4920811869457
20
0.17411101718821
30
0
41
1
10
75.5525849774676
20
0.47244593468298
30
0
41
1
10
75.6009880098851
20
0.716085770234116
30
0
41
1
10
75.6977940747202
20
1.20844725070916
30
0
41
1
10
75.7461971071376
20
1.45716132620345
30
0
41
1
10
75.8430031719726
20
1.95370272443338
30
0
41
1
10
75.8914062043901
20
2.20151626886724
30
0
41
1
10
75.9882122692252
20
2.68950499032647
30
0
41
1
10
76.0366153016427
20
2.92966129311938
30
0
41
1
10
76.1334213664776
20
3.39529662649326
30
0
41
1
10
76.1818243988951
20
3.62075439382147
30
0
41
1
10
76.2786304637302
20
4.05028050176153
30
0
41
1
10
76.3270334961476
20
4.25432897603869
30
0
41
1
10
76.4238395609826
20
4.63528337411444
30
0
41
1
10
76.4722425934002
20
4.81217463102416
30
0
41
1
10
76.5690486582353
20
5.13455269582403
30
0
41
1
10
76.6174516906527
20
5.28003266017691
30
0
41
1
10
76.7142577554876
20
5.53714869764795
30
0
41
1
10
76.7626607879052
20
5.6487864145505
30
0
41
1
10
76.8594668527402
20
5.83767952598956
30
0
41
1
10
76.9078698851577
20
5.914943730837
30
0
41
1
10
77.0046759499926
20
6.03628879652365
30
0
41
1
10
77.0530789824102
20
6.0803829948016
30
0
41
1
10
77.1498850472452
20
6.13798115960199
30
0
41
1
10
77.1982880796627
20
6.1515
30
0
41
1
10
77.2466911120802
20
6.1515
30
0
0
SPLINE
5
E7
100
AcDbEntity
8
1
62
256
6
ByLayer
370
13
48
1
60
0
100
AcDbSpline
70
4
71
3
72
77
73
73
40
0
40
0
40
0
40
0
40
0.03125
40
0.03125
40
0.0624999999999999
40
0.0624999999999999
40
0.0937499999999999
40
0.0937499999999999
40
0.125
40
0.125
40
0.1328125
40
0.1328125
40
0.140625
40
0.140625
40
0.15625
40
0.15625
40
0.1875
40
0.1875
40
0.21875
40
0.21875
40
0.25
40
0.25
40
0.28125
40
0.28125
40
0.3125
40
0.3125
40
0.34375
40
0.34375
40
0.375
40
0.375
40
0.40625
40
0.40625
40
0.4375
40
0.4375
40
0.46875
40
0.46875
40
0.5
40
0.5
40
0.53125
40
0.53125
40
0.5625
40
0.5625
40
0.5703125
40
0.5703125
40
0.578125
40
0.59375
40
0.59375
40
0.625
40
0.625
40
0.65625
40
0.65625
40
0.6875
40
0.6875
40
0.71875
40
0.71875
40
0.75
40
0.75
40
0.78125
40
0.78125
40
0.8125
40
0.8125
40
0.84375
40
0.84375
40
0.875
40
0.875
40
0.90625
40
0.90625
40
0.9375
40
0.9375
40
0.96875
40
0.96875
40
1
40
1
40
1
40
1
41
1
10
72.6
20
-5.45442051890402
30
0
41
1
10
72.6431648108552
20
-5.5654295759152
30
0
41
1
10
72.6863296217105
20
-5.66292992955886
30
0
41
1
10
72.772659243421
20
-5.83061635722072
30
0
41
1
10
72.8158240542762
20
-5.90080745761256
30
0
41
1
10
72.9021536759868
20
-6.01467777741385
30
0
41
1
10
72.945318486842
20
-6.05836436579517
30
0
41
1
10
73.0316481085525
20
-6.12093344149613
30
0
41
1
10
73.0748129194077
20
-6.1398242850548
30
0
41
1
10
73.1287689329768
20
-6.14941778611177
30
0
41
1
10
73.1395601356905
20
-6.15063675186167
30
0
41
1
10
73.1611425411182
20
-6.15171658119195
30
0
41
1
10
73.171933743832
20
-6.1515835873181
30
0
41
1
10
73.2043073519735
20
-6.14914717076991
30
0
41
1
10
73.225889757401
20
-6.14478909495963
30
0
41
1
10
73.2906369736839
20
-6.1230304822212
30
0
41
1
10
73.3338017845392
20
-6.09692564745555
30
0
41
1
10
73.4201314062497
20
-6.01933475617454
30
0
41
1
10
73.4632962171049
20
-5.96784050162961
30
0
41
1
10
73.5496258388154
20
-5.83800795397528
30
0
41
1
10
73.5927906496707
20
-5.75966285249209
30
0
41
1
10
73.6791202713811
20
-5.57563291552455
30
0
41
1
10
73.7222850822363
20
-5.46994400693956
30
0
41
1
10
73.8086147039469
20
-5.23186626944457
30
0
41
1
10
73.8517795148021
20
-5.09947718724817
30
0
41
1
10
73.9381091365126
20
-4.80984311107741
30
0
41
1
10
73.9812739473678
20
-4.65260216573566
30
0
41
1
10
74.0676035690783
20
-4.31625678330121
30
0
41
1
10
74.1107683799336
20
-4.13716036194469
30
0
41
1
10
74.1970980016441
20
-3.76106175384635
30
0
41
1
10
74.2402628124993
20
-3.56407041706387
30
0
41
1
10
74.3265924342098
20
-3.15681692855887
30
0
41
1
10
74.369757245065
20
-2.94656679780414
30
0
41
1
10
74.4560868667755
20
-2.51775803012012
30
0
41
1
10
74.4992516776308
20
-2.29921081449797
30
0
41
1
10
74.5855812993413
20
-1.85873912186344
30
0
41
1
10
74.6287461101965
20
-1.63682400828691
30
0
41
1
10
74.715075731907
20
-1.1941997045293
30
0
41
1
10
74.7582405427623
20
-0.973496948927789
30
0
41
1
10
74.8445701644728
20
-0.537292737950906
30
0
41
1
10
74.887734975328
20
-0.321794571289274
30
0
41
1
10
74.9416909888971
20
-0.0577110841215074
30
0
41
1
10
74.9524821916109
20
-0.0053402393368742
30
0
41
1
10
74.9740645970385
20
0.0998660640799756
30
0
41
1
10
75.00643820518
20
0.258488976315704
30
0
41
1
10
75.0388118133213
20
0.419354697844085
30
0
41
1
10
75.1035590296042
20
0.74348108686732
30
0
41
1
10
75.1467238404595
20
0.962780834977849
30
0
41
1
10
75.2330534621699
20
1.40407174057091
30
0
41
1
10
75.2762182730252
20
1.62605757135216
30
0
41
1
10
75.3625478947357
20
2.06832672934311
30
0
41
1
10
75.405712705591
20
2.28860165333848
30
0
41
1
10
75.4920423273014
20
2.72261177776719
30
0
41
1
10
75.5352071381567
20
2.93633613756575
30
0
41
1
10
75.6215367598671
20
3.35225642158639
30
0
41
1
10
75.6647015707224
20
3.55444034138623
30
0
41
1
10
75.7510311924329
20
3.94248774714643
30
0
41
1
10
75.7941960032882
20
4.12833976893577
30
0
41
1
10
75.8805256249986
20
4.47948702378085
30
0
41
1
10
75.9236904358539
20
4.64477308524263
30
0
41
1
10
76.0100200575644
20
4.95142390210168
30
0
41
1
10
76.0531848684196
20
5.09278313832277
30
0
41
1
10
76.1395144901301
20
5.34931271145982
30
0
41
1
10
76.1826793009854
20
5.46448181146792
30
0
41
1
10
76.2690089226959
20
5.66756344043293
30
0
41
1
10
76.3121737335511
20
5.75547880456213
30
0
41
1
10
76.3985033552616
20
5.90415964733316
30
0
41
1
10
76.4416681661169
20
5.96493112433515
30
0
41
1
10
76.5279977878274
20
6.06046865992519
30
0
41
1
10
76.5711625986826
20
6.09524258479502
30
0
41
1
10
76.657492220393
20
6.14075405316834
30
0
41
1
10
76.7006570312483
20
6.1515
30
0
41
1
10
76.7438218421036
20
6.1515
30
0
0
SPLINE
5
E8
100
AcDbEntity
8
1
62
256
6
ByLayer
370
13
48
1
60
0
100
AcDbSpline
70
4
71
3
72
46
73
42
40
0
40
0
40
0
40
0
40
0.0156249999999995
40
0.0156249999999995
40
0.031249999999999
40
0.031249999999999
40
0.0624999999999986
40
0.0624999999999986
40
0.124999999999998
40
0.124999999999998
40
0.187499999999998
40
0.187499999999998
40
0.249999999999997
40
0.249999999999997
40
0.312499999999996
40
0.312499999999996
40
0.374999999999996
40
0.374999999999996
40
0.437499999999995
40
0.437499999999995
40
0.499999999999995
40
0.499999999999995
40
0.515624999999995
40
0.515624999999995
40
0.531249999999995
40
0.531249999999995
40
0.562499999999995
40
0.562499999999995
40
0.624999999999996
40
0.624999999999996
40
0.687499999999997
40
0.687499999999997
40
0.749999999999997
40
0.749999999999997
40
0.812499999999998
40
0.812499999999998
40
0.874999999999999
40
0.874999999999999
40
0.937499999999999
40
0.937499999999999
40
1
40
1
40
1
40
1
41
1
10
72.6
20
-6.14435354814691
30
0
41
1
10
72.6189632946465
20
-6.14888060317853
30
0
41
1
10
72.637926589293
20
-6.15121742500634
30
0
41
1
10
72.6758531785859
20
-6.15173430214759
30
0
41
1
10
72.6948164732324
20
-6.14992704594493
30
0
41
1
10
72.7517063571719
20
-6.1379777427137
30
0
41
1
10
72.789632946465
20
-6.12129439913079
30
0
41
1
10
72.9034127143439
20
-6.04269565298722
30
0
41
1
10
72.9792658929299
20
-5.95196147016591
30
0
41
1
10
73.1309722501018
20
-5.68612883636203
30
0
41
1
10
73.2068254286878
20
-5.51093410631614
30
0
41
1
10
73.3585317858597
20
-5.07810724282001
30
0
41
1
10
73.4343849644457
20
-4.82048246643873
30
0
41
1
10
73.5860913216177
20
-4.23616913438406
30
0
41
1
10
73.6619445002037
20
-3.90960786934914
30
0
41
1
10
73.8136508573756
20
-3.21021875610796
30
0
41
1
10
73.8895040359616
20
-2.83758621405625
30
0
41
1
10
74.0412103931336
20
-2.07317782585144
30
0
41
1
10
74.1170635717195
20
-1.68157907066043
30
0
41
1
10
74.2687699288915
20
-0.90476806170733
30
0
41
1
10
74.3446231074776
20
-0.519653720261744
30
0
41
1
10
74.43943958071
20
-0.0545165131364058
30
0
41
1
10
74.4584028753565
20
0.0372388991733033
30
0
41
1
10
74.4963294646494
20
0.223094921432079
30
0
41
1
10
74.5152927592959
20
0.316825993494604
30
0
41
1
10
74.5721826432354
20
0.600038918778125
30
0
41
1
10
74.6101092325284
20
0.791554221582629
30
0
41
1
10
74.7238890004074
20
1.37059278030509
30
0
41
1
10
74.7997421789934
20
1.76276331102937
30
0
41
1
10
74.9514485361653
20
2.53543769143502
30
0
41
1
10
75.0273017147513
20
2.91578165260751
30
0
41
1
10
75.1790080719232
20
3.63763325589017
30
0
41
1
10
75.2548612505092
20
3.9789420747552
30
0
41
1
10
75.4065676076812
20
4.59810554132275
30
0
41
1
10
75.4824207862672
20
4.87580732240298
30
0
41
1
10
75.6341271434391
20
5.35130512973336
30
0
41
1
10
75.7099803220251
20
5.54906070316622
30
0
41
1
10
75.8616866791971
20
5.85948739833896
30
0
41
1
10
75.937539857783
20
5.97223227760992
30
0
41
1
10
76.089246214955
20
6.1181716827239
30
0
41
1
10
76.165099393541
20
6.1515
30
0
41
1
10
76.240952572127
20
6.1515
30
0
0
SPLINE
5
E9
100
AcDbEntity
8
1
62
256
6
ByLayer
370
13
48
1
60
0
100
AcDbSpline
70
4
71
3
72
42
73
38
40
0
40
0
40
0
40
0
40
0.0625000000000009
40
0.0625000000000009
40
0.125000000000002
40
0.125000000000002
40
0.187500000000003
40
0.187500000000003
40
0.250000000000004
40
0.250000000000004
40
0.312500000000005
40
0.312500000000005
40
0.375000000000006
40
0.375000000000006
40
0.406250000000006
40
0.406250000000006
40
0.421875000000006
40
0.421875000000006
40
0.437500000000005
40
0.437500000000005
40
0.500000000000005
40
0.500000000000005
40
0.562500000000004
40
0.562500000000004
40
0.625000000000004
40
0.625000000000004
40
0.687500000000003
40
0.687500000000003
40
0.750000000000002
40
0.750000000000002
40
0.812500000000002
40
0.812500000000002
40
0.875000000000001
40
0.875000000000001
40
0.937500000000001
40
0.937500000000001
40
1
40
1
40
1
40
1
41
1
10
72.6
20
-5.72983604265633
30
0
41
1
10
72.6653767354615
20
-5.60010137276447
30
0
41
1
10
72.7307534709229
20
-5.43887280777946
30
0
41
1
10
72.8615069418458
20
-5.05578499661161
30
0
41
1
10
72.9268836773073
20
-4.83393338443054
30
0
41
1
10
73.0576371482302
20
-4.33819492640922
30
0
41
1
10
73.1230138836917
20
-4.06436556675379
30
0
41
1
10
73.2537673546146
20
-3.47860009922329
30
0
41
1
10
73.3191440900761
20
-3.16675402384414
30
0
41
1
10
73.449897560999
20
-2.52191771626909
30
0
41
1
10
73.5152742964605
20
-2.1890195314279
30
0
41
1
10
73.6460277673834
20
-1.51922174493851
30
0
41
1
10
73.7114045028449
20
-1.18238903977866
30
0
41
1
10
73.8094696060371
20
-0.685272276912485
30
0
41
1
10
73.8421579737678
20
-0.52089783368865
30
0
41
1
10
73.8911905253639
20
-0.277459595937359
30
0
41
1
10
73.9075347092293
20
-0.196832158806842
30
0
41
1
10
73.94022307696
20
-0.0367786264100687
30
0
41
1
10
73.9565672608254
20
0.042344712809097
30
0
41
1
10
74.0382881801522
20
0.4426181105556
30
0
41
1
10
74.1036649156136
20
0.772574384499364
30
0
41
1
10
74.2344183865366
20
1.43993240716455
30
0
41
1
10
74.2997951219981
20
1.77729461940419
30
0
41
1
10
74.430548592921
20
2.44391669656542
30
0
41
1
10
74.4959253283825
20
2.77310139297882
30
0
41
1
10
74.6266787993054
20
3.4060450655401
30
0
41
1
10
74.6920555347669
20
3.70970950236725
30
0
41
1
10
74.8228090056899
20
4.27513955666632
30
0
41
1
10
74.8881857411512
20
4.53682081953855
30
0
41
1
10
75.0189392120741
20
5.00546672636307
30
0
41
1
10
75.0843159475356
20
5.21238581787028
30
0
41
1
10
75.2150694184585
20
5.56439431342341
30
0
41
1
10
75.28044615392
20
5.70948897377468
30
0
41
1
10
75.411199624843
20
5.93707015819916
30
0
41
1
10
75.4765763603044
20
6.01960324860229
30
0
41
1
10
75.6073298312274
20
6.12678546754356
30
0
41
1
10
75.6727065666889
20
6.1515
30
0
41
1
10
75.7380833021503
20
6.1515
30
0
0
SPLINE
5
EA
100
AcDbEntity
8
1
62
256
6
ByLayer
370
13
48
1
60
0
100
AcDbSpline
70
4
71
3
72
14
73
10
40
0
40
0
40
0
40
0
40
0.25
40
0.25
40
0.5
40
0.5
40
0.75
40
0.75
40
1
40
1
40
1
40
1
41
1
10
79.137300867748
20
6.1515
30
0
41
1
10
79.1892788874283
20
6.1515
30
0
41
1
10
79.2412569071086
20
6.13590464600185
30
0
41
1
10
79.3452129464691
20
6.06919680510404
30
0
41
1
10
79.3971909661494
20
6.01806313084657
30
0
41
1
10
79.5011470055101
20
5.87722514876518
30
0
41
1
10
79.5531250251904
20
5.78750250965993
30
0
41
1
10
79.6570810645509
20
5.56835616397319
30
0
41
1
10
79.7090590842312
20
5.4389218901199
30
0
41
1
10
79.7610371039115
20
5.29025966301853
30
0
0
SPLINE
5
EB
100
AcDbEntity
8
1
62
256
6
ByLayer
370
13
48
1
60
0
100
AcDbSpline
70
4
71
3
72
42
73
38
40
0
40
0
40
0
40
0
40
0.0624999999999997
40
0.0624999999999997
40
0.124999999999999
40
0.124999999999999
40
0.187499999999999
40
0.187499999999999
40
0.249999999999999
40
0.249999999999999
40
0.312499999999998
40
0.312499999999998
40
0.328124999999998
40
0.328124999999998
40
0.343749999999998
40
0.343749999999998
40
0.374999999999998
40
0.374999999999998
40
0.437499999999998
40
0.437499999999998
40
0.499999999999998
40
0.499999999999998
40
0.562499999999998
40
0.562499999999998
40
0.624999999999999
40
0.624999999999999
40
0.687499999999999
40
0.687499999999999
40
0.749999999999999
40
0.749999999999999
40
0.812499999999999
40
0.812499999999999
40
0.875
40
0.875
40
0.9375
40
0.9375
40
1
40
1
40
1
40
1
41
1
10
72.6
20
-4.14320324914789
30
0
41
1
10
72.6549002923369
20
-3.91230011119149
30
0
41
1
10
72.7098005846739
20
-3.66571086371945
30
0
41
1
10
72.8196011693478
20
-3.15040243641613
30
0
41
1
10
72.8745014616847
20
-2.88172300117356
30
0
41
1
10
72.9843020463587
20
-2.33247862729724
30
0
41
1
10
73.0392023386956
20
-2.05195056754431
30
0
41
1
10
73.1490029233695
20
-1.48900382899669
30
0
41
1
10
73.2039032157065
20
-1.20661194657893
30
0
41
1
10
73.3137038003804
20
-0.648703128527956
30
0
41
1
10
73.3686040927173
20
-0.3731998665655
30
0
41
1
10
73.4372294581386
20
-0.0374435920718099
30
0
41
1
10
73.4509545312227
20
0.0290393269868048
30
0
41
1
10
73.4784046773912
20
0.16327028298474
30
0
41
1
10
73.4921297504754
20
0.230813918419813
30
0
41
1
10
73.5333049697282
20
0.434585948590524
30
0
41
1
10
73.5607551158966
20
0.571959364861243
30
0
41
1
10
73.643105554402
20
0.987366308771499
30
0
41
1
10
73.698005846739
20
1.2687397857496
30
0
41
1
10
73.8078064314129
20
1.83207671625809
30
0
41
1
10
73.8627067237499
20
2.11401668006587
30
0
41
1
10
73.9725073084238
20
2.6687531767644
30
0
41
1
10
74.0274076007607
20
2.94151491325735
30
0
41
1
10
74.1372081854346
20
3.46761579710827
30
0
41
1
10
74.1921084777716
20
3.72091507462983
30
0
41
1
10
74.3019090624455
20
4.19841432921314
30
0
41
1
10
74.3568093547825
20
4.42257848901852
30
0
41
1
10
74.4666099394563
20
4.83390540480477
30
0
41
1
10
74.5215102317933
20
5.02104512923611
30
0
41
1
10
74.6313108164672
20
5.35311003648098
30
0
41
1
10
74.6862111088042
20
5.49802982920562
30
0
41
1
10
74.7960116934781
20
5.74357086946245
30
0
41
1
10
74.850911985815
20
5.84420367492379
30
0
41
1
10
74.9607125704889
20
6.00211542969663
30
0
41
1
10
75.0156128628259
20
6.059417612537
30
0
41
1
10
75.1254134474998
20
6.13409601169337
30
0
41
1
10
75.1803137398367
20
6.1515
30
0
41
1
10
75.2352140321736
20
6.1515
30
0
0
SPLINE
5
EC
100
AcDbEntity
8
1
62
256
6
ByLayer
370
13
48
1
60
0
100
AcDbSpline
70
4
71
3
72
22
73
18
40
0
40
0
40
0
40
0
40
0.125
40
0.125
40
0.25
40
0.25
40
0.375
40
0.375
40
0.5
40
0.5
40
0.625
40
0.625
40
0.75
40
0.75
40
0.875
40
0.875
40
1
40
1
40
1
40
1
41
1
10
78.6344315977713
20
6.1515
30
0
41
1
10
78.6813734938605
20
6.1515
30
0
41
1
10
78.7283153899497
20
6.1387868267
30
0
41
1
10
78.822199182128
20
6.0847101721258
30
0
41
1
10
78.8691410782172
20
6.04333392143934
30
0
41
1
10
78.9630248703955
20
5.92951575309095
30
0
41
1
10
79.0099667664846
20
5.85706223456614
30
0
41
1
10
79.103850558663
20
5.67988064376979
30
0
41
1
10
79.1507924547522
20
5.57514455070847
30
0
41
1
10
79.2446762469306
20
5.33369924955662
30
0
41
1
10
79.2916181430197
20
5.19698779528127
30
0
41
1
10
79.3855019351981
20
4.89356549703288
30
0
41
1
10
79.4324438312872
20
4.72685941746136
30
0
41
1
10
79.5263276234656
20
4.36705963295319
30
0
41
1
10
79.5732695195547
20
4.17397742436097
30
0
41
1
10
79.6671533117331
20
3.76642856713661
30
0
41
1
10
79.7140952078223
20
3.55197828081066
30
0
41
1
10
79.7610371039115
20
3.32981981273247
30
0
0
SPLINE
5
ED
100
AcDbEntity
8
1
62
256
6
ByLayer
370
13
48
1
60
0
100
AcDbSpline
70
4
71
3
72
42
73
38
40
0
40
0
40
0
40
0
40
0.0625000000000001
40
0.0625000000000001
40
0.125
40
0.125
40
0.15625
40
0.15625
40
0.171875
40
0.171875
40
0.1875
40
0.1875
40
0.25
40
0.25
40
0.3125
40
0.3125
40
0.375
40
0.375
40
0.4375
40
0.4375
40
0.5
40
0.5
40
0.5625
40
0.5625
40
0.625
40
0.625
40
0.6875
40
0.6875
40
0.75
40
0.75
40
0.8125
40
0.8125
40
0.875
40
0.875
40
0.9375
40
0.9375
40
1
40
1
40
1
40
1
41
1
10
72.6
20
-1.72552307468553
30
0
41
1
10
72.6444238492124
20
-1.49768856871864
30
0
41
1
10
72.6888476984249
20
-1.26940200588956
30
0
41
1
10
72.7776953968498
20
-0.816578384836959
30
0
41
1
10
72.8221192460622
20
-0.592046699314096
30
0
41
1
10
72.8887550198808
20
-0.260991514147889
30
0
41
1
10
72.9109669444871
20
-0.151590389868659
30
0
41
1
10
72.9442848313964
20
0.0107804231764135
30
0
41
1
10
72.9553907936995
20
0.064701549236446
30
0
41
1
10
72.9776027183058
20
0.173474293644006
30
0
41
1
10
72.9887086806089
20
0.228137502917633
30
0
41
1
10
73.0442384921244
20
0.502710957722826
30
0
41
1
10
73.0886623413368
20
0.726426590628762
30
0
41
1
10
73.1775100397616
20
1.17818704638324
30
0
41
1
10
73.2219338889741
20
1.40622699687762
30
0
41
1
10
73.310781587399
20
1.86206382955646
30
0
41
1
10
73.3552054366115
20
2.0898521071671
30
0
41
1
10
73.4440531350363
20
2.54003028490504
30
0
41
1
10
73.4884769842488
20
2.76240837127537
30
0
41
1
10
73.5773246826736
20
3.19633694245198
30
0
41
1
10
73.6217485318861
20
3.40787374835412
30
0
41
1
10
73.7105962303109
20
3.81480502164717
30
0
41
1
10
73.7550200795234
20
4.01018592556494
30
0
41
1
10
73.8438677779483
20
4.38002194431493
30
0
41
1
10
73.8882916271607
20
4.55446578470074
30
0
41
1
10
73.9771393255856
20
4.87855646322237
30
0
41
1
10
74.021563174798
20
5.02819611377032
30
0
41
1
10
74.1104108732229
20
5.30000273912222
30
0
41
1
10
74.1548347224353
20
5.42216755695299
30
0
41
1
10
74.2436824208602
20
5.63768725224122
30
0
41
1
10
74.2881062700727
20
5.73104489317913
30
0
41
1
10
74.3769539684976
20
5.88894085976551
30
0
41
1
10
74.42137781771
20
5.95348584342571
30
0
41
1
10
74.5102255161349
20
6.05492898023797
30
0
41
1
10
74.5546493653472
20
6.09183612911306
30
0
41
1
10
74.6434970637721
20
6.14011678873393
30
0
41
1
10
74.6879209129846
20
6.1515
30
0
41
1
10
74.732344762197
20
6.1515
30
0
0
SPLINE
5
EE
100
AcDbEntity
8
1
62
256
6
ByLayer
370
13
48
1
60
0
100
AcDbSpline
70
4
71
3
72
22
73
18
40
0
40
0
40
0
40
0
40
0.125
40
0.125
40
0.25
40
0.25
40
0.375
40
0.375
40
0.5
40
0.5
40
0.625
40
0.625
40
0.75
40
0.75
40
0.875
40
0.875
40
1
40
1
40
1
40
1
41
1
10
78.1315623277947
20
6.1515
30
0
41
1
10
78.1994571101329
20
6.1515
30
0
41
1
10
78.2673518924711
20
6.12483467673579
30
0
41
1
10
78.4031414571475
20
6.00891302995146
30
0
41
1
10
78.4710362394857
20
5.91957813808077
30
0
41
1
10
78.6068258041621
20
5.67328132862039
30
0
41
1
10
78.6747205865003
20
5.51626624116429
30
0
41
1
10
78.8105101511767
20
5.13604302457134
30
0
41
1
10
78.878404933515
20
4.91283553901673
30
0
41
1
10
79.0141944981913
20
4.40901908830628
30
0
41
1
10
79.0820892805294
20
4.12847390688688
30
0
41
1
10
79.2178788452059
20
3.52517369221329
30
0
41
1
10
79.2857736275441
20
3.20252580954897
30
0
41
1
10
79.4215631922204
20
2.53394445846666
30
0
41
1
10
79.4894579745587
20
2.1881224458796
30
0
41
1
10
79.6252475392351
20
1.49241199073685
30
0
41
1
10
79.6931423215733
20
1.14260373835433
30
0
41
1
10
79.7610371039115
20
0.799020301568078
30
0
0
SPLINE
5
EF
100
AcDbEntity
8
1
62
256
6
ByLayer
370
13
48
1
60
0
100
AcDbSpline
70
4
71
3
72
22
73
18
40
0
40
0
40
0
40
0
40
0.125
40
0.125
40
0.25
40
0.25
40
0.375
40
0.375
40
0.5
40
0.5
40
0.625
40
0.625
40
0.75
40
0.75
40
0.875
40
0.875
40
1
40
1
40
1
40
1
41
1
10
72.6
20
0.799016677705566
30
0
41
1
10
72.6678948121759
20
1.14260022286018
30
0
41
1
10
72.7357896243518
20
1.49240861463301
30
0
41
1
10
72.8715792487034
20
2.18811940137613
30
0
41
1
10
72.9394740608792
20
2.53394160612945
30
0
41
1
10
73.0752636852309
20
3.20252337311132
30
0
41
1
10
73.1431584974068
20
3.52517147930769
30
0
41
1
10
73.2789481217586
20
4.12847214281547
30
0
41
1
10
73.3468429339344
20
4.40901754924772
30
0
41
1
10
73.4826325582861
20
4.91283442113405
30
0
41
1
10
73.5505273704619
20
5.13604210261053
30
0
41
1
10
73.6863169948136
20
5.51626565925781
30
0
41
1
10
73.7542118069895
20
5.67328089076136
30
0
41
1
10
73.8900014313411
20
5.91957792650072
30
0
41
1
10
73.9578962435171
20
6.00891290068228
30
0
41
1
10
74.0936858678688
20
6.12483465317302
30
0
41
1
10
74.1615806800446
20
6.1515
30
0
41
1
10
74.2294754922204
20
6.1515
30
0
0
SPLINE
5
F0
100
AcDbEntity
8
1
62
256
6
ByLayer
370
13
48
1
60
0
100
AcDbSpline
70
4
71
3
72
42
73
38
40
0
40
0
40
0
40
0
40
0.0624999999999993
40
0.0624999999999993
40
0.124999999999999
40
0.124999999999999
40
0.187499999999998
40
0.187499999999998
40
0.249999999999997
40
0.249999999999997
40
0.312499999999997
40
0.312499999999997
40
0.374999999999996
40
0.374999999999996
40
0.437499999999995
40
0.437499999999995
40
0.499999999999995
40
0.499999999999995
40
0.562499999999994
40
0.562499999999994
40
0.624999999999993
40
0.624999999999993
40
0.687499999999993
40
0.687499999999993
40
0.749999999999992
40
0.749999999999992
40
0.812499999999991
40
0.812499999999991
40
0.828124999999992
40
0.828124999999992
40
0.843749999999993
40
0.843749999999993
40
0.874999999999995
40
0.874999999999995
40
0.937499999999998
40
0.937499999999998
40
1
40
1
40
1
40
1
41
1
10
77.6286930578181
20
6.1515
30
0
41
1
10
77.6731168921116
20
6.1515
30
0
41
1
10
77.7175407264053
20
6.14011679639455
30
0
41
1
10
77.8063883949925
20
6.09183617009461
30
0
41
1
10
77.8508122292862
20
6.05492904689601
30
0
41
1
10
77.9396598978734
20
5.95348598117306
30
0
41
1
10
77.984083732167
20
5.88894104293971
30
0
41
1
10
78.0729314007542
20
5.73104518723957
30
0
41
1
10
78.1173552350479
20
5.637687611769
30
0
41
1
10
78.206202903635
20
5.42216806595883
30
0
41
1
10
78.2506267379287
20
5.30000333213726
30
0
41
1
10
78.3394744065159
20
5.02819688996416
30
0
41
1
10
78.3838982408095
20
4.8785573385735
30
0
41
1
10
78.4727459093967
20
4.55446686845352
30
0
41
1
10
78.5171697436903
20
4.38002313729044
30
0
41
1
10
78.6060174122775
20
4.01018734082575
30
0
41
1
10
78.6504412465712
20
3.81480654994391
30
0
41
1
10
78.7392889151585
20
3.40787549988301
30
0
41
1
10
78.783712749452
20
3.19633880415114
30
0
41
1
10
78.8725604180392
20
2.76241044417517
30
0
41
1
10
78.9169842523328
20
2.54003245881521
30
0
41
1
10
79.0058319209201
20
2.08985446874649
30
0
41
1
10
79.0502557552136
20
1.86206627778398
30
0
41
1
10
79.139103423801
20
1.40622960040008
30
0
41
1
10
79.1835272580945
20
1.17818971855152
30
0
41
1
10
79.2723749266817
20
0.726429380177905
30
0
41
1
10
79.3167987609754
20
0.502713796013921
30
0
41
1
10
79.3723285538424
20
0.228140389527027
30
0
41
1
10
79.3834345124158
20
0.173477189290253
30
0
41
1
10
79.4056464295626
20
0.0647044617123527
30
0
41
1
10
79.416752388136
20
0.0107833391163865
30
0
41
1
10
79.4500702638562
20
-0.151587388073267
30
0
41
1
10
79.472282181003
20
-0.260988456057703
30
0
41
1
10
79.5389179324435
20
-0.592043476542557
30
0
41
1
10
79.583341766737
20
-0.816575057864753
30
0
41
1
10
79.6721894353242
20
-1.26939848964866
30
0
41
1
10
79.7166132696179
20
-1.49768496743766
30
0
41
1
10
79.7610371039115
20
-1.72551940203812
30
0
0
SPLINE
5
F1
100
AcDbEntity
8
1
62
256
6
ByLayer
370
13
48
1
60
0
100
AcDbSpline
70
4
71
3
72
8
73
4
40
0
40
0
40
0
40
0
40
1
40
1
40
1
40
1
41
1
10
79.7610371039115
20
6.14975134667839
30
0
41
1
10
80.5073580692743
20
4.09994369028789
30
0
41
1
10
81.2536790346372
20
2.05002143656816
30
0
41
1
10
82
20
0
30
0
0
SPLINE
5
F2
100
AcDbEntity
8
1
62
256
6
ByLayer
370
13
48
1
60
0
100
AcDbSpline
70
4
71
3
72
8
73
4
40
0
40
0
40
0
40
0
40
1
40
1
40
1
40
1
41
1
10
79.7610371039114
20
-0.11344606902972
30
0
41
1
10
80.5073580692743
20
-0.0710405000512253
30
0
41
1
10
81.2536790346372
20
-0.0332250527597751
30
0
41
1
10
82.0000000000001
20
0
30
0
0
SPLINE
5
F3
100
AcDbEntity
8
1
62
256
6
ByLayer
370
13
48
1
60
0
100
AcDbSpline
70
4
71
3
72
8
73
4
40
0
40
0
40
0
40
0
40
1
40
1
40
1
40
1
41
1
10
79.7610371039114
20
-1.30710209285979
30
0
41
1
10
80.5073580692743
20
-0.866915240339125
30
0
41
1
10
81.2536790346372
20
-0.431213454393827
30
0
41
1
10
82.0000000000001
20
2.84E-14
30
0
0
SPLINE
5
F4
100
AcDbEntity
8
1
62
256
6
ByLayer
370
13
48
1
60
0
100
AcDbSpline
70
4
71
3
72
8
73
4
40
0
40
0
40
0
40
0
40
1
40
1
40
1
40
1
41
1
10
79.7610371039114
20
-6.01799862972035
30
0
41
1
10
80.5073580692743
20
-4.01295035877106
30
0
41
1
10
81.2536790346372
20
-2.00694578674566
30
0
41
1
10
82.0000000000001
20
1.421E-13
30
0
0
SPLINE
5
F5
100
AcDbEntity
8
1
62
256
6
ByLayer
370
13
48
1
60
0
100
AcDbSpline
70
4
71
3
72
8
73
4
40
0
40
0
40
0
40
0
40
1
40
1
40
1
40
1
41
1
10
79.7610371039114
20
-6.04919415748043
30
0
41
1
10
80.5073580692742
20
-4.03196229300795
30
0
41
1
10
81.253679034637
20
-2.01555918715718
30
0
41
1
10
81.9999999999998
20
-4.832E-13
30
0
0
SPLINE
5
F6
100
AcDbEntity
8
1
62
256
6
ByLayer
370
13
48
1
60
0
100
AcDbSpline
70
4
71
3
72
8
73
4
40
0
40
0
40
0
40
0
40
1
40
1
40
1
40
1
41
1
10
79.7610371039114
20
-4.41770128629565
30
0
41
1
10
80.5073580692743
20
-2.94193937329135
30
0
41
1
10
81.2536790346372
20
-1.46936858957403
30
0
41
1
10
82.0000000000001
20
1.137E-13
30
0
0
SPLINE
5
F7
100
AcDbEntity
8
1
62
256
6
ByLayer
370
13
48
1
60
0
100
AcDbSpline
70
4
71
3
72
8
73
4
40
0
40
0
40
0
40
0
40
1
40
1
40
1
40
1
41
1
10
79.7610371039114
20
-6.15097686456033
30
0
41
1
10
80.5073580692743
20
-4.10071111576059
30
0
41
1
10
81.2536790346372
20
-2.05038035509767
30
0
41
1
10
82.0000000000001
20
1.421E-13
30
0
0
SPLINE
5
F8
100
AcDbEntity
8
1
62
256
6
ByLayer
370
13
48
1
60
0
100
AcDbSpline
70
4
71
3
72
8
73
4
40
0
40
0
40
0
40
0
40
1
40
1
40
1
40
1
41
1
10
79.7610371039116
20
3.44625505135397
30
0
41
1
10
80.5073580692743
20
2.2937004775107
30
0
41
1
10
81.2536790346371
20
1.14494591758444
30
0
41
1
10
81.9999999999998
20
2.558E-13
30
0
0
SPLINE
5
F9
100
AcDbEntity
8
1
62
256
6
ByLayer
370
13
48
1
60
0
100
AcDbSpline
70
4
71
3
72
8
73
4
40
0
40
0
40
0
40
0
40
1
40
1
40
1
40
1
41
1
10
79.7610371039115
20
6.00387846670483
30
0
41
1
10
80.5073580692743
20
4.00358537911032
30
0
41
1
10
81.2536790346372
20
2.00228753984692
30
0
41
1
10
82
20
0
30
0
0
SPLINE
5
FA
100
AcDbEntity
8
1
62
256
6
ByLayer
370
13
48
1
60
0
100
AcDbSpline
70
4
71
3
72
8
73
4
40
0
40
0
40
0
40
0
40
1
40
1
40
1
40
1
41
1
10
79.7610371039114
20
1.08453978835507
30
0
41
1
10
80.5073580692743
20
0.727545603825519
30
0
41
1
10
81.2536790346372
20
0.366031431140357
30
0
41
1
10
82.0000000000001
20
-2.84E-14
30
0
0
SPLINE
5
FB
100
AcDbEntity
8
1
62
256
6
ByLayer
370
13
48
1
60
0
100
AcDbSpline
70
4
71
3
72
8
73
4
40
0
40
0
40
0
40
0
40
1
40
1
40
1
40
1
41
1
10
79.7610371039114
20
-3.5010982216568
30
0
41
1
10
80.5073580692743
20
-2.33029059707681
30
0
41
1
10
81.2536790346372
20
-1.1632549345384
30
0
41
1
10
82.0000000000001
20
8.53E-14
30
0
0
SPLINE
5
FC
100
AcDbEntity
8
1
62
256
6
ByLayer
370
13
48
1
60
0
100
AcDbSpline
70
4
71
3
72
8
73
4
40
0
40
0
40
0
40
0
40
1
40
1
40
1
40
1
41
1
10
79.7610371039114
20
-5.71653519293176
30
0
41
1
10
80.5073580692743
20
-3.80932778891776
30
0
41
1
10
81.2536790346372
20
-1.90381128323702
30
0
41
1
10
82.0000000000001
20
1.421E-13
30
0
0
SPLINE
5
FD
100
AcDbEntity
8
1
62
256
6
ByLayer
370
13
48
1
60
0
100
AcDbSpline
70
4
71
3
72
8
73
4
40
0
40
0
40
0
40
0
40
1
40
1
40
1
40
1
41
1
10
79.7610371039116
20
2.38977808463818
30
0
41
1
10
80.5073580692743
20
1.5889549996667
30
0
41
1
10
81.2536790346371
20
0.792360311681051
30
0
41
1
10
81.9999999999998
20
1.99E-13
30
0
0
SPLINE
5
FE
100
AcDbEntity
8
1
62
256
6
ByLayer
370
13
48
1
60
0
100
AcDbSpline
70
4
71
3
72
8
73
4
40
0
40
0
40
0
40
0
40
1
40
1
40
1
40
1
41
1
10
79.7610371039116
20
1.24209177565328
30
0
41
1
10
80.5073580692743
20
0.82356475260903
30
0
41
1
10
81.2536790346371
20
0.40953312672346
30
0
41
1
10
81.9999999999998
20
8.53E-14
30
0
0
SPLINE
5
FF
100
AcDbEntity
8
1
62
256
6
ByLayer
370
13
48
1
60
0
100
AcDbSpline
70
4
71
3
72
8
73
4
40
0
40
0
40
0
40
0
40
1
40
1
40
1
40
1
41
1
10
79.7610371039114
20
2.24113261372722
30
0
41
1
10
80.5073580692743
20
1.49836387585953
30
0
41
1
10
81.2536790346372
20
0.751317795262992
30
0
41
1
10
82.0000000000001
20
-5.68E-14
30
0
0
SPLINE
5
100
100
AcDbEntity
8
1
62
256
6
ByLayer
370
13
48
1
60
0
100
AcDbSpline
70
4
71
3
72
8
73
4
40
0
40
0
40
0
40
0
40
1
40
1
40
1
40
1
41
1
10
79.7610371039116
20
-3.36799256309891
30
0
41
1
10
80.5073580692743
20
-2.24917012216468
30
0
41
1
10
81.2536790346371
20
-1.12650311732412
30
0
41
1
10
81.9999999999998
20
-2.558E-13
30
0
0
SPLINE
5
101
100
AcDbEntity
8
1
62
256
6
ByLayer
370
13
48
1
60
0
100
AcDbSpline
70
4
71
3
72
8
73
4
40
0
40
0
40
0
40
0
40
1
40
1
40
1
40
1
41
1
10
79.7610371039115
20
5.62885886824222
30
0
41
1
10
80.5073580692743
20
3.75442443261932
30
0
41
1
10
81.2536790346372
20
1.87813343879077
30
0
41
1
10
82
20
0
30
0
0
SPLINE
5
102
100
AcDbEntity
8
1
62
256
6
ByLayer
370
13
48
1
60
0
100
AcDbSpline
70
4
71
3
72
8
73
4
40
0
40
0
40
0
40
0
40
1
40
1
40
1
40
1
41
1
10
79.7610371039116
20
-2.30288632772397
30
0
41
1
10
80.5073580692743
20
-1.53951470076618
30
0
41
1
10
81.2536790346371
20
-0.771883997258044
30
0
41
1
10
81.9999999999998
20
-1.705E-13
30
0
0
SPLINE
5
103
100
AcDbEntity
8
1
62
256
6
ByLayer
370
13
48
1
60
0
100
AcDbSpline
70
4
71
3
72
8
73
4
40
0
40
0
40
0
40
0
40
1
40
1
40
1
40
1
41
1
10
79.7610371039114
20
-4.30455448366021
30
0
41
1
10
80.5073580692742
20
-2.8729827078572
30
0
41
1
10
81.253679034637
20
-1.43812761414236
30
0
41
1
10
81.9999999999998
20
-3.411E-13
30
0
0
SPLINE
5
104
100
AcDbEntity
8
1
62
256
6
ByLayer
370
13
48
1
60
0
100
AcDbSpline
70
4
71
3
72
8
73
4
40
0
40
0
40
0
40
0
40
1
40
1
40
1
40
1
41
1
10
79.7610371039116
20
5.69165792394739
30
0
41
1
10
80.5073580692743
20
3.79269695444936
30
0
41
1
10
81.2536790346371
20
1.89547289258681
30
0
41
1
10
81.9999999999998
20
4.547E-13
30
0
0
SPLINE
5
105
100
AcDbEntity
8
1
62
256
6
ByLayer
370
13
48
1
60
0
100
AcDbSpline
70
4
71
3
72
8
73
4
40
0
40
0
40
0
40
0
40
1
40
1
40
1
40
1
41
1
10
79.7610371039115
20
5.03900571749361
30
0
41
1
10
80.5073580692743
20
3.36197043925529
30
0
41
1
10
81.2536790346371
20
1.68229765450775
30
0
41
1
10
81.9999999999999
20
1.421E-13
30
0
0
SPLINE
5
106
100
AcDbEntity
8
1
62
256
6
ByLayer
370
13
48
1
60
0
100
AcDbSpline
70
4
71
3
72
8
73
4
40
0
40
0
40
0
40
0
40
1
40
1
40
1
40
1
41
1
10
79.7610371039116
20
0.0469992348414507
30
0
41
1
10
80.5073580692743
20
0.0267419638085187
30
0
41
1
10
81.2536790346371
20
0.0110755167628156
30
0
41
1
10
81.9999999999998
20
0
30
0
0
SPLINE
5
107
100
AcDbEntity
8
1
62
256
6
ByLayer
370
13
48
1
60
0
100
AcDbSpline
70
4
71
3
72
8
73
4
40
0
40
0
40
0
40
0
40
1
40
1
40
1
40
1
41
1
10
79.7610371039116
20
5.12931314608261
30
0
41
1
10
80.5073580692743
20
3.41700778007623
30
0
41
1
10
81.2536790346371
20
1.70723244799882
30
0
41
1
10
81.9999999999998
20
3.979E-13
30
0
0
SPLINE
5
108
100
AcDbEntity
8
1
62
256
6
ByLayer
370
13
48
1
60
0
100
AcDbSpline
70
4
71
3
72
8
73
4
40
0
40
0
40
0
40
0
40
1
40
1
40
1
40
1
41
1
10
79.7610371039115
20
4.25683161437814
30
0
41
1
10
80.5073580692743
20
2.84120197415683
30
0
41
1
10
81.2536790346371
20
1.42225454337915
30
0
41
1
10
81.9999999999999
20
1.137E-13
30
0
0
SPLINE
5
109
100
AcDbEntity
8
1
62
256
6
ByLayer
370
13
48
1
60
0
100
AcDbSpline
70
4
71
3
72
8
73
4
40
0
40
0
40
0
40
0
40
1
40
1
40
1
40
1
41
1
10
79.7610371039116
20
6.03677233259876
30
0
41
1
10
80.5073580692743
20
4.02363235571477
30
0
41
1
10
81.2536790346371
20
2.01136986857694
30
0
41
1
10
81.9999999999998
20
4.832E-13
30
0
0
SPLINE
5
10A
100
AcDbEntity
8
1
62
256
6
ByLayer
370
13
48
1
60
0
100
AcDbSpline
70
4
71
3
72
8
73
4
40
0
40
0
40
0
40
0
40
1
40
1
40
1
40
1
41
1
10
79.7610371039114
20
-5.65533475991631
30
0
41
1
10
80.5073580692742
20
-3.77202953845409
30
0
41
1
10
81.253679034637
20
-1.88691322531861
30
0
41
1
10
81.9999999999998
20
-4.547E-13
30
0
0
SPLINE
5
10B
100
AcDbEntity
8
1
62
256
6
ByLayer
370
13
48
1
60
0
100
AcDbSpline
70
4
71
3
72
8
73
4
40
0
40
0
40
0
40
0
40
1
40
1
40
1
40
1
41
1
10
79.7610371039116
20
-1.14988709984797
30
0
41
1
10
80.5073580692743
20
-0.771101470777324
30
0
41
1
10
81.2536790346371
20
-0.387804806338295
30
0
41
1
10
81.9999999999998
20
-8.53E-14
30
0
0
SPLINE
5
10C
100
AcDbEntity
8
1
62
256
6
ByLayer
370
13
48
1
60
0
100
AcDbSpline
70
4
71
3
72
8
73
4
40
0
40
0
40
0
40
0
40
1
40
1
40
1
40
1
41
1
10
79.7610371039114
20
-5.16569638216339
30
0
41
1
10
80.5073580692743
20
-3.44130477183228
30
0
41
1
10
81.2536790346372
20
-1.71940166396183
30
0
41
1
10
82.0000000000001
20
1.137E-13
30
0
0
SPLINE
5
10D
100
AcDbEntity
8
1
62
256
6
ByLayer
370
13
48
1
60
0
100
AcDbSpline
70
4
71
3
72
8
73
4
40
0
40
0
40
0
40
0
40
1
40
1
40
1
40
1
41
1
10
79.7610371039115
20
3.31218936654514
30
0
41
1
10
80.5073580692743
20
2.21199492014401
30
0
41
1
10
81.2536790346371
20
1.10792902742196
30
0
41
1
10
81.9999999999999
20
8.53E-14
30
0
0
SPLINE
5
10E
100
AcDbEntity
8
1
62
256
6
ByLayer
370
13
48
1
60
0
100
AcDbSpline
70
4
71
3
72
8
73
4
40
0
40
0
40
0
40
0
40
1
40
1
40
1
40
1
41
1
10
79.7610371039114
20
-2.45087067193728
30
0
41
1
10
80.5073580692743
20
-1.62970290472541
30
0
41
1
10
81.2536790346372
20
-0.812743969914635
30
0
41
1
10
82.0000000000001
20
5.68E-14
30
0
0
SPLINE
5
10F
100
AcDbEntity
8
1
62
256
6
ByLayer
370
13
48
1
60
0
100
AcDbSpline
70
4
71
3
72
8
73
4
40
0
40
0
40
0
40
0
40
1
40
1
40
1
40
1
41
1
10
79.7610371039114
20
-5.07682684706936
30
0
41
1
10
80.5073580692743
20
-3.38714374689775
30
0
41
1
10
81.2536790346373
20
-1.69486388739287
30
0
41
1
10
82.0000000000003
20
6.253E-13
30
0
0
SPLINE
5
110
100
AcDbEntity
8
1
62
256
6
ByLayer
370
13
48
1
60
0
100
AcDbSpline
70
4
71
3
72
8
73
4
40
0
40
0
40
0
40
0
40
1
40
1
40
1
40
1
41
1
10
79.7610371039116
20
4.37120070202573
30
0
41
1
10
80.5073580692743
20
2.910903554133
30
0
41
1
10
81.2536790346371
20
1.45383300405297
30
0
41
1
10
81.9999999999998
20
3.411E-13
30
0
0
LINE
5
7D
100
AcDbEntity
8
81
62
256
6
ByLayer
370
18
48
1
60
0
100
AcDbLine
10
82
20
0
30
0
11
87
21
0
31
0
39
0
210
0
220
0
230
1
0
LINE
5
7E
100
AcDbEntity
8
80
62
256
6
ByLayer
370
18
48
1
60
0
100
AcDbLine
10
0
20
0
30
0
11
-5
21
0
31
0
39
0
210
0
220
0
230
1
0
LINE
5
7F
100
AcDbEntity
8
4
62
256
6
ByLayer
370
18
48
0.05
60
0
100
AcDbLine
10
-5
20
0
30
0
11
87
21
0
31
0
39
0
210
0
220
0
230
1
0
LINE
5
81
100
AcDbEntity
8
SK4
62
256
6
ByLayer
370
18
48
0.05
60
0
100
AcDbLine
10
-53
20
0
30
0
11
87
21
0
31
0
39
0
210
0
220
0
230
1
0
LINE
5
83
100
AcDbEntity
8
1
62
256
6
ByLayer
370
18
48
1
60
0
100
AcDbLine
10
22.4515
20
-6.1
30
0
11
50.739793
21
-6.1
31
0
39
0
210
0
220
0
230
1
0
LINE
5
84
100
AcDbEntity
8
1
62
256
6
ByLayer
370
18
48
1
60
0
100
AcDbLine
10
50.739793
20
6.1
30
0
11
22.4515
21
6.1
31
0
39
0
210
0
220
0
230
1
0
LINE
5
85
100
AcDbEntity
8
1
62
256
6
ByLayer
370
18
48
1
60
0
100
AcDbLine
10
82
20
0
30
0
11
79.761037
21
6.1515
31
0
39
0
210
0
220
0
230
1
0
LINE
5
86
100
AcDbEntity
8
1
62
256
6
ByLayer
370
18
48
1
60
0
100
AcDbLine
10
79.761037
20
-6.1515
30
0
11
82
21
0
31
0
39
0
210
0
220
0
230
1
0
LINE
5
87
100
AcDbEntity
8
1
62
256
6
ByLayer
370
18
48
1
60
0
100
AcDbLine
10
3.052173
20
7.376663
30
0
11
0
21
7.9375
31
0
39
0
210
0
220
0
230
1
0
LINE
5
88
100
AcDbEntity
8
1
62
256
6
ByLayer
370
18
48
1
60
0
100
AcDbLine
10
0
20
-7.9375
30
0
11
3.052173
21
-7.376663
31
0
39
0
210
0
220
0
230
1
0
LINE
5
89
100
AcDbEntity
8
1
62
256
6
ByLayer
370
18
48
1
60
0
100
AcDbLine
10
82
20
0
30
0
11
79.761037
21
6.1515
31
0
39
0
210
0
220
0
230
1
0
LINE
5
8A
100
AcDbEntity
8
1
62
256
6
ByLayer
370
18
48
1
60
0
100
AcDbLine
10
79.761037
20
-6.1515
30
0
11
82
21
0
31
0
39
0
210
0
220
0
230
1
0
LINE
5
8B
100
AcDbEntity
8
1
62
256
6
ByLayer
370
18
48
1
60
0
100
AcDbLine
10
72.6
20
-6.1515
30
0
11
79.761037
21
-6.1515
31
0
39
0
210
0
220
0
230
1
0
LINE
5
8C
100
AcDbEntity
8
SK1
62
256
6
ByLayer
370
18
48
1
60
0
100
AcDbLine
10
-48
20
-6.9375
30
0
11
-47
21
-7.9375
31
0
39
0
210
0
220
0
230
1
0
LINE
5
8E
100
AcDbEntity
8
SK1
62
256
6
ByLayer
370
18
48
1
60
0
100
AcDbLine
10
-47
20
7.9375
30
0
11
-48
21
6.9375
31
0
39
0
210
0
220
0
230
1
0
LINE
5
8F
100
AcDbEntity
8
SK1
62
256
6
ByLayer
370
18
48
1
60
0
100
AcDbLine
10
-47
20
-7.9375
30
0
11
0
21
-7.9375
31
0
39
0
210
0
220
0
230
1
0
LINE
5
90
100
AcDbEntity
8
SK1
62
256
6
ByLayer
370
18
48
1
60
0
100
AcDbLine
10
0
20
7.9375
30
0
11
-47
21
7.9375
31
0
39
0
210
0
220
0
230
1
0
LINE
5
91
100
AcDbEntity
8
1
62
256
6
ByLayer
370
18
48
1
60
0
100
AcDbLine
10
0
20
7.9375
30
0
11
0
21
-7.9375
31
0
39
0
210
0
220
0
230
1
0
LINE
5
92
100
AcDbEntity
8
1
62
256
6
ByLayer
370
18
48
1
60
0
100
AcDbLine
10
79.761037
20
6.1515
30
0
11
79.761037
21
5.956177
31
0
39
0
210
0
220
0
230
1
0
LINE
5
93
100
AcDbEntity
8
1
62
256
6
ByLayer
370
18
48
1
60
0
100
AcDbLine
10
79.761037
20
-6.1515
30
0
11
79.761037
21
-0.876316
31
0
39
0
210
0
220
0
230
1
0
LINE
5
94
100
AcDbEntity
8
1
62
256
6
ByLayer
370
18
48
1
60
0
100
AcDbLine
10
10
20
-4.989011
30
0
11
10
21
4.60868
31
0
39
0
210
0
220
0
230
1
0
LINE
5
95
100
AcDbEntity
8
SK1
62
256
6
ByLayer
370
18
48
1
60
0
100
AcDbLine
10
-8.796218
20
-4.876987
30
0
11
-8.796218
21
4.876987
31
0
39
0
210
0
220
0
230
1
0
LINE
5
96
100
AcDbEntity
8
SK1
62
256
6
ByLayer
370
18
48
1
60
0
100
AcDbLine
10
-48
20
-6.9375
30
0
11
-48
21
6.9375
31
0
39
0
210
0
220
0
230
1
0
LINE
5
97
100
AcDbEntity
8
SK1
62
256
6
ByLayer
370
18
48
1
60
0
100
AcDbLine
10
0
20
7.9375
30
0
11
0
21
-7.9375
31
0
39
0
210
0
220
0
230
1
0
LINE
5
98
100
AcDbEntity
8
SK1
62
256
6
ByLayer
370
18
48
1
60
0
100
AcDbLine
10
-47
20
-7.9375
30
0
11
-47
21
7.9375
31
0
39
0
210
0
220
0
230
1
0
LINE
5
99
100
AcDbEntity
8
SK1
62
256
6
ByLayer
370
18
48
1
60
0
100
AcDbLine
10
-8.796218
20
-4.876987
30
0
11
-39.438037
21
-4.876987
31
0
39
0
210
0
220
0
230
1
0
LINE
5
9A
100
AcDbEntity
8
SK1
62
256
6
ByLayer
370
18
48
1
60
0
100
AcDbLine
10
-39.438037
20
4.876987
30
0
11
-8.796218
21
4.876987
31
0
39
0
210
0
220
0
230
1
0
LINE
5
9B
100
AcDbEntity
8
SK1
62
256
6
ByLayer
370
18
48
1
60
0
100
AcDbLine
10
-39.438037
20
-4.876987
30
0
11
-39.438037
21
4.876987
31
0
39
0
210
0
220
0
230
1
0
LINE
5
9C
100
AcDbEntity
8
1
62
256
6
ByLayer
370
18
48
1
60
0
100
AcDbLine
10
79.761037
20
6.1515
30
0
11
79.761037
21
-6.1515
31
0
39
0
210
0
220
0
230
1
0
LINE
5
9D
100
AcDbEntity
8
1
62
256
6
ByLayer
370
18
48
1
60
0
100
AcDbLine
10
79.761037
20
6.1515
30
0
11
79.761037
21
-6.1515
31
0
39
0
210
0
220
0
230
1
0
LINE
5
9E
100
AcDbEntity
8
1
62
256
6
ByLayer
370
18
48
1
60
0
100
AcDbLine
10
79.761037
20
6.1515
30
0
11
79.761037
21
-6.1515
31
0
39
0
210
0
220
0
230
1
0
LINE
5
9F
100
AcDbEntity
8
1
62
256
6
ByLayer
370
18
48
1
60
0
100
AcDbLine
10
72.6
20
6.1515
30
0
11
72.6
21
-6.1515
31
0
39
0
210
0
220
0
230
1
0
LINE
5
A0
100
AcDbEntity
8
1
62
256
6
ByLayer
370
18
48
1
60
0
100
AcDbLine
10
72.6
20
6.1515
30
0
11
72.6
21
-6.1515
31
0
39
0
210
0
220
0
230
1
0
LINE
5
A1
100
AcDbEntity
8
1
62
256
6
ByLayer
370
18
48
1
60
0
100
AcDbLine
10
79.761037
20
6.1515
30
0
11
79.761037
21
-6.1515
31
0
39
0
210
0
220
0
230
1
0
LINE
5
A2
100
AcDbEntity
8
1
62
256
6
ByLayer
370
18
48
1
60
0
100
AcDbLine
10
72.6
20
6.1515
30
0
11
72.6
21
-6.1515
31
0
39
0
210
0
220
0
230
1
0
LINE
5
A3
100
AcDbEntity
8
1
62
256
6
ByLayer
370
18
48
1
60
0
100
AcDbLine
10
79.761037
20
6.1515
30
0
11
79.761037
21
-6.1515
31
0
39
0
210
0
220
0
230
1
0
LINE
5
A4
100
AcDbEntity
8
SK2
62
256
6
ByLayer
370
13
48
1
60
0
100
AcDbLine
10
-54.5
20
-7.9375
30
0
11
-54.5
21
36.212183
31
0
39
0
210
0
220
0
230
1
0
LINE
5
A6
100
AcDbEntity
8
SK2
62
256
6
ByLayer
370
13
48
1
60
0
100
AcDbLine
10
-49.5875
20
7.9375
30
0
11
-56.5
21
7.9375
31
0
39
0
210
0
220
0
230
1
0
LINE
5
A7
100
AcDbEntity
8
SK2
62
256
6
ByLayer
370
13
48
1
60
0
100
AcDbLine
10
-49.5875
20
-7.9375
30
0
11
-56.5
21
-7.9375
31
0
39
0
210
0
220
0
230
1
0
LINE
5
A8
100
AcDbEntity
8
1
62
256
6
ByLayer
370
18
48
1
60
1
100
AcDbLine
10
-54.5
20
7.9375
30
0
11
-54.039216
21
4.437502
31
0
39
0
210
0
220
0
230
1
0
LINE
5
A9
100
AcDbEntity
8
1
62
256
6
ByLayer
370
18
48
1
60
1
100
AcDbLine
10
-54.039216
20
4.437502
30
0
11
-54.960784
21
4.437498
31
0
39
0
210
0
220
0
230
1
0
LINE
5
AA
100
AcDbEntity
8
1
62
256
6
ByLayer
370
18
48
1
60
1
100
AcDbLine
10
-54.960784
20
4.437498
30
0
11
-54.5
21
7.9375
31
0
39
0
210
0
220
0
230
1
0
LINE
5
AB
100
AcDbEntity
8
1
62
256
6
ByLayer
370
18
48
1
60
1
100
AcDbLine
10
-54.5
20
-7.9375
30
0
11
-54.960784
21
-4.437502
31
0
39
0
210
0
220
0
230
1
0
LINE
5
AC
100
AcDbEntity
8
1
62
256
6
ByLayer
370
18
48
1
60
1
100
AcDbLine
10
-54.960784
20
-4.437502
30
0
11
-54.039216
21
-4.437498
31
0
39
0
210
0
220
0
230
1
0
LINE
5
AD
100
AcDbEntity
8
1
62
256
6
ByLayer
370
18
48
1
60
1
100
AcDbLine
10
-54.039216
20
-4.437498
30
0
11
-54.5
21
-7.9375
31
0
39
0
210
0
220
0
230
1
0
LINE
5
AE
100
AcDbEntity
8
2
62
256
6
ByLayer
370
13
48
1
60
0
100
AcDbLine
10
89.5
20
-6.1515
30
0
11
89.5
21
34.426183
31
0
39
0
210
0
220
0
230
1
0
LINE
5
B0
100
AcDbEntity
8
2
62
256
6
ByLayer
370
13
48
1
60
0
100
AcDbLine
10
81.348537
20
6.1515
30
0
11
91.5
21
6.1515
31
0
39
0
210
0
220
0
230
1
0
LINE
5
B1
100
AcDbEntity
8
2
62
256
6
ByLayer
370
13
48
1
60
0
100
AcDbLine
10
81.348537
20
-6.1515
30
0
11
91.5
21
-6.1515
31
0
39
0
210
0
220
0
230
1
0
LINE
5
B2
100
AcDbEntity
8
1
62
256
6
ByLayer
370
18
48
1
60
1
100
AcDbLine
10
89.5
20
6.1515
30
0
11
89.960784
21
2.651502
31
0
39
0
210
0
220
0
230
1
0
LINE
5
B3
100
AcDbEntity
8
1
62
256
6
ByLayer
370
18
48
1
60
1
100
AcDbLine
10
89.960784
20
2.651502
30
0
11
89.039216
21
2.651498
31
0
39
0
210
0
220
0
230
1
0
LINE
5
B4
100
AcDbEntity
8
1
62
256
6
ByLayer
370
18
48
1
60
1
100
AcDbLine
10
89.039216
20
2.651498
30
0
11
89.5
21
6.1515
31
0
39
0
210
0
220
0
230
1
0
LINE
5
B5
100
AcDbEntity
8
1
62
256
6
ByLayer
370
18
48
1
60
1
100
AcDbLine
10
89.5
20
-6.1515
30
0
11
89.039216
21
-2.651502
31
0
39
0
210
0
220
0
230
1
0
LINE
5
B6
100
AcDbEntity
8
1
62
256
6
ByLayer
370
18
48
1
60
1
100
AcDbLine
10
89.039216
20
-2.651502
30
0
11
89.960784
21
-2.651498
31
0
39
0
210
0
220
0
230
1
0
LINE
5
B7
100
AcDbEntity
8
1
62
256
6
ByLayer
370
18
48
1
60
1
100
AcDbLine
10
89.960784
20
-2.651498
30
0
11
89.5
21
-6.1515
31
0
39
0
210
0
220
0
230
1
0
LINE
5
B8
100
AcDbEntity
8
SK2
62
256
6
ByLayer
370
13
48
1
60
0
100
AcDbLine
10
82.542957
20
-1.491762
30
0
11
89.182423
21
-19.733545
31
0
39
0
210
0
220
0
230
1
0
LINE
5
B9
100
AcDbEntity
8
SK2
62
256
6
ByLayer
370
13
48
1
60
0
100
AcDbLine
10
82.542957
20
1.491762
30
0
11
89.182423
21
19.733545
31
0
39
0
210
0
220
0
230
1
0
LINE
5
BA
100
AcDbEntity
8
1
62
256
6
ByLayer
370
18
48
1
60
1
100
AcDbLine
10
88.498383
20
-17.85416
30
0
11
91.551575
21
-16.082064
31
0
39
0
210
0
220
0
230
1
0
LINE
5
BB
100
AcDbEntity
8
1
62
256
6
ByLayer
370
18
48
1
60
1
100
AcDbLine
10
91.551575
20
-16.082064
30
0
11
91.906196
21
-16.93267
31
0
39
0
210
0
220
0
230
1
0
LINE
5
BC
100
AcDbEntity
8
1
62
256
6
ByLayer
370
18
48
1
60
1
100
AcDbLine
10
91.906196
20
-16.93267
30
0
11
88.498383
21
-17.85416
31
0
39
0
210
0
220
0
230
1
0
LINE
5
BD
100
AcDbEntity
8
1
62
256
6
ByLayer
370
18
48
1
60
1
100
AcDbLine
10
88.498383
20
17.85416
30
0
11
91.906193
21
16.932671
31
0
39
0
210
0
220
0
230
1
0
LINE
5
BE
100
AcDbEntity
8
1
62
256
6
ByLayer
370
18
48
1
60
1
100
AcDbLine
10
91.906193
20
16.932671
30
0
11
91.551579
21
16.082063
31
0
39
0
210
0
220
0
230
1
0
LINE
5
BF
100
AcDbEntity
8
1
62
256
6
ByLayer
370
18
48
1
60
1
100
AcDbLine
10
91.551579
20
16.082063
30
0
11
88.498383
21
17.85416
31
0
39
0
210
0
220
0
230
1
0
LINE
5
115
100
AcDbEntity
8
1
62
256
6
ByLayer
370
18
48
1
60
1
100
AcDbLine
10
-54.5
20
7.9375
30
0
11
-54.039216
21
4.437502
31
0
39
0
210
0
220
0
230
1
0
LINE
5
116
100
AcDbEntity
8
1
62
256
6
ByLayer
370
18
48
1
60
1
100
AcDbLine
10
-54.039216
20
4.437502
30
0
11
-54.960784
21
4.437498
31
0
39
0
210
0
220
0
230
1
0
LINE
5
117
100
AcDbEntity
8
1
62
256
6
ByLayer
370
18
48
1
60
1
100
AcDbLine
10
-54.960784
20
4.437498
30
0
11
-54.5
21
7.9375
31
0
39
0
210
0
220
0
230
1
0
LINE
5
119
100
AcDbEntity
8
1
62
256
6
ByLayer
370
18
48
1
60
1
100
AcDbLine
10
-54.5
20
-7.9375
30
0
11
-54.960784
21
-4.437502
31
0
39
0
210
0
220
0
230
1
0
LINE
5
11A
100
AcDbEntity
8
1
62
256
6
ByLayer
370
18
48
1
60
1
100
AcDbLine
10
-54.960784
20
-4.437502
30
0
11
-54.039216
21
-4.437498
31
0
39
0
210
0
220
0
230
1
0
LINE
5
11B
100
AcDbEntity
8
1
62
256
6
ByLayer
370
18
48
1
60
1
100
AcDbLine
10
-54.039216
20
-4.437498
30
0
11
-54.5
21
-7.9375
31
0
39
0
210
0
220
0
230
1
0
LINE
5
11F
100
AcDbEntity
8
1
62
256
6
ByLayer
370
18
48
1
60
1
100
AcDbLine
10
89.5
20
6.1515
30
0
11
89.960784
21
2.651502
31
0
39
0
210
0
220
0
230
1
0
LINE
5
120
100
AcDbEntity
8
1
62
256
6
ByLayer
370
18
48
1
60
1
100
AcDbLine
10
89.960784
20
2.651502
30
0
11
89.039216
21
2.651498
31
0
39
0
210
0
220
0
230
1
0
LINE
5
121
100
AcDbEntity
8
1
62
256
6
ByLayer
370
18
48
1
60
1
100
AcDbLine
10
89.039216
20
2.651498
30
0
11
89.5
21
6.1515
31
0
39
0
210
0
220
0
230
1
0
LINE
5
123
100
AcDbEntity
8
1
62
256
6
ByLayer
370
18
48
1
60
1
100
AcDbLine
10
89.5
20
-6.1515
30
0
11
89.039216
21
-2.651502
31
0
39
0
210
0
220
0
230
1
0
LINE
5
124
100
AcDbEntity
8
1
62
256
6
ByLayer
370
18
48
1
60
1
100
AcDbLine
10
89.039216
20
-2.651502
30
0
11
89.960784
21
-2.651498
31
0
39
0
210
0
220
0
230
1
0
LINE
5
125
100
AcDbEntity
8
1
62
256
6
ByLayer
370
18
48
1
60
1
100
AcDbLine
10
89.960784
20
-2.651498
30
0
11
89.5
21
-6.1515
31
0
39
0
210
0
220
0
230
1
0
LINE
5
128
100
AcDbEntity
8
1
62
256
6
ByLayer
370
18
48
1
60
1
100
AcDbLine
10
88.498383
20
-17.85416
30
0
11
91.551575
21
-16.082064
31
0
39
0
210
0
220
0
230
1
0
LINE
5
129
100
AcDbEntity
8
1
62
256
6
ByLayer
370
18
48
1
60
1
100
AcDbLine
10
91.551575
20
-16.082064
30
0
11
91.906196
21
-16.93267
31
0
39
0
210
0
220
0
230
1
0
LINE
5
12A
100
AcDbEntity
8
1
62
256
6
ByLayer
370
18
48
1
60
1
100
AcDbLine
10
91.906196
20
-16.93267
30
0
11
88.498383
21
-17.85416
31
0
39
0
210
0
220
0
230
1
0
LINE
5
12C
100
AcDbEntity
8
1
62
256
6
ByLayer
370
18
48
1
60
1
100
AcDbLine
10
88.498383
20
17.85416
30
0
11
91.906193
21
16.932671
31
0
39
0
210
0
220
0
230
1
0
LINE
5
12D
100
AcDbEntity
8
1
62
256
6
ByLayer
370
18
48
1
60
1
100
AcDbLine
10
91.906193
20
16.932671
30
0
11
91.551579
21
16.082063
31
0
39
0
210
0
220
0
230
1
0
LINE
5
12E
100
AcDbEntity
8
1
62
256
6
ByLayer
370
18
48
1
60
1
100
AcDbLine
10
91.551579
20
16.082063
30
0
11
88.498383
21
17.85416
31
0
39
0
210
0
220
0
230
1
0
MTEXT
5
111
100
AcDbEntity
8
SK2
62
256
6
ByLayer
370
18
48
1
60
0
100
AcDbMText
10
-55.841114
20
19.595938
30
0
210
0
220
0
230
1
1
%%c
40
3
41
0
44
1.084337
50
90
71
7
72
5
7
iso_b_vert
0
MTEXT
5
114
100
AcDbEntity
8
SK2
62
256
6
ByLayer
370
18
48
1
60
0
100
AcDbMText
10
-55.841114
20
25.5725
30
0
210
0
220
0
230
1
1
\W0.7022;15.875
40
3
41
0
44
1.084337
50
90
71
7
72
5
7
iso_b_vert
0
MTEXT
5
11D
100
AcDbEntity
8
2
62
256
6
ByLayer
370
18
48
1
60
0
100
AcDbMText
10
88.158886
20
17.809938
30
0
210
0
220
0
230
1
1
%%c
40
3
41
0
44
1.084337
50
90
71
7
72
5
7
iso_b_vert
0
MTEXT
5
11E
100
AcDbEntity
8
2
62
256
6
ByLayer
370
18
48
1
60
0
100
AcDbMText
10
88.158886
20
23.7865
30
0
210
0
220
0
230
1
1
\W0.7022;12.303
40
3
41
0
44
1.084337
50
90
71
7
72
5
7
iso_b_vert
0
MTEXT
5
127
100
AcDbEntity
8
SK2
62
256
6
ByLayer
370
18
48
1
60
0
100
AcDbMText
10
101.909114
20
3.734657
30
0
210
0
220
0
230
1
1
\W0.7071;140%%d
40
3
41
0
44
1.084337
50
270
71
7
72
5
7
iso_b_vert
0
MTEXT
5
130
100
AcDbEntity
8
SK6
62
256
6
ByLayer
370
18
48
1
60
0
100
AcDbMText
10
-10.792511
20
-67.114886
30
0
210
0
220
0
230
1
1
\W0.7662;H85531/64
40
3
41
0
44
1.084337
50
0
71
7
72
5
7
iso_b_vert
0
HATCH
5
118
100
AcDbEntity
8
SK2
62
256
6
ByLayer
370
13
48
1
60
0
100
AcDbHatch
10
0
20
0
30
0
210
0
220
0
230
1
2
ANSI31
70
0
71
0
91
1
92
5
93
3
72
1
10
-54.5
20
7.9375
11
-54.0392162584472
21
4.43750169255318
72
1
10
-54.0392162584472
20
4.43750169255318
11
-54.9607837415528
21
4.43749830744682
72
1
10
-54.9607837415528
20
4.43749830744682
11
-54.5
21
7.9375
97
0
75
0
76
1
52
0
41
0.0062
77
0
78
1
53
45
43
0
44
0
45
-0.0139193969876572
46
0.0139193969876572
79
0
47
0
98
1
10
0
20
0
0
HATCH
5
11C
100
AcDbEntity
8
SK2
62
256
6
ByLayer
370
13
48
1
60
0
100
AcDbHatch
10
0
20
0
30
0
210
0
220
0
230
1
2
ANSI31
70
0
71
0
91
1
92
5
93
3
72
1
10
-54.5
20
-7.9375
11
-54.9607837415528
21
-4.43750169255318
72
1
10
-54.9607837415528
20
-4.43750169255318
11
-54.0392162584472
21
-4.43749830744682
72
1
10
-54.0392162584472
20
-4.43749830744682
11
-54.5
21
-7.9375
97
0
75
0
76
1
52
0
41
0.0062
77
0
78
1
53
45
43
0
44
0
45
-0.0139193969876572
46
0.0139193969876572
79
0
47
0
98
1
10
0
20
0
0
HATCH
5
122
100
AcDbEntity
8
2
62
256
6
ByLayer
370
13
48
1
60
0
100
AcDbHatch
10
0
20
0
30
0
210
0
220
0
230
1
2
ANSI31
70
0
71
0
91
1
92
5
93
3
72
1
10
89.5
20
6.1515
11
89.9607837415528
21
2.65150169255318
72
1
10
89.9607837415528
20
2.65150169255318
11
89.0392162584472
21
2.65149830744681
72
1
10
89.0392162584472
20
2.65149830744681
11
89.5
21
6.1515
97
0
75
0
76
1
52
0
41
0.0062
77
0
78
1
53
45
43
0
44
0
45
-0.0139193969876572
46
0.0139193969876572
79
0
47
0
98
1
10
0
20
0
0
HATCH
5
126
100
AcDbEntity
8
2
62
256
6
ByLayer
370
13
48
1
60
0
100
AcDbHatch
10
0
20
0
30
0
210
0
220
0
230
1
2
ANSI31
70
0
71
0
91
1
92
5
93
3
72
1
10
89.5
20
-6.1515
11
89.0392162584472
21
-2.65150169255318
72
1
10
89.0392162584472
20
-2.65150169255318
11
89.9607837415528
21
-2.65149830744681
72
1
10
89.9607837415528
20
-2.65149830744681
11
89.5
21
-6.1515
97
0
75
0
76
1
52
0
41
0.0062
77
0
78
1
53
45
43
0
44
0
45
-0.0139193969876572
46
0.0139193969876572
79
0
47
0
98
1
10
0
20
0
0
HATCH
5
12B
100
AcDbEntity
8
SK2
62
256
6
ByLayer
370
13
48
1
60
0
100
AcDbHatch
10
0
20
0
30
0
210
0
220
0
230
1
2
ANSI31
70
0
71
0
91
1
92
5
93
3
72
1
10
88.4983827231877
20
-17.8541597949323
11
91.5515754256929
21
-16.0820638240608
72
1
10
91.5515754256929
20
-16.0820638240608
11
91.9061958339751
21
-16.9326700737196
72
1
10
91.9061958339751
20
-16.9326700737196
11
88.4983827231877
21
-17.8541597949323
97
0
75
0
76
1
52
0
41
0.0062
77
0
78
1
53
45
43
0
44
0
45
-0.0139193969876572
46
0.0139193969876572
79
0
47
0
98
1
10
0
20
0
0
HATCH
5
12F
100
AcDbEntity
8
SK2
62
256
6
ByLayer
370
13
48
1
60
0
100
AcDbHatch
10
0
20
0
30
0
210
0
220
0
230
1
2
ANSI31
70
0
71
0
91
1
92
5
93
3
72
1
10
88.4983827231877
20
17.8541597949323
11
91.9061927095191
21
16.9326713763016
72
1
10
91.9061927095191
20
16.9326713763016
11
91.5515785501489
21
16.0820625214788
72
1
10
91.5515785501489
20
16.0820625214788
11
88.4983827231877
21
17.8541597949323
97
0
75
0
76
1
52
0
41
0.0062
77
0
78
1
53
45
43
0
44
0
45
-0.0139193969876572
46
0.0139193969876572
79
0
47
0
98
1
10
0
20
0
0
DIMENSION
5
133
100
AcDbEntity
8
SK2
62
256
6
ByLayer
370
18
48
1
60
0
100
AcDbDimension
2
_U0
10
82
20
-45.952229
30
0
11
17
21
-45.952229
31
0
70
32
71
1
72
1
41
1
210
0
220
0
230
1
3
Standard
100
AcDbAlignedDimension
13
-48
23
-7.9375
33
0
14
82
24
0
34
0
50
0
100
AcDbRotatedDimension
1001
ACAD
1000
DSTYLE
1002
{
1070
   371
1070
    13
1070
   372
1070
    13
1070
     3
1000

1070
   170
1070
     0
1070
   144
1040
1.0
1070
   277
1070
     2
1070
   284
1070
     8
1070
   278
1070
    46
1070
   146
1040
1.166667
1070
   345
1005
16
1070
   347
1005
16
1070
   346
1005
16
1070
   344
1005
0
1070
   343
1005
0
1070
   172
1070
     1
1070
    76
1070
     0
1070
    75
1070
     0
1070
   282
1070
     0
1070
   281
1070
     0
1070
    71
1070
     0
1070
    74
1070
     0
1070
   279
1070
     0
1070
   173
1070
     1
1070
   340
1005
112
1070
   271
1070
     2
1070
   272
1070
     3
1070
    77
1070
     1
1070
    73
1070
     1
1070
   171
1070
     3
1070
   274
1070
     4
1070
   177
1070
     2
1070
   176
1070
     2
1070
   178
1070
     2
1070
    78
1070
     8
1070
    48
1040
-0.1
1070
    41
1040
3.5
1070
   147
1040
1.5
1070
    42
1040
1.5875
1070
    44
1040
2.0
1070
   140
1040
3.0
1002
}
1001
ACAD_DSTYLE_DIM_LINETYPE
1070
   380
1005
16
1001
ACAD_DSTYLE_DIM_EXT1_LINETYPE
1070
   381
1005
16
1001
ACAD_DSTYLE_DIM_EXT2_LINETYPE
1070
   382
1005
16
0
DIMENSION
5
14C
100
AcDbEntity
8
SK2
62
256
6
ByLayer
370
18
48
1
60
0
100
AcDbDimension
2
_U1
10
3
20
-35.952229
30
0
11
42.5
21
-35.952229
31
0
70
32
71
1
72
1
41
1
210
0
220
0
230
1
3
Standard
100
AcDbAlignedDimension
13
82
23
0
33
0
14
3
24
-6.1515
34
0
50
0
100
AcDbRotatedDimension
1001
ACAD
1000
DSTYLE
1002
{
1070
   371
1070
    13
1070
   372
1070
    13
1070
     3
1000

1070
   170
1070
     0
1070
   144
1040
1.0
1070
   277
1070
     2
1070
   284
1070
     8
1070
   278
1070
    46
1070
   146
1040
1.166667
1070
   345
1005
16
1070
   347
1005
16
1070
   346
1005
16
1070
   344
1005
0
1070
   343
1005
0
1070
   172
1070
     1
1070
    76
1070
     0
1070
    75
1070
     0
1070
   282
1070
     0
1070
   281
1070
     0
1070
    71
1070
     0
1070
    74
1070
     0
1070
   279
1070
     0
1070
   173
1070
     1
1070
   340
1005
112
1070
   271
1070
     2
1070
   272
1070
     3
1070
    77
1070
     1
1070
    73
1070
     1
1070
   171
1070
     3
1070
   274
1070
     4
1070
   177
1070
     2
1070
   176
1070
     2
1070
   178
1070
     2
1070
    78
1070
     8
1070
    48
1040
-0.1
1070
    41
1040
3.5
1070
   147
1040
1.5
1070
    42
1040
1.5875
1070
    44
1040
2.0
1070
   140
1040
3.0
1002
}
1001
ACAD_DSTYLE_DIM_LINETYPE
1070
   380
1005
16
1001
ACAD_DSTYLE_DIM_EXT1_LINETYPE
1070
   381
1005
16
1001
ACAD_DSTYLE_DIM_EXT2_LINETYPE
1070
   382
1005
16
0
DIMENSION
5
164
100
AcDbEntity
8
SK2
62
256
6
ByLayer
370
18
48
1
60
0
100
AcDbDimension
2
_U2
10
0
20
-35.952229
30
0
11
-24
21
-35.952229
31
0
70
32
71
1
72
1
41
1
210
0
220
0
230
1
3
Standard
100
AcDbAlignedDimension
13
-48
23
-7.9375
33
0
14
0
24
-7.9375
34
0
50
0
100
AcDbRotatedDimension
1001
ACAD
1000
DSTYLE
1002
{
1070
   371
1070
    13
1070
   372
1070
    13
1070
     3
1000

1070
   170
1070
     0
1070
   144
1040
1.0
1070
   277
1070
     2
1070
   284
1070
     8
1070
   278
1070
    46
1070
   146
1040
1.166667
1070
   345
1005
16
1070
   347
1005
16
1070
   346
1005
16
1070
   344
1005
0
1070
   343
1005
0
1070
   172
1070
     1
1070
    76
1070
     0
1070
    75
1070
     0
1070
   282
1070
     0
1070
   281
1070
     0
1070
    71
1070
     0
1070
    74
1070
     0
1070
   279
1070
     0
1070
   173
1070
     1
1070
   340
1005
112
1070
   271
1070
     2
1070
   272
1070
     3
1070
    77
1070
     1
1070
    73
1070
     1
1070
   171
1070
     3
1070
   274
1070
     4
1070
   177
1070
     2
1070
   176
1070
     2
1070
   178
1070
     2
1070
    78
1070
     8
1070
    48
1040
-0.1
1070
    41
1040
3.5
1070
   147
1040
1.5
1070
    42
1040
1.5875
1070
    44
1040
2.0
1070
   140
1040
3.0
1002
}
1001
ACAD_DSTYLE_DIM_LINETYPE
1070
   380
1005
16
1001
ACAD_DSTYLE_DIM_EXT1_LINETYPE
1070
   381
1005
16
1001
ACAD_DSTYLE_DIM_EXT2_LINETYPE
1070
   382
1005
16
0
DIMENSION
5
17C
100
AcDbEntity
8
SK2
62
256
6
ByLayer
370
18
48
1
60
0
100
AcDbDimension
2
_U3
10
13
20
32.952229
30
0
11
47.5
21
32.952229
31
0
70
32
71
1
72
1
41
1
210
0
220
0
230
1
3
Standard
100
AcDbAlignedDimension
13
82
23
0
33
0
14
13
24
6.1515
34
0
50
0
100
AcDbRotatedDimension
1001
ACAD
1000
DSTYLE
1002
{
1070
   371
1070
    13
1070
   372
1070
    13
1070
     3
1000

1070
   170
1070
     0
1070
   144
1040
1.0
1070
   277
1070
     2
1070
   284
1070
     8
1070
   278
1070
    46
1070
   146
1040
1.166667
1070
   345
1005
16
1070
   347
1005
16
1070
   346
1005
16
1070
   344
1005
0
1070
   343
1005
0
1070
   172
1070
     1
1070
    76
1070
     0
1070
    75
1070
     0
1070
   282
1070
     0
1070
   281
1070
     0
1070
    71
1070
     0
1070
    74
1070
     0
1070
   279
1070
     0
1070
   173
1070
     1
1070
   340
1005
112
1070
   271
1070
     2
1070
   272
1070
     3
1070
    77
1070
     1
1070
    73
1070
     1
1070
   171
1070
     3
1070
   274
1070
     4
1070
   177
1070
     2
1070
   176
1070
     2
1070
   178
1070
     2
1070
    78
1070
     8
1070
    48
1040
-0.1
1070
    41
1040
3.5
1070
   147
1040
1.5
1070
    42
1040
1.5875
1070
    44
1040
2.0
1070
   140
1040
3.0
1002
}
1001
ACAD_DSTYLE_DIM_LINETYPE
1070
   380
1005
16
1001
ACAD_DSTYLE_DIM_EXT1_LINETYPE
1070
   381
1005
16
1001
ACAD_DSTYLE_DIM_EXT2_LINETYPE
1070
   382
1005
16
0
ENDSEC
0
SECTION
2
OBJECTS
0
DICTIONARY
5
204
330
0
100
AcDbDictionary
280
0
281
1
3
ACAD_GROUP
350
205
3
ACAD_MLINESTYLE
350
206
0
DICTIONARY
5
205
330
0
100
AcDbDictionary
280
0
281
1
0
DICTIONARY
5
206
330
0
100
AcDbDictionary
280
0
281
1
3
Standard
350
18
0
MLINESTYLE
5
18
330
206
100
AcDbMlineStyle
2
Standard
70
0
3

62
256
51
90
52
90
71
2
49
-0.5
62
256
6
ByLayer
49
0.5
62
256
6
ByLayer
0
RASTERVARIABLES
5
1f2
330

100
AcDbRasterVariables
90
0
70
1
71
1
72
1
0
ENDSEC
0
EOF
