0
SECTION
2
HEADER
9
$ACADVER
1
AC1015
9
$DWGCODEPAGE
3
ANSI_1252
9
$HANDSEED
5
241
9
$ANGBASE
50
0
9
$ANGDIR
70
0
9
$ATTMODE
70
1
9
$AUNITS
70
0
9
$AUPREC
70
0
9
$CECOLOR
62
256
9
$CELTSCALE
40
1
9
$CELTYPE
6
ByLayer
9
$CELWEIGHT
370
18
9
$CLAYER
8
0
9
$CMLJUST
70
0
9
$CMLSCALE
40
1
9
$CMLSTYLE
2
Standard
9
$DIMSTYLE
2
Standard
9
$TEXTSIZE
40
0.2
9
$TEXTSTYLE
7
Standard
9
$LUNITS
70
2
9
$LUPREC
70
4
9
$EXTNAMES
290
1
9
$INSUNITS
70
4
9
$LTSCALE
40
1
9
$LWDISPLAY
290
1
9
$PDMODE
70
0
9
$PDSIZE
40
0
9
$PLINEGEN
70
0
0
ENDSEC
0
SECTION
2
CLASSES
0
CLASS
1
RASTERVARIABLES
2
AcDbRasterVariables
3
ISM
90
0
280
0
281
0
0
ENDSEC
0
SECTION
2
TABLES
0
TABLE
2
VPORT
5
237
100
AcDbSymbolTable
0
VPORT
5
1
100
AcDbSymbolTableRecord
100
AcDbViewportTableRecord
2
*Active
70
0
10
0
20
0
11
1
21
1
12
-1
22
1
13
0
23
0
14
0.5
24
0.5
15
10
25
10
16
0
26
0
36
1
17
0
27
0
37
0
0
ENDTAB
0
TABLE
2
LTYPE
5
238
100
AcDbSymbolTable
0
LTYPE
5
14
100
AcDbSymbolTableRecord
100
AcDbLinetypeTableRecord
70
0
2
ByBlock
3

72
65
73
0
40
0
0
LTYPE
5
15
100
AcDbSymbolTableRecord
100
AcDbLinetypeTableRecord
70
0
2
ByLayer
3

72
65
73
0
40
0
0
LTYPE
5
16
100
AcDbSymbolTableRecord
100
AcDbLinetypeTableRecord
70
0
2
Continuous
3
Solid line
72
65
73
0
40
0
0
LTYPE
5
6E
100
AcDbSymbolTableRecord
100
AcDbLinetypeTableRecord
70
0
2
CENTER
3
____ _ ____ _ ____ _ ____
72
65
73
4
40
47.5
49
22
74
0
49
-8.5
74
0
49
8.5
74
0
49
-8.5
74
0
0
LTYPE
5
6F
100
AcDbSymbolTableRecord
100
AcDbLinetypeTableRecord
70
0
2
DASHED
3
__ __ __ __ __ __ __ __ __
72
65
73
2
40
25.72
49
12.86
74
0
49
-12.86
74
0
0
ENDTAB
0
TABLE
2
LAYER
5
239
100
AcDbSymbolTable
0
LAYER
5
10
100
AcDbSymbolTableRecord
100
AcDbLayerTableRecord
2
0
70
0
62
7
6
Continuous
290
1
370
-3
390
0
0
LAYER
5
71
100
AcDbSymbolTableRecord
100
AcDbLayerTableRecord
2
80
70
0
62
-6
6
Continuous
290
1
370
-3
390
0
0
LAYER
5
73
100
AcDbSymbolTableRecord
100
AcDbLayerTableRecord
2
81
70
0
62
-3
6
Continuous
290
1
370
-3
390
0
0
LAYER
5
75
100
AcDbSymbolTableRecord
100
AcDbLayerTableRecord
2
1
70
0
62
4
6
Continuous
290
1
370
-3
390
0
0
LAYER
5
7E
100
AcDbSymbolTableRecord
100
AcDbLayerTableRecord
2
4
70
0
62
-2
6
CENTER
290
1
370
-3
390
0
0
LAYER
5
B0
100
AcDbSymbolTableRecord
100
AcDbLayerTableRecord
2
2
70
0
62
7
6
Continuous
290
1
370
-3
390
0
0
LAYER
5
166
100
AcDbSymbolTableRecord
100
AcDbLayerTableRecord
2
Defpoints
70
0
62
7
6
Continuous
290
0
370
-3
390
0
0
LAYER
5
223
100
AcDbSymbolTableRecord
100
AcDbLayerTableRecord
2
SK4
70
0
62
2
6
CENTER
290
1
370
-3
390
0
0
LAYER
5
224
100
AcDbSymbolTableRecord
100
AcDbLayerTableRecord
2
SK1
70
0
62
4
6
Continuous
290
1
370
-3
390
0
0
LAYER
5
225
100
AcDbSymbolTableRecord
100
AcDbLayerTableRecord
2
SK2
70
0
62
7
6
Continuous
290
1
370
-3
390
0
0
LAYER
5
226
100
AcDbSymbolTableRecord
100
AcDbLayerTableRecord
2
SK6
70
0
62
5
6
Continuous
290
1
370
-3
390
0
0
ENDTAB
0
TABLE
2
STYLE
5
23a
100
AcDbSymbolTable
0
STYLE
5
11
100
AcDbSymbolTableRecord
100
AcDbTextStyleTableRecord
2
Standard
3
txt
70
0
71
0
40
0
41
1
42
0
50
0
0
STYLE
5
142
100
AcDbSymbolTableRecord
100
AcDbTextStyleTableRecord
2
iso_b_vert
3
simplex.shx
70
0
71
0
40
0
41
1
42
0
50
0
0
STYLE
5
143
100
AcDbSymbolTableRecord
100
AcDbTextStyleTableRecord
2
DWGDirectTextStyle
3
simplex
70
0
71
0
40
0
41
1
42
0
50
0
0
ENDTAB
0
TABLE
2
DIMSTYLE
5
23b
100
AcDbSymbolTable
100
AcDbDimStyleTable
0
DIMSTYLE
105
27
100
AcDbSymbolTableRecord
100
AcDbDimStyleTableRecord
2
Standard
70
0
3
<>
41
0.18
42
0.0625
44
0.18
140
0.18
147
0.09
73
0
74
0
77
1
271
2
275
0
278
52
280
0
340
11
0
ENDTAB
0
TABLE
2
VIEW
5
23c
100
AcDbSymbolTable
0
ENDTAB
0
TABLE
2
UCS
5
23d
100
AcDbSymbolTable
0
ENDTAB
0
TABLE
2
APPID
5
23e
100
AcDbSymbolTable
0
APPID
5
12
100
AcDbSymbolTableRecord
100
AcDbRegAppTableRecord
2
ACAD
70
0
0
APPID
5
162
100
AcDbSymbolTableRecord
100
AcDbRegAppTableRecord
2
ACAD_DSTYLE_DIMBREAK
70
0
0
APPID
5
1E2
100
AcDbSymbolTableRecord
100
AcDbRegAppTableRecord
2
ACAD_DSTYLE_DIM_LINETYPE
70
0
0
APPID
5
1E3
100
AcDbSymbolTableRecord
100
AcDbRegAppTableRecord
2
ACAD_DSTYLE_DIM_EXT1_LINETYPE
70
0
0
APPID
5
1E4
100
AcDbSymbolTableRecord
100
AcDbRegAppTableRecord
2
ACAD_DSTYLE_DIM_EXT2_LINETYPE
70
0
0
APPID
5
21F
100
AcDbSymbolTableRecord
100
AcDbRegAppTableRecord
2
ACAD_MLEADERVER
70
0
0
ENDTAB
0
TABLE
2
BLOCK_RECORD
5
23f
100
AcDbSymbolTable
0
BLOCK_RECORD
5
1F
100
AcDbSymbolTableRecord
100
AcDbBlockTableRecord
2
*Model_Space
340
0
70
0
0
BLOCK_RECORD
5
1B
100
AcDbSymbolTableRecord
100
AcDbBlockTableRecord
2
*Paper_Space
340
0
70
0
0
BLOCK_RECORD
5
23
100
AcDbSymbolTableRecord
100
AcDbBlockTableRecord
2
*Paper_Space0
340
0
70
0
0
BLOCK_RECORD
5
167
100
AcDbSymbolTableRecord
100
AcDbBlockTableRecord
2
*D1
340
0
70
0
0
BLOCK_RECORD
5
173
100
AcDbSymbolTableRecord
100
AcDbBlockTableRecord
2
_U0
340
0
70
0
0
BLOCK_RECORD
5
17F
100
AcDbSymbolTableRecord
100
AcDbBlockTableRecord
2
*D3
340
0
70
0
0
BLOCK_RECORD
5
18B
100
AcDbSymbolTableRecord
100
AcDbBlockTableRecord
2
_U1
340
0
70
0
0
BLOCK_RECORD
5
197
100
AcDbSymbolTableRecord
100
AcDbBlockTableRecord
2
*D5
340
0
70
0
0
BLOCK_RECORD
5
1A3
100
AcDbSymbolTableRecord
100
AcDbBlockTableRecord
2
_U2
340
0
70
0
0
BLOCK_RECORD
5
1AF
100
AcDbSymbolTableRecord
100
AcDbBlockTableRecord
2
*D7
340
0
70
0
0
BLOCK_RECORD
5
1BB
100
AcDbSymbolTableRecord
100
AcDbBlockTableRecord
2
_U3
340
0
70
0
0
ENDTAB
0
ENDSEC
0
SECTION
2
BLOCKS
0
BLOCK
5
20
100
AcDbEntity
8
0
100
AcDbBlockBegin
2
*Model_Space
70
0
10
0
20
0
30
0
3
*Model_Space
0
ENDBLK
5
21
100
AcDbEntity
8
0
100
AcDbBlockEnd
0
BLOCK
5
1C
100
AcDbEntity
8
0
100
AcDbBlockBegin
2
*Paper_Space
70
0
10
0
20
0
30
0
3
*Paper_Space
0
ENDBLK
5
1D
100
AcDbEntity
8
0
100
AcDbBlockEnd
0
BLOCK
5
24
100
AcDbEntity
8
0
100
AcDbBlockBegin
2
*Paper_Space0
70
0
10
0
20
0
30
0
3
*Paper_Space0
0
ENDBLK
5
25
100
AcDbEntity
8
0
100
AcDbBlockEnd
0
BLOCK
5
168
100
AcDbEntity
8
0
100
AcDbBlockBegin
2
*D1
70
1
10
0
20
0
30
0
3
*D1
0
LINE
5
16A
100
AcDbEntity
8
0
62
256
6
ByLayer
370
-2
48
1
60
0
100
AcDbLine
10
-56
20
-14.2875
30
0
11
-56
21
-47.952229
31
0
39
0
210
0
220
0
230
1
0
LINE
5
16B
100
AcDbEntity
8
0
62
256
6
ByLayer
370
-2
48
1
60
0
100
AcDbLine
10
164.2
20
-1.5875
30
0
11
164.2
21
-47.952229
31
0
39
0
210
0
220
0
230
1
0
LINE
5
16C
100
AcDbEntity
8
0
62
256
6
ByLayer
370
-2
48
1
60
0
100
AcDbLine
10
-52.5
20
-45.952229
30
0
11
160.7
21
-45.952229
31
0
39
0
210
0
220
0
230
1
0
SOLID
5
16D
100
AcDbEntity
8
0
62
256
6
ByLayer
370
-1
48
1
60
0
100
AcDbTrace
10
-52.5
20
-45.368896
30
0
11
-52.5
21
-46.535563
31
0
12
-56
22
-45.952229
32
0
13
-56
23
-45.952229
33
0
39
0
210
0
220
0
230
1
0
SOLID
5
16E
100
AcDbEntity
8
0
62
256
6
ByLayer
370
-1
48
1
60
0
100
AcDbTrace
10
160.7
20
-46.535563
30
0
11
160.7
21
-45.368896
31
0
12
164.2
22
-45.952229
32
0
13
164.2
23
-45.952229
33
0
39
0
210
0
220
0
230
1
0
MTEXT
5
16F
100
AcDbEntity
8
0
62
256
6
ByLayer
370
18
48
1
60
0
100
AcDbMText
10
54.1
20
-39.952229
30
0
210
0
220
0
230
1
1
\A1;220.2
40
3
41
0
44
1
50
0
71
5
72
5
7
iso_b_vert
0
POINT
5
170
100
AcDbEntity
8
Defpoints
62
0
6
ByLayer
370
-1
48
1
60
0
100
AcDbPoint
10
-56
20
-12.7
30
0
39
0
210
0
220
0
230
1
50
360
0
POINT
5
171
100
AcDbEntity
8
Defpoints
62
0
6
ByLayer
370
-1
48
1
60
0
100
AcDbPoint
10
164.2
20
0
30
0
39
0
210
0
220
0
230
1
50
360
0
POINT
5
172
100
AcDbEntity
8
Defpoints
62
0
6
ByLayer
370
-1
48
1
60
0
100
AcDbPoint
10
164.2
20
-45.952229
30
0
39
0
210
0
220
0
230
1
50
360
0
ENDBLK
5
169
100
AcDbEntity
8
0
100
AcDbBlockEnd
0
BLOCK
5
17A
100
AcDbEntity
8
0
100
AcDbBlockBegin
2
_U0
70
0
10
0
20
0
30
0
3
_U0
0
MTEXT
5
174
100
AcDbEntity
8
SK2
62
256
6
ByLayer
370
18
48
1
60
0
100
AcDbMText
10
48.496716
20
-45.067115
30
0
210
0
220
0
230
1
1
\W0.7513;220.20
40
3
41
0
44
1.084337
50
0
71
7
72
5
7
iso_b_vert
0
LINE
5
175
100
AcDbEntity
8
SK2
62
256
6
ByLayer
370
13
48
1
60
0
100
AcDbLine
10
-56
20
-14.2875
30
0
11
-56
21
-47.952229
31
0
39
0
210
0
220
0
230
1
0
LINE
5
176
100
AcDbEntity
8
SK2
62
256
6
ByLayer
370
13
48
1
60
0
100
AcDbLine
10
164.2
20
-1.5875
30
0
11
164.2
21
-47.952229
31
0
39
0
210
0
220
0
230
1
0
LINE
5
177
100
AcDbEntity
8
SK2
62
256
6
ByLayer
370
13
48
1
60
0
100
AcDbLine
10
-56
20
-45.952229
30
0
11
164.2
21
-45.952229
31
0
39
0
210
0
220
0
230
1
0
SOLID
5
178
100
AcDbEntity
8
SK2
62
256
6
ByLayer
370
18
48
1
60
0
100
AcDbTrace
10
-56
20
-45.952229
30
0
11
-52.500002
21
-45.491446
31
0
12
-52.499998
22
-46.413013
32
0
13
-52.499998
23
-46.413013
33
0
39
0
210
0
220
0
230
1
0
SOLID
5
179
100
AcDbEntity
8
SK2
62
256
6
ByLayer
370
18
48
1
60
0
100
AcDbTrace
10
164.2
20
-45.952229
30
0
11
160.700002
21
-46.413013
31
0
12
160.699998
22
-45.491446
32
0
13
160.699998
23
-45.491446
33
0
39
0
210
0
220
0
230
1
0
ENDBLK
5
17B
100
AcDbEntity
8
0
100
AcDbBlockEnd
0
BLOCK
5
180
100
AcDbEntity
8
0
100
AcDbBlockBegin
2
*D3
70
1
10
0
20
0
30
0
3
*D3
0
LINE
5
182
100
AcDbEntity
8
0
62
256
6
ByLayer
370
-2
48
1
60
0
100
AcDbLine
10
164.2
20
-1.5875
30
0
11
164.2
21
-37.952229
31
0
39
0
210
0
220
0
230
1
0
LINE
5
183
100
AcDbEntity
8
0
62
256
6
ByLayer
370
-2
48
1
60
0
100
AcDbLine
10
3
20
-13.8905
30
0
11
3
21
-37.952229
31
0
39
0
210
0
220
0
230
1
0
LINE
5
184
100
AcDbEntity
8
0
62
256
6
ByLayer
370
-2
48
1
60
0
100
AcDbLine
10
160.7
20
-35.952229
30
0
11
6.5
21
-35.952229
31
0
39
0
210
0
220
0
230
1
0
SOLID
5
185
100
AcDbEntity
8
0
62
256
6
ByLayer
370
-1
48
1
60
0
100
AcDbTrace
10
160.7
20
-36.535563
30
0
11
160.7
21
-35.368896
31
0
12
164.2
22
-35.952229
32
0
13
164.2
23
-35.952229
33
0
39
0
210
0
220
0
230
1
0
SOLID
5
186
100
AcDbEntity
8
0
62
256
6
ByLayer
370
-1
48
1
60
0
100
AcDbTrace
10
6.5
20
-35.368896
30
0
11
6.5
21
-36.535563
31
0
12
3
22
-35.952229
32
0
13
3
23
-35.952229
33
0
39
0
210
0
220
0
230
1
0
MTEXT
5
187
100
AcDbEntity
8
0
62
256
6
ByLayer
370
18
48
1
60
0
100
AcDbMText
10
83.6
20
-29.952229
30
0
210
0
220
0
230
1
1
\A1;161.2
40
3
41
0
44
1
50
0
71
5
72
5
7
iso_b_vert
0
POINT
5
188
100
AcDbEntity
8
Defpoints
62
0
6
ByLayer
370
-1
48
1
60
0
100
AcDbPoint
10
164.2
20
0
30
0
39
0
210
0
220
0
230
1
50
360
0
POINT
5
189
100
AcDbEntity
8
Defpoints
62
0
6
ByLayer
370
-1
48
1
60
0
100
AcDbPoint
10
3
20
-12.303
30
0
39
0
210
0
220
0
230
1
50
360
0
POINT
5
18A
100
AcDbEntity
8
Defpoints
62
0
6
ByLayer
370
-1
48
1
60
0
100
AcDbPoint
10
3
20
-35.952229
30
0
39
0
210
0
220
0
230
1
50
360
0
ENDBLK
5
181
100
AcDbEntity
8
0
100
AcDbBlockEnd
0
BLOCK
5
192
100
AcDbEntity
8
0
100
AcDbBlockBegin
2
_U1
70
0
10
0
20
0
30
0
3
_U1
0
MTEXT
5
18C
100
AcDbEntity
8
SK2
62
256
6
ByLayer
370
18
48
1
60
0
100
AcDbMText
10
78.746601
20
-35.067115
30
0
210
0
220
0
230
1
1
\W0.6532;161.20
40
3
41
0
44
1.084337
50
0
71
7
72
5
7
iso_b_vert
0
LINE
5
18D
100
AcDbEntity
8
SK2
62
256
6
ByLayer
370
13
48
1
60
0
100
AcDbLine
10
164.2
20
-1.5875
30
0
11
164.2
21
-37.952229
31
0
39
0
210
0
220
0
230
1
0
LINE
5
18E
100
AcDbEntity
8
SK2
62
256
6
ByLayer
370
13
48
1
60
0
100
AcDbLine
10
3
20
-13.8905
30
0
11
3
21
-37.952229
31
0
39
0
210
0
220
0
230
1
0
LINE
5
18F
100
AcDbEntity
8
SK2
62
256
6
ByLayer
370
13
48
1
60
0
100
AcDbLine
10
164.2
20
-35.952229
30
0
11
3
21
-35.952229
31
0
39
0
210
0
220
0
230
1
0
SOLID
5
190
100
AcDbEntity
8
SK2
62
256
6
ByLayer
370
18
48
1
60
0
100
AcDbTrace
10
164.2
20
-35.952229
30
0
11
160.700002
21
-36.413013
31
0
12
160.699998
22
-35.491446
32
0
13
160.699998
23
-35.491446
33
0
39
0
210
0
220
0
230
1
0
SOLID
5
191
100
AcDbEntity
8
SK2
62
256
6
ByLayer
370
18
48
1
60
0
100
AcDbTrace
10
3
20
-35.952229
30
0
11
6.499998
21
-35.491446
31
0
12
6.500002
22
-36.413013
32
0
13
6.500002
23
-36.413013
33
0
39
0
210
0
220
0
230
1
0
ENDBLK
5
193
100
AcDbEntity
8
0
100
AcDbBlockEnd
0
BLOCK
5
198
100
AcDbEntity
8
0
100
AcDbBlockBegin
2
*D5
70
1
10
0
20
0
30
0
3
*D5
0
LINE
5
19A
100
AcDbEntity
8
0
62
256
6
ByLayer
370
-2
48
1
60
0
100
AcDbLine
10
-56
20
-14.2875
30
0
11
-56
21
-37.952229
31
0
39
0
210
0
220
0
230
1
0
LINE
5
19B
100
AcDbEntity
8
0
62
256
6
ByLayer
370
-2
48
1
60
0
100
AcDbLine
10
0
20
-14.2875
30
0
11
0
21
-37.952229
31
0
39
0
210
0
220
0
230
1
0
LINE
5
19C
100
AcDbEntity
8
0
62
256
6
ByLayer
370
-2
48
1
60
0
100
AcDbLine
10
-52.5
20
-35.952229
30
0
11
-3.5
21
-35.952229
31
0
39
0
210
0
220
0
230
1
0
SOLID
5
19D
100
AcDbEntity
8
0
62
256
6
ByLayer
370
-1
48
1
60
0
100
AcDbTrace
10
-52.5
20
-35.368896
30
0
11
-52.5
21
-36.535563
31
0
12
-56
22
-35.952229
32
0
13
-56
23
-35.952229
33
0
39
0
210
0
220
0
230
1
0
SOLID
5
19E
100
AcDbEntity
8
0
62
256
6
ByLayer
370
-1
48
1
60
0
100
AcDbTrace
10
-3.5
20
-36.535563
30
0
11
-3.5
21
-35.368896
31
0
12
0
22
-35.952229
32
0
13
0
23
-35.952229
33
0
39
0
210
0
220
0
230
1
0
MTEXT
5
19F
100
AcDbEntity
8
0
62
256
6
ByLayer
370
18
48
1
60
0
100
AcDbMText
10
-28
20
-29.952229
30
0
210
0
220
0
230
1
1
\A1;56
40
3
41
0
44
1
50
0
71
5
72
5
7
iso_b_vert
0
POINT
5
1A0
100
AcDbEntity
8
Defpoints
62
0
6
ByLayer
370
-1
48
1
60
0
100
AcDbPoint
10
-56
20
-12.7
30
0
39
0
210
0
220
0
230
1
50
360
0
POINT
5
1A1
100
AcDbEntity
8
Defpoints
62
0
6
ByLayer
370
-1
48
1
60
0
100
AcDbPoint
10
0
20
-12.7
30
0
39
0
210
0
220
0
230
1
50
360
0
POINT
5
1A2
100
AcDbEntity
8
Defpoints
62
0
6
ByLayer
370
-1
48
1
60
0
100
AcDbPoint
10
0
20
-35.952229
30
0
39
0
210
0
220
0
230
1
50
360
0
ENDBLK
5
199
100
AcDbEntity
8
0
100
AcDbBlockEnd
0
BLOCK
5
1AA
100
AcDbEntity
8
0
100
AcDbBlockBegin
2
_U2
70
0
10
0
20
0
30
0
3
_U2
0
MTEXT
5
1A4
100
AcDbEntity
8
SK2
62
256
6
ByLayer
370
18
48
1
60
0
100
AcDbMText
10
-32.48237
20
-35.067115
30
0
210
0
220
0
230
1
1
\W0.7468;56.00
40
3
41
0
44
1.084337
50
0
71
7
72
5
7
iso_b_vert
0
LINE
5
1A5
100
AcDbEntity
8
SK2
62
256
6
ByLayer
370
13
48
1
60
0
100
AcDbLine
10
-56
20
-14.2875
30
0
11
-56
21
-37.952229
31
0
39
0
210
0
220
0
230
1
0
LINE
5
1A6
100
AcDbEntity
8
SK2
62
256
6
ByLayer
370
13
48
1
60
0
100
AcDbLine
10
0
20
-14.2875
30
0
11
0
21
-37.952229
31
0
39
0
210
0
220
0
230
1
0
LINE
5
1A7
100
AcDbEntity
8
SK2
62
256
6
ByLayer
370
13
48
1
60
0
100
AcDbLine
10
-56
20
-35.952229
30
0
11
0
21
-35.952229
31
0
39
0
210
0
220
0
230
1
0
SOLID
5
1A8
100
AcDbEntity
8
SK2
62
256
6
ByLayer
370
18
48
1
60
0
100
AcDbTrace
10
-56
20
-35.952229
30
0
11
-52.500002
21
-35.491446
31
0
12
-52.499998
22
-36.413013
32
0
13
-52.499998
23
-36.413013
33
0
39
0
210
0
220
0
230
1
0
SOLID
5
1A9
100
AcDbEntity
8
SK2
62
256
6
ByLayer
370
18
48
1
60
0
100
AcDbTrace
10
0
20
-35.952229
30
0
11
-3.499998
21
-36.413013
31
0
12
-3.500002
22
-35.491446
32
0
13
-3.500002
23
-35.491446
33
0
39
0
210
0
220
0
230
1
0
ENDBLK
5
1AB
100
AcDbEntity
8
0
100
AcDbBlockEnd
0
BLOCK
5
1B0
100
AcDbEntity
8
0
100
AcDbBlockBegin
2
*D7
70
1
10
0
20
0
30
0
3
*D7
0
LINE
5
1B2
100
AcDbEntity
8
0
62
256
6
ByLayer
370
-2
48
1
60
0
100
AcDbLine
10
164.2
20
1.5875
30
0
11
164.2
21
34.952229
31
0
39
0
210
0
220
0
230
1
0
LINE
5
1B3
100
AcDbEntity
8
0
62
256
6
ByLayer
370
-2
48
1
60
0
100
AcDbLine
10
29
20
13.8905
30
0
11
29
21
34.952229
31
0
39
0
210
0
220
0
230
1
0
LINE
5
1B4
100
AcDbEntity
8
0
62
256
6
ByLayer
370
-2
48
1
60
0
100
AcDbLine
10
160.7
20
32.952229
30
0
11
32.5
21
32.952229
31
0
39
0
210
0
220
0
230
1
0
SOLID
5
1B5
100
AcDbEntity
8
0
62
256
6
ByLayer
370
-1
48
1
60
0
100
AcDbTrace
10
160.7
20
32.368896
30
0
11
160.7
21
33.535563
31
0
12
164.2
22
32.952229
32
0
13
164.2
23
32.952229
33
0
39
0
210
0
220
0
230
1
0
SOLID
5
1B6
100
AcDbEntity
8
0
62
256
6
ByLayer
370
-1
48
1
60
0
100
AcDbTrace
10
32.5
20
33.535563
30
0
11
32.5
21
32.368896
31
0
12
29
22
32.952229
32
0
13
29
23
32.952229
33
0
39
0
210
0
220
0
230
1
0
MTEXT
5
1B7
100
AcDbEntity
8
0
62
256
6
ByLayer
370
18
48
1
60
0
100
AcDbMText
10
96.6
20
38.952229
30
0
210
0
220
0
230
1
1
\A1;135.2
40
3
41
0
44
1
50
0
71
5
72
5
7
iso_b_vert
0
POINT
5
1B8
100
AcDbEntity
8
Defpoints
62
0
6
ByLayer
370
-1
48
1
60
0
100
AcDbPoint
10
164.2
20
0
30
0
39
0
210
0
220
0
230
1
50
360
0
POINT
5
1B9
100
AcDbEntity
8
Defpoints
62
0
6
ByLayer
370
-1
48
1
60
0
100
AcDbPoint
10
29
20
12.303
30
0
39
0
210
0
220
0
230
1
50
360
0
POINT
5
1BA
100
AcDbEntity
8
Defpoints
62
0
6
ByLayer
370
-1
48
1
60
0
100
AcDbPoint
10
29
20
32.952229
30
0
39
0
210
0
220
0
230
1
50
360
0
ENDBLK
5
1B1
100
AcDbEntity
8
0
100
AcDbBlockEnd
0
BLOCK
5
1C2
100
AcDbEntity
8
0
100
AcDbBlockBegin
2
_U3
70
0
10
0
20
0
30
0
3
_U3
0
MTEXT
5
1BC
100
AcDbEntity
8
SK2
62
256
6
ByLayer
370
18
48
1
60
0
100
AcDbMText
10
91.371658
20
33.837344
30
0
210
0
220
0
230
1
1
\W0.7022;135.20
40
3
41
0
44
1.084337
50
0
71
7
72
5
7
iso_b_vert
0
LINE
5
1BD
100
AcDbEntity
8
SK2
62
256
6
ByLayer
370
13
48
1
60
0
100
AcDbLine
10
164.2
20
1.5875
30
0
11
164.2
21
34.952229
31
0
39
0
210
0
220
0
230
1
0
LINE
5
1BE
100
AcDbEntity
8
SK2
62
256
6
ByLayer
370
13
48
1
60
0
100
AcDbLine
10
29
20
13.8905
30
0
11
29
21
34.952229
31
0
39
0
210
0
220
0
230
1
0
LINE
5
1BF
100
AcDbEntity
8
SK2
62
256
6
ByLayer
370
13
48
1
60
0
100
AcDbLine
10
164.2
20
32.952229
30
0
11
29
21
32.952229
31
0
39
0
210
0
220
0
230
1
0
SOLID
5
1C0
100
AcDbEntity
8
SK2
62
256
6
ByLayer
370
18
48
1
60
0
100
AcDbTrace
10
164.2
20
32.952229
30
0
11
160.700002
21
32.491446
31
0
12
160.699998
22
33.413013
32
0
13
160.699998
23
33.413013
33
0
39
0
210
0
220
0
230
1
0
SOLID
5
1C1
100
AcDbEntity
8
SK2
62
256
6
ByLayer
370
18
48
1
60
0
100
AcDbTrace
10
29
20
32.952229
30
0
11
32.499998
21
33.413013
31
0
12
32.500002
22
32.491446
32
0
13
32.500002
23
32.491446
33
0
39
0
210
0
220
0
230
1
0
ENDBLK
5
1C3
100
AcDbEntity
8
0
100
AcDbBlockEnd
0
ENDSEC
0
SECTION
2
ENTITIES
0
ARC
5
C1
100
AcDbEntity
8
SK2
62
256
6
ByLayer
370
13
48
1
60
0
100
AcDbCircle
39
0
10
164.2
20
0
30
0
40
18.9999999999999
210
0
220
0
230
1
100
AcDbArc
50
290
51
70
0
ELLIPSE
5
C2
100
AcDbEntity
8
SK1
62
256
6
ByLayer
370
18
48
1
60
0
100
AcDbEllipse
10
-37.157058
20
0
30
0
11
-2.33287510403163E-15
21
-12.7
31
0
210
0
220
0
230
1
40
0.932515
41
-2.1956929134288
42
-0.945899740160989
0
ELLIPSE
5
C3
100
AcDbEntity
8
SK1
62
256
6
ByLayer
370
18
48
1
60
0
100
AcDbEllipse
10
-20.619083
20
0
30
0
11
13.6190826173124
21
-1.54317782980885E-14
31
0
210
0
220
0
230
1
40
0.932515
41
-0.624896586633934
42
0.624896586633934
0
POINT
5
70
100
AcDbEntity
8
80
62
256
6
ByLayer
370
18
48
1
60
0
100
AcDbPoint
10
0
20
0
30
0
39
0
210
0
220
0
230
1
50
360
0
POINT
5
72
100
AcDbEntity
8
81
62
256
6
ByLayer
370
18
48
1
60
0
100
AcDbPoint
10
164.2
20
0
30
0
39
0
210
0
220
0
230
1
50
360
0
POINT
5
74
100
AcDbEntity
8
1
62
256
6
ByLayer
370
18
48
1
60
1
100
AcDbPoint
10
-56
20
-12.7
30
0
39
0
210
0
220
0
230
1
50
360
0
POINT
5
76
100
AcDbEntity
8
1
62
256
6
ByLayer
370
18
48
1
60
1
100
AcDbPoint
10
164.2
20
0
30
0
39
0
210
0
220
0
230
1
50
360
0
POINT
5
77
100
AcDbEntity
8
1
62
256
6
ByLayer
370
18
48
1
60
1
100
AcDbPoint
10
164.2
20
0
30
0
39
0
210
0
220
0
230
1
50
360
0
POINT
5
78
100
AcDbEntity
8
1
62
256
6
ByLayer
370
18
48
1
60
1
100
AcDbPoint
10
3
20
-12.303
30
0
39
0
210
0
220
0
230
1
50
360
0
POINT
5
79
100
AcDbEntity
8
1
62
256
6
ByLayer
370
18
48
1
60
1
100
AcDbPoint
10
-56
20
-12.7
30
0
39
0
210
0
220
0
230
1
50
360
0
POINT
5
7A
100
AcDbEntity
8
1
62
256
6
ByLayer
370
18
48
1
60
1
100
AcDbPoint
10
0
20
-12.7
30
0
39
0
210
0
220
0
230
1
50
360
0
POINT
5
7B
100
AcDbEntity
8
1
62
256
6
ByLayer
370
18
48
1
60
1
100
AcDbPoint
10
164.2
20
0
30
0
39
0
210
0
220
0
230
1
50
360
0
POINT
5
7C
100
AcDbEntity
8
1
62
256
6
ByLayer
370
18
48
1
60
1
100
AcDbPoint
10
29
20
12.303
30
0
39
0
210
0
220
0
230
1
50
360
0
SPLINE
5
C4
100
AcDbEntity
8
1
62
256
6
ByLayer
370
18
48
1
60
0
100
AcDbSpline
70
4
71
3
72
14
73
10
40
0
40
0
40
0
40
0
40
0.25
40
0.25
40
0.5
40
0.5
40
0.75
40
0.75
40
1
40
1
40
1
40
1
41
1
10
13.537314463397
20
9.98018487608414
30
0
41
1
10
13.2343892412754
20
10.0367939315389
30
0
41
1
10
12.933827477749
20
10.0949274898703
30
0
41
1
10
12.3367628284313
20
10.2126764641
30
0
41
1
10
12.0402571951903
20
10.2722912734266
30
0
41
1
10
11.4509386576829
20
10.3918514870648
30
0
41
1
10
11.1581246160429
20
10.4517997507297
30
0
41
1
10
10.5761935630176
20
10.5712663504973
30
0
41
1
10
10.2870772376737
20
10.6307905252128
30
0
41
1
10
10
20
10.6898480032875
30
0
0
SPLINE
5
C5
100
AcDbEntity
8
1
62
256
6
ByLayer
370
18
48
1
60
0
100
AcDbSpline
70
4
71
3
72
14
73
10
40
0
40
0
40
0
40
0
40
0.25
40
0.25
40
0.5
40
0.5
40
0.75
40
0.75
40
1
40
1
40
1
40
1
41
1
10
13.537314463397
20
-9.98018487608417
30
0
41
1
10
13.2343892412754
20
-10.036793931539
30
0
41
1
10
12.9338274777489
20
-10.0949274898704
30
0
41
1
10
12.3367628284313
20
-10.2126764641
30
0
41
1
10
12.0402571951903
20
-10.2722912734266
30
0
41
1
10
11.4509386576829
20
-10.3918514870648
30
0
41
1
10
11.1581246160429
20
-10.4517997507297
30
0
41
1
10
10.5761935630176
20
-10.5712663504973
30
0
41
1
10
10.2870772376737
20
-10.6307905252128
30
0
41
1
10
10
20
-10.6898480032875
30
0
0
SPLINE
5
C6
100
AcDbEntity
8
1
62
256
6
ByLayer
370
18
48
1
60
0
100
AcDbSpline
70
4
71
3
72
26
73
22
40
0
40
0
40
0
40
0
40
0.12499999999999
40
0.12499999999999
40
0.249999999999981
40
0.249999999999981
40
0.374999999999971
40
0.374999999999971
40
0.437499999999968
40
0.437499999999968
40
0.468749999999967
40
0.468749999999967
40
0.499999999999966
40
0.499999999999966
40
0.624999999999974
40
0.624999999999974
40
0.749999999999983
40
0.749999999999983
40
0.874999999999991
40
0.874999999999991
40
1
40
1
40
1
40
1
41
1
10
10
20
-7.68751153305305
30
0
41
1
10
10.3664937518652
20
-7.6160316153107
30
0
41
1
10
10.7345260224433
20
-7.55786469635274
30
0
41
1
10
11.4734503401504
20
-7.46752692647803
30
0
41
1
10
11.8443438164362
20
-7.43536366284098
30
0
41
1
10
12.5888495909048
20
-7.39641187737726
30
0
41
1
10
12.9624630195733
20
-7.38963090896635
30
0
41
1
10
13.5248429682934
20
-7.39785098499391
30
0
41
1
10
13.7126297603114
20
-7.40365375541086
30
0
41
1
10
13.9947905730559
20
-7.41684047533963
30
0
41
1
10
14.0889843999436
20
-7.42198671579416
30
0
41
1
10
14.2772618486657
20
-7.43373389664552
30
0
41
1
10
14.3711875445423
20
-7.44032389838256
30
0
41
1
10
14.8397815980767
20
-7.47673184959692
30
0
41
1
10
15.2113475451258
20
-7.51693143251413
30
0
41
1
10
15.9486231895419
20
-7.61618831798631
30
0
41
1
10
16.3143315964131
20
-7.67524499585576
30
0
41
1
10
17.0406575155051
20
-7.80871835386384
30
0
41
1
10
17.4012759100277
20
-7.88312782634446
30
0
41
1
10
18.1182043343165
20
-8.04370359070322
30
0
41
1
10
18.4745177408483
20
-8.12985644423875
30
0
41
1
10
18.8290451156013
20
-8.22019067385978
30
0
0
SPLINE
5
C7
100
AcDbEntity
8
1
62
256
6
ByLayer
370
18
48
1
60
0
100
AcDbSpline
70
4
71
3
72
18
73
14
40
0
40
0
40
0
40
0
40
0.249999999999995
40
0.249999999999995
40
0.374999999999993
40
0.374999999999993
40
0.437499999999995
40
0.437499999999995
40
0.499999999999997
40
0.499999999999997
40
0.749999999999998
40
0.749999999999998
40
1
40
1
40
1
40
1
41
1
10
159.722074207832
20
-1.75696983216684
30
0
41
1
10
158.810742600952
20
-1.42966225963488
30
0
41
1
10
157.899960824526
20
-1.1010828607445
30
0
41
1
10
156.534946518696
20
-0.605384227268019
30
0
41
1
10
156.080136792902
20
-0.439674411452359
30
0
41
1
10
155.398254022151
20
-0.190287035481902
30
0
41
1
10
155.170999645207
20
-0.107063462046511
30
0
41
1
10
154.71638100224
20
0.0590487293214608
30
0
41
1
10
154.489037087135
20
0.141993595468819
30
0
41
1
10
153.352157962747
20
0.556199405435535
30
0
41
1
10
152.442147848956
20
0.885915723181512
30
0
41
1
10
150.621462729581
20
1.54301950803668
30
0
41
1
10
149.710786395376
20
1.87040340294493
30
0
41
1
10
148.8
20
2.19723103557038
30
0
0
SPLINE
5
C8
100
AcDbEntity
8
1
62
256
6
ByLayer
370
18
48
1
60
0
100
AcDbSpline
70
4
71
3
72
91
73
87
40
0
40
0
40
0
40
0
40
0.0312499999999978
40
0.0312499999999978
40
0.0624999999999955
40
0.0624999999999955
40
0.124999999999991
40
0.124999999999991
40
0.140624999999991
40
0.140624999999991
40
0.148437499999991
40
0.148437499999991
40
0.156249999999992
40
0.187499999999993
40
0.187499999999993
40
0.218749999999994
40
0.218749999999994
40
0.249999999999996
40
0.249999999999996
40
0.281249999999997
40
0.281249999999997
40
0.296874999999998
40
0.296874999999998
40
0.304687499999999
40
0.304687499999999
40
0.312499999999999
40
0.312499999999999
40
0.343750000000002
40
0.343750000000002
40
0.375000000000004
40
0.375000000000004
40
0.406250000000006
40
0.406250000000006
40
0.437500000000009
40
0.437500000000009
40
0.445312500000009
40
0.445312500000009
40
0.453125000000009
40
0.468750000000009
40
0.468750000000009
40
0.50000000000001
40
0.50000000000001
40
0.53125000000001
40
0.53125000000001
40
0.53515625000001
40
0.53515625000001
40
0.53906250000001
40
0.53906250000001
40
0.546875000000011
40
0.562500000000013
40
0.562500000000013
40
0.593750000000016
40
0.593750000000016
40
0.62500000000002
40
0.62500000000002
40
0.632812500000021
40
0.632812500000021
40
0.640625000000021
40
0.656250000000023
40
0.656250000000023
40
0.687500000000025
40
0.687500000000025
40
0.718750000000026
40
0.718750000000026
40
0.726562500000026
40
0.726562500000026
40
0.734375000000025
40
0.734375000000025
40
0.750000000000024
40
0.750000000000024
40
0.781250000000023
40
0.781250000000023
40
0.812500000000022
40
0.812500000000022
40
0.843750000000021
40
0.843750000000021
40
0.85156250000002
40
0.85156250000002
40
0.859375000000019
40
0.875000000000017
40
0.875000000000017
40
0.906250000000013
40
0.937500000000009
40
0.968750000000004
40
0.968750000000004
40
1
40
1
40
1
40
1
41
1
10
159.722074207823
20
11.9123531606273
30
0
41
1
10
159.798923805483
20
11.721776430762
30
0
41
1
10
159.875892225273
20
11.5283373804297
30
0
41
1
10
160.03019833523
20
11.1361839011548
30
0
41
1
10
160.107535893556
20
10.9374684637362
30
0
41
1
10
160.340240520934
20
10.333894604173
30
0
41
1
10
160.496324060389
20
9.92162547959765
30
0
41
1
10
160.692760826789
20
9.39496927566643
30
0
41
1
10
160.732112827793
20
9.28907073007298
30
0
41
1
10
160.791234964413
20
9.12938041757334
30
0
41
1
10
160.810971374725
20
9.07597354316141
30
0
41
1
10
160.850406701746
20
8.96906395000445
30
0
41
1
10
160.948851144187
20
8.70168409229024
30
0
41
1
10
161.046585575015
20
8.43378315270448
30
0
41
1
10
161.201986828409
20
8.004469787874
30
0
41
1
10
161.279201495358
20
7.78947748747501
30
0
41
1
10
161.432481081687
20
7.35877121004728
30
0
41
1
10
161.508547751987
20
7.14305784569223
30
0
41
1
10
161.659204545732
20
6.71080114154285
30
0
41
1
10
161.733797697063
20
6.4942588889468
30
0
41
1
10
161.844169652226
20
6.16867942477137
30
0
41
1
10
161.880705345028
20
6.06002450700043
30
0
41
1
10
161.935052141146
20
5.8968229711023
30
0
41
1
10
161.953101621001
20
5.84235489772664
30
0
41
1
10
161.988980265989
20
5.73350102848369
30
0
41
1
10
162.006803327535
20
5.67913412579199
30
0
41
1
10
162.095300646063
20
5.40758750149047
30
0
41
1
10
162.164142593468
20
5.19127423051273
30
0
41
1
10
162.296655101688
20
4.76014224411378
30
0
41
1
10
162.360334396747
20
4.5453249500797
30
0
41
1
10
162.480585180857
20
4.11673902106796
30
0
41
1
10
162.537166880599
20
3.90297133006266
30
0
41
1
10
162.640304657989
20
3.4759047680171
30
0
41
1
10
162.686865399115
20
3.26260418731252
30
0
41
1
10
162.736201319316
20
2.99582539757347
30
0
41
1
10
162.745631880426
20
2.94240263466017
30
0
41
1
10
162.763474419589
20
2.83582711867206
30
0
41
1
10
162.788689363523
20
2.67651903331358
30
0
41
1
10
162.808985860832
20
2.5188973773995
30
0
41
1
10
162.842357859092
20
2.2059884441212
30
0
41
1
10
162.854906980624
20
2.00048400018289
30
0
41
1
10
162.858241945603
20
1.59640244262843
30
0
41
1
10
162.849007787929
20
1.39782861396267
30
0
41
1
10
162.826442444318
20
1.17891287335485
30
0
41
1
10
162.823767750787
20
1.15465127513241
30
0
41
1
10
162.818086580988
20
1.10625507997901
30
0
41
1
10
162.815077748643
20
1.08210422737611
30
0
41
1
10
162.805591040286
20
1.01007909504639
30
0
41
1
10
162.784757589276
20
0.867553973362277
30
0
41
1
10
162.75866513692
20
0.729548913343478
30
0
41
1
10
162.700340358363
20
0.459422171525063
30
0
41
1
10
162.653304104213
20
0.287171297233016
30
0
41
1
10
162.547152197346
20
-0.0422612929204718
30
0
41
1
10
162.488045585738
20
-0.19944747245853
30
0
41
1
10
162.408570352499
20
-0.386646863875996
30
0
41
1
10
162.392373837358
20
-0.423663001324854
30
0
41
1
10
162.3595555144
20
-0.49653818677092
30
0
41
1
10
162.309712651235
20
-0.604071443412181
30
0
41
1
10
162.258213876856
20
-0.706369833068919
30
0
41
1
10
162.153407206257
20
-0.904193677750271
30
0
41
1
10
162.081147725327
20
-1.02706445059516
30
0
41
1
10
161.933249860181
20
-1.25537119660461
30
0
41
1
10
161.857601544907
20
-1.36080396828075
30
0
41
1
10
161.761382743414
20
-1.48170719918681
30
0
41
1
10
161.742054840788
20
-1.50534218135098
30
0
41
1
10
161.703237897586
20
-1.55151609698723
30
0
41
1
10
161.683752240138
20
-1.57404919192859
30
0
41
1
10
161.625322383642
20
-1.63971395579057
30
0
41
1
10
161.58632008945
20
-1.68101589140156
30
0
41
1
10
161.469227033086
20
-1.79766160104052
30
0
41
1
10
161.391055912707
20
-1.86576020674258
30
0
41
1
10
161.234637560795
20
-1.98310049526046
30
0
41
1
10
161.156387907139
20
-2.03234029423726
30
0
41
1
10
160.999788182204
20
-2.11197312711781
30
0
41
1
10
160.9214370063
20
-2.14236623283969
30
0
41
1
10
160.823352944094
20
-2.16831646705035
30
0
41
1
10
160.803736926676
20
-2.17289949957441
30
0
41
1
10
160.764667092321
20
-2.18082068207755
30
0
41
1
10
160.706239091537
20
-2.19085327972505
30
0
41
1
10
160.64832240378
20
-2.19539886527855
30
0
41
1
10
160.533120475031
20
-2.19729536236324
30
0
41
1
10
160.381201353339
20
-2.18066333482256
30
0
41
1
10
160.157578010808
20
-2.09922591649777
30
0
41
1
10
160.010809530509
20
-2.00717616410404
30
0
41
1
10
159.864934029789
20
-1.89581776875795
30
0
41
1
10
159.79304822706
20
-1.83094475914578
30
0
41
1
10
159.722074207823
20
-1.75696983216352
30
0
0
SPLINE
5
C9
100
AcDbEntity
8
1
62
256
6
ByLayer
370
18
48
1
60
0
100
AcDbSpline
70
4
71
3
72
18
73
14
40
0
40
0
40
0
40
0
40
0.0409590224321869
40
0.0409590224321869
40
0.200799185360159
40
0.200799185360159
40
0.280719266824144
40
0.280719266824144
40
0.36063934828813
40
0.36063934828813
40
0.680319674144065
40
0.680319674144065
40
1
40
1
40
1
40
1
41
1
10
151.182505611883
20
12.3014646588161
30
0
41
1
10
151.299133738392
20
12.3014851723324
30
0
41
1
10
151.415748797424
20
12.3012869799081
30
0
41
1
10
151.987379563576
20
12.29924288415
30
0
41
1
10
152.442198624752
20
12.2942747821081
30
0
41
1
10
153.124065821651
20
12.2817309286382
30
0
41
1
10
153.351269900476
20
12.2766949967358
30
0
41
1
10
153.805724679199
20
12.2649430792804
30
0
41
1
10
154.033007869653
20
12.2582356247185
30
0
41
1
10
155.169667866989
20
12.2205793260955
30
0
41
1
10
156.079729366797
20
12.177308678594
30
0
41
1
10
157.90053239515
20
12.0646454529659
30
0
41
1
10
158.811288264972
20
11.9952558851791
30
0
41
1
10
159.722074207832
20
11.9123531606264
30
0
0
SPLINE
5
CA
100
AcDbEntity
8
1
62
256
6
ByLayer
370
18
48
1
60
0
100
AcDbSpline
70
4
71
3
72
47
73
43
40
0
40
0
40
0
40
0
40
0.075849515236921
40
0.075849515236921
40
0.151699030473842
40
0.151699030473842
40
0.227548545710763
40
0.227548545710763
40
0.265473303329224
40
0.265473303329224
40
0.284435682138454
40
0.284435682138454
40
0.303398060947684
40
0.303398060947684
40
0.379247576184601
40
0.379247576184601
40
0.455097091421518
40
0.455097091421518
40
0.530946606658435
40
0.530946606658435
40
0.549908985467664
40
0.549908985467664
40
0.568871364276893
40
0.568871364276893
40
0.606796121895351
40
0.606796121895351
40
0.682645637132268
40
0.682645637132268
40
0.758495152369185
40
0.758495152369185
40
0.796419909987644
40
0.796419909987644
40
0.834344667606103
40
0.834344667606103
40
0.853307046415334
40
0.853307046415334
40
0.872269425224564
40
0.910194182843025
40
0.910194182843025
40
0.986043698079944
40
0.986043698079944
40
1
40
1
40
1
40
1
41
1
10
18.8290451156013
20
-8.22019067385978
30
0
41
1
10
19.5065574384632
20
-8.38847501958193
30
0
41
1
10
20.1840653154138
20
-8.55054963214727
30
0
41
1
10
21.5387831282043
20
-8.86325061571239
30
0
41
1
10
22.2159921830641
20
-9.01387732733954
30
0
41
1
10
23.5698399916506
20
-9.30430345893333
30
0
41
1
10
24.2464761309699
20
-9.44410714561442
30
0
41
1
10
25.260802160932
20
-9.64593469486991
30
0
41
1
10
25.5988071877883
20
-9.71189349822288
30
0
41
1
10
26.1056408308741
20
-9.80885669750194
30
0
41
1
10
26.2745471131799
20
-9.84086269084273
30
0
41
1
10
26.6123842475085
20
-9.90408206789633
30
0
41
1
10
26.7813304122837
20
-9.9352720940511
30
0
41
1
10
27.62621520403
20
-10.0891152887455
30
0
41
1
10
28.3025734452567
20
-10.2055271147748
30
0
41
1
10
29.655816014521
20
-10.4258008788211
30
0
41
1
10
30.3327140069241
20
-10.5296413885301
30
0
41
1
10
31.6867956026857
20
-10.7250522512247
30
0
41
1
10
32.3639713639722
20
-10.8166314828357
30
0
41
1
10
33.2104766081326
20
-10.9234282021154
30
0
41
1
10
33.3797797167963
20
-10.944402697369
30
0
41
1
10
33.7183877315163
20
-10.985577813017
30
0
41
1
10
33.8876918043932
20
-11.005778431397
30
0
41
1
10
34.3957998225566
20
-11.0650202887595
30
0
41
1
10
34.7347782917933
20
-11.1027218756735
30
0
41
1
10
35.7513647614652
20
-11.210498630323
30
0
41
1
10
36.4289470300358
20
-11.2753059754883
30
0
41
1
10
37.7835488326697
20
-11.391298625672
30
0
41
1
10
38.4605755949979
20
-11.4424781040575
30
0
41
1
10
39.4754923270488
20
-11.5091129126143
30
0
41
1
10
39.8136936022059
20
-11.5296328305898
30
0
41
1
10
40.4898604092055
20
-11.5672685843142
30
0
41
1
10
40.8278168837768
20
-11.5843877771004
30
0
41
1
10
41.3345868656191
20
-11.6074717490369
30
0
41
1
10
41.5035004867286
20
-11.614726516929
30
0
41
1
10
41.8414057149073
20
-11.6283260579781
30
0
41
1
10
42.3483469321742
20
-11.6473735580007
30
0
41
1
10
42.8555063328154
20
-11.6624106772809
30
0
41
1
10
43.8700361546942
20
-11.6872162990705
30
0
41
1
10
44.5466725395029
20
-11.6967371951286
30
0
41
1
10
45.3479924778446
20
-11.6997670130094
30
0
41
1
10
45.4725269361876
20
-11.7000021813588
30
0
41
1
10
45.5970656578893
20
-11.700000952274
30
0
0
SPLINE
5
CB
100
AcDbEntity
8
1
62
256
6
ByLayer
370
18
48
1
60
0
100
AcDbSpline
70
4
71
3
72
41
73
37
40
0
40
0
40
0
40
0
40
0.0905783760013859
40
0.0905783760013859
40
0.181520538401257
40
0.181520538401257
40
0.204256079001222
40
0.204256079001222
40
0.226991619601189
40
0.226991619601189
40
0.272462700801118
40
0.272462700801118
40
0.317933782001046
40
0.317933782001046
40
0.363404863200975
40
0.363404863200975
40
0.454347025600835
40
0.454347025600835
40
0.499818106800765
40
0.522553647400731
40
0.522553647400731
40
0.545289188000696
40
0.545289188000696
40
0.636231350400554
40
0.636231350400554
40
0.727173512800411
40
0.727173512800411
40
0.818115675200268
40
0.818115675200268
40
0.863586756400199
40
0.863586756400199
40
0.886322297000166
40
0.886322297000166
40
0.909057837600133
40
0.909057837600133
40
1
40
1
40
1
40
1
41
1
10
126.467500126508
20
8.56927362537692
30
0
41
1
10
127.141592547489
20
8.72752930862373
30
0
41
1
10
127.815731973139
20
8.88054750443598
30
0
41
1
10
129.166537128354
20
9.17719095734469
30
0
41
1
10
129.843195883871
20
9.32078632211889
30
0
41
1
10
130.68876991418
20
9.49407025471015
30
0
41
1
10
130.857863109027
20
9.52843116930458
30
0
41
1
10
131.196099897059
20
9.59639865490973
30
0
41
1
10
131.365260545844
20
9.62997687628456
30
0
41
1
10
131.87288803315
20
9.72947145301035
30
0
41
1
10
132.211488191306
20
9.79416905779098
30
0
41
1
10
132.888996279831
20
9.92042207176755
30
0
41
1
10
133.22790307729
20
9.98197906997893
30
0
41
1
10
133.905985753326
20
10.1020255395887
30
0
41
1
10
134.24523344116
20
10.1605261529563
30
0
41
1
10
135.262549132389
20
10.3313666379257
30
0
41
1
10
135.940322549932
20
10.4390825886475
30
0
41
1
10
136.956115105789
20
10.5916090030742
30
0
41
1
10
137.463795364827
20
10.6656050709938
30
0
41
1
10
137.971122192833
20
10.7361949942646
30
0
41
1
10
138.309258496604
20
10.7824950899561
30
0
41
1
10
138.478283201844
20
10.8052674014725
30
0
41
1
10
139.323520651033
20
10.9168689532729
30
0
41
1
10
140.000028828211
20
10.9990019710861
30
0
41
1
10
141.353271866168
20
11.1497384395958
30
0
41
1
10
142.03001811947
20
11.218326658654
30
0
41
1
10
143.383498897018
20
11.3422111885265
30
0
41
1
10
144.060226128579
20
11.3975129939973
30
0
41
1
10
145.075112424727
20
11.4704562856141
30
0
41
1
10
145.413367892358
20
11.4931028310322
30
0
41
1
10
145.920708904207
20
11.524521995187
30
0
41
1
10
146.089830995471
20
11.534561149227
30
0
41
1
10
146.4281957063
20
11.5537234026627
30
0
41
1
10
146.597427117897
20
11.562852654093
30
0
41
1
10
147.443811408757
20
11.6062636170596
30
0
41
1
10
148.121634143614
20
11.6338591470142
30
0
41
1
10
148.8
20
11.6544753394348
30
0
0
SPLINE
5
CC
100
AcDbEntity
8
1
62
256
6
ByLayer
370
18
48
1
60
0
100
AcDbSpline
70
4
71
4
72
10
73
5
40
0
40
0
40
0
40
0
40
0
40
1
40
1
40
1
40
1
40
1
41
0.99624199405236
10
14.0008303860732
20
-7.41566228990691
30
0
41
0.995479606833336
10
13.8511317733437
20
-8.00338615231404
30
0
41
0.995170067313492
10
13.7213023302919
20
-8.63766824803301
30
0
41
0.995651737399667
10
13.6162906985472
20
-9.30327609085991
30
0
41
0.996522744747036
10
13.5373144633969
20
-9.98018487608418
30
0
0
SPLINE
5
CD
100
AcDbEntity
8
1
62
256
6
ByLayer
370
18
48
1
60
0
100
AcDbSpline
70
4
71
3
72
76
73
72
40
0
40
0
40
0
40
0
40
0.0110943463962977
40
0.0110943463962977
40
0.0221886927925954
40
0.0221886927925954
40
0.0443773855851908
40
0.0443773855851908
40
0.0887547711703816
40
0.0887547711703816
40
0.133132156755572
40
0.133132156755572
40
0.155320849548167
40
0.166415195944464
40
0.166415195944464
40
0.177509542340761
40
0.177509542340761
40
0.221886927925946
40
0.221886927925946
40
0.266264313511131
40
0.266264313511131
40
0.310641699096315
40
0.310641699096315
40
0.321736045492611
40
0.321736045492611
40
0.332830391888907
40
0.332830391888907
40
0.3550190846815
40
0.3550190846815
40
0.399396470266684
40
0.399396470266684
40
0.443773855851868
40
0.443773855851868
40
0.465962548644461
40
0.465962548644461
40
0.488151241437054
40
0.488151241437054
40
0.510339934229647
40
0.510339934229647
40
0.53252862702224
40
0.53252862702224
40
0.576906012607425
40
0.576906012607425
40
0.621283398192609
40
0.621283398192609
40
0.643472090985202
40
0.643472090985202
40
0.665660783777795
40
0.665660783777795
40
0.710038169362981
40
0.710038169362981
40
0.754415554948168
40
0.754415554948168
40
0.798792940533354
40
0.798792940533354
40
0.80988728692965
40
0.80988728692965
40
0.820981633325947
40
0.820981633325947
40
0.84317032611854
40
0.84317032611854
40
0.887547711703726
40
0.887547711703726
40
0.931925097288912
40
0.931925097288912
40
0.954113790081504
40
0.954113790081504
40
0.9652081364778
40
0.9652081364778
40
0.976302482874096
40
1
40
1
40
1
40
1
41
1
10
148.8
20
1.88272220281928
30
0
41
1
10
148.623617750364
20
1.94313511226093
30
0
41
1
10
148.447288377497
20
2.00351585093821
30
0
41
1
10
148.094738414639
20
2.12422000902362
30
0
41
1
10
147.918520311482
20
2.18455040099195
30
0
41
1
10
147.389879041149
20
2.36501582187424
30
0
41
1
10
147.03748104163
20
2.48466199303772
30
0
41
1
10
145.980394124496
20
2.84169027728419
30
0
41
1
10
145.275813568991
20
3.07716921606055
30
0
41
1
10
143.867064323827
20
3.54347561201368
30
0
41
1
10
143.162893342688
20
3.77429690967105
30
0
41
1
10
142.10706334211
20
4.11735050413324
30
0
41
1
10
141.579256327009
20
4.2880851543087
30
0
41
1
10
141.051634771534
20
4.45768148976523
30
0
41
1
10
140.699931109821
20
4.57049804496816
30
0
41
1
10
140.52410820369
20
4.62680080024444
30
0
41
1
10
139.644898866226
20
4.90714347516288
30
0
41
1
10
138.94112350021
20
5.1273995479051
30
0
41
1
10
137.532887763345
20
5.56032135615672
30
0
41
1
10
136.828427945455
20
5.77298859800132
30
0
41
1
10
135.418960016099
20
6.19108919762289
30
0
41
1
10
134.713952831903
20
6.39652545705718
30
0
41
1
10
133.832453703712
20
6.64899546908342
30
0
41
1
10
133.656141758195
20
6.69927263200535
30
0
41
1
10
133.303495950448
20
6.79939637165376
30
0
41
1
10
133.127159695278
20
6.84926393901333
30
0
41
1
10
132.598225993113
20
6.99794561862075
30
0
41
1
10
132.245582565582
20
7.09571285927396
30
0
41
1
10
131.187571461064
20
7.38495785747409
30
0
41
1
10
130.482140629168
20
7.57242629152432
30
0
41
1
10
129.071230684804
20
7.93705961741503
30
0
41
1
10
128.365749472464
20
8.11422038284195
30
0
41
1
10
127.307606087071
20
8.3724414951256
30
0
41
1
10
126.954905775851
20
8.45726254970745
30
0
41
1
10
126.249553803225
20
8.62441737641484
30
0
41
1
10
125.896924672179
20
8.70679432322004
30
0
41
1
10
125.191628174822
20
8.8688604005155
30
0
41
1
10
124.839000740184
20
8.94828410689041
30
0
41
1
10
124.133870350663
20
9.10382213545219
30
0
41
1
10
123.781355626994
20
9.1799619440408
30
0
41
1
10
122.723986150794
20
9.40358643047071
30
0
41
1
10
122.019304411309
20
9.54628078647488
30
0
41
1
10
120.610533273493
20
9.8192097548081
30
0
41
1
10
119.906443760973
20
9.94944525840634
30
0
41
1
10
118.850887901269
20
10.1355609181359
30
0
41
1
10
118.499145745055
20
10.1960764381777
30
0
41
1
10
117.795813986021
20
10.3139288015002
30
0
41
1
10
117.44410674856
20
10.3710999036766
30
0
41
1
10
116.388682845365
20
10.5371556455775
30
0
41
1
10
115.68474574668
20
10.6407056864746
30
0
41
1
10
114.27636463914
20
10.8338198450156
30
0
41
1
10
113.571918790065
20
10.9233823046549
30
0
41
1
10
112.162664379206
20
11.088607914025
30
0
41
1
10
111.457874138167
20
11.1642878324906
30
0
41
1
10
110.576724709254
20
11.2500677073473
30
0
41
1
10
110.400471254012
20
11.266768684401
30
0
41
1
10
110.047840683109
20
11.2992004898844
30
0
41
1
10
109.871451535211
20
11.3149404035464
30
0
41
1
10
109.342362297792
20
11.3607153056101
30
0
41
1
10
108.989696439049
20
11.3893104672343
30
0
41
1
10
107.93190246279
20
11.4694085978172
30
0
41
1
10
107.226976522173
20
11.5152319841964
30
0
41
1
10
105.817791511923
20
11.5919284780053
30
0
41
1
10
105.113531363269
20
11.6228022915021
30
0
41
1
10
104.057773684523
20
11.6578515082701
30
0
41
1
10
103.705961536463
20
11.6676555646028
30
0
41
1
10
103.178412187465
20
11.6795137990513
30
0
41
1
10
103.002583993275
20
11.682989804043
30
0
41
1
10
102.650874521111
20
11.6889743538842
30
0
41
1
10
102.099335832634
20
11.6968453464448
30
0
41
1
10
101.547622999022
20
11.7000122445554
30
0
41
1
10
101.171768537337
20
11.7000020552525
30
0
0
SPLINE
5
CE
100
AcDbEntity
8
1
62
256
6
ByLayer
370
18
48
1
60
0
100
AcDbSpline
70
4
71
3
72
14
73
10
40
0
40
0
40
0
40
0
40
0.0589711095408071
40
0.0589711095408071
40
0.372647406360538
40
0.372647406360538
40
0.686323703180271
40
0.686323703180271
40
1
40
1
40
1
40
1
41
1
10
20.2723893626825
20
-8.57481359461255
30
0
41
1
10
20.1402448659703
20
-8.60602761103729
30
0
41
1
10
20.0080835517
20
-8.63702432557884
30
0
41
1
10
19.1728224928687
20
-8.83151372836241
30
0
41
1
10
18.4692706566521
20
-8.98911522147662
30
0
41
1
10
17.061359600496
20
-9.29244827879251
30
0
41
1
10
16.3569988595513
20
-9.43817753639334
30
0
41
1
10
14.9476101309281
20
-9.71794101473091
30
0
41
1
10
14.2425829026743
20
-9.85197817553296
30
0
41
1
10
13.5373144633969
20
-9.98018487608417
30
0
0
SPLINE
5
CF
100
AcDbEntity
8
1
62
256
6
ByLayer
370
18
48
1
60
0
100
AcDbSpline
70
4
71
3
72
8
73
4
40
0
40
0
40
0
40
0
40
1
40
1
40
1
40
1
41
1
10
148.8
20
-12.2706811699078
30
0
41
1
10
149.594619342975
20
-12.2910579879633
30
0
41
1
10
150.38886511194
20
-12.3013250681514
30
0
41
1
10
151.182505772765
20
-12.3014646588444
30
0
0
SPLINE
5
D0
100
AcDbEntity
8
1
62
256
6
ByLayer
370
18
48
1
60
0
100
AcDbSpline
70
4
71
3
72
207
73
203
40
0
40
0
40
0
40
0
40
0.0045978114677776
40
0.0045978114677776
40
0.0203978462063841
40
0.0203978462063841
40
0.0361978809449905
40
0.0361978809449905
40
0.0440978983142937
40
0.0440978983142937
40
0.0480479069989453
40
0.0480479069989453
40
0.0519979156835969
40
0.0519979156835969
40
0.0677979504222025
40
0.0677979504222025
40
0.0835979851608081
40
0.0835979851608081
40
0.0993980198994136
40
0.0993980198994136
40
0.103348028584065
40
0.103348028584065
40
0.107298037268716
40
0.107298037268716
40
0.115198054638019
40
0.115198054638019
40
0.130998089376625
40
0.130998089376625
40
0.14679812411523
40
0.14679812411523
40
0.154698141484533
40
0.154698141484533
40
0.162598158853836
40
0.162598158853836
40
0.166548167538488
40
0.166548167538488
40
0.170498176223139
40
0.178398193592442
40
0.178398193592442
40
0.194198228331047
40
0.194198228331047
40
0.209998263069653
40
0.209998263069653
40
0.217898280438956
40
0.217898280438956
40
0.225798297808258
40
0.225798297808258
40
0.233698315177561
40
0.233698315177561
40
0.241598332546864
40
0.241598332546864
40
0.25739836728547
40
0.25739836728547
40
0.273198402024076
40
0.273198402024076
40
0.277148410708727
40
0.277148410708727
40
0.281098419393379
40
0.281098419393379
40
0.288998436762682
40
0.288998436762682
40
0.304798471501288
40
0.304798471501288
40
0.320598506239894
40
0.320598506239894
40
0.336398540978501
40
0.336398540978501
40
0.340348549663152
40
0.340348549663152
40
0.344298558347803
40
0.344298558347803
40
0.352198575717106
40
0.352198575717106
40
0.367998610455711
40
0.367998610455711
40
0.383798645194316
40
0.383798645194316
40
0.391698662563618
40
0.391698662563618
40
0.399598679932921
40
0.399598679932921
40
0.415398714671525
40
0.415398714671525
40
0.431198749410129
40
0.431198749410129
40
0.446998784148734
40
0.446998784148734
40
0.450948792833385
40
0.450948792833385
40
0.454898801518036
40
0.454898801518036
40
0.462798818887339
40
0.462798818887339
40
0.470698836256641
40
0.470698836256641
40
0.478598853625944
40
0.478598853625944
40
0.494398888364549
40
0.494398888364549
40
0.510198923103154
40
0.510198923103154
40
0.514148931787805
40
0.514148931787805
40
0.518098940472456
40
0.525998957841759
40
0.525998957841759
40
0.541798992580363
40
0.541798992580363
40
0.557599027318967
40
0.557599027318967
40
0.56549904468827
40
0.56549904468827
40
0.569449053372921
40
0.569449053372921
40
0.573399062057572
40
0.573399062057572
40
0.589199096796178
40
0.589199096796178
40
0.597099114165481
40
0.597099114165481
40
0.604999131534784
40
0.604999131534784
40
0.620799166273391
40
0.620799166273391
40
0.624749174958043
40
0.624749174958043
40
0.628699183642695
40
0.628699183642695
40
0.636599201011999
40
0.636599201011999
40
0.652399235750606
40
0.652399235750606
40
0.668199270489213
40
0.668199270489213
40
0.68399930522782
40
0.68399930522782
40
0.687949313912472
40
0.687949313912472
40
0.691899322597124
40
0.691899322597124
40
0.699799339966428
40
0.699799339966428
40
0.715599374705035
40
0.715599374705035
40
0.731399409443643
40
0.731399409443643
40
0.739299426812946
40
0.739299426812946
40
0.743249435497598
40
0.743249435497598
40
0.747199444182251
40
0.747199444182251
40
0.762999478920858
40
0.762999478920858
40
0.770899496290163
40
0.770899496290163
40
0.778799513659467
40
0.778799513659467
40
0.794599548398075
40
0.794599548398075
40
0.80249956576738
40
0.80249956576738
40
0.806449574452031
40
0.806449574452031
40
0.810399583136683
40
0.810399583136683
40
0.826199617875291
40
0.826199617875291
40
0.841999652613898
40
0.841999652613898
40
0.857799687352505
40
0.857799687352505
40
0.861749696037157
40
0.861749696037157
40
0.865699704721809
40
0.865699704721809
40
0.873599722091114
40
0.873599722091114
40
0.881499739460419
40
0.881499739460419
40
0.889399756829724
40
0.889399756829724
40
0.905199791568334
40
0.905199791568334
40
0.913099808937639
40
0.917049817622292
40
0.917049817622292
40
0.920999826306944
40
0.920999826306944
40
0.936799861045556
40
0.936799861045556
40
0.952599895784167
40
0.952599895784167
40
0.968399930522778
40
0.968399930522778
40
0.976299947892084
40
0.976299947892084
40
0.980249956576736
40
0.980249956576736
40
0.984199965261389
40
0.984199965261389
40
1
40
1
40
1
40
1
41
1
10
20.2700554382172
20
8.56893996403468
30
0
41
1
10
20.4671886067948
20
8.61541938626078
30
0
41
1
10
20.6643127217934
20
8.66140211737456
30
0
41
1
10
21.5387831282044
20
8.86325061571239
30
0
41
1
10
22.2159921830642
20
9.01387732733954
30
0
41
1
10
23.5698399916507
20
9.30430345893336
30
0
41
1
10
24.2464761309699
20
9.44410714561442
30
0
41
1
10
25.2608021609321
20
9.64593469486994
30
0
41
1
10
25.5988071877884
20
9.71189349822291
30
0
41
1
10
26.105640830874
20
9.80885669750194
30
0
41
1
10
26.2745471131799
20
9.84086269084273
30
0
41
1
10
26.6123842475084
20
9.90408206789635
30
0
41
1
10
26.7813304122837
20
9.93527209405113
30
0
41
1
10
27.62621520403
20
10.0891152887455
30
0
41
1
10
28.3025734452567
20
10.2055271147748
30
0
41
1
10
29.655816014521
20
10.4258008788211
30
0
41
1
10
30.3327140069242
20
10.5296413885301
30
0
41
1
10
31.6867956026858
20
10.7250522512247
30
0
41
1
10
32.3639713639722
20
10.8166314828357
30
0
41
1
10
33.2104766081326
20
10.9234282021154
30
0
41
1
10
33.3797797167963
20
10.944402697369
30
0
41
1
10
33.7183877315163
20
10.985577813017
30
0
41
1
10
33.8876918043932
20
11.005778431397
30
0
41
1
10
34.3957998225566
20
11.0650202887595
30
0
41
1
10
34.7347782917933
20
11.1027218756735
30
0
41
1
10
35.7513647614652
20
11.210498630323
30
0
41
1
10
36.4289470300359
20
11.2753059754883
30
0
41
1
10
37.7835488326697
20
11.391298625672
30
0
41
1
10
38.4605755949979
20
11.4424781040575
30
0
41
1
10
39.4754923270488
20
11.5091129126143
30
0
41
1
10
39.8136936022059
20
11.5296328305898
30
0
41
1
10
40.4898604092055
20
11.5672685843142
30
0
41
1
10
40.8278168837768
20
11.5843877771004
30
0
41
1
10
41.3345868656191
20
11.6074717490369
30
0
41
1
10
41.5035004867287
20
11.614726516929
30
0
41
1
10
41.8414057149073
20
11.6283260579781
30
0
41
1
10
42.3483469321742
20
11.6473735580007
30
0
41
1
10
42.8555063328155
20
11.6624106772809
30
0
41
1
10
43.8700361546942
20
11.6872162990705
30
0
41
1
10
44.5466725395029
20
11.6967371951286
30
0
41
1
10
45.9002536503269
20
11.7018551312443
30
0
41
1
10
46.5771941177106
20
11.6974527992791
30
0
41
1
10
47.5926341520474
20
11.6802349550752
30
0
41
1
10
47.9311203572863
20
11.6727239914806
30
0
41
1
10
48.6080834515227
20
11.6541011731169
30
0
41
1
10
48.946525362197
20
11.6429708617958
30
0
41
1
10
49.6239828349186
20
11.6172576359601
30
0
41
1
10
49.9630195373096
20
11.6026612844558
30
0
41
1
10
50.6409792940673
20
11.5700440951486
30
0
41
1
10
50.9799080400211
20
11.5520232857637
30
0
41
1
10
51.9964888946313
20
11.4928487055037
30
0
41
1
10
52.6739399847704
20
11.4465948038163
30
0
41
1
10
54.0280401843377
20
11.3403717239856
30
0
41
1
10
54.7046813014486
20
11.2803962644008
30
0
41
1
10
55.5498221705294
20
11.1965931061656
30
0
41
1
10
55.7188175867331
20
11.1793902770227
30
0
41
1
10
56.0567398756659
20
11.1440916755364
30
0
41
1
10
56.2256590727484
20
11.1259883268114
30
0
41
1
10
56.7324733734354
20
11.0704780719169
30
0
41
1
10
57.070455851519
20
11.031903438401
30
0
41
1
10
58.0846430005784
20
10.9114802989741
30
0
41
1
10
58.7610738955948
20
10.8249287914446
30
0
41
1
10
60.1142452207359
20
10.6391378270798
30
0
41
1
10
60.7909942212611
20
10.5399077689839
30
0
41
1
10
62.1445404304453
20
10.3283347021541
30
0
41
1
10
62.8213290698378
20
10.2159776840224
30
0
41
1
10
63.6672356550006
20
10.0669509503455
30
0
41
1
10
63.8364209317437
20
10.0367268721445
30
0
41
1
10
64.1749213862236
20
9.9756280130502
30
0
41
1
10
64.3442272369791
20
9.94473981428649
30
0
41
1
10
64.8523007439129
20
9.85105134722755
30
0
41
1
10
65.1912338959261
20
9.78722593827425
30
0
41
1
10
66.2085152095636
20
9.59158350115337
30
0
41
1
10
66.8864359137874
20
9.45578180819129
30
0
41
1
10
68.2414984742594
20
9.17311893567131
30
0
41
1
10
68.9186370676758
20
9.02625212429245
30
0
41
1
10
69.9335491592122
20
8.7971966452628
30
0
41
1
10
70.2717215872307
20
8.71938565112842
30
0
41
1
10
70.9477777597807
20
8.56076658473452
30
0
41
1
10
71.2856058832714
20
8.4798419058047
30
0
41
1
10
72.299487596871
20
8.23422182585719
30
0
41
1
10
72.9757594539081
20
8.06635432014443
30
0
41
1
10
74.3286154828531
20
7.72177893566709
30
0
41
1
10
75.0052130663286
20
7.54509730386567
30
0
41
1
10
76.3584821269714
20
7.18236400603791
30
0
41
1
10
77.0351456562414
20
6.99629388551455
30
0
41
1
10
77.8808679850715
20
6.75737053578703
30
0
41
1
10
78.0500074270703
20
6.70926932449748
30
0
41
1
10
78.3882735986305
20
6.61242251765424
30
0
41
1
10
78.5573910258508
20
6.5636538944762
30
0
41
1
10
79.0648373322936
20
6.41665176322735
30
0
41
1
10
79.4033399951181
20
6.31791991870318
30
0
41
1
10
80.0807391467616
20
6.11898969354738
30
0
41
1
10
80.419628441485
20
6.01877357528781
30
0
41
1
10
81.0977363015661
20
5.81673165722552
30
0
41
1
10
81.4369420423937
20
5.71491282310896
30
0
41
1
10
82.4540257101588
20
5.40723443302875
30
0
41
1
10
83.1317004297538
20
5.1990684493517
30
0
41
1
10
84.4860092725794
20
4.77590008463378
30
0
41
1
10
85.162638404026
20
4.5608837637086
30
0
41
1
10
86.0076350850864
20
4.28740921919101
30
0
41
1
10
86.1765925173174
20
4.23247203691233
30
0
41
1
10
86.5145555244098
20
4.12247284573294
30
0
41
1
10
87.0215641580684
20
3.95726548413677
30
0
41
1
10
87.5287338511219
20
3.7913577704515
30
0
41
1
10
88.5432078929438
20
3.45840712835476
30
0
41
1
10
89.2197002663088
20
3.23492016066655
30
0
41
1
10
90.5727794063887
20
2.78421788586357
30
0
41
1
10
91.2493641517144
20
2.55699704348174
30
0
41
1
10
92.2641047072866
20
2.21274205737313
30
0
41
1
10
92.6023298623289
20
2.09742201221459
30
0
41
1
10
93.1096176923264
20
1.92352888813613
30
0
41
1
10
93.2787023526694
20
1.8654036683829
30
0
41
1
10
93.6168666181436
20
1.74888029308565
30
0
41
1
10
93.7859581980249
20
1.69051676003593
30
0
41
1
10
94.6317237895125
20
1.39895132409592
30
0
41
1
10
95.3091351179474
20
1.16597247098406
30
0
41
1
10
96.3261431751658
20
0.816070355225577
30
0
41
1
10
96.6653785685836
20
0.699344183734524
30
0
41
1
10
97.3435966718856
20
0.465850793101111
30
0
41
1
10
97.6825961868937
20
0.349079560634181
30
0
41
1
10
98.6992135266136
20
-0.0014647077684913
30
0
41
1
10
99.3764453697686
20
-0.235484154132109
30
0
41
1
10
100.22218817093
20
-0.528850292982156
30
0
41
1
10
100.391297168818
20
-0.587564632097326
30
0
41
1
10
100.729432891805
20
-0.705083779771229
30
0
41
1
10
100.898451523766
20
-0.763912213537225
30
0
41
1
10
101.405458079965
20
-0.94031520079173
30
0
41
1
10
101.74350558901
20
-1.05748937876504
30
0
41
1
10
102.75786200041
20
-1.40749677225793
30
0
41
1
10
103.434304443728
20
-1.63905135383598
30
0
41
1
10
104.787281644002
20
-2.09954984360206
30
0
41
1
10
105.463827128347
20
-2.32846266199624
30
0
41
1
10
106.816753475889
20
-2.7844013778122
30
0
41
1
10
107.493128654868
20
-3.0114431606905
30
0
41
1
10
108.338363048112
20
-3.29440175596977
30
0
41
1
10
108.507389911263
20
-3.35097437573808
30
0
41
1
10
108.845519324455
20
-3.46375525926263
30
0
41
1
10
109.014632255187
20
-3.51993448993815
30
0
41
1
10
109.522110596321
20
-3.68785476967378
30
0
41
1
10
109.860612920574
20
-3.79898596492868
30
0
41
1
10
110.876586904112
20
-4.13017569375586
30
0
41
1
10
111.554549539396
20
-4.34805816733845
30
0
41
1
10
112.91132459709
20
-4.77868298140976
30
0
41
1
10
113.589458884975
20
-4.99121242573079
30
0
41
1
10
114.606067320078
20
-5.306347710598
30
0
41
1
10
114.944838787586
20
-5.41077944780301
30
0
41
1
10
115.452829835007
20
-5.56654067226916
30
0
41
1
10
115.622131717694
20
-5.61831523825737
30
0
41
1
10
115.960680569358
20
-5.72156425068928
30
0
41
1
10
116.129932834462
20
-5.77302483426803
30
0
41
1
10
116.976399066044
20
-6.02871485243088
30
0
41
1
10
117.654079192271
20
-6.22849489471056
30
0
41
1
10
118.671048384399
20
-6.52189747434687
30
0
41
1
10
119.010115885533
20
-6.61864478841079
30
0
41
1
10
119.68837378412
20
-6.81011596271108
30
0
41
1
10
120.027619735064
20
-6.90485356468787
30
0
41
1
10
121.044895861927
20
-7.18598293782225
30
0
41
1
10
121.722555269545
20
-7.36933883559576
30
0
41
1
10
122.738067237932
20
-7.63860590497683
30
0
41
1
10
123.076393154685
20
-7.72743144572246
30
0
41
1
10
123.583676336791
20
-7.85911399795521
30
0
41
1
10
123.752761028814
20
-7.90269512597527
30
0
41
1
10
124.090983404603
20
-7.98907947828374
30
0
41
1
10
124.260111160754
20
-8.03190443343291
30
0
41
1
10
125.105815783273
20
-8.24424298801242
30
0
41
1
10
125.782578764729
20
-8.40843306100987
30
0
41
1
10
127.13617750627
20
-8.72630010605067
30
0
41
1
10
127.813024816435
20
-8.8799529995149
30
0
41
1
10
129.166537128354
20
-9.17719095734472
30
0
41
1
10
129.843195883871
20
-9.32078632211892
30
0
41
1
10
130.68876991418
20
-9.49407025471018
30
0
41
1
10
130.857863109027
20
-9.52843116930467
30
0
41
1
10
131.196099897059
20
-9.59639865490973
30
0
41
1
10
131.365260545844
20
-9.62997687628459
30
0
41
1
10
131.87288803315
20
-9.72947145301038
30
0
41
1
10
132.211488191306
20
-9.79416905779104
30
0
41
1
10
132.888996279831
20
-9.92042207176758
30
0
41
1
10
133.22790307729
20
-9.98197906997896
30
0
41
1
10
133.905985753326
20
-10.1020255395887
30
0
41
1
10
134.24523344116
20
-10.1605261529563
30
0
41
1
10
135.262549132389
20
-10.3313666379258
30
0
41
1
10
135.940322549932
20
-10.4390825886475
30
0
41
1
10
136.956115105789
20
-10.5916090030743
30
0
41
1
10
137.463795364827
20
-10.6656050709937
30
0
41
1
10
137.971122192833
20
-10.7361949942647
30
0
41
1
10
138.309258496604
20
-10.7824950899561
30
0
41
1
10
138.478283201844
20
-10.8052674014725
30
0
41
1
10
139.323520651033
20
-10.916868953273
30
0
41
1
10
140.000028828211
20
-10.9990019710861
30
0
41
1
10
141.353271866168
20
-11.1497384395958
30
0
41
1
10
142.03001811947
20
-11.218326658654
30
0
41
1
10
143.383498897018
20
-11.3422111885265
30
0
41
1
10
144.060226128579
20
-11.3975129939973
30
0
41
1
10
145.075112424727
20
-11.4704562856141
30
0
41
1
10
145.413367892358
20
-11.4931028310322
30
0
41
1
10
145.920708904207
20
-11.524521995187
30
0
41
1
10
146.089830995471
20
-11.534561149227
30
0
41
1
10
146.4281957063
20
-11.5537234026627
30
0
41
1
10
146.597427117897
20
-11.562852654093
30
0
41
1
10
147.443811408757
20
-11.6062636170596
30
0
41
1
10
148.121634143614
20
-11.6338591470142
30
0
41
1
10
148.8
20
-11.6544753394348
30
0
0
SPLINE
5
D1
100
AcDbEntity
8
1
62
256
6
ByLayer
370
18
48
1
60
0
100
AcDbSpline
70
4
71
3
72
166
73
162
40
0
40
0
40
0
40
0
40
0.0081592902441295
40
0.0081592902441295
40
0.0175162780720143
40
0.0175162780720143
40
0.026873265899899
40
0.026873265899899
40
0.0455872415556692
40
0.0455872415556692
40
0.0643012172114394
40
0.0643012172114394
40
0.0736582050393248
40
0.0736582050393248
40
0.0830151928672103
40
0.0830151928672103
40
0.101729168522981
40
0.101729168522981
40
0.120443144178752
40
0.120443144178752
40
0.139157119834523
40
0.139157119834523
40
0.143835613748466
40
0.143835613748466
40
0.148514107662409
40
0.148514107662409
40
0.157871095490295
40
0.157871095490295
40
0.176585071146067
40
0.176585071146067
40
0.195299046801838
40
0.195299046801838
40
0.204656034629724
40
0.204656034629724
40
0.209334528543666
40
0.209334528543666
40
0.214013022457609
40
0.23272699811338
40
0.23272699811338
40
0.251440973769151
40
0.251440973769151
40
0.270154949424922
40
0.270154949424922
40
0.274833443338864
40
0.274833443338864
40
0.279511937252807
40
0.279511937252807
40
0.288868925080694
40
0.288868925080694
40
0.307582900736466
40
0.307582900736466
40
0.326296876392239
40
0.326296876392239
40
0.335653864220126
40
0.335653864220126
40
0.340332358134069
40
0.340332358134069
40
0.345010852048012
40
0.363724827703785
40
0.363724827703785
40
0.382438803359558
40
0.382438803359558
40
0.401152779015331
40
0.401152779015331
40
0.405831272929274
40
0.405831272929274
40
0.410509766843216
40
0.410509766843216
40
0.419866754671102
40
0.419866754671102
40
0.424545248585045
40
0.424545248585045
40
0.429223742498988
40
0.438580730326873
40
0.438580730326873
40
0.457294705982644
40
0.457294705982644
40
0.466651693810531
40
0.466651693810531
40
0.476008681638416
40
0.476008681638416
40
0.494722657294189
40
0.494722657294189
40
0.513436632949961
40
0.513436632949961
40
0.532150608605733
40
0.532150608605733
40
0.541507596433619
40
0.541507596433619
40
0.550864584261505
40
0.550864584261505
40
0.560221572089392
40
0.560221572089392
40
0.569578559917278
40
0.569578559917278
40
0.58829253557305
40
0.58829253557305
40
0.597649523400936
40
0.597649523400936
40
0.607006511228822
40
0.607006511228822
40
0.625720486884595
40
0.625720486884595
40
0.644434462540367
40
0.644434462540367
40
0.66314843819614
40
0.66314843819614
40
0.667826932110083
40
0.667826932110083
40
0.672505426024026
40
0.672505426024026
40
0.681862413851912
40
0.681862413851912
40
0.691219401679798
40
0.691219401679798
40
0.700576389507684
40
0.700576389507684
40
0.719290365163455
40
0.719290365163455
40
0.728647352991341
40
0.733325846905284
40
0.733325846905284
40
0.738004340819226
40
0.738004340819226
40
0.756718316474997
40
0.756718316474997
40
0.775432292130767
40
0.775432292130767
40
0.794146267786537
40
0.794146267786537
40
0.79882476170048
40
0.79882476170048
40
0.803503255614422
40
0.803503255614422
40
0.812860243442307
40
0.812860243442307
40
0.831574219098076
40
0.831574219098076
40
0.84093120692596
40
0.84093120692596
40
0.850288194753845
40
0.859645182581729
40
0.864323676495672
40
0.864323676495672
40
0.869002170409614
40
0.869002170409614
40
0.887716146065383
40
0.887716146065383
40
0.906430121721153
40
0.906430121721153
40
0.925144097376922
40
0.925144097376922
40
0.934501085204806
40
0.934501085204806
40
0.943858073032691
40
0.943858073032691
40
0.962572048688461
40
0.962572048688461
40
0.98128602434423
40
0.98128602434423
40
1
40
1
40
1
40
1
41
1
10
126.466804020226
20
-8.57287446751454
30
0
41
1
10
126.159280195648
20
-8.64548391140946
30
0
41
1
10
125.85178557794
20
-8.71716657937534
30
0
41
1
10
125.191628174822
20
-8.8688604005155
30
0
41
1
10
124.839000740184
20
-8.94828410689041
30
0
41
1
10
124.133870350663
20
-9.10382213545219
30
0
41
1
10
123.781355626994
20
-9.17996194404083
30
0
41
1
10
122.723986150794
20
-9.40358643047071
30
0
41
1
10
122.019304411309
20
-9.54628078647488
30
0
41
1
10
120.610533273493
20
-9.81920975480813
30
0
41
1
10
119.906443760972
20
-9.94944525840637
30
0
41
1
10
118.850887901268
20
-10.1355609181359
30
0
41
1
10
118.499145745055
20
-10.1960764381777
30
0
41
1
10
117.795813986021
20
-10.3139288015002
30
0
41
1
10
117.44410674856
20
-10.3710999036766
30
0
41
1
10
116.388682845365
20
-10.5371556455775
30
0
41
1
10
115.68474574668
20
-10.6407056864746
30
0
41
1
10
114.27636463914
20
-10.8338198450156
30
0
41
1
10
113.571918790065
20
-10.9233823046549
30
0
41
1
10
112.162664379206
20
-11.088607914025
30
0
41
1
10
111.457874138167
20
-11.1642878324907
30
0
41
1
10
110.576724709254
20
-11.2500677073473
30
0
41
1
10
110.400471254012
20
-11.266768684401
30
0
41
1
10
110.047840683109
20
-11.2992004898844
30
0
41
1
10
109.871451535211
20
-11.3149404035464
30
0
41
1
10
109.342362297792
20
-11.3607153056101
30
0
41
1
10
108.989696439049
20
-11.3893104672343
30
0
41
1
10
107.93190246279
20
-11.4694085978172
30
0
41
1
10
107.226976522173
20
-11.5152319841964
30
0
41
1
10
105.817791511923
20
-11.5919284780053
30
0
41
1
10
105.113531363268
20
-11.6228022915021
30
0
41
1
10
104.057773684523
20
-11.6578515082701
30
0
41
1
10
103.705961536462
20
-11.6676555646029
30
0
41
1
10
103.178412187465
20
-11.6795137990513
30
0
41
1
10
103.002583993275
20
-11.682989804043
30
0
41
1
10
102.650874521111
20
-11.6889743538842
30
0
41
1
10
101.77150781846
20
-11.7015237704877
30
0
41
1
10
100.89169842611
20
-11.7021150341708
30
0
41
1
10
99.4835719226729
20
-11.6879532796586
30
0
41
1
10
98.7792913064924
20
-11.6733190173648
30
0
41
1
10
97.3704404968805
20
-11.6288633881704
30
0
41
1
10
96.6658748145457
20
-11.5990418446748
30
0
41
1
10
95.7850904401517
20
-11.5520313331302
30
0
41
1
10
95.6089313564524
20
-11.5421401763584
30
0
41
1
10
95.2565039855561
20
-11.521429071214
30
0
41
1
10
95.0802394531475
20
-11.5106080803623
30
0
41
1
10
94.5512962446184
20
-11.4767543752735
30
0
41
1
10
94.1983975232559
20
-11.4523256683632
30
0
41
1
10
93.1401251394796
20
-11.3735790955798
30
0
41
1
10
92.4349192190022
20
-11.313795803913
30
0
41
1
10
91.0252488021285
20
-11.1797086088599
30
0
41
1
10
90.3207824846181
20
-11.1054072423379
30
0
41
1
10
89.2647690923339
20
-10.9828756399475
30
0
41
1
10
88.9128788912466
20
-10.9401830960441
30
0
41
1
10
88.3852318027191
20
-10.8733273993609
30
0
41
1
10
88.2093873746876
20
-10.8505648600791
30
0
41
1
10
87.8576756663081
20
-10.804191038883
30
0
41
1
10
86.9783161175389
20
-10.6861612232342
30
0
41
1
10
86.0985733264409
20
-10.5577288330578
30
0
41
1
10
84.6906285871292
20
-10.3389575319515
30
0
41
1
10
83.9864766916937
20
-10.2229341616579
30
0
41
1
10
82.5779565202055
20
-9.97738499724005
30
0
41
1
10
81.8735924109261
20
-9.84785405997616
30
0
41
1
10
80.9931079112718
20
-9.67716590212044
30
0
41
1
10
80.8170171448945
20
-9.64257576428651
30
0
41
1
10
80.4647706588074
20
-9.57261558603375
30
0
41
1
10
80.2886023720031
20
-9.53726726667415
30
0
41
1
10
79.7599502534388
20
-9.43014493222037
30
0
41
1
10
79.4073252459021
20
-9.35728380220812
30
0
41
1
10
78.8781158264837
20
-9.24581857651611
30
0
41
1
10
78.7016521692736
20
-9.2082976387112
30
0
41
1
10
78.3488063338998
20
-9.13256555165626
30
0
41
1
10
77.8196056263055
20
-9.01792072303573
30
0
41
1
10
77.2906169680954
20
-8.90013160358316
30
0
41
1
10
76.2329465232667
20
-8.66032835612245
30
0
41
1
10
75.5282386497103
20
-8.49483898439294
30
0
41
1
10
74.4719158878028
20
-8.23787334975037
30
0
41
1
10
74.119931595578
20
-8.1507611334244
30
0
41
1
10
73.4162318643002
20
-7.97355348636736
30
0
41
1
10
73.0645452562231
20
-7.88339171185203
30
0
41
1
10
72.0091900866025
20
-7.60992483300745
30
0
41
1
10
71.3054130315063
20
-7.42325757207252
30
0
41
1
10
69.8975776467722
20
-7.04106783369804
30
0
41
1
10
69.1935182089769
20
-6.84554795692614
30
0
41
1
10
67.7852562718676
20
-6.44532397319904
30
0
41
1
10
67.0810572662135
20
-6.24061221156055
30
0
41
1
10
66.024780512867
20
-5.92620993064799
30
0
41
1
10
65.6727354873631
20
-5.82006994376925
30
0
41
1
10
64.9682173771466
20
-5.60643837655823
30
0
41
1
10
64.6157774462384
20
-5.49886653177174
30
0
41
1
10
63.9105531823386
20
-5.28218543470348
30
0
41
1
10
63.5577522012687
20
-5.17306981404712
30
0
41
1
10
62.851893531025
20
-4.95328571440274
30
0
41
1
10
62.4990679938454
20
-4.84268982082884
30
0
41
1
10
61.4409263000278
20
-4.50873255873245
30
0
41
1
10
60.7359415439948
20
-4.28321329307738
30
0
41
1
10
59.6792558758069
20
-3.94025547183412
30
0
41
1
10
59.3271596351294
20
-3.82515474882248
30
0
41
1
10
58.6232538295867
20
-3.59332218029999
30
0
41
1
10
58.2714971372389
20
-3.47644160514935
30
0
41
1
10
57.2160557071782
20
-3.12502510040463
30
0
41
1
10
56.5122598455591
20
-2.88955462445625
30
0
41
1
10
55.1044616791058
20
-2.41591938881046
30
0
41
1
10
54.4004586131893
20
-2.17775679314394
30
0
41
1
10
52.9923829083294
20
-1.69834956959539
30
0
41
1
10
52.2883128525455
20
-1.45709777791359
30
0
41
1
10
51.4082904874714
20
-1.15325829087575
30
0
41
1
10
51.2322899685508
20
-1.09237445865207
30
0
41
1
10
50.8802945566673
20
-0.970380180584328
30
0
41
1
10
50.7042943506994
20
-0.909285134853491
30
0
41
1
10
50.1761419088246
20
-0.726130004749763
30
0
41
1
10
49.8238688626207
20
-0.604109569395263
30
0
41
1
10
49.1189965936452
20
-0.360193049452391
30
0
41
1
10
48.7663977451361
20
-0.238295861638562
30
0
41
1
10
48.0608920947696
20
0.0054241969062048
30
0
41
1
10
47.707918723874
20
0.127269472205313
30
0
41
1
10
46.6491295827712
20
0.492569941336626
30
0
41
1
10
45.943485447314
20
0.735767232628461
30
0
41
1
10
44.8854671242558
20
1.10041444420983
30
0
41
1
10
44.3565709758941
20
1.282703442279
30
0
41
1
10
43.8278683103648
20
1.46500472984962
30
0
41
1
10
43.4754457262275
20
1.5865490799047
30
0
41
1
10
43.2992583309001
20
1.64732901747055
30
0
41
1
10
42.4181734606096
20
1.95050071306673
30
0
41
1
10
41.7129004727389
20
2.19090685853425
30
0
41
1
10
40.3016810830522
20
2.66787940896171
30
0
41
1
10
39.5955931560141
20
2.90449113347489
30
0
41
1
10
38.1842121966192
20
3.37382337525909
30
0
41
1
10
37.478792980305
20
3.60659284110983
30
0
41
1
10
36.5974707593712
20
3.89545390609129
30
0
41
1
10
36.4212288460084
20
3.95312065593714
30
0
41
1
10
36.0687929126553
20
4.06824896543907
30
0
41
1
10
35.8926049658324
20
4.12572676714174
30
0
41
1
10
35.3639770005082
20
4.29748223628189
30
0
41
1
10
35.011462268745
20
4.41105462270693
30
0
41
1
10
33.9536525845272
20
4.74906076597779
30
0
41
1
10
33.2480939547033
20
4.97079138825902
30
0
41
1
10
32.1893300414932
20
5.29828377816176
30
0
41
1
10
31.8363270843609
20
5.40659930857686
30
0
41
1
10
31.1307980452671
20
5.62138902234918
30
0
41
1
10
30.4255954333037
20
5.83438314686276
30
0
41
1
10
29.5449662663037
20
6.09627513699104
30
0
41
1
10
29.0170065543197
20
6.25149538073177
30
0
41
1
10
28.6651292664422
20
6.35455398297771
30
0
41
1
10
28.4892461083304
20
6.40589103675794
30
0
41
1
10
27.6098981078006
20
6.66109013208828
30
0
41
1
10
26.9064431277635
20
6.86002962068019
30
0
41
1
10
25.4996736771139
20
7.24791595306473
30
0
41
1
10
24.7963631734677
20
7.43687252976747
30
0
41
1
10
23.390023457639
20
7.80516655160309
30
0
41
1
10
22.6869947726393
20
7.98450602934929
30
0
41
1
10
21.6327951134678
20
8.2464932195567
30
0
41
1
10
21.2814756283937
20
8.33269728221632
30
0
41
1
10
20.5788588381154
20
8.50254178559911
30
0
41
1
10
20.2274451388603
20
8.58594627802785
30
0
41
1
10
19.1728224928686
20
8.83151372836238
30
0
41
1
10
18.469270656652
20
8.98911522147662
30
0
41
1
10
17.061359600496
20
9.29244827879251
30
0
41
1
10
16.3569988595513
20
9.43817753639331
30
0
41
1
10
14.9476101309281
20
9.71794101473091
30
0
41
1
10
14.2425829026743
20
9.85197817553293
30
0
41
1
10
13.537314463397
20
9.98018487608414
30
0
0
SPLINE
5
D2
100
AcDbEntity
8
1
62
256
6
ByLayer
370
18
48
1
60
0
100
AcDbSpline
70
4
71
3
72
96
73
92
40
0
40
0
40
0
40
0
40
0.0624999999999901
40
0.0624999999999901
40
0.0937499999999851
40
0.0937499999999851
40
0.12499999999998
40
0.12499999999998
40
0.156249999999975
40
0.156249999999975
40
0.18749999999997
40
0.18749999999997
40
0.19531249999997
40
0.19531249999997
40
0.203124999999969
40
0.218749999999969
40
0.218749999999969
40
0.249999999999967
40
0.249999999999967
40
0.281249999999965
40
0.281249999999965
40
0.296874999999964
40
0.296874999999964
40
0.304687499999963
40
0.304687499999963
40
0.312499999999963
40
0.312499999999963
40
0.343749999999964
40
0.343749999999964
40
0.374999999999965
40
0.374999999999965
40
0.390624999999965
40
0.390624999999965
40
0.394531249999966
40
0.394531249999966
40
0.398437499999966
40
0.406249999999966
40
0.406249999999966
40
0.437499999999967
40
0.437499999999967
40
0.468749999999968
40
0.468749999999968
40
0.484374999999968
40
0.484374999999968
40
0.499999999999968
40
0.499999999999968
40
0.531249999999969
40
0.531249999999969
40
0.546874999999969
40
0.546874999999969
40
0.554687499999969
40
0.558593749999969
40
0.558593749999969
40
0.56249999999997
40
0.56249999999997
40
0.59374999999997
40
0.59374999999997
40
0.624999999999971
40
0.624999999999971
40
0.632812499999972
40
0.632812499999972
40
0.640624999999972
40
0.640624999999972
40
0.656249999999973
40
0.656249999999973
40
0.687499999999975
40
0.687499999999975
40
0.718749999999976
40
0.718749999999976
40
0.749999999999978
40
0.749999999999978
40
0.757812499999979
40
0.757812499999979
40
0.76562499999998
40
0.781249999999981
40
0.781249999999981
40
0.812499999999984
40
0.812499999999984
40
0.843749999999988
40
0.843749999999988
40
0.874999999999991
40
0.874999999999991
40
0.906249999999994
40
0.906249999999994
40
0.937499999999997
40
0.937499999999997
40
0.953124999999998
40
0.953124999999998
40
0.968749999999999
40
0.968749999999999
40
1
40
1
40
1
40
1
41
1
10
10
20
-7.68751153305305
30
0
41
1
10
9.55226224360544
20
-7.80702520316711
30
0
41
1
10
9.11552188329458
20
-7.94261316690748
30
0
41
1
10
8.47693969865239
20
-8.16804442143766
30
0
41
1
10
8.26683960961779
20
-8.24686509222062
30
0
41
1
10
7.85225223303379
20
-8.41154775886295
30
0
41
1
10
7.64776431427859
20
-8.49740957273988
30
0
41
1
10
7.24456774846365
20
-8.67588903019191
30
0
41
1
10
7.04585810721073
20
-8.76850642146286
30
0
41
1
10
6.65448404907013
20
-8.96024517480669
30
0
41
1
10
6.46181799404425
20
-9.05936613094491
30
0
41
1
10
6.22501595400641
20
-9.1872018531036
30
0
41
1
10
6.17787555477616
20
-9.21295691093252
30
0
41
1
10
6.08441448956978
20
-9.26462840681495
30
0
41
1
10
5.9453009906378
20
-9.34245917434475
30
0
41
1
10
5.80943674279416
20
-9.42120709755403
30
0
41
1
10
5.54210163574726
20
-9.57978459257907
30
0
41
1
10
5.36972636195122
20
-9.68694543265855
30
0
41
1
10
5.03720601798673
20
-9.9033999181367
30
0
41
1
10
4.8770567739235
20
-10.0126946493176
30
0
41
1
10
4.64667145741126
20
-10.1776564565946
30
0
41
1
10
4.57151928173417
20
-10.2328134032102
30
0
41
1
10
4.46137448062444
20
-10.31572673221
30
0
41
1
10
4.42504532285039
20
-10.3434291326655
30
0
41
1
10
4.3535056551269
20
-10.3986988937791
30
0
41
1
10
4.31832271814542
20
-10.4262438633764
30
0
41
1
10
4.1453608294336
20
-10.5634767719417
30
0
41
1
10
4.01641633541169
20
-10.6716922832174
30
0
41
1
10
3.77820954948678
20
-10.8838523298092
30
0
41
1
10
3.66893897725291
20
-10.9878002514648
30
0
41
1
10
3.52095941645837
20
-11.1395719023192
30
0
41
1
10
3.47429370390313
20
-11.1894693674341
30
0
41
1
10
3.41946959096083
20
-11.2508613444263
30
0
41
1
10
3.40867053951533
20
-11.2631021145171
30
0
41
1
10
3.38749906717612
20
-11.2874014496069
30
0
41
1
10
3.35636833591664
20
-11.3235913499201
30
0
41
1
10
3.32711318239927
20
-11.3589983542127
30
0
41
1
10
3.23375522585738
20
-11.4752558352969
30
0
41
1
10
3.1723414348329
20
-11.5626181300557
30
0
41
1
10
3.07642031070921
20
-11.7252831373062
30
0
41
1
10
3.0419072232061
20
-11.8005890087287
30
0
41
1
10
3.01134944714741
20
-11.9037552285714
30
0
41
1
10
3.0047063052489
20
-11.9365203769746
30
0
41
1
10
2.99880088466435
20
-11.9985834786996
30
0
41
1
10
2.99957497360833
20
-12.0274770815711
30
0
41
1
10
3.0127212923565
20
-12.1079412760487
30
0
41
1
10
3.0358864551385
20
-12.1533055174083
30
0
41
1
10
3.09144851187517
20
-12.2095086772896
30
0
41
1
10
3.11344643569083
20
-12.2262664716425
30
0
41
1
10
3.15162836456872
20
-12.248488148542
30
0
41
1
10
3.172016246227
20
-12.2588700248774
30
0
41
1
10
3.19434948296234
20
-12.2681660129852
30
0
41
1
10
3.20967099120341
20
-12.2741227518911
30
0
41
1
10
3.21755535295944
20
-12.2769831950531
30
0
41
1
10
3.29027484837184
20
-12.3015855965813
30
0
41
1
10
3.36730560875807
20
-12.3153641451135
30
0
41
1
10
3.5438395962552
20
-12.3288099998451
30
0
41
1
10
3.64335550139415
20
-12.328469826526
30
0
41
1
10
3.78088875139827
20
-12.320201845606
30
0
41
1
10
3.80905387917835
20
-12.3181551910793
30
0
41
1
10
3.86668373433832
20
-12.3132970403204
30
0
41
1
10
3.89617805125047
20
-12.310481720236
30
0
41
1
10
3.98610109484159
20
-12.3009742937911
30
0
41
1
10
4.04809708367327
20
-12.2932137029251
30
0
41
1
10
4.23982871587316
20
-12.2660726490109
30
0
41
1
10
4.37529331319132
20
-12.2428468858961
30
0
41
1
10
4.65984872575459
20
-12.1878847010141
30
0
41
1
10
4.80894640602651
20
-12.1561431012596
30
0
41
1
10
5.11951906069848
20
-12.0854984698686
30
0
41
1
10
5.28099824170101
20
-12.04659247264
30
0
41
1
10
5.48994614639719
20
-11.9941590527688
30
0
41
1
10
5.5320761935337
20
-11.9834853026754
30
0
41
1
10
5.6167265227825
20
-11.9618507178876
30
0
41
1
10
5.74439875154005
20
-11.9289401416638
30
0
41
1
10
5.87408879965446
20
-11.8947327140579
30
0
41
1
10
6.13598430067933
20
-11.8247728165028
30
0
41
1
10
6.3139310898147
20
-11.7760797684764
30
0
41
1
10
6.67571311878933
20
-11.6753733468153
30
0
41
1
10
6.85954972342532
20
-11.6233580197001
30
0
41
1
10
7.23241935371649
20
-11.5165883454851
30
0
41
1
10
7.42145292315902
20
-11.4618325740757
30
0
41
1
10
7.80411108816077
20
-11.3500135304938
30
0
41
1
10
7.99773562171149
20
-11.2929490320128
30
0
41
1
10
8.38905048261825
20
-11.1768328801504
30
0
41
1
10
8.58674030056414
20
-11.1177800065892
30
0
41
1
10
8.88599746527788
20
-11.027894247522
30
0
41
1
10
8.98624219654133
20
-10.9977026616548
30
0
41
1
10
9.1873520772634
20
-10.9369837719614
30
0
41
1
10
9.28822504262453
20
-10.9064541472186
30
0
41
1
10
9.59175248258205
20
-10.8143917695315
30
0
41
1
10
9.79531172618297
20
-10.7523845775453
30
0
41
1
10
9.99999999999997
20
-10.6898480032875
30
0
0
SPLINE
5
D3
100
AcDbEntity
8
1
62
256
6
ByLayer
370
18
48
1
60
0
100
AcDbSpline
70
4
71
3
72
37
73
33
40
0
40
0
40
0
40
0
40
0.0059212459982537
40
0.0059212459982537
40
0.0491420613896326
40
0.0491420613896326
40
0.135583692172391
40
0.135583692172391
40
0.222025322955148
40
0.222025322955148
40
0.308466953737906
40
0.308466953737906
40
0.330077361433597
40
0.330077361433597
40
0.351687769129287
40
0.394908584520668
40
0.394908584520668
40
0.481350215303429
40
0.481350215303429
40
0.567791846086191
40
0.567791846086191
40
0.654233476868953
40
0.654233476868953
40
0.740675107651715
40
0.740675107651715
40
0.827116738434477
40
0.827116738434477
40
0.870337553825858
40
0.870337553825858
40
0.913558369217238
40
0.913558369217238
40
1
40
1
40
1
40
1
41
1
10
3.90162572608847
20
12.3098372529807
30
0
41
1
10
3.90976251105994
20
12.3090227028161
30
0
41
1
10
3.91793943571994
20
12.3081809221989
30
0
41
1
10
3.98610109484159
20
12.3009742937911
30
0
41
1
10
4.04809708367327
20
12.2932137029251
30
0
41
1
10
4.23982871587319
20
12.2660726490109
30
0
41
1
10
4.37529331319135
20
12.2428468858961
30
0
41
1
10
4.65984872575459
20
12.1878847010141
30
0
41
1
10
4.80894640602651
20
12.1561431012595
30
0
41
1
10
5.11951906069851
20
12.0854984698686
30
0
41
1
10
5.28099824170104
20
12.04659247264
30
0
41
1
10
5.48994614639722
20
11.9941590527688
30
0
41
1
10
5.5320761935337
20
11.9834853026754
30
0
41
1
10
5.61672652278253
20
11.9618507178875
30
0
41
1
10
5.74439875154005
20
11.9289401416638
30
0
41
1
10
5.87408879965446
20
11.8947327140579
30
0
41
1
10
6.13598430067933
20
11.8247728165028
30
0
41
1
10
6.31393108981473
20
11.7760797684764
30
0
41
1
10
6.67571311878933
20
11.6753733468153
30
0
41
1
10
6.85954972342532
20
11.6233580197
30
0
41
1
10
7.23241935371647
20
11.5165883454851
30
0
41
1
10
7.42145292315905
20
11.4618325740756
30
0
41
1
10
7.80411108816079
20
11.3500135304938
30
0
41
1
10
7.99773562171154
20
11.2929490320128
30
0
41
1
10
8.38905048261827
20
11.1768328801504
30
0
41
1
10
8.5867403005642
20
11.1177800065891
30
0
41
1
10
8.88599746527788
20
11.027894247522
30
0
41
1
10
8.98624219654133
20
10.9977026616547
30
0
41
1
10
9.1873520772634
20
10.9369837719614
30
0
41
1
10
9.28822504262453
20
10.9064541472186
30
0
41
1
10
9.59175248258205
20
10.8143917695315
30
0
41
1
10
9.79531172618303
20
10.7523845775453
30
0
41
1
10
10
20
10.6898480032875
30
0
0
SPLINE
5
D4
100
AcDbEntity
8
1
62
256
6
ByLayer
370
13
48
1
60
0
100
AcDbSpline
70
4
71
3
72
43
73
39
40
0
40
0
40
0
40
0
40
0.0625000000000001
40
0.0625000000000001
40
0.125
40
0.125
40
0.1875
40
0.1875
40
0.250000000000001
40
0.250000000000001
40
0.312500000000001
40
0.312500000000001
40
0.375000000000001
40
0.375000000000001
40
0.406250000000001
40
0.406250000000001
40
0.414062500000001
40
0.414062500000001
40
0.421875000000002
40
0.437500000000002
40
0.437500000000002
40
0.500000000000001
40
0.500000000000001
40
0.562500000000001
40
0.562500000000001
40
0.625000000000001
40
0.625000000000001
40
0.687500000000001
40
0.687500000000001
40
0.750000000000001
40
0.750000000000001
40
0.8125
40
0.8125
40
0.875
40
0.875
40
0.9375
40
0.9375
40
1
40
1
40
1
40
1
41
1
10
148.8
20
-10.9934191005268
30
0
41
1
10
148.896403360535
20
-10.6785065464713
30
0
41
1
10
148.99280672107
20
-10.3051888484063
30
0
41
1
10
149.18561344214
20
-9.45184413652802
30
0
41
1
10
149.282016802675
20
-8.97187340023342
30
0
41
1
10
149.474823523745
20
-7.92578769922011
30
0
41
1
10
149.57122688428
20
-7.35980112481894
30
0
41
1
10
149.76403360535
20
-6.16992121004654
30
0
41
1
10
149.860436965885
20
-5.54618826013763
30
0
41
1
10
150.053243686954
20
-4.27221770853677
30
0
41
1
10
150.149647047489
20
-3.62212311103542
30
0
41
1
10
150.342453768559
20
-2.32525808841032
30
0
41
1
10
150.438857129094
20
-1.67857862537431
30
0
41
1
10
150.583462169897
20
-0.729528177617539
30
0
41
1
10
150.631663850164
20
-0.416623933134815
30
0
41
1
10
150.691915950498
20
-0.0313132734846988
30
0
41
1
10
150.703966370565
20
0.0453298891214047
30
0
41
1
10
150.728067210699
20
0.199524470263327
30
0
41
1
10
150.764218470899
20
0.431682427251246
30
0
41
1
10
150.8003697311
20
0.666282964647166
30
0
41
1
10
150.920873931769
20
1.45295484948252
30
0
41
1
10
151.017277292304
20
2.09749539804127
30
0
41
1
10
151.210084013374
20
3.39328201594134
30
0
41
1
10
151.306487373909
20
4.04444430335238
30
0
41
1
10
151.499294094978
20
5.32420836655834
30
0
41
1
10
151.595697455513
20
5.95267192107713
30
0
41
1
10
151.788504176583
20
7.15563199105887
30
0
41
1
10
151.884907537118
20
7.72996769082044
30
0
41
1
10
152.077714258188
20
8.79575856627395
30
0
41
1
10
152.174117618723
20
9.28707910157146
30
0
41
1
10
152.366924339793
20
10.1650461897727
30
0
41
1
10
152.463327700328
20
10.5516267834662
30
0
41
1
10
152.656134421398
20
11.2085949868968
30
0
41
1
10
152.752537781933
20
11.4789997414852
30
0
41
1
10
152.945344503003
20
11.9031268823305
30
0
41
1
10
153.041747863538
20
12.0569314615869
30
0
41
1
10
153.234554584608
20
12.2568125357685
30
0
41
1
10
153.330957945142
20
12.303
30
0
41
1
10
153.427361305677
20
12.303
30
0
0
SPLINE
5
D5
100
AcDbEntity
8
1
62
256
6
ByLayer
370
13
48
1
60
0
100
AcDbSpline
70
4
71
3
72
80
73
76
40
0
40
0
40
0
40
0
40
0.0312500000000006
40
0.0312500000000006
40
0.0625000000000012
40
0.0625000000000012
40
0.0937500000000018
40
0.0937500000000018
40
0.125000000000002
40
0.125000000000002
40
0.156250000000003
40
0.156250000000003
40
0.187500000000004
40
0.187500000000004
40
0.218750000000004
40
0.218750000000004
40
0.250000000000005
40
0.250000000000005
40
0.281250000000005
40
0.281250000000005
40
0.312500000000006
40
0.312500000000006
40
0.343750000000006
40
0.343750000000006
40
0.375000000000007
40
0.375000000000007
40
0.382812500000007
40
0.382812500000007
40
0.390625000000007
40
0.390625000000007
40
0.406250000000007
40
0.406250000000007
40
0.437500000000006
40
0.437500000000006
40
0.468750000000006
40
0.468750000000006
40
0.500000000000006
40
0.500000000000006
40
0.531250000000006
40
0.531250000000006
40
0.562500000000006
40
0.562500000000006
40
0.593750000000006
40
0.593750000000006
40
0.625000000000006
40
0.625000000000006
40
0.656250000000006
40
0.656250000000006
40
0.687500000000006
40
0.687500000000006
40
0.718750000000006
40
0.718750000000006
40
0.750000000000006
40
0.750000000000006
40
0.765625000000005
40
0.765625000000005
40
0.773437500000005
40
0.773437500000005
40
0.777343750000005
40
0.777343750000005
40
0.781250000000005
40
0.781250000000005
40
0.812500000000004
40
0.812500000000004
40
0.843750000000004
40
0.843750000000004
40
0.875000000000003
40
0.875000000000003
40
0.906250000000002
40
0.906250000000002
40
0.937500000000001
40
0.937500000000001
40
0.968750000000001
40
0.968750000000001
40
1
40
1
40
1
40
1
41
1
10
152.673670360411
20
12.303
30
0
41
1
10
152.747091233822
20
12.303
30
0
41
1
10
152.820512107232
20
12.276258014912
30
0
41
1
10
152.967353854053
20
12.1623552795332
30
0
41
1
10
153.040774727464
20
12.0751655821886
30
0
41
1
10
153.187616474285
20
11.8352412000223
30
0
41
1
10
153.261037347695
20
11.6824804951407
30
0
41
1
10
153.407879094516
20
11.3089953595578
30
0
41
1
10
153.481299967927
20
11.0882535916594
30
0
41
1
10
153.628141714748
20
10.5797680912431
30
0
41
1
10
153.701562588159
20
10.2920208135635
30
0
41
1
10
153.84840433498
20
9.65419809066998
30
0
41
1
10
153.92182520839
20
9.30413550939511
30
0
41
1
10
154.068666955211
20
8.54993513481287
30
0
41
1
10
154.142087828622
20
8.14582544758292
30
0
41
1
10
154.288929575443
20
7.29473991560306
30
0
41
1
10
154.362350448853
20
6.84780247364193
30
0
41
1
10
154.509192195675
20
5.9242065374377
30
0
41
1
10
154.582613069085
20
5.44758946707128
30
0
41
1
10
154.729454815906
20
4.47848852966507
30
0
41
1
10
154.802875689317
20
3.98604176816556
30
0
41
1
10
154.949717436138
20
2.99863940421739
30
0
41
1
10
155.023138309548
20
2.50371124174379
30
0
41
1
10
155.169980056369
20
1.5232213194846
30
0
41
1
10
155.24340092978
20
1.03767502016984
30
0
41
1
10
155.335177021543
20
0.442685495173038
30
0
41
1
10
155.353532239896
20
0.324279062743074
30
0
41
1
10
155.390242676601
20
0.0887777074235601
30
0
41
1
10
155.408597894953
20
-0.0278833742741824
30
0
41
1
10
155.463663550011
20
-0.380448820457332
30
0
41
1
10
155.500373986717
20
-0.618162807624742
30
0
41
1
10
155.610505296833
20
-1.33773598365505
30
0
41
1
10
155.683926170243
20
-1.82609620003353
30
0
41
1
10
155.830767917064
20
-2.80992321696902
30
0
41
1
10
155.904188790475
20
-3.3053720430795
30
0
41
1
10
156.051030537296
20
-4.29115275767714
30
0
41
1
10
156.124451410706
20
-4.78145491360922
30
0
41
1
10
156.271293157528
20
-5.74340888013091
30
0
41
1
10
156.344714030938
20
-6.21502216494167
30
0
41
1
10
156.491555777759
20
-7.1257936771857
30
0
41
1
10
156.56497665117
20
-7.56491047063662
30
0
41
1
10
156.711818397991
20
-8.39783774769663
30
0
41
1
10
156.785239271401
20
-8.79161140604671
30
0
41
1
10
156.932081018222
20
-9.52315837496124
30
0
41
1
10
157.005501891633
20
-9.86090643624016
30
0
41
1
10
157.152343638454
20
-10.4728219147817
30
0
41
1
10
157.225764511864
20
-10.7469798989267
30
0
41
1
10
157.372606258686
20
-11.2277819612606
30
0
41
1
10
157.446027132096
20
-11.4344327576509
30
0
41
1
10
157.592868878917
20
-11.7799724116213
30
0
41
1
10
157.666289752328
20
-11.9188808690877
30
0
41
1
10
157.813131499149
20
-12.1319627080377
30
0
41
1
10
157.886552372559
20
-12.2061631751113
30
0
41
1
10
157.996683682675
20
-12.2730970981923
30
0
41
1
10
158.03339411938
20
-12.2880312036104
30
0
41
1
10
158.088459774438
20
-12.3000123180359
30
0
41
1
10
158.106814992791
20
-12.3022700866782
30
0
41
1
10
158.13434782032
20
-12.3031393535758
30
0
41
1
10
158.143525429496
20
-12.3030117671099
30
0
41
1
10
158.161880647849
20
-12.3019153532843
30
0
41
1
10
158.171058257025
20
-12.300945366179
30
0
41
1
10
158.253656739612
20
-12.2883543217986
30
0
41
1
10
158.327077613023
20
-12.2496423609586
30
0
41
1
10
158.473919359844
20
-12.1105584065778
30
0
41
1
10
158.547340233254
20
-12.0101576267416
30
0
41
1
10
158.694181980076
20
-11.7430632555437
30
0
41
1
10
158.767602853486
20
-11.576344961151
30
0
41
1
10
158.914444600307
20
-11.1748492769993
30
0
41
1
10
158.987865473718
20
-10.9400570377183
30
0
41
1
10
159.134707220539
20
-10.4041293253683
30
0
41
1
10
159.208128093949
20
-10.1029935967731
30
0
41
1
10
159.35496984077
20
-9.43981996235954
30
0
41
1
10
159.428390714181
20
-9.0777983015048
30
0
41
1
10
159.575232461002
20
-8.30178310132689
30
0
41
1
10
159.648653334412
20
-7.8878203083315
30
0
41
1
10
159.722074207823
20
-7.45372305845981
30
0
0
SPLINE
5
D6
100
AcDbEntity
8
1
62
256
6
ByLayer
370
13
48
1
60
0
100
AcDbSpline
70
4
71
3
72
43
73
39
40
0
40
0
40
0
40
0
40
0.0625000000000025
40
0.0625000000000025
40
0.125000000000005
40
0.125000000000005
40
0.187500000000008
40
0.187500000000008
40
0.25000000000001
40
0.25000000000001
40
0.312500000000013
40
0.312500000000013
40
0.328125000000013
40
0.335937500000013
40
0.335937500000013
40
0.343750000000013
40
0.343750000000013
40
0.375000000000013
40
0.375000000000013
40
0.437500000000011
40
0.437500000000011
40
0.50000000000001
40
0.50000000000001
40
0.562500000000009
40
0.562500000000009
40
0.625000000000008
40
0.625000000000008
40
0.687500000000006
40
0.687500000000006
40
0.750000000000005
40
0.750000000000005
40
0.812500000000004
40
0.812500000000004
40
0.875000000000003
40
0.875000000000003
40
0.937500000000001
40
0.937500000000001
40
1
40
1
40
1
40
1
41
1
10
148.8
20
-8.94597115023004
30
0
41
1
10
148.886315678727
20
-8.50370302314434
30
0
41
1
10
148.972631357454
20
-8.02393940418111
30
0
41
1
10
149.145262714907
20
-7.0078076639883
30
0
41
1
10
149.231578393634
20
-6.47152770842339
30
0
41
1
10
149.404209751088
20
-5.36422378379592
30
0
41
1
10
149.490525429815
20
-4.79329100114046
30
0
41
1
10
149.663156787268
20
-3.63910970586318
30
0
41
1
10
149.749472465995
20
-3.05593438293136
30
0
41
1
10
149.922103823449
20
-1.89772291316385
30
0
41
1
10
150.008419502176
20
-1.3227300684371
30
0
41
1
10
150.116314100585
20
-0.619512508253564
30
0
41
1
10
150.148682480107
20
-0.409695644907828
30
0
41
1
10
150.18105085963
20
-0.201844334233669
30
0
41
1
10
150.202629779312
20
-0.063738455594887
30
0
41
1
10
150.213419239152
20
0.0049252761469063
30
0
41
1
10
150.267366538356
20
0.34952740072157
30
0
41
1
10
150.31052437772
20
0.628971220975274
30
0
41
1
10
150.43999789581
20
1.47602719412686
30
0
41
1
10
150.526313574537
20
2.05249410608965
30
0
41
1
10
150.698944931991
20
3.21196398960035
30
0
41
1
10
150.785260610718
20
3.79492079824377
30
0
41
1
10
150.957891968171
20
4.9467115518236
30
0
41
1
10
151.044207646898
20
5.51547004840725
30
0
41
1
10
151.216839004352
20
6.61640799965204
30
0
41
1
10
151.303154683079
20
7.14849559101725
30
0
41
1
10
151.475786040532
20
8.1544088558725
30
0
41
1
10
151.562101719259
20
8.62814779127325
30
0
41
1
10
151.734733076713
20
9.49922217636822
30
0
41
1
10
151.82104875544
20
9.89649842598212
30
0
41
1
10
151.993680112893
20
10.6023191195921
30
0
41
1
10
152.07999579162
20
10.910845775065
30
0
41
1
10
152.252627149074
20
11.4338488430448
30
0
41
1
10
152.338942827801
20
11.648348867759
30
0
41
1
10
152.511574185255
20
11.984889133446
30
0
41
1
10
152.597889863981
20
12.1069822037986
30
0
41
1
10
152.770521221435
20
12.2660053770708
30
0
41
1
10
152.856836900162
20
12.303
30
0
41
1
10
152.943152578889
20
12.303
30
0
0
SPLINE
5
D7
100
AcDbEntity
8
1
62
256
6
ByLayer
370
13
48
1
60
0
100
AcDbSpline
70
4
71
3
72
80
73
76
40
0
40
0
40
0
40
0
40
0.0312499999999995
40
0.0312499999999995
40
0.062499999999999
40
0.062499999999999
40
0.0937499999999985
40
0.0937499999999985
40
0.124999999999998
40
0.124999999999998
40
0.156249999999998
40
0.156249999999998
40
0.187499999999997
40
0.187499999999997
40
0.218749999999997
40
0.218749999999997
40
0.249999999999996
40
0.249999999999996
40
0.281249999999996
40
0.281249999999996
40
0.312499999999995
40
0.312499999999995
40
0.343749999999995
40
0.343749999999995
40
0.359374999999994
40
0.359374999999994
40
0.367187499999994
40
0.367187499999994
40
0.374999999999994
40
0.374999999999994
40
0.406249999999995
40
0.406249999999995
40
0.437499999999995
40
0.437499999999995
40
0.468749999999995
40
0.468749999999995
40
0.499999999999996
40
0.499999999999996
40
0.531249999999996
40
0.531249999999996
40
0.562499999999996
40
0.562499999999996
40
0.593749999999996
40
0.593749999999996
40
0.624999999999997
40
0.624999999999997
40
0.656249999999997
40
0.656249999999997
40
0.687499999999997
40
0.687499999999997
40
0.718749999999997
40
0.718749999999997
40
0.722656249999998
40
0.722656249999998
40
0.726562499999998
40
0.726562499999998
40
0.734374999999998
40
0.734374999999998
40
0.749999999999998
40
0.749999999999998
40
0.781249999999998
40
0.781249999999998
40
0.812499999999999
40
0.812499999999999
40
0.843749999999999
40
0.843749999999999
40
0.874999999999999
40
0.874999999999999
40
0.906249999999999
40
0.906249999999999
40
0.9375
40
0.9375
40
0.96875
40
0.96875
40
1
40
1
40
1
40
1
41
1
10
152.189461633623
20
12.303
30
0
41
1
10
152.267926347937
20
12.303
30
0
41
1
10
152.346391062252
20
12.272447192742
30
0
41
1
10
152.503320490881
20
12.1418359531774
30
0
41
1
10
152.581785205196
20
12.0417372560354
30
0
41
1
10
152.738714633825
20
11.7660656668894
30
0
41
1
10
152.817179348139
20
11.5904577389768
30
0
41
1
10
152.974108776768
20
11.1614682823203
30
0
41
1
10
153.052573491083
20
10.9080660884677
30
0
41
1
10
153.209502919712
20
10.3257289322739
30
0
41
1
10
153.287967634027
20
9.99679516922896
30
0
41
1
10
153.444897062656
20
9.27049369859165
30
0
41
1
10
153.523361776971
20
8.87315166857817
30
0
41
1
10
153.6802912056
20
8.02159138076675
30
0
41
1
10
153.758755919914
20
7.56741924557079
30
0
41
1
10
153.915685348543
20
6.61711614459202
30
0
41
1
10
153.994150062858
20
6.12104201437597
30
0
41
1
10
154.151079491487
20
5.10362566152895
30
0
41
1
10
154.229544205802
20
4.58233895678265
30
0
41
1
10
154.386473634431
20
3.53122934530006
30
0
41
1
10
154.464938348746
20
3.00145042301747
30
0
41
1
10
154.621867777375
20
1.94860059477
30
0
41
1
10
154.700332491689
20
1.42555655141015
30
0
41
1
10
154.818029563161
20
0.655529307880158
30
0
41
1
10
154.857261920319
20
0.401254228275945
30
0
41
1
10
154.916110456054
20
0.024412429350491
30
0
41
1
10
154.935726634633
20
-0.100254666986956
30
0
41
1
10
154.97495899179
20
-0.352089741062343
30
0
41
1
10
154.994575170369
20
-0.478752350263562
30
0
41
1
10
155.092656063262
20
-1.1153958473185
30
0
41
1
10
155.171120777577
20
-1.6354860714026
30
0
41
1
10
155.328050206206
20
-2.68518073037254
30
0
41
1
10
155.406514920521
20
-3.21476192033424
30
0
41
1
10
155.56344434915
20
-4.26867248616713
30
0
41
1
10
155.641909063465
20
-4.79296101959716
30
0
41
1
10
155.798838492094
20
-5.81976702314984
30
0
41
1
10
155.877303206408
20
-6.32223058186574
30
0
41
1
10
156.034232635037
20
-7.28855844463808
30
0
41
1
10
156.112697349352
20
-7.75236521710477
30
0
41
1
10
156.269626777981
20
-8.62595483806575
30
0
41
1
10
156.348091492296
20
-9.03568851570935
30
0
41
1
10
156.505020920925
20
-9.78875854626426
30
0
41
1
10
156.58348563524
20
-10.1320646054345
30
0
41
1
10
156.740415063869
20
-10.744186609197
30
0
41
1
10
156.818879778183
20
-11.0129964767941
30
0
41
1
10
156.975809206813
20
-11.4728740227559
30
0
41
1
10
157.054273921127
20
-11.6639584884327
30
0
41
1
10
157.211203349756
20
-11.9698017819378
30
0
41
1
10
157.289668064071
20
-12.0845935044387
30
0
41
1
10
157.4465974927
20
-12.2431612257911
30
0
41
1
10
157.525062207015
20
-12.2869771461943
30
0
41
1
10
157.613335010618
20
-12.3008659995014
30
0
41
1
10
157.623143099908
20
-12.3019187870375
30
0
41
1
10
157.642759278486
20
-12.3030611872859
30
0
41
1
10
157.652567367776
20
-12.3031525535946
30
0
41
1
10
157.681991635644
20
-12.301994828136
30
0
41
1
10
157.701607814222
20
-12.2993033667396
30
0
41
1
10
157.760456349958
20
-12.2852594871357
30
0
41
1
10
157.799688707116
20
-12.2679336172514
30
0
41
1
10
157.917385778587
20
-12.1905052562508
30
0
41
1
10
157.995850492902
20
-12.1048583104974
30
0
41
1
10
158.152779921531
20
-11.8590229038103
30
0
41
1
10
158.231244635846
20
-11.6987976396869
30
0
41
1
10
158.388174064475
20
-11.3006911145907
30
0
41
1
10
158.46663877879
20
-11.0627856202035
30
0
41
1
10
158.623568207419
20
-10.5106071648987
30
0
41
1
10
158.702032921733
20
-10.1963306359018
30
0
41
1
10
158.858962350363
20
-9.49754746633843
30
0
41
1
10
158.937427064677
20
-9.11306172345735
30
0
41
1
10
159.094356493306
20
-8.284595434702
30
0
41
1
10
159.172821207621
20
-7.84065756400508
30
0
41
1
10
159.32975063625
20
-6.90764955802814
30
0
41
1
10
159.408215350564
20
-6.41863506919466
30
0
41
1
10
159.565144779194
20
-5.41194973556665
30
0
41
1
10
159.643609493508
20
-4.89433559896213
30
0
41
1
10
159.722074207823
20
-4.37082164041234
30
0
0
SPLINE
5
D8
100
AcDbEntity
8
1
62
256
6
ByLayer
370
13
48
1
60
0
100
AcDbSpline
70
4
71
3
72
43
73
39
40
0
40
0
40
0
40
0
40
0.0625000000000001
40
0.0625000000000001
40
0.125
40
0.125
40
0.1875
40
0.1875
40
0.25
40
0.25
40
0.2578125
40
0.2578125
40
0.265625
40
0.28125
40
0.28125
40
0.3125
40
0.3125
40
0.375
40
0.375
40
0.4375
40
0.4375
40
0.5
40
0.5
40
0.5625
40
0.5625
40
0.625
40
0.625
40
0.6875
40
0.6875
40
0.75
40
0.75
40
0.8125
40
0.8125
40
0.875
40
0.875
40
0.9375
40
0.9375
40
1
40
1
40
1
40
1
41
1
10
148.8
20
-6.13303959604869
30
0
41
1
10
148.876227996919
20
-5.64823528407953
30
0
41
1
10
148.952455993838
20
-5.14880488419232
30
0
41
1
10
149.104911987675
20
-4.13609380616288
30
0
41
1
10
149.181139984594
20
-3.62285574065632
30
0
41
1
10
149.333595978431
20
-2.59717442754945
30
0
41
1
10
149.40982397535
20
-2.08476066102242
30
0
41
1
10
149.562279969188
20
-1.07341546734855
30
0
41
1
10
149.638507966106
20
-0.574498415298251
30
0
41
1
10
149.72426446264
20
-0.0264639415248666
30
0
41
1
10
149.733792962255
20
0.0341618674092388
30
0
41
1
10
149.752849961484
20
0.155978039874242
30
0
41
1
10
149.781435460329
20
0.339247662257009
30
0
41
1
10
149.810020959174
20
0.524076977375927
30
0
41
1
10
149.867191956863
20
0.895595953479983
30
0
41
1
10
149.905305955322
20
1.14576108136163
30
0
41
1
10
150.0196479507
20
1.90176329698156
30
0
41
1
10
150.095875947619
20
2.41318175267955
30
0
41
1
10
150.248331941457
20
3.43850831265561
30
0
41
1
10
150.324559938375
20
3.95238872168832
30
0
41
1
10
150.477015932213
20
4.96820560459557
30
0
41
1
10
150.553243929131
20
5.47010079373348
30
0
41
1
10
150.705699922969
20
6.44649416483747
30
0
41
1
10
150.781927919888
20
6.9209431310002
30
0
41
1
10
150.934383913725
20
7.82735506232027
30
0
41
1
10
151.010611910644
20
8.25926984431834
30
0
41
1
10
151.163067904482
20
9.06738658935609
30
0
41
1
10
151.239295901401
20
9.44355115509916
30
0
41
1
10
151.391751895238
20
10.1301236332493
30
0
41
1
10
151.467979892157
20
10.4405122607098
30
0
41
1
10
151.620435885994
20
10.989546940357
30
0
41
1
10
151.696663882913
20
11.2281943347006
30
0
41
1
10
151.84911987675
20
11.6320922666903
30
0
41
1
10
151.925347873669
20
11.7973620634697
30
0
41
1
10
152.077803867507
20
12.0568581290856
30
0
41
1
10
152.154031864425
20
12.1511152085844
30
0
41
1
10
152.306487858263
20
12.2741687031286
30
0
41
1
10
152.382715855182
20
12.303
30
0
41
1
10
152.458943852101
20
12.303
30
0
0
SPLINE
5
D9
100
AcDbEntity
8
1
62
256
6
ByLayer
370
13
48
1
60
0
100
AcDbSpline
70
4
71
3
72
81
73
77
40
0
40
0
40
0
40
0
40
0.0312500000000006
40
0.0312500000000006
40
0.0625000000000013
40
0.0625000000000013
40
0.093750000000002
40
0.093750000000002
40
0.125000000000003
40
0.125000000000003
40
0.156250000000003
40
0.156250000000003
40
0.187500000000004
40
0.187500000000004
40
0.218750000000005
40
0.218750000000005
40
0.250000000000005
40
0.250000000000005
40
0.281250000000006
40
0.281250000000006
40
0.312500000000007
40
0.312500000000007
40
0.328125000000007
40
0.328125000000007
40
0.335937500000007
40
0.339843750000007
40
0.339843750000007
40
0.343750000000007
40
0.343750000000007
40
0.375000000000007
40
0.375000000000007
40
0.406250000000007
40
0.406250000000007
40
0.437500000000008
40
0.437500000000008
40
0.468750000000008
40
0.468750000000008
40
0.500000000000008
40
0.500000000000008
40
0.531250000000008
40
0.531250000000008
40
0.562500000000008
40
0.562500000000008
40
0.593750000000008
40
0.593750000000008
40
0.625000000000008
40
0.625000000000008
40
0.656250000000008
40
0.656250000000008
40
0.671875000000008
40
0.671875000000008
40
0.679687500000008
40
0.679687500000008
40
0.683593750000008
40
0.683593750000008
40
0.687500000000008
40
0.687500000000008
40
0.718750000000007
40
0.718750000000007
40
0.750000000000006
40
0.750000000000006
40
0.781250000000006
40
0.781250000000006
40
0.812500000000005
40
0.812500000000005
40
0.843750000000004
40
0.843750000000004
40
0.875000000000003
40
0.875000000000003
40
0.906250000000003
40
0.906250000000003
40
0.937500000000002
40
0.937500000000002
40
0.968750000000001
40
0.968750000000001
40
1
40
1
40
1
40
1
41
1
10
151.705252906834
20
12.303
30
0
41
1
10
151.788761462053
20
12.303
30
0
41
1
10
151.872270017271
20
12.2683801272178
30
0
41
1
10
152.039287127709
20
12.119853843817
30
0
41
1
10
152.122795682927
20
12.0058926252515
30
0
41
1
10
152.289812793365
20
11.6918487616251
30
0
41
1
10
152.373321348583
20
11.4917201823376
30
0
41
1
10
152.54033845902
20
11.0033840675314
30
0
41
1
10
152.623847014239
20
10.7151534861946
30
0
41
1
10
152.790864124676
20
10.0546216391201
30
0
41
1
10
152.874372679895
20
9.68233062072437
30
0
41
1
10
153.041389790332
20
8.86387776235935
30
0
41
1
10
153.124898345551
20
8.41776094123759
30
0
41
1
10
153.291915455988
20
7.46721405325366
30
0
41
1
10
153.375424011207
20
6.96285438118352
30
0
41
1
10
153.542441121644
20
5.91495952254843
30
0
41
1
10
153.625949676863
20
5.37150303597298
30
0
41
1
10
153.7929667873
20
4.26582538412083
30
0
41
1
10
153.876475342519
20
3.70367325613398
30
0
41
1
10
154.043492452956
20
2.58000514122742
30
0
41
1
10
154.127001008174
20
2.01853612542223
30
0
41
1
10
154.252263841003
20
1.18926711645031
30
0
41
1
10
154.294018118612
20
0.914973741722179
30
0
41
1
10
154.356649535026
20
0.508017476277331
30
0
41
1
10
154.387965243233
20
0.305657410211864
30
0
41
1
10
154.41928095144
20
0.105189660292922
30
0
41
1
10
154.440158090244
20
-0.0280129421265372
30
0
41
1
10
154.450596659647
20
-0.0945444446888644
30
0
41
1
10
154.544543784268
20
-0.696362683894307
30
0
41
1
10
154.628052339486
20
-1.24520655791736
30
0
41
1
10
154.795069449924
20
-2.35712845358373
30
0
41
1
10
154.878578005142
20
-2.92018033678525
30
0
41
1
10
155.045595115579
20
-4.04328878172686
30
0
41
1
10
155.129103670798
20
-4.60329332631662
30
0
41
1
10
155.296120781235
20
-5.70057808212494
30
0
41
1
10
155.379629336454
20
-6.23778605870271
30
0
41
1
10
155.546646446891
20
-7.2691436531087
30
0
41
1
10
155.63015500211
20
-7.76321472014914
30
0
41
1
10
155.797172112547
20
-8.68968227578409
30
0
41
1
10
155.880680667766
20
-9.12201227523184
30
0
41
1
10
156.047697778203
20
-9.91034748630204
30
0
41
1
10
156.131206333421
20
-10.2663142729515
30
0
41
1
10
156.298223443859
20
-10.8928687731332
30
0
41
1
10
156.381731999078
20
-11.1634534199241
30
0
41
1
10
156.548749109515
20
-11.6164256195784
30
0
41
1
10
156.632257664733
20
-11.7988418758512
30
0
41
1
10
156.799274775171
20
-12.0784873782257
30
0
41
1
10
156.882783330389
20
-12.1757654874628
30
0
41
1
10
157.008046163217
20
-12.2635108458188
30
0
41
1
10
157.049800440827
20
-12.2830951049108
30
0
41
1
10
157.112431857241
20
-12.2989084935097
30
0
41
1
10
157.133308996045
20
-12.3019204194936
30
0
41
1
10
157.164624704252
20
-12.3031762226952
30
0
41
1
10
157.175063273655
20
-12.3030543666642
30
0
41
1
10
157.195940412459
20
-12.3017225125121
30
0
41
1
10
157.206378981862
20
-12.3005105200654
30
0
41
1
10
157.300326106483
20
-12.2845923623458
30
0
41
1
10
157.383834661701
20
-12.2347048612063
30
0
41
1
10
157.550851772138
20
-12.0539442203448
30
0
41
1
10
157.634360327357
20
-11.9230169555557
30
0
41
1
10
157.801377437795
20
-11.5742088017602
30
0
41
1
10
157.884885993013
20
-11.3562854959753
30
0
41
1
10
158.05190310345
20
-10.8326662223929
30
0
41
1
10
158.135411658669
20
-10.5269533085374
30
0
41
1
10
158.302428769106
20
-9.83302676642421
30
0
41
1
10
158.385937324325
20
-9.44483063349549
30
0
41
1
10
158.552954434762
20
-8.5973195074757
30
0
41
1
10
158.636462989981
20
-8.13805573376447
30
0
41
1
10
158.803480100418
20
-7.16485666841331
30
0
41
1
10
158.886988655637
20
-6.65099495885445
30
0
41
1
10
159.054005766074
20
-5.58818764219009
30
0
41
1
10
159.137514321293
20
-5.03932013082397
30
0
41
1
10
159.30453143173
20
-3.9268817286887
30
0
41
1
10
159.388039986949
20
-3.36337616369266
30
0
41
1
10
159.555057097386
20
-2.24062057499702
30
0
41
1
10
159.638565652604
20
-1.68141232116554
30
0
41
1
10
159.722074207823
20
-1.13228024285121
30
0
0
SPLINE
5
DA
100
AcDbEntity
8
1
62
256
6
ByLayer
370
13
48
1
60
0
100
AcDbSpline
70
4
71
3
72
41
73
37
40
0
40
0
40
0
40
0
40
0.0625000000000005
40
0.0625000000000005
40
0.125000000000001
40
0.125000000000001
40
0.140625000000001
40
0.140625000000001
40
0.156250000000001
40
0.187500000000001
40
0.187500000000001
40
0.250000000000001
40
0.250000000000001
40
0.312500000000001
40
0.312500000000001
40
0.375000000000001
40
0.375000000000001
40
0.437500000000001
40
0.437500000000001
40
0.500000000000001
40
0.500000000000001
40
0.562500000000001
40
0.562500000000001
40
0.625000000000001
40
0.625000000000001
40
0.687500000000001
40
0.687500000000001
40
0.75
40
0.75
40
0.8125
40
0.8125
40
0.875
40
0.875
40
0.9375
40
0.9375
40
1
40
1
40
1
40
1
41
1
10
148.8
20
-2.92946283560698
30
0
41
1
10
148.866140315111
20
-2.48463853686263
30
0
41
1
10
148.932280630221
20
-2.04072041220792
30
0
41
1
10
149.064561260443
20
-1.16286953109207
30
0
41
1
10
149.130701575553
20
-0.728943942706451
30
0
41
1
10
149.213376969442
20
-0.196977501089378
30
0
41
1
10
149.229912048219
20
-0.0911964441251598
30
0
41
1
10
149.262982205775
20
0.119629748618252
30
0
41
1
10
149.312587442108
20
0.43754433529412
30
0
41
1
10
149.362192678441
20
0.760091354870127
30
0
41
1
10
149.461403151107
20
1.41017256138917
30
0
41
1
10
149.527543466218
20
1.85025530813311
30
0
41
1
10
149.659824096439
20
2.73631225864895
30
0
41
1
10
149.72596441155
20
3.18227592126013
30
0
41
1
10
149.858245041771
20
4.07124544282522
30
0
41
1
10
149.924385356881
20
4.51423440388285
30
0
41
1
10
150.056665987103
20
5.38747612951343
30
0
41
1
10
150.122806302213
20
5.81770688972671
30
0
41
1
10
150.255086932435
20
6.65531447684319
30
0
41
1
10
150.321227247545
20
7.06266676866238
30
0
41
1
10
150.453507877767
20
7.84476966182302
30
0
41
1
10
150.519648192877
20
8.21949669328416
30
0
41
1
10
150.651928823099
20
8.92770705830608
30
0
41
1
10
150.718069138209
20
9.26117141873121
30
0
41
1
10
150.850349768431
20
9.87997215953257
30
0
41
1
10
150.916490083541
20
10.1652970109687
30
0
41
1
10
151.048770713763
20
10.6831596348971
30
0
41
1
10
151.114911028874
20
10.9156946709633
30
0
41
1
10
151.247191659095
20
11.3257613327483
30
0
41
1
10
151.313331974205
20
11.5032986194361
30
0
41
1
10
151.445612604427
20
11.8035492040034
30
0
41
1
10
151.511752919537
20
11.9262747050755
30
0
41
1
10
151.644033549759
20
12.1192005881088
30
0
41
1
10
151.710173864869
20
12.1894170466753
30
0
41
1
10
151.842454495091
20
12.2813081530418
30
0
41
1
10
151.908594810201
20
12.303
30
0
41
1
10
151.974735125312
20
12.303
30
0
0
SPLINE
5
DB
100
AcDbEntity
8
1
62
256
6
ByLayer
370
13
48
1
60
0
100
AcDbSpline
70
4
71
3
72
86
73
82
40
0
40
0
40
0
40
0
40
0.0312500000000001
40
0.0312500000000001
40
0.0625000000000001
40
0.0625000000000001
40
0.0937500000000002
40
0.0937500000000002
40
0.125
40
0.125
40
0.15625
40
0.15625
40
0.1875
40
0.1875
40
0.218750000000001
40
0.218750000000001
40
0.250000000000001
40
0.250000000000001
40
0.281250000000001
40
0.281250000000001
40
0.312500000000001
40
0.312500000000001
40
0.320312500000001
40
0.320312500000001
40
0.324218750000001
40
0.324218750000001
40
0.328125000000001
40
0.34375
40
0.34375
40
0.375
40
0.375
40
0.406249999999999
40
0.406249999999999
40
0.437499999999998
40
0.437499999999998
40
0.468749999999997
40
0.468749999999997
40
0.499999999999996
40
0.499999999999996
40
0.531249999999996
40
0.531249999999996
40
0.562499999999995
40
0.562499999999995
40
0.593749999999994
40
0.593749999999994
40
0.624999999999993
40
0.624999999999993
40
0.640624999999993
40
0.640624999999993
40
0.644531249999993
40
0.644531249999993
40
0.648437499999993
40
0.656249999999993
40
0.656249999999993
40
0.687499999999993
40
0.687499999999993
40
0.718749999999994
40
0.718749999999994
40
0.749999999999995
40
0.749999999999995
40
0.781249999999995
40
0.781249999999995
40
0.812499999999996
40
0.812499999999996
40
0.843749999999997
40
0.843749999999997
40
0.874999999999997
40
0.874999999999997
40
0.906249999999998
40
0.906249999999998
40
0.937499999999998
40
0.937499999999998
40
0.953124999999999
40
0.953124999999999
40
0.960937499999999
40
0.960937499999999
40
0.964843749999999
40
0.964843749999999
40
0.968749999999999
40
0.968749999999999
40
1
40
1
40
1
40
1
41
1
10
151.221044180046
20
12.303
30
0
41
1
10
151.309596576168
20
12.303
30
0
41
1
10
151.398148972291
20
12.2640561181238
30
0
41
1
10
151.575253764537
20
12.0963981076295
30
0
41
1
10
151.663806160659
20
11.9676107975569
30
0
41
1
10
151.840910952904
20
11.6125606847794
30
0
41
1
10
151.929463349027
20
11.3862391406749
30
0
41
1
10
152.106568141273
20
10.8347876346592
30
0
41
1
10
152.195120537395
20
10.5096341729962
30
0
41
1
10
152.372225329641
20
9.7668702709617
30
0
41
1
10
152.460777725763
20
9.3492852017647
30
0
41
1
10
152.637882518009
20
8.43570659533157
30
0
41
1
10
152.726434914131
20
7.93978553261576
30
0
41
1
10
152.903539706377
20
6.88978859089454
30
0
41
1
10
152.992092102499
20
6.33581390230097
30
0
41
1
10
153.169196894745
20
5.19347858125215
30
0
41
1
10
153.257749290867
20
4.60522052135434
30
0
41
1
10
153.434854083113
20
3.41843735949232
30
0
41
1
10
153.523406479235
20
2.81999185317213
30
0
41
1
10
153.700511271481
20
1.63448388671799
30
0
41
1
10
153.789063667603
20
1.04746540080285
30
0
41
1
10
153.899754162757
20
0.331613924761797
30
0
41
1
10
153.921892261788
20
0.189327709884253
30
0
41
1
10
153.955099410334
20
-0.0226106593609359
30
0
41
1
10
153.966168459849
20
-0.0931326593657218
30
0
41
1
10
153.988306558879
20
-0.234959599546841
30
0
41
1
10
154.043651806456
20
-0.590729253351469
30
0
41
1
10
154.098997054033
20
-0.952200366815049
30
0
41
1
10
154.231825648217
20
-1.82773703212547
30
0
41
1
10
154.320378044339
20
-2.42223919189541
30
0
41
1
10
154.497482836585
20
-3.61360131783326
30
0
41
1
10
154.586035232708
20
-4.21040085594586
30
0
41
1
10
154.763140024953
20
-5.38337945703489
30
0
41
1
10
154.851692421076
20
-5.95946636207532
30
0
41
1
10
155.028797213321
20
-7.0666965862109
30
0
41
1
10
155.117349609444
20
-7.59773449223718
30
0
41
1
10
155.294454401689
20
-8.59224637865688
30
0
41
1
10
155.383006797812
20
-9.05562879294808
30
0
41
1
10
155.560111590057
20
-9.89697557125911
30
0
41
1
10
155.64866398618
20
-10.2748869745492
30
0
41
1
10
155.825768778425
20
-10.9344592608087
30
0
41
1
10
155.914321174548
20
-11.2161172643687
30
0
41
1
10
156.091425966793
20
-11.6802377090436
30
0
41
1
10
156.179978362916
20
-11.8627416122745
30
0
41
1
10
156.357083155161
20
-12.1328800270139
30
0
41
1
10
156.445635551284
20
-12.2205823108282
30
0
41
1
10
156.578464145468
20
-12.2883950227535
30
0
41
1
10
156.622740343529
20
-12.3004123424141
30
0
41
1
10
156.678085591106
20
-12.3031772882314
30
0
41
1
10
156.689154640621
20
-12.3031213679079
30
0
41
1
10
156.711292739652
20
-12.3017881390755
30
0
41
1
10
156.744499888198
20
-12.2979476374138
30
0
41
1
10
156.777707036744
20
-12.2884698900237
30
0
41
1
10
156.888397531897
20
-12.2438623917398
30
0
41
1
10
156.97694992802
20
-12.1663699619873
30
0
41
1
10
157.154054720265
20
-11.9175350857574
30
0
41
1
10
157.242607116388
20
-11.7461232411231
30
0
41
1
10
157.419711908633
20
-11.3043445228284
30
0
41
1
10
157.508264304756
20
-11.0339321562945
30
0
41
1
10
157.685369097001
20
-10.3961309781011
30
0
41
1
10
157.773921493124
20
-10.0287394273009
30
0
41
1
10
157.951026285369
20
-9.20683191515866
30
0
41
1
10
158.039578681492
20
-8.75236348951739
30
0
41
1
10
158.216683473737
20
-7.77336955972891
30
0
41
1
10
158.30523586986
20
-7.24893232065958
30
0
41
1
10
158.482340662106
20
-6.15219246102737
30
0
41
1
10
158.570893058228
20
-5.57999511265052
30
0
41
1
10
158.747997850473
20
-4.41204671385128
30
0
41
1
10
158.836550246596
20
-3.81639048626448
30
0
41
1
10
159.013655038841
20
-2.62485063476265
30
0
41
1
10
159.102207434964
20
-2.02903154363773
30
0
41
1
10
159.235036029148
20
-1.1500459888122
30
0
41
1
10
159.279312227209
20
-0.859475147566769
30
0
41
1
10
159.345726524302
20
-0.42878004276173
30
0
41
1
10
159.367864623332
20
-0.286072762907509
30
0
41
1
10
159.401071771878
20
-0.0734667305843288
30
0
41
1
10
159.412140821394
20
-0.0030075715789053
30
0
41
1
10
159.434278920424
20
0.138376493069814
30
0
41
1
10
159.44534796994
20
0.209315642825061
30
0
41
1
10
159.544969415578
20
0.849870729980438
30
0
41
1
10
159.6335218117
20
1.4344107497605
30
0
41
1
10
159.722074207823
20
2.02578427050091
30
0
0
SPLINE
5
DC
100
AcDbEntity
8
1
62
256
6
ByLayer
370
13
48
1
60
0
100
AcDbSpline
70
4
71
3
72
38
73
34
40
0
40
0
40
0
40
0
40
0.0624999999999999
40
0.0624999999999999
40
0.125
40
0.125
40
0.1875
40
0.1875
40
0.25
40
0.25
40
0.3125
40
0.3125
40
0.375
40
0.375
40
0.4375
40
0.4375
40
0.5
40
0.5
40
0.5625
40
0.5625
40
0.625
40
0.625
40
0.6875
40
0.6875
40
0.75
40
0.75
40
0.8125
40
0.8125
40
0.875
40
0.875
40
0.9375
40
0.9375
40
1
40
1
40
1
40
1
41
1
10
148.8
20
0.255903220375217
30
0
41
1
10
148.856052633303
20
0.616042147322332
30
0
41
1
10
148.912105266605
20
0.982245583714956
30
0
41
1
10
149.02421053321
20
1.72280791025463
30
0
41
1
10
149.080263166513
20
2.09716419146676
30
0
41
1
10
149.192368433118
20
2.84927510336033
30
0
41
1
10
149.248421066421
20
3.22702473916471
30
0
41
1
10
149.360526333026
20
3.98049597599899
30
0
41
1
10
149.416578966328
20
4.35621022768419
30
0
41
1
10
149.528684232934
20
5.09970064254034
30
0
41
1
10
149.584736866236
20
5.46746748643173
30
0
41
1
10
149.696842132841
20
6.18892126291004
30
0
41
1
10
149.752894766144
20
6.54259765331039
30
0
41
1
10
149.865000032749
20
7.22979810806848
30
0
41
1
10
149.921052666052
20
7.56331144223319
30
0
41
1
10
150.033157932657
20
8.20450612481926
30
0
41
1
10
150.089210565959
20
8.51217772167141
30
0
41
1
10
150.201315832564
20
9.09671384077231
30
0
41
1
10
150.257368465867
20
9.37357068193404
30
0
41
1
10
150.369473732472
20
9.89247234876098
30
0
41
1
10
150.425526365775
20
10.1345123769012
30
0
41
1
10
150.53763163238
20
10.5809356259358
30
0
41
1
10
150.593684265682
20
10.7853173221358
30
0
41
1
10
150.705789532288
20
11.1548351703322
30
0
41
1
10
150.76184216559
20
11.3199729885344
30
0
41
1
10
150.873947432195
20
11.610667516968
30
0
41
1
10
150.930000065498
20
11.7362285880523
30
0
41
1
10
151.042105332103
20
11.9485945488712
30
0
41
1
10
151.098157965406
20
12.0354057190284
30
0
41
1
10
151.210263232011
20
12.1720944634198
30
0
41
1
10
151.266315865313
20
12.2219793528322
30
0
41
1
10
151.378421131918
20
12.2874283651235
30
0
41
1
10
151.434473765221
20
12.303
30
0
41
1
10
151.490526398524
20
12.303
30
0
0
SPLINE
5
DD
100
AcDbEntity
8
1
62
256
6
ByLayer
370
13
48
1
60
0
100
AcDbSpline
70
4
71
3
72
87
73
83
40
0
40
0
40
0
40
0
40
0.03125
40
0.03125
40
0.0625
40
0.0625
40
0.09375
40
0.09375
40
0.125
40
0.125
40
0.15625
40
0.15625
40
0.1875
40
0.1875
40
0.21875
40
0.21875
40
0.25
40
0.25
40
0.28125
40
0.28125
40
0.296875
40
0.296875
40
0.30078125
40
0.30078125
40
0.3046875
40
0.3046875
40
0.3125
40
0.3125
40
0.34375
40
0.34375
40
0.375000000000001
40
0.375000000000001
40
0.406250000000001
40
0.406250000000001
40
0.437500000000002
40
0.437500000000002
40
0.468750000000002
40
0.468750000000002
40
0.500000000000003
40
0.500000000000003
40
0.531250000000003
40
0.531250000000003
40
0.562500000000003
40
0.562500000000003
40
0.593750000000004
40
0.593750000000004
40
0.601562500000004
40
0.605468750000004
40
0.605468750000004
40
0.609375000000004
40
0.609375000000004
40
0.625000000000004
40
0.625000000000004
40
0.656250000000003
40
0.656250000000003
40
0.687500000000002
40
0.687500000000002
40
0.718750000000002
40
0.718750000000002
40
0.750000000000001
40
0.750000000000001
40
0.781250000000001
40
0.781250000000001
40
0.8125
40
0.8125
40
0.84375
40
0.84375
40
0.874999999999999
40
0.874999999999999
40
0.906249999999999
40
0.906249999999999
40
0.910156249999999
40
0.910156249999999
40
0.914062499999999
40
0.914062499999999
40
0.921874999999999
40
0.921874999999999
40
0.937499999999999
40
0.937499999999999
40
0.968749999999999
40
0.968749999999999
40
1
40
1
40
1
40
1
41
1
10
150.736835453257
20
12.303
30
0
41
1
10
150.830431690284
20
12.303
30
0
41
1
10
150.924027927311
20
12.2594743988694
30
0
41
1
10
151.111220401364
20
12.0714582327081
30
0
41
1
10
151.204816638391
20
11.9268716246004
30
0
41
1
10
151.392009112444
20
11.5281771409631
30
0
41
1
10
151.485605349471
20
11.2739959053095
30
0
41
1
10
151.672797823524
20
10.6557525650813
30
0
41
1
10
151.766394060551
20
10.2916697499696
30
0
41
1
10
151.953586534605
20
9.46298213663525
30
0
41
1
10
152.047182771632
20
8.99842597752973
30
0
41
1
10
152.234375245685
20
7.98749385275656
30
0
41
1
10
152.327971482712
20
7.44122736993441
30
0
41
1
10
152.515163956765
20
6.29248840836095
30
0
41
1
10
152.608760193792
20
5.69015401050024
30
0
41
1
10
152.795952667845
20
4.45794934270555
30
0
41
1
10
152.889548904872
20
3.82820529210977
30
0
41
1
10
153.076741378925
20
2.56878868717897
30
0
41
1
10
153.170337615952
20
1.93920062874648
30
0
41
1
10
153.310731971492
20
1.01233600751479
30
0
41
1
10
153.357530090006
20
0.706259158829511
30
0
41
1
10
153.416027738147
20
0.328722104935338
30
0
41
1
10
153.427727267776
20
0.253466680236926
30
0
41
1
10
153.451126327032
20
0.103492454190899
30
0
41
1
10
153.462825856661
20
0.0289327360188452
30
0
41
1
10
153.497924445546
20
-0.19506027327327
30
0
41
1
10
153.521323504802
20
-0.345500116431197
30
0
41
1
10
153.638318801086
20
-1.10260503757894
30
0
41
1
10
153.731915038113
20
-1.72422550020656
30
0
41
1
10
153.919107512166
20
-2.97879207676539
30
0
41
1
10
154.012703749193
20
-3.61167674173942
30
0
41
1
10
154.199896223246
20
-4.86287999569657
30
0
41
1
10
154.293492460273
20
-5.48108854562551
30
0
41
1
10
154.480684934326
20
-6.6743215139829
30
0
41
1
10
154.574281171353
20
-7.2492084264056
30
0
41
1
10
154.761473645406
20
-8.3282697609842
30
0
41
1
10
154.855069882433
20
-8.83231691556526
30
0
41
1
10
155.042262356487
20
-9.74738771550057
30
0
41
1
10
155.135858593513
20
-10.1583327145283
30
0
41
1
10
155.323051067567
20
-10.8733333619142
30
0
41
1
10
155.416647304594
20
-11.1773793084074
30
0
41
1
10
155.603839778647
20
-11.6745408267032
30
0
41
1
10
155.697436015674
20
-11.8677094111933
30
0
41
1
10
155.884628489727
20
-12.1482020017123
30
0
41
1
10
155.978224726754
20
-12.2356157594213
30
0
41
1
10
156.095220023037
20
-12.2862044643429
30
0
41
1
10
156.130318611922
20
-12.2969992903435
30
0
41
1
10
156.165417200807
20
-12.3014792091101
30
0
41
1
10
156.188816260064
20
-12.3030927053765
30
0
41
1
10
156.200515789692
20
-12.303215846817
30
0
41
1
10
156.259013437834
20
-12.3004341104615
30
0
41
1
10
156.305811556347
20
-12.2872585573754
30
0
41
1
10
156.446205911888
20
-12.2121203543204
30
0
41
1
10
156.539802148914
20
-12.1143586108268
30
0
41
1
10
156.726994622968
20
-11.8122842754851
30
0
41
1
10
156.820590859994
20
-11.6078842374355
30
0
41
1
10
157.007783334048
20
-11.0882162683238
30
0
41
1
10
157.101379571075
20
-10.7729007606058
30
0
41
1
10
157.288572045128
20
-10.0363185879807
30
0
41
1
10
157.382168282155
20
-9.61506882304255
30
0
41
1
10
157.569360756208
20
-8.68130967878702
30
0
41
1
10
157.662956993235
20
-8.16888526927235
30
0
41
1
10
157.850149467288
20
-7.07570297941777
30
0
41
1
10
157.943745704315
20
-6.49507532450755
30
0
41
1
10
158.130938178369
20
-5.2933077454777
30
0
41
1
10
158.224534415395
20
-4.6723040658857
30
0
41
1
10
158.411726889449
20
-3.4183449640793
30
0
41
1
10
158.505323126476
20
-2.78549522587002
30
0
41
1
10
158.692515600529
20
-1.53338482064197
30
0
41
1
10
158.786111837556
20
-0.9141802957582
30
0
41
1
10
158.891407604211
20
-0.236491580715011
30
0
41
1
10
158.903107133839
20
-0.161451586919441
30
0
41
1
10
158.926506193096
20
-0.0119211131322459
30
0
41
1
10
158.938205722724
20
0.0625139961763921
30
0
41
1
10
158.973304311609
20
0.287179667438949
30
0
41
1
10
158.996703370866
20
0.438042404725735
30
0
41
1
10
159.066900548636
20
0.893489704917585
30
0
41
1
10
159.113698667149
20
1.20094548862454
30
0
41
1
10
159.254093022689
20
2.13115812430542
30
0
41
1
10
159.347689259716
20
2.76192011365149
30
0
41
1
10
159.534881733769
20
4.0210284056123
30
0
41
1
10
159.628477970796
20
4.64928515615455
30
0
41
1
10
159.722074207823
20
5.26243010811913
30
0
0
SPLINE
5
DE
100
AcDbEntity
8
1
62
256
6
ByLayer
370
13
48
1
60
0
100
AcDbSpline
70
4
71
3
72
22
73
18
40
0
40
0
40
0
40
0
40
0.125
40
0.125
40
0.25
40
0.25
40
0.375
40
0.375
40
0.5
40
0.5
40
0.625
40
0.625
40
0.75
40
0.75
40
0.875
40
0.875
40
1
40
1
40
1
40
1
41
1
10
148.8
20
3.46751711239611
30
0
41
1
10
148.891929902989
20
4.08573023908167
30
0
41
1
10
148.983859805978
20
4.70217607080733
30
0
41
1
10
149.167719611956
20
5.90527799643934
30
0
41
1
10
149.259649514945
20
6.49181548981781
30
0
41
1
10
149.443509320923
20
7.60808295266565
30
0
41
1
10
149.535439223912
20
8.13768764263767
30
0
41
1
10
149.71929902989
20
9.1162582424156
30
0
41
1
10
149.811228932879
20
9.56512802904848
30
0
41
1
10
149.995088738857
20
10.3650435242806
30
0
41
1
10
150.087018641846
20
10.7160493194988
30
0
41
1
10
150.270878447823
20
11.3118264267875
30
0
41
1
10
150.362808350813
20
11.556619825744
30
0
41
1
10
150.54666815679
20
11.9406036505419
30
0
41
1
10
150.638598059779
20
12.0798624187275
30
0
41
1
10
150.822457865757
20
12.2610166177998
30
0
41
1
10
150.914387768746
20
12.303
30
0
41
1
10
151.006317671735
20
12.303
30
0
0
SPLINE
5
DF
100
AcDbEntity
8
1
62
256
6
ByLayer
370
13
48
1
60
0
100
AcDbSpline
70
4
71
3
72
88
73
84
40
0
40
0
40
0
40
0
40
0.0312499999999997
40
0.0312499999999997
40
0.0624999999999994
40
0.0624999999999994
40
0.0937499999999991
40
0.0937499999999991
40
0.124999999999999
40
0.124999999999999
40
0.156249999999999
40
0.156249999999999
40
0.187499999999998
40
0.187499999999998
40
0.218749999999998
40
0.218749999999998
40
0.249999999999998
40
0.249999999999998
40
0.281249999999997
40
0.281249999999997
40
0.285156249999997
40
0.285156249999997
40
0.289062499999997
40
0.289062499999997
40
0.296874999999997
40
0.296874999999997
40
0.312499999999998
40
0.312499999999998
40
0.343749999999999
40
0.343749999999999
40
0.374999999999999
40
0.374999999999999
40
0.40625
40
0.40625
40
0.437500000000001
40
0.437500000000001
40
0.468750000000002
40
0.468750000000002
40
0.500000000000003
40
0.500000000000003
40
0.531250000000003
40
0.531250000000003
40
0.562500000000004
40
0.562500000000004
40
0.570312500000004
40
0.570312500000004
40
0.574218750000004
40
0.574218750000004
40
0.578125000000004
40
0.578125000000004
40
0.593750000000004
40
0.593750000000004
40
0.625000000000004
40
0.625000000000004
40
0.656250000000004
40
0.656250000000004
40
0.687500000000003
40
0.687500000000003
40
0.718750000000003
40
0.718750000000003
40
0.750000000000003
40
0.750000000000003
40
0.781250000000002
40
0.781250000000002
40
0.812500000000002
40
0.812500000000002
40
0.843750000000002
40
0.843750000000002
40
0.859375000000001
40
0.859375000000001
40
0.863281250000001
40
0.863281250000001
40
0.867187500000001
40
0.867187500000001
40
0.875000000000001
40
0.875000000000001
40
0.906250000000001
40
0.906250000000001
40
0.937500000000001
40
0.937500000000001
40
0.96875
40
0.96875
40
1
40
1
40
1
40
1
41
1
10
150.252626726469
20
12.303
30
0
41
1
10
150.3512668044
20
12.303
30
0
41
1
10
150.449906882331
20
12.2546341338783
30
0
41
1
10
150.647187038192
20
12.0450240496783
30
0
41
1
10
150.745827116123
20
11.8836557330164
30
0
41
1
10
150.943107271984
20
11.4386795188826
30
0
41
1
10
151.041747349915
20
11.154982089884
30
0
41
1
10
151.239027505777
20
10.4663814862674
30
0
41
1
10
151.337667583707
20
10.0614653266801
30
0
41
1
10
151.534947739569
20
9.14354533982669
30
0
41
1
10
151.6335878175
20
8.63062386612643
30
0
41
1
10
151.830867973361
20
7.5208930911885
30
0
41
1
10
151.929508051292
20
6.92424092468465
30
0
41
1
10
152.126788207154
20
5.6786191924156
30
0
41
1
10
152.225428285084
20
5.02982940733014
30
0
41
1
10
152.422708440946
20
3.71359973054032
30
0
41
1
10
152.521348518877
20
3.04630654400944
30
0
41
1
10
152.718628674738
20
1.72373345761739
30
0
41
1
10
152.817268752669
20
1.06853464917032
30
0
41
1
10
152.928238840341
20
0.351775515210988
30
0
41
1
10
152.940568850082
20
0.272413262228923
30
0
41
1
10
152.965228869565
20
0.114282448162555
30
0
41
1
10
152.977558879306
20
0.0356790490578476
30
0
41
1
10
153.01454890853
20
-0.200363403505747
30
0
41
1
10
153.039208928013
20
-0.35896016213394
30
0
41
1
10
153.113188986461
20
-0.837998278053703
30
0
41
1
10
153.162509025427
20
-1.16170249235557
30
0
41
1
10
153.310469142323
20
-2.14164067982895
30
0
41
1
10
153.409109220254
20
-2.80689612776311
30
0
41
1
10
153.606389376115
20
-4.13356016404549
30
0
41
1
10
153.705029454046
20
-4.7948497701037
30
0
41
1
10
153.902309609907
20
-6.08082252938041
30
0
41
1
10
154.000949687838
20
-6.70533496625589
30
0
41
1
10
154.1982298437
20
-7.88455416906876
30
0
41
1
10
154.296869921631
20
-8.4390860740896
30
0
41
1
10
154.494150077492
20
-9.45009622223708
30
0
41
1
10
154.592790155423
20
-9.9064531952142
30
0
41
1
10
154.790070311284
20
-10.7024765619702
30
0
41
1
10
154.888710389215
20
-11.0421127271672
30
0
41
1
10
155.085990545077
20
-11.5980529542396
30
0
41
1
10
155.184630623008
20
-11.8144161480597
30
0
41
1
10
155.381910778869
20
-12.1286858536885
30
0
41
1
10
155.4805508568
20
-12.2267064030301
30
0
41
1
10
155.603850954213
20
-12.2837222324608
30
0
41
1
10
155.628510973696
20
-12.2918660837173
30
0
41
1
10
155.66550100292
20
-12.2993927945557
30
0
41
1
10
155.677831012661
20
-12.3011203273922
30
0
41
1
10
155.702491032144
20
-12.3030474989888
30
0
41
1
10
155.714821041885
20
-12.3032501682882
30
0
41
1
10
155.776471090592
20
-12.3004941485886
30
0
41
1
10
155.825791129558
20
-12.2861325951098
30
0
41
1
10
155.973751246454
20
-12.2033543320682
30
0
41
1
10
156.072391324384
20
-12.0950063709835
30
0
41
1
10
156.269671480246
20
-11.7592152158596
30
0
41
1
10
156.368311558177
20
-11.5316611260277
30
0
41
1
10
156.565591714038
20
-10.9534265066714
30
0
41
1
10
156.664231791969
20
-10.6026939135664
30
0
41
1
10
156.861511947831
20
-9.78567721626467
30
0
41
1
10
156.960152025761
20
-9.31943219102595
30
0
41
1
10
157.157432181623
20
-8.29086636622097
30
0
41
1
10
157.256072259554
20
-7.72867378234847
30
0
41
1
10
157.453352415415
20
-6.53703167117527
30
0
41
1
10
157.551992493346
20
-5.90775908170056
30
0
41
1
10
157.749272649208
20
-4.61535479072424
30
0
41
1
10
157.847912727138
20
-3.95239069383325
30
0
41
1
10
158.045192883
20
-2.6251862274882
30
0
41
1
10
158.143832960931
20
-1.96105873364254
30
0
41
1
10
158.291793077827
20
-0.984467077319749
30
0
41
1
10
158.341113116792
20
-0.662152263201278
30
0
41
1
10
158.402763165499
20
-0.264977817394168
30
0
41
1
10
158.41509317524
20
-0.185827690124739
30
0
41
1
10
158.439753194723
20
-0.0281346432565215
30
0
41
1
10
158.452083204464
20
0.0502858452418593
30
0
41
1
10
158.489073233688
20
0.286995849392611
30
0
41
1
10
158.513733253171
20
0.446010992674559
30
0
41
1
10
158.637033350584
20
1.24635241577116
30
0
41
1
10
158.735673428515
20
1.90376551595602
30
0
41
1
10
158.932953584377
20
3.22821709452802
30
0
41
1
10
159.031593662308
20
3.89516800709856
30
0
41
1
10
159.228873818169
20
5.20770976151377
30
0
41
1
10
159.3275138961
20
5.85314906106515
30
0
41
1
10
159.524794051961
20
7.08902249544491
30
0
41
1
10
159.623434129892
20
7.67927642782465
30
0
41
1
10
159.722074207823
20
8.22644698330927
30
0
0
SPLINE
5
E0
100
AcDbEntity
8
1
62
256
6
ByLayer
370
13
48
1
60
0
100
AcDbSpline
70
4
71
3
72
22
73
18
40
0
40
0
40
0
40
0
40
0.125
40
0.125
40
0.250000000000001
40
0.250000000000001
40
0.375
40
0.375
40
0.5
40
0.5
40
0.625
40
0.625
40
0.75
40
0.75
40
0.875
40
0.875
40
1
40
1
40
1
40
1
41
1
10
148.8
20
6.63603842314737
30
0
41
1
10
148.871754539373
20
7.0818810673928
30
0
41
1
10
148.943509078746
20
7.51235043585748
30
0
41
1
10
149.087018157491
20
8.33056979945582
30
0
41
1
10
149.158772696864
20
8.7182865987466
30
0
41
1
10
149.30228177561
20
9.44087351873992
30
0
41
1
10
149.374036314982
20
9.77572023041944
30
0
41
1
10
149.517545393728
20
10.3852302763557
30
0
41
1
10
149.589299933101
20
10.6598838162206
30
0
41
1
10
149.732809011846
20
11.1449715773895
30
0
41
1
10
149.804563551219
20
11.355410222044
30
0
41
1
10
149.948072629965
20
11.7114127026548
30
0
41
1
10
150.019827169337
20
11.8569926932402
30
0
41
1
10
150.163336248083
20
12.0856819685012
30
0
41
1
10
150.235090787456
20
12.1688146905079
30
0
41
1
10
150.378599866201
20
12.2774607955667
30
0
41
1
10
150.450354405574
20
12.303
30
0
41
1
10
150.522108944947
20
12.303
30
0
0
SPLINE
5
E1
100
AcDbEntity
8
1
62
256
6
ByLayer
370
13
48
1
60
0
100
AcDbSpline
70
4
71
3
72
131
73
127
40
0
40
0
40
0
40
0
40
0.0312499999999998
40
0.0312499999999998
40
0.0468749999999997
40
0.0468749999999997
40
0.0624999999999995
40
0.0624999999999995
40
0.0781249999999993
40
0.0781249999999993
40
0.0937499999999991
40
0.0937499999999991
40
0.109374999999999
40
0.109374999999999
40
0.124999999999999
40
0.124999999999999
40
0.140624999999998
40
0.140624999999998
40
0.156249999999998
40
0.156249999999998
40
0.171874999999998
40
0.171874999999998
40
0.187499999999998
40
0.187499999999998
40
0.203124999999998
40
0.203124999999998
40
0.218749999999998
40
0.218749999999998
40
0.249999999999997
40
0.249999999999997
40
0.265624999999997
40
0.265624999999997
40
0.273437499999997
40
0.273437499999997
40
0.277343749999997
40
0.277343749999997
40
0.281249999999997
40
0.281249999999997
40
0.312499999999996
40
0.312499999999996
40
0.328124999999996
40
0.328124999999996
40
0.343749999999996
40
0.343749999999996
40
0.359374999999996
40
0.359374999999996
40
0.374999999999996
40
0.374999999999996
40
0.390624999999995
40
0.390624999999995
40
0.406249999999995
40
0.406249999999995
40
0.421874999999995
40
0.421874999999995
40
0.437499999999995
40
0.437499999999995
40
0.453124999999995
40
0.453124999999995
40
0.468749999999995
40
0.468749999999995
40
0.484374999999995
40
0.484374999999995
40
0.499999999999994
40
0.499999999999994
40
0.531249999999994
40
0.531249999999994
40
0.546874999999994
40
0.546874999999994
40
0.550781249999994
40
0.550781249999994
40
0.554687499999994
40
0.562499999999994
40
0.562499999999994
40
0.593749999999995
40
0.593749999999995
40
0.609374999999995
40
0.609374999999995
40
0.624999999999996
40
0.624999999999996
40
0.640624999999996
40
0.640624999999996
40
0.656249999999997
40
0.656249999999997
40
0.671874999999997
40
0.671874999999997
40
0.687499999999997
40
0.687499999999997
40
0.703124999999998
40
0.703124999999998
40
0.718749999999998
40
0.718749999999998
40
0.734374999999999
40
0.734374999999999
40
0.749999999999999
40
0.749999999999999
40
0.765625
40
0.765625
40
0.78125
40
0.78125
40
0.812500000000001
40
0.812500000000001
40
0.820312500000001
40
0.820312500000001
40
0.824218750000001
40
0.824218750000001
40
0.828125000000001
40
0.828125000000001
40
0.843750000000001
40
0.843750000000001
40
0.875000000000001
40
0.875000000000001
40
0.890625000000001
40
0.890625000000001
40
0.90625
40
0.90625
40
0.921875
40
0.921875
40
0.9375
40
0.9375
40
0.953125
40
0.953125
40
0.96875
40
0.96875
40
0.984375
40
0.984375
40
1
40
1
40
1
40
1
41
1
10
149.768417999681
20
12.303
30
0
41
1
10
149.872101918515
20
12.303
30
0
41
1
10
149.97578583735
20
12.2495344160084
30
0
41
1
10
150.131311715602
20
12.0751979106982
30
0
41
1
10
150.18315367502
20
12.0014423752071
30
0
41
1
10
150.286837593855
20
11.8210817436664
30
0
41
1
10
150.338679553272
20
11.714472182693
30
0
41
1
10
150.442363472107
20
11.4675274342196
30
0
41
1
10
150.494205431524
20
11.3271888404902
30
0
41
1
10
150.597889350359
20
11.0127268248438
30
0
41
1
10
150.649731309777
20
10.8386015355082
30
0
41
1
10
150.753415228611
20
10.4574046974986
30
0
41
1
10
150.805257188029
20
10.2503331807305
30
0
41
1
10
150.908941106863
20
9.80500901074652
30
0
41
1
10
150.960783066281
20
9.56675845272426
30
0
41
1
10
151.064466985116
20
9.0617363887946
30
0
41
1
10
151.116308944533
20
8.79496896012986
30
0
41
1
10
151.219992863368
20
8.2363752552989
30
0
41
1
10
151.271834822785
20
7.94455470742196
30
0
41
1
10
151.37551874162
20
7.33997017065226
30
0
41
1
10
151.427360701038
20
7.02721302477721
30
0
41
1
10
151.531044619872
20
6.38533317583173
30
0
41
1
10
151.58288657929
20
6.05621777361813
30
0
41
1
10
151.686570498125
20
5.38644698056618
30
0
41
1
10
151.738412457542
20
5.04579867594657
30
0
41
1
10
151.842096376377
20
4.35781693242947
30
0
41
1
10
151.893938335794
20
4.01048977743994
30
0
41
1
10
152.049464214047
20
2.96550272992931
30
0
41
1
10
152.153148132881
20
2.26509008514762
30
0
41
1
10
152.308674011133
20
1.2334121146414
30
0
41
1
10
152.360515970551
20
0.892618424023169
30
0
41
1
10
152.438278909677
20
0.38854872111844
30
0
41
1
10
152.464199889386
20
0.221707730233618
30
0
41
1
10
152.503081358949
20
-0.0265132625970637
30
0
41
1
10
152.516041848803
20
-0.109084314036664
30
0
41
1
10
152.541962828512
20
-0.275294861677224
30
0
41
1
10
152.554923318366
20
-0.358728225599606
30
0
41
1
10
152.671567727055
20
-1.1123804669823
30
0
41
1
10
152.77525164589
20
-1.80223964511435
30
0
41
1
10
152.930777524142
20
-2.84585804345215
30
0
41
1
10
152.98261948356
20
-3.19512898668302
30
0
41
1
10
153.086303402395
20
-3.89218870193906
30
0
41
1
10
153.138145361812
20
-4.23997257901843
30
0
41
1
10
153.241829280647
20
-4.92941047595042
30
0
41
1
10
153.293671240064
20
-5.27105833337322
30
0
41
1
10
153.397355158899
20
-5.94338099371348
30
0
41
1
10
153.449197118317
20
-6.27404877427549
30
0
41
1
10
153.552881037151
20
-6.9195721231842
30
0
41
1
10
153.604722996569
20
-7.23442038197297
30
0
41
1
10
153.708406915404
20
-7.84368692093432
30
0
41
1
10
153.760248874821
20
-8.13809827193032
30
0
41
1
10
153.863932793656
20
-8.70231085902751
30
0
41
1
10
153.915774753073
20
-8.97210621040077
30
0
41
1
10
154.019458671908
20
-9.48353904089132
30
0
41
1
10
154.071300631325
20
-9.72517223456123
30
0
41
1
10
154.17498455016
20
-10.1775199391946
30
0
41
1
10
154.226826509578
20
-10.388232121382
30
0
41
1
10
154.330510428413
20
-10.7768643279545
30
0
41
1
10
154.38235238783
20
-10.9547840904796
30
0
41
1
10
154.486036306665
20
-11.2768843628116
30
0
41
1
10
154.537878266082
20
-11.4210665397781
30
0
41
1
10
154.641562184917
20
-11.6756490856218
30
0
41
1
10
154.693404144334
20
-11.7860527089315
30
0
41
1
10
154.848930022587
20
-12.0677708611351
30
0
41
1
10
154.952613941421
20
-12.1893204080434
30
0
41
1
10
155.108139819674
20
-12.2829493251495
30
0
41
1
10
155.159981779091
20
-12.2994514380668
30
0
41
1
10
155.224784228363
20
-12.3032435081681
30
0
41
1
10
155.237744718217
20
-12.3031665896695
30
0
41
1
10
155.263665697926
20
-12.3013363412973
30
0
41
1
10
155.302547167489
20
-12.2960626514243
30
0
41
1
10
155.341428637052
20
-12.2830193105286
30
0
41
1
10
155.471033535595
20
-12.2215024321745
30
0
41
1
10
155.57471745443
20
-12.1142418174112
30
0
41
1
10
155.730243332682
20
-11.8548304607995
30
0
41
1
10
155.7820852921
20
-11.7520035875563
30
0
41
1
10
155.885769210935
20
-11.5126844272222
30
0
41
1
10
155.937611170352
20
-11.3761885883678
30
0
41
1
10
156.041295089187
20
-11.0693747665102
30
0
41
1
10
156.093137048604
20
-10.8990547205468
30
0
41
1
10
156.196820967439
20
-10.5253267641205
30
0
41
1
10
156.248662926857
20
-10.3219186577701
30
0
41
1
10
156.352346845692
20
-9.88367508200344
30
0
41
1
10
156.404188805109
20
-9.64884147315996
30
0
41
1
10
156.507872723944
20
-9.15030916856915
30
0
41
1
10
156.559714683361
20
-8.88661433755755
30
0
41
1
10
156.663398602196
20
-8.33373730646017
30
0
41
1
10
156.715240561613
20
-8.04456067123971
30
0
41
1
10
156.818924480448
20
-7.44477032507385
30
0
41
1
10
156.870766439865
20
-7.13416336243031
30
0
41
1
10
156.9744503587
20
-6.49604834094686
30
0
41
1
10
157.026292318118
20
-6.16854756551078
30
0
41
1
10
157.129976236953
20
-5.50145349585952
30
0
41
1
10
157.18181819637
20
-5.16186734409348
30
0
41
1
10
157.285502115205
20
-4.47546469128645
30
0
41
1
10
157.337344074622
20
-4.12865459008498
30
0
41
1
10
157.441027993457
20
-3.43251442711056
30
0
41
1
10
157.492869952874
20
-3.08318957334654
30
0
41
1
10
157.648395831127
20
-2.03800942757164
30
0
41
1
10
157.752079749961
20
-1.34523634695211
30
0
41
1
10
157.881684648505
20
-0.502491780928068
30
0
41
1
10
157.907605628214
20
-0.335082108015598
30
0
41
1
10
157.946487097777
20
-0.085950009293839
30
0
41
1
10
157.959447587631
20
-0.0034653099087052
30
0
41
1
10
157.98536856734
20
0.162141446689731
30
0
41
1
10
157.998329057194
20
0.245282644887055
30
0
41
1
10
158.063131506466
20
0.662568836494245
30
0
41
1
10
158.114973465883
20
1.00147770037108
30
0
41
1
10
158.270499344135
20
2.02869965958459
30
0
41
1
10
158.37418326297
20
2.72775218233488
30
0
41
1
10
158.529709141222
20
3.77377154926302
30
0
41
1
10
158.58155110064
20
4.12195222269676
30
0
41
1
10
158.685235019475
20
4.81272387353653
30
0
41
1
10
158.737076978892
20
5.15530881526175
30
0
41
1
10
158.840760897727
20
5.83005843839143
30
0
41
1
10
158.892602857145
20
6.1622161687402
30
0
41
1
10
158.996286775979
20
6.81126100673993
30
0
41
1
10
159.048128735397
20
7.12814080481857
30
0
41
1
10
159.151812654231
20
7.74197584605227
30
0
41
1
10
159.203654613649
20
8.03892408252182
30
0
41
1
10
159.307338532484
20
8.60865588700995
30
0
41
1
10
159.359180491901
20
8.88143342108904
30
0
41
1
10
159.462864410736
20
9.39919571015227
30
0
41
1
10
159.514706370153
20
9.64417597613155
30
0
41
1
10
159.618390288988
20
10.103487558622
30
0
41
1
10
159.670232248405
20
10.317816314192
30
0
41
1
10
159.722074207823
20
10.5158319952719
30
0
0
SPLINE
5
E2
100
AcDbEntity
8
1
62
256
6
ByLayer
370
13
48
1
60
0
100
AcDbSpline
70
4
71
3
72
18
73
14
40
0
40
0
40
0
40
0
40
0.125
40
0.125
40
0.250000000000001
40
0.250000000000001
40
0.375000000000001
40
0.375000000000001
40
0.500000000000002
40
0.500000000000002
40
0.750000000000001
40
0.750000000000001
40
1
40
1
40
1
40
1
41
1
10
148.8
20
9.34489624579572
30
0
41
1
10
148.851579175757
20
9.59497694622718
30
0
41
1
10
148.903158351513
20
9.83088021736694
30
0
41
1
10
149.006316703026
20
10.2717481203171
30
0
41
1
10
149.057895878783
20
10.476710780967
30
0
41
1
10
149.161054230296
20
10.8539849380075
30
0
41
1
10
149.212633406053
20
11.0262964631742
30
0
41
1
10
149.315791757566
20
11.3374640557148
30
0
41
1
10
149.367370933323
20
11.476321986857
30
0
41
1
10
149.522108460593
20
11.8428246407737
30
0
41
1
10
149.625266812106
20
12.0200673898575
30
0
41
1
10
149.831583515132
20
12.2500779429784
30
0
41
1
10
149.934741866645
20
12.303
30
0
41
1
10
150.037900218159
20
12.303
30
0
0
SPLINE
5
E3
100
AcDbEntity
8
1
62
256
6
ByLayer
370
13
48
1
60
0
100
AcDbSpline
70
4
71
3
72
141
73
137
40
0
40
0
40
0
40
0
40
0.0156249999999997
40
0.0156249999999997
40
0.0312499999999994
40
0.0312499999999994
40
0.046874999999999
40
0.046874999999999
40
0.0624999999999987
40
0.0624999999999987
40
0.0781249999999984
40
0.0781249999999984
40
0.0937499999999981
40
0.0937499999999981
40
0.109374999999998
40
0.109374999999998
40
0.124999999999998
40
0.124999999999998
40
0.140624999999997
40
0.140624999999997
40
0.156249999999997
40
0.156249999999997
40
0.171874999999997
40
0.171874999999997
40
0.187499999999996
40
0.187499999999996
40
0.203124999999996
40
0.203124999999996
40
0.218749999999996
40
0.218749999999996
40
0.234374999999995
40
0.234374999999995
40
0.249999999999995
40
0.249999999999995
40
0.257812499999995
40
0.257812499999995
40
0.265624999999995
40
0.265624999999995
40
0.281249999999995
40
0.281249999999995
40
0.296874999999995
40
0.296874999999995
40
0.312499999999995
40
0.312499999999995
40
0.328124999999995
40
0.328124999999995
40
0.343749999999995
40
0.343749999999995
40
0.359374999999995
40
0.359374999999995
40
0.374999999999995
40
0.374999999999995
40
0.390624999999995
40
0.390624999999995
40
0.406249999999995
40
0.406249999999995
40
0.421874999999996
40
0.421874999999996
40
0.437499999999996
40
0.437499999999996
40
0.453124999999996
40
0.453124999999996
40
0.468749999999996
40
0.468749999999996
40
0.484374999999996
40
0.484374999999996
40
0.499999999999996
40
0.499999999999996
40
0.515624999999996
40
0.515624999999996
40
0.523437499999996
40
0.523437499999996
40
0.531249999999996
40
0.531249999999996
40
0.546874999999996
40
0.546874999999996
40
0.562499999999997
40
0.562499999999997
40
0.578124999999997
40
0.578124999999997
40
0.593749999999997
40
0.593749999999997
40
0.609374999999997
40
0.609374999999997
40
0.624999999999997
40
0.624999999999997
40
0.640624999999997
40
0.640624999999997
40
0.656249999999997
40
0.656249999999997
40
0.671874999999997
40
0.671874999999997
40
0.687499999999998
40
0.687499999999998
40
0.703124999999998
40
0.703124999999998
40
0.718749999999998
40
0.718749999999998
40
0.734374999999998
40
0.734374999999998
40
0.749999999999998
40
0.749999999999998
40
0.765624999999998
40
0.765624999999998
40
0.781249999999998
40
0.781249999999998
40
0.785156249999998
40
0.785156249999998
40
0.789062499999998
40
0.796874999999999
40
0.796874999999999
40
0.812499999999999
40
0.812499999999999
40
0.828124999999999
40
0.828124999999999
40
0.843749999999999
40
0.843749999999999
40
0.859374999999999
40
0.859374999999999
40
0.874999999999999
40
0.874999999999999
40
0.890624999999999
40
0.890624999999999
40
0.906249999999999
40
0.906249999999999
40
0.921875
40
0.921875
40
0.9375
40
0.9375
40
0.953125
40
0.953125
40
0.96875
40
0.96875
40
0.984375
40
0.984375
40
1
40
1
40
1
40
1
41
1
10
149.284209272892
20
12.303
30
0
41
1
10
149.338573152762
20
12.303
30
0
41
1
10
149.392937032631
20
12.288353613691
30
0
41
1
10
149.50166479237
20
12.22687641661
30
0
41
1
10
149.556028672239
20
12.1800391624491
30
0
41
1
10
149.664756431978
20
12.0517689593296
30
0
41
1
10
149.719120311848
20
11.9703297011382
30
0
41
1
10
149.827848071586
20
11.771130239587
30
0
41
1
10
149.882211951456
20
11.6533645326406
30
0
41
1
10
149.990939711195
20
11.380652853981
30
0
41
1
10
150.045303591064
20
11.2257029009423
30
0
41
1
10
150.154031350803
20
10.8787744074212
30
0
41
1
10
150.208395230672
20
10.6867940526695
30
0
41
1
10
150.317122990411
20
10.2670567485882
30
0
41
1
10
150.371486870281
20
10.0393005955909
30
0
41
1
10
150.48021463002
20
9.5503807473772
30
0
41
1
10
150.534578509889
20
9.28922059182676
30
0
41
1
10
150.643306269628
20
8.73691398549829
30
0
41
1
10
150.697670149497
20
8.44577358330523
30
0
41
1
10
150.806397909236
20
7.8378348234771
30
0
41
1
10
150.860761789106
20
7.52104444058133
30
0
41
1
10
150.969489548845
20
6.86682822183346
30
0
41
1
10
151.023853428714
20
6.52941145021137
30
0
41
1
10
151.132581188453
20
5.83940008619763
30
0
41
1
10
151.186945068322
20
5.48681470422002
30
0
41
1
10
151.295672828061
20
4.77208105260348
30
0
41
1
10
151.350036707931
20
4.40994125107983
30
0
41
1
10
151.458764467669
20
3.68160246902033
30
0
41
1
10
151.513128347539
20
3.31541051590875
30
0
41
1
10
151.621856107278
20
2.58412498165419
30
0
41
1
10
151.676219987147
20
2.2190365594677
30
0
41
1
10
151.784947746886
20
1.49458528619516
30
0
41
1
10
151.839311626755
20
1.13522558505258
30
0
41
1
10
151.92085744656
20
0.603459154323446
30
0
41
1
10
151.948039386494
20
0.427410463846201
30
0
41
1
10
152.002403266364
20
0.0781555987410627
30
0
41
1
10
152.029585206298
20
-0.0943435728629254
30
0
41
1
10
152.111131026103
20
-0.618489795024487
30
0
41
1
10
152.165494905972
20
-0.973602870821196
30
0
41
1
10
152.274222665711
20
-1.69157049465898
30
0
41
1
10
152.32858654558
20
-2.05442283983598
30
0
41
1
10
152.437314305319
20
-2.78355139141485
30
0
41
1
10
152.491678185189
20
-3.14982341141814
30
0
41
1
10
152.600405944927
20
-3.88087520593584
30
0
41
1
10
152.654769824797
20
-4.24564882289951
30
0
41
1
10
152.763497584536
20
-4.96834466751503
30
0
41
1
10
152.817861464405
20
-5.32625905339413
30
0
41
1
10
152.926589224144
20
-6.02964565421189
30
0
41
1
10
152.980953104014
20
-6.37510891652525
30
0
41
1
10
153.089680863752
20
-7.04802527738755
30
0
41
1
10
153.144044743622
20
-7.37546912281664
30
0
41
1
10
153.252772503361
20
-8.00707788671156
30
0
41
1
10
153.30713638323
20
-8.31123418771861
30
0
41
1
10
153.415864142969
20
-8.89157009844141
30
0
41
1
10
153.470228022838
20
-9.1677426349556
30
0
41
1
10
153.578955782577
20
-9.68822305429342
30
0
41
1
10
153.633319662447
20
-9.93252612977847
30
0
41
1
10
153.742047422185
20
-10.3863702438515
30
0
41
1
10
153.796411302055
20
-10.5959091514399
30
0
41
1
10
153.905139061794
20
-10.9784234647608
30
0
41
1
10
153.959502941663
20
-11.1513994582823
30
0
41
1
10
154.068230701402
20
-11.460105356196
30
0
41
1
10
154.122594581272
20
-11.5958382630981
30
0
41
1
10
154.23132234101
20
-11.8304389387357
30
0
41
1
10
154.28568622088
20
-11.9293115616432
30
0
41
1
10
154.394413980619
20
-12.091515918685
30
0
41
1
10
154.448777860488
20
-12.1548536607908
30
0
41
1
10
154.557505620227
20
-12.2480900797442
30
0
41
1
10
154.611869500096
20
-12.2779952122247
30
0
41
1
10
154.693415319901
20
-12.2997909089491
30
0
41
1
10
154.720597259835
20
-12.3032168078829
30
0
41
1
10
154.774961139705
20
-12.3027620086883
30
0
41
1
10
154.802143079639
20
-12.2988701000319
30
0
41
1
10
154.883688899444
20
-12.2756415164764
30
0
41
1
10
154.938052779313
20
-12.2447358951606
30
0
41
1
10
155.046780539052
20
-12.1494233511978
30
0
41
1
10
155.101144418921
20
-12.0850099769132
30
0
41
1
10
155.20987217866
20
-11.9206005332706
30
0
41
1
10
155.26423605853
20
-11.820598480901
30
0
41
1
10
155.372963818268
20
-11.5837120650843
30
0
41
1
10
155.427327698138
20
-11.4468228948377
30
0
41
1
10
155.536055457877
20
-11.1358090633369
30
0
41
1
10
155.590419337746
20
-10.9616814671449
30
0
41
1
10
155.699147097485
20
-10.5769028125093
30
0
41
1
10
155.753510977354
20
-10.3662512477722
30
0
41
1
10
155.862238737093
20
-9.91025548650239
30
0
41
1
10
155.916602616963
20
-9.66491350666374
30
0
41
1
10
156.025330376702
20
-9.14246173241025
30
0
41
1
10
156.079694256571
20
-8.86535682372332
30
0
41
1
10
156.18842201631
20
-8.28329088595567
30
0
41
1
10
156.242785896179
20
-7.9783369902394
30
0
41
1
10
156.351513655918
20
-7.3452893754469
30
0
41
1
10
156.405877535788
20
-7.01720430780912
30
0
41
1
10
156.514605295527
20
-6.34317538064306
30
0
41
1
10
156.568969175396
20
-5.99724077870019
30
0
41
1
10
156.677696935135
20
-5.29308624991023
30
0
41
1
10
156.732060815004
20
-4.93487525237839
30
0
41
1
10
156.840788574743
20
-4.21175743658583
30
0
41
1
10
156.895152454612
20
-3.84685841499021
30
0
41
1
10
157.003880214352
20
-3.11571624474181
30
0
41
1
10
157.058244094221
20
-2.74947919522538
30
0
41
1
10
157.16697185396
20
-2.02056446749981
30
0
41
1
10
157.221335733829
20
-1.65789091296176
30
0
41
1
10
157.330063493568
20
-0.940404322378811
30
0
41
1
10
157.384427373437
20
-0.585593429945135
30
0
41
1
10
157.452382223274
20
-0.149245765175124
30
0
41
1
10
157.465973193241
20
-0.0624542060279225
30
0
41
1
10
157.493155133176
20
0.110891913951633
30
0
41
1
10
157.533928043078
20
0.37204030424445
30
0
41
1
10
157.57470095298
20
0.636357683909154
30
0
41
1
10
157.656246772785
20
1.16857058521228
30
0
41
1
10
157.710610652654
20
1.52817157460097
30
0
41
1
10
157.819338412393
20
2.25297119625299
30
0
41
1
10
157.873702292262
20
2.61816661667979
30
0
41
1
10
157.982430052001
20
3.34951325095466
30
0
41
1
10
158.036793931871
20
3.71565924426031
30
0
41
1
10
158.14552169161
20
4.44373937584552
30
0
41
1
10
158.199885571479
20
4.80566643400905
30
0
41
1
10
158.308613331218
20
5.51980061649215
30
0
41
1
10
158.362977211087
20
5.87199923787736
30
0
41
1
10
158.471704970826
20
6.56106377679075
30
0
41
1
10
158.526068850695
20
6.89792047440224
30
0
41
1
10
158.634796610434
20
7.55085254110918
30
0
41
1
10
158.689160490304
20
7.86691886575287
30
0
41
1
10
158.797888250043
20
8.47326328345343
30
0
41
1
10
158.852252129912
20
8.7635334499829
30
0
41
1
10
158.960979889651
20
9.31397858807728
30
0
41
1
10
159.01534376952
20
9.5741475818478
30
0
41
1
10
159.124071529259
20
10.0609949762142
30
0
41
1
10
159.178435409129
20
10.2876699207594
30
0
41
1
10
159.287163168867
20
10.7051888251665
30
0
41
1
10
159.341527048737
20
10.8960320735999
30
0
41
1
10
159.450254808476
20
11.2406652268156
30
0
41
1
10
159.504618688345
20
11.3944570212089
30
0
41
1
10
159.613346448084
20
11.664864373333
30
0
41
1
10
159.667710327954
20
11.7814839700767
30
0
41
1
10
159.722074207823
20
11.8799582650623
30
0
0
SPLINE
5
E4
100
AcDbEntity
8
1
62
256
6
ByLayer
370
13
48
1
60
0
100
AcDbSpline
70
4
71
3
72
8
73
4
40
0
40
0
40
0
40
0
40
1
40
1
40
1
40
1
41
1
10
159.452592535449
20
12.303
30
0
41
1
10
159.542419759573
20
12.303
30
0
41
1
10
159.632246983698
20
12.2629224593485
30
0
41
1
10
159.722074207823
20
12.1765787934534
30
0
0
SPLINE
5
E5
100
AcDbEntity
8
1
62
256
6
ByLayer
370
13
48
1
60
0
100
AcDbSpline
70
4
71
3
72
14
73
10
40
0
40
0
40
0
40
0
40
0.25
40
0.25
40
0.5
40
0.5
40
0.75
40
0.75
40
1
40
1
40
1
40
1
41
1
10
148.8
20
11.2413602592756
30
0
41
1
10
148.862807624281
20
11.4255576377858
30
0
41
1
10
148.925615248562
20
11.5849016208373
30
0
41
1
10
149.051230497123
20
11.8543671754249
30
0
41
1
10
149.114038121404
20
11.9644987724822
30
0
41
1
10
149.239653369966
20
12.1377113656469
30
0
41
1
10
149.302460994247
20
12.2008049663085
30
0
41
1
10
149.428076242808
20
12.2834426423384
30
0
41
1
10
149.490883867089
20
12.303
30
0
41
1
10
149.55369149137
20
12.303
30
0
0
SPLINE
5
E6
100
AcDbEntity
8
1
62
256
6
ByLayer
370
13
48
1
60
0
100
AcDbSpline
70
4
71
3
72
134
73
130
40
0
40
0
40
0
40
0
40
0.015625
40
0.015625
40
0.03125
40
0.03125
40
0.046875
40
0.046875
40
0.0625
40
0.0625
40
0.078125
40
0.078125
40
0.09375
40
0.09375
40
0.109375
40
0.109375
40
0.125
40
0.125
40
0.140625
40
0.140625
40
0.15625
40
0.15625
40
0.171875
40
0.171875
40
0.1875
40
0.1875
40
0.203125
40
0.203125
40
0.21875
40
0.21875
40
0.234375
40
0.234375
40
0.25
40
0.25
40
0.265625
40
0.265625
40
0.28125
40
0.28125
40
0.296875
40
0.296875
40
0.3125
40
0.3125
40
0.328125
40
0.328125
40
0.34375
40
0.34375
40
0.359375
40
0.359375
40
0.375
40
0.375
40
0.390625
40
0.390625
40
0.40625
40
0.40625
40
0.421875
40
0.421875
40
0.4375
40
0.4375
40
0.453125
40
0.453125
40
0.46875
40
0.46875
40
0.484375
40
0.484375
40
0.5
40
0.5
40
0.515625
40
0.515625
40
0.53125
40
0.53125
40
0.546875
40
0.546875
40
0.5625
40
0.5625
40
0.578125
40
0.578125
40
0.59375
40
0.59375
40
0.609375
40
0.609375
40
0.625
40
0.625
40
0.640625
40
0.640625
40
0.65625
40
0.65625
40
0.671875
40
0.671875
40
0.6875
40
0.6875
40
0.703125
40
0.703125
40
0.71875
40
0.71875
40
0.734375
40
0.734375
40
0.75
40
0.75
40
0.765625
40
0.765625
40
0.78125
40
0.78125
40
0.796875
40
0.796875
40
0.8125
40
0.8125
40
0.828125
40
0.828125
40
0.84375
40
0.84375
40
0.859375
40
0.859375
40
0.875
40
0.875
40
0.890625
40
0.890625
40
0.90625
40
0.90625
40
0.921875
40
0.921875
40
0.9375
40
0.9375
40
0.953125
40
0.953125
40
0.96875
40
0.96875
40
0.984375
40
0.984375
40
1
40
1
40
1
40
1
41
1
10
148.800000546104
20
12.303
30
0
41
1
10
148.856886346425
20
12.303
30
0
41
1
10
148.913772146747
20
12.2869613999221
30
0
41
1
10
149.02754374739
20
12.2195050915249
30
0
41
1
10
149.084429547711
20
12.1680792943949
30
0
41
1
10
149.198201148354
20
12.0271326431473
30
0
41
1
10
149.255086948676
20
11.9376039345943
30
0
41
1
10
149.368858549318
20
11.7185789291171
30
0
41
1
10
149.42574434964
20
11.5890759443771
30
0
41
1
10
149.539515950283
20
11.2892951714336
30
0
41
1
10
149.596401750604
20
11.1190128409551
30
0
41
1
10
149.710173351247
20
10.7381037167796
30
0
41
1
10
149.767059151568
20
10.5274753717601
30
0
41
1
10
149.880830752211
20
10.067636591141
30
0
41
1
10
149.937716552533
20
9.81842811504831
30
0
41
1
10
150.051488153176
20
9.28451897902289
30
0
41
1
10
150.108373953497
20
8.99982383442028
30
0
41
1
10
150.22214555414
20
8.39924634414891
30
0
41
1
10
150.279031354462
20
8.08337258487418
30
0
41
1
10
150.392802955104
20
7.42574400110391
30
0
41
1
10
150.449688755426
20
7.08399988623964
30
0
41
1
10
150.563460356069
20
6.38064436058852
30
0
41
1
10
150.62034615639
20
6.01904454800959
30
0
41
1
10
150.734117757033
20
5.2823594242569
30
0
41
1
10
150.791003557355
20
4.90728531520162
30
0
41
1
10
150.904775157998
20
4.15005447129337
30
0
41
1
10
150.961660958319
20
3.7679074380967
30
0
41
1
10
151.075432558962
20
3.00263708866567
30
0
41
1
10
151.132318359283
20
2.61952121402595
30
0
41
1
10
151.246089959926
20
1.857863253109
30
0
41
1
10
151.302975760248
20
1.47932600095544
30
0
41
1
10
151.416747360891
20
0.731633980262529
30
0
41
1
10
151.473633161212
20
0.362481476151998
30
0
41
1
10
151.587404761855
20
-0.362479736245064
30
0
41
1
10
151.644290562176
20
-0.73163220070532
30
0
41
1
10
151.758062162819
20
-1.47932419159096
30
0
41
1
10
151.814947963141
20
-1.85786143235791
30
0
41
1
10
151.928719563784
20
-2.61951937881884
30
0
41
1
10
151.985605364105
20
-3.00263525039341
30
0
41
1
10
152.099376964748
20
-3.7679056030712
30
0
41
1
10
152.156262765069
20
-4.15005264258375
30
0
41
1
10
152.270034365712
20
-4.90728350920307
30
0
41
1
10
152.326920166034
20
-5.28235763465671
30
0
41
1
10
152.440691766677
20
-6.01904280152104
30
0
41
1
10
152.497577566998
20
-6.38064264081484
30
0
41
1
10
152.611349167641
20
-7.08399822990657
30
0
41
1
10
152.668234967963
20
-7.42574238149621
30
0
41
1
10
152.782006568606
20
-8.08337104786443
30
0
41
1
10
152.838892368927
20
-8.39924485300935
30
0
41
1
10
152.95266396957
20
-8.99982244278763
30
0
41
1
10
153.009549769891
20
-9.28451764102277
30
0
41
1
10
153.123321370534
20
-9.81842689028429
30
0
41
1
10
153.180207170856
20
-10.0676354259751
30
0
41
1
10
153.293978771499
20
-10.5274743296995
30
0
41
1
10
153.35086457182
20
-10.7381027382203
30
0
41
1
10
153.464636172463
20
-11.1190119911503
30
0
41
1
10
153.521521972784
20
-11.2892943868767
30
0
41
1
10
153.635293573427
20
-11.5890752899859
30
0
41
1
10
153.692179373749
20
-11.7185783396396
30
0
41
1
10
153.805950974392
20
-11.9376034727514
30
0
41
1
10
153.862836774713
20
-12.0271322440228
30
0
41
1
10
153.976608375356
20
-12.1680790169752
30
0
41
1
10
154.033494175678
20
-12.2195048730904
30
0
41
1
10
154.14726577632
20
-12.286961294566
30
0
41
1
10
154.204151576642
20
-12.3029999487374
30
0
41
1
10
154.317923177285
20
-12.3030000512624
30
0
41
1
10
154.374808977606
20
-12.2869615052779
30
0
41
1
10
154.488580578249
20
-12.2195053099591
30
0
41
1
10
154.545466378571
20
-12.1680795718144
30
0
41
1
10
154.659237979214
20
-12.0271330422715
30
0
41
1
10
154.716123779535
20
-11.9376043964368
30
0
41
1
10
154.829895380178
20
-11.7185795185943
30
0
41
1
10
154.886781180499
20
-11.5890765987679
30
0
41
1
10
155.000552781142
20
-11.2892959559902
30
0
41
1
10
155.057438581464
20
-11.1190136907596
30
0
41
1
10
155.171210182107
20
-10.7381046953387
30
0
41
1
10
155.228095982428
20
-10.5274764138204
30
0
41
1
10
155.341867583071
20
-10.0676377563066
30
0
41
1
10
155.398753383392
20
-9.81842933981204
30
0
41
1
10
155.512524984035
20
-9.28452031702278
30
0
41
1
10
155.569410784357
20
-8.99982522605271
30
0
41
1
10
155.683182385
20
-8.39924783528826
30
0
41
1
10
155.740068185321
20
-8.08337412188371
30
0
41
1
10
155.853839785964
20
-7.42574562071144
30
0
41
1
10
155.910725586286
20
-7.08400154257251
30
0
41
1
10
156.024497186929
20
-6.38064608036206
30
0
41
1
10
156.08138298725
20
-6.01904629449803
30
0
41
1
10
156.195154587893
20
-5.282361213857
30
0
41
1
10
156.252040388214
20
-4.90728712120008
30
0
41
1
10
156.365811988857
20
-4.15005630000297
30
0
41
1
10
156.422697789179
20
-3.7679092731222
30
0
41
1
10
156.536469389821
20
-3.00263892693792
30
0
41
1
10
156.593355190143
20
-2.6195230492331
30
0
41
1
10
156.707126790786
20
-1.85786507386018
30
0
41
1
10
156.764012591107
20
-1.47932781031997
30
0
41
1
10
156.87778419175
20
-0.731635759819824
30
0
41
1
10
156.934669992072
20
-0.362483237292594
30
0
41
1
10
157.048441592715
20
0.362478017571704
30
0
41
1
10
157.105327393036
20
0.731630421148196
30
0
41
1
10
157.219098993679
20
1.47932238222657
30
0
41
1
10
157.275984794
20
1.85785961160681
30
0
41
1
10
157.389756394643
20
2.61951754361175
30
0
41
1
10
157.446642194965
20
3.00263341212119
30
0
41
1
10
157.560413795608
20
3.7679037680457
30
0
41
1
10
157.617299595929
20
4.15005081387409
30
0
41
1
10
157.731071196572
20
4.90728170320449
30
0
41
1
10
157.787956996893
20
5.28235584505643
30
0
41
1
10
157.901728597536
20
6.01904105503237
30
0
41
1
10
157.958614397858
20
6.38064092104105
30
0
41
1
10
158.072385998501
20
7.08399657357336
30
0
41
1
10
158.129271798822
20
7.42574076188831
30
0
41
1
10
158.243043399465
20
8.08336951085448
30
0
41
1
10
158.299929199787
20
8.39924336186951
30
0
41
1
10
158.41370080043
20
8.99982105115473
30
0
41
1
10
158.470586600751
20
9.28451630302234
30
0
41
1
10
158.584358201394
20
9.81842566551998
30
0
41
1
10
158.641244001715
20
10.067634260809
30
0
41
1
10
158.755015602358
20
10.5274732876385
30
0
41
1
10
158.81190140268
20
10.7381017596607
30
0
41
1
10
158.925673003322
20
11.1190111413452
30
0
41
1
10
158.982558803644
20
11.2892936023195
30
0
41
1
10
159.096330404287
20
11.5890746355944
30
0
41
1
10
159.153216204608
20
11.7185777501618
30
0
41
1
10
159.266987805251
20
11.9376030109082
30
0
41
1
10
159.323873605573
20
12.0271318448981
30
0
41
1
10
159.437645206216
20
12.1680787395551
30
0
41
1
10
159.494531006537
20
12.2195046546556
30
0
41
1
10
159.60830260718
20
12.2869611892097
30
0
41
1
10
159.665188407501
20
12.3029998974745
30
0
41
1
10
159.722074207823
20
12.3029999999995
30
0
0
SPLINE
5
E7
100
AcDbEntity
8
1
62
256
6
ByLayer
370
13
48
1
60
0
100
AcDbSpline
70
4
71
3
72
14
73
10
40
0
40
0
40
0
40
0
40
0.25
40
0.25
40
0.5
40
0.5
40
0.75
40
0.75
40
1
40
1
40
1
40
1
41
1
10
158.96838380866
20
12.303
30
0
41
1
10
159.031191341924
20
12.303
30
0
41
1
10
159.093998875187
20
12.2834426991146
30
0
41
1
10
159.219613941714
20
12.2008052687937
30
0
41
1
10
159.282421474978
20
12.1377118571612
30
0
41
1
10
159.408036541505
20
11.9644997870265
30
0
41
1
10
159.470844074769
20
11.8543685240565
30
0
41
1
10
159.596459141296
20
11.5849037866521
30
0
41
1
10
159.659266674559
20
11.4255602867533
30
0
41
1
10
159.722074207823
20
11.2413634624151
30
0
0
SPLINE
5
E8
100
AcDbEntity
8
1
62
256
6
ByLayer
370
13
48
1
60
0
100
AcDbSpline
70
4
71
3
72
8
73
4
40
0
40
0
40
0
40
0
40
1
40
1
40
1
40
1
41
1
10
148.8
20
12.1765777436002
30
0
41
1
10
148.889827588194
20
12.2629221332423
30
0
41
1
10
148.979655176388
20
12.303
30
0
41
1
10
149.069482764582
20
12.303
30
0
0
SPLINE
5
E9
100
AcDbEntity
8
1
62
256
6
ByLayer
370
13
48
1
60
0
100
AcDbSpline
70
4
71
3
72
142
73
138
40
0
40
0
40
0
40
0
40
0.0156250000000002
40
0.0156250000000002
40
0.0312500000000004
40
0.0312500000000004
40
0.0468750000000005
40
0.0468750000000005
40
0.0625000000000007
40
0.0625000000000007
40
0.0781250000000009
40
0.0781250000000009
40
0.0937500000000011
40
0.0937500000000011
40
0.109375000000001
40
0.109375000000001
40
0.125000000000001
40
0.125000000000001
40
0.140625000000002
40
0.140625000000002
40
0.156250000000002
40
0.156250000000002
40
0.171875000000002
40
0.171875000000002
40
0.187500000000002
40
0.187500000000002
40
0.203125000000002
40
0.203125000000002
40
0.210937500000002
40
0.210937500000002
40
0.214843750000002
40
0.214843750000002
40
0.218750000000002
40
0.218750000000002
40
0.234375000000002
40
0.234375000000002
40
0.250000000000002
40
0.250000000000002
40
0.265625000000002
40
0.265625000000002
40
0.281250000000002
40
0.281250000000002
40
0.296875000000002
40
0.296875000000002
40
0.312500000000002
40
0.312500000000002
40
0.328125000000002
40
0.328125000000002
40
0.343750000000002
40
0.343750000000002
40
0.359375000000002
40
0.359375000000002
40
0.375000000000002
40
0.375000000000002
40
0.390625000000002
40
0.390625000000002
40
0.406250000000002
40
0.406250000000002
40
0.421875000000002
40
0.421875000000002
40
0.437500000000002
40
0.437500000000002
40
0.453125000000002
40
0.453125000000002
40
0.468750000000002
40
0.468750000000002
40
0.476562500000002
40
0.476562500000002
40
0.484375000000002
40
0.484375000000002
40
0.500000000000002
40
0.500000000000002
40
0.515625000000002
40
0.515625000000002
40
0.531250000000001
40
0.531250000000001
40
0.546875000000001
40
0.546875000000001
40
0.562500000000001
40
0.562500000000001
40
0.578125000000001
40
0.578125000000001
40
0.593750000000001
40
0.593750000000001
40
0.609375000000001
40
0.609375000000001
40
0.625000000000001
40
0.625000000000001
40
0.640625000000001
40
0.640625000000001
40
0.656250000000001
40
0.656250000000001
40
0.671875000000001
40
0.671875000000001
40
0.687500000000001
40
0.687500000000001
40
0.703125000000001
40
0.703125000000001
40
0.718750000000001
40
0.718750000000001
40
0.734375000000001
40
0.734375000000001
40
0.742187500000001
40
0.742187500000001
40
0.750000000000001
40
0.750000000000001
40
0.765625000000001
40
0.765625000000001
40
0.781250000000001
40
0.781250000000001
40
0.796875000000001
40
0.796875000000001
40
0.812500000000001
40
0.812500000000001
40
0.828125000000001
40
0.828125000000001
40
0.843750000000001
40
0.843750000000001
40
0.859375000000001
40
0.859375000000001
40
0.875
40
0.875
40
0.890625
40
0.890625
40
0.90625
40
0.90625
40
0.921875
40
0.921875
40
0.9375
40
0.9375
40
0.953125
40
0.953125
40
0.96875
40
0.96875
40
0.984375
40
0.984375
40
1
40
1
40
1
40
1
41
1
10
148.8
20
11.8799602434755
30
0
41
1
10
148.854363885558
20
11.7814861807041
30
0
41
1
10
148.908727771116
20
11.6648668168715
30
0
41
1
10
149.017455542232
20
11.3944599254481
30
0
41
1
10
149.07181942779
20
11.2406683588302
30
0
41
1
10
149.180547198906
20
10.8960356491232
30
0
41
1
10
149.234911084464
20
10.7051926164063
30
0
41
1
10
149.34363885558
20
10.2876741245557
30
0
41
1
10
149.398002741138
20
10.0609993768335
30
0
41
1
10
149.506730512254
20
9.57415235100203
30
0
41
1
10
149.561094397812
20
9.31398352892859
30
0
41
1
10
149.669822168928
20
8.76353870397594
30
0
41
1
10
149.724186054486
20
8.47326867888017
30
0
41
1
10
149.832913825602
20
7.86692451014525
30
0
41
1
10
149.88727771116
20
7.55085829302817
30
0
41
1
10
149.996005482276
20
6.8979264055663
30
0
41
1
10
150.050369367834
20
6.56106977967406
30
0
41
1
10
150.15909713895
20
5.87200534829657
30
0
41
1
10
150.213461024508
20
5.51980676273448
30
0
41
1
10
150.322188795624
20
4.80567261759904
30
0
41
1
10
150.376552681182
20
4.44374556097085
30
0
41
1
10
150.485280452298
20
3.71566540119397
30
0
41
1
10
150.539644337856
20
3.34951937817456
30
0
41
1
10
150.648372108972
20
2.61817265730946
30
0
41
1
10
150.702735994531
20
2.25297718001988
30
0
41
1
10
150.811463765646
20
1.5281774222307
30
0
41
1
10
150.865827651205
20
1.16857635358011
30
0
41
1
10
150.947373479542
20
0.636363320327604
30
0
41
1
10
150.97455542232
20
0.460151687726039
30
0
41
1
10
151.015328336489
20
0.197947132128405
30
0
41
1
10
151.028919307879
20
0.110897407695546
30
0
41
1
10
151.056101250657
20
-0.0624487620993079
30
0
41
1
10
151.069692222047
20
-0.149240291885519
30
0
41
1
10
151.137647078995
20
-0.585587927724845
30
0
41
1
10
151.192010964553
20
-0.940398806696464
30
0
41
1
10
151.300738735668
20
-1.65788539231767
30
0
41
1
10
151.355102621227
20
-2.02055895536461
30
0
41
1
10
151.463830392343
20
-2.74947372406567
30
0
41
1
10
151.518194277901
20
-3.11571080605663
30
0
41
1
10
151.626922049017
20
-3.84685306633483
30
0
41
1
10
151.681285934575
20
-4.2117521454918
30
0
41
1
10
151.790013705691
20
-4.93487010152251
30
0
41
1
10
151.844377591249
20
-5.2930811817341
30
0
41
1
10
151.953105362365
20
-5.99723589980527
30
0
41
1
10
152.007469247923
20
-6.34317060834857
30
0
41
1
10
152.116197019039
20
-7.01719977018345
30
0
41
1
10
152.170560904597
20
-7.34528496588419
30
0
41
1
10
152.279288675713
20
-7.97833285465393
30
0
41
1
10
152.333652561271
20
-8.28328689627506
30
0
41
1
10
152.442380332387
20
-8.86535313914831
30
0
41
1
10
152.496744217945
20
-9.14245820702376
30
0
41
1
10
152.605471989061
20
-9.66491030778445
30
0
41
1
10
152.659835874619
20
-9.91025245492847
30
0
41
1
10
152.768563645735
20
-10.3662485535533
30
0
41
1
10
152.822927531293
20
-10.5769002883274
30
0
41
1
10
152.931655302409
20
-10.9616792805727
30
0
41
1
10
152.986019187967
20
-11.135807044327
30
0
41
1
10
153.094746959083
20
-11.4468212038109
30
0
41
1
10
153.149110844641
20
-11.5837105344711
30
0
41
1
10
153.257838615757
20
-11.8205972600946
30
0
41
1
10
153.312202501315
20
-11.920599461854
30
0
41
1
10
153.420930272431
20
-12.0850091903358
30
0
41
1
10
153.475294157989
20
-12.1494227000699
30
0
41
1
10
153.584021929105
20
-12.2447354990794
30
0
41
1
10
153.638385814663
20
-12.2756412399954
30
0
41
1
10
153.719931643
20
-12.2988699903488
30
0
41
1
10
153.747113585779
20
-12.3027619525114
30
0
41
1
10
153.801477471337
20
-12.3032168544932
30
0
41
1
10
153.828659414116
20
-12.2997910072113
30
0
41
1
10
153.910205242453
20
-12.2779954672732
30
0
41
1
10
153.964569128011
20
-12.2480904411339
30
0
41
1
10
154.073296899127
20
-12.1548542359915
30
0
41
1
10
154.127660784685
20
-12.0915166013516
30
0
41
1
10
154.236388555801
20
-11.9293124574548
30
0
41
1
10
154.290752441359
20
-11.8304399402209
30
0
41
1
10
154.399480212475
20
-11.5958394709654
30
0
41
1
10
154.453844098033
20
-11.4601066647647
30
0
41
1
10
154.562571869149
20
-11.1514009600445
30
0
41
1
10
154.616935754707
20
-10.9784250590071
30
0
41
1
10
154.725663525823
20
-10.5959109193686
30
0
41
1
10
154.780027411381
20
-10.3863720929706
30
0
41
1
10
154.888755182497
20
-9.93252812733064
30
0
41
1
10
154.943119068055
20
-9.68822511908161
30
0
41
1
10
155.051846839171
20
-9.16774481824427
30
0
41
1
10
155.106210724729
20
-8.89157233299022
30
0
41
1
10
155.214938495845
20
-8.31123650760046
30
0
41
1
10
155.269302381403
20
-8.00708024066489
30
0
41
1
10
155.378030152519
20
-7.3754715274068
30
0
41
1
10
155.432394038077
20
-7.04802769854473
30
0
41
1
10
155.541121809193
20
-6.37511135388351
30
0
41
1
10
155.595485694751
20
-6.02964809120866
30
0
41
1
10
155.704213465867
20
-5.32626147410582
30
0
41
1
10
155.758577351426
20
-4.96834707230948
30
0
41
1
10
155.867305122541
20
-4.24565118230015
30
0
41
1
10
155.9216690081
20
-3.88087753586711
30
0
41
1
10
156.030396779216
20
-3.14982567127708
30
0
41
1
10
156.084760664774
20
-2.78355361067796
30
0
41
1
10
156.193488435889
20
-2.05442496940259
30
0
41
1
10
156.247852321448
20
-1.69157257513112
30
0
41
1
10
156.356580092564
20
-0.973604847228188
30
0
41
1
10
156.410943978122
20
-0.618491716465513
30
0
41
1
10
156.492489806459
20
-0.0943454092945331
30
0
41
1
10
156.519671749238
20
0.0781537812600561
30
0
41
1
10
156.574035634796
20
0.427408663306181
30
0
41
1
10
156.601217577575
20
0.603457363253057
30
0
41
1
10
156.682763405912
20
1.13522382541853
30
0
41
1
10
156.73712729147
20
1.49458355156784
30
0
41
1
10
156.845855062586
20
2.2190348828326
30
0
41
1
10
156.900218948144
20
2.58412333800609
30
0
41
1
10
157.00894671926
20
3.31540894567647
30
0
41
1
10
157.063310604818
20
3.68160093921708
30
0
41
1
10
157.172038375934
20
4.40993980859096
30
0
41
1
10
157.226402261492
20
4.77207965699861
30
0
41
1
10
157.335130032608
20
5.48681340742121
30
0
41
1
10
157.389493918166
20
5.83939884131789
30
0
41
1
10
157.498221689282
20
6.52941031242256
30
0
41
1
10
157.55258557484
20
6.86682713921201
30
0
41
1
10
157.661313345956
20
7.52104346950748
30
0
41
1
10
157.715677231514
20
7.83783390877804
30
0
41
1
10
157.82440500263
20
8.44577278042394
30
0
41
1
10
157.878768888188
20
8.73691323805431
30
0
41
1
10
157.987496659304
20
9.28921995224366
30
0
41
1
10
158.041860544862
20
9.55038016021265
30
0
41
1
10
158.150588315978
20
10.039300108394
30
0
41
1
10
158.204952201536
20
10.2670563089367
30
0
41
1
10
158.313679972652
20
10.6867937017453
30
0
41
1
10
158.36804385821
20
10.8787740976768
30
0
41
1
10
158.476771629326
20
11.225702666153
30
0
41
1
10
158.531135514884
20
11.3806526529666
30
0
41
1
10
158.639863286
20
11.6533643912197
30
0
41
1
10
158.694227171558
20
11.771130123986
30
0
41
1
10
158.802954942674
20
11.970329629143
30
0
41
1
10
158.857318828232
20
12.0517689051229
30
0
41
1
10
158.966046599348
20
12.1800391361235
30
0
41
1
10
159.020410484906
20
12.22687640038
30
0
41
1
10
159.129138256022
20
12.2883536106222
30
0
41
1
10
159.18350214158
20
12.303
30
0
41
1
10
159.237866027138
20
12.303
30
0
0
SPLINE
5
EA
100
AcDbEntity
8
1
62
256
6
ByLayer
370
13
48
1
60
0
100
AcDbSpline
70
4
71
3
72
18
73
14
40
0
40
0
40
0
40
0
40
0.250000000000001
40
0.250000000000001
40
0.500000000000001
40
0.500000000000001
40
0.625000000000001
40
0.625000000000001
40
0.750000000000001
40
0.750000000000001
40
0.875
40
0.875
40
1
40
1
40
1
40
1
41
1
10
158.484175081872
20
12.303
30
0
41
1
10
158.587333342368
20
12.303
30
0
41
1
10
158.690491602864
20
12.2500780368611
30
0
41
1
10
158.896808123856
20
12.0200679047939
30
0
41
1
10
158.999966384351
20
11.8428254835403
30
0
41
1
10
159.154703775095
20
11.4763235056787
30
0
41
1
10
159.206282905343
20
11.3374658302698
30
0
41
1
10
159.309441165839
20
11.0262988067951
30
0
41
1
10
159.361020296087
20
10.8539875949616
30
0
41
1
10
159.464178556583
20
10.4767141156959
30
0
41
1
10
159.515757686831
20
10.2717518194773
30
0
41
1
10
159.618915947327
20
9.83088468679608
30
0
41
1
10
159.670495077575
20
9.59498182147297
30
0
41
1
10
159.722074207823
20
9.34490154134141
30
0
0
SPLINE
5
EB
100
AcDbEntity
8
1
62
256
6
ByLayer
370
13
48
1
60
0
100
AcDbSpline
70
4
71
3
72
132
73
128
40
0
40
0
40
0
40
0
40
0.015625
40
0.015625
40
0.03125
40
0.03125
40
0.046875
40
0.046875
40
0.0625
40
0.0625
40
0.078125
40
0.078125
40
0.09375
40
0.09375
40
0.109375
40
0.109375
40
0.125
40
0.125
40
0.15625
40
0.15625
40
0.171875
40
0.171875
40
0.17578125
40
0.17578125
40
0.1796875
40
0.1796875
40
0.1875
40
0.1875
40
0.21875
40
0.21875
40
0.234375
40
0.234375
40
0.25
40
0.25
40
0.265624999999999
40
0.265624999999999
40
0.281249999999999
40
0.281249999999999
40
0.296874999999999
40
0.296874999999999
40
0.312499999999999
40
0.312499999999999
40
0.328124999999999
40
0.328124999999999
40
0.343749999999999
40
0.343749999999999
40
0.359374999999999
40
0.359374999999999
40
0.374999999999999
40
0.374999999999999
40
0.390624999999999
40
0.390624999999999
40
0.406249999999998
40
0.406249999999998
40
0.437499999999998
40
0.437499999999998
40
0.445312499999998
40
0.445312499999998
40
0.449218749999998
40
0.449218749999998
40
0.453124999999998
40
0.453124999999998
40
0.468749999999998
40
0.468749999999998
40
0.499999999999998
40
0.499999999999998
40
0.515624999999998
40
0.515624999999998
40
0.531249999999998
40
0.531249999999998
40
0.546874999999998
40
0.546874999999998
40
0.562499999999998
40
0.562499999999998
40
0.578124999999998
40
0.578124999999998
40
0.593749999999998
40
0.593749999999998
40
0.609374999999998
40
0.609374999999998
40
0.624999999999998
40
0.624999999999998
40
0.640624999999998
40
0.640624999999998
40
0.656249999999998
40
0.656249999999998
40
0.671874999999998
40
0.671874999999998
40
0.687499999999998
40
0.687499999999998
40
0.718749999999998
40
0.718749999999998
40
0.722656249999998
40
0.722656249999998
40
0.726562499999998
40
0.726562499999998
40
0.734374999999998
40
0.734374999999998
40
0.749999999999998
40
0.749999999999998
40
0.781249999999998
40
0.781249999999998
40
0.796874999999999
40
0.796874999999999
40
0.812499999999999
40
0.812499999999999
40
0.828124999999999
40
0.828124999999999
40
0.843749999999999
40
0.843749999999999
40
0.859374999999999
40
0.859374999999999
40
0.874999999999999
40
0.874999999999999
40
0.890624999999999
40
0.890624999999999
40
0.906249999999999
40
0.906249999999999
40
0.921875
40
0.921875
40
0.9375
40
0.9375
40
0.953125
40
0.953125
40
0.96875
40
0.96875
40
1
40
1
40
1
40
1
41
1
10
148.8
20
10.5158361670676
30
0
41
1
10
148.851841965106
20
10.3178206928482
30
0
41
1
10
148.903683930212
20
10.1034921352232
30
0
41
1
10
149.007367860424
20
9.64418092511141
30
0
41
1
10
149.05920982553
20
9.39920083355307
30
0
41
1
10
149.162893755742
20
8.88143886502814
30
0
41
1
10
149.214735720848
20
8.60866147705684
30
0
41
1
10
149.31841965106
20
8.03892993294602
30
0
41
1
10
149.370261616166
20
7.7419818107407
30
0
41
1
10
149.473945546378
20
7.12814696414793
30
0
41
1
10
149.525787511484
20
6.81126724644554
30
0
41
1
10
149.629471441696
20
6.16222253483352
30
0
41
1
10
149.681313406802
20
5.83006485050049
30
0
41
1
10
149.784997337014
20
5.15531528607335
30
0
41
1
10
149.83683930212
20
4.81273035704294
30
0
41
1
10
149.940523232332
20
4.12195870062487
30
0
41
1
10
149.992365197438
20
3.77377800892839
30
0
41
1
10
150.147891092756
20
2.72775854586553
30
0
41
1
10
150.251575022968
20
2.02870590374596
30
0
41
1
10
150.407100918286
20
1.00148370831224
30
0
41
1
10
150.458942883392
20
0.662574756220693
30
0
41
1
10
150.523745339774
20
0.245288445328811
30
0
41
1
10
150.536705831051
20
0.162147222823506
30
0
41
1
10
150.562626813604
20
-0.0034595832237017
30
0
41
1
10
150.57558730488
20
-0.0859442746035484
30
0
41
1
10
150.61446877871
20
-0.335076355035767
30
0
41
1
10
150.640389761263
20
-0.50248601803807
30
0
41
1
10
150.769994674028
20
-1.34523054670652
30
0
41
1
10
150.87367860424
20
-2.03800363683544
30
0
41
1
10
151.029204499558
20
-3.08318386720097
30
0
41
1
10
151.081046464664
20
-3.43250876081004
30
0
41
1
10
151.184730394875
20
-4.12864902750371
30
0
41
1
10
151.236572359981
20
-4.4754591925838
30
0
41
1
10
151.340256290194
20
-5.16186199693738
30
0
41
1
10
151.392098255299
20
-5.50144823637311
30
0
41
1
10
151.495782185511
20
-6.1685425038325
30
0
41
1
10
151.547624150617
20
-6.49604338940551
30
0
41
1
10
151.651308080829
20
-7.13415865122508
30
0
41
1
10
151.703150045935
20
-7.44476574406289
30
0
41
1
10
151.806833976147
20
-8.04455636728426
30
0
41
1
10
151.858675941253
20
-8.33373314935795
30
0
41
1
10
151.962359871465
20
-8.88661048664159
30
0
41
1
10
152.014201836571
20
-9.15030547697597
30
0
41
1
10
152.117885766783
20
-9.64883810798887
30
0
41
1
10
152.169727731889
20
-9.88367188392064
30
0
41
1
10
152.273411662101
20
-10.3219157967445
30
0
41
1
10
152.325253627207
20
-10.5253240730532
30
0
41
1
10
152.428937557419
20
-10.899052367518
30
0
41
1
10
152.480779522525
20
-11.0693725815526
30
0
41
1
10
152.584463452737
20
-11.3761867333487
30
0
41
1
10
152.636305417843
20
-11.5126827340641
30
0
41
1
10
152.739989348055
20
-11.7520022082555
30
0
41
1
10
152.791831313161
20
-11.8548292334916
30
0
41
1
10
152.947357208479
20
-12.1142410270124
30
0
41
1
10
153.051041138691
20
-12.2215019071943
30
0
41
1
10
153.180646051456
20
-12.2830190772619
30
0
41
1
10
153.206567034009
20
-12.2917146942315
30
0
41
1
10
153.245448507838
20
-12.2995782346069
30
0
41
1
10
153.258408999115
20
-12.3013362726398
30
0
41
1
10
153.284329981668
20
-12.303166573374
30
0
41
1
10
153.297290472945
20
-12.3032435173664
30
0
41
1
10
153.362092929327
20
-12.2994515760332
30
0
41
1
10
153.413934894433
20
-12.2829495682531
30
0
41
1
10
153.569460789751
20
-12.1893209697651
30
0
41
1
10
153.673144719963
20
-12.0677716396822
30
0
41
1
10
153.828670615281
20
-11.786053803468
30
0
41
1
10
153.880512580387
20
-11.675650283906
30
0
41
1
10
153.984196510599
20
-11.4210679394623
30
0
41
1
10
154.036038475705
20
-11.2768858601417
30
0
41
1
10
154.139722405917
20
-10.9547857740928
30
0
41
1
10
154.191564371023
20
-10.7768661001981
30
0
41
1
10
154.295248301235
20
-10.3882340591939
30
0
41
1
10
154.347090266341
20
-10.1775219539382
30
0
41
1
10
154.450774196553
20
-9.72517438922242
30
0
41
1
10
154.502616161659
20
-9.48354125853336
30
0
41
1
10
154.606300091871
20
-8.97210853840912
30
0
41
1
10
154.658142056977
20
-8.70231323441823
30
0
41
1
10
154.761825987189
20
-8.13810072556836
30
0
41
1
10
154.813667952295
20
-7.84368940543666
30
0
41
1
10
154.917351882507
20
-7.23442291154794
30
0
41
1
10
154.969193847613
20
-6.91957466696931
30
0
41
1
10
155.072877777825
20
-6.2740513304519
30
0
41
1
10
155.124719742931
20
-5.94338354807502
30
0
41
1
10
155.228403673143
20
-5.27106086938107
30
0
41
1
10
155.280245638249
20
-4.92941299542485
30
0
41
1
10
155.383929568461
20
-4.23997505254383
30
0
41
1
10
155.435771533567
20
-3.89219114605487
30
0
41
1
10
155.539455463778
20
-3.19513136130183
30
0
41
1
10
155.591297428885
20
-2.84586037798954
30
0
41
1
10
155.746823324202
20
-1.8022418469686
30
0
41
1
10
155.850507254414
20
-1.11238256387628
30
0
41
1
10
155.967151675903
20
-0.358730196326036
30
0
41
1
10
155.980112167179
20
-0.275296818271158
30
0
41
1
10
156.006033149732
20
-0.10908624217123
30
0
41
1
10
156.018993641009
20
-0.0265151730552589
30
0
41
1
10
156.057875114839
20
0.221705831357582
30
0
41
1
10
156.083796097391
20
0.388546830910315
30
0
41
1
10
156.16155904505
20
0.892616562697242
30
0
41
1
10
156.213401010156
20
1.2334102764186
30
0
41
1
10
156.368926905474
20
2.2650883277405
30
0
41
1
10
156.472610835686
20
2.96550104193818
30
0
41
1
10
156.628136731004
20
4.0104882134566
30
0
41
1
10
156.67997869611
20
4.35781541304723
30
0
41
1
10
156.783662626322
20
5.04579725115118
30
0
41
1
10
156.835504591428
20
5.38644560575455
30
0
41
1
10
156.93918852164
20
6.05621650266525
30
0
41
1
10
156.991030486746
20
6.38533195875064
30
0
41
1
10
157.094714416958
20
7.02721191756908
30
0
41
1
10
157.146556382064
20
7.33996911944109
30
0
41
1
10
157.250240312276
20
7.94455376841455
30
0
41
1
10
157.302082277382
20
8.2363743724936
30
0
41
1
10
157.405766207594
20
8.79496818799498
30
0
41
1
10
157.4576081727
20
9.06173567112347
30
0
41
1
10
157.561292102912
20
9.56675784041852
30
0
41
1
10
157.613134068018
20
9.80500844933857
30
0
41
1
10
157.71681799823
20
10.2503327159714
30
0
41
1
10
157.768659963336
20
10.4574042784878
30
0
41
1
10
157.872343893548
20
10.8386012016068
30
0
41
1
10
157.924185858654
20
11.0127265303022
30
0
41
1
10
158.027869788866
20
11.3271886174465
30
0
41
1
10
158.079711753972
20
11.4675272433142
30
0
41
1
10
158.183395684184
20
11.7144720484337
30
0
41
1
10
158.23523764929
20
11.8210816339161
30
0
41
1
10
158.338921579502
20
12.0014423068398
30
0
41
1
10
158.390763544608
20
12.075197859207
30
0
41
1
10
158.546289439926
20
12.2495344042119
30
0
41
1
10
158.649973370138
20
12.303
30
0
41
1
10
158.75365730035
20
12.303
30
0
0
SPLINE
5
EC
100
AcDbEntity
8
1
62
256
6
ByLayer
370
13
48
1
60
0
100
AcDbSpline
70
4
71
3
72
22
73
18
40
0
40
0
40
0
40
0
40
0.125
40
0.125
40
0.25
40
0.25
40
0.375
40
0.375
40
0.5
40
0.5
40
0.625
40
0.625
40
0.75
40
0.75
40
0.875
40
0.875
40
1
40
1
40
1
40
1
41
1
10
157.999966355083
20
12.303
30
0
41
1
10
158.071720848948
20
12.303
30
0
41
1
10
158.143475342812
20
12.2774608280346
30
0
41
1
10
158.28698433054
20
12.1688148647587
30
0
41
1
10
158.358738824404
20
12.0856822521484
30
0
41
1
10
158.502247812133
20
11.8569932798377
30
0
41
1
10
158.574002305997
20
11.7114134828742
30
0
41
1
10
158.717511293725
20
11.3554114739003
30
0
41
1
10
158.789265787589
20
11.1449731072934
30
0
41
1
10
158.932774775317
20
10.6598859781826
30
0
41
1
10
159.004529269181
20
10.3852327923082
30
0
41
1
10
159.14803825691
20
9.77572351297792
30
0
41
1
10
159.219792750774
20
9.44087721383701
30
0
41
1
10
159.363301738502
20
8.71829115275716
30
0
41
1
10
159.435056232366
20
8.33057479972089
30
0
41
1
10
159.578565220095
20
7.51235633325706
30
0
41
1
10
159.650319713959
20
7.08188741553633
30
0
41
1
10
159.722074207823
20
6.63604520951313
30
0
0
SPLINE
5
ED
100
AcDbEntity
8
1
62
256
6
ByLayer
370
13
48
1
60
0
100
AcDbSpline
70
4
71
3
72
87
73
83
40
0
40
0
40
0
40
0
40
0.0312500000000008
40
0.0312500000000008
40
0.0625000000000017
40
0.0625000000000017
40
0.0937500000000025
40
0.0937500000000025
40
0.125000000000003
40
0.125000000000003
40
0.132812500000003
40
0.132812500000003
40
0.136718750000003
40
0.136718750000003
40
0.140625000000003
40
0.140625000000003
40
0.156250000000003
40
0.156250000000003
40
0.187500000000004
40
0.187500000000004
40
0.218750000000004
40
0.218750000000004
40
0.250000000000004
40
0.250000000000004
40
0.281250000000004
40
0.281250000000004
40
0.312500000000005
40
0.312500000000005
40
0.343750000000005
40
0.343750000000005
40
0.375000000000005
40
0.375000000000005
40
0.406250000000005
40
0.406250000000005
40
0.421875000000005
40
0.421875000000005
40
0.425781250000005
40
0.425781250000005
40
0.429687500000006
40
0.437500000000006
40
0.437500000000006
40
0.468750000000005
40
0.468750000000005
40
0.500000000000005
40
0.500000000000005
40
0.531250000000004
40
0.531250000000004
40
0.562500000000004
40
0.562500000000004
40
0.593750000000004
40
0.593750000000004
40
0.625000000000003
40
0.625000000000003
40
0.656250000000003
40
0.656250000000003
40
0.687500000000003
40
0.687500000000003
40
0.703125000000003
40
0.703125000000003
40
0.710937500000003
40
0.710937500000003
40
0.714843750000003
40
0.714843750000003
40
0.718750000000002
40
0.718750000000002
40
0.750000000000002
40
0.750000000000002
40
0.781250000000002
40
0.781250000000002
40
0.812500000000002
40
0.812500000000002
40
0.843750000000001
40
0.843750000000001
40
0.875000000000001
40
0.875000000000001
40
0.906250000000001
40
0.906250000000001
40
0.937500000000001
40
0.937500000000001
40
0.96875
40
0.96875
40
1
40
1
40
1
40
1
41
1
10
148.8
20
8.22645304193742
30
0
41
1
10
148.898640089308
20
7.67928273960283
30
0
41
1
10
148.997280178616
20
7.08902899853683
30
0
41
1
10
149.194560357232
20
5.85315581473182
30
0
41
1
10
149.29320044654
20
5.2077165745516
30
0
41
1
10
149.490480625155
20
3.89517481904736
30
0
41
1
10
149.589120714463
20
3.22822384628162
30
0
41
1
10
149.786400893079
20
1.90377205453413
30
0
41
1
10
149.885040982387
20
1.24635880165658
30
0
41
1
10
150.008341094022
20
0.44601715036913
30
0
41
1
10
150.033001116349
20
0.287001959585808
30
0
41
1
10
150.06999114984
20
0.0502918817670945
30
0
41
1
10
150.082321161003
20
-0.0281286202026081
30
0
41
1
10
150.10698118333
20
-0.185821654311724
30
0
41
1
10
150.119311194494
20
-0.264971775739582
30
0
41
1
10
150.180961250311
20
-0.662146195119419
30
0
41
1
10
150.230281294965
20
-0.984460997008171
30
0
41
1
10
150.378241428927
20
-1.96105264655148
30
0
41
1
10
150.476881518235
20
-2.62518017609293
30
0
41
1
10
150.674161696851
20
-3.95238480499251
30
0
41
1
10
150.772801786159
20
-4.61534902888033
30
0
41
1
10
150.970081964775
20
-5.90775366358679
30
0
41
1
10
151.068722054083
20
-6.53702646980327
30
0
41
1
10
151.266002232698
20
-7.72866908773889
30
0
41
1
10
151.364642322006
20
-8.29086196147526
30
0
41
1
10
151.561922500622
20
-9.31942840995978
30
0
41
1
10
151.66056258993
20
-9.78567376874358
30
0
41
1
10
151.857842768546
20
-10.6026911415872
30
0
41
1
10
151.956482857854
20
-10.95342407642
30
0
41
1
10
152.15376303647
20
-11.5316593545762
30
0
41
1
10
152.252403125778
20
-11.759213761318
30
0
41
1
10
152.449683304394
20
-12.0950055017112
30
0
41
1
10
152.548323393702
20
-12.2033537311343
30
0
41
1
10
152.696283527663
20
-12.2861323513592
30
0
41
1
10
152.745603572317
20
-12.3004940164393
30
0
41
1
10
152.807253628135
20
-12.30325016604
30
0
41
1
10
152.819583639298
20
-12.3030475222079
30
0
41
1
10
152.844243661625
20
-12.3011204021973
30
0
41
1
10
152.881233695116
20
-12.2959381618987
30
0
41
1
10
152.918223728606
20
-12.2837224637464
30
0
41
1
10
153.041523840241
20
-12.2267068983468
30
0
41
1
10
153.140163929549
20
-12.1286865654984
30
0
41
1
10
153.337444108165
20
-11.814417284892
30
0
41
1
10
153.436084197473
20
-11.5980542994722
30
0
41
1
10
153.633364376089
20
-11.0421144598001
30
0
41
1
10
153.732004465397
20
-10.7024784734291
30
0
41
1
10
153.929284644012
20
-9.90645541535935
30
0
41
1
10
154.02792473332
20
-9.45009857209195
30
0
41
1
10
154.225204911936
20
-8.43908862185617
30
0
41
1
10
154.323845001244
20
-7.88455678498082
30
0
41
1
10
154.52112517986
20
-6.70533765478439
30
0
41
1
10
154.619765269168
20
-6.08082522244175
30
0
41
1
10
154.817045447784
20
-4.79485241671614
30
0
41
1
10
154.915685537092
20
-4.13356275981832
30
0
41
1
10
155.112965715708
20
-2.80689858157157
30
0
41
1
10
155.211605805015
20
-2.1416430426651
30
0
41
1
10
155.359565938977
20
-1.16170470172381
30
0
41
1
10
155.408885983631
20
-0.83800043343436
30
0
41
1
10
155.482866050612
20
-0.358962233826105
30
0
41
1
10
155.507526072939
20
-0.200365446849446
30
0
41
1
10
155.54451610643
20
0.0356770487357494
30
0
41
1
10
155.556846117593
20
0.114280446888728
30
0
41
1
10
155.58150613992
20
0.272411269199068
30
0
41
1
10
155.593836151084
20
0.351773526529144
30
0
41
1
10
155.704806251555
20
1.06853270166815
30
0
41
1
10
155.803446340863
20
1.72373156146952
30
0
41
1
10
156.000726519479
20
3.04630477905897
30
0
41
1
10
156.099366608787
20
3.71359804545179
30
0
41
1
10
156.296646787403
20
5.02982790432222
30
0
41
1
10
156.395286876711
20
5.67861779158619
30
0
41
1
10
156.592567055327
20
6.92423973945066
30
0
41
1
10
156.691207144634
20
7.52089201927339
30
0
41
1
10
156.88848732325
20
8.6306230180939
30
0
41
1
10
156.987127412558
20
9.1435446022378
30
0
41
1
10
157.184407591174
20
10.0614647937926
30
0
41
1
10
157.283047680482
20
10.4663810475482
30
0
41
1
10
157.480327859098
20
11.1549818137936
30
0
41
1
10
157.578967948406
20
11.4386793112284
30
0
41
1
10
157.776248127022
20
11.8836556327289
30
0
41
1
10
157.87488821633
20
12.0450239883592
30
0
41
1
10
158.072168394946
20
12.254634122668
30
0
41
1
10
158.170808484253
20
12.303
30
0
41
1
10
158.269448573561
20
12.303
30
0
0
SPLINE
5
EE
100
AcDbEntity
8
1
62
256
6
ByLayer
370
13
48
1
60
0
100
AcDbSpline
70
4
71
3
72
22
73
18
40
0
40
0
40
0
40
0
40
0.125
40
0.125
40
0.25
40
0.25
40
0.375
40
0.375
40
0.5
40
0.5
40
0.625
40
0.625
40
0.75
40
0.75
40
0.875
40
0.875
40
1
40
1
40
1
40
1
41
1
10
157.515757628295
20
12.303
30
0
41
1
10
157.607687485776
20
12.303
30
0
41
1
10
157.699617343256
20
12.2610166595338
30
0
41
1
10
157.883477058216
20
12.0798626460273
30
0
41
1
10
157.975406915697
20
11.940604021887
30
0
41
1
10
158.159266630657
20
11.5566205949143
30
0
41
1
10
158.251196488138
20
11.3118274498721
30
0
41
1
10
158.435056203098
20
10.7160509507954
30
0
41
1
10
158.526986060579
20
10.3650455098439
30
0
41
1
10
158.710845775539
20
9.56513079533082
30
0
41
1
10
158.80277563302
20
9.11626143492668
30
0
41
1
10
158.98663534798
20
8.13769171654505
30
0
41
1
10
159.078565205461
20
7.60808748139129
30
0
41
1
10
159.262424920421
20
6.49182090776367
30
0
41
1
10
159.354354777902
20
5.90528384844529
30
0
41
1
10
159.538214492862
20
4.70218272596259
30
0
41
1
10
159.630144350343
20
4.08573726311448
30
0
41
1
10
159.722074207823
20
3.46752445730695
30
0
0
SPLINE
5
EF
100
AcDbEntity
8
1
62
256
6
ByLayer
370
13
48
1
60
0
100
AcDbSpline
70
4
71
3
72
87
73
83
40
0
40
0
40
0
40
0
40
0.03125
40
0.03125
40
0.0624999999999999
40
0.0624999999999999
40
0.0781249999999999
40
0.0781249999999999
40
0.0859374999999999
40
0.0859374999999999
40
0.0898437499999999
40
0.0898437499999999
40
0.0937499999999999
40
0.0937499999999999
40
0.125
40
0.125
40
0.15625
40
0.15625
40
0.1875
40
0.1875
40
0.21875
40
0.21875
40
0.25
40
0.25
40
0.28125
40
0.28125
40
0.3125
40
0.3125
40
0.34375
40
0.34375
40
0.375
40
0.375
40
0.390625
40
0.390625
40
0.39453125
40
0.39453125
40
0.3984375
40
0.40625
40
0.40625
40
0.4375
40
0.4375
40
0.46875
40
0.46875
40
0.5
40
0.5
40
0.53125
40
0.53125
40
0.5625
40
0.5625
40
0.59375
40
0.59375
40
0.625
40
0.625
40
0.656249999999999
40
0.656249999999999
40
0.687499999999999
40
0.687499999999999
40
0.695312499999999
40
0.695312499999999
40
0.699218749999999
40
0.699218749999999
40
0.703124999999999
40
0.703124999999999
40
0.718749999999999
40
0.718749999999999
40
0.749999999999999
40
0.749999999999999
40
0.78125
40
0.78125
40
0.8125
40
0.8125
40
0.84375
40
0.84375
40
0.875
40
0.875
40
0.90625
40
0.90625
40
0.9375
40
0.9375
40
0.96875
40
0.96875
40
1
40
1
40
1
40
1
41
1
10
148.8
20
5.26243726312242
30
0
41
1
10
148.893596248404
20
4.64929235489407
30
0
41
1
10
148.987192496808
20
4.02103558837649
30
0
41
1
10
149.174384993616
20
2.76192716470891
30
0
41
1
10
149.267981242019
20
2.13116505987011
30
0
41
1
10
149.408375614625
20
1.20095219738494
30
0
41
1
10
149.455173738827
20
0.893496329189645
30
0
41
1
10
149.52537092513
20
0.438048891706359
30
0
41
1
10
149.548769987231
20
0.287186106895945
30
0
41
1
10
149.583868580383
20
0.0625203620493835
30
0
41
1
10
149.595568111433
20
-0.0119147669919641
30
0
41
1
10
149.618967173534
20
-0.161445227835628
30
0
41
1
10
149.630666704585
20
-0.236485215668409
30
0
41
1
10
149.735962484039
20
-0.914173881774644
30
0
41
1
10
149.829558732443
20
-1.53337839701578
30
0
41
1
10
150.016751229251
20
-2.78548886459473
30
0
41
1
10
150.110347477655
20
-3.41833867494
30
0
41
1
10
150.297539974462
20
-4.67229800852402
30
0
41
1
10
150.391136222866
20
-5.29330184783694
30
0
41
1
10
150.578328719674
20
-6.49506982777032
30
0
41
1
10
150.671924968078
20
-7.07569772382607
30
0
41
1
10
150.859117464885
20
-8.16888055866809
30
0
41
1
10
150.952713713289
20
-8.68130527186435
30
0
41
1
10
151.139906210097
20
-9.61506505769012
30
0
41
1
10
151.233502458501
20
-10.0363151602883
30
0
41
1
10
151.420694955309
20
-10.7728980103259
30
0
41
1
10
151.514291203713
20
-11.0882138575883
30
0
41
1
10
151.70148370052
20
-11.6078824790392
30
0
41
1
10
151.795079948924
20
-11.8122828297664
30
0
41
1
10
151.982272445732
20
-12.1143577432546
30
0
41
1
10
152.075868694136
20
-12.2121197522081
30
0
41
1
10
152.216263066742
20
-12.2872583104214
30
0
41
1
10
152.263061190944
20
-12.3004339748017
30
0
41
1
10
152.321558846196
20
-12.3032158411691
30
0
41
1
10
152.333258377247
20
-12.3030927252013
30
0
41
1
10
152.356657439348
20
-12.3014792804842
30
0
41
1
10
152.391756032499
20
-12.2969994393946
30
0
41
1
10
152.426854625651
20
-12.28620469202
30
0
41
1
10
152.543849936156
20
-12.2356162507605
30
0
41
1
10
152.637446184559
20
-12.1482027091815
30
0
41
1
10
152.824638681367
20
-11.8677105448789
30
0
41
1
10
152.918234929771
20
-11.6745421703752
30
0
41
1
10
153.105427426579
20
-11.1773810468088
30
0
41
1
10
153.199023674983
20
-10.8733352849198
30
0
41
1
10
153.38621617179
20
-10.1583349633185
30
0
41
1
10
153.479812420194
20
-9.74739010534094
30
0
41
1
10
153.667004917002
20
-8.83231953116908
30
0
41
1
10
153.760601165406
20
-8.32827246123395
30
0
41
1
10
153.947793662214
20
-7.24921123513164
30
0
41
1
10
154.041389910618
20
-6.67432434656337
30
0
41
1
10
154.228582407425
20
-5.48109136977334
30
0
41
1
10
154.322178655829
20
-4.86288278765684
30
0
41
1
10
154.509371152637
20
-3.61167942505301
30
0
41
1
10
154.602967401041
20
-2.97879468374711
30
0
41
1
10
154.790159897849
20
-1.72422792571749
30
0
41
1
10
154.883756146253
20
-1.10260735805784
30
0
41
1
10
155.000751456758
20
-0.345502297225153
30
0
41
1
10
155.024150518858
20
-0.195062425706283
30
0
41
1
10
155.05924911201
20
0.0289306266016922
30
0
41
1
10
155.07094864306
20
0.103490344505872
30
0
41
1
10
155.094347705161
20
0.253464578739227
30
0
41
1
10
155.106047236212
20
0.328720007745659
30
0
41
1
10
155.164544891464
20
0.706257084258596
30
0
41
1
10
155.211343015666
20
1.0123339544995
30
0
41
1
10
155.351737388272
20
1.93919865082827
30
0
41
1
10
155.445333636676
20
2.56878677337471
30
0
41
1
10
155.632526133484
20
3.82820353177027
30
0
41
1
10
155.726122381888
20
4.45794767171427
30
0
41
1
10
155.913314878695
20
5.69015253607878
30
0
41
1
10
156.006911127099
20
6.29248704111015
30
0
41
1
10
156.194103623907
20
7.44122622374036
30
0
41
1
10
156.287699872311
20
7.98749282035931
30
0
41
1
10
156.474892369119
20
8.99842516665777
30
0
41
1
10
156.568488617522
20
9.46298143339655
30
0
41
1
10
156.75568111433
20
10.2916692444273
30
0
41
1
10
156.849277362734
20
10.6557521495387
30
0
41
1
10
157.036469859542
20
11.2739956444927
30
0
41
1
10
157.130066107946
20
11.5281769448611
30
0
41
1
10
157.317258604754
20
11.9268715299208
30
0
41
1
10
157.410854853158
20
12.0714581747708
30
0
41
1
10
157.598047349965
20
12.2594743882433
30
0
41
1
10
157.691643598369
20
12.303
30
0
41
1
10
157.785239846773
20
12.303
30
0
0
SPLINE
5
F0
100
AcDbEntity
8
1
62
256
6
ByLayer
370
13
48
1
60
0
100
AcDbSpline
70
4
71
3
72
38
73
34
40
0
40
0
40
0
40
0
40
0.0625000000000001
40
0.0625000000000001
40
0.125
40
0.125
40
0.1875
40
0.1875
40
0.25
40
0.25
40
0.3125
40
0.3125
40
0.375
40
0.375
40
0.437500000000001
40
0.437500000000001
40
0.500000000000001
40
0.500000000000001
40
0.562500000000001
40
0.562500000000001
40
0.625000000000001
40
0.625000000000001
40
0.687500000000001
40
0.687500000000001
40
0.75
40
0.75
40
0.8125
40
0.8125
40
0.875
40
0.875
40
0.9375
40
0.9375
40
1
40
1
40
1
40
1
41
1
10
157.031548901507
20
12.303
30
0
41
1
10
157.087601512055
20
12.303
30
0
41
1
10
157.143654122603
20
12.287428377782
30
0
41
1
10
157.2557593437
20
12.2219794198799
30
0
41
1
10
157.311811954248
20
12.1720945722135
30
0
41
1
10
157.423917175344
20
12.0354059431639
30
0
41
1
10
157.479969785893
20
11.9485948466169
30
0
41
1
10
157.592075006989
20
11.7362290661877
30
0
41
1
10
157.648127617537
20
11.6106681018937
30
0
41
1
10
157.760232838634
20
11.3199738196824
30
0
41
1
10
157.816285449182
20
11.154836140917
30
0
41
1
10
157.928390670279
20
10.7853186016128
30
0
41
1
10
157.984443280827
20
10.5809370748653
30
0
41
1
10
158.096548501924
20
10.1345141899951
30
0
41
1
10
158.152601112472
20
9.89247435655562
30
0
41
1
10
158.264706333568
20
9.37357309770155
30
0
41
1
10
158.320758944117
20
9.09671646979322
30
0
41
1
10
158.432864165213
20
8.51218078760652
30
0
41
1
10
158.488916775761
20
8.20450941439134
30
0
41
1
10
158.601021996858
20
7.56331518049467
30
0
41
1
10
158.657074607406
20
7.22980207135697
30
0
41
1
10
158.769179828503
20
6.54260205900127
30
0
41
1
10
158.825232439051
20
6.18892588595304
30
0
41
1
10
158.937337660147
20
5.46747252813086
30
0
41
1
10
158.993390270696
20
5.09970588552542
30
0
41
1
10
159.105495491792
20
4.35621585009883
30
0
41
1
10
159.16154810234
20
3.98050177654645
30
0
41
1
10
159.273653323437
20
3.2270308674826
30
0
41
1
10
159.329705933985
20
2.84928138131269
30
0
41
1
10
159.441811155082
20
2.09717073679209
30
0
41
1
10
159.49786376563
20
1.72281457332204
30
0
41
1
10
159.609968986726
20
0.982252448909804
30
0
41
1
10
159.666021597274
20
0.61604909691124
30
0
41
1
10
159.722074207823
20
0.255910237823286
30
0
0
SPLINE
5
F1
100
AcDbEntity
8
1
62
256
6
ByLayer
370
13
48
1
60
0
100
AcDbSpline
70
4
71
3
72
87
73
83
40
0
40
0
40
0
40
0
40
0.03125
40
0.03125
40
0.03515625
40
0.03515625
40
0.0390625
40
0.0390625
40
0.046875
40
0.046875
40
0.0625
40
0.0625
40
0.0937500000000001
40
0.0937500000000001
40
0.125
40
0.125
40
0.15625
40
0.15625
40
0.1875
40
0.1875
40
0.21875
40
0.21875
40
0.25
40
0.25
40
0.28125
40
0.28125
40
0.3125
40
0.3125
40
0.34375
40
0.34375
40
0.3515625
40
0.35546875
40
0.35546875
40
0.359375
40
0.359375
40
0.375
40
0.375
40
0.40625
40
0.40625
40
0.4375
40
0.4375
40
0.46875
40
0.46875
40
0.5
40
0.5
40
0.53125
40
0.53125
40
0.5625
40
0.5625
40
0.59375
40
0.59375
40
0.625
40
0.625
40
0.65625
40
0.65625
40
0.671875
40
0.671875
40
0.67578125
40
0.67578125
40
0.6796875
40
0.6796875
40
0.6875
40
0.6875
40
0.71875
40
0.71875
40
0.75
40
0.75
40
0.78125
40
0.78125
40
0.8125
40
0.8125
40
0.84375
40
0.84375
40
0.875
40
0.875
40
0.90625
40
0.90625
40
0.9375
40
0.9375
40
0.96875
40
0.96875
40
1
40
1
40
1
40
1
41
1
10
148.8
20
2.02579156451651
30
0
41
1
10
148.8885524075
20
1.43441791327561
30
0
41
1
10
148.977104815
20
0.849877725531485
30
0
41
1
10
149.076726273437
20
0.209322422109466
30
0
41
1
10
149.087795324375
20
0.138383247945086
30
0
41
1
10
149.10993342625
20
-0.0030008662303942
30
0
41
1
10
149.121002477187
20
-0.0734600171815032
30
0
41
1
10
149.154209629999
20
-0.286066030876782
30
0
41
1
10
149.176347731874
20
-0.428773300255045
30
0
41
1
10
149.242762037499
20
-0.859468379804923
30
0
41
1
10
149.287038241249
20
-1.15003921245338
30
0
41
1
10
149.419866852499
20
-2.02902476867715
30
0
41
1
10
149.508419259999
20
-2.62484389723016
30
0
41
1
10
149.685524074999
20
-3.81638390511074
30
0
41
1
10
149.774076482498
20
-4.41204025174051
30
0
41
1
10
149.951181297498
20
-5.57998896994459
30
0
41
1
10
150.039733704998
20
-6.15218651870319
30
0
41
1
10
150.216838519998
20
-7.2489268493936
30
0
41
1
10
150.305390927497
20
-7.77336435906221
30
0
41
1
10
150.482495742497
20
-8.75235887929728
30
0
41
1
10
150.571048149997
20
-9.20682762462749
30
0
41
1
10
150.748152964997
20
-10.0287357979644
30
0
41
1
10
150.836705372496
20
-10.3961276900845
30
0
41
1
10
151.013810187496
20
-11.033929544317
30
0
41
1
10
151.102362594996
20
-11.3043422454204
30
0
41
1
10
151.279467409995
20
-11.7461216021248
30
0
41
1
10
151.368019817495
20
-11.9175337505267
30
0
41
1
10
151.545124632495
20
-12.1663691871852
30
0
41
1
10
151.633677039995
20
-12.2438618736062
30
0
41
1
10
151.74436754937
20
-12.2884696584938
30
0
41
1
10
151.777574702182
20
-12.2979474893277
30
0
41
1
10
151.810781854995
20
-12.3017880705792
30
0
41
1
10
151.83291995687
20
-12.3031213516128
30
0
41
1
10
151.843989007807
20
-12.3031772974499
30
0
41
1
10
151.899334262494
20
-12.3004124803134
30
0
41
1
10
151.943610466244
20
-12.28839526542
30
0
41
1
10
152.076439077494
20
-12.2205828709973
30
0
41
1
10
152.164991484994
20
-12.1328808032178
30
0
41
1
10
152.342096299994
20
-11.8627428143808
30
0
41
1
10
152.430648707493
20
-11.6802391209361
30
0
41
1
10
152.607753522493
20
-11.2161190724906
30
0
41
1
10
152.696305929993
20
-10.9344612552624
30
0
41
1
10
152.873410744993
20
-10.2748893019087
30
0
41
1
10
152.961963152493
20
-9.89697804508552
30
0
41
1
10
153.139067967492
20
-9.05563150771636
30
0
41
1
10
153.227620374992
20
-8.59224918783704
30
0
41
1
10
153.404725189992
20
-7.59773743290017
30
0
41
1
10
153.493277597491
20
-7.06669956395007
30
0
41
1
10
153.670382412491
20
-5.9594693591001
30
0
41
1
10
153.758934819991
20
-5.38338243633714
30
0
41
1
10
153.936039634991
20
-4.21040375408418
30
0
41
1
10
154.024592042491
20
-3.61360415263027
30
0
41
1
10
154.20169685749
20
-2.42224186745688
30
0
41
1
10
154.29024926499
20
-1.82773961188766
30
0
41
1
10
154.42307787624
20
-0.952202789052592
30
0
41
1
10
154.46735407999
20
-0.663025843467437
30
0
41
1
10
154.522699334677
20
-0.306116446930247
30
0
41
1
10
154.533768385615
20
-0.234961882417821
30
0
41
1
10
154.555906487489
20
-0.0931349137337634
30
0
41
1
10
154.566975538427
20
-0.0226128960428866
30
0
41
1
10
154.600182691239
20
0.189325484737623
30
0
41
1
10
154.622320793114
20
0.331611708113343
30
0
41
1
10
154.733011302489
20
1.04746323073522
30
0
41
1
10
154.821563709989
20
1.6344817671345
30
0
41
1
10
154.998668524989
20
2.81998986029455
30
0
41
1
10
155.087220932489
20
3.41843544285135
30
0
41
1
10
155.264325747488
20
4.6052187785422
30
0
41
1
10
155.352878154988
20
5.19347693601378
30
0
41
1
10
155.529982969988
20
6.33581246544114
30
0
41
1
10
155.618535377488
20
6.88978726478496
30
0
41
1
10
155.795640192487
20
7.93978443047129
30
0
41
1
10
155.884192599987
20
8.43570560632529
30
0
41
1
10
156.061297414987
20
9.34928443013015
30
0
41
1
10
156.149849822487
20
9.76686960348849
30
0
41
1
10
156.326954637486
20
10.5096336953108
30
0
41
1
10
156.415507044986
20
10.8347872425579
30
0
41
1
10
156.592611859986
20
11.3862388951247
30
0
41
1
10
156.681164267486
20
11.6125605001942
30
0
41
1
10
156.858269082485
20
11.9676107084423
30
0
41
1
10
156.946821489985
20
12.0963980530516
30
0
41
1
10
157.123926304985
20
12.26405610808
30
0
41
1
10
157.212478712485
20
12.303
30
0
41
1
10
157.301031119985
20
12.303
30
0
0
SPLINE
5
F2
100
AcDbEntity
8
1
62
256
6
ByLayer
370
13
48
1
60
0
100
AcDbSpline
70
4
71
3
72
42
73
38
40
0
40
0
40
0
40
0
40
0.0625000000000003
40
0.0625000000000003
40
0.125000000000001
40
0.125000000000001
40
0.187500000000001
40
0.187500000000001
40
0.250000000000001
40
0.250000000000001
40
0.312500000000002
40
0.312500000000002
40
0.375000000000002
40
0.375000000000002
40
0.437500000000002
40
0.437500000000002
40
0.500000000000003
40
0.500000000000003
40
0.562500000000003
40
0.562500000000003
40
0.625000000000003
40
0.625000000000003
40
0.687500000000004
40
0.687500000000004
40
0.750000000000004
40
0.750000000000004
40
0.812500000000005
40
0.812500000000005
40
0.843750000000005
40
0.843750000000005
40
0.859375000000004
40
0.859375000000004
40
0.875000000000004
40
0.875000000000004
40
0.937500000000002
40
0.937500000000002
40
1
40
1
40
1
40
1
41
1
10
156.547340174718
20
12.303
30
0
41
1
10
156.613480467075
20
12.303
30
0
41
1
10
156.679620759431
20
12.2813081679948
30
0
41
1
10
156.811901344144
20
12.1894171265624
30
0
41
1
10
156.8780416365
20
12.1192007180065
30
0
41
1
10
157.010322221213
20
11.9262749734127
30
0
41
1
10
157.076462513569
20
11.8035495607953
30
0
41
1
10
157.208743098282
20
11.5032991923037
30
0
41
1
10
157.274883390638
20
11.3257620332525
30
0
41
1
10
157.407163975351
20
10.9156956633667
30
0
41
1
10
157.473304267707
20
10.6831607915623
30
0
41
1
10
157.60558485242
20
10.1652985267152
30
0
41
1
10
157.671725144776
20
9.87997387007869
30
0
41
1
10
157.804005729489
20
9.26117354014428
30
0
41
1
10
157.870146021845
20
8.9277093957493
30
0
41
1
10
158.002426606558
20
8.21949947241336
30
0
41
1
10
158.068566898914
20
7.84477266656049
30
0
41
1
10
158.200847483627
20
7.0626702215481
30
0
41
1
10
158.266987775983
20
6.6553181522207
30
0
41
1
10
158.399268360696
20
5.81771099474955
30
0
41
1
10
158.465408653052
20
5.38748044165041
30
0
41
1
10
158.597689237765
20
4.51423910441292
30
0
41
1
10
158.663829530121
20
4.0712503246103
30
0
41
1
10
158.796110114834
20
3.18228113196722
30
0
41
1
10
158.86225040719
20
2.73631761701662
30
0
41
1
10
158.994530991903
20
1.8502609236848
30
0
41
1
10
159.060671284259
20
1.41017828647313
30
0
41
1
10
159.159881722794
20
0.76009721460494
30
0
41
1
10
159.192951868972
20
0.545065908186928
30
0
41
1
10
159.242557088239
20
0.225607745868018
30
0
41
1
10
159.259092161328
20
0.119635717283131
30
0
41
1
10
159.292162307507
20
-0.0911904452147212
30
0
41
1
10
159.308697380596
20
-0.196971408413759
30
0
41
1
10
159.391372746041
20
-0.728937567234084
30
0
41
1
10
159.457513038398
20
-1.16286293785544
30
0
41
1
10
159.58979362311
20
-2.04071341508791
30
0
41
1
10
159.655933915467
20
-2.48463135366856
30
0
41
1
10
159.722074207823
20
-2.92945549000569
30
0
0
SPLINE
5
F3
100
AcDbEntity
8
1
62
256
6
ByLayer
370
13
48
1
60
0
100
AcDbSpline
70
4
71
3
72
81
73
77
40
0
40
0
40
0
40
0
40
0.0312500000000002
40
0.0312500000000002
40
0.0625000000000005
40
0.0625000000000005
40
0.0937500000000007
40
0.0937500000000007
40
0.125000000000001
40
0.125000000000001
40
0.156250000000001
40
0.156250000000001
40
0.187500000000001
40
0.187500000000001
40
0.218750000000002
40
0.218750000000002
40
0.250000000000002
40
0.250000000000002
40
0.281250000000002
40
0.281250000000002
40
0.312500000000003
40
0.312500000000003
40
0.316406250000003
40
0.316406250000003
40
0.320312500000002
40
0.320312500000002
40
0.328125000000002
40
0.328125000000002
40
0.343750000000002
40
0.343750000000002
40
0.375000000000002
40
0.375000000000002
40
0.406250000000002
40
0.406250000000002
40
0.437500000000002
40
0.437500000000002
40
0.468750000000002
40
0.468750000000002
40
0.500000000000002
40
0.500000000000002
40
0.531250000000002
40
0.531250000000002
40
0.562500000000002
40
0.562500000000002
40
0.593750000000002
40
0.593750000000002
40
0.625000000000002
40
0.625000000000002
40
0.656250000000002
40
0.656250000000002
40
0.660156250000002
40
0.660156250000002
40
0.664062500000002
40
0.671875000000002
40
0.671875000000002
40
0.687500000000001
40
0.687500000000001
40
0.718750000000001
40
0.718750000000001
40
0.750000000000001
40
0.750000000000001
40
0.781250000000001
40
0.781250000000001
40
0.812500000000001
40
0.812500000000001
40
0.843750000000001
40
0.843750000000001
40
0.875000000000001
40
0.875000000000001
40
0.906250000000001
40
0.906250000000001
40
0.9375
40
0.9375
40
0.96875
40
0.96875
40
1
40
1
40
1
40
1
41
1
10
148.8
20
-1.1322730607599
30
0
41
1
10
148.883508566596
20
-1.68140512736036
30
0
41
1
10
148.967017133192
20
-2.24061340280488
30
0
41
1
10
149.134034266383
20
-3.36336911026893
30
0
41
1
10
149.217542832979
20
-3.926874772502
30
0
41
1
10
149.384559966171
20
-5.03931344678938
30
0
41
1
10
149.468068532766
20
-5.58818113310619
30
0
41
1
10
149.635085665958
20
-6.65098887065915
30
0
41
1
10
149.718594232554
20
-7.16485082612198
30
0
41
1
10
149.885611365745
20
-8.13805043865187
30
0
41
1
10
149.969119932341
20
-8.59731451353471
30
0
41
1
10
150.136137065533
20
-9.44482627481256
30
0
41
1
10
150.219645632129
20
-9.83302274168409
30
0
41
1
10
150.38666276532
20
-10.5269499591407
30
0
41
1
10
150.470171331916
20
-10.8326632142576
30
0
41
1
10
150.637188465107
20
-11.3562831537871
30
0
41
1
10
150.720697031703
20
-11.5742067841629
30
0
41
1
10
150.887714164895
20
-11.9230155516071
30
0
41
1
10
150.971222731491
20
-12.0539431054211
30
0
41
1
10
151.138239864682
20
-12.2347042768832
30
0
41
1
10
151.221748431278
20
-12.2845920196203
30
0
41
1
10
151.315695568698
20
-12.300510419772
30
0
41
1
10
151.326134139523
20
-12.301722438752
30
0
41
1
10
151.347011281172
20
-12.3030543451607
30
0
41
1
10
151.357449851996
20
-12.3031762267481
30
0
41
1
10
151.38876556447
20
-12.3019205006942
30
0
41
1
10
151.409642706118
20
-12.2989086265733
30
0
41
1
10
151.472274131065
20
-12.283095394618
30
0
41
1
10
151.514028414363
20
-12.2635112413677
30
0
41
1
10
151.639291264257
20
-12.1757662026141
30
0
41
1
10
151.722799830853
20
-12.0784883092888
30
0
41
1
10
151.889816964044
20
-11.7988432307113
30
0
41
1
10
151.97332553064
20
-11.6164271822548
30
0
41
1
10
152.140342663832
20
-11.1634553748691
30
0
41
1
10
152.223851230428
20
-10.8928709124414
30
0
41
1
10
152.390868363619
20
-10.2663167431598
30
0
41
1
10
152.474376930215
20
-9.91035010296292
30
0
41
1
10
152.641394063407
20
-9.12201513609023
30
0
41
1
10
152.724902630002
20
-8.68968523433594
30
0
41
1
10
152.891919763194
20
-7.76321782022546
30
0
41
1
10
152.97542832979
20
-7.2691467970152
30
0
41
1
10
153.142445462981
20
-6.23778923781768
30
0
41
1
10
153.225954029577
20
-5.7005812526661
30
0
41
1
10
153.392971162769
20
-4.60329643450143
30
0
41
1
10
153.476479729365
20
-4.04329183620573
30
0
41
1
10
153.643496862556
20
-2.92018324976212
30
0
41
1
10
153.727005429152
20
-2.35713127884333
30
0
41
1
10
153.894022562344
20
-1.2452091862128
30
0
41
1
10
153.977531128939
20
-0.696365203003012
30
0
41
1
10
154.071478266359
20
-0.0945468355162689
30
0
41
1
10
154.081916837184
20
-0.0280153141958408
30
0
41
1
10
154.102793978833
20
0.10518729587784
30
0
41
1
10
154.134109691306
20
0.305655057848952
30
0
41
1
10
154.16542540378
20
0.508015137691814
30
0
41
1
10
154.228056828727
20
0.914971433012255
30
0
41
1
10
154.269811112025
20
1.18926483075734
30
0
41
1
10
154.395073961918
20
2.01853391805867
30
0
41
1
10
154.478582528514
20
2.58000299855587
30
0
41
1
10
154.645599661706
20
3.70367126543124
30
0
41
1
10
154.729108228301
20
4.26582348069417
30
0
41
1
10
154.896125361493
20
5.37150132411338
30
0
41
1
10
154.979633928089
20
5.91495791495171
30
0
41
1
10
155.14665106128
20
6.96285299072292
30
0
41
1
10
155.230159627876
20
7.46721277561403
30
0
41
1
10
155.397176761068
20
8.41775988784121
30
0
41
1
10
155.480685327664
20
8.86387682032316
30
0
41
1
10
155.647702460855
20
9.68232989017685
30
0
41
1
10
155.731211027451
20
10.0546210086489
30
0
41
1
10
155.898228160642
20
10.7151530367796
30
0
41
1
10
155.981736727238
20
11.0033836990699
30
0
41
1
10
156.14875386043
20
11.4917199520232
30
0
41
1
10
156.232262427026
20
11.6918485885081
30
0
41
1
10
156.399279560217
20
12.0058925416573
30
0
41
1
10
156.482788126813
20
12.119853792575
30
0
41
1
10
156.649805260005
20
12.2683801177545
30
0
41
1
10
156.7333138266
20
12.303
30
0
41
1
10
156.816822393196
20
12.303
30
0
0
SPLINE
5
F4
100
AcDbEntity
8
1
62
256
6
ByLayer
370
13
48
1
60
0
100
AcDbSpline
70
4
71
3
72
43
73
39
40
0
40
0
40
0
40
0
40
0.0625000000000004
40
0.0625000000000004
40
0.125000000000001
40
0.125000000000001
40
0.187500000000001
40
0.187500000000001
40
0.250000000000002
40
0.250000000000002
40
0.312500000000002
40
0.312500000000002
40
0.375000000000003
40
0.375000000000003
40
0.437500000000003
40
0.437500000000003
40
0.500000000000004
40
0.500000000000004
40
0.562500000000004
40
0.562500000000004
40
0.625000000000005
40
0.625000000000005
40
0.687500000000005
40
0.687500000000005
40
0.718750000000006
40
0.718750000000006
40
0.734375000000006
40
0.742187500000007
40
0.742187500000007
40
0.750000000000007
40
0.750000000000007
40
0.812500000000005
40
0.812500000000005
40
0.875000000000003
40
0.875000000000003
40
0.937500000000002
40
0.937500000000002
40
1
40
1
40
1
40
1
41
1
10
156.06313144793
20
12.303
30
0
41
1
10
156.139359422094
20
12.303
30
0
41
1
10
156.215587396259
20
12.2741687203855
30
0
41
1
10
156.368043344588
20
12.1511153015231
30
0
41
1
10
156.444271318752
20
12.0568582805008
30
0
41
1
10
156.596727267081
20
11.7973623768173
30
0
41
1
10
156.672955241245
20
11.6320926835348
30
0
41
1
10
156.825411189574
20
11.2281950029402
30
0
41
1
10
156.901639163739
20
10.9895477565099
30
0
41
1
10
157.054095112068
20
10.4405134112216
30
0
41
1
10
157.130323086232
20
10.1301249701849
30
0
41
1
10
157.282779034561
20
9.44355289232703
30
0
41
1
10
157.359007008725
20
9.06738854039358
30
0
41
1
10
157.511462957054
20
8.25927223534188
30
0
41
1
10
157.587690931219
20
7.8273576794376
30
0
41
1
10
157.740146879547
20
6.92094619579137
30
0
41
1
10
157.816374853712
20
6.44649745112443
30
0
41
1
10
157.968830802041
20
5.47010450240921
30
0
41
1
10
158.045058776205
20
4.96820951410024
30
0
41
1
10
158.197514724534
20
3.95239299925444
30
0
41
1
10
158.273742698699
20
3.43851275742352
30
0
41
1
10
158.426198647027
20
2.41318648981743
30
0
41
1
10
158.502426621192
20
1.90176815929115
30
0
41
1
10
158.616768582439
20
1.14576609729332
30
0
41
1
10
158.654882569521
20
0.895601014967781
30
0
41
1
10
158.712053550144
20
0.524082098711801
30
0
41
1
10
158.740639040456
20
0.339252811398524
30
0
41
1
10
158.769224530767
20
0.155983213668435
30
0
41
1
10
158.788281524309
20
0.0341670569423513
30
0
41
1
10
158.797810021079
20
-0.0264587352568526
30
0
41
1
10
158.883566492014
20
-0.574492951472763
30
0
41
1
10
158.959794466178
20
-1.07340978298035
30
0
41
1
10
159.112250414507
20
-2.0847545716797
30
0
41
1
10
159.188478388672
20
-2.59716815385386
30
0
41
1
10
159.340934337001
20
-3.62284915523631
30
0
41
1
10
159.417162311165
20
-4.13608709347722
30
0
41
1
10
159.569618259494
20
-5.14879799347796
30
0
41
1
10
159.645846233658
20
-5.64822834271359
30
0
41
1
10
159.722074207823
20
-6.13303264969102
30
0
0
SPLINE
5
F5
100
AcDbEntity
8
1
62
256
6
ByLayer
370
13
48
1
60
0
100
AcDbSpline
70
4
71
3
72
80
73
76
40
0
40
0
40
0
40
0
40
0.0312499999999992
40
0.0312499999999992
40
0.0624999999999985
40
0.0624999999999985
40
0.0937499999999977
40
0.0937499999999977
40
0.124999999999997
40
0.124999999999997
40
0.156249999999996
40
0.156249999999996
40
0.187499999999995
40
0.187499999999995
40
0.218749999999995
40
0.218749999999995
40
0.249999999999994
40
0.249999999999994
40
0.265624999999994
40
0.265624999999994
40
0.273437499999994
40
0.273437499999994
40
0.277343749999993
40
0.277343749999993
40
0.281249999999993
40
0.281249999999993
40
0.312499999999993
40
0.312499999999993
40
0.343749999999993
40
0.343749999999993
40
0.374999999999993
40
0.374999999999993
40
0.406249999999992
40
0.406249999999992
40
0.437499999999992
40
0.437499999999992
40
0.468749999999992
40
0.468749999999992
40
0.499999999999992
40
0.499999999999992
40
0.531249999999991
40
0.531249999999991
40
0.562499999999991
40
0.562499999999991
40
0.593749999999991
40
0.593749999999991
40
0.624999999999991
40
0.624999999999991
40
0.632812499999991
40
0.632812499999991
40
0.640624999999991
40
0.640624999999991
40
0.656249999999991
40
0.656249999999991
40
0.687499999999992
40
0.687499999999992
40
0.718749999999993
40
0.718749999999993
40
0.749999999999994
40
0.749999999999994
40
0.781249999999994
40
0.781249999999994
40
0.812499999999995
40
0.812499999999995
40
0.843749999999996
40
0.843749999999996
40
0.874999999999997
40
0.874999999999997
40
0.906249999999998
40
0.906249999999998
40
0.937499999999998
40
0.937499999999998
40
0.968749999999999
40
0.968749999999999
40
1
40
1
40
1
40
1
41
1
10
148.8
20
-4.37081435324069
30
0
41
1
10
148.878464725692
20
-4.89432844268589
30
0
41
1
10
148.956929451384
20
-5.4119427467308
30
0
41
1
10
149.113858902767
20
-6.41862848314346
30
0
41
1
10
149.192323628459
20
-6.9076432073021
30
0
41
1
10
149.349253079842
20
-7.84065173921306
30
0
41
1
10
149.427717805534
20
-8.28458990044734
30
0
41
1
10
149.584647256917
20
-9.11305680681167
30
0
41
1
10
149.663111982609
20
-9.49754287665695
30
0
41
1
10
149.820041433993
20
-10.1963267145679
30
0
41
1
10
149.898506159685
20
-10.5106035848345
30
0
41
1
10
150.055435611068
20
-11.0627827150556
30
0
41
1
10
150.13390033676
20
-11.3006885429999
30
0
41
1
10
150.290829788143
20
-11.698795708778
30
0
41
1
10
150.369294513835
20
-11.8590212799793
30
0
41
1
10
150.526223965218
20
-12.1048572609179
30
0
41
1
10
150.60468869091
20
-12.1905044738427
30
0
41
1
10
150.722385779448
20
-12.2679332001174
30
0
41
1
10
150.761618142294
20
-12.2852591858929
30
0
41
1
10
150.820466686563
20
-12.2993032302378
30
0
41
1
10
150.840082867986
20
-12.3019947450346
30
0
41
1
10
150.86950714012
20
-12.3031525483089
30
0
41
1
10
150.879315230831
20
-12.3030612074982
30
0
41
1
10
150.898931412254
20
-12.3019188587559
30
0
41
1
10
150.908739502966
20
-12.3008660970725
30
0
41
1
10
150.997012319369
20
-12.2869774772581
30
0
41
1
10
151.075477045061
20
-12.24316177034
30
0
41
1
10
151.232406496444
20
-12.0845944773511
30
0
41
1
10
151.310871222136
20
-11.9698029696917
30
0
41
1
10
151.467800673519
20
-11.6639600945003
30
0
41
1
10
151.546265399211
20
-11.4728758322365
30
0
41
1
10
151.703194850595
20
-11.0129986681677
30
0
41
1
10
151.781659576286
20
-10.7441889789802
30
0
41
1
10
151.93858902767
20
-10.1320672947387
30
0
41
1
10
152.017053753362
20
-9.78876137661652
30
0
41
1
10
152.173983204745
20
-9.03569158177837
30
0
41
1
10
152.252447930437
20
-8.6259579987663
30
0
41
1
10
152.40937738182
20
-7.75236851647173
30
0
41
1
10
152.487842107512
20
-7.2885617880404
30
0
41
1
10
152.644771558896
20
-6.32223396397274
30
0
41
1
10
152.723236284587
20
-5.81977039996247
30
0
41
1
10
152.880165735971
20
-4.7929643425619
30
0
41
1
10
152.958630461663
20
-4.26867576063702
30
0
41
1
10
153.115559913046
20
-3.21476506405369
30
0
41
1
10
153.194024638738
20
-2.68518379189888
30
0
41
1
10
153.350954090121
20
-1.63548894578315
30
0
41
1
10
153.429418815813
20
-1.11539861679734
30
0
41
1
10
153.527499722928
20
-0.478754981107812
30
0
41
1
10
153.547115904351
20
-0.352092343801758
30
0
41
1
10
153.586348267197
20
-0.100257212914784
30
0
41
1
10
153.60596444862
20
0.0244099077862643
30
0
41
1
10
153.664812992889
20
0.401251730948303
30
0
41
1
10
153.704045355734
20
0.655526829587956
30
0
41
1
10
153.821742444272
20
1.42555413897867
30
0
41
1
10
153.900207169963
20
1.94859823799803
30
0
41
1
10
154.057136621347
20
3.00144819998263
30
0
41
1
10
154.135601347039
20
3.53122720034969
30
0
41
1
10
154.292530798422
20
4.58233698671964
30
0
41
1
10
154.370995524114
20
5.10362378825684
30
0
41
1
10
154.527924975498
20
6.12104034710853
30
0
41
1
10
154.606389701189
20
6.61711458650635
30
0
41
1
10
154.763319152573
20
7.56741791004018
30
0
41
1
10
154.841783878265
20
8.02159015856361
30
0
41
1
10
154.998713329648
20
8.87315066825244
30
0
41
1
10
155.07717805534
20
9.2704928067684
30
0
41
1
10
155.234107506723
20
9.99679448137744
30
0
41
1
10
155.312572232415
20
10.3257283398559
30
0
41
1
10
155.469501683799
20
10.9080656676388
30
0
41
1
10
155.54796640949
20
11.161467937632
30
0
41
1
10
155.704895860874
20
11.5904575238448
30
0
41
1
10
155.783360586565
20
11.7660655051797
30
0
41
1
10
155.940290037949
20
12.0417371779155
30
0
41
1
10
156.018754763641
20
12.1418359052473
30
0
41
1
10
156.175684215024
20
12.2724471838573
30
0
41
1
10
156.254148940716
20
12.303
30
0
41
1
10
156.332613666408
20
12.303
30
0
0
SPLINE
5
F6
100
AcDbEntity
8
1
62
256
6
ByLayer
370
13
48
1
60
0
100
AcDbSpline
70
4
71
3
72
43
73
39
40
0
40
0
40
0
40
0
40
0.0624999999999996
40
0.0624999999999996
40
0.124999999999999
40
0.124999999999999
40
0.187499999999999
40
0.187499999999999
40
0.249999999999999
40
0.249999999999999
40
0.312499999999998
40
0.312499999999998
40
0.374999999999998
40
0.374999999999998
40
0.437499999999997
40
0.437499999999997
40
0.499999999999997
40
0.499999999999997
40
0.562499999999996
40
0.562499999999996
40
0.624999999999996
40
0.624999999999996
40
0.656249999999996
40
0.656249999999996
40
0.664062499999996
40
0.664062499999996
40
0.671874999999996
40
0.687499999999997
40
0.687499999999997
40
0.749999999999997
40
0.749999999999997
40
0.812499999999998
40
0.812499999999998
40
0.874999999999999
40
0.874999999999999
40
0.937499999999999
40
0.937499999999999
40
1
40
1
40
1
40
1
41
1
10
155.578922721141
20
12.303
30
0
41
1
10
155.665238377114
20
12.303
30
0
41
1
10
155.751554033087
20
12.2660053966432
30
0
41
1
10
155.924185345032
20
12.10698230999
30
0
41
1
10
156.010501001004
20
11.9848893067678
30
0
41
1
10
156.183132312949
20
11.6483492267445
30
0
41
1
10
156.269447968922
20
11.433849320622
30
0
41
1
10
156.442079280867
20
10.9108465383424
30
0
41
1
10
156.528394936839
20
10.6023200499797
30
0
41
1
10
156.701026248784
20
9.89649972839422
30
0
41
1
10
156.787341904757
20
9.49922368362496
30
0
41
1
10
156.959973216702
20
8.62814972847249
30
0
41
1
10
157.046288872674
20
8.15441101804373
30
0
41
1
10
157.218920184619
20
7.14849820201914
30
0
41
1
10
157.305235840592
20
6.61641083437195
30
0
41
1
10
157.477867152537
20
5.51547330844298
30
0
41
1
10
157.56418280851
20
4.94671501334878
30
0
41
1
10
157.736814120455
20
3.79492462389035
30
0
41
1
10
157.823129776427
20
3.21196797783188
30
0
41
1
10
157.995761088372
20
2.05249837058417
30
0
41
1
10
158.082076744345
20
1.47603157231441
30
0
41
1
10
158.211550228304
20
0.628975730844417
30
0
41
1
10
158.25470805629
20
0.349531948061895
30
0
41
1
10
158.308655341273
20
0.0049298624300604
30
0
41
1
10
158.319444798269
20
-0.0637338422374683
30
0
41
1
10
158.341023712262
20
-0.201839663775587
30
0
41
1
10
158.373392083252
20
-0.409690889265306
30
0
41
1
10
158.405760454242
20
-0.619507669029815
30
0
41
1
10
158.513655024208
20
-1.32272495511637
30
0
41
1
10
158.59997068018
20
-1.89771759489895
30
0
41
1
10
158.772601992125
20
-3.05592870950451
30
0
41
1
10
158.858917648098
20
-3.63910388237702
30
0
41
1
10
159.031548960043
20
-4.79328495839445
30
0
41
1
10
159.117864616015
20
-5.36421767203404
30
0
41
1
10
159.29049592796
20
-6.47152156018819
30
0
41
1
10
159.376811583933
20
-7.00780154844679
30
0
41
1
10
159.549442895878
20
-8.02393346556644
30
0
41
1
10
159.63575855185
20
-8.50369722881942
30
0
41
1
10
159.722074207823
20
-8.94596555392704
30
0
0
SPLINE
5
F7
100
AcDbEntity
8
1
62
256
6
ByLayer
370
13
48
1
60
0
100
AcDbSpline
70
4
71
3
72
80
73
76
40
0
40
0
40
0
40
0
40
0.0312499999999995
40
0.0312499999999995
40
0.062499999999999
40
0.062499999999999
40
0.0937499999999985
40
0.0937499999999985
40
0.124999999999998
40
0.124999999999998
40
0.156249999999997
40
0.156249999999997
40
0.187499999999997
40
0.187499999999997
40
0.218749999999997
40
0.218749999999997
40
0.222656249999996
40
0.222656249999996
40
0.226562499999996
40
0.226562499999996
40
0.234374999999996
40
0.234374999999996
40
0.249999999999996
40
0.249999999999996
40
0.281249999999995
40
0.281249999999995
40
0.312499999999995
40
0.312499999999995
40
0.343749999999994
40
0.343749999999994
40
0.374999999999994
40
0.374999999999994
40
0.406249999999993
40
0.406249999999993
40
0.437499999999993
40
0.437499999999993
40
0.468749999999993
40
0.468749999999993
40
0.499999999999992
40
0.499999999999992
40
0.531249999999992
40
0.531249999999992
40
0.562499999999991
40
0.562499999999991
40
0.593749999999991
40
0.593749999999991
40
0.609374999999991
40
0.609374999999991
40
0.617187499999991
40
0.617187499999991
40
0.624999999999991
40
0.624999999999991
40
0.656249999999992
40
0.656249999999992
40
0.687499999999993
40
0.687499999999993
40
0.718749999999993
40
0.718749999999993
40
0.749999999999994
40
0.749999999999994
40
0.781249999999995
40
0.781249999999995
40
0.812499999999996
40
0.812499999999996
40
0.843749999999996
40
0.843749999999996
40
0.874999999999997
40
0.874999999999997
40
0.906249999999998
40
0.906249999999998
40
0.937499999999998
40
0.937499999999998
40
0.968749999999999
40
0.968749999999999
40
1
40
1
40
1
40
1
41
1
10
148.8
20
-7.45371660083663
30
0
41
1
10
148.873420884788
20
-7.88781411676865
30
0
41
1
10
148.946841769576
20
-8.30177720116572
30
0
41
1
10
149.093683539151
20
-9.07779301842592
30
0
41
1
10
149.167104423939
20
-9.43981500487888
30
0
41
1
10
149.313946193514
20
-10.1029893054774
30
0
41
1
10
149.387367078302
20
-10.4041253745715
30
0
41
1
10
149.534208847877
20
-10.9400537634787
30
0
41
1
10
149.607629732665
20
-11.1748463387454
30
0
41
1
10
149.75447150224
20
-11.5763426733397
30
0
41
1
10
149.827892387028
20
-11.7430612821461
30
0
41
1
10
149.974734156603
20
-12.0101562476719
30
0
41
1
10
150.048155041391
20
-12.1105573074122
30
0
41
1
10
150.194996810966
20
-12.2496417790506
30
0
41
1
10
150.268417695754
20
-12.288353977261
30
0
41
1
10
150.35101619114
20
-12.3009452629134
30
0
41
1
10
150.360193801739
20
-12.3019152764716
30
0
41
1
10
150.378549022935
20
-12.303011742491
30
0
41
1
10
150.387726633534
20
-12.3031393545471
30
0
41
1
10
150.41525946533
20
-12.302270164744
30
0
41
1
10
150.433614686526
20
-12.3000124478798
30
0
41
1
10
150.488680350117
20
-12.2880314897508
30
0
41
1
10
150.525390792511
20
-12.2730974898177
30
0
41
1
10
150.635522119693
20
-12.2061638854183
30
0
41
1
10
150.70894300448
20
-12.1319636338237
30
0
41
1
10
150.855784774056
20
-11.9188822215937
30
0
41
1
10
150.929205658843
20
-11.779973975331
30
0
41
1
10
151.076047428419
20
-11.4344347278543
30
0
41
1
10
151.149468313207
20
-11.2277841267033
30
0
41
1
10
151.296310082782
20
-10.7469824272453
30
0
41
1
10
151.369730967569
20
-10.4728246106829
30
0
41
1
10
151.516572737145
20
-9.86090942961337
30
0
41
1
10
151.589993621933
20
-9.52316149817952
30
0
41
1
10
151.736835391508
20
-8.79161474429804
30
0
41
1
10
151.810256276296
20
-8.39784117111338
30
0
41
1
10
151.957098045871
20
-7.56491401693634
30
0
41
1
10
152.030518930659
20
-7.12579726120805
30
0
41
1
10
152.177360700234
20
-6.21502577862208
30
0
41
1
10
152.250781585022
20
-5.74341248577682
30
0
41
1
10
152.397623354597
20
-4.78145846296664
30
0
41
1
10
152.471044239385
20
-4.29115625882588
30
0
41
1
10
152.617886008961
20
-3.30537541589328
30
0
41
1
10
152.691306893748
20
-2.80992650970461
30
0
41
1
10
152.838148663324
20
-1.82609931028134
30
0
41
1
10
152.911569548111
20
-1.3377389915336
30
0
41
1
10
153.021700875293
20
-0.618165652330106
30
0
41
1
10
153.058411317687
20
-0.380451609163998
30
0
41
1
10
153.113476981278
20
-0.0278860773868814
30
0
41
1
10
153.131832202474
20
0.088775016905231
30
0
41
1
10
153.168542644868
20
0.324276388813132
30
0
41
1
10
153.186897866065
20
0.442682830210742
30
0
41
1
10
153.27867397205
20
1.03767240344172
30
0
41
1
10
153.352094856838
20
1.52321875228583
30
0
41
1
10
153.498936626413
20
2.50370879509185
30
0
41
1
10
153.572357511201
20
2.99863702859159
30
0
41
1
10
153.719199280776
20
3.98603955361099
30
0
41
1
10
153.792620165564
20
4.47848640515198
30
0
41
1
10
153.939461935139
20
5.44758753699276
30
0
41
1
10
154.012882819927
20
5.92420471173395
30
0
41
1
10
154.159724589502
20
6.84780086449703
30
0
41
1
10
154.23314547429
20
7.29473841861119
30
0
41
1
10
154.379987243865
20
8.14582417503976
30
0
41
1
10
154.453408128653
20
8.54993397452824
30
0
41
1
10
154.600249898228
20
9.30413456602912
30
0
41
1
10
154.673670783016
20
9.65419725193004
30
0
41
1
10
154.820512552592
20
10.2920201697662
30
0
41
1
10
154.893933437379
20
10.5797675377396
30
0
41
1
10
155.040775206955
20
11.0882531996353
30
0
41
1
10
155.114196091742
20
11.3089950387123
30
0
41
1
10
155.261037861318
20
11.6824802951153
30
0
41
1
10
155.334458746105
20
11.8352410496466
30
0
41
1
10
155.481300515681
20
12.0751655094949
30
0
41
1
10
155.554721400469
20
12.1623552348901
30
0
41
1
10
155.701563170044
20
12.2762580066046
30
0
41
1
10
155.774984054832
20
12.303
30
0
41
1
10
155.848404939619
20
12.303
30
0
0
SPLINE
5
F8
100
AcDbEntity
8
1
62
256
6
ByLayer
370
13
48
1
60
0
100
AcDbSpline
70
4
71
3
72
44
73
40
40
0
40
0
40
0
40
0
40
0.0625
40
0.0625
40
0.125
40
0.125
40
0.1875
40
0.1875
40
0.25
40
0.25
40
0.3125
40
0.3125
40
0.375
40
0.375
40
0.4375
40
0.4375
40
0.5
40
0.5
40
0.5625
40
0.5625
40
0.578125
40
0.578125
40
0.5859375
40
0.5859375
40
0.59375
40
0.59375
40
0.625
40
0.625
40
0.6875
40
0.6875
40
0.75
40
0.75
40
0.8125
40
0.8125
40
0.875
40
0.875
40
0.9375
40
0.9375
40
1
40
1
40
1
40
1
41
1
10
155.094713994353
20
12.303
30
0
41
1
10
155.191117332134
20
12.303
30
0
41
1
10
155.287520669914
20
12.2568125576703
30
0
41
1
10
155.480327345475
20
12.0569315812203
30
0
41
1
10
155.576730683256
20
11.9031270779215
30
0
41
1
10
155.769537358817
20
11.4790001465406
30
0
41
1
10
155.865940696598
20
11.2085955255325
30
0
41
1
10
156.058747372159
20
10.5516276404226
30
0
41
1
10
156.15515070994
20
10.1650472314336
30
0
41
1
10
156.347957385501
20
9.28708054665498
30
0
41
1
10
156.444360723282
20
8.79576022992109
30
0
41
1
10
156.637167398843
20
7.72996980059133
30
0
41
1
10
156.733570736624
20
7.15563432817225
30
0
41
1
10
156.926377412185
20
5.95267469484034
30
0
41
1
10
157.022780749966
20
5.32421134943934
30
0
41
1
10
157.215587425527
20
4.04444766385384
30
0
41
1
10
157.311990763307
20
3.39328554485357
30
0
41
1
10
157.504797438869
20
2.09749920947348
30
0
41
1
10
157.601200776649
20
1.45295877504131
30
0
41
1
10
157.721704948875
20
0.666286996620101
30
0
41
1
10
157.74580578332
20
0.509886657849222
30
0
41
1
10
157.781957034988
20
0.276914679929945
30
0
41
1
10
157.794007452211
20
0.199528556718832
30
0
41
1
10
157.818108286656
20
0.0453339915243305
30
0
41
1
10
157.830158703878
20
-0.03130915494242
30
0
41
1
10
157.890410789991
20
-0.416619671659134
30
0
41
1
10
157.938612458881
20
-0.729523804510734
30
0
41
1
10
158.083217465552
20
-1.6785739311868
30
0
41
1
10
158.179620803333
20
-2.32525319855361
30
0
41
1
10
158.372427478894
20
-3.62211789951891
30
0
41
1
10
158.468830816675
20
-4.2722123712945
30
0
41
1
10
158.661637492236
20
-5.54618277223747
30
0
41
1
10
158.758040830017
20
-6.1699156974918
30
0
41
1
10
158.950847505578
20
-7.35979568421172
30
0
41
1
10
159.047250843359
20
-7.92578235538272
30
0
41
1
10
159.24005751892
20
-8.97186837384106
30
0
41
1
10
159.3364608567
20
-9.45183933077718
30
0
41
1
10
159.529267532262
20
-10.3051845903864
30
0
41
1
10
159.625670870042
20
-10.6785026153126
30
0
41
1
10
159.722074207823
20
-10.9934155327045
30
0
0
SPLINE
5
F9
100
AcDbEntity
8
1
62
256
6
ByLayer
370
13
48
1
60
0
100
AcDbSpline
70
4
71
3
72
80
73
76
40
0
40
0
40
0
40
0
40
0.0312499999999988
40
0.0312499999999988
40
0.0624999999999977
40
0.0624999999999977
40
0.0937499999999965
40
0.0937499999999965
40
0.124999999999995
40
0.124999999999995
40
0.156249999999994
40
0.156249999999994
40
0.164062499999994
40
0.164062499999994
40
0.171874999999994
40
0.171874999999994
40
0.187499999999994
40
0.187499999999994
40
0.218749999999995
40
0.218749999999995
40
0.249999999999995
40
0.249999999999995
40
0.281249999999995
40
0.281249999999995
40
0.312499999999995
40
0.312499999999995
40
0.343749999999996
40
0.343749999999996
40
0.374999999999996
40
0.374999999999996
40
0.406249999999996
40
0.406249999999996
40
0.437499999999997
40
0.437499999999997
40
0.468749999999997
40
0.468749999999997
40
0.499999999999997
40
0.499999999999997
40
0.531249999999997
40
0.531249999999997
40
0.562499999999998
40
0.562499999999998
40
0.578124999999998
40
0.578124999999998
40
0.582031249999998
40
0.582031249999998
40
0.585937499999998
40
0.585937499999998
40
0.593749999999998
40
0.593749999999998
40
0.624999999999998
40
0.624999999999998
40
0.656249999999998
40
0.656249999999998
40
0.687499999999998
40
0.687499999999998
40
0.718749999999998
40
0.718749999999998
40
0.749999999999999
40
0.749999999999999
40
0.781249999999999
40
0.781249999999999
40
0.812499999999999
40
0.812499999999999
40
0.843749999999999
40
0.843749999999999
40
0.874999999999999
40
0.874999999999999
40
0.906249999999999
40
0.906249999999999
40
0.9375
40
0.9375
40
0.96875
40
0.96875
40
1
40
1
40
1
40
1
41
1
10
148.8
20
-9.96508458870269
30
0
41
1
10
148.868377043884
20
-10.2625714145111
30
0
41
1
10
148.936754087767
20
-10.5330704350155
30
0
41
1
10
149.073508175535
20
-11.0161839783627
30
0
41
1
10
149.141885219418
20
-11.2288001448559
30
0
41
1
10
149.278639307185
20
-11.5950222047347
30
0
41
1
10
149.347016351069
20
-11.7486390530613
30
0
41
1
10
149.483770438837
20
-11.9983415850484
30
0
41
1
10
149.55214748272
20
-12.0944445631105
30
0
41
1
10
149.688901570488
20
-12.2327670357059
30
0
41
1
10
149.757278614371
20
-12.2750066400266
30
0
41
1
10
149.842749919226
20
-12.2974048466906
30
0
41
1
10
149.859844180197
20
-12.3003674592118
30
0
41
1
10
149.894032702139
20
-12.3033508092256
30
0
41
1
10
149.911126963109
20
-12.3033832244256
30
0
41
1
10
149.962409746022
20
-12.2991074915007
30
0
41
1
10
149.996598267964
20
-12.2903756078171
30
0
41
1
10
150.099163833789
20
-12.2454512017264
30
0
41
1
10
150.167540877673
20
-12.1904832288909
30
0
41
1
10
150.30429496544
20
-12.0256414888523
30
0
41
1
10
150.372672009324
20
-11.9157479806452
30
0
41
1
10
150.509426097091
20
-11.6378804472584
30
0
41
1
10
150.577803140975
20
-11.4698903556468
30
0
41
1
10
150.714557228742
20
-11.0749400817788
30
0
41
1
10
150.782934272626
20
-10.8479709884711
30
0
41
1
10
150.919688360393
20
-10.336846222334
30
0
41
1
10
150.988065404277
20
-10.0526914775249
30
0
41
1
10
151.124819492044
20
-9.4317809148655
30
0
41
1
10
151.193196535928
20
-9.09503681816616
30
0
41
1
10
151.329950623695
20
-8.37614697071936
30
0
41
1
10
151.398327667579
20
-7.99402244459947
30
0
41
1
10
151.535081755346
20
-7.19368363018214
30
0
41
1
10
151.60345879923
20
-6.77549672826035
30
0
41
1
10
151.740212886997
20
-5.91371368935276
30
0
41
1
10
151.808589930881
20
-5.47014658628677
30
0
41
1
10
151.945344018648
20
-4.56878786783284
30
0
41
1
10
152.013721062532
20
-4.11102247210888
30
0
41
1
10
152.150475150299
20
-3.1921105339668
30
0
41
1
10
152.218852194183
20
-2.73098407244532
30
0
41
1
10
152.35560628195
20
-1.81514599984678
30
0
41
1
10
152.423983325834
20
-1.36044672014012
30
0
41
1
10
152.526548891659
20
-0.689402327828276
30
0
41
1
10
152.560737413601
20
-0.467541829628033
30
0
41
1
10
152.603473066028
20
-0.193032590345581
30
0
41
1
10
152.612020196514
20
-0.138271283913724
30
0
41
1
10
152.629114457485
20
-0.0290421434835366
30
0
41
1
10
152.63766158797
20
0.0253475329006392
30
0
41
1
10
152.663302979427
20
0.189171346859325
30
0
41
1
10
152.680397240397
20
0.298974940944902
30
0
41
1
10
152.765868545252
20
0.850679436342034
30
0
41
1
10
152.834245589136
20
1.30070942841638
30
0
41
1
10
152.970999676903
20
2.21052255743985
30
0
41
1
10
153.039376720787
20
2.6702963498029
30
0
41
1
10
153.176130808554
20
3.59035321981665
30
0
41
1
10
153.244507852438
20
4.05061905265683
30
0
41
1
10
153.381261940205
20
4.96115381652203
30
0
41
1
10
153.449638984089
20
5.41139854289457
30
0
41
1
10
153.586393071856
20
6.29074973440061
30
0
41
1
10
153.65477011574
20
6.71982774627688
30
0
41
1
10
153.791524203507
20
7.54587110992617
30
0
41
1
10
153.859901247391
20
7.94280789753324
30
0
41
1
10
153.996655335158
20
8.69463379430175
30
0
41
1
10
154.065032379041
20
9.04949886972884
30
0
41
1
10
154.201786466809
20
9.70909265837207
30
0
41
1
10
154.270163510692
20
10.0138057851991
30
0
41
1
10
154.40691759846
20
10.5674615937371
30
0
41
1
10
154.475294642343
20
10.8163992652197
30
0
41
1
10
154.612048730111
20
11.2556398477433
30
0
41
1
10
154.680425773994
20
11.4459481923372
30
0
41
1
10
154.817179861762
20
11.7678265602763
30
0
41
1
10
154.885556905645
20
11.8994103350459
30
0
41
1
10
155.022310993413
20
12.1061991429194
30
0
41
1
10
155.090688037296
20
12.181422946579
30
0
41
1
10
155.227442125064
20
12.2798132224759
30
0
41
1
10
155.295819168947
20
12.303
30
0
41
1
10
155.364196212831
20
12.303
30
0
0
SPLINE
5
FA
100
AcDbEntity
8
1
62
256
6
ByLayer
370
13
48
1
60
0
100
AcDbSpline
70
4
71
3
72
71
73
67
40
0
40
0
40
0
40
0
40
0.0625
40
0.0625
40
0.09375
40
0.09375
40
0.125
40
0.125
40
0.15625
40
0.15625
40
0.1875
40
0.1875
40
0.21875
40
0.21875
40
0.25
40
0.25
40
0.28125
40
0.28125
40
0.3125
40
0.3125
40
0.34375
40
0.34375
40
0.375
40
0.375
40
0.40625
40
0.40625
40
0.4375
40
0.4375
40
0.46875
40
0.46875
40
0.5
40
0.5
40
0.53125
40
0.53125
40
0.5390625
40
0.5390625
40
0.546875
40
0.5625
40
0.5625
40
0.59375
40
0.59375
40
0.625
40
0.625
40
0.65625
40
0.65625
40
0.6875
40
0.6875
40
0.71875
40
0.71875
40
0.75
40
0.75
40
0.78125
40
0.78125
40
0.8125
40
0.8125
40
0.84375
40
0.84375
40
0.875
40
0.875
40
0.90625
40
0.90625
40
0.9375
40
0.9375
40
0.96875
40
0.96875
40
1
40
1
40
1
40
1
41
1
10
154.610505267565
20
12.303
30
0
41
1
10
154.716996287153
20
12.303
30
0
41
1
10
154.823487306742
20
12.2465834793004
30
0
41
1
10
154.983223836125
20
12.0623073318444
30
0
41
1
10
155.03646934592
20
11.984325416687
30
0
41
1
10
155.142960365508
20
11.7936018321945
30
0
41
1
10
155.196205875302
20
11.6808551377102
30
0
41
1
10
155.302696894891
20
11.4197312871038
30
0
41
1
10
155.355942404686
20
11.271350405012
30
0
41
1
10
155.462433424274
20
10.9390085522177
30
0
41
1
10
155.515678934069
20
10.7550457221715
30
0
41
1
10
155.622169953657
20
10.3525973194599
30
0
41
1
10
155.675415463452
20
10.1341121609037
30
0
41
1
10
155.78190648304
20
9.66470647968276
30
0
41
1
10
155.835151992835
20
9.41378879662375
30
0
41
1
10
155.941643012424
20
8.88258698111463
30
0
41
1
10
155.994888522218
20
8.60230795740304
30
0
41
1
10
156.101379541807
20
8.01631376656499
30
0
41
1
10
156.154625051601
20
7.71060551862445
30
0
41
1
10
156.26111607119
20
7.07836209554821
30
0
41
1
10
156.314361580984
20
6.75183495801483
30
0
41
1
10
156.420852600573
20
6.08301465130236
30
0
41
1
10
156.474098110367
20
5.74072982922738
30
0
41
1
10
156.580589129956
20
5.04565774885043
30
0
41
1
10
156.63383463975
20
4.69287835603399
30
0
41
1
10
156.740325659339
20
3.98203722812707
30
0
41
1
10
156.793571169133
20
3.62398222349321
30
0
41
1
10
156.900062188722
20
2.90754514824377
30
0
41
1
10
156.953307698516
20
2.54916823682012
30
0
41
1
10
157.059798718105
20
1.83659798368419
30
0
41
1
10
157.113044227899
20
1.48240803855322
30
0
41
1
10
157.219535247488
20
0.782148856103333
30
0
41
1
10
157.272780757282
20
0.436081286244217
30
0
41
1
10
157.339337644525
20
0.0106272664039295
30
0
41
1
10
157.352649021974
20
-0.0740512823987274
30
0
41
1
10
157.379271776871
20
-0.244583220180147
30
0
41
1
10
157.419205909217
20
-0.501427818785402
30
0
41
1
10
157.459140041563
20
-0.761200801705371
30
0
41
1
10
157.539008306254
20
-1.28402796985975
30
0
41
1
10
157.592253816049
20
-1.63697394311686
30
0
41
1
10
157.698744835637
20
-2.34784163438837
30
0
41
1
10
157.751990345432
20
-2.70576028911816
30
0
41
1
10
157.858481365021
20
-3.42216573293328
30
0
41
1
10
157.911726874815
20
-3.78064768652644
30
0
41
1
10
158.018217894404
20
-4.49329893846431
30
0
41
1
10
158.071463404198
20
-4.84746177546501
30
0
41
1
10
158.177954423787
20
-5.54629108594773
30
0
41
1
10
158.231199933581
20
-5.89094986301905
30
0
41
1
10
158.33769095317
20
-6.56549856243652
30
0
41
1
10
158.390936462964
20
-6.8953801704896
30
0
41
1
10
158.497427482553
20
-7.53525602796358
30
0
41
1
10
158.550672992347
20
-7.84524211867148
30
0
41
1
10
158.657164011936
20
-8.44061264627948
30
0
41
1
10
158.71040952173
20
-8.72598989588028
30
0
41
1
10
158.816900541319
20
-9.26806601012282
30
0
41
1
10
158.870146051113
20
-9.52475938274489
30
0
41
1
10
158.976637070702
20
-10.0062214410755
30
0
41
1
10
159.029882580496
20
-10.2309868395568
30
0
41
1
10
159.136373600085
20
-10.646310502103
30
0
41
1
10
159.189619109879
20
-10.8368678992987
30
0
41
1
10
159.296110129468
20
-11.1825198182807
30
0
41
1
10
159.349355639262
20
-11.3376157969535
30
0
41
1
10
159.455846658851
20
-11.6121063300385
30
0
41
1
10
159.509092168646
20
-11.7315042998017
30
0
41
1
10
159.615583188234
20
-11.9353027286451
30
0
41
1
10
159.668828698029
20
-12.019708016071
30
0
41
1
10
159.722074207823
20
-12.0873747823131
30
0
0
SPLINE
5
FB
100
AcDbEntity
8
1
62
256
6
ByLayer
370
13
48
1
60
0
100
AcDbSpline
70
4
71
3
72
78
73
74
40
0
40
0
40
0
40
0
40
0.0312499999999998
40
0.0312499999999998
40
0.0624999999999995
40
0.0624999999999995
40
0.0937499999999993
40
0.0937499999999993
40
0.101562499999999
40
0.101562499999999
40
0.109375
40
0.109375
40
0.124999999999999
40
0.124999999999999
40
0.156249999999999
40
0.156249999999999
40
0.187499999999999
40
0.187499999999999
40
0.21875
40
0.21875
40
0.25
40
0.25
40
0.28125
40
0.28125
40
0.3125
40
0.3125
40
0.34375
40
0.34375
40
0.375
40
0.375
40
0.40625
40
0.40625
40
0.4375
40
0.4375
40
0.46875
40
0.46875
40
0.5
40
0.5
40
0.53125
40
0.53125
40
0.546875
40
0.546875
40
0.5546875
40
0.5546875
40
0.5625
40
0.5625
40
0.59375
40
0.59375
40
0.625
40
0.625
40
0.65625
40
0.65625
40
0.6875
40
0.6875
40
0.71875
40
0.71875
40
0.75
40
0.75
40
0.78125
40
0.78125
40
0.8125
40
0.8125
40
0.84375
40
0.84375
40
0.875
40
0.875
40
0.90625
40
0.90625
40
0.9375
40
0.9375
40
0.96875
40
0.96875
40
1
40
1
40
1
40
1
41
1
10
148.8
20
-11.598488891427
30
0
41
1
10
148.86333320298
20
-11.7484964464852
30
0
41
1
10
148.926666405959
20
-11.8733219644928
30
0
41
1
10
149.053332811918
20
-12.0743670374651
30
0
41
1
10
149.116666014898
20
-12.1505991944773
30
0
41
1
10
149.243332420857
20
-12.2577154625358
30
0
41
1
10
149.306665623837
20
-12.2886134087999
30
0
41
1
10
149.385832127562
20
-12.3016024458718
30
0
41
1
10
149.401665428306
20
-12.3029206310109
30
0
41
1
10
149.433332029796
20
-12.3030724121552
30
0
41
1
10
149.449165330541
20
-12.3019081885244
30
0
41
1
10
149.496665232776
20
-12.2945835986238
30
0
41
1
10
149.528331834265
20
-12.2845895214337
30
0
41
1
10
149.623331638735
20
-12.2384248682922
30
0
41
1
10
149.686664841715
20
-12.186037196563
30
0
41
1
10
149.813331247674
20
-12.0342012873973
30
0
41
1
10
149.876664450653
20
-11.9347395656931
30
0
41
1
10
150.003330856613
20
-11.6861633730151
30
0
41
1
10
150.066664059592
20
-11.5370376350991
30
0
41
1
10
150.193330465551
20
-11.1881938254865
30
0
41
1
10
150.256663668531
20
-10.9884687626564
30
0
41
1
10
150.38333007449
20
-10.5394211077288
30
0
41
1
10
150.44666327747
20
-10.2900974923301
30
0
41
1
10
150.573329683429
20
-9.7449081254654
30
0
41
1
10
150.636662886409
20
-9.44904815533965
30
0
41
1
10
150.763329292368
20
-8.81583290720874
30
0
41
1
10
150.826662495348
20
-8.47848986837946
30
0
41
1
10
150.953328901307
20
-7.76907385744221
30
0
41
1
10
151.016662104286
20
-7.39701803188376
30
0
41
1
10
151.143328510246
20
-6.6262124720507
30
0
41
1
10
151.206661713225
20
-6.22748236497097
30
0
41
1
10
151.333328119184
20
-5.41207325321213
30
0
41
1
10
151.396661322164
20
-4.99541362612871
30
0
41
1
10
151.523327728123
20
-4.15300377051642
30
0
41
1
10
151.586660931103
20
-3.72727025449194
30
0
41
1
10
151.713327337062
20
-2.87513398864647
30
0
41
1
10
151.776660540042
20
-2.44874364689761
30
0
41
1
10
151.903326946001
20
-1.60283583512745
30
0
41
1
10
151.966660148981
20
-1.18332579367024
30
0
41
1
10
152.06165995345
20
-0.563988057365862
30
0
41
1
10
152.09332655494
20
-0.359186830635252
30
0
41
1
10
152.140826457174
20
-0.0549551706964735
30
0
41
1
10
152.156659757919
20
0.0456891183599453
30
0
41
1
10
152.188326359409
20
0.248449743832253
30
0
41
1
10
152.204159660154
20
0.350325630499498
30
0
41
1
10
152.283326163879
20
0.861980250297307
30
0
41
1
10
152.346659366858
20
1.27863571543531
30
0
41
1
10
152.473325772817
20
2.12059258294158
30
0
41
1
10
152.536658975797
20
2.54588783652162
30
0
41
1
10
152.663325381756
20
3.39787329272991
30
0
41
1
10
152.726658584736
20
3.82455234427661
30
0
41
1
10
152.853324990695
20
4.67108276006405
30
0
41
1
10
152.916658193675
20
5.09091840173269
30
0
41
1
10
153.043324599634
20
5.91497343146511
30
0
41
1
10
153.106657802614
20
6.31917392256582
30
0
41
1
10
153.233324208573
20
7.10312985246608
30
0
41
1
10
153.296657411552
20
7.48286546970078
30
0
41
1
10
153.423323817511
20
8.20961286572282
30
0
41
1
10
153.486657020491
20
8.55660660343952
30
0
41
1
10
153.61332342645
20
9.21072013128338
30
0
41
1
10
153.67665662943
20
9.51782622625066
30
0
41
1
10
153.803323035389
20
10.0866286360186
30
0
41
1
10
153.866656238369
20
10.3483174217733
30
0
41
1
10
153.993322644328
20
10.8226881523967
30
0
41
1
10
154.056655847308
20
11.0353694036988
30
0
41
1
10
154.183322253267
20
11.4101915271937
30
0
41
1
10
154.246655456246
20
11.5723379884198
30
0
41
1
10
154.373321862206
20
11.8465438408974
30
0
41
1
10
154.436655065185
20
11.9586135886051
30
0
41
1
10
154.563321471144
20
12.1348603705676
30
0
41
1
10
154.626654674124
20
12.1990505159507
30
0
41
1
10
154.753321080083
20
12.2831134068743
30
0
41
1
10
154.816654283063
20
12.303
30
0
41
1
10
154.879987486043
20
12.303
30
0
0
SPLINE
5
FC
100
AcDbEntity
8
1
62
256
6
ByLayer
370
13
48
1
60
0
100
AcDbSpline
70
4
71
3
72
77
73
73
40
0
40
0
40
0
40
0
40
0.03125
40
0.03125
40
0.0625
40
0.0625
40
0.09375
40
0.09375
40
0.125
40
0.125
40
0.15625
40
0.15625
40
0.1875
40
0.1875
40
0.21875
40
0.21875
40
0.25
40
0.25
40
0.28125
40
0.28125
40
0.3125
40
0.3125
40
0.34375
40
0.34375
40
0.375
40
0.375
40
0.40625
40
0.40625
40
0.4375
40
0.4375
40
0.46875
40
0.46875
40
0.484375
40
0.484375
40
0.4921875
40
0.4921875
40
0.5
40
0.5
40
0.53125
40
0.53125
40
0.5625
40
0.5625
40
0.59375
40
0.59375
40
0.625
40
0.625
40
0.65625
40
0.65625
40
0.6875
40
0.6875
40
0.71875
40
0.71875
40
0.75
40
0.75
40
0.78125
40
0.78125
40
0.8125
40
0.8125
40
0.84375
40
0.84375
40
0.875
40
0.875
40
0.90625
40
0.90625
40
0.9375
40
0.9375
40
0.96875
40
0.96875
40
0.9765625
40
0.9765625
40
0.984375
40
1
40
1
40
1
40
1
41
1
10
154.126296540776
20
12.303
30
0
41
1
10
154.184585891475
20
12.303
30
0
41
1
10
154.242875242173
20
12.2861590833881
30
0
41
1
10
154.35945394357
20
12.2152497534264
30
0
41
1
10
154.417743294268
20
12.161172200205
30
0
41
1
10
154.534321995665
20
12.0128960607976
30
0
41
1
10
154.592611346363
20
11.918688643946
30
0
41
1
10
154.70919004776
20
11.6882018114529
30
0
41
1
10
154.767479398459
20
11.5519149859333
30
0
41
1
10
154.884058099856
20
11.2365090316041
30
0
41
1
10
154.942347450554
20
11.057385069403
30
0
41
1
10
155.058926151951
20
10.6569232998479
30
0
41
1
10
155.117215502649
20
10.4355842084892
30
0
41
1
10
155.233794204046
20
9.95278465970588
30
0
41
1
10
155.292083554744
20
9.69132702146959
30
0
41
1
10
155.408662256141
20
9.13183549866542
30
0
41
1
10
155.46695160684
20
8.83380849730293
30
0
41
1
10
155.583530308236
20
8.20602969104488
30
0
41
1
10
155.641819658935
20
7.87628815453192
30
0
41
1
10
155.758398360332
20
7.19097752472683
30
0
41
1
10
155.81668771103
20
6.83542087535128
30
0
41
1
10
155.933266412427
20
6.10507724956
30
0
41
1
10
155.991555763125
20
5.73030339172971
30
0
41
1
10
156.108134464522
20
4.96843312683535
30
0
41
1
10
156.16642381522
20
4.58134902049898
30
0
41
1
10
156.283002516617
20
3.80168961724169
30
0
41
1
10
156.341291867316
20
3.40912459065086
30
0
41
1
10
156.457870568712
20
2.6249153543942
30
0
41
1
10
156.516159919411
20
2.23327862587763
30
0
41
1
10
156.632738620807
20
1.45664987771295
30
0
41
1
10
156.691027971506
20
1.071662292219
30
0
41
1
10
156.778461997554
20
0.502806816311931
30
0
41
1
10
156.807606672903
20
0.314618804467557
30
0
41
1
10
156.851323685927
20
0.0348705338837192
30
0
41
1
10
156.865896023601
20
-0.0577796263713424
30
0
41
1
10
156.89504069895
20
-0.244416549896215
30
0
41
1
10
156.909613036625
20
-0.338154325191255
30
0
41
1
10
156.982474724998
20
-0.808782029503504
30
0
41
1
10
157.040764075696
20
-1.19152530856323
30
0
41
1
10
157.157342777093
20
-1.96485981524927
30
0
41
1
10
157.215632127792
20
-2.35544729613781
30
0
41
1
10
157.332210829188
20
-3.13893894363807
30
0
41
1
10
157.390500179887
20
-3.53183632301813
30
0
41
1
10
157.507078881284
20
-4.31367879308183
30
0
41
1
10
157.565368231982
20
-4.70261420469447
30
0
41
1
10
157.681946933379
20
-5.46977409410295
30
0
41
1
10
157.740236284077
20
-5.84798664443076
30
0
41
1
10
157.856814985474
20
-6.58677960940639
30
0
41
1
10
157.915104336172
20
-6.94734696750385
30
0
41
1
10
158.031683037569
20
-7.64414534051014
30
0
41
1
10
158.089972388268
20
-7.98036361940717
30
0
41
1
10
158.206551089664
20
-8.62236938354133
30
0
41
1
10
158.264840440363
20
-8.92814597911982
30
0
41
1
10
158.38141914176
20
-9.50414395368387
30
0
41
1
10
158.439708492458
20
-9.77435759056448
30
0
41
1
10
158.556287193855
20
-10.2753594499108
30
0
41
1
10
158.614576544553
20
-10.5061438936205
30
0
41
1
10
158.73115524595
20
-10.9258468301328
30
0
41
1
10
158.789444596649
20
-11.1147656949011
30
0
41
1
10
158.906023298045
20
-11.4497778094117
30
0
41
1
10
158.964312648744
20
-11.5958751524763
30
0
41
1
10
159.08089135014
20
-11.8456962417614
30
0
41
1
10
159.139180700839
20
-11.9494269060988
30
0
41
1
10
159.255759402236
20
-12.1162093258691
30
0
41
1
10
159.314048752934
20
-12.1792696890148
30
0
41
1
10
159.430627454331
20
-12.2674114347969
30
0
41
1
10
159.488916805029
20
-12.2925019756328
30
0
41
1
10
159.561778493402
20
-12.3022747421077
30
0
41
1
10
159.576350831077
20
-12.303151551599
30
0
41
1
10
159.605495506426
20
-12.3028058926145
30
0
41
1
10
159.64921251945
20
-12.2991267445478
30
0
41
1
10
159.692929532474
20
-12.2856999735074
30
0
41
1
10
159.722074207823
20
-12.2721951651056
30
0
0
SPLINE
5
FD
100
AcDbEntity
8
1
62
256
6
ByLayer
370
13
48
1
60
0
100
AcDbSpline
70
4
71
3
72
78
73
74
40
0
40
0
40
0
40
0
40
0.0156249999999991
40
0.0156249999999991
40
0.0234374999999989
40
0.0234374999999989
40
0.0312499999999986
40
0.0312499999999986
40
0.0624999999999979
40
0.0624999999999979
40
0.0937499999999972
40
0.0937499999999972
40
0.124999999999997
40
0.124999999999997
40
0.156249999999996
40
0.156249999999996
40
0.187499999999995
40
0.187499999999995
40
0.218749999999994
40
0.218749999999994
40
0.249999999999994
40
0.249999999999994
40
0.281249999999993
40
0.281249999999993
40
0.312499999999992
40
0.312499999999992
40
0.343749999999992
40
0.343749999999992
40
0.374999999999991
40
0.374999999999991
40
0.40624999999999
40
0.40624999999999
40
0.43749999999999
40
0.43749999999999
40
0.468749999999989
40
0.468749999999989
40
0.499999999999988
40
0.499999999999988
40
0.507812499999988
40
0.507812499999988
40
0.515624999999988
40
0.515624999999988
40
0.531249999999989
40
0.531249999999989
40
0.56249999999999
40
0.56249999999999
40
0.59374999999999
40
0.59374999999999
40
0.624999999999991
40
0.624999999999991
40
0.656249999999992
40
0.656249999999992
40
0.687499999999992
40
0.687499999999992
40
0.718749999999993
40
0.718749999999993
40
0.749999999999994
40
0.749999999999994
40
0.781249999999994
40
0.781249999999994
40
0.812499999999995
40
0.812499999999995
40
0.843749999999996
40
0.843749999999996
40
0.874999999999997
40
0.874999999999997
40
0.906249999999998
40
0.906249999999998
40
0.937499999999998
40
0.937499999999998
40
0.968749999999999
40
0.968749999999999
40
1
40
1
40
1
40
1
41
1
10
148.8
20
-12.2721946590058
30
0
41
1
10
148.829144681038
20
-12.2856995837736
30
0
41
1
10
148.858289362076
20
-12.2946508763975
30
0
41
1
10
148.902006383632
20
-12.3015792134579
30
0
41
1
10
148.916578724151
20
-12.3028058285142
30
0
41
1
10
148.945723405189
20
-12.3031515903954
30
0
41
1
10
148.960295745708
20
-12.3022748322213
30
0
41
1
10
149.033157448302
20
-12.292502324755
30
0
41
1
10
149.091446810378
20
-12.2674119955958
30
0
41
1
10
149.208025534529
20
-12.1792706765607
30
0
41
1
10
149.266314896605
20
-12.1162105284763
30
0
41
1
10
149.382893620756
20
-11.9494285356242
30
0
41
1
10
149.441182982831
20
-11.8456980831293
30
0
41
1
10
149.557761706982
20
-11.5958774070396
30
0
41
1
10
149.616051069058
20
-11.4497802653088
30
0
41
1
10
149.732629793209
20
-11.1147685355153
30
0
41
1
10
149.790919155285
20
-10.9258498541088
30
0
41
1
10
149.907497879436
20
-10.5061472593531
30
0
41
1
10
149.965787241511
20
-10.2753629740175
30
0
41
1
10
150.082365965662
20
-9.77436140052859
30
0
41
1
10
150.140655327738
20
-9.50414789111471
30
0
41
1
10
150.257234051889
20
-8.92815013633739
30
0
41
1
10
150.315523413965
20
-8.62237363306934
30
0
41
1
10
150.432102138116
20
-7.9803680162247
30
0
41
1
10
150.490391500191
20
-7.64414979230588
30
0
41
1
10
150.606970224342
20
-6.947351491973
30
0
41
1
10
150.665259586418
20
-6.58678415157848
30
0
41
1
10
150.781838310569
20
-5.84799118690285
30
0
41
1
10
150.840127672645
20
-5.4697786191866
30
0
41
1
10
150.956706396796
20
-4.70261866385977
30
0
41
1
10
151.014995758871
20
-4.31368320373568
30
0
41
1
10
151.131574483023
20
-3.53184061075211
30
0
41
1
10
151.189863845098
20
-3.13894315698295
30
0
41
1
10
151.306442569249
20
-2.35545134075335
30
0
41
1
10
151.364731931325
20
-1.96486376554196
30
0
41
1
10
151.481310655476
20
-1.19152905634738
30
0
41
1
10
151.539600017551
20
-0.80878566911548
30
0
41
1
10
151.612461720146
20
-0.338157824524956
30
0
41
1
10
151.627034060665
20
-0.24442002091979
30
0
41
1
10
151.656178741703
20
-0.0577830403495625
30
0
41
1
10
151.670751082222
20
0.0348671405370737
30
0
41
1
10
151.714468103778
20
0.314615435107044
30
0
41
1
10
151.743612784816
20
0.502803465076568
30
0
41
1
10
151.831046827929
20
1.07165900184603
30
0
41
1
10
151.889336190005
20
1.45664663659517
30
0
41
1
10
152.005914914156
20
2.23327550039772
30
0
41
1
10
152.064204276232
20
2.62491229530093
30
0
41
1
10
152.180783000383
20
3.40912168019926
30
0
41
1
10
152.239072362458
20
3.80168678904545
30
0
41
1
10
152.355651086609
20
4.581346370316
30
0
41
1
10
152.413940448685
20
4.96843057240605
30
0
41
1
10
152.530519172836
20
5.73030103889252
30
0
41
1
10
152.588808534912
20
6.10507500255241
30
0
41
1
10
152.705387259063
20
6.83541884581251
30
0
41
1
10
152.763676621138
20
7.1909756068147
30
0
41
1
10
152.88025534529
20
7.87628646087501
30
0
41
1
10
152.938544707365
20
8.20602811000188
30
0
41
1
10
153.055123431516
20
8.83380713756557
30
0
41
1
10
153.113412793592
20
9.13183424760538
30
0
41
1
10
153.229991517743
20
9.69132597924738
30
0
41
1
10
153.288280879819
20
9.95278371763229
30
0
41
1
10
153.40485960397
20
10.4355834543355
30
0
41
1
10
153.463148966045
20
10.6569226334577
30
0
41
1
10
153.579727690196
20
11.0573845633359
30
0
41
1
10
153.638017052272
20
11.236508598094
30
0
41
1
10
153.754595776423
20
11.5519146806962
30
0
41
1
10
153.812885138499
20
11.6882015619341
30
0
41
1
10
153.92946386265
20
11.9186884885782
30
0
41
1
10
153.987753224725
20
12.0128959438687
30
0
41
1
10
154.104331948876
20
12.1611721434869
30
0
41
1
10
154.162621310952
20
12.2152497184886
30
0
41
1
10
154.279200035103
20
12.2861590768048
30
0
41
1
10
154.337489397179
20
12.303
30
0
41
1
10
154.395778759254
20
12.303
30
0
0
SPLINE
5
FE
100
AcDbEntity
8
1
62
256
6
ByLayer
370
13
48
1
60
0
100
AcDbSpline
70
4
71
3
72
78
73
74
40
0
40
0
40
0
40
0
40
0.03125
40
0.03125
40
0.0625
40
0.0625
40
0.09375
40
0.09375
40
0.125
40
0.125
40
0.15625
40
0.15625
40
0.1875
40
0.1875
40
0.21875
40
0.21875
40
0.25
40
0.25
40
0.28125
40
0.28125
40
0.3125
40
0.3125
40
0.34375
40
0.34375
40
0.375
40
0.375
40
0.40625
40
0.40625
40
0.4375
40
0.4375
40
0.4453125
40
0.4453125
40
0.453125
40
0.453125
40
0.46875
40
0.46875
40
0.5
40
0.5
40
0.53125
40
0.53125
40
0.5625
40
0.5625
40
0.59375
40
0.59375
40
0.625
40
0.625
40
0.65625
40
0.65625
40
0.6875
40
0.6875
40
0.71875
40
0.71875
40
0.75
40
0.75
40
0.78125
40
0.78125
40
0.8125
40
0.8125
40
0.84375
40
0.84375
40
0.875
40
0.875
40
0.890625
40
0.890625
40
0.8984375
40
0.8984375
40
0.90625
40
0.90625
40
0.9375
40
0.9375
40
0.96875
40
0.96875
40
1
40
1
40
1
40
1
41
1
10
153.642087813988
20
12.303
30
0
41
1
10
153.70542100559
20
12.303
30
0
41
1
10
153.768754197193
20
12.2831134140312
30
0
41
1
10
153.895420580398
20
12.199050554097
30
0
41
1
10
153.958753772
20
12.134860432559
30
0
41
1
10
154.085420155205
20
11.9586137165793
30
0
41
1
10
154.148753346807
20
11.8465440110208
30
0
41
1
10
154.275419730012
20
11.5723382616208
30
0
41
1
10
154.338752921615
20
11.4101918613305
30
0
41
1
10
154.46541930482
20
11.0353698775573
30
0
41
1
10
154.528752496422
20
10.8226887050419
30
0
41
1
10
154.655418879627
20
10.3483181473655
30
0
41
1
10
154.718752071229
20
10.0866294557643
30
0
41
1
10
154.845418454434
20
9.5178272457361
30
0
41
1
10
154.908751646037
20
9.210721256341
30
0
41
1
10
155.035418029242
20
8.55660794598225
30
0
41
1
10
155.098751220844
20
8.20961432015937
30
0
41
1
10
155.225417604049
20
7.48286714852921
30
0
41
1
10
155.288750795652
20
7.10313164377189
30
0
41
1
10
155.415417178856
20
6.3191759336602
30
0
41
1
10
155.478750370459
20
5.91497554985236
30
0
41
1
10
155.605416753664
20
5.09092072433634
30
0
41
1
10
155.668749945266
20
4.67108517957826
30
0
41
1
10
155.795416328471
20
3.82455494308905
30
0
41
1
10
155.858749520074
20
3.39787597392393
30
0
41
1
10
155.985415903278
20
2.54589066514379
30
0
41
1
10
156.048749094881
20
2.12059547661099
30
0
41
1
10
156.175415478086
20
1.27863872047377
30
0
41
1
10
156.238748669688
20
0.861983301663486
30
0
41
1
10
156.317915159191
20
0.350328728025318
30
0
41
1
10
156.333748457092
20
0.248452850005435
30
0
41
1
10
156.365415052893
20
0.045692240668302
30
0
41
1
10
156.381248350794
20
-0.0549520293896535
30
0
41
1
10
156.428748244495
20
-0.35918360378443
30
0
41
1
10
156.460414840297
20
-0.563984774411182
30
0
41
1
10
156.5554146277
20
-1.18332234638953
30
0
41
1
10
156.618747819303
20
-1.60283228359589
30
0
41
1
10
156.745414202508
20
-2.44873990441352
30
0
41
1
10
156.80874739411
20
-2.87513015948179
30
0
41
1
10
156.935413777315
20
-3.72726627670207
30
0
41
1
10
156.998746968918
20
-4.15299973080775
30
0
41
1
10
157.125413352122
20
-4.99540949400139
30
0
41
1
10
157.188746543725
20
-5.41206909061168
30
0
41
1
10
157.31541292693
20
-6.22747817821738
30
0
41
1
10
157.378746118532
20
-6.62620829163976
30
0
41
1
10
157.505412501737
20
-7.39701390425489
30
0
41
1
10
157.56874569334
20
-7.76906977626638
30
0
41
1
10
157.695412076545
20
-8.47848592087726
30
0
41
1
10
157.758745268147
20
-8.81582904692817
30
0
41
1
10
157.885411651352
20
-9.44904450807704
30
0
41
1
10
157.948744842954
20
-9.74490460398692
30
0
41
1
10
158.075411226159
20
-10.2900942561064
30
0
41
1
10
158.138744417762
20
-10.5394180309526
30
0
41
1
10
158.265410800967
20
-10.9884660314198
30
0
41
1
10
158.328743992569
20
-11.1881912803127
30
0
41
1
10
158.455410375774
20
-11.5370354803039
30
0
41
1
10
158.518743567376
20
-11.686161422506
30
0
41
1
10
158.645409950581
20
-11.9347380331741
30
0
41
1
10
158.708743142184
20
-12.0341999685571
30
0
41
1
10
158.835409525389
20
-12.186036306063
30
0
41
1
10
158.898742716991
20
-12.2384241924359
30
0
41
1
10
158.993742504395
20
-12.2845891627468
30
0
41
1
10
159.025409100196
20
-12.2945833448707
30
0
41
1
10
159.072908993898
20
-12.3019080903989
30
0
41
1
10
159.088742291798
20
-12.3030723655194
30
0
41
1
10
159.1204088876
20
-12.3029206870503
30
0
41
1
10
159.1362421855
20
-12.3016025544786
30
0
41
1
10
159.215408675003
20
-12.2886137863692
30
0
41
1
10
159.278741866606
20
-12.2577160749856
30
0
41
1
10
159.405408249811
20
-12.1506003138341
30
0
41
1
10
159.468741441413
20
-12.0743684288595
30
0
41
1
10
159.595407824618
20
-11.8733239318526
30
0
41
1
10
159.65874101622
20
-11.7484987177718
30
0
41
1
10
159.722074207823
20
-11.5984914783671
30
0
0
SPLINE
5
FF
100
AcDbEntity
8
1
62
256
6
ByLayer
370
13
48
1
60
0
100
AcDbSpline
70
4
71
3
72
72
73
68
40
0
40
0
40
0
40
0
40
0.0312500000000007
40
0.0312500000000007
40
0.0625000000000014
40
0.0625000000000014
40
0.0937500000000021
40
0.0937500000000021
40
0.125000000000003
40
0.125000000000003
40
0.156250000000003
40
0.156250000000003
40
0.187500000000004
40
0.187500000000004
40
0.218750000000005
40
0.218750000000005
40
0.250000000000006
40
0.250000000000006
40
0.281250000000006
40
0.281250000000006
40
0.312500000000007
40
0.312500000000007
40
0.343750000000007
40
0.343750000000007
40
0.375000000000008
40
0.375000000000008
40
0.406250000000009
40
0.406250000000009
40
0.437500000000009
40
0.437500000000009
40
0.45312500000001
40
0.45312500000001
40
0.46093750000001
40
0.46093750000001
40
0.46875000000001
40
0.46875000000001
40
0.50000000000001
40
0.50000000000001
40
0.531250000000009
40
0.531250000000009
40
0.562500000000009
40
0.562500000000009
40
0.593750000000008
40
0.593750000000008
40
0.625000000000008
40
0.625000000000008
40
0.656250000000007
40
0.656250000000007
40
0.687500000000007
40
0.687500000000007
40
0.718750000000006
40
0.718750000000006
40
0.750000000000005
40
0.750000000000005
40
0.781250000000005
40
0.781250000000005
40
0.812500000000004
40
0.812500000000004
40
0.843750000000004
40
0.843750000000004
40
0.875000000000003
40
0.875000000000003
40
0.906250000000002
40
0.906250000000002
40
0.937500000000002
40
0.937500000000002
40
1
40
1
40
1
40
1
41
1
10
148.8
20
-12.0873761703366
30
0
41
1
10
148.853245521172
20
-12.0197096181252
30
0
41
1
10
148.906491042343
20
-11.9353045439822
30
0
41
1
10
149.012982084686
20
-11.7315065342702
30
0
41
1
10
149.066227605858
20
-11.612108770343
30
0
41
1
10
149.172718648201
20
-11.3376186352692
30
0
41
1
10
149.225964169372
20
-11.1825228487569
30
0
41
1
10
149.332455211715
20
-10.8368712943508
30
0
41
1
10
149.385700732887
20
-10.6463140695552
30
0
41
1
10
149.49219177523
20
-10.2309907265724
30
0
41
1
10
149.545437296401
20
-10.0062254752408
30
0
41
1
10
149.651928338744
20
-9.52476368151122
30
0
41
1
10
149.705173859916
20
-9.26807042633047
30
0
41
1
10
149.811664902259
20
-8.72599451420416
30
0
41
1
10
149.86491042343
20
-8.44061734927308
30
0
41
1
10
149.971401465774
20
-7.8452469567986
30
0
41
1
10
150.024646986945
20
-7.53526091655493
30
0
41
1
10
150.131138029288
20
-6.89538512606686
30
0
41
1
10
150.18438355046
20
-6.56550353454128
30
0
41
1
10
150.290874592803
20
-5.89095483610794
30
0
41
1
10
150.344120113974
20
-5.54629604350339
30
0
41
1
10
150.450611156317
20
-4.84746667312001
30
0
41
1
10
150.503856677489
20
-4.49330379176465
30
0
41
1
10
150.610347719832
20
-3.78065242653617
30
0
41
1
10
150.663593241003
20
-3.42217040402048
30
0
41
1
10
150.770084283346
20
-2.70576480264731
30
0
41
1
10
150.823329804518
20
-2.34784605929451
30
0
41
1
10
150.929820846861
20
-1.63697817615
30
0
41
1
10
150.983066368032
20
-1.28403209965333
30
0
41
1
10
151.062934649789
20
-0.76120476938479
30
0
41
1
10
151.089557410375
20
-0.588022725522308
30
0
41
1
10
151.129491551254
20
-0.330202131100037
30
0
41
1
10
151.142802931547
20
-0.244587020041649
30
0
41
1
10
151.169425692133
20
-0.0740550252399146
30
0
41
1
10
151.182737072426
20
0.0106235494737348
30
0
41
1
10
151.24929397389
20
0.436077608673543
30
0
41
1
10
151.302539495061
20
0.782145217829367
30
0
41
1
10
151.409030537404
20
1.48240449473587
30
0
41
1
10
151.462276058576
20
1.83659449503062
30
0
41
1
10
151.568767100919
20
2.54916487388815
30
0
41
1
10
151.622012622091
20
2.9075418558717
30
0
41
1
10
151.728503664434
20
3.62397908635001
30
0
41
1
10
151.781749185605
20
3.98203417565236
30
0
41
1
10
151.888240227948
20
4.69287548487688
30
0
41
1
10
151.94148574912
20
5.04565497433907
30
0
41
1
10
152.047976791463
20
5.74072725707029
30
0
41
1
10
152.101222312634
20
6.08301218484755
30
0
41
1
10
152.207713354977
20
6.75183270846409
30
0
41
1
10
152.260958876149
20
7.0783599571906
30
0
41
1
10
152.367449918492
20
7.71060360416971
30
0
41
1
10
152.420695439663
20
8.01631196480992
30
0
41
1
10
152.527186482006
20
8.60230637844748
30
0
41
1
10
152.580432003178
20
8.88258551224868
30
0
41
1
10
152.686923045521
20
9.41378754139799
30
0
41
1
10
152.740168566692
20
9.66470532799858
30
0
41
1
10
152.846659609035
20
10.1341112062959
30
0
41
1
10
152.899905130207
20
10.3525964583803
30
0
41
1
10
153.00639617255
20
10.755045035384
30
0
41
1
10
153.059641693721
20
10.9390079461907
30
0
41
1
10
153.166132736065
20
11.2713499458486
30
0
41
1
10
153.219378257236
20
11.4197308940434
30
0
41
1
10
153.325869299579
20
11.6808548612271
30
0
41
1
10
153.379114820751
20
11.7936016061884
30
0
41
1
10
153.485605863094
20
11.9843252759196
30
0
41
1
10
153.538851384265
20
12.0623072258434
30
0
41
1
10
153.69858794778
20
12.2465834550527
30
0
41
1
10
153.805078990123
20
12.303
30
0
41
1
10
153.911570032466
20
12.303
30
0
0
SPLINE
5
100
100
AcDbEntity
8
1
62
256
6
ByLayer
370
13
48
1
60
0
100
AcDbSpline
70
4
71
3
72
79
73
75
40
0
40
0
40
0
40
0
40
0.0312500000000002
40
0.0312500000000002
40
0.0625000000000005
40
0.0625000000000005
40
0.0937500000000007
40
0.0937500000000007
40
0.125000000000001
40
0.125000000000001
40
0.156250000000001
40
0.156250000000001
40
0.187500000000001
40
0.187500000000001
40
0.218750000000002
40
0.218750000000002
40
0.250000000000002
40
0.250000000000002
40
0.281250000000002
40
0.281250000000002
40
0.312500000000003
40
0.312500000000003
40
0.343750000000003
40
0.343750000000003
40
0.375000000000003
40
0.375000000000003
40
0.406250000000003
40
0.406250000000003
40
0.414062500000003
40
0.414062500000003
40
0.417968750000003
40
0.417968750000003
40
0.421875000000003
40
0.437500000000003
40
0.437500000000003
40
0.468750000000002
40
0.468750000000002
40
0.500000000000002
40
0.500000000000002
40
0.531250000000001
40
0.531250000000001
40
0.562500000000001
40
0.562500000000001
40
0.593750000000001
40
0.593750000000001
40
0.625
40
0.625
40
0.65625
40
0.65625
40
0.6875
40
0.6875
40
0.718749999999999
40
0.718749999999999
40
0.749999999999999
40
0.749999999999999
40
0.781249999999998
40
0.781249999999998
40
0.812499999999998
40
0.812499999999998
40
0.828124999999998
40
0.828124999999998
40
0.835937499999998
40
0.835937499999998
40
0.843749999999998
40
0.843749999999998
40
0.874999999999998
40
0.874999999999998
40
0.906249999999999
40
0.906249999999999
40
0.937499999999999
40
0.937499999999999
40
0.96875
40
0.96875
40
1
40
1
40
1
40
1
41
1
10
153.157879087199
20
12.303
30
0
41
1
10
153.226256119706
20
12.303
30
0
41
1
10
153.294633152212
20
12.2798132302074
30
0
41
1
10
153.431387217225
20
12.1814229879606
30
0
41
1
10
153.499764249732
20
12.1061992102363
30
0
41
1
10
153.636518314745
20
11.8994104741727
30
0
41
1
10
153.704895347251
20
11.7678267452921
30
0
41
1
10
153.841649412264
20
11.4459484893335
30
0
41
1
10
153.910026444771
20
11.2556402108391
30
0
41
1
10
154.046780509784
20
10.8163997791393
30
0
41
1
10
154.11515754229
20
10.5674621923789
30
0
41
1
10
154.251911607303
20
10.0138065683873
30
0
41
1
10
154.32028863981
20
9.70909354137123
30
0
41
1
10
154.457042704823
20
9.04949996220947
30
0
41
1
10
154.525419737329
20
8.69463499643012
30
0
41
1
10
154.662173802342
20
7.94280932240505
30
0
41
1
10
154.730550834849
20
7.54587264786593
30
0
41
1
10
154.867304899862
20
6.71982950699763
30
0
41
1
10
154.935681932368
20
6.29075160480775
30
0
41
1
10
155.072435997381
20
5.41140062296557
30
0
41
1
10
155.140813029888
20
4.96115599655042
30
0
41
1
10
155.277567094901
20
4.05062141770642
30
0
41
1
10
155.345944127407
20
3.5903556699198
30
0
41
1
10
155.48269819242
20
2.67029895156981
30
0
41
1
10
155.551075224927
20
2.21052522581675
30
0
41
1
10
155.68782928994
20
1.30071220981065
30
0
41
1
10
155.756206322446
20
0.850682264151516
30
0
41
1
10
155.841677613079
20
0.298977814088801
30
0
41
1
10
155.858771871206
20
0.189174228439526
30
0
41
1
10
155.884413258396
20
0.0253504261986279
30
0
41
1
10
155.892960387459
20
-0.0290392407905244
30
0
41
1
10
155.910054645586
20
-0.138268352597834
30
0
41
1
10
155.952790290902
20
-0.412073702502823
30
0
41
1
10
155.995525936219
20
-0.689399255654024
30
0
41
1
10
156.098091484979
20
-1.36044348554171
30
0
41
1
10
156.166468517485
20
-1.81514266310271
30
0
41
1
10
156.303222582498
20
-2.73098055186398
30
0
41
1
10
156.371599615005
20
-3.19210693172391
30
0
41
1
10
156.508353680018
20
-4.1110187353213
30
0
41
1
10
156.576730712524
20
-4.56878407819804
30
0
41
1
10
156.713484777537
20
-5.47014272715484
30
0
41
1
10
156.781861810044
20
-5.91370981360603
30
0
41
1
10
156.918615875057
20
-6.77549286089939
30
0
41
1
10
156.986992907563
20
-7.19367978784788
30
0
41
1
10
157.123746972576
20
-7.99401869639928
30
0
41
1
10
157.192124005083
20
-8.37614329163659
30
0
41
1
10
157.328878070095
20
-9.09503332034305
30
0
41
1
10
157.397255102602
20
-9.43177752917518
30
0
41
1
10
157.534009167615
20
-10.0526883545297
30
0
41
1
10
157.602386200122
20
-10.3368432498742
30
0
41
1
10
157.739140265134
20
-10.8479683479367
30
0
41
1
10
157.807517297641
20
-11.0749376225962
30
0
41
1
10
157.944271362654
20
-11.4698882804766
30
0
41
1
10
158.012648395161
20
-11.637878574708
30
0
41
1
10
158.149402460174
20
-11.9157465243457
30
0
41
1
10
158.21777949268
20
-12.0256402461485
30
0
41
1
10
158.354533557693
20
-12.1904824145078
30
0
41
1
10
158.4229105902
20
-12.2454506020438
30
0
41
1
10
158.525476138959
20
-12.2903753246134
30
0
41
1
10
158.559664655212
20
-12.299107312874
30
0
41
1
10
158.610947429592
20
-12.303383200619
30
0
41
1
10
158.628041687719
20
-12.3033508362768
30
0
41
1
10
158.662230203972
20
-12.3003675915008
30
0
41
1
10
158.679324462099
20
-12.2974050329243
30
0
41
1
10
158.764795752732
20
-12.2750071025696
30
0
41
1
10
158.833172785239
20
-12.2327677405116
30
0
41
1
10
158.969926850252
20
-12.0944457915851
30
0
41
1
10
159.038303882758
20
-11.9983430949407
30
0
41
1
10
159.175057947771
20
-11.7486411578108
30
0
41
1
10
159.243434980277
20
-11.5950246229159
30
0
41
1
10
159.380189045291
20
-11.2288032108361
30
0
41
1
10
159.448566077797
20
-11.0161873786793
30
0
41
1
10
159.58532014281
20
-10.5330745104607
30
0
41
1
10
159.653697175316
20
-10.2625758306964
30
0
41
1
10
159.722074207823
20
-9.96508934054827
30
0
0
SPLINE
5
101
100
AcDbEntity
8
1
62
256
6
ByLayer
370
13
48
1
60
0
100
AcDbSpline
70
4
71
3
72
8
73
4
40
0
40
0
40
0
40
0
40
1
40
1
40
1
40
1
41
1
10
159.722074207823
20
12.0499807459771
30
0
41
1
10
161.214716138549
20
8.03702567027571
30
0
41
1
10
162.707358069274
20
4.02032513862844
30
0
41
1
10
164.2
20
-2.84E-14
30
0
0
SPLINE
5
102
100
AcDbEntity
8
1
62
256
6
ByLayer
370
13
48
1
60
0
100
AcDbSpline
70
4
71
3
72
8
73
4
40
0
40
0
40
0
40
0
40
1
40
1
40
1
40
1
41
1
10
159.722074207823
20
7.74252751297561
30
0
41
1
10
161.214716138549
20
5.17595649814797
30
0
41
1
10
162.707358069274
20
2.59508807087724
30
0
41
1
10
164.2
20
0
30
0
0
SPLINE
5
103
100
AcDbEntity
8
1
62
256
6
ByLayer
370
13
48
1
60
0
100
AcDbSpline
70
4
71
3
72
8
73
4
40
0
40
0
40
0
40
0
40
1
40
1
40
1
40
1
41
1
10
159.722074207823
20
10.8112034883563
30
0
41
1
10
161.214716138549
20
7.21623395140625
30
0
41
1
10
162.707358069274
20
3.61246329533904
30
0
41
1
10
164.2
20
2.84E-14
30
0
0
SPLINE
5
104
100
AcDbEntity
8
1
62
256
6
ByLayer
370
13
48
1
60
0
100
AcDbSpline
70
4
71
3
72
8
73
4
40
0
40
0
40
0
40
0
40
1
40
1
40
1
40
1
41
1
10
159.722074207823
20
-5.74236276864326
30
0
41
1
10
161.214716138549
20
-3.84448279684173
30
0
41
1
10
162.707358069274
20
-1.9303426289124
30
0
41
1
10
164.2
20
1.421E-13
30
0
0
SPLINE
5
105
100
AcDbEntity
8
1
62
256
6
ByLayer
370
13
48
1
60
0
100
AcDbSpline
70
4
71
3
72
8
73
4
40
0
40
0
40
0
40
0
40
1
40
1
40
1
40
1
41
1
10
159.722074207823
20
11.748786871599
30
0
41
1
10
161.214716138549
20
7.8379742198307
30
0
41
1
10
162.707358069274
20
3.92167264705873
30
0
41
1
10
164.2
20
8.53E-14
30
0
0
SPLINE
5
106
100
AcDbEntity
8
1
62
256
6
ByLayer
370
13
48
1
60
0
100
AcDbSpline
70
4
71
3
72
8
73
4
40
0
40
0
40
0
40
0
40
1
40
1
40
1
40
1
41
1
10
159.722074207823
20
1.12850553809449
30
0
41
1
10
161.214716138549
20
0.7706235817015
30
0
41
1
10
162.707358069274
20
0.394451236465045
30
0
41
1
10
164.2
20
2.84E-14
30
0
0
SPLINE
5
107
100
AcDbEntity
8
1
62
256
6
ByLayer
370
13
48
1
60
0
100
AcDbSpline
70
4
71
3
72
8
73
4
40
0
40
0
40
0
40
0
40
1
40
1
40
1
40
1
41
1
10
159.722074207823
20
-9.55657008549954
30
0
41
1
10
161.214716138549
20
-6.3594813223811
30
0
41
1
10
162.707358069274
20
-3.17392606148283
30
0
41
1
10
164.2
20
2.274E-13
30
0
0
SPLINE
5
108
100
AcDbEntity
8
1
62
256
6
ByLayer
370
13
48
1
60
0
100
AcDbSpline
70
4
71
3
72
8
73
4
40
0
40
0
40
0
40
0
40
1
40
1
40
1
40
1
41
1
10
159.722074207823
20
11.3345323036016
30
0
41
1
10
161.214716138549
20
7.56349653078337
30
0
41
1
10
162.707358069274
20
3.78528119277982
30
0
41
1
10
164.2
20
2.84E-14
30
0
0
SPLINE
5
109
100
AcDbEntity
8
1
62
256
6
ByLayer
370
13
48
1
60
0
100
AcDbSpline
70
4
71
3
72
8
73
4
40
0
40
0
40
0
40
0
40
1
40
1
40
1
40
1
41
1
10
159.722074207823
20
6.88475235472208
30
0
41
1
10
161.214716138549
20
4.5746155177315
30
0
41
1
10
162.707358069274
20
2.27967510842342
30
0
41
1
10
164.2
20
-1.705E-13
30
0
0
SPLINE
5
10A
100
AcDbEntity
8
1
62
256
6
ByLayer
370
13
48
1
60
0
100
AcDbSpline
70
4
71
3
72
8
73
4
40
0
40
0
40
0
40
0
40
1
40
1
40
1
40
1
41
1
10
159.722074207823
20
11.7895080363361
30
0
41
1
10
161.214716138549
20
7.85442197386433
30
0
41
1
10
162.707358069274
20
3.92454657918293
30
0
41
1
10
164.2
20
9.095E-13
30
0
0
SPLINE
5
10B
100
AcDbEntity
8
1
62
256
6
ByLayer
370
13
48
1
60
0
100
AcDbSpline
70
4
71
3
72
8
73
4
40
0
40
0
40
0
40
0
40
1
40
1
40
1
40
1
41
1
10
159.722074207823
20
12.2352154837967
30
0
41
1
10
161.214716138549
20
8.15873537413461
30
0
41
1
10
162.707358069274
20
4.08028931678203
30
0
41
1
10
164.2
20
0
30
0
0
SPLINE
5
10C
100
AcDbEntity
8
1
62
256
6
ByLayer
370
13
48
1
60
0
100
AcDbSpline
70
4
71
3
72
8
73
4
40
0
40
0
40
0
40
0
40
1
40
1
40
1
40
1
41
1
10
159.722074207823
20
-10.8182580550064
30
0
41
1
10
161.214716138549
20
-7.22091758122897
30
0
41
1
10
162.707358069274
20
-3.61479537943373
30
0
41
1
10
164.2
20
2.558E-13
30
0
0
SPLINE
5
10D
100
AcDbEntity
8
1
62
256
6
ByLayer
370
13
48
1
60
0
100
AcDbSpline
70
4
71
3
72
8
73
4
40
0
40
0
40
0
40
0
40
1
40
1
40
1
40
1
41
1
10
159.722074207823
20
-11.3937498087676
30
0
41
1
10
161.214716138549
20
-7.5889046658279
30
0
41
1
10
162.707358069274
20
-3.79095000855492
30
0
41
1
10
164.2
20
2.558E-13
30
0
0
SPLINE
5
10E
100
AcDbEntity
8
1
62
256
6
ByLayer
370
13
48
1
60
0
100
AcDbSpline
70
4
71
3
72
8
73
4
40
0
40
0
40
0
40
0
40
1
40
1
40
1
40
1
41
1
10
159.722074207823
20
-2.3379673920445
30
0
41
1
10
161.214716138549
20
-1.57667427041517
30
0
41
1
10
162.707358069274
20
-0.797343932743274
30
0
41
1
10
164.2
20
5.68E-14
30
0
0
SPLINE
5
10F
100
AcDbEntity
8
1
62
256
6
ByLayer
370
13
48
1
60
0
100
AcDbSpline
70
4
71
3
72
8
73
4
40
0
40
0
40
0
40
0
40
1
40
1
40
1
40
1
41
1
10
159.722074207823
20
-4.64864724258203
30
0
41
1
10
161.214716138549
20
-3.11610078088205
30
0
41
1
10
162.707358069274
20
-1.56653610758596
30
0
41
1
10
164.2
20
1.137E-13
30
0
0
SPLINE
5
110
100
AcDbEntity
8
1
62
256
6
ByLayer
370
13
48
1
60
0
100
AcDbSpline
70
4
71
3
72
8
73
4
40
0
40
0
40
0
40
0
40
1
40
1
40
1
40
1
41
1
10
159.722074207823
20
-1.14323915623751
30
0
41
1
10
161.214716138549
20
-0.780443954678191
30
0
41
1
10
162.707358069274
20
-0.399360354161644
30
0
41
1
10
164.2
20
2.84E-14
30
0
0
SPLINE
5
111
100
AcDbEntity
8
1
62
256
6
ByLayer
370
13
48
1
60
0
100
AcDbSpline
70
4
71
3
72
8
73
4
40
0
40
0
40
0
40
0
40
1
40
1
40
1
40
1
41
1
10
159.722074207823
20
3.62980073318087
30
0
41
1
10
161.214716138549
20
2.40232062065684
30
0
41
1
10
162.707358069274
20
1.19237497090526
30
0
41
1
10
164.2
20
-8.53E-14
30
0
0
SPLINE
5
112
100
AcDbEntity
8
1
62
256
6
ByLayer
370
13
48
1
60
0
100
AcDbSpline
70
4
71
3
72
8
73
4
40
0
40
0
40
0
40
0
40
1
40
1
40
1
40
1
41
1
10
159.722074207823
20
12.30270853779
30
0
41
1
10
161.214716138549
20
8.20193209699067
30
0
41
1
10
162.707358069274
20
4.10098813542533
30
0
41
1
10
164.2
20
0
30
0
0
SPLINE
5
113
100
AcDbEntity
8
1
62
256
6
ByLayer
370
13
48
1
60
0
100
AcDbSpline
70
4
71
3
72
8
73
4
40
0
40
0
40
0
40
0
40
1
40
1
40
1
40
1
41
1
10
159.722074207823
20
-10.8841257598939
30
0
41
1
10
161.214716138549
20
-7.24752231652377
30
0
41
1
10
162.707358069274
20
-3.61944405081147
30
0
41
1
10
164.2
20
2.558E-13
30
0
0
SPLINE
5
114
100
AcDbEntity
8
1
62
256
6
ByLayer
370
13
48
1
60
0
100
AcDbSpline
70
4
71
3
72
8
73
4
40
0
40
0
40
0
40
0
40
1
40
1
40
1
40
1
41
1
10
159.722074207823
20
-3.51019694625202
30
0
41
1
10
161.214716138549
20
-2.35773196547456
30
0
41
1
10
162.707358069274
20
-1.18765452695007
30
0
41
1
10
164.2
20
8.53E-14
30
0
0
SPLINE
5
115
100
AcDbEntity
8
1
62
256
6
ByLayer
370
13
48
1
60
0
100
AcDbSpline
70
4
71
3
72
8
73
4
40
0
40
0
40
0
40
0
40
1
40
1
40
1
40
1
41
1
10
159.722074207823
20
5.85259755028002
30
0
41
1
10
161.214716138549
20
3.88557865838345
30
0
41
1
10
162.707358069274
20
1.93469330310083
30
0
41
1
10
164.2
20
-1.421E-13
30
0
0
SPLINE
5
116
100
AcDbEntity
8
1
62
256
6
ByLayer
370
13
48
1
60
0
100
AcDbSpline
70
4
71
3
72
8
73
4
40
0
40
0
40
0
40
0
40
1
40
1
40
1
40
1
41
1
10
159.722074207823
20
0.0624906760227475
30
0
41
1
10
161.214716138549
20
0.0232967138987306
30
0
41
1
10
162.707358069274
20
0.0024663410871995
30
0
41
1
10
164.2
20
0
30
0
0
SPLINE
5
117
100
AcDbEntity
8
1
62
256
6
ByLayer
370
13
48
1
60
0
100
AcDbSpline
70
4
71
3
72
8
73
4
40
0
40
0
40
0
40
0
40
1
40
1
40
1
40
1
41
1
10
159.722074207823
20
-3.64393626826538
30
0
41
1
10
161.214716138549
20
-2.41175083962153
30
0
41
1
10
162.707358069274
20
-1.19709329757953
30
0
41
1
10
164.2
20
0
30
0
0
SPLINE
5
118
100
AcDbEntity
8
1
62
256
6
ByLayer
370
13
48
1
60
0
100
AcDbSpline
70
4
71
3
72
8
73
4
40
0
40
0
40
0
40
0
40
1
40
1
40
1
40
1
41
1
10
159.722074207823
20
4.76412214476304
30
0
41
1
10
161.214716138549
20
3.15915017528476
30
0
41
1
10
162.707358069274
20
1.57109359542119
30
0
41
1
10
164.2
20
-1.137E-13
30
0
0
SPLINE
5
119
100
AcDbEntity
8
1
62
256
6
ByLayer
370
13
48
1
60
0
100
AcDbSpline
70
4
71
3
72
8
73
4
40
0
40
0
40
0
40
0
40
1
40
1
40
1
40
1
41
1
10
159.722074207823
20
-11.793729749668
30
0
41
1
10
161.214716138549
20
-7.85725761773918
30
0
41
1
10
162.707358069274
20
-3.92597497110054
30
0
41
1
10
164.2
20
2.842E-13
30
0
0
SPLINE
5
11A
100
AcDbEntity
8
1
62
256
6
ByLayer
370
13
48
1
60
0
100
AcDbSpline
70
4
71
3
72
8
73
4
40
0
40
0
40
0
40
0
40
1
40
1
40
1
40
1
41
1
10
159.722074207823
20
8.64208022636959
30
0
41
1
10
161.214716138549
20
5.77445730421772
30
0
41
1
10
162.707358069274
20
2.89373497022299
30
0
41
1
10
164.2
20
2.84E-14
30
0
0
SPLINE
5
11B
100
AcDbEntity
8
1
62
256
6
ByLayer
370
13
48
1
60
0
100
AcDbSpline
70
4
71
3
72
8
73
4
40
0
40
0
40
0
40
0
40
1
40
1
40
1
40
1
41
1
10
159.722074207823
20
12.2490781831364
30
0
41
1
10
161.214716138549
20
8.16433468030533
30
0
41
1
10
162.707358069274
20
4.08126768901764
30
0
41
1
10
164.2
20
9.663E-13
30
0
0
SPLINE
5
11C
100
AcDbEntity
8
1
62
256
6
ByLayer
370
13
48
1
60
0
100
AcDbSpline
70
4
71
3
72
8
73
4
40
0
40
0
40
0
40
0
40
1
40
1
40
1
40
1
41
1
10
159.722074207823
20
-6.78081850280154
30
0
41
1
10
161.214716138549
20
-4.53586866193331
30
0
41
1
10
162.707358069274
20
-2.27557311520368
30
0
41
1
10
164.2
20
1.705E-13
30
0
0
SPLINE
5
11D
100
AcDbEntity
8
1
62
256
6
ByLayer
370
13
48
1
60
0
100
AcDbSpline
70
4
71
3
72
8
73
4
40
0
40
0
40
0
40
0
40
1
40
1
40
1
40
1
41
1
10
159.722074207823
20
2.46054909492267
30
0
41
1
10
161.214716138549
20
1.62237310171173
30
0
41
1
10
162.707358069274
20
0.802181907135434
30
0
41
1
10
164.2
20
-5.68E-14
30
0
0
SPLINE
5
11E
100
AcDbEntity
8
1
62
256
6
ByLayer
370
13
48
1
60
0
100
AcDbSpline
70
4
71
3
72
8
73
4
40
0
40
0
40
0
40
0
40
1
40
1
40
1
40
1
41
1
10
159.722074207823
20
12.0774046305073
30
0
41
1
10
161.214716138549
20
8.04810249752964
30
0
41
1
10
162.707358069275
20
4.02226060347024
30
0
41
1
10
164.200000000001
20
-1.5064E-12
30
0
0
SPLINE
5
11F
100
AcDbEntity
8
1
62
256
6
ByLayer
370
13
48
1
60
0
100
AcDbSpline
70
4
71
3
72
8
73
4
40
0
40
0
40
0
40
0
40
1
40
1
40
1
40
1
41
1
10
159.722074207823
20
-10.2697618071219
30
0
41
1
10
161.214716138549
20
-6.83639575370356
30
0
41
1
10
162.707358069274
20
-3.41310753061305
30
0
41
1
10
164.2
20
2.558E-13
30
0
0
SPLINE
5
120
100
AcDbEntity
8
1
62
256
6
ByLayer
370
13
48
1
60
0
100
AcDbSpline
70
4
71
3
72
8
73
4
40
0
40
0
40
0
40
0
40
1
40
1
40
1
40
1
41
1
10
159.722074207823
20
1.26761914924458
30
0
41
1
10
161.214716138549
20
0.826813193998902
30
0
41
1
10
162.707358069274
20
0.404269302291226
30
0
41
1
10
164.2
20
-2.84E-14
30
0
0
SPLINE
5
121
100
AcDbEntity
8
1
62
256
6
ByLayer
370
13
48
1
60
0
100
AcDbSpline
70
4
71
3
72
8
73
4
40
0
40
0
40
0
40
0
40
1
40
1
40
1
40
1
41
1
10
159.722074207823
20
10.1838365133748
30
0
41
1
10
161.214716138549
20
6.79952825208986
30
0
41
1
10
162.707358069274
20
3.40488201251139
30
0
41
1
10
164.2
20
2.84E-14
30
0
0
SPLINE
5
122
100
AcDbEntity
8
1
62
256
6
ByLayer
370
13
48
1
60
0
100
AcDbSpline
70
4
71
3
72
8
73
4
40
0
40
0
40
0
40
0
40
1
40
1
40
1
40
1
41
1
10
159.722074207823
20
-9.46792431966438
30
0
41
1
10
161.214716138549
20
-6.32367626223706
30
0
41
1
10
162.707358069274
20
-3.16766980836002
30
0
41
1
10
164.2
20
2.274E-13
30
0
0
SPLINE
5
123
100
AcDbEntity
8
1
62
256
6
ByLayer
370
13
48
1
60
0
100
AcDbSpline
70
4
71
3
72
8
73
4
40
0
40
0
40
0
40
0
40
1
40
1
40
1
40
1
41
1
10
159.722074207823
20
-6.89701042977879
30
0
41
1
10
161.214716138549
20
-4.58279993828336
30
0
41
1
10
162.707358069274
20
-2.28377346294897
30
0
41
1
10
164.2
20
1.705E-13
30
0
0
SPLINE
5
124
100
AcDbEntity
8
1
62
256
6
ByLayer
370
13
48
1
60
0
100
AcDbSpline
70
4
71
3
72
8
73
4
40
0
40
0
40
0
40
0
40
1
40
1
40
1
40
1
41
1
10
159.722074207823
20
-5.86560866759268
30
0
41
1
10
161.214716138549
20
-3.89426325485709
30
0
41
1
10
162.707358069274
20
-1.93904081695251
30
0
41
1
10
164.2
20
-1.705E-13
30
0
0
SPLINE
5
125
100
AcDbEntity
8
1
62
256
6
ByLayer
370
13
48
1
60
0
100
AcDbSpline
70
4
71
3
72
8
73
4
40
0
40
0
40
0
40
0
40
1
40
1
40
1
40
1
41
1
10
159.722074207823
20
-7.8620410175098
30
0
41
1
10
161.214716138549
20
-5.22723551191825
30
0
41
1
10
162.707358069274
20
-2.60652894529355
30
0
41
1
10
164.2
20
1.705E-13
30
0
0
SPLINE
5
126
100
AcDbEntity
8
1
62
256
6
ByLayer
370
13
48
1
60
0
100
AcDbSpline
70
4
71
3
72
8
73
4
40
0
40
0
40
0
40
0
40
1
40
1
40
1
40
1
41
1
10
159.722074207823
20
-12.3028014911583
30
0
41
1
10
161.214716138549
20
-8.20197197999022
30
0
41
1
10
162.707358069274
20
-4.10099703373186
30
0
41
1
10
164.2
20
2.842E-13
30
0
0
SPLINE
5
127
100
AcDbEntity
8
1
62
256
6
ByLayer
370
13
48
1
60
0
100
AcDbSpline
70
4
71
3
72
8
73
4
40
0
40
0
40
0
40
0
40
1
40
1
40
1
40
1
41
1
10
159.722074207823
20
-4.77776109600455
30
0
41
1
10
161.214716138549
20
-3.16825137424286
30
0
41
1
10
162.707358069274
20
-1.57564843168936
30
0
41
1
10
164.2
20
-1.421E-13
30
0
0
SPLINE
5
128
100
AcDbEntity
8
1
62
256
6
ByLayer
370
13
48
1
60
0
100
AcDbSpline
70
4
71
3
72
8
73
4
40
0
40
0
40
0
40
0
40
1
40
1
40
1
40
1
41
1
10
159.722074207823
20
-11.3402785161433
30
0
41
1
10
161.214716138549
20
-7.56730698622803
30
0
41
1
10
162.707358069274
20
-3.78717622490819
30
0
41
1
10
164.2
20
2.558E-13
30
0
0
SPLINE
5
129
100
AcDbEntity
8
1
62
256
6
ByLayer
370
13
48
1
60
0
100
AcDbSpline
70
4
71
3
72
8
73
4
40
0
40
0
40
0
40
0
40
1
40
1
40
1
40
1
41
1
10
159.722074207823
20
-1.28233629592336
30
0
41
1
10
161.214716138549
20
-0.83662691395881
30
0
41
1
10
162.707358069274
20
-0.409177257499749
30
0
41
1
10
164.2
20
-2.84E-14
30
0
0
SPLINE
5
12A
100
AcDbEntity
8
1
62
256
6
ByLayer
370
13
48
1
60
0
100
AcDbSpline
70
4
71
3
72
8
73
4
40
0
40
0
40
0
40
0
40
1
40
1
40
1
40
1
41
1
10
159.722074207823
20
5.72927243225183
30
0
41
1
10
161.214716138549
20
3.83576620285706
30
0
41
1
10
162.707358069274
20
1.92598952410461
30
0
41
1
10
164.2
20
0
30
0
0
SPLINE
5
12B
100
AcDbEntity
8
1
62
256
6
ByLayer
370
13
48
1
60
0
100
AcDbSpline
70
4
71
3
72
8
73
4
40
0
40
0
40
0
40
0
40
1
40
1
40
1
40
1
41
1
10
159.722074207823
20
-12.2504531566952
30
0
41
1
10
161.214716138549
20
-8.16527332013018
30
0
41
1
10
162.707358069274
20
-4.08174799965383
30
0
41
1
10
164.2
20
2.842E-13
30
0
0
SPLINE
5
12C
100
AcDbEntity
8
1
62
256
6
ByLayer
370
13
48
1
60
0
100
AcDbSpline
70
4
71
3
72
8
73
4
40
0
40
0
40
0
40
0
40
1
40
1
40
1
40
1
41
1
10
159.722074207823
20
9.45846864413156
30
0
41
1
10
161.214716138549
20
6.31738946688409
30
0
41
1
10
162.707358069274
20
3.16453493639514
30
0
41
1
10
164.2
20
2.84E-14
30
0
0
SPLINE
5
12D
100
AcDbEntity
8
1
62
256
6
ByLayer
370
13
48
1
60
0
100
AcDbSpline
70
4
71
3
72
8
73
4
40
0
40
0
40
0
40
0
40
1
40
1
40
1
40
1
41
1
10
159.722074207823
20
-12.0802165035331
30
0
41
1
10
161.214716138549
20
-8.04999876343459
30
0
41
1
10
162.707358069274
20
-4.02321956889736
30
0
41
1
10
164.2
20
2.842E-13
30
0
0
SPLINE
5
12E
100
AcDbEntity
8
1
62
256
6
ByLayer
370
13
48
1
60
0
100
AcDbSpline
70
4
71
3
72
8
73
4
40
0
40
0
40
0
40
0
40
1
40
1
40
1
40
1
41
1
10
159.722074207823
20
-8.75141376750679
30
0
41
1
10
161.214716138549
20
-5.82136845608611
30
0
41
1
10
162.707358069274
20
-2.90420132980731
30
0
41
1
10
164.2
20
1.99E-13
30
0
0
SPLINE
5
12F
100
AcDbEntity
8
1
62
256
6
ByLayer
370
13
48
1
60
0
100
AcDbSpline
70
4
71
3
72
8
73
4
40
0
40
0
40
0
40
0
40
1
40
1
40
1
40
1
41
1
10
159.722074207823
20
2.32343851749823
30
0
41
1
10
161.214716138549
20
1.56699253813025
30
0
41
1
10
162.707358069274
20
0.792505207181478
30
0
41
1
10
164.2
20
5.68E-14
30
0
0
SPLINE
5
130
100
AcDbEntity
8
1
62
256
6
ByLayer
370
13
48
1
60
0
100
AcDbSpline
70
4
71
3
72
8
73
4
40
0
40
0
40
0
40
0
40
1
40
1
40
1
40
1
41
1
10
159.722074207823
20
3.4960126292809
30
0
41
1
10
161.214716138549
20
2.34828204293612
30
0
41
1
10
162.707358069274
20
1.18293275745117
30
0
41
1
10
164.2
20
0
30
0
0
SPLINE
5
131
100
AcDbEntity
8
1
62
256
6
ByLayer
370
13
48
1
60
0
100
AcDbSpline
70
4
71
3
72
8
73
4
40
0
40
0
40
0
40
0
40
1
40
1
40
1
40
1
41
1
10
159.722074207823
20
-12.0529574824439
30
0
41
1
10
161.214716138549
20
-8.03898852644954
30
0
41
1
10
162.707358069274
20
-4.02129573943742
30
0
41
1
10
164.2
20
2.842E-13
30
0
0
SPLINE
5
132
100
AcDbEntity
8
1
62
256
6
ByLayer
370
13
48
1
60
0
100
AcDbSpline
70
4
71
3
72
8
73
4
40
0
40
0
40
0
40
0
40
1
40
1
40
1
40
1
41
1
10
159.722074207823
20
-12.2367577494645
30
0
41
1
10
161.214716138549
20
-8.15974158519671
30
0
41
1
10
162.707358069274
20
-4.08078143420752
30
0
41
1
10
164.2
20
-3.411E-13
30
0
0
SPLINE
5
133
100
AcDbEntity
8
1
62
256
6
ByLayer
370
13
48
1
60
0
100
AcDbSpline
70
4
71
3
72
8
73
4
40
0
40
0
40
0
40
0
40
1
40
1
40
1
40
1
41
1
10
159.722074207823
20
11.388158881438
30
0
41
1
10
161.214716138549
20
7.5851569318944
30
0
41
1
10
162.707358069274
20
3.78906593581806
30
0
41
1
10
164.2
20
8.811E-13
30
0
0
SPLINE
5
134
100
AcDbEntity
8
1
62
256
6
ByLayer
370
13
48
1
60
0
100
AcDbSpline
70
4
71
3
72
8
73
4
40
0
40
0
40
0
40
0
40
1
40
1
40
1
40
1
41
1
10
159.722074207823
20
4.63494398142478
30
0
41
1
10
161.214716138549
20
3.10697360639796
30
0
41
1
10
162.707358069274
20
1.56197673258893
30
0
41
1
10
164.2
20
0
30
0
0
SPLINE
5
135
100
AcDbEntity
8
1
62
256
6
ByLayer
370
13
48
1
60
0
100
AcDbSpline
70
4
71
3
72
8
73
4
40
0
40
0
40
0
40
0
40
1
40
1
40
1
40
1
41
1
10
159.722074207823
20
-10.192131546767
30
0
41
1
10
161.214716138549
20
-6.80503998487671
30
0
41
1
10
162.707358069274
20
-3.40762870650684
30
0
41
1
10
164.2
20
2.274E-13
30
0
0
SPLINE
5
136
100
AcDbEntity
8
1
62
256
6
ByLayer
370
13
48
1
60
0
100
AcDbSpline
70
4
71
3
72
8
73
4
40
0
40
0
40
0
40
0
40
1
40
1
40
1
40
1
41
1
10
159.722074207823
20
-11.7531694331933
30
0
41
1
10
161.214716138549
20
-7.84087483219773
30
0
41
1
10
162.707358069274
20
-3.92311239098501
30
0
41
1
10
164.2
20
2.842E-13
30
0
0
SPLINE
5
137
100
AcDbEntity
8
1
62
256
6
ByLayer
370
13
48
1
60
0
100
AcDbSpline
70
4
71
3
72
8
73
4
40
0
40
0
40
0
40
0
40
1
40
1
40
1
40
1
41
1
10
159.722074207823
20
8.7410072801311
30
0
41
1
10
161.214716138549
20
5.81441509663375
30
0
41
1
10
162.707358069274
20
2.90071683431077
30
0
41
1
10
164.2
20
-1.99E-13
30
0
0
SPLINE
5
138
100
AcDbEntity
8
1
62
256
6
ByLayer
370
13
48
1
60
0
100
AcDbSpline
70
4
71
3
72
8
73
4
40
0
40
0
40
0
40
0
40
1
40
1
40
1
40
1
41
1
10
159.722074207823
20
6.76846706184239
30
0
41
1
10
161.214716138549
20
4.52764652980301
30
0
41
1
10
162.707358069274
20
2.27146817129727
30
0
41
1
10
164.2
20
0
30
0
0
SPLINE
5
139
100
AcDbEntity
8
1
62
256
6
ByLayer
370
13
48
1
60
0
100
AcDbSpline
70
4
71
3
72
8
73
4
40
0
40
0
40
0
40
0
40
1
40
1
40
1
40
1
41
1
10
159.722074207823
20
-8.65260555037315
30
0
41
1
10
161.214716138549
20
-5.781458663172
30
0
41
1
10
162.707358069274
20
-2.89722785271931
30
0
41
1
10
164.2
20
1.99E-13
30
0
0
SPLINE
5
13A
100
AcDbEntity
8
1
62
256
6
ByLayer
370
13
48
1
60
0
100
AcDbSpline
70
4
71
3
72
8
73
4
40
0
40
0
40
0
40
0
40
1
40
1
40
1
40
1
41
1
10
159.722074207823
20
7.85065394637468
30
0
41
1
10
161.214716138549
20
5.21963002744246
30
0
41
1
10
162.707358069274
20
2.60271918929874
30
0
41
1
10
164.2
20
5.969E-13
30
0
0
SPLINE
5
13B
100
AcDbEntity
8
1
62
256
6
ByLayer
370
13
48
1
60
0
100
AcDbSpline
70
4
71
3
72
8
73
4
40
0
40
0
40
0
40
0
40
1
40
1
40
1
40
1
41
1
10
159.722074207823
20
-0.0772872534996054
30
0
41
1
10
161.214716138549
20
-0.0331612243480208
30
0
41
1
10
162.707358069275
20
-0.0073986095941336
30
0
41
1
10
164.2
20
0
30
0
0
SPLINE
5
13C
100
AcDbEntity
8
1
62
256
6
ByLayer
370
13
48
1
60
0
100
AcDbSpline
70
4
71
3
72
8
73
4
40
0
40
0
40
0
40
0
40
1
40
1
40
1
40
1
41
1
10
159.722074207823
20
-2.47504518504832
30
0
41
1
10
161.214716138549
20
-1.63204159198628
30
0
41
1
10
162.707358069275
20
-0.807018318907865
30
0
41
1
10
164.2
20
5.68E-14
30
0
0
SPLINE
5
13D
100
AcDbEntity
8
1
62
256
6
ByLayer
370
13
48
1
60
0
100
AcDbSpline
70
4
71
3
72
8
73
4
40
0
40
0
40
0
40
0
40
1
40
1
40
1
40
1
41
1
10
159.722074207823
20
-7.75402119835999
30
0
41
1
10
161.214716138549
20
-5.18360504536446
30
0
41
1
10
162.707358069274
20
-2.59890535126721
30
0
41
1
10
164.2
20
1.705E-13
30
0
0
SPLINE
5
13E
100
AcDbEntity
8
1
62
256
6
ByLayer
370
13
48
1
60
0
100
AcDbSpline
70
4
71
3
72
8
73
4
40
0
40
0
40
0
40
0
40
1
40
1
40
1
40
1
41
1
10
159.722074207823
20
10.2616065177428
30
0
41
1
10
161.214716138549
20
6.83094046515572
30
0
41
1
10
162.707358069274
20
3.41037069917448
30
0
41
1
10
164.2
20
-2.274E-13
30
0
0
SPLINE
5
13F
100
AcDbEntity
8
1
62
256
6
ByLayer
370
13
48
1
60
0
100
AcDbSpline
70
4
71
3
72
8
73
4
40
0
40
0
40
0
40
0
40
1
40
1
40
1
40
1
41
1
10
159.722074207823
20
9.54724432538697
30
0
41
1
10
161.214716138549
20
6.35324700138401
30
0
41
1
10
162.707358069274
20
3.17080035841391
30
0
41
1
10
164.2
20
7.39E-13
30
0
0
SPLINE
5
140
100
AcDbEntity
8
1
62
256
6
ByLayer
370
13
48
1
60
0
100
AcDbSpline
70
4
71
3
72
8
73
4
40
0
40
0
40
0
40
0
40
1
40
1
40
1
40
1
41
1
10
159.722074207823
20
10.877219421068
30
0
41
1
10
161.214716138549
20
7.24289855765002
30
0
41
1
10
162.707358069275
20
3.61712242802537
30
0
41
1
10
164.200000000001
20
-1.3642E-12
30
0
0
LINE
5
7D
100
AcDbEntity
8
4
62
256
6
ByLayer
370
18
48
0.05
60
0
100
AcDbLine
10
-5
20
0
30
0
11
169.2
21
0
31
0
39
0
210
0
220
0
230
1
0
LINE
5
7F
100
AcDbEntity
8
81
62
256
6
ByLayer
370
18
48
1
60
0
100
AcDbLine
10
164.2
20
0
30
0
11
169.2
21
0
31
0
39
0
210
0
220
0
230
1
0
LINE
5
80
100
AcDbEntity
8
SK4
62
256
6
ByLayer
370
18
48
0.05
60
0
100
AcDbLine
10
-61
20
0
30
0
11
169.2
21
0
31
0
39
0
210
0
220
0
230
1
0
LINE
5
82
100
AcDbEntity
8
80
62
256
6
ByLayer
370
18
48
1
60
0
100
AcDbLine
10
0
20
0
30
0
11
-5
21
0
31
0
39
0
210
0
220
0
230
1
0
LINE
5
83
100
AcDbEntity
8
1
62
256
6
ByLayer
370
18
48
1
60
0
100
AcDbLine
10
0
20
12.7
30
0
11
0
21
-12.7
31
0
39
0
210
0
220
0
230
1
0
LINE
5
84
100
AcDbEntity
8
1
62
256
6
ByLayer
370
18
48
1
60
0
100
AcDbLine
10
159.722074
20
12.303
30
0
11
159.722074
21
11.912353
31
0
39
0
210
0
220
0
230
1
0
LINE
5
85
100
AcDbEntity
8
1
62
256
6
ByLayer
370
18
48
1
60
0
100
AcDbLine
10
159.722074
20
-12.303
30
0
11
159.722074
21
-1.75697
31
0
39
0
210
0
220
0
230
1
0
LINE
5
86
100
AcDbEntity
8
1
62
256
6
ByLayer
370
18
48
1
60
0
100
AcDbLine
10
10
20
-7.687512
30
0
11
10
21
10.689848
31
0
39
0
210
0
220
0
230
1
0
LINE
5
87
100
AcDbEntity
8
SK1
62
256
6
ByLayer
370
18
48
1
60
0
100
AcDbLine
10
-9.573685
20
-7.42967
30
0
11
-9.573685
21
7.42967
31
0
39
0
210
0
220
0
230
1
0
LINE
5
89
100
AcDbEntity
8
SK1
62
256
6
ByLayer
370
18
48
1
60
0
100
AcDbLine
10
-56
20
-11.7
30
0
11
-56
21
11.7
31
0
39
0
210
0
220
0
230
1
0
LINE
5
8A
100
AcDbEntity
8
SK1
62
256
6
ByLayer
370
18
48
1
60
0
100
AcDbLine
10
-46.761964
20
-7.42967
30
0
11
-46.761964
21
7.42967
31
0
39
0
210
0
220
0
230
1
0
LINE
5
8B
100
AcDbEntity
8
SK1
62
256
6
ByLayer
370
18
48
1
60
0
100
AcDbLine
10
0
20
12.7
30
0
11
0
21
-12.7
31
0
39
0
210
0
220
0
230
1
0
LINE
5
8C
100
AcDbEntity
8
SK1
62
256
6
ByLayer
370
18
48
1
60
0
100
AcDbLine
10
-55
20
-12.7
30
0
11
-55
21
12.7
31
0
39
0
210
0
220
0
230
1
0
LINE
5
8D
100
AcDbEntity
8
SK1
62
256
6
ByLayer
370
18
48
1
60
0
100
AcDbLine
10
-9.573685
20
-7.42967
30
0
11
-46.761964
21
-7.42967
31
0
39
0
210
0
220
0
230
1
0
LINE
5
8E
100
AcDbEntity
8
SK1
62
256
6
ByLayer
370
18
48
1
60
0
100
AcDbLine
10
-46.761964
20
7.42967
30
0
11
-9.573685
21
7.42967
31
0
39
0
210
0
220
0
230
1
0
LINE
5
8F
100
AcDbEntity
8
1
62
256
6
ByLayer
370
18
48
1
60
0
100
AcDbLine
10
45.596472
20
-11.7
30
0
11
101.172654
21
-11.7
31
0
39
0
210
0
220
0
230
1
0
LINE
5
90
100
AcDbEntity
8
1
62
256
6
ByLayer
370
18
48
1
60
0
100
AcDbLine
10
101.172654
20
11.7
30
0
11
45.596472
21
11.7
31
0
39
0
210
0
220
0
230
1
0
LINE
5
91
100
AcDbEntity
8
1
62
256
6
ByLayer
370
18
48
1
60
0
100
AcDbLine
10
164.2
20
0
30
0
11
159.722074
21
12.303
31
0
39
0
210
0
220
0
230
1
0
LINE
5
92
100
AcDbEntity
8
1
62
256
6
ByLayer
370
18
48
1
60
0
100
AcDbLine
10
159.722074
20
-12.303
30
0
11
164.2
21
0
31
0
39
0
210
0
220
0
230
1
0
LINE
5
93
100
AcDbEntity
8
1
62
256
6
ByLayer
370
18
48
1
60
0
100
AcDbLine
10
3.903146
20
12.309685
30
0
11
0
21
12.7
31
0
39
0
210
0
220
0
230
1
0
LINE
5
94
100
AcDbEntity
8
1
62
256
6
ByLayer
370
18
48
1
60
0
100
AcDbLine
10
0
20
-12.7
30
0
11
3.903146
21
-12.309685
31
0
39
0
210
0
220
0
230
1
0
LINE
5
95
100
AcDbEntity
8
1
62
256
6
ByLayer
370
18
48
1
60
0
100
AcDbLine
10
164.2
20
0
30
0
11
159.722074
21
12.303
31
0
39
0
210
0
220
0
230
1
0
LINE
5
96
100
AcDbEntity
8
1
62
256
6
ByLayer
370
18
48
1
60
0
100
AcDbLine
10
159.722074
20
-12.303
30
0
11
164.2
21
0
31
0
39
0
210
0
220
0
230
1
0
LINE
5
97
100
AcDbEntity
8
1
62
256
6
ByLayer
370
18
48
1
60
0
100
AcDbLine
10
159.722074
20
12.303
30
0
11
148.8
21
12.303
31
0
39
0
210
0
220
0
230
1
0
LINE
5
98
100
AcDbEntity
8
1
62
256
6
ByLayer
370
18
48
1
60
0
100
AcDbLine
10
148.8
20
-12.303
30
0
11
159.722074
21
-12.303
31
0
39
0
210
0
220
0
230
1
0
LINE
5
99
100
AcDbEntity
8
SK1
62
256
6
ByLayer
370
18
48
1
60
0
100
AcDbLine
10
-56
20
-11.7
30
0
11
-55
21
-12.7
31
0
39
0
210
0
220
0
230
1
0
LINE
5
9A
100
AcDbEntity
8
SK1
62
256
6
ByLayer
370
18
48
1
60
0
100
AcDbLine
10
-55
20
12.7
30
0
11
-56
21
11.7
31
0
39
0
210
0
220
0
230
1
0
LINE
5
9B
100
AcDbEntity
8
SK1
62
256
6
ByLayer
370
18
48
1
60
0
100
AcDbLine
10
-55
20
-12.7
30
0
11
0
21
-12.7
31
0
39
0
210
0
220
0
230
1
0
LINE
5
9C
100
AcDbEntity
8
SK1
62
256
6
ByLayer
370
18
48
1
60
0
100
AcDbLine
10
0
20
12.7
30
0
11
-55
21
12.7
31
0
39
0
210
0
220
0
230
1
0
LINE
5
9D
100
AcDbEntity
8
1
62
256
6
ByLayer
370
18
48
1
60
0
100
AcDbLine
10
159.722074
20
12.303
30
0
11
159.722074
21
-12.303
31
0
39
0
210
0
220
0
230
1
0
LINE
5
9E
100
AcDbEntity
8
1
62
256
6
ByLayer
370
18
48
1
60
0
100
AcDbLine
10
159.722074
20
12.303
30
0
11
159.722074
21
-12.303
31
0
39
0
210
0
220
0
230
1
0
LINE
5
9F
100
AcDbEntity
8
1
62
256
6
ByLayer
370
18
48
1
60
0
100
AcDbLine
10
159.722074
20
12.303
30
0
11
159.722074
21
-12.303
31
0
39
0
210
0
220
0
230
1
0
LINE
5
A0
100
AcDbEntity
8
1
62
256
6
ByLayer
370
18
48
1
60
0
100
AcDbLine
10
148.8
20
12.303
30
0
11
148.8
21
-12.303
31
0
39
0
210
0
220
0
230
1
0
LINE
5
A1
100
AcDbEntity
8
1
62
256
6
ByLayer
370
18
48
1
60
0
100
AcDbLine
10
148.8
20
12.303
30
0
11
148.8
21
-12.303
31
0
39
0
210
0
220
0
230
1
0
LINE
5
A2
100
AcDbEntity
8
1
62
256
6
ByLayer
370
18
48
1
60
0
100
AcDbLine
10
159.722074
20
12.303
30
0
11
159.722074
21
-12.303
31
0
39
0
210
0
220
0
230
1
0
LINE
5
A3
100
AcDbEntity
8
1
62
256
6
ByLayer
370
18
48
1
60
0
100
AcDbLine
10
148.8
20
12.303
30
0
11
148.8
21
-12.303
31
0
39
0
210
0
220
0
230
1
0
LINE
5
A4
100
AcDbEntity
8
1
62
256
6
ByLayer
370
18
48
1
60
0
100
AcDbLine
10
159.722074
20
12.303
30
0
11
159.722074
21
-12.303
31
0
39
0
210
0
220
0
230
1
0
LINE
5
A5
100
AcDbEntity
8
SK2
62
256
6
ByLayer
370
13
48
1
60
0
100
AcDbLine
10
-62.5
20
-12.7
30
0
11
-62.5
21
42.040455
31
0
39
0
210
0
220
0
230
1
0
LINE
5
A7
100
AcDbEntity
8
SK2
62
256
6
ByLayer
370
13
48
1
60
0
100
AcDbLine
10
-57.5875
20
12.7
30
0
11
-64.5
21
12.7
31
0
39
0
210
0
220
0
230
1
0
LINE
5
A8
100
AcDbEntity
8
SK2
62
256
6
ByLayer
370
13
48
1
60
0
100
AcDbLine
10
-57.5875
20
-12.7
30
0
11
-64.5
21
-12.7
31
0
39
0
210
0
220
0
230
1
0
LINE
5
A9
100
AcDbEntity
8
1
62
256
6
ByLayer
370
18
48
1
60
1
100
AcDbLine
10
-62.5
20
12.7
30
0
11
-62.039216
21
9.200002
31
0
39
0
210
0
220
0
230
1
0
LINE
5
AA
100
AcDbEntity
8
1
62
256
6
ByLayer
370
18
48
1
60
1
100
AcDbLine
10
-62.039216
20
9.200002
30
0
11
-62.960784
21
9.199998
31
0
39
0
210
0
220
0
230
1
0
LINE
5
AB
100
AcDbEntity
8
1
62
256
6
ByLayer
370
18
48
1
60
1
100
AcDbLine
10
-62.960784
20
9.199998
30
0
11
-62.5
21
12.7
31
0
39
0
210
0
220
0
230
1
0
LINE
5
AC
100
AcDbEntity
8
1
62
256
6
ByLayer
370
18
48
1
60
1
100
AcDbLine
10
-62.5
20
-12.7
30
0
11
-62.960784
21
-9.200002
31
0
39
0
210
0
220
0
230
1
0
LINE
5
AD
100
AcDbEntity
8
1
62
256
6
ByLayer
370
18
48
1
60
1
100
AcDbLine
10
-62.960784
20
-9.200002
30
0
11
-62.039216
21
-9.199998
31
0
39
0
210
0
220
0
230
1
0
LINE
5
AE
100
AcDbEntity
8
1
62
256
6
ByLayer
370
18
48
1
60
1
100
AcDbLine
10
-62.039216
20
-9.199998
30
0
11
-62.5
21
-12.7
31
0
39
0
210
0
220
0
230
1
0
LINE
5
AF
100
AcDbEntity
8
2
62
256
6
ByLayer
370
13
48
1
60
0
100
AcDbLine
10
171.7
20
-12.303
30
0
11
171.7
21
41.643455
31
0
39
0
210
0
220
0
230
1
0
LINE
5
B1
100
AcDbEntity
8
2
62
256
6
ByLayer
370
13
48
1
60
0
100
AcDbLine
10
161.309574
20
12.303
30
0
11
173.7
21
12.303
31
0
39
0
210
0
220
0
230
1
0
LINE
5
B2
100
AcDbEntity
8
2
62
256
6
ByLayer
370
13
48
1
60
0
100
AcDbLine
10
161.309574
20
-12.303
30
0
11
173.7
21
-12.303
31
0
39
0
210
0
220
0
230
1
0
LINE
5
B3
100
AcDbEntity
8
1
62
256
6
ByLayer
370
18
48
1
60
1
100
AcDbLine
10
171.7
20
12.303
30
0
11
172.160784
21
8.803002
31
0
39
0
210
0
220
0
230
1
0
LINE
5
B4
100
AcDbEntity
8
1
62
256
6
ByLayer
370
18
48
1
60
1
100
AcDbLine
10
172.160784
20
8.803002
30
0
11
171.239216
21
8.802998
31
0
39
0
210
0
220
0
230
1
0
LINE
5
B5
100
AcDbEntity
8
1
62
256
6
ByLayer
370
18
48
1
60
1
100
AcDbLine
10
171.239216
20
8.802998
30
0
11
171.7
21
12.303
31
0
39
0
210
0
220
0
230
1
0
LINE
5
B6
100
AcDbEntity
8
1
62
256
6
ByLayer
370
18
48
1
60
1
100
AcDbLine
10
171.7
20
-12.303
30
0
11
171.239216
21
-8.803002
31
0
39
0
210
0
220
0
230
1
0
LINE
5
B7
100
AcDbEntity
8
1
62
256
6
ByLayer
370
18
48
1
60
1
100
AcDbLine
10
171.239216
20
-8.803002
30
0
11
172.160784
21
-8.802998
31
0
39
0
210
0
220
0
230
1
0
LINE
5
B8
100
AcDbEntity
8
1
62
256
6
ByLayer
370
18
48
1
60
1
100
AcDbLine
10
172.160784
20
-8.802998
30
0
11
171.7
21
-12.303
31
0
39
0
210
0
220
0
230
1
0
LINE
5
B9
100
AcDbEntity
8
SK2
62
256
6
ByLayer
370
13
48
1
60
0
100
AcDbLine
10
164.742957
20
-1.491762
30
0
11
171.382423
21
-19.733545
31
0
39
0
210
0
220
0
230
1
0
LINE
5
BA
100
AcDbEntity
8
SK2
62
256
6
ByLayer
370
13
48
1
60
0
100
AcDbLine
10
164.742957
20
1.491762
30
0
11
171.382423
21
19.733545
31
0
39
0
210
0
220
0
230
1
0
LINE
5
BB
100
AcDbEntity
8
1
62
256
6
ByLayer
370
18
48
1
60
1
100
AcDbLine
10
170.698383
20
-17.85416
30
0
11
173.751575
21
-16.082064
31
0
39
0
210
0
220
0
230
1
0
LINE
5
BC
100
AcDbEntity
8
1
62
256
6
ByLayer
370
18
48
1
60
1
100
AcDbLine
10
173.751575
20
-16.082064
30
0
11
174.106196
21
-16.93267
31
0
39
0
210
0
220
0
230
1
0
LINE
5
BD
100
AcDbEntity
8
1
62
256
6
ByLayer
370
18
48
1
60
1
100
AcDbLine
10
174.106196
20
-16.93267
30
0
11
170.698383
21
-17.85416
31
0
39
0
210
0
220
0
230
1
0
LINE
5
BE
100
AcDbEntity
8
1
62
256
6
ByLayer
370
18
48
1
60
1
100
AcDbLine
10
170.698383
20
17.85416
30
0
11
174.106193
21
16.932671
31
0
39
0
210
0
220
0
230
1
0
LINE
5
BF
100
AcDbEntity
8
1
62
256
6
ByLayer
370
18
48
1
60
1
100
AcDbLine
10
174.106193
20
16.932671
30
0
11
173.751579
21
16.082063
31
0
39
0
210
0
220
0
230
1
0
LINE
5
C0
100
AcDbEntity
8
1
62
256
6
ByLayer
370
18
48
1
60
1
100
AcDbLine
10
173.751579
20
16.082063
30
0
11
170.698383
21
17.85416
31
0
39
0
210
0
220
0
230
1
0
LINE
5
145
100
AcDbEntity
8
1
62
256
6
ByLayer
370
18
48
1
60
1
100
AcDbLine
10
-62.5
20
12.7
30
0
11
-62.039216
21
9.200002
31
0
39
0
210
0
220
0
230
1
0
LINE
5
146
100
AcDbEntity
8
1
62
256
6
ByLayer
370
18
48
1
60
1
100
AcDbLine
10
-62.039216
20
9.200002
30
0
11
-62.960784
21
9.199998
31
0
39
0
210
0
220
0
230
1
0
LINE
5
147
100
AcDbEntity
8
1
62
256
6
ByLayer
370
18
48
1
60
1
100
AcDbLine
10
-62.960784
20
9.199998
30
0
11
-62.5
21
12.7
31
0
39
0
210
0
220
0
230
1
0
LINE
5
149
100
AcDbEntity
8
1
62
256
6
ByLayer
370
18
48
1
60
1
100
AcDbLine
10
-62.5
20
-12.7
30
0
11
-62.960784
21
-9.200002
31
0
39
0
210
0
220
0
230
1
0
LINE
5
14A
100
AcDbEntity
8
1
62
256
6
ByLayer
370
18
48
1
60
1
100
AcDbLine
10
-62.960784
20
-9.200002
30
0
11
-62.039216
21
-9.199998
31
0
39
0
210
0
220
0
230
1
0
LINE
5
14B
100
AcDbEntity
8
1
62
256
6
ByLayer
370
18
48
1
60
1
100
AcDbLine
10
-62.039216
20
-9.199998
30
0
11
-62.5
21
-12.7
31
0
39
0
210
0
220
0
230
1
0
LINE
5
14F
100
AcDbEntity
8
1
62
256
6
ByLayer
370
18
48
1
60
1
100
AcDbLine
10
171.7
20
12.303
30
0
11
172.160784
21
8.803002
31
0
39
0
210
0
220
0
230
1
0
LINE
5
150
100
AcDbEntity
8
1
62
256
6
ByLayer
370
18
48
1
60
1
100
AcDbLine
10
172.160784
20
8.803002
30
0
11
171.239216
21
8.802998
31
0
39
0
210
0
220
0
230
1
0
LINE
5
151
100
AcDbEntity
8
1
62
256
6
ByLayer
370
18
48
1
60
1
100
AcDbLine
10
171.239216
20
8.802998
30
0
11
171.7
21
12.303
31
0
39
0
210
0
220
0
230
1
0
LINE
5
153
100
AcDbEntity
8
1
62
256
6
ByLayer
370
18
48
1
60
1
100
AcDbLine
10
171.7
20
-12.303
30
0
11
171.239216
21
-8.803002
31
0
39
0
210
0
220
0
230
1
0
LINE
5
154
100
AcDbEntity
8
1
62
256
6
ByLayer
370
18
48
1
60
1
100
AcDbLine
10
171.239216
20
-8.803002
30
0
11
172.160784
21
-8.802998
31
0
39
0
210
0
220
0
230
1
0
LINE
5
155
100
AcDbEntity
8
1
62
256
6
ByLayer
370
18
48
1
60
1
100
AcDbLine
10
172.160784
20
-8.802998
30
0
11
171.7
21
-12.303
31
0
39
0
210
0
220
0
230
1
0
LINE
5
158
100
AcDbEntity
8
1
62
256
6
ByLayer
370
18
48
1
60
1
100
AcDbLine
10
170.698383
20
-17.85416
30
0
11
173.751575
21
-16.082064
31
0
39
0
210
0
220
0
230
1
0
LINE
5
159
100
AcDbEntity
8
1
62
256
6
ByLayer
370
18
48
1
60
1
100
AcDbLine
10
173.751575
20
-16.082064
30
0
11
174.106196
21
-16.93267
31
0
39
0
210
0
220
0
230
1
0
LINE
5
15A
100
AcDbEntity
8
1
62
256
6
ByLayer
370
18
48
1
60
1
100
AcDbLine
10
174.106196
20
-16.93267
30
0
11
170.698383
21
-17.85416
31
0
39
0
210
0
220
0
230
1
0
LINE
5
15C
100
AcDbEntity
8
1
62
256
6
ByLayer
370
18
48
1
60
1
100
AcDbLine
10
170.698383
20
17.85416
30
0
11
174.106193
21
16.932671
31
0
39
0
210
0
220
0
230
1
0
LINE
5
15D
100
AcDbEntity
8
1
62
256
6
ByLayer
370
18
48
1
60
1
100
AcDbLine
10
174.106193
20
16.932671
30
0
11
173.751579
21
16.082063
31
0
39
0
210
0
220
0
230
1
0
LINE
5
15E
100
AcDbEntity
8
1
62
256
6
ByLayer
370
18
48
1
60
1
100
AcDbLine
10
173.751579
20
16.082063
30
0
11
170.698383
21
17.85416
31
0
39
0
210
0
220
0
230
1
0
MTEXT
5
141
100
AcDbEntity
8
SK2
62
256
6
ByLayer
370
18
48
1
60
0
100
AcDbMText
10
-63.841114
20
24.358438
30
0
210
0
220
0
230
1
1
%%c
40
3
41
0
44
1.084337
50
90
71
7
72
5
7
iso_b_vert
0
MTEXT
5
144
100
AcDbEntity
8
SK2
62
256
6
ByLayer
370
18
48
1
60
0
100
AcDbMText
10
-63.841114
20
30.335
30
0
210
0
220
0
230
1
1
\W0.7728;25.400
40
3
41
0
44
1.084337
50
90
71
7
72
5
7
iso_b_vert
0
MTEXT
5
14D
100
AcDbEntity
8
2
62
256
6
ByLayer
370
18
48
1
60
0
100
AcDbMText
10
170.358886
20
23.961437
30
0
210
0
220
0
230
1
1
%%c
40
3
41
0
44
1.084337
50
90
71
7
72
5
7
iso_b_vert
0
MTEXT
5
14E
100
AcDbEntity
8
2
62
256
6
ByLayer
370
18
48
1
60
0
100
AcDbMText
10
170.358886
20
29.938
30
0
210
0
220
0
230
1
1
\W0.7728;24.606
40
3
41
0
44
1.084337
50
90
71
7
72
5
7
iso_b_vert
0
MTEXT
5
157
100
AcDbEntity
8
SK2
62
256
6
ByLayer
370
18
48
1
60
0
100
AcDbMText
10
184.109114
20
3.734657
30
0
210
0
220
0
230
1
1
\W0.7071;140%%d
40
3
41
0
44
1.084337
50
270
71
7
72
5
7
iso_b_vert
0
MTEXT
5
160
100
AcDbEntity
8
SK6
62
256
6
ByLayer
370
18
48
1
60
0
100
AcDbMText
10
26.623374
20
-67.114886
30
0
210
0
220
0
230
1
1
\W0.7564;H85531/32
40
3
41
0
44
1.084337
50
0
71
7
72
5
7
iso_b_vert
0
HATCH
5
148
100
AcDbEntity
8
SK2
62
256
6
ByLayer
370
13
48
1
60
0
100
AcDbHatch
10
0
20
0
30
0
210
0
220
0
230
1
2
ANSI31
70
0
71
0
91
1
92
5
93
3
72
1
10
-62.5
20
12.7
11
-62.0392162584472
21
9.2000016925532
72
1
10
-62.0392162584472
20
9.2000016925532
11
-62.9607837415528
21
9.19999830744683
72
1
10
-62.9607837415528
20
9.19999830744683
11
-62.5
21
12.7
97
0
75
0
76
1
52
0
41
0.0062
77
0
78
1
53
45
43
0
44
0
45
-0.0139193969876572
46
0.0139193969876572
79
0
47
0
98
1
10
0
20
0
0
HATCH
5
14C
100
AcDbEntity
8
SK2
62
256
6
ByLayer
370
13
48
1
60
0
100
AcDbHatch
10
0
20
0
30
0
210
0
220
0
230
1
2
ANSI31
70
0
71
0
91
1
92
5
93
3
72
1
10
-62.5
20
-12.7
11
-62.9607837415528
21
-9.20000169255317
72
1
10
-62.9607837415528
20
-9.20000169255317
11
-62.0392162584472
21
-9.1999983074468
72
1
10
-62.0392162584472
20
-9.1999983074468
11
-62.5
21
-12.7
97
0
75
0
76
1
52
0
41
0.0062
77
0
78
1
53
45
43
0
44
0
45
-0.0139193969876572
46
0.0139193969876572
79
0
47
0
98
1
10
0
20
0
0
HATCH
5
152
100
AcDbEntity
8
2
62
256
6
ByLayer
370
13
48
1
60
0
100
AcDbHatch
10
0
20
0
30
0
210
0
220
0
230
1
2
ANSI31
70
0
71
0
91
1
92
5
93
3
72
1
10
171.7
20
12.303
11
172.160783741553
21
8.80300169255318
72
1
10
172.160783741553
20
8.80300169255318
11
171.239216258447
21
8.80299830744681
72
1
10
171.239216258447
20
8.80299830744681
11
171.7
21
12.303
97
0
75
0
76
1
52
0
41
0.0062
77
0
78
1
53
45
43
0
44
0
45
-0.0139193969876572
46
0.0139193969876572
79
0
47
0
98
1
10
0
20
0
0
HATCH
5
156
100
AcDbEntity
8
2
62
256
6
ByLayer
370
13
48
1
60
0
100
AcDbHatch
10
0
20
0
30
0
210
0
220
0
230
1
2
ANSI31
70
0
71
0
91
1
92
5
93
3
72
1
10
171.7
20
-12.303
11
171.239216258447
21
-8.80300169255318
72
1
10
171.239216258447
20
-8.80300169255318
11
172.160783741553
21
-8.80299830744681
72
1
10
172.160783741553
20
-8.80299830744681
11
171.7
21
-12.303
97
0
75
0
76
1
52
0
41
0.0062
77
0
78
1
53
45
43
0
44
0
45
-0.0139193969876572
46
0.0139193969876572
79
0
47
0
98
1
10
0
20
0
0
HATCH
5
15B
100
AcDbEntity
8
SK2
62
256
6
ByLayer
370
13
48
1
60
0
100
AcDbHatch
10
0
20
0
30
0
210
0
220
0
230
1
2
ANSI31
70
0
71
0
91
1
92
5
93
3
72
1
10
170.698382723188
20
-17.8541597949322
11
173.751575425693
21
-16.0820638240607
72
1
10
173.751575425693
20
-16.0820638240607
11
174.106195833975
21
-16.9326700737196
72
1
10
174.106195833975
20
-16.9326700737196
11
170.698382723188
21
-17.8541597949322
97
0
75
0
76
1
52
0
41
0.0062
77
0
78
1
53
45
43
0
44
0
45
-0.0139193969876572
46
0.0139193969876572
79
0
47
0
98
1
10
0
20
0
0
HATCH
5
15F
100
AcDbEntity
8
SK2
62
256
6
ByLayer
370
13
48
1
60
0
100
AcDbHatch
10
0
20
0
30
0
210
0
220
0
230
1
2
ANSI31
70
0
71
0
91
1
92
5
93
3
72
1
10
170.698382723188
20
17.8541597949322
11
174.106192709519
21
16.9326713763016
72
1
10
174.106192709519
20
16.9326713763016
11
173.751578550149
21
16.0820625214787
72
1
10
173.751578550149
20
16.0820625214787
11
170.698382723188
21
17.8541597949322
97
0
75
0
76
1
52
0
41
0.0062
77
0
78
1
53
45
43
0
44
0
45
-0.0139193969876572
46
0.0139193969876572
79
0
47
0
98
1
10
0
20
0
0
DIMENSION
5
163
100
AcDbEntity
8
SK2
62
256
6
ByLayer
370
18
48
1
60
0
100
AcDbDimension
2
_U0
10
164.2
20
-45.952229
30
0
11
54.1
21
-45.952229
31
0
70
32
71
1
72
1
41
1
210
0
220
0
230
1
3
Standard
100
AcDbAlignedDimension
13
-56
23
-12.7
33
0
14
164.2
24
0
34
0
50
0
100
AcDbRotatedDimension
1001
ACAD
1000
DSTYLE
1002
{
1070
   371
1070
    13
1070
   372
1070
    13
1070
     3
1000

1070
   170
1070
     0
1070
   144
1040
1.0
1070
   277
1070
     2
1070
   284
1070
     8
1070
   278
1070
    46
1070
   146
1040
1.166667
1070
   345
1005
16
1070
   347
1005
16
1070
   346
1005
16
1070
   344
1005
0
1070
   343
1005
0
1070
   172
1070
     1
1070
    76
1070
     0
1070
    75
1070
     0
1070
   282
1070
     0
1070
   281
1070
     0
1070
    71
1070
     0
1070
    74
1070
     0
1070
   279
1070
     0
1070
   173
1070
     1
1070
   340
1005
142
1070
   271
1070
     2
1070
   272
1070
     3
1070
    77
1070
     1
1070
    73
1070
     1
1070
   171
1070
     3
1070
   274
1070
     4
1070
   177
1070
     2
1070
   176
1070
     2
1070
   178
1070
     2
1070
    78
1070
     8
1070
    48
1040
-0.1
1070
    41
1040
3.5
1070
   147
1040
1.5
1070
    42
1040
1.5875
1070
    44
1040
2.0
1070
   140
1040
3.0
1002
}
1001
ACAD_DSTYLE_DIM_LINETYPE
1070
   380
1005
16
1001
ACAD_DSTYLE_DIM_EXT1_LINETYPE
1070
   381
1005
16
1001
ACAD_DSTYLE_DIM_EXT2_LINETYPE
1070
   382
1005
16
0
DIMENSION
5
17C
100
AcDbEntity
8
SK2
62
256
6
ByLayer
370
18
48
1
60
0
100
AcDbDimension
2
_U1
10
3
20
-35.952229
30
0
11
83.6
21
-35.952229
31
0
70
32
71
1
72
1
41
1
210
0
220
0
230
1
3
Standard
100
AcDbAlignedDimension
13
164.2
23
0
33
0
14
3
24
-12.303
34
0
50
0
100
AcDbRotatedDimension
1001
ACAD
1000
DSTYLE
1002
{
1070
   371
1070
    13
1070
   372
1070
    13
1070
     3
1000

1070
   170
1070
     0
1070
   144
1040
1.0
1070
   277
1070
     2
1070
   284
1070
     8
1070
   278
1070
    46
1070
   146
1040
1.166667
1070
   345
1005
16
1070
   347
1005
16
1070
   346
1005
16
1070
   344
1005
0
1070
   343
1005
0
1070
   172
1070
     1
1070
    76
1070
     0
1070
    75
1070
     0
1070
   282
1070
     0
1070
   281
1070
     0
1070
    71
1070
     0
1070
    74
1070
     0
1070
   279
1070
     0
1070
   173
1070
     1
1070
   340
1005
142
1070
   271
1070
     2
1070
   272
1070
     3
1070
    77
1070
     1
1070
    73
1070
     1
1070
   171
1070
     3
1070
   274
1070
     4
1070
   177
1070
     2
1070
   176
1070
     2
1070
   178
1070
     2
1070
    78
1070
     8
1070
    48
1040
-0.1
1070
    41
1040
3.5
1070
   147
1040
1.5
1070
    42
1040
1.5875
1070
    44
1040
2.0
1070
   140
1040
3.0
1002
}
1001
ACAD_DSTYLE_DIM_LINETYPE
1070
   380
1005
16
1001
ACAD_DSTYLE_DIM_EXT1_LINETYPE
1070
   381
1005
16
1001
ACAD_DSTYLE_DIM_EXT2_LINETYPE
1070
   382
1005
16
0
DIMENSION
5
194
100
AcDbEntity
8
SK2
62
256
6
ByLayer
370
18
48
1
60
0
100
AcDbDimension
2
_U2
10
0
20
-35.952229
30
0
11
-28
21
-35.952229
31
0
70
32
71
1
72
1
41
1
210
0
220
0
230
1
3
Standard
100
AcDbAlignedDimension
13
-56
23
-12.7
33
0
14
0
24
-12.7
34
0
50
0
100
AcDbRotatedDimension
1001
ACAD
1000
DSTYLE
1002
{
1070
   371
1070
    13
1070
   372
1070
    13
1070
     3
1000

1070
   170
1070
     0
1070
   144
1040
1.0
1070
   277
1070
     2
1070
   284
1070
     8
1070
   278
1070
    46
1070
   146
1040
1.166667
1070
   345
1005
16
1070
   347
1005
16
1070
   346
1005
16
1070
   344
1005
0
1070
   343
1005
0
1070
   172
1070
     1
1070
    76
1070
     0
1070
    75
1070
     0
1070
   282
1070
     0
1070
   281
1070
     0
1070
    71
1070
     0
1070
    74
1070
     0
1070
   279
1070
     0
1070
   173
1070
     1
1070
   340
1005
142
1070
   271
1070
     2
1070
   272
1070
     3
1070
    77
1070
     1
1070
    73
1070
     1
1070
   171
1070
     3
1070
   274
1070
     4
1070
   177
1070
     2
1070
   176
1070
     2
1070
   178
1070
     2
1070
    78
1070
     8
1070
    48
1040
-0.1
1070
    41
1040
3.5
1070
   147
1040
1.5
1070
    42
1040
1.5875
1070
    44
1040
2.0
1070
   140
1040
3.0
1002
}
1001
ACAD_DSTYLE_DIM_LINETYPE
1070
   380
1005
16
1001
ACAD_DSTYLE_DIM_EXT1_LINETYPE
1070
   381
1005
16
1001
ACAD_DSTYLE_DIM_EXT2_LINETYPE
1070
   382
1005
16
0
DIMENSION
5
1AC
100
AcDbEntity
8
SK2
62
256
6
ByLayer
370
18
48
1
60
0
100
AcDbDimension
2
_U3
10
29
20
32.952229
30
0
11
96.6
21
32.952229
31
0
70
32
71
1
72
1
41
1
210
0
220
0
230
1
3
Standard
100
AcDbAlignedDimension
13
164.2
23
0
33
0
14
29
24
12.303
34
0
50
0
100
AcDbRotatedDimension
1001
ACAD
1000
DSTYLE
1002
{
1070
   371
1070
    13
1070
   372
1070
    13
1070
     3
1000

1070
   170
1070
     0
1070
   144
1040
1.0
1070
   277
1070
     2
1070
   284
1070
     8
1070
   278
1070
    46
1070
   146
1040
1.166667
1070
   345
1005
16
1070
   347
1005
16
1070
   346
1005
16
1070
   344
1005
0
1070
   343
1005
0
1070
   172
1070
     1
1070
    76
1070
     0
1070
    75
1070
     0
1070
   282
1070
     0
1070
   281
1070
     0
1070
    71
1070
     0
1070
    74
1070
     0
1070
   279
1070
     0
1070
   173
1070
     1
1070
   340
1005
142
1070
   271
1070
     2
1070
   272
1070
     3
1070
    77
1070
     1
1070
    73
1070
     1
1070
   171
1070
     3
1070
   274
1070
     4
1070
   177
1070
     2
1070
   176
1070
     2
1070
   178
1070
     2
1070
    78
1070
     8
1070
    48
1040
-0.1
1070
    41
1040
3.5
1070
   147
1040
1.5
1070
    42
1040
1.5875
1070
    44
1040
2.0
1070
   140
1040
3.0
1002
}
1001
ACAD_DSTYLE_DIM_LINETYPE
1070
   380
1005
16
1001
ACAD_DSTYLE_DIM_EXT1_LINETYPE
1070
   381
1005
16
1001
ACAD_DSTYLE_DIM_EXT2_LINETYPE
1070
   382
1005
16
0
ENDSEC
0
SECTION
2
OBJECTS
0
DICTIONARY
5
234
330
0
100
AcDbDictionary
280
0
281
1
3
ACAD_GROUP
350
235
3
ACAD_MLINESTYLE
350
236
0
DICTIONARY
5
235
330
0
100
AcDbDictionary
280
0
281
1
0
DICTIONARY
5
236
330
0
100
AcDbDictionary
280
0
281
1
3
Standard
350
18
0
MLINESTYLE
5
18
330
236
100
AcDbMlineStyle
2
Standard
70
0
3

62
256
51
90
52
90
71
2
49
-0.5
62
256
6
ByLayer
49
0.5
62
256
6
ByLayer
0
RASTERVARIABLES
5
222
330

100
AcDbRasterVariables
90
0
70
1
71
1
72
1
0
ENDSEC
0
EOF
