0
SECTION
2
HEADER
9
$ACADVER
1
AC1015
9
$DWGCODEPAGE
3
ANSI_1252
9
$HANDSEED
5
24f
9
$ANGBASE
50
0
9
$ANGDIR
70
0
9
$ATTMODE
70
1
9
$AUNITS
70
0
9
$AUPREC
70
0
9
$CECOLOR
62
256
9
$CELTSCALE
40
1
9
$CELTYPE
6
ByLayer
9
$CELWEIGHT
370
18
9
$CLAYER
8
0
9
$CMLJUST
70
0
9
$CMLSCALE
40
1
9
$CMLSTYLE
2
Standard
9
$DIMSTYLE
2
Standard
9
$TEXTSIZE
40
0.2
9
$TEXTSTYLE
7
Standard
9
$LUNITS
70
2
9
$LUPREC
70
4
9
$EXTNAMES
290
1
9
$INSUNITS
70
4
9
$LTSCALE
40
1
9
$LWDISPLAY
290
1
9
$PDMODE
70
0
9
$PDSIZE
40
0
9
$PLINEGEN
70
0
0
ENDSEC
0
SECTION
2
CLASSES
0
CLASS
1
RASTERVARIABLES
2
AcDbRasterVariables
3
ISM
90
0
280
0
281
0
0
ENDSEC
0
SECTION
2
TABLES
0
TABLE
2
VPORT
5
245
100
AcDbSymbolTable
0
VPORT
5
1
100
AcDbSymbolTableRecord
100
AcDbViewportTableRecord
2
*Active
70
0
10
0
20
0
11
1
21
1
12
-1
22
1
13
0
23
0
14
0.5
24
0.5
15
10
25
10
16
0
26
0
36
1
17
0
27
0
37
0
0
ENDTAB
0
TABLE
2
LTYPE
5
246
100
AcDbSymbolTable
0
LTYPE
5
14
100
AcDbSymbolTableRecord
100
AcDbLinetypeTableRecord
70
0
2
ByBlock
3

72
65
73
0
40
0
0
LTYPE
5
15
100
AcDbSymbolTableRecord
100
AcDbLinetypeTableRecord
70
0
2
ByLayer
3

72
65
73
0
40
0
0
LTYPE
5
16
100
AcDbSymbolTableRecord
100
AcDbLinetypeTableRecord
70
0
2
Continuous
3
Solid line
72
65
73
0
40
0
0
LTYPE
5
6E
100
AcDbSymbolTableRecord
100
AcDbLinetypeTableRecord
70
0
2
CENTER
3
____ _ ____ _ ____ _ ____
72
65
73
4
40
47.5
49
22
74
0
49
-8.5
74
0
49
8.5
74
0
49
-8.5
74
0
0
LTYPE
5
6F
100
AcDbSymbolTableRecord
100
AcDbLinetypeTableRecord
70
0
2
DASHED
3
__ __ __ __ __ __ __ __ __
72
65
73
2
40
25.72
49
12.86
74
0
49
-12.86
74
0
0
ENDTAB
0
TABLE
2
LAYER
5
247
100
AcDbSymbolTable
0
LAYER
5
10
100
AcDbSymbolTableRecord
100
AcDbLayerTableRecord
2
0
70
0
62
7
6
Continuous
290
1
370
-3
390
0
0
LAYER
5
71
100
AcDbSymbolTableRecord
100
AcDbLayerTableRecord
2
80
70
0
62
-6
6
Continuous
290
1
370
-3
390
0
0
LAYER
5
73
100
AcDbSymbolTableRecord
100
AcDbLayerTableRecord
2
81
70
0
62
-3
6
Continuous
290
1
370
-3
390
0
0
LAYER
5
75
100
AcDbSymbolTableRecord
100
AcDbLayerTableRecord
2
1
70
0
62
4
6
Continuous
290
1
370
-3
390
0
0
LAYER
5
7F
100
AcDbSymbolTableRecord
100
AcDbLayerTableRecord
2
4
70
0
62
-2
6
CENTER
290
1
370
-3
390
0
0
LAYER
5
B0
100
AcDbSymbolTableRecord
100
AcDbLayerTableRecord
2
2
70
0
62
7
6
Continuous
290
1
370
-3
390
0
0
LAYER
5
174
100
AcDbSymbolTableRecord
100
AcDbLayerTableRecord
2
Defpoints
70
0
62
7
6
Continuous
290
0
370
-3
390
0
0
LAYER
5
231
100
AcDbSymbolTableRecord
100
AcDbLayerTableRecord
2
SK4
70
0
62
2
6
CENTER
290
1
370
-3
390
0
0
LAYER
5
232
100
AcDbSymbolTableRecord
100
AcDbLayerTableRecord
2
SK1
70
0
62
4
6
Continuous
290
1
370
-3
390
0
0
LAYER
5
233
100
AcDbSymbolTableRecord
100
AcDbLayerTableRecord
2
SK2
70
0
62
7
6
Continuous
290
1
370
-3
390
0
0
LAYER
5
234
100
AcDbSymbolTableRecord
100
AcDbLayerTableRecord
2
SK6
70
0
62
5
6
Continuous
290
1
370
-3
390
0
0
ENDTAB
0
TABLE
2
STYLE
5
248
100
AcDbSymbolTable
0
STYLE
5
11
100
AcDbSymbolTableRecord
100
AcDbTextStyleTableRecord
2
Standard
3
txt
70
0
71
0
40
0
41
1
42
0
50
0
0
STYLE
5
150
100
AcDbSymbolTableRecord
100
AcDbTextStyleTableRecord
2
iso_b_vert
3
simplex.shx
70
0
71
0
40
0
41
1
42
0
50
0
0
STYLE
5
151
100
AcDbSymbolTableRecord
100
AcDbTextStyleTableRecord
2
DWGDirectTextStyle
3
simplex
70
0
71
0
40
0
41
1
42
0
50
0
0
ENDTAB
0
TABLE
2
DIMSTYLE
5
249
100
AcDbSymbolTable
100
AcDbDimStyleTable
0
DIMSTYLE
105
27
100
AcDbSymbolTableRecord
100
AcDbDimStyleTableRecord
2
Standard
70
0
3
<>
41
0.18
42
0.0625
44
0.18
140
0.18
147
0.09
73
0
74
0
77
1
271
2
275
0
278
52
280
0
340
11
0
ENDTAB
0
TABLE
2
VIEW
5
24a
100
AcDbSymbolTable
0
ENDTAB
0
TABLE
2
UCS
5
24b
100
AcDbSymbolTable
0
ENDTAB
0
TABLE
2
APPID
5
24c
100
AcDbSymbolTable
0
APPID
5
12
100
AcDbSymbolTableRecord
100
AcDbRegAppTableRecord
2
ACAD
70
0
0
APPID
5
170
100
AcDbSymbolTableRecord
100
AcDbRegAppTableRecord
2
ACAD_DSTYLE_DIMBREAK
70
0
0
APPID
5
1F0
100
AcDbSymbolTableRecord
100
AcDbRegAppTableRecord
2
ACAD_DSTYLE_DIM_LINETYPE
70
0
0
APPID
5
1F1
100
AcDbSymbolTableRecord
100
AcDbRegAppTableRecord
2
ACAD_DSTYLE_DIM_EXT1_LINETYPE
70
0
0
APPID
5
1F2
100
AcDbSymbolTableRecord
100
AcDbRegAppTableRecord
2
ACAD_DSTYLE_DIM_EXT2_LINETYPE
70
0
0
APPID
5
22D
100
AcDbSymbolTableRecord
100
AcDbRegAppTableRecord
2
ACAD_MLEADERVER
70
0
0
ENDTAB
0
TABLE
2
BLOCK_RECORD
5
24d
100
AcDbSymbolTable
0
BLOCK_RECORD
5
1F
100
AcDbSymbolTableRecord
100
AcDbBlockTableRecord
2
*Model_Space
340
0
70
0
0
BLOCK_RECORD
5
1B
100
AcDbSymbolTableRecord
100
AcDbBlockTableRecord
2
*Paper_Space
340
0
70
0
0
BLOCK_RECORD
5
23
100
AcDbSymbolTableRecord
100
AcDbBlockTableRecord
2
*Paper_Space0
340
0
70
0
0
BLOCK_RECORD
5
175
100
AcDbSymbolTableRecord
100
AcDbBlockTableRecord
2
*D1
340
0
70
0
0
BLOCK_RECORD
5
181
100
AcDbSymbolTableRecord
100
AcDbBlockTableRecord
2
_U0
340
0
70
0
0
BLOCK_RECORD
5
18D
100
AcDbSymbolTableRecord
100
AcDbBlockTableRecord
2
*D3
340
0
70
0
0
BLOCK_RECORD
5
199
100
AcDbSymbolTableRecord
100
AcDbBlockTableRecord
2
_U1
340
0
70
0
0
BLOCK_RECORD
5
1A5
100
AcDbSymbolTableRecord
100
AcDbBlockTableRecord
2
*D5
340
0
70
0
0
BLOCK_RECORD
5
1B1
100
AcDbSymbolTableRecord
100
AcDbBlockTableRecord
2
_U2
340
0
70
0
0
BLOCK_RECORD
5
1BD
100
AcDbSymbolTableRecord
100
AcDbBlockTableRecord
2
*D7
340
0
70
0
0
BLOCK_RECORD
5
1C9
100
AcDbSymbolTableRecord
100
AcDbBlockTableRecord
2
_U3
340
0
70
0
0
ENDTAB
0
ENDSEC
0
SECTION
2
BLOCKS
0
BLOCK
5
20
100
AcDbEntity
8
0
100
AcDbBlockBegin
2
*Model_Space
70
0
10
0
20
0
30
0
3
*Model_Space
0
ENDBLK
5
21
100
AcDbEntity
8
0
100
AcDbBlockEnd
0
BLOCK
5
1C
100
AcDbEntity
8
0
100
AcDbBlockBegin
2
*Paper_Space
70
0
10
0
20
0
30
0
3
*Paper_Space
0
ENDBLK
5
1D
100
AcDbEntity
8
0
100
AcDbBlockEnd
0
BLOCK
5
24
100
AcDbEntity
8
0
100
AcDbBlockBegin
2
*Paper_Space0
70
0
10
0
20
0
30
0
3
*Paper_Space0
0
ENDBLK
5
25
100
AcDbEntity
8
0
100
AcDbBlockEnd
0
BLOCK
5
176
100
AcDbEntity
8
0
100
AcDbBlockBegin
2
*D1
70
1
10
0
20
0
30
0
3
*D1
0
LINE
5
178
100
AcDbEntity
8
0
62
256
6
ByLayer
370
-2
48
1
60
0
100
AcDbLine
10
-60
20
-17.5875
30
0
11
-60
21
-47.952229
31
0
39
0
210
0
220
0
230
1
0
LINE
5
179
100
AcDbEntity
8
0
62
256
6
ByLayer
370
-2
48
1
60
0
100
AcDbLine
10
170
20
-1.5875
30
0
11
170
21
-47.952229
31
0
39
0
210
0
220
0
230
1
0
LINE
5
17A
100
AcDbEntity
8
0
62
256
6
ByLayer
370
-2
48
1
60
0
100
AcDbLine
10
-56.5
20
-45.952229
30
0
11
166.5
21
-45.952229
31
0
39
0
210
0
220
0
230
1
0
SOLID
5
17B
100
AcDbEntity
8
0
62
256
6
ByLayer
370
-1
48
1
60
0
100
AcDbTrace
10
-56.5
20
-45.368896
30
0
11
-56.5
21
-46.535563
31
0
12
-60
22
-45.952229
32
0
13
-60
23
-45.952229
33
0
39
0
210
0
220
0
230
1
0
SOLID
5
17C
100
AcDbEntity
8
0
62
256
6
ByLayer
370
-1
48
1
60
0
100
AcDbTrace
10
166.5
20
-46.535563
30
0
11
166.5
21
-45.368896
31
0
12
170
22
-45.952229
32
0
13
170
23
-45.952229
33
0
39
0
210
0
220
0
230
1
0
MTEXT
5
17D
100
AcDbEntity
8
0
62
256
6
ByLayer
370
18
48
1
60
0
100
AcDbMText
10
55
20
-39.952229
30
0
210
0
220
0
230
1
1
\A1;230
40
3
41
0
44
1
50
0
71
5
72
5
7
iso_b_vert
0
POINT
5
17E
100
AcDbEntity
8
Defpoints
62
0
6
ByLayer
370
-1
48
1
60
0
100
AcDbPoint
10
-60
20
-16
30
0
39
0
210
0
220
0
230
1
50
360
0
POINT
5
17F
100
AcDbEntity
8
Defpoints
62
0
6
ByLayer
370
-1
48
1
60
0
100
AcDbPoint
10
170
20
0
30
0
39
0
210
0
220
0
230
1
50
360
0
POINT
5
180
100
AcDbEntity
8
Defpoints
62
0
6
ByLayer
370
-1
48
1
60
0
100
AcDbPoint
10
170
20
-45.952229
30
0
39
0
210
0
220
0
230
1
50
360
0
ENDBLK
5
177
100
AcDbEntity
8
0
100
AcDbBlockEnd
0
BLOCK
5
188
100
AcDbEntity
8
0
100
AcDbBlockBegin
2
_U0
70
0
10
0
20
0
30
0
3
_U0
0
MTEXT
5
182
100
AcDbEntity
8
SK2
62
256
6
ByLayer
370
18
48
1
60
0
100
AcDbMText
10
49.396716
20
-45.067115
30
0
210
0
220
0
230
1
1
\W0.7513;230.00
40
3
41
0
44
1.084337
50
0
71
7
72
5
7
iso_b_vert
0
LINE
5
183
100
AcDbEntity
8
SK2
62
256
6
ByLayer
370
13
48
1
60
0
100
AcDbLine
10
-60
20
-17.5875
30
0
11
-60
21
-47.952229
31
0
39
0
210
0
220
0
230
1
0
LINE
5
184
100
AcDbEntity
8
SK2
62
256
6
ByLayer
370
13
48
1
60
0
100
AcDbLine
10
170
20
-1.5875
30
0
11
170
21
-47.952229
31
0
39
0
210
0
220
0
230
1
0
LINE
5
185
100
AcDbEntity
8
SK2
62
256
6
ByLayer
370
13
48
1
60
0
100
AcDbLine
10
-60
20
-45.952229
30
0
11
170
21
-45.952229
31
0
39
0
210
0
220
0
230
1
0
SOLID
5
186
100
AcDbEntity
8
SK2
62
256
6
ByLayer
370
18
48
1
60
0
100
AcDbTrace
10
-60
20
-45.952229
30
0
11
-56.500002
21
-45.491446
31
0
12
-56.499998
22
-46.413013
32
0
13
-56.499998
23
-46.413013
33
0
39
0
210
0
220
0
230
1
0
SOLID
5
187
100
AcDbEntity
8
SK2
62
256
6
ByLayer
370
18
48
1
60
0
100
AcDbTrace
10
170
20
-45.952229
30
0
11
166.500002
21
-46.413013
31
0
12
166.499998
22
-45.491446
32
0
13
166.499998
23
-45.491446
33
0
39
0
210
0
220
0
230
1
0
ENDBLK
5
189
100
AcDbEntity
8
0
100
AcDbBlockEnd
0
BLOCK
5
18E
100
AcDbEntity
8
0
100
AcDbBlockBegin
2
*D3
70
1
10
0
20
0
30
0
3
*D3
0
LINE
5
190
100
AcDbEntity
8
0
62
256
6
ByLayer
370
-2
48
1
60
0
100
AcDbLine
10
170
20
-1.5875
30
0
11
170
21
-37.952229
31
0
39
0
210
0
220
0
230
1
0
LINE
5
191
100
AcDbEntity
8
0
62
256
6
ByLayer
370
-2
48
1
60
0
100
AcDbLine
10
3
20
-14.5875
30
0
11
3
21
-37.952229
31
0
39
0
210
0
220
0
230
1
0
LINE
5
192
100
AcDbEntity
8
0
62
256
6
ByLayer
370
-2
48
1
60
0
100
AcDbLine
10
166.5
20
-35.952229
30
0
11
6.5
21
-35.952229
31
0
39
0
210
0
220
0
230
1
0
SOLID
5
193
100
AcDbEntity
8
0
62
256
6
ByLayer
370
-1
48
1
60
0
100
AcDbTrace
10
166.5
20
-36.535563
30
0
11
166.5
21
-35.368896
31
0
12
170
22
-35.952229
32
0
13
170
23
-35.952229
33
0
39
0
210
0
220
0
230
1
0
SOLID
5
194
100
AcDbEntity
8
0
62
256
6
ByLayer
370
-1
48
1
60
0
100
AcDbTrace
10
6.5
20
-35.368896
30
0
11
6.5
21
-36.535563
31
0
12
3
22
-35.952229
32
0
13
3
23
-35.952229
33
0
39
0
210
0
220
0
230
1
0
MTEXT
5
195
100
AcDbEntity
8
0
62
256
6
ByLayer
370
18
48
1
60
0
100
AcDbMText
10
86.5
20
-29.952229
30
0
210
0
220
0
230
1
1
\A1;167
40
3
41
0
44
1
50
0
71
5
72
5
7
iso_b_vert
0
POINT
5
196
100
AcDbEntity
8
Defpoints
62
0
6
ByLayer
370
-1
48
1
60
0
100
AcDbPoint
10
170
20
0
30
0
39
0
210
0
220
0
230
1
50
360
0
POINT
5
197
100
AcDbEntity
8
Defpoints
62
0
6
ByLayer
370
-1
48
1
60
0
100
AcDbPoint
10
3
20
-13
30
0
39
0
210
0
220
0
230
1
50
360
0
POINT
5
198
100
AcDbEntity
8
Defpoints
62
0
6
ByLayer
370
-1
48
1
60
0
100
AcDbPoint
10
3
20
-35.952229
30
0
39
0
210
0
220
0
230
1
50
360
0
ENDBLK
5
18F
100
AcDbEntity
8
0
100
AcDbBlockEnd
0
BLOCK
5
1A0
100
AcDbEntity
8
0
100
AcDbBlockBegin
2
_U1
70
0
10
0
20
0
30
0
3
_U1
0
MTEXT
5
19A
100
AcDbEntity
8
SK2
62
256
6
ByLayer
370
18
48
1
60
0
100
AcDbMText
10
81.271658
20
-35.067115
30
0
210
0
220
0
230
1
1
\W0.7022;167.00
40
3
41
0
44
1.084337
50
0
71
7
72
5
7
iso_b_vert
0
LINE
5
19B
100
AcDbEntity
8
SK2
62
256
6
ByLayer
370
13
48
1
60
0
100
AcDbLine
10
170
20
-1.5875
30
0
11
170
21
-37.952229
31
0
39
0
210
0
220
0
230
1
0
LINE
5
19C
100
AcDbEntity
8
SK2
62
256
6
ByLayer
370
13
48
1
60
0
100
AcDbLine
10
3
20
-14.5875
30
0
11
3
21
-37.952229
31
0
39
0
210
0
220
0
230
1
0
LINE
5
19D
100
AcDbEntity
8
SK2
62
256
6
ByLayer
370
13
48
1
60
0
100
AcDbLine
10
170
20
-35.952229
30
0
11
3
21
-35.952229
31
0
39
0
210
0
220
0
230
1
0
SOLID
5
19E
100
AcDbEntity
8
SK2
62
256
6
ByLayer
370
18
48
1
60
0
100
AcDbTrace
10
170
20
-35.952229
30
0
11
166.500002
21
-36.413013
31
0
12
166.499998
22
-35.491446
32
0
13
166.499998
23
-35.491446
33
0
39
0
210
0
220
0
230
1
0
SOLID
5
19F
100
AcDbEntity
8
SK2
62
256
6
ByLayer
370
18
48
1
60
0
100
AcDbTrace
10
3
20
-35.952229
30
0
11
6.499998
21
-35.491446
31
0
12
6.500002
22
-36.413013
32
0
13
6.500002
23
-36.413013
33
0
39
0
210
0
220
0
230
1
0
ENDBLK
5
1A1
100
AcDbEntity
8
0
100
AcDbBlockEnd
0
BLOCK
5
1A6
100
AcDbEntity
8
0
100
AcDbBlockBegin
2
*D5
70
1
10
0
20
0
30
0
3
*D5
0
LINE
5
1A8
100
AcDbEntity
8
0
62
256
6
ByLayer
370
-2
48
1
60
0
100
AcDbLine
10
-60
20
-17.5875
30
0
11
-60
21
-37.952229
31
0
39
0
210
0
220
0
230
1
0
LINE
5
1A9
100
AcDbEntity
8
0
62
256
6
ByLayer
370
-2
48
1
60
0
100
AcDbLine
10
0
20
-17.5875
30
0
11
0
21
-37.952229
31
0
39
0
210
0
220
0
230
1
0
LINE
5
1AA
100
AcDbEntity
8
0
62
256
6
ByLayer
370
-2
48
1
60
0
100
AcDbLine
10
-56.5
20
-35.952229
30
0
11
-3.5
21
-35.952229
31
0
39
0
210
0
220
0
230
1
0
SOLID
5
1AB
100
AcDbEntity
8
0
62
256
6
ByLayer
370
-1
48
1
60
0
100
AcDbTrace
10
-56.5
20
-35.368896
30
0
11
-56.5
21
-36.535563
31
0
12
-60
22
-35.952229
32
0
13
-60
23
-35.952229
33
0
39
0
210
0
220
0
230
1
0
SOLID
5
1AC
100
AcDbEntity
8
0
62
256
6
ByLayer
370
-1
48
1
60
0
100
AcDbTrace
10
-3.5
20
-36.535563
30
0
11
-3.5
21
-35.368896
31
0
12
0
22
-35.952229
32
0
13
0
23
-35.952229
33
0
39
0
210
0
220
0
230
1
0
MTEXT
5
1AD
100
AcDbEntity
8
0
62
256
6
ByLayer
370
18
48
1
60
0
100
AcDbMText
10
-30
20
-29.952229
30
0
210
0
220
0
230
1
1
\A1;60
40
3
41
0
44
1
50
0
71
5
72
5
7
iso_b_vert
0
POINT
5
1AE
100
AcDbEntity
8
Defpoints
62
0
6
ByLayer
370
-1
48
1
60
0
100
AcDbPoint
10
-60
20
-16
30
0
39
0
210
0
220
0
230
1
50
360
0
POINT
5
1AF
100
AcDbEntity
8
Defpoints
62
0
6
ByLayer
370
-1
48
1
60
0
100
AcDbPoint
10
0
20
-16
30
0
39
0
210
0
220
0
230
1
50
360
0
POINT
5
1B0
100
AcDbEntity
8
Defpoints
62
0
6
ByLayer
370
-1
48
1
60
0
100
AcDbPoint
10
0
20
-35.952229
30
0
39
0
210
0
220
0
230
1
50
360
0
ENDBLK
5
1A7
100
AcDbEntity
8
0
100
AcDbBlockEnd
0
BLOCK
5
1B8
100
AcDbEntity
8
0
100
AcDbBlockBegin
2
_U2
70
0
10
0
20
0
30
0
3
_U2
0
MTEXT
5
1B2
100
AcDbEntity
8
SK2
62
256
6
ByLayer
370
18
48
1
60
0
100
AcDbMText
10
-34.48237
20
-35.067115
30
0
210
0
220
0
230
1
1
\W0.7468;60.00
40
3
41
0
44
1.084337
50
0
71
7
72
5
7
iso_b_vert
0
LINE
5
1B3
100
AcDbEntity
8
SK2
62
256
6
ByLayer
370
13
48
1
60
0
100
AcDbLine
10
-60
20
-17.5875
30
0
11
-60
21
-37.952229
31
0
39
0
210
0
220
0
230
1
0
LINE
5
1B4
100
AcDbEntity
8
SK2
62
256
6
ByLayer
370
13
48
1
60
0
100
AcDbLine
10
0
20
-17.5875
30
0
11
0
21
-37.952229
31
0
39
0
210
0
220
0
230
1
0
LINE
5
1B5
100
AcDbEntity
8
SK2
62
256
6
ByLayer
370
13
48
1
60
0
100
AcDbLine
10
-60
20
-35.952229
30
0
11
0
21
-35.952229
31
0
39
0
210
0
220
0
230
1
0
SOLID
5
1B6
100
AcDbEntity
8
SK2
62
256
6
ByLayer
370
18
48
1
60
0
100
AcDbTrace
10
-60
20
-35.952229
30
0
11
-56.500002
21
-35.491446
31
0
12
-56.499998
22
-36.413013
32
0
13
-56.499998
23
-36.413013
33
0
39
0
210
0
220
0
230
1
0
SOLID
5
1B7
100
AcDbEntity
8
SK2
62
256
6
ByLayer
370
18
48
1
60
0
100
AcDbTrace
10
0
20
-35.952229
30
0
11
-3.499998
21
-36.413013
31
0
12
-3.500002
22
-35.491446
32
0
13
-3.500002
23
-35.491446
33
0
39
0
210
0
220
0
230
1
0
ENDBLK
5
1B9
100
AcDbEntity
8
0
100
AcDbBlockEnd
0
BLOCK
5
1BE
100
AcDbEntity
8
0
100
AcDbBlockBegin
2
*D7
70
1
10
0
20
0
30
0
3
*D7
0
LINE
5
1C0
100
AcDbEntity
8
0
62
256
6
ByLayer
370
-2
48
1
60
0
100
AcDbLine
10
170
20
1.5875
30
0
11
170
21
34.952229
31
0
39
0
210
0
220
0
230
1
0
LINE
5
1C1
100
AcDbEntity
8
0
62
256
6
ByLayer
370
-2
48
1
60
0
100
AcDbLine
10
24
20
14.5875
30
0
11
24
21
34.952229
31
0
39
0
210
0
220
0
230
1
0
LINE
5
1C2
100
AcDbEntity
8
0
62
256
6
ByLayer
370
-2
48
1
60
0
100
AcDbLine
10
166.5
20
32.952229
30
0
11
27.5
21
32.952229
31
0
39
0
210
0
220
0
230
1
0
SOLID
5
1C3
100
AcDbEntity
8
0
62
256
6
ByLayer
370
-1
48
1
60
0
100
AcDbTrace
10
166.5
20
32.368896
30
0
11
166.5
21
33.535563
31
0
12
170
22
32.952229
32
0
13
170
23
32.952229
33
0
39
0
210
0
220
0
230
1
0
SOLID
5
1C4
100
AcDbEntity
8
0
62
256
6
ByLayer
370
-1
48
1
60
0
100
AcDbTrace
10
27.5
20
33.535563
30
0
11
27.5
21
32.368896
31
0
12
24
22
32.952229
32
0
13
24
23
32.952229
33
0
39
0
210
0
220
0
230
1
0
MTEXT
5
1C5
100
AcDbEntity
8
0
62
256
6
ByLayer
370
18
48
1
60
0
100
AcDbMText
10
97
20
38.952229
30
0
210
0
220
0
230
1
1
\A1;146
40
3
41
0
44
1
50
0
71
5
72
5
7
iso_b_vert
0
POINT
5
1C6
100
AcDbEntity
8
Defpoints
62
0
6
ByLayer
370
-1
48
1
60
0
100
AcDbPoint
10
170
20
0
30
0
39
0
210
0
220
0
230
1
50
360
0
POINT
5
1C7
100
AcDbEntity
8
Defpoints
62
0
6
ByLayer
370
-1
48
1
60
0
100
AcDbPoint
10
24
20
13
30
0
39
0
210
0
220
0
230
1
50
360
0
POINT
5
1C8
100
AcDbEntity
8
Defpoints
62
0
6
ByLayer
370
-1
48
1
60
0
100
AcDbPoint
10
24
20
32.952229
30
0
39
0
210
0
220
0
230
1
50
360
0
ENDBLK
5
1BF
100
AcDbEntity
8
0
100
AcDbBlockEnd
0
BLOCK
5
1D0
100
AcDbEntity
8
0
100
AcDbBlockBegin
2
_U3
70
0
10
0
20
0
30
0
3
_U3
0
MTEXT
5
1CA
100
AcDbEntity
8
SK2
62
256
6
ByLayer
370
18
48
1
60
0
100
AcDbMText
10
91.613715
20
33.837344
30
0
210
0
220
0
230
1
1
\W0.7237;146.00
40
3
41
0
44
1.084337
50
0
71
7
72
5
7
iso_b_vert
0
LINE
5
1CB
100
AcDbEntity
8
SK2
62
256
6
ByLayer
370
13
48
1
60
0
100
AcDbLine
10
170
20
1.5875
30
0
11
170
21
34.952229
31
0
39
0
210
0
220
0
230
1
0
LINE
5
1CC
100
AcDbEntity
8
SK2
62
256
6
ByLayer
370
13
48
1
60
0
100
AcDbLine
10
24
20
14.5875
30
0
11
24
21
34.952229
31
0
39
0
210
0
220
0
230
1
0
LINE
5
1CD
100
AcDbEntity
8
SK2
62
256
6
ByLayer
370
13
48
1
60
0
100
AcDbLine
10
170
20
32.952229
30
0
11
24
21
32.952229
31
0
39
0
210
0
220
0
230
1
0
SOLID
5
1CE
100
AcDbEntity
8
SK2
62
256
6
ByLayer
370
18
48
1
60
0
100
AcDbTrace
10
170
20
32.952229
30
0
11
166.500002
21
32.491446
31
0
12
166.499998
22
33.413013
32
0
13
166.499998
23
33.413013
33
0
39
0
210
0
220
0
230
1
0
SOLID
5
1CF
100
AcDbEntity
8
SK2
62
256
6
ByLayer
370
18
48
1
60
0
100
AcDbTrace
10
24
20
32.952229
30
0
11
27.499998
21
33.413013
31
0
12
27.500002
22
32.491446
32
0
13
27.500002
23
32.491446
33
0
39
0
210
0
220
0
230
1
0
ENDBLK
5
1D1
100
AcDbEntity
8
0
100
AcDbBlockEnd
0
ENDSEC
0
SECTION
2
ENTITIES
0
ARC
5
C1
100
AcDbEntity
8
SK2
62
256
6
ByLayer
370
13
48
1
60
0
100
AcDbCircle
39
0
10
170
20
0
30
0
40
18.9999999999999
210
0
220
0
230
1
100
AcDbArc
50
290
51
70
0
ELLIPSE
5
C2
100
AcDbEntity
8
SK1
62
256
6
ByLayer
370
18
48
1
60
0
100
AcDbEllipse
10
-42.079759
20
0
30
0
11
-2.93905524917505E-15
21
-16.0000000000073
31
0
210
0
220
0
230
1
40
0.932515
41
-1.80249142112189
42
-1.3391012324679
0
ELLIPSE
5
C3
100
AcDbEntity
8
SK1
62
256
6
ByLayer
370
18
48
1
60
0
100
AcDbEllipse
10
375.907546
20
0
30
0
11
458.180052524353
21
-5.19163675692399E-13
31
0
210
0
220
0
230
1
40
0.034921
41
2.59367031451701
42
2.79796683129766
0
ELLIPSE
5
C4
100
AcDbEntity
8
SK1
62
256
6
ByLayer
370
18
48
1
60
0
100
AcDbEllipse
10
-29.157899
20
0
30
0
11
17.1578993603954
21
-1.94416104542868E-14
31
0
210
0
220
0
230
1
40
0.932515
41
-0.494065251162693
42
0.494065251162695
0
ELLIPSE
5
C5
100
AcDbEntity
8
SK1
62
256
6
ByLayer
370
18
48
1
60
0
100
AcDbEllipse
10
375.907546
20
0
30
0
11
458.180052528051
21
-5.19163675696589E-13
31
0
210
0
220
0
230
1
40
0.034921
41
-2.79796683129846
42
-2.59367031451889
0
POINT
5
70
100
AcDbEntity
8
80
62
256
6
ByLayer
370
18
48
1
60
0
100
AcDbPoint
10
0
20
0
30
0
39
0
210
0
220
0
230
1
50
360
0
POINT
5
72
100
AcDbEntity
8
81
62
256
6
ByLayer
370
18
48
1
60
0
100
AcDbPoint
10
170
20
0
30
0
39
0
210
0
220
0
230
1
50
360
0
POINT
5
74
100
AcDbEntity
8
1
62
256
6
ByLayer
370
18
48
1
60
1
100
AcDbPoint
10
-60
20
-16
30
0
39
0
210
0
220
0
230
1
50
360
0
POINT
5
76
100
AcDbEntity
8
1
62
256
6
ByLayer
370
18
48
1
60
1
100
AcDbPoint
10
170
20
0
30
0
39
0
210
0
220
0
230
1
50
360
0
POINT
5
77
100
AcDbEntity
8
1
62
256
6
ByLayer
370
18
48
1
60
1
100
AcDbPoint
10
170
20
0
30
0
39
0
210
0
220
0
230
1
50
360
0
POINT
5
78
100
AcDbEntity
8
1
62
256
6
ByLayer
370
18
48
1
60
1
100
AcDbPoint
10
3
20
-13
30
0
39
0
210
0
220
0
230
1
50
360
0
POINT
5
79
100
AcDbEntity
8
1
62
256
6
ByLayer
370
18
48
1
60
1
100
AcDbPoint
10
-60
20
-16
30
0
39
0
210
0
220
0
230
1
50
360
0
POINT
5
7A
100
AcDbEntity
8
1
62
256
6
ByLayer
370
18
48
1
60
1
100
AcDbPoint
10
0
20
-16
30
0
39
0
210
0
220
0
230
1
50
360
0
POINT
5
7B
100
AcDbEntity
8
1
62
256
6
ByLayer
370
18
48
1
60
1
100
AcDbPoint
10
170
20
0
30
0
39
0
210
0
220
0
230
1
50
360
0
POINT
5
7C
100
AcDbEntity
8
1
62
256
6
ByLayer
370
18
48
1
60
1
100
AcDbPoint
10
24
20
13
30
0
39
0
210
0
220
0
230
1
50
360
0
SPLINE
5
C6
100
AcDbEntity
8
1
62
256
6
ByLayer
370
18
48
1
60
0
100
AcDbSpline
70
4
71
3
72
26
73
22
40
0
40
0
40
0
40
0
40
0.125000000000007
40
0.125000000000007
40
0.250000000000014
40
0.250000000000014
40
0.375000000000021
40
0.375000000000021
40
0.406250000000022
40
0.406250000000022
40
0.437500000000023
40
0.437500000000023
40
0.50000000000002
40
0.50000000000002
40
0.625000000000015
40
0.625000000000015
40
0.75000000000001
40
0.75000000000001
40
0.875000000000005
40
0.875000000000005
40
1
40
1
40
1
40
1
41
1
10
10
20
-9.57968049623116
30
0
41
1
10
10.4057626136512
20
-9.48738588172841
30
0
41
1
10
10.8150421950755
20
-9.40945924749985
30
0
41
1
10
11.6401237242224
20
-9.28274681529388
30
0
41
1
10
12.0559297691441
20
-9.23396877466209
30
0
41
1
10
12.8937895422395
20
-9.16582477307082
30
0
41
1
10
13.3158464346994
20
-9.14646908619972
30
0
41
1
10
13.8472263428886
20
-9.14057010414581
30
0
41
1
10
13.9536929335332
20
-9.14030361958305
30
0
41
1
10
14.1670053089571
20
-9.14158808805968
30
0
41
1
10
14.2738995620195
20
-9.14314019261067
30
0
41
1
10
14.5948436747727
20
-9.15049659027704
30
0
41
1
10
14.8077054394696
20
-9.15896448443257
30
0
41
1
10
15.4431881324273
20
-9.19431767331909
30
0
41
1
10
15.8627062685931
20
-9.23116784243348
30
0
41
1
10
16.6944863540986
20
-9.32718220665274
30
0
41
1
10
17.1067452298416
20
-9.3863464506201
30
0
41
1
10
17.9250589283719
20
-9.52225393951969
30
0
41
1
10
18.3311150061249
20
-9.59898408095529
30
0
41
1
10
19.1381557686741
20
-9.76496217815205
30
0
41
1
10
19.5391476526596
20
-9.85418268694551
30
0
41
1
10
19.9381491533632
20
-9.94727523745649
30
0
0
SPLINE
5
C7
100
AcDbEntity
8
1
62
256
6
ByLayer
370
18
48
1
60
0
100
AcDbSpline
70
4
71
3
72
14
73
10
40
0
40
0
40
0
40
0
40
0.25
40
0.25
40
0.5
40
0.5
40
0.75
40
0.75
40
1
40
1
40
1
40
1
41
1
10
14.2477836409639
20
10.3184999977949
30
0
41
1
10
13.8824744225162
20
10.3986388965914
30
0
41
1
10
13.5204750520066
20
10.4812843248153
30
0
41
1
10
12.8018978716875
20
10.6489445033432
30
0
41
1
10
12.4453132151091
20
10.7339589437103
30
0
41
1
10
11.7372011504197
20
10.904877343023
30
0
41
1
10
11.3856754707052
20
10.9907949136734
30
0
41
1
10
10.6882608596858
20
11.1630279889187
30
0
41
1
10
10.3423794037823
20
11.2493643343272
30
0
41
1
10
10
20
11.3358735244875
30
0
0
SPLINE
5
C8
100
AcDbEntity
8
1
62
256
6
ByLayer
370
18
48
1
60
0
100
AcDbSpline
70
4
71
3
72
14
73
10
40
0
40
0
40
0
40
0
40
0.25
40
0.25
40
0.5
40
0.5
40
0.75
40
0.75
40
1
40
1
40
1
40
1
41
1
10
14.2477836409639
20
-10.318499997795
30
0
41
1
10
13.8824744225162
20
-10.3986388965914
30
0
41
1
10
13.5204750520066
20
-10.4812843248153
30
0
41
1
10
12.8018978716875
20
-10.6489445033432
30
0
41
1
10
12.4453132151091
20
-10.7339589437103
30
0
41
1
10
11.7372011504197
20
-10.904877343023
30
0
41
1
10
11.3856754707052
20
-10.9907949136734
30
0
41
1
10
10.6882608596858
20
-11.1630279889187
30
0
41
1
10
10.3423794037824
20
-11.2493643343273
30
0
41
1
10
10
20
-11.3358735244876
30
0
0
SPLINE
5
C9
100
AcDbEntity
8
1
62
256
6
ByLayer
370
18
48
1
60
0
100
AcDbSpline
70
4
71
3
72
10
73
6
40
0
40
0
40
0
40
0
40
0.433988843303502
40
0.433988843303502
40
1
40
1
40
1
40
1
41
1
10
17.8017111137828
20
9.50325141545909
30
0
41
1
10
18.114346435086
20
9.55838912818606
30
0
41
1
10
18.4252362855499
20
9.61834130749162
30
0
41
1
10
19.1381557686741
20
9.76496217815208
30
0
41
1
10
19.5391476526595
20
9.85418268694551
30
0
41
1
10
19.9381491533631
20
9.94727523745649
30
0
0
SPLINE
5
CA
100
AcDbEntity
8
1
62
256
6
ByLayer
370
18
48
1
60
0
100
AcDbSpline
70
4
71
3
72
24
73
20
40
0
40
0
40
0
40
0
40
0.062499999999998
40
0.062499999999998
40
0.124999999999996
40
0.124999999999996
40
0.249999999999992
40
0.249999999999992
40
0.499999999999984
40
0.499999999999984
40
0.62499999999998
40
0.62499999999998
40
0.687499999999981
40
0.687499999999981
40
0.749999999999983
40
0.749999999999983
40
0.874999999999991
40
0.874999999999991
40
1
40
1
40
1
40
1
41
1
10
165.268386954554
20
-1.85511244900567
30
0
41
1
10
165.025110469574
20
-1.7672354700687
30
0
41
1
10
164.781929104435
20
-1.67911429828106
30
0
41
1
10
164.295701576458
20
-1.50253609622132
30
0
41
1
10
164.052612959717
20
-1.41419652701168
30
0
41
1
10
163.323305252203
20
-1.14935046638044
30
0
41
1
10
162.837090773638
20
-0.972888010002492
30
0
41
1
10
161.378472330934
20
-0.44365600251578
30
0
41
1
10
160.406090314002
20
-0.0910496644025898
30
0
41
1
10
158.947806888466
20
0.438213598116164
30
0
41
1
10
158.461762150558
20
0.614697567717684
30
0
41
1
10
157.732811765767
20
0.879633025910721
30
0
41
1
10
157.489847699171
20
0.967979590974011
30
0
41
1
10
157.00396544085
20
1.14476146926182
30
0
41
1
10
156.761062498504
20
1.23323877061446
30
0
41
1
10
156.032298324747
20
1.4984614174233
30
0
41
1
10
155.546200074173
20
1.67449731994637
30
0
41
1
10
154.573473392813
20
2.02495955047874
30
0
41
1
10
154.086854605066
20
2.19941243382632
30
0
41
1
10
153.6
20
2.37314149445498
30
0
0
SPLINE
5
CB
100
AcDbEntity
8
1
62
256
6
ByLayer
370
18
48
1
60
0
100
AcDbSpline
70
4
71
3
72
95
73
91
40
0
40
0
40
0
40
0
40
0.0312499999999931
40
0.0312499999999931
40
0.0624999999999861
40
0.0624999999999861
40
0.0937499999999792
40
0.0937499999999792
40
0.124999999999972
40
0.124999999999972
40
0.140624999999969
40
0.140624999999969
40
0.148437499999968
40
0.148437499999968
40
0.156249999999967
40
0.187499999999964
40
0.187499999999964
40
0.218749999999961
40
0.218749999999961
40
0.249999999999958
40
0.249999999999958
40
0.281249999999955
40
0.281249999999955
40
0.296874999999953
40
0.296874999999953
40
0.304687499999953
40
0.304687499999953
40
0.312499999999953
40
0.312499999999953
40
0.343749999999952
40
0.343749999999952
40
0.374999999999952
40
0.374999999999952
40
0.406249999999951
40
0.406249999999951
40
0.437499999999951
40
0.437499999999951
40
0.44531249999995
40
0.44531249999995
40
0.45312499999995
40
0.46874999999995
40
0.46874999999995
40
0.499999999999949
40
0.499999999999949
40
0.531249999999948
40
0.531249999999948
40
0.539062499999947
40
0.539062499999947
40
0.546874999999947
40
0.562499999999946
40
0.562499999999946
40
0.593749999999944
40
0.593749999999944
40
0.624999999999941
40
0.624999999999941
40
0.632812499999941
40
0.632812499999941
40
0.64062499999994
40
0.656249999999941
40
0.656249999999941
40
0.687499999999941
40
0.687499999999941
40
0.718749999999942
40
0.718749999999942
40
0.726562499999942
40
0.726562499999942
40
0.734374999999943
40
0.734374999999943
40
0.749999999999946
40
0.749999999999946
40
0.781249999999951
40
0.781249999999951
40
0.812499999999957
40
0.812499999999957
40
0.843749999999963
40
0.843749999999963
40
0.851562499999965
40
0.851562499999965
40
0.859374999999967
40
0.874999999999971
40
0.874999999999971
40
0.906249999999979
40
0.906249999999979
40
0.937499999999986
40
0.968749999999994
40
0.968749999999994
40
0.976562499999995
40
0.976562499999995
40
0.984374999999997
40
1
40
1
40
1
40
1
41
1
10
165.268386954539
20
12.5872056253826
30
0
41
1
10
165.349579489834
20
12.3858999371794
30
0
41
1
10
165.430900055065
20
12.1815714252963
30
0
41
1
10
165.593935302537
20
11.7673451346001
30
0
41
1
10
165.67564984168
20
11.5574462954086
30
0
41
1
10
165.839569967455
20
11.1324227930226
30
0
41
1
10
165.9217756141
20
10.9172975334917
30
0
41
1
10
166.086735684016
20
10.4820592735585
30
0
41
1
10
166.169490392865
20
10.2619460127263
30
0
41
1
10
166.294044161227
20
9.9281441229314
30
0
41
1
10
166.335631995973
20
9.81627079037898
30
0
41
1
10
166.398115976188
20
9.64755904793833
30
0
41
1
10
166.418975437353
20
9.59113225199749
30
0
41
1
10
166.460653441535
20
9.47817963053032
30
0
41
1
10
166.564695341559
20
9.19568590265507
30
0
41
1
10
166.66798202627
20
8.91264019970816
30
0
41
1
10
166.83220661955
20
8.45905583631401
30
0
41
1
10
166.913802880022
20
8.23190836641677
30
0
41
1
10
167.07577582107
20
7.77684977546241
30
0
41
1
10
167.156154355903
20
7.54893930277746
30
0
41
1
10
167.315345954821
20
7.09224025398839
30
0
41
1
10
167.394162229222
20
6.86345283100607
30
0
41
1
10
167.510777587976
20
6.51946111858135
30
0
41
1
10
167.549379078864
20
6.40466132437075
30
0
41
1
10
167.606797099623
20
6.23222972730809
30
0
41
1
10
167.625865465087
20
6.17468366283379
30
0
41
1
10
167.663776302115
20
6.05965556067071
30
0
41
1
10
167.682608008973
20
6.00220653090443
30
0
41
1
10
167.776109252624
20
5.71527326085075
30
0
41
1
10
167.848829780801
20
5.48672755805435
30
0
41
1
10
167.988779894278
20
5.03125832239797
30
0
41
1
10
168.056018613674
20
4.80433626165544
30
0
41
1
10
168.182961672484
20
4.35163840791651
30
0
41
1
10
168.242675573858
20
4.1258639054341
30
0
41
1
10
168.351519103213
20
3.67483067260264
30
0
41
1
10
168.400655700032
20
3.44956901390316
30
0
41
1
10
168.452731307696
20
3.16784871520272
30
0
41
1
10
168.462681349196
20
3.11146440554404
30
0
41
1
10
168.481535756582
20
2.99881141229869
30
0
41
1
10
168.508181267628
20
2.83042272748179
30
0
41
1
10
168.529631669074
20
2.66383029214418
30
0
41
1
10
168.564907116532
20
2.33313540435469
30
0
41
1
10
168.578181846537
20
2.11598089746539
30
0
41
1
10
168.581764969357
20
1.6890708818037
30
0
41
1
10
168.572052561778
20
1.47931896491761
30
0
41
1
10
168.545646797194
20
1.22243962903076
30
0
41
1
10
168.539653558619
20
1.17128714241244
30
0
41
1
10
168.526307378803
20
1.06971846299618
30
0
41
1
10
168.504320891807
20
0.918986947097977
30
0
41
1
10
168.47677378862
20
0.773060072794522
30
0
41
1
10
168.415191143758
20
0.487456915868705
30
0
41
1
10
168.365520373076
20
0.305377379806401
30
0
41
1
10
168.253430374805
20
-0.0427912382467639
30
0
41
1
10
168.191020595965
20
-0.208885075249839
30
0
41
1
10
168.107115517004
20
-0.406664014378464
30
0
41
1
10
168.090025295493
20
-0.44575211397111
30
0
41
1
10
168.055339447809
20
-0.52282914142998
30
0
41
1
10
168.002661268832
20
-0.636556228137266
30
0
41
1
10
167.948236849074
20
-0.744729683415585
30
0
41
1
10
167.837482949186
20
-0.953895407092631
30
0
41
1
10
167.761132173869
20
-1.08378428331466
30
0
41
1
10
167.60488427688
20
-1.32509686408986
30
0
41
1
10
167.524976572699
20
-1.43651708257522
30
0
41
1
10
167.423357069583
20
-1.56427340059068
30
0
41
1
10
167.402945132177
20
-1.5892473640763
30
0
41
1
10
167.361952796249
20
-1.63803600696548
30
0
41
1
10
167.341354274317
20
-1.66186999551866
30
0
41
1
10
167.279570660428
20
-1.73134184489035
30
0
41
1
10
167.238333498752
20
-1.77503250467771
30
0
41
1
10
167.114542321654
20
-1.89841089733079
30
0
41
1
10
167.031914759115
20
-1.97042093887555
30
0
41
1
10
166.866609660561
20
-2.09448065263842
30
0
41
1
10
166.783929541181
20
-2.14652824458986
30
0
41
1
10
166.618493973637
20
-2.23069449635989
30
0
41
1
10
166.535737343857
20
-2.26281315892237
30
0
41
1
10
166.432158186289
20
-2.290241801126
30
0
41
1
10
166.411417557775
20
-2.29509291695768
30
0
41
1
10
166.370099666022
20
-2.30347761593927
30
0
41
1
10
166.308313163262
20
-2.31409572481965
30
0
41
1
10
166.247077345183
20
-2.31890276198385
30
0
41
1
10
166.125286113738
20
-2.3209012686423
30
0
41
1
10
166.044998966415
20
-2.31209247479865
30
0
41
1
10
165.885955846193
20
-2.27456433315825
30
0
41
1
10
165.728443885617
20
-2.21712336295798
30
0
41
1
10
165.573438983446
20
-2.11978925461563
30
0
41
1
10
165.47716991195
20
-2.04621568860688
30
0
41
1
10
165.457955042924
20
-2.03086845355583
30
0
41
1
10
165.41968689349
20
-1.99898104963577
30
0
41
1
10
165.362489590144
20
-1.9493320032243
30
0
41
1
10
165.305882805264
20
-1.89424700071567
30
0
41
1
10
165.26838695454
20
-1.85511244900042
30
0
0
SPLINE
5
CC
100
AcDbEntity
8
1
62
256
6
ByLayer
370
18
48
1
60
0
100
AcDbSpline
70
4
71
3
72
22
73
18
40
0
40
0
40
0
40
0
40
0.0302442765425688
40
0.0302442765425688
40
0.353496184361715
40
0.353496184361715
40
0.515122138271288
40
0.515122138271288
40
0.595935115226075
40
0.595935115226075
40
0.676748092180862
40
0.676748092180862
40
0.757561069135648
40
0.757561069135648
40
0.838374046090435
40
0.838374046090435
40
1
40
1
40
1
40
1
41
1
10
156.24434605351
20
12.9983759618334
30
0
41
1
10
156.335333180156
20
12.9983909188449
30
0
41
1
10
156.426321304759
20
12.9982794868568
30
0
41
1
10
157.489799988446
20
12.9955048277043
30
0
41
1
10
158.462358678387
20
12.9786110161644
30
0
41
1
10
159.920787438067
20
12.9317785125519
30
0
41
1
10
160.406859194317
20
12.9125756418959
30
0
41
1
10
161.135801461976
20
12.878306482861
30
0
41
1
10
161.37875505861
20
12.865972184529
30
0
41
1
10
161.864600788035
20
12.8394628946327
30
0
41
1
10
162.107483452033
20
12.8252833629742
30
0
41
1
10
162.593227281686
20
12.7950838880696
30
0
41
1
10
162.83614166595
20
12.7790883482625
30
0
41
1
10
163.322181026492
20
12.7453832103789
30
0
41
1
10
163.565285698286
20
12.7276642725285
30
0
41
1
10
164.294826031676
20
12.6719146022737
30
0
41
1
10
164.78148410273
20
12.6312911221611
30
0
41
1
10
165.268386954554
20
12.5872056253814
30
0
0
SPLINE
5
CD
100
AcDbEntity
8
1
62
256
6
ByLayer
370
18
48
1
60
0
100
AcDbSpline
70
4
71
3
72
42
73
38
40
0
40
0
40
0
40
0
40
0.0859032744326844
40
0.0859032744326844
40
0.171806548865369
40
0.171806548865369
40
0.257709823298053
40
0.257709823298053
40
0.300661460514395
40
0.300661460514395
40
0.322137279122567
40
0.322137279122567
40
0.343613097730739
40
0.343613097730739
40
0.429516372163426
40
0.429516372163426
40
0.515419646596114
40
0.515419646596114
40
0.601322921028801
40
0.601322921028801
40
0.644274558245144
40
0.644274558245144
40
0.665750376853317
40
0.665750376853317
40
0.687226195461489
40
0.687226195461489
40
0.773129469894173
40
0.773129469894173
40
0.859032744326858
40
0.859032744326858
40
0.944936018759542
40
0.944936018759542
40
0.966411837367714
40
0.966411837367714
40
0.987887655975885
40
0.987887655975885
40
1
40
1
40
1
40
1
41
1
10
19.938149153363
20
-9.94727523745647
30
0
41
1
10
20.6349705967933
20
-10.105718944008
30
0
41
1
10
21.3317714012983
20
-10.2573505289197
30
0
41
1
10
22.7250481747654
20
-10.5478800704993
30
0
41
1
10
23.4215232680669
20
-10.6867777343721
30
0
41
1
10
24.8138961384483
20
-10.9523616539053
30
0
41
1
10
25.5097912392173
20
-11.0790518379727
30
0
41
1
10
26.5530030275565
20
-11.2601186019959
30
0
41
1
10
26.9006363176417
20
-11.3189754821058
30
0
41
1
10
27.4219142375813
20
-11.4050060845446
30
0
41
1
10
27.5956412422152
20
-11.4333115789046
30
0
41
1
10
27.9430536469035
20
-11.4891452839954
30
0
41
1
10
28.1167508639623
20
-11.516658185822
30
0
41
1
10
28.9854512851102
20
-11.6518925798491
30
0
41
1
10
29.6809055126748
20
-11.7528824928602
30
0
41
1
10
31.0724066758001
20
-11.9411918438475
30
0
41
1
10
31.7684657451127
20
-12.0284946063782
30
0
41
1
10
33.1609554947763
20
-12.1896494232476
30
0
41
1
10
33.8573787121553
20
-12.263508120584
30
0
41
1
10
34.9021185376446
20
-12.3641755518128
30
0
41
1
10
35.2503814980718
20
-12.3960430125358
30
0
41
1
10
35.7727989899229
20
-12.4412743035822
30
0
41
1
10
35.946948041092
20
-12.4559180048624
30
0
41
1
10
36.2953912226963
20
-12.4842559623538
30
0
41
1
10
36.4696820736555
20
-12.4979572918724
30
0
41
1
10
37.3409969522945
20
-12.5641178614991
30
0
41
1
10
38.0379406035459
20
-12.6095887308747
30
0
41
1
10
39.4312912044545
20
-12.6860946476059
30
0
41
1
10
40.1277108990938
20
-12.7171214453526
30
0
41
1
10
41.5197857459219
20
-12.7648341662381
30
0
41
1
10
42.2154335059155
20
-12.7815207281355
30
0
41
1
10
43.0843753783747
20
-12.7932863412737
30
0
41
1
10
43.258133099526
20
-12.7951841075046
30
0
41
1
10
43.6055846872013
20
-12.7980629077841
30
0
41
1
10
43.7792756146463
20
-12.7990432016641
30
0
41
1
10
44.0509770375227
20
-12.7998541729827
30
0
41
1
10
44.1489657939211
20
-12.8000001172724
30
0
41
1
10
44.2469634978161
20
-12.8000001424983
30
0
0
SPLINE
5
CE
100
AcDbEntity
8
1
62
256
6
ByLayer
370
18
48
1
60
0
100
AcDbSpline
70
4
71
3
72
43
73
39
40
0
40
0
40
0
40
0
40
0.020742474065937
40
0.020742474065937
40
0.0429983269280761
40
0.0429983269280761
40
0.0652541797902145
40
0.109765885514494
40
0.109765885514494
40
0.19878929696305
40
0.19878929696305
40
0.243301002687329
40
0.243301002687329
40
0.287812708411607
40
0.287812708411607
40
0.332324414135886
40
0.332324414135886
40
0.354580266998023
40
0.354580266998023
40
0.37683611986016
40
0.37683611986016
40
0.465859531308707
40
0.465859531308707
40
0.554882942757254
40
0.554882942757254
40
0.6439063542058
40
0.6439063542058
40
0.688418059930076
40
0.688418059930076
40
0.710673912792213
40
0.710673912792213
40
0.73292976565435
40
0.73292976565435
40
0.8219531771029
40
0.8219531771029
40
0.91097658855145
40
0.91097658855145
40
1
40
1
40
1
40
1
41
1
10
130.145113172562
20
9.47961298697379
30
0
41
1
10
130.307399110227
20
9.5188907156209
30
0
41
1
10
130.469661280651
20
9.5579104832122
30
0
41
1
10
130.805979452298
20
9.63825021055456
30
0
41
1
10
130.98004921177
20
9.67949826628035
30
0
41
1
10
131.328275825475
20
9.76113762358199
30
0
41
1
10
131.85071103812
20
9.88237727638213
30
0
41
1
10
132.373399980914
20
10.0000423049366
30
0
41
1
10
133.419036979468
20
10.2307884312817
30
0
41
1
10
134.116473818653
20
10.3785136328618
30
0
41
1
10
135.162962454143
20
10.5912952257335
30
0
41
1
10
135.511861337146
20
10.6607551249411
30
0
41
1
10
136.209167334479
20
10.7966689121626
30
0
41
1
10
136.557644901668
20
10.8631375935709
30
0
41
1
10
137.254219253745
20
10.9931254671076
30
0
41
1
10
137.602316448823
20
11.0566439465117
30
0
41
1
10
138.124159703485
20
11.1497086471428
30
0
41
1
10
138.298055468393
20
11.1803634047536
30
0
41
1
10
138.645750533021
20
11.2409234648095
30
0
41
1
10
138.819556058415
20
11.2708194061938
30
0
41
1
10
139.688679008668
20
11.4179717818923
30
0
41
1
10
140.384119379515
20
11.5284941273581
30
0
41
1
10
141.774900525588
20
11.7359655365529
30
0
41
1
10
142.470252566248
20
11.8328969774628
30
0
41
1
10
143.860637751838
20
12.0134780697852
30
0
41
1
10
144.555663724388
20
12.09713483899
30
0
41
1
10
145.597778608683
20
12.2126873786005
30
0
41
1
10
145.945080778308
20
12.2495460663402
30
0
41
1
10
146.465914881674
20
12.3023234006406
30
0
41
1
10
146.63950395926
20
12.3194983228579
30
0
41
1
10
146.986769676837
20
12.3529110465154
30
0
41
1
10
147.160444549019
20
12.3691510920669
30
0
41
1
10
148.029011255103
20
12.4480492794314
30
0
41
1
10
148.724470107865
20
12.5038223415506
30
0
41
1
10
150.116244722329
20
12.6011201208295
30
0
41
1
10
150.812573655431
20
12.6426349946004
30
0
41
1
10
152.205867249487
20
12.7114629487901
30
0
41
1
10
152.902824412709
20
12.7387781528025
30
0
41
1
10
153.6
20
12.7588650755352
30
0
0
SPLINE
5
CF
100
AcDbEntity
8
1
62
256
6
ByLayer
370
18
48
1
60
0
100
AcDbSpline
70
4
71
4
72
10
73
5
40
0
40
0
40
0
40
0
40
0
40
1
40
1
40
1
40
1
40
1
41
0.995794969403424
10
14.3959993862785
20
-9.14403913142943
30
0
41
0.99600456589506
10
14.3516387664197
20
-9.43126312049827
30
0
41
0.996312667152516
10
14.3120603780098
20
-9.72373891631885
30
0
41
0.996703502031971
10
14.2774311230129
20
-10.0200136124874
30
0
41
0.997137491136723
10
14.2477836409638
20
-10.3184999977943
30
0
0
SPLINE
5
D0
100
AcDbEntity
8
1
62
256
6
ByLayer
370
18
48
1
60
0
100
AcDbSpline
70
4
71
3
72
73
73
69
40
0
40
0
40
0
40
0
40
0.0437675066910181
40
0.0437675066910181
40
0.0875350133820362
40
0.0875350133820362
40
0.109418766727545
40
0.109418766727545
40
0.131302520073054
40
0.131302520073054
40
0.175070026764071
40
0.175070026764071
40
0.218837533455088
40
0.218837533455088
40
0.240721286800596
40
0.25166316347335
40
0.25166316347335
40
0.262605040146104
40
0.262605040146104
40
0.306372546837123
40
0.306372546837123
40
0.328256300182632
40
0.328256300182632
40
0.350140053528141
40
0.350140053528141
40
0.393907560219157
40
0.393907560219157
40
0.415791313564665
40
0.415791313564665
40
0.437675066910172
40
0.437675066910172
40
0.481442573601189
40
0.481442573601189
40
0.503326326946697
40
0.503326326946697
40
0.525210080292206
40
0.525210080292206
40
0.568977586983222
40
0.568977586983222
40
0.579919463655976
40
0.579919463655976
40
0.59086134032873
40
0.612745093674237
40
0.612745093674237
40
0.656512600365251
40
0.656512600365251
40
0.700280107056265
40
0.700280107056265
40
0.722163860401771
40
0.722163860401771
40
0.744047613747277
40
0.744047613747277
40
0.787815120438288
40
0.831582627129299
40
0.831582627129299
40
0.87535013382031
40
0.87535013382031
40
0.886292010493063
40
0.886292010493063
40
0.897233887165817
40
0.897233887165817
40
0.919117640511324
40
0.919117640511324
40
0.962885147202337
40
0.962885147202337
40
0.984768900547845
40
0.984768900547845
40
1
40
1
40
1
40
1
41
1
10
153.6
20
2.26284567900146
30
0
41
1
10
152.872776246771
20
2.51874882290466
30
0
41
1
10
152.146022683482
20
2.77277393451556
30
0
41
1
10
150.693581004392
20
3.27744218589873
30
0
41
1
10
149.967895107229
20
3.5280919843116
30
0
41
1
10
148.880304836523
20
3.90185313859195
30
0
41
1
10
148.517968633941
20
4.02616843938821
30
0
41
1
10
147.793139789732
20
4.27279405136269
30
0
41
1
10
147.430689897532
20
4.39522174096186
30
0
41
1
10
146.34325258008
20
4.75992254324822
30
0
41
1
10
145.618178042983
20
4.99961800039921
30
0
41
1
10
144.167915295812
20
5.47249524387564
30
0
41
1
10
143.442724842727
20
5.70567162865285
30
0
41
1
10
142.354963288384
20
6.05079697631092
30
0
41
1
10
141.811089420691
20
6.22220076995407
30
0
41
1
10
141.267249341779
20
6.39190741591085
30
0
41
1
10
140.904699562623
20
6.50467212338708
30
0
41
1
10
140.723433096818
20
6.56087571738826
30
0
41
1
10
139.816871173835
20
6.84033555305553
30
0
41
1
10
139.090917453023
20
7.05900068546975
30
0
41
1
10
138.001019201444
20
7.379921522541
30
0
41
1
10
137.637558634423
20
7.48571517715686
30
0
41
1
10
136.910330391168
20
7.69498012166264
30
0
41
1
10
136.546733830983
20
7.79840221456254
30
0
41
1
10
135.456208597909
20
8.10503931181165
30
0
41
1
10
134.729461652391
20
8.30465224898254
30
0
41
1
10
133.639876960245
20
8.59705260350751
30
0
41
1
10
133.276785996585
20
8.69337769694687
30
0
41
1
10
132.550739165307
20
8.88356665631224
30
0
41
1
10
132.187660050166
20
8.97717943908319
30
0
41
1
10
131.098074047672
20
9.25324596702887
30
0
41
1
10
130.371299746205
20
9.43109915302929
30
0
41
1
10
129.280654380256
20
9.68885306406375
30
0
41
1
10
128.916984067364
20
9.77327469551471
30
0
41
1
10
128.189841595256
20
9.93905694879089
30
0
41
1
10
127.82634054209
20
10.0204243139922
30
0
41
1
10
126.736076841913
20
10.2599964695975
30
0
41
1
10
126.009554416633
20
10.4136806034775
30
0
41
1
10
125.101914829665
20
10.59829984033
30
0
41
1
10
124.920417648517
20
10.6348561180692
30
0
41
1
10
124.557375828023
20
10.7070626458974
30
0
41
1
10
124.012741125652
20
10.8140139320713
30
0
41
1
10
123.467896287698
20
10.9169203244673
30
0
41
1
10
122.377948229497
20
11.1174127274161
30
0
41
1
10
121.65097191782
20
11.2439876090019
30
0
41
1
10
120.196454368951
20
11.4832006767464
30
0
41
1
10
119.469702416517
20
11.5957057053688
30
0
41
1
10
118.380593465255
20
11.7538981170756
30
0
41
1
10
118.017719792558
20
11.8048676980188
30
0
41
1
10
117.292321215862
20
11.9032798633719
30
0
41
1
10
116.92984393912
20
11.9507655783272
30
0
41
1
10
115.842268730018
20
12.0872281628039
30
0
41
1
10
114.392030216449
20
12.2535119785468
30
0
41
1
10
112.941731193052
20
12.3891839344298
30
0
41
1
10
111.491527329156
20
12.5096739147766
30
0
41
1
10
110.766473459144
20
12.5623296263804
30
0
41
1
10
109.860322291921
20
12.6185901963802
30
0
41
1
10
109.679100374868
20
12.6293636595499
30
0
41
1
10
109.31667595111
20
12.6499486774743
30
0
41
1
10
109.135480088462
20
12.6597624732709
30
0
41
1
10
108.591791570833
20
12.6877007519297
30
0
41
1
10
108.229175152609
20
12.7043162152054
30
0
41
1
10
107.140872591934
20
12.7481922642569
30
0
41
1
10
106.41473431473
20
12.7694909215206
30
0
41
1
10
105.324713679851
20
12.7896159439729
30
0
41
1
10
104.961237990971
20
12.794351833653
30
0
41
1
10
104.344565861173
20
12.7990330568151
30
0
41
1
10
104.091527629189
20
12.7999961319415
30
0
41
1
10
103.838569254394
20
12.8000000211347
30
0
0
SPLINE
5
D1
100
AcDbEntity
8
1
62
256
6
ByLayer
370
18
48
1
60
0
100
AcDbSpline
70
4
71
3
72
10
73
6
40
0
40
0
40
0
40
0
40
0.386503133973384
40
0.386503133973384
40
1
40
1
40
1
40
1
41
1
10
17.7992313833821
20
-9.51549561654207
30
0
41
1
10
17.3419164018438
20
-9.62480158185346
30
0
41
1
10
16.8844947979385
20
-9.73182712319473
30
0
41
1
10
15.7007763767185
20
-10.0028976266299
30
0
41
1
10
14.9743450253023
20
-10.1635181652259
30
0
41
1
10
14.2477836409636
20
-10.318499997795
30
0
0
SPLINE
5
D2
100
AcDbEntity
8
1
62
256
6
ByLayer
370
18
48
1
60
0
100
AcDbSpline
70
4
71
3
72
12
73
8
40
0
40
0
40
0
40
0
40
0.275804958327308
40
0.275804958327308
40
0.551609916654616
40
0.551609916654616
40
1
40
1
40
1
40
1
41
1
10
153.6
20
-12.9620339847037
30
0
41
1
10
153.843267938923
20
-12.9686739247874
30
0
41
1
10
154.086438677661
20
-12.9744142523814
30
0
41
1
10
154.572597596862
20
-12.9840784398884
30
0
41
1
10
154.815619705311
20
-12.987995300737
30
0
41
1
10
155.453865691496
20
-12.9958609948955
30
0
41
1
10
155.849096774282
20
-12.9983109909344
30
0
41
1
10
156.244346689027
20
-12.9983759619379
30
0
0
SPLINE
5
D3
100
AcDbEntity
8
1
62
256
6
ByLayer
370
18
48
1
60
0
100
AcDbSpline
70
4
71
3
72
205
73
201
40
0
40
0
40
0
40
0
40
0.0156250000000013
40
0.0156250000000013
40
0.0312500000000027
40
0.0312500000000027
40
0.046875000000004
40
0.046875000000004
40
0.0546875000000046
40
0.0546875000000046
40
0.0585937500000051
40
0.0585937500000051
40
0.0625000000000056
40
0.0625000000000056
40
0.0781250000000072
40
0.0781250000000072
40
0.0937500000000088
40
0.0937500000000088
40
0.10937500000001
40
0.10937500000001
40
0.117187500000011
40
0.117187500000011
40
0.121093750000012
40
0.121093750000012
40
0.125000000000012
40
0.125000000000012
40
0.140625000000015
40
0.140625000000015
40
0.156250000000018
40
0.156250000000018
40
0.171875000000021
40
0.171875000000021
40
0.175781250000021
40
0.175781250000021
40
0.179687500000022
40
0.179687500000022
40
0.187500000000023
40
0.187500000000023
40
0.203125000000025
40
0.203125000000025
40
0.218750000000027
40
0.218750000000027
40
0.234375000000029
40
0.234375000000029
40
0.238281250000029
40
0.238281250000029
40
0.24218750000003
40
0.24218750000003
40
0.250000000000031
40
0.250000000000031
40
0.265625000000033
40
0.265625000000033
40
0.281250000000036
40
0.281250000000036
40
0.289062500000037
40
0.292968750000037
40
0.292968750000037
40
0.296875000000038
40
0.296875000000038
40
0.312500000000041
40
0.312500000000041
40
0.328125000000043
40
0.328125000000043
40
0.343750000000046
40
0.343750000000046
40
0.351562500000047
40
0.351562500000047
40
0.359375000000048
40
0.359375000000048
40
0.367187500000049
40
0.367187500000049
40
0.37500000000005
40
0.37500000000005
40
0.390625000000052
40
0.390625000000052
40
0.406250000000055
40
0.406250000000055
40
0.414062500000056
40
0.414062500000056
40
0.417968750000056
40
0.417968750000056
40
0.421875000000056
40
0.421875000000056
40
0.437500000000057
40
0.437500000000057
40
0.453125000000057
40
0.453125000000057
40
0.468750000000057
40
0.468750000000057
40
0.472656250000058
40
0.472656250000058
40
0.476562500000058
40
0.476562500000058
40
0.484375000000058
40
0.484375000000058
40
0.488281250000058
40
0.488281250000058
40
0.492187500000058
40
0.492187500000058
40
0.500000000000058
40
0.500000000000058
40
0.515625000000059
40
0.515625000000059
40
0.53125000000006
40
0.53125000000006
40
0.53515625000006
40
0.53515625000006
40
0.53906250000006
40
0.546875000000061
40
0.546875000000061
40
0.562500000000062
40
0.562500000000062
40
0.578125000000063
40
0.578125000000063
40
0.585937500000063
40
0.589843750000063
40
0.589843750000063
40
0.593750000000063
40
0.593750000000063
40
0.609375000000065
40
0.609375000000065
40
0.617187500000066
40
0.617187500000066
40
0.625000000000067
40
0.625000000000067
40
0.640625000000068
40
0.640625000000068
40
0.648437500000069
40
0.648437500000069
40
0.652343750000069
40
0.652343750000069
40
0.656250000000069
40
0.656250000000069
40
0.67187500000007
40
0.67187500000007
40
0.687500000000071
40
0.687500000000071
40
0.703125000000072
40
0.703125000000072
40
0.707031250000072
40
0.707031250000072
40
0.710937500000072
40
0.710937500000072
40
0.718750000000071
40
0.718750000000071
40
0.734375000000068
40
0.734375000000068
40
0.742187500000067
40
0.742187500000067
40
0.750000000000066
40
0.750000000000066
40
0.765625000000063
40
0.765625000000063
40
0.773437500000061
40
0.773437500000061
40
0.78125000000006
40
0.78125000000006
40
0.796875000000057
40
0.796875000000057
40
0.804687500000055
40
0.804687500000055
40
0.812500000000053
40
0.820312500000051
40
0.820312500000051
40
0.82812500000005
40
0.82812500000005
40
0.832031250000049
40
0.832031250000049
40
0.835937500000047
40
0.843750000000045
40
0.843750000000045
40
0.859375000000041
40
0.859375000000041
40
0.867187500000039
40
0.867187500000039
40
0.875000000000037
40
0.875000000000037
40
0.882812500000035
40
0.882812500000035
40
0.886718750000033
40
0.886718750000033
40
0.890625000000032
40
0.890625000000032
40
0.906250000000028
40
0.906250000000028
40
0.921875000000024
40
0.921875000000024
40
0.93750000000002
40
0.93750000000002
40
0.945312500000018
40
0.945312500000018
40
0.949218750000017
40
0.949218750000017
40
0.953125000000015
40
0.953125000000015
40
0.96875000000001
40
0.96875000000001
40
0.984375000000005
40
0.984375000000005
40
1
40
1
40
1
40
1
41
1
10
19.938149153363
20
9.94727523745647
30
0
41
1
10
20.6349705967933
20
10.105718944008
30
0
41
1
10
21.3317714012982
20
10.2573505289197
30
0
41
1
10
22.7250481747653
20
10.5478800704993
30
0
41
1
10
23.4215232680668
20
10.6867777343721
30
0
41
1
10
24.8138961384481
20
10.9523616539053
30
0
41
1
10
25.5097912392171
20
11.0790518379727
30
0
41
1
10
26.5530030275563
20
11.2601186019959
30
0
41
1
10
26.9006363176416
20
11.3189754821058
30
0
41
1
10
27.421914237581
20
11.4050060845446
30
0
41
1
10
27.5956412422149
20
11.4333115789046
30
0
41
1
10
27.9430536469033
20
11.4891452839954
30
0
41
1
10
28.116750863962
20
11.516658185822
30
0
41
1
10
28.98545128511
20
11.6518925798491
30
0
41
1
10
29.6809055126745
20
11.7528824928602
30
0
41
1
10
31.0724066757998
20
11.9411918438475
30
0
41
1
10
31.7684657451124
20
12.0284946063782
30
0
41
1
10
33.1609554947759
20
12.1896494232475
30
0
41
1
10
33.8573787121548
20
12.263508120584
30
0
41
1
10
34.9021185376442
20
12.3641755518128
30
0
41
1
10
35.2503814980714
20
12.3960430125358
30
0
41
1
10
35.7727989899224
20
12.4412743035822
30
0
41
1
10
35.9469480410914
20
12.4559180048624
30
0
41
1
10
36.2953912226957
20
12.4842559623538
30
0
41
1
10
36.469682073655
20
12.4979572918723
30
0
41
1
10
37.340996952294
20
12.564117861499
30
0
41
1
10
38.0379406035453
20
12.6095887308747
30
0
41
1
10
39.4312912044539
20
12.6860946476058
30
0
41
1
10
40.1277108990932
20
12.7171214453526
30
0
41
1
10
41.5197857459212
20
12.7648341662381
30
0
41
1
10
42.2154335059149
20
12.7815207281355
30
0
41
1
10
43.084375378374
20
12.7932863412737
30
0
41
1
10
43.2581330995253
20
12.7951841075046
30
0
41
1
10
43.6055846872005
20
12.7980629077841
30
0
41
1
10
43.7792756146455
20
12.7990432016641
30
0
41
1
10
44.3004423010008
20
12.8005987740654
30
0
41
1
10
44.6480070032136
20
12.7997935693964
30
0
41
1
10
45.6909795973373
20
12.7919292987472
30
0
41
1
10
46.3866545317068
20
12.7794303858521
30
0
41
1
10
47.7784339652918
20
12.7400542384347
30
0
41
1
10
48.4745472329628
20
12.7131783113824
30
0
41
1
10
49.8669606698328
20
12.6448705320662
30
0
41
1
10
50.5632565059441
20
12.6034350848562
30
0
41
1
10
51.4336341677679
20
12.5422579891661
30
0
41
1
10
51.6077021721955
20
12.5295474777879
30
0
41
1
10
51.9559366396958
20
12.5032392307388
30
0
41
1
10
52.1301147591015
20
12.4896493402751
30
0
41
1
10
52.6528275405807
20
12.4475798072113
30
0
41
1
10
53.0015603747657
20
12.4177962433949
30
0
41
1
10
54.0473354691833
20
12.3233428386231
30
0
41
1
10
54.7442942474935
20
12.2535474826915
30
0
41
1
10
56.1375235508439
20
12.1002789822253
30
0
41
1
10
56.8337955433397
20
12.0168072843458
30
0
41
1
10
57.8774908549654
20
11.8810933549352
30
0
41
1
10
58.3991610133608
20
11.8106069216007
30
0
41
1
10
58.9205387773794
20
11.7361121708475
30
0
41
1
10
59.268056371721
20
11.6855497176185
30
0
41
1
10
59.4417725187288
20
11.6598082928602
30
0
41
1
10
60.3103584980556
20
11.5290451917043
30
0
41
1
10
61.0056466893441
20
11.4183500444807
30
0
41
1
10
62.3967596591536
20
11.184732064824
30
0
41
1
10
63.0925722346708
20
11.0617914264446
30
0
41
1
10
64.4844670837734
20
10.8033636201049
30
0
41
1
10
65.1805440742089
20
10.6678689210276
30
0
41
1
10
66.2246747693868
20
10.4547866141859
30
0
41
1
10
66.572722168348
20
10.3821189265425
30
0
41
1
10
67.2688055044639
20
10.2334257236723
30
0
41
1
10
67.6167955011676
20
10.1573136023585
30
0
41
1
10
68.3133446248904
20
10.0027210383883
30
0
41
1
10
68.6618497035962
20
9.92415423496792
30
0
41
1
10
69.359265572966
20
9.76441618869384
30
0
41
1
10
69.7079826406967
20
9.68328642853751
30
0
41
1
10
70.7537980371237
20
9.43611998956652
30
0
41
1
10
71.4506978944443
20
9.2662900674772
30
0
41
1
10
72.8436347466426
20
8.91609774886788
30
0
41
1
10
73.5396639441286
20
8.73571928765816
30
0
41
1
10
74.582878106613
20
8.45678708750819
30
0
41
1
10
74.93046608995
20
8.36238864277172
30
0
41
1
10
75.4516698099627
20
8.21873922873363
30
0
41
1
10
75.6253950236894
20
8.1705576527024
30
0
41
1
10
75.9729164407697
20
8.07379500840713
30
0
41
1
10
76.146701361455
20
8.02518977174142
30
0
41
1
10
77.0157299700209
20
7.7810171230131
30
0
41
1
10
77.7112745867936
20
7.5819943495423
30
0
41
1
10
79.1026813553359
20
7.17598439502694
30
0
41
1
10
79.798555729051
20
6.96902418500849
30
0
41
1
10
81.1903895528916
20
6.54656009942588
30
0
41
1
10
81.8863421980276
20
6.33103905117378
30
0
41
1
10
82.7562107122682
20
6.05586958273582
30
0
41
1
10
82.9301789963018
20
6.00054228351576
30
0
41
1
10
83.2781161390074
20
5.88932528217882
30
0
41
1
10
83.4520927853287
20
5.83345479551033
30
0
41
1
10
83.9742246982291
20
5.66551103707189
30
0
41
1
10
84.3225389073753
20
5.5529983154866
30
0
41
1
10
84.8453075267253
20
5.38331570296566
30
0
41
1
10
85.0196133248247
20
5.32660254897448
30
0
41
1
10
85.3683176297179
20
5.21285682668255
30
0
41
1
10
85.5427337584409
20
5.15581836858129
30
0
41
1
10
86.0658737779517
20
4.98428850450057
30
0
41
1
10
86.4145490538849
20
4.86936320240847
30
0
41
1
10
87.4602774866715
20
4.52276237676213
30
0
41
1
10
88.1570363034294
20
4.28927200525362
30
0
41
1
10
89.5495025804699
20
3.81672924268022
30
0
41
1
10
90.2452054711056
20
3.57766406377087
30
0
41
1
10
91.1140595076011
20
3.27500231826812
30
0
41
1
10
91.2877929065252
20
3.21428176043168
30
0
41
1
10
91.6353168288465
20
3.09282471615003
30
0
41
1
10
92.1566718223397
20
2.91057040322053
30
0
41
1
10
92.6782028465358
20
2.72803098144826
30
0
41
1
10
93.7214214771034
20
2.36236916631933
30
0
41
1
10
94.4171054530486
20
2.11780817990791
30
0
41
1
10
95.8086375155486
20
1.62645323063387
30
0
41
1
10
96.5044848450224
20
1.37965724221274
30
0
41
1
10
97.5481854274371
20
1.0072239448763
30
0
41
1
10
98.0700194182102
20
0.8204503996391
30
0
41
1
10
98.5918056440866
20
0.63276620102701
30
0
41
1
10
98.9396503415827
20
0.507433478735834
30
0
41
1
10
99.1135594971284
20
0.444642685926169
30
0
41
1
10
99.9833479368859
20
0.130943902937645
30
0
41
1
10
100.680061898004
20
-0.118888690547436
30
0
41
1
10
101.726141693244
20
-0.49281105099243
30
0
41
1
10
102.07505595939
20
-0.617325365003865
30
0
41
1
10
102.772519584464
20
-0.865912387796612
30
0
41
1
10
103.12114598261
20
-0.990011325815772
30
0
41
1
10
104.166663373892
20
-1.36185784824795
30
0
41
1
10
104.863187448246
20
-1.60917232098092
30
0
41
1
10
105.907058786571
20
-1.97975808731678
30
0
41
1
10
106.254864590276
20
-2.10321843479534
30
0
41
1
10
106.776329578355
20
-2.28834491026581
30
0
41
1
10
106.95010173495
20
-2.35006758658588
30
0
41
1
10
107.29764729538
20
-2.47326128182249
30
0
41
1
10
107.471437019057
20
-2.53468720061076
30
0
41
1
10
108.340488483717
20
-2.84091711647983
30
0
41
1
10
109.03601545897
20
-3.08314623238047
30
0
41
1
10
110.427278667767
20
-3.5631655734795
30
0
41
1
10
111.123028176215
20
-3.80091881943497
30
0
41
1
10
112.514512647505
20
-4.27258834190729
30
0
41
1
10
113.210239768217
20
-4.50652538909213
30
0
41
1
10
114.079748681002
20
-4.79687725844067
30
0
41
1
10
114.253643282735
20
-4.85484312692822
30
0
41
1
10
114.601415762728
20
-4.97057026764398
30
0
41
1
10
114.775285668544
20
-5.02835228927705
30
0
41
1
10
115.296949642133
20
-5.2011817449397
30
0
41
1
10
115.644907275029
20
-5.31542788654036
30
0
41
1
10
116.689396639404
20
-5.65507941480217
30
0
41
1
10
117.386467566485
20
-5.8776020378684
30
0
41
1
10
118.432953257771
20
-6.20616079125537
30
0
41
1
10
118.781831736766
20
-6.31477136256478
30
0
41
1
10
119.479371839565
20
-6.53016150920669
30
0
41
1
10
119.82807673222
20
-6.63695647263404
30
0
41
1
10
120.873944882652
20
-6.95475430611481
30
0
41
1
10
121.57085685031
20
-7.16318624847605
30
0
41
1
10
122.615576497343
20
-7.4709054245842
30
0
41
1
10
122.963653105883
20
-7.57277644847193
30
0
41
1
10
123.660163740288
20
-7.77356657187383
30
0
41
1
10
124.008552932263
20
-7.87259198047821
30
0
41
1
10
125.054039689712
20
-8.16578275818
30
0
41
1
10
125.751446422004
20
-8.35608985128817
30
0
41
1
10
126.797976873495
20
-8.63431342477193
30
0
41
1
10
127.146867658315
20
-8.7258369378462
30
0
41
1
10
127.844399535134
20
-8.90643546658856
30
0
41
1
10
128.54176730507
20
-9.08460909955625
30
0
41
1
10
129.23874026218
20
-9.25803864949583
30
0
41
1
10
129.935491501828
20
-9.4291172772221
30
0
41
1
10
130.283746499681
20
-9.51349913684066
30
0
41
1
10
130.805979452294
20
-9.63825021055382
30
0
41
1
10
130.980049211767
20
-9.67949826627961
30
0
41
1
10
131.328275825472
20
-9.76113762358128
30
0
41
1
10
131.850711038116
20
-9.88237727638139
30
0
41
1
10
132.373399980911
20
-10.0000423049359
30
0
41
1
10
133.419036979464
20
-10.230788431281
30
0
41
1
10
134.11647381865
20
-10.3785136328612
30
0
41
1
10
135.16296245414
20
-10.5912952257329
30
0
41
1
10
135.511861337142
20
-10.6607551249405
30
0
41
1
10
136.209167334476
20
-10.796668912162
30
0
41
1
10
136.557644901665
20
-10.8631375935703
30
0
41
1
10
137.254219253741
20
-10.993125467107
30
0
41
1
10
137.60231644882
20
-11.0566439465111
30
0
41
1
10
138.124159703481
20
-11.1497086471422
30
0
41
1
10
138.298055468389
20
-11.180363404753
30
0
41
1
10
138.645750533017
20
-11.240923464809
30
0
41
1
10
138.819556058412
20
-11.2708194061932
30
0
41
1
10
139.688679008665
20
-11.4179717818918
30
0
41
1
10
140.384119379512
20
-11.5284941273576
30
0
41
1
10
141.774900525584
20
-11.7359655365525
30
0
41
1
10
142.470252566244
20
-11.8328969774623
30
0
41
1
10
143.860637751835
20
-12.0134780697847
30
0
41
1
10
144.555663724384
20
-12.0971348389895
30
0
41
1
10
145.597778608679
20
-12.2126873786001
30
0
41
1
10
145.945080778304
20
-12.2495460663398
30
0
41
1
10
146.465914881671
20
-12.3023234006403
30
0
41
1
10
146.639503959256
20
-12.3194983228575
30
0
41
1
10
146.986769676833
20
-12.352911046515
30
0
41
1
10
147.160444549015
20
-12.3691510920666
30
0
41
1
10
148.029011255099
20
-12.4480492794311
30
0
41
1
10
148.724470107861
20
-12.5038223415503
30
0
41
1
10
150.116244722325
20
-12.6011201208293
30
0
41
1
10
150.812573655427
20
-12.6426349946001
30
0
41
1
10
152.205867249483
20
-12.7114629487899
30
0
41
1
10
152.902824412709
20
-12.7387781528025
30
0
41
1
10
153.6
20
-12.7588650755352
30
0
0
SPLINE
5
D4
100
AcDbEntity
8
1
62
256
6
ByLayer
370
18
48
1
60
0
100
AcDbSpline
70
4
71
4
72
10
73
5
40
0
40
0
40
0
40
0
40
0
40
1
40
1
40
1
40
1
40
1
41
0.997137491136723
10
19.9381491533629
20
9.94727523745586
30
0
41
0.996783606061772
10
19.9139758316258
20
9.70705588418328
30
0
41
0.996458414925414
10
19.8864902195299
20
9.46873591388195
30
0
41
0.996183377219309
10
19.855709419421
20
9.23317004748986
30
0
41
0.995969426487445
10
19.8217100281894
20
9.00114838998872
30
0
0
SPLINE
5
D5
100
AcDbEntity
8
1
62
256
6
ByLayer
370
18
48
1
60
0
100
AcDbSpline
70
4
71
3
72
168
73
164
40
0
40
0
40
0
40
0
40
0.0043021627424935
40
0.0043021627424935
40
0.0136955385656781
40
0.0136955385656781
40
0.0230889143888627
40
0.0230889143888627
40
0.0418756660352312
40
0.0418756660352312
40
0.0465723539468238
40
0.0465723539468238
40
0.0512690418584164
40
0.0606624176816022
40
0.0606624176816022
40
0.0794491693279733
40
0.0794491693279733
40
0.0982359209743444
40
0.0982359209743444
40
0.10762929679753
40
0.10762929679753
40
0.117022672620715
40
0.117022672620715
40
0.135809424267086
40
0.154596175913456
40
0.154596175913456
40
0.173382927559827
40
0.173382927559827
40
0.178079615471419
40
0.178079615471419
40
0.182776303383011
40
0.182776303383011
40
0.192169679206195
40
0.192169679206195
40
0.210956430852564
40
0.210956430852564
40
0.220349806675748
40
0.220349806675748
40
0.229743182498932
40
0.229743182498932
40
0.248529934145299
40
0.248529934145299
40
0.253226622056891
40
0.253226622056891
40
0.257923309968483
40
0.267316685791667
40
0.267316685791667
40
0.286103437438035
40
0.286103437438035
40
0.304890189084402
40
0.304890189084402
40
0.314283564907586
40
0.314283564907586
40
0.318980252819179
40
0.318980252819179
40
0.323676940730771
40
0.323676940730771
40
0.342463692377139
40
0.361250444023507
40
0.361250444023507
40
0.370643819846691
40
0.370643819846691
40
0.380037195669874
40
0.380037195669874
40
0.384733883581467
40
0.384733883581467
40
0.389430571493059
40
0.389430571493059
40
0.398823947316244
40
0.398823947316244
40
0.417610698962612
40
0.417610698962612
40
0.436397450608981
40
0.436397450608981
40
0.445790826432165
40
0.450487514343757
40
0.450487514343757
40
0.455184202255349
40
0.455184202255349
40
0.473970953901719
40
0.473970953901719
40
0.492757705548088
40
0.492757705548088
40
0.502151081371272
40
0.502151081371272
40
0.506847769282864
40
0.506847769282864
40
0.511544457194456
40
0.511544457194456
40
0.52093783301764
40
0.52093783301764
40
0.525634520929232
40
0.525634520929232
40
0.530331208840824
40
0.54911796048719
40
0.54911796048719
40
0.567904712133557
40
0.567904712133557
40
0.586691463779924
40
0.586691463779924
40
0.596084839603107
40
0.596084839603107
40
0.605478215426291
40
0.605478215426291
40
0.624264967072657
40
0.624264967072657
40
0.643051718719024
40
0.643051718719024
40
0.647748406630616
40
0.647748406630616
40
0.652445094542207
40
0.652445094542207
40
0.657141782453799
40
0.657141782453799
40
0.661838470365391
40
0.661838470365391
40
0.680625222011758
40
0.680625222011758
40
0.699411973658125
40
0.699411973658125
40
0.718198725304492
40
0.718198725304492
40
0.727592101127675
40
0.727592101127675
40
0.736985476950859
40
0.736985476950859
40
0.755772228597225
40
0.755772228597225
40
0.774558980243592
40
0.774558980243592
40
0.783952356066775
40
0.783952356066775
40
0.793345731889959
40
0.793345731889959
40
0.798042419801551
40
0.798042419801551
40
0.802739107713142
40
0.812132483536326
40
0.812132483536326
40
0.830919235182693
40
0.830919235182693
40
0.84970598682906
40
0.84970598682906
40
0.859099362652243
40
0.859099362652243
40
0.868492738475427
40
0.868492738475427
40
0.887279490121794
40
0.906066241768161
40
0.906066241768161
40
0.924852993414527
40
0.924852993414527
40
0.929549681326119
40
0.929549681326119
40
0.934246369237711
40
0.934246369237711
40
0.943639745060896
40
0.943639745060896
40
0.962426496707264
40
0.962426496707264
40
0.981213248353632
40
0.981213248353632
40
1
40
1
40
1
40
1
41
1
10
130.14366653361
20
-9.48393515713551
30
0
41
1
10
129.977196040741
20
-9.52391874493233
30
0
41
1
10
129.810707897117
20
-9.56358469425803
30
0
41
1
10
129.280654380256
20
-9.68885306406372
30
0
41
1
10
128.916984067364
20
-9.77327469551466
30
0
41
1
10
128.189841595257
20
-9.93905694879084
30
0
41
1
10
127.82634054209
20
-10.0204243139921
30
0
41
1
10
126.736076841913
20
-10.2599964695975
30
0
41
1
10
126.009554416634
20
-10.4136806034775
30
0
41
1
10
125.101914829665
20
-10.5982998403299
30
0
41
1
10
124.920417648517
20
-10.6348561180692
30
0
41
1
10
124.557375828023
20
-10.7070626458974
30
0
41
1
10
124.012741125652
20
-10.8140139320713
30
0
41
1
10
123.467896287698
20
-10.9169203244672
30
0
41
1
10
122.377948229497
20
-11.1174127274161
30
0
41
1
10
121.65097191782
20
-11.2439876090019
30
0
41
1
10
120.196454368951
20
-11.4832006767464
30
0
41
1
10
119.469702416517
20
-11.5957057053688
30
0
41
1
10
118.380593465255
20
-11.7538981170755
30
0
41
1
10
118.017719792558
20
-11.8048676980188
30
0
41
1
10
117.292321215863
20
-11.9032798633719
30
0
41
1
10
116.929843939121
20
-11.9507655783272
30
0
41
1
10
115.842268730019
20
-12.0872281628039
30
0
41
1
10
114.392030529482
20
-12.253512413525
30
0
41
1
10
112.941731193052
20
-12.3891839344298
30
0
41
1
10
111.491527329156
20
-12.5096739147766
30
0
41
1
10
110.766473459144
20
-12.5623296263804
30
0
41
1
10
109.860322291921
20
-12.6185901963802
30
0
41
1
10
109.679100374868
20
-12.6293636595499
30
0
41
1
10
109.31667595111
20
-12.6499486774743
30
0
41
1
10
109.135480088462
20
-12.6597624732709
30
0
41
1
10
108.591791570833
20
-12.6877007519297
30
0
41
1
10
108.229175152609
20
-12.7043162152054
30
0
41
1
10
107.140872591933
20
-12.7481922642569
30
0
41
1
10
106.414734314731
20
-12.7694909215206
30
0
41
1
10
105.324713679851
20
-12.7896159439729
30
0
41
1
10
104.961237990971
20
-12.794351833653
30
0
41
1
10
104.234030430315
20
-12.7998721429261
30
0
41
1
10
103.870488822702
20
-12.8006546739851
30
0
41
1
10
102.780493102415
20
-12.7970587852462
30
0
41
1
10
102.054513255094
20
-12.7867437458057
30
0
41
1
10
101.147934910115
20
-12.7638054411493
30
0
41
1
10
100.966646339737
20
-12.7587180243463
30
0
41
1
10
100.604047527264
20
-12.7475644108471
30
0
41
1
10
100.060144100748
20
-12.7293605936718
30
0
41
1
10
99.5162303334934
20
-12.7067625108529
30
0
41
1
10
98.4284096365609
20
-12.6557522952322
30
0
41
1
10
97.7032042076722
20
-12.6140016235339
30
0
41
1
10
96.2529305308666
20
-12.5150572760558
30
0
41
1
10
95.527859931897
20
-12.45786604917
30
0
41
1
10
94.4404761702079
20
-12.3603188199211
30
0
41
1
10
94.078052097109
20
-12.3258407377155
30
0
41
1
10
93.5344882901617
20
-12.2711362209395
30
0
41
1
10
93.3533198662645
20
-12.2523967997533
30
0
41
1
10
92.9909331322798
20
-12.2139779294083
30
0
41
1
10
92.8097039906747
20
-12.1943081010338
30
0
41
1
10
91.9033742198868
20
-12.0936737748841
30
0
41
1
10
90.4520849538161
20
-11.9180399337557
30
0
41
1
10
88.9987147813798
20
-11.713295322655
30
0
41
1
10
87.9079988868777
20
-11.5486748930093
30
0
41
1
10
87.5444542004691
20
-11.4919761319086
30
0
41
1
10
86.8178530425176
20
-11.3749521178962
30
0
41
1
10
86.4547334515536
20
-11.3146175890482
30
0
41
1
10
85.9103430761981
20
-11.2213415001044
30
0
41
1
10
85.7289301825951
20
-11.1897836153123
30
0
41
1
10
85.3661925728185
20
-11.125750211326
30
0
41
1
10
85.1848592288341
20
-11.0932863115277
30
0
41
1
10
84.6408331649374
20
-10.9947443311252
30
0
41
1
10
84.2781516706344
20
-10.9274650971232
30
0
41
1
10
83.190131371974
20
-10.7209011756273
30
0
41
1
10
82.4648172384445
20
-10.5768959827246
30
0
41
1
10
81.014369391578
20
-10.2762477921522
30
0
41
1
10
80.2892338227364
20
-10.1196083905121
30
0
41
1
10
79.2017734159494
20
-9.87494696046963
30
0
41
1
10
78.6581051802633
20
-9.75018601697678
30
0
41
1
10
78.1145538438119
20
-9.62170716519563
30
0
41
1
10
77.7522151370638
20
-9.53521821827331
30
0
41
1
10
77.5710677258398
20
-9.49154112243514
30
0
41
1
10
76.6652489365408
20
-9.27134669941614
30
0
41
1
10
75.9400542835566
20
-9.08994577615778
30
0
41
1
10
74.4886510408242
20
-8.7167178952788
30
0
41
1
10
73.7624514081922
20
-8.52487408025382
30
0
41
1
10
72.6724965056144
20
-8.22907866013037
30
0
41
1
10
72.3090687490136
20
-8.12914080357578
30
0
41
1
10
71.7637764648161
20
-7.9771822289467
30
0
41
1
10
71.5819806681768
20
-7.92618520053128
30
0
41
1
10
71.2185306802659
20
-7.82355163373205
30
0
41
1
10
71.0368532513795
20
-7.77190872556187
30
0
41
1
10
70.4919678787192
20
-7.61599007348906
30
0
41
1
10
70.1289099004463
20
-7.5107175436809
30
0
41
1
10
69.5846252583499
20
-7.35079804589915
30
0
41
1
10
69.4032404559076
20
-7.29717234089762
30
0
41
1
10
69.040459632506
20
-7.18951324081797
30
0
41
1
10
68.133523451218
20
-6.91924348315058
30
0
41
1
10
67.2266781769794
20
-6.64338155655196
30
0
41
1
10
65.775950952348
20
-6.1946863534227
30
0
41
1
10
65.0506994971382
20
-5.96668189882396
30
0
41
1
10
63.6005520298951
20
-5.50303445034996
30
0
41
1
10
62.8756585263863
20
-5.26738572620971
30
0
41
1
10
61.788719724418
20
-4.90775820101538
30
0
41
1
10
61.4264969481542
20
-4.78679195373016
30
0
41
1
10
60.7016965919539
20
-4.5440760708706
30
0
41
1
10
60.3391702244053
20
-4.42219524229137
30
0
41
1
10
59.2512337651141
20
-4.05494892618992
30
0
41
1
10
58.5254671020852
20
-3.80798101170089
30
0
41
1
10
57.0731042662215
20
-3.30947757070146
30
0
41
1
10
56.3465057531752
20
-3.05794894001323
30
0
41
1
10
55.4378258694255
20
-2.74039918486113
30
0
41
1
10
55.2560511588383
20
-2.67672559069942
30
0
41
1
10
54.8926451490169
20
-2.54911931370981
30
0
41
1
10
54.7109947628203
20
-2.48517998658977
30
0
41
1
10
54.3478022270803
20
-2.35702055895499
30
0
41
1
10
54.1662606643075
20
-2.2927987978232
30
0
41
1
10
53.8032864396051
20
-2.16407274474514
30
0
41
1
10
53.621851531995
20
-2.09957482774999
30
0
41
1
10
52.7146768472316
20
-1.77714964935674
30
0
41
1
10
51.9890470652777
20
-1.5191026114729
30
0
41
1
10
50.5381038087007
20
-1.00251437129981
30
0
41
1
10
49.8127909633189
20
-0.743971388296131
30
0
41
1
10
48.3626044618222
20
-0.226042562384919
30
0
41
1
10
47.6377303115866
20
0.0333419207221652
30
0
41
1
10
46.5508768519402
20
0.423409292213592
30
0
41
1
10
46.1886893342278
20
0.553654967769916
30
0
41
1
10
45.4643914748292
20
0.814263093427087
30
0
41
1
10
45.102156485798
20
0.944274835148008
30
0
41
1
10
44.0150910981773
20
1.33314693285959
30
0
41
1
10
43.2899507114115
20
1.5909862772358
30
0
41
1
10
41.8389307014018
20
2.1041914207872
30
0
41
1
10
41.1130502050734
20
2.3595547829604
30
0
41
1
10
40.0237718551795
20
2.74101466709868
30
0
41
1
10
39.6606035263355
20
2.86790574064506
30
0
41
1
10
38.9341352267659
20
3.12121704531052
30
0
41
1
10
38.5707966766894
20
3.24765079434186
30
0
41
1
10
38.0258300680914
20
3.43694240936512
30
0
41
1
10
37.8442187150006
20
3.49997085961587
30
0
41
1
10
37.4809744292031
20
3.62559286035946
30
0
41
1
10
36.936088047257
20
3.81340782774697
30
0
41
1
10
36.3911468454813
20
3.99939293258163
30
0
41
1
10
35.3012118347594
20
4.36899841327036
30
0
41
1
10
34.5745181713437
20
4.61225166676084
30
0
41
1
10
33.1211120058591
20
5.09281778913711
30
0
41
1
10
32.3943968645172
20
5.33012425574651
30
0
41
1
10
31.3044267263247
20
5.68188956079143
30
0
41
1
10
30.9411207142423
20
5.79844545730472
30
0
41
1
10
30.2145651175602
20
6.03019752801487
30
0
41
1
10
29.851284759647
20
6.14551288332223
30
0
41
1
10
28.7614315664588
20
6.48746858269115
30
0
41
1
10
27.3086714601992
20
6.93358660544337
30
0
41
1
10
25.8568623706486
20
7.36094192253526
30
0
41
1
10
24.4056528293119
20
7.77924601191273
30
0
41
1
10
23.6803484848707
20
7.98387478142283
30
0
41
1
10
22.7742037715511
20
8.23417214309612
30
0
41
1
10
22.5929991459488
20
8.28395677809053
30
0
41
1
10
22.2306415004239
20
8.38297904901222
30
0
41
1
10
22.049492327799
20
8.43222437252584
30
0
41
1
10
21.5059709330345
20
8.57881704406446
30
0
41
1
10
21.1435300871514
20
8.67503457038245
30
0
41
1
10
20.0559481044716
20
8.95923517991855
30
0
41
1
10
19.3305506764969
20
9.14277777472299
30
0
41
1
10
17.8791740695529
20
9.49831101096828
30
0
41
1
10
17.1531914600715
20
9.67029581797044
30
0
41
1
10
15.7007763767185
20
10.0028976266298
30
0
41
1
10
14.9743450253023
20
10.1635181652259
30
0
41
1
10
14.2477836409637
20
10.318499997795
30
0
0
SPLINE
5
D6
100
AcDbEntity
8
1
62
256
6
ByLayer
370
18
48
1
60
0
100
AcDbSpline
70
4
71
3
72
100
73
96
40
0
40
0
40
0
40
0
40
0.0624999999999845
40
0.0624999999999845
40
0.0937499999999768
40
0.0937499999999768
40
0.124999999999969
40
0.124999999999969
40
0.156249999999961
40
0.156249999999961
40
0.171874999999958
40
0.171874999999958
40
0.179687499999957
40
0.179687499999957
40
0.187499999999955
40
0.187499999999955
40
0.218749999999953
40
0.218749999999953
40
0.24999999999995
40
0.24999999999995
40
0.281249999999948
40
0.281249999999948
40
0.296874999999947
40
0.296874999999947
40
0.304687499999947
40
0.304687499999947
40
0.312499999999946
40
0.312499999999946
40
0.343749999999944
40
0.343749999999944
40
0.374999999999942
40
0.374999999999942
40
0.382812499999941
40
0.38671874999994
40
0.38671874999994
40
0.39062499999994
40
0.39062499999994
40
0.40624999999994
40
0.40624999999994
40
0.437499999999939
40
0.437499999999939
40
0.468749999999938
40
0.468749999999938
40
0.476562499999937
40
0.480468749999937
40
0.480468749999937
40
0.484374999999937
40
0.484374999999937
40
0.499999999999937
40
0.499999999999937
40
0.531249999999937
40
0.531249999999937
40
0.546874999999936
40
0.546874999999936
40
0.554687499999936
40
0.558593749999936
40
0.558593749999936
40
0.562499999999936
40
0.562499999999936
40
0.593749999999937
40
0.593749999999937
40
0.624999999999939
40
0.624999999999939
40
0.632812499999939
40
0.632812499999939
40
0.63671874999994
40
0.63671874999994
40
0.640624999999941
40
0.656249999999943
40
0.656249999999943
40
0.687499999999949
40
0.687499999999949
40
0.718749999999954
40
0.718749999999954
40
0.734374999999957
40
0.734374999999957
40
0.742187499999959
40
0.742187499999959
40
0.749999999999961
40
0.749999999999961
40
0.781249999999966
40
0.781249999999966
40
0.81249999999997
40
0.81249999999997
40
0.843749999999975
40
0.843749999999975
40
0.87499999999998
40
0.87499999999998
40
0.906249999999985
40
0.906249999999985
40
0.93749999999999
40
0.93749999999999
40
0.968749999999995
40
0.968749999999995
40
1
40
1
40
1
40
1
41
1
10
10
20
-9.57968049623116
30
0
41
1
10
9.54931016239166
20
-9.79840060947384
30
0
41
1
10
9.11073277602407
20
-10.0277814911402
30
0
41
1
10
8.47065680795504
20
-10.3856076211145
30
0
41
1
10
8.26026880789232
20
-10.5071765145817
30
0
41
1
10
7.84545126009306
20
-10.7545371259135
30
0
41
1
10
7.64102114918492
20
-10.8803290059115
30
0
41
1
10
7.23820515446027
20
-11.1357724247383
30
0
41
1
10
7.03981836518807
20
-11.2654242005199
30
0
41
1
10
6.74690374803777
20
-11.4625204459043
30
0
41
1
10
6.65004392769572
20
-11.5286555634766
30
0
41
1
10
6.50594691656721
20
-11.6284773614127
30
0
41
1
10
6.45811343169856
20
-11.6618544732355
30
0
41
1
10
6.36284921779173
20
-11.7288090397368
30
0
41
1
10
6.31537081161497
20
-11.7624205753956
30
0
41
1
10
6.0796025374498
20
-11.9305332907862
30
0
41
1
10
5.89677307637845
20
-12.0647660738061
30
0
41
1
10
5.54283651640282
20
-12.3319201573491
30
0
41
1
10
5.37172715819253
20
-12.4648430646598
30
0
41
1
10
5.04163874667455
20
-12.7285043685785
30
0
41
1
10
4.88265562969275
20
-12.8592452642118
30
0
41
1
10
4.65384681235329
20
-13.0529597799179
30
0
41
1
10
4.57919127312726
20
-13.1171305112374
30
0
41
1
10
4.46973503134643
20
-13.2126747995639
30
0
41
1
10
4.43374276466324
20
-13.2443420629291
30
0
41
1
10
4.3629734475409
20
-13.3071015594453
30
0
41
1
10
4.32816195759096
20
-13.3382238104993
30
0
41
1
10
4.15698236166963
20
-13.4925052329361
30
0
41
1
10
4.02922359601354
20
-13.6116853297011
30
0
41
1
10
3.79275196356664
20
-13.8403199246538
30
0
41
1
10
3.68403084306044
20
-13.9497801814712
30
0
41
1
10
3.56091010332665
20
-14.0795397801576
30
0
41
1
10
3.52493573641951
20
-14.1179360321149
30
0
41
1
10
3.49043999116304
20
-14.1555011599383
30
0
41
1
10
3.46777593164359
20
-14.1803558490062
30
0
41
1
10
3.45659988344752
20
-14.1927006402734
30
0
41
1
10
3.4017260920223
20
-14.253761583726
30
0
41
1
10
3.36102843832162
20
-14.300504676752
30
0
41
1
10
3.24848090566078
20
-14.434322173959
30
0
41
1
10
3.18614479016878
20
-14.5149998431529
30
0
41
1
10
3.08728680427845
20
-14.6584510577742
30
0
41
1
10
3.05075754390154
20
-14.7212300081268
30
0
41
1
10
3.02217705781294
20
-14.7876550901837
30
0
41
1
10
3.01488859280357
20
-14.8066765823742
30
0
41
1
10
3.00957032724006
20
-14.8243069123136
30
0
41
1
10
3.00646797203001
20
-14.8357473724249
30
0
41
1
10
3.0051396432645
20
-14.8413080898321
30
0
41
1
10
2.99963667112081
20
-14.8682020969789
30
0
41
1
10
2.99884542395785
20
-14.8869114617235
30
0
41
1
10
3.00703148220359
20
-14.9348382855399
30
0
41
1
10
3.02653479838457
20
-14.955872961458
30
0
41
1
10
3.07643333639555
20
-14.9715448003119
30
0
41
1
10
3.09651551313328
20
-14.9741172417684
30
0
41
1
10
3.13183459913529
20
-14.9740198066418
30
0
41
1
10
3.15079385111514
20
-14.9729816611899
30
0
41
1
10
3.17171353370995
20
-14.9704597475471
30
0
41
1
10
3.18609731440432
20
-14.9684485421107
30
0
41
1
10
3.19350774715565
20
-14.9672776721059
30
0
41
1
10
3.26190992950518
20
-14.9553067975905
30
0
41
1
10
3.33524121454695
20
-14.9344544184306
30
0
41
1
10
3.50506099540033
20
-14.8744999104291
30
0
41
1
10
3.60156139485278
20
-14.8353885755876
30
0
41
1
10
3.73602505693378
20
-14.7760437714187
30
0
41
1
10
3.76361135444211
20
-14.7636508246349
30
0
41
1
10
3.80602356213359
20
-14.744290130579
30
0
41
1
10
3.82034067356585
20
-14.7377044423466
30
0
41
1
10
3.84923276893954
20
-14.7243180465871
30
0
41
1
10
3.92215217183775
20
-14.6902942071568
30
0
41
1
10
3.99845793680728
20
-14.65354939553
30
0
41
1
10
4.18772389395258
20
-14.5605751124953
30
0
41
1
10
4.32206310601657
20
-14.4922253864609
30
0
41
1
10
4.60555022910856
20
-14.344654288574
30
0
41
1
10
4.75470541377581
20
-14.2654268836753
30
0
41
1
10
4.98870319043647
20
-14.1394963336649
30
0
41
1
10
5.06841554706744
20
-14.0963351202151
30
0
41
1
10
5.19046279341285
20
-14.029929396037
30
0
41
1
10
5.23159833271893
20
-14.0074948728909
30
0
41
1
10
5.31448050135299
20
-13.9621981561285
30
0
41
1
10
5.35619417991615
20
-13.9393540926577
30
0
41
1
10
5.56607983757863
20
-13.8242061715995
30
0
41
1
10
5.73819582489307
20
-13.729132771196
30
0
41
1
10
6.089813643398
20
-13.5341491317118
30
0
41
1
10
6.26931812307021
20
-13.4342358294111
30
0
41
1
10
6.6348377039817
20
-13.2303573857715
30
0
41
1
10
6.82085400613803
20
-13.1263903421998
30
0
41
1
10
7.19861092141798
20
-12.9149824598718
30
0
41
1
10
7.3903516291326
20
-12.807540243343
30
0
41
1
10
7.77884161168333
20
-12.5896001044506
30
0
41
1
10
7.97559004549484
20
-12.4791009417514
30
0
41
1
10
8.37346214212533
20
-12.2553429539683
30
0
41
1
10
8.57388358132982
20
-12.1424767526672
30
0
41
1
10
8.9772662129119
20
-11.9149470822615
30
0
41
1
10
9.18022953847091
20
-11.8002799602161
30
0
41
1
10
9.58843205460437
20
-11.5692832811569
30
0
41
1
10
9.79367014791546
20
-11.4529519719831
30
0
41
1
10
10
20
-11.3358735244875
30
0
0
SPLINE
5
D7
100
AcDbEntity
8
1
62
256
6
ByLayer
370
18
48
1
60
0
100
AcDbSpline
70
4
71
3
72
43
73
39
40
0
40
0
40
0
40
0
40
0.0187197049187143
40
0.0187197049187143
40
0.0942028045403397
40
0.0942028045403397
40
0.113073579445745
40
0.113073579445745
40
0.122508966898449
40
0.122508966898449
40
0.131944354351153
40
0.169685904161967
40
0.169685904161967
40
0.245169003783596
40
0.245169003783596
40
0.320652103405225
40
0.320652103405225
40
0.35839365321604
40
0.35839365321604
40
0.377264428121448
40
0.377264428121448
40
0.396135203026857
40
0.396135203026857
40
0.4716183026485
40
0.4716183026485
40
0.547101402270143
40
0.547101402270143
40
0.622584501891786
40
0.622584501891786
40
0.698067601513428
40
0.698067601513428
40
0.773550701135072
40
0.773550701135072
40
0.849033800756714
40
0.849033800756714
40
0.924516900378357
40
0.924516900378357
40
1
40
1
40
1
40
1
41
1
10
3.35912936607602
20
14.9250799119527
30
0
41
1
10
3.37874815546928
20
14.918784589899
30
0
41
1
10
3.39909356889689
20
14.911911482204
30
0
41
1
10
3.50506099540033
20
14.8744999104291
30
0
41
1
10
3.60156139485281
20
14.8353885755876
30
0
41
1
10
3.73602505693378
20
14.7760437714187
30
0
41
1
10
3.76361135444211
20
14.7636508246348
30
0
41
1
10
3.80602356213356
20
14.7442901305789
30
0
41
1
10
3.82034067356585
20
14.7377044423465
30
0
41
1
10
3.84923276893954
20
14.7243180465871
30
0
41
1
10
3.92215217183775
20
14.6902942071568
30
0
41
1
10
3.99845793680731
20
14.65354939553
30
0
41
1
10
4.18772389395258
20
14.5605751124952
30
0
41
1
10
4.32206310601657
20
14.4922253864609
30
0
41
1
10
4.60555022910853
20
14.344654288574
30
0
41
1
10
4.75470541377587
20
14.2654268836753
30
0
41
1
10
4.98870319043652
20
14.1394963336649
30
0
41
1
10
5.0684155470675
20
14.0963351202151
30
0
41
1
10
5.19046279341288
20
14.029929396037
30
0
41
1
10
5.23159833271896
20
14.0074948728909
30
0
41
1
10
5.31448050135299
20
13.9621981561284
30
0
41
1
10
5.35619417991615
20
13.9393540926577
30
0
41
1
10
5.56607983757866
20
13.8242061715995
30
0
41
1
10
5.73819582489307
20
13.729132771196
30
0
41
1
10
6.08981364339797
20
13.5341491317118
30
0
41
1
10
6.26931812307021
20
13.4342358294111
30
0
41
1
10
6.6348377039817
20
13.2303573857715
30
0
41
1
10
6.82085400613806
20
13.1263903421998
30
0
41
1
10
7.19861092141795
20
12.9149824598718
30
0
41
1
10
7.39035162913257
20
12.8075402433429
30
0
41
1
10
7.77884161168339
20
12.5896001044506
30
0
41
1
10
7.97559004549484
20
12.4791009417514
30
0
41
1
10
8.37346214212533
20
12.2553429539683
30
0
41
1
10
8.57388358132977
20
12.1424767526671
30
0
41
1
10
8.9772662129119
20
11.9149470822614
30
0
41
1
10
9.18022953847088
20
11.8002799602161
30
0
41
1
10
9.58843205460437
20
11.5692832811568
30
0
41
1
10
9.79367014791546
20
11.4529519719831
30
0
41
1
10
10
20
11.3358735244875
30
0
0
SPLINE
5
D8
100
AcDbEntity
8
SK1
62
256
6
ByLayer
370
18
48
1
60
0
100
AcDbSpline
70
4
71
3
72
37
73
33
40
0
40
0
40
0
40
0
40
0.124999999999999
40
0.124999999999999
40
0.249999999999997
40
0.249999999999997
40
0.374999999999996
40
0.374999999999996
40
0.437499999999996
40
0.437499999999996
40
0.499999999999995
40
0.499999999999995
40
0.624999999999995
40
0.624999999999995
40
0.656249999999996
40
0.656249999999996
40
0.687499999999996
40
0.687499999999996
40
0.749999999999997
40
0.749999999999997
40
0.812499999999999
40
0.812499999999999
40
0.843749999999999
40
0.843749999999999
40
0.874999999999999
40
0.874999999999999
40
0.9375
40
0.9375
40
0.953125
40
0.953125
40
0.96875
40
1
40
1
40
1
40
1
41
1
10
-56.6013095599541
20
-3.67404242557649
30
0
41
1
10
-56.5818983671532
20
-3.76227101295461
30
0
41
1
10
-56.5608730792548
20
-3.84980231602845
30
0
41
1
10
-56.5149011456991
20
-4.02327304907473
30
0
41
1
10
-56.4899592553202
20
-4.1092138747162
30
0
41
1
10
-56.4351919062966
20
-4.27922783366643
30
0
41
1
10
-56.4053764863432
20
-4.36330392303796
30
0
41
1
10
-56.3559085219568
20
-4.48770487574166
30
0
41
1
10
-56.3386238532612
20
-4.52888499906533
30
0
41
1
10
-56.3022004610974
20
-4.6105950760475
30
0
41
1
10
-56.2830277903437
20
-4.65119311461675
30
0
41
1
10
-56.2224911706718
20
-4.77130399167868
30
0
41
1
10
-56.1782467144578
20
-4.84907413383172
30
0
41
1
10
-56.115968443464
20
-4.94231131697211
30
0
41
1
10
-56.10315836213
20
-4.96075692759766
30
0
41
1
10
-56.0767470461803
20
-4.99720157474036
30
0
41
1
10
-56.0631669720757
20
-5.01516889117784
30
0
41
1
10
-56.0213776959376
20
-5.06798704911631
30
0
41
1
10
-55.992061754375
20
-5.10185542724588
30
0
41
1
10
-55.9298321318183
20
-5.16631273888052
30
0
41
1
10
-55.8969272538349
20
-5.19690945406094
30
0
41
1
10
-55.8440712942131
20
-5.23964848292457
30
0
41
1
10
-55.8258658181591
20
-5.25336554431573
30
0
41
1
10
-55.7880772055068
20
-5.27956269503571
30
0
41
1
10
-55.7687283546429
20
-5.29187752331967
30
0
41
1
10
-55.7092375195426
20
-5.32619065397267
30
0
41
1
10
-55.6676447686972
20
-5.34560920419477
30
0
41
1
10
-55.6125612417126
20
-5.36437634382568
30
0
41
1
10
-55.6013755519815
20
-5.36785346658095
30
0
41
1
10
-55.5789098857052
20
-5.37414928699397
30
0
41
1
10
-55.5449888078968
20
-5.38263478003245
30
0
41
1
10
-55.5103812675636
20
-5.38816693911767
30
0
41
1
10
-55.4869828320874
20
-5.39045045482675
30
0
0
SPLINE
5
D9
100
AcDbEntity
8
SK1
62
256
6
ByLayer
370
18
48
1
60
0
100
AcDbSpline
70
4
71
3
72
38
73
34
40
0
40
0
40
0
40
0
40
0.0624999999999988
40
0.0624999999999988
40
0.0937499999999982
40
0.0937499999999982
40
0.109374999999998
40
0.109374999999998
40
0.124999999999999
40
0.124999999999999
40
0.187499999999997
40
0.187499999999997
40
0.218749999999997
40
0.218749999999997
40
0.249999999999996
40
0.249999999999996
40
0.312499999999996
40
0.312499999999996
40
0.374999999999996
40
0.374999999999996
40
0.437499999999996
40
0.437499999999996
40
0.468749999999996
40
0.468749999999996
40
0.499999999999996
40
0.499999999999996
40
0.624999999999997
40
0.624999999999997
40
0.749999999999998
40
0.749999999999998
40
0.874999999999999
40
0.874999999999999
40
1
40
1
40
1
40
1
41
1
10
-55.4869828320874
20
5.39045045482675
30
0
41
1
10
-55.5340112854939
20
5.38586082265942
30
0
41
1
10
-55.5792475407432
20
5.37567921640115
30
0
41
1
10
-55.6448597758275
20
5.35339526064908
30
0
41
1
10
-55.6663543340588
20
5.34479075805541
30
0
41
1
10
-55.6980700363939
20
5.33023526841174
30
0
41
1
10
-55.7085426555182
20
5.32511155488996
30
0
41
1
10
-55.7290868425515
20
5.31446061507978
30
0
41
1
10
-55.7391894091154
20
5.30891956332113
30
0
41
1
10
-55.7889172059676
20
5.28021446580462
30
0
41
1
10
-55.8262117488448
20
5.25408170222258
30
0
41
1
10
-55.87927436858
20
5.21118741343659
30
0
41
1
10
-55.8964771995976
20
5.19626735233749
30
0
41
1
10
-55.9300114215657
20
5.16530406746776
30
0
41
1
10
-55.9462917892921
20
5.14930296213541
30
0
41
1
10
-55.9934356942821
20
5.10035000843709
30
0
41
1
10
-56.0228020768564
20
5.06628595710666
30
0
41
1
10
-56.078326436026
20
4.99590453061043
30
0
41
1
10
-56.1044778219573
20
4.95958275029739
30
0
41
1
10
-56.1541566098393
20
4.88506830814691
30
0
41
1
10
-56.1776808746374
20
4.84687355258669
30
0
41
1
10
-56.2113079014024
20
4.78837896752557
30
0
41
1
10
-56.2222393682362
20
4.76867706562567
30
0
41
1
10
-56.2434756231488
20
4.72911675343036
30
0
41
1
10
-56.2537968848612
20
4.7092302403565
30
0
41
1
10
-56.3040524668077
20
4.60930752204828
30
0
41
1
10
-56.339989360063
20
4.52781806830399
30
0
41
1
10
-56.4056776145828
20
4.36246555081721
30
0
41
1
10
-56.4354058590262
20
4.27859519764016
30
0
41
1
10
-56.4900491389977
20
4.10890313734902
30
0
41
1
10
-56.5149546873468
20
4.02307844746088
30
0
41
1
10
-56.56088189532
20
3.84976160662609
30
0
41
1
10
-56.5818990222464
20
3.76226803539686
30
0
41
1
10
-56.6013095599541
20
3.67404242557649
30
0
0
SPLINE
5
DA
100
AcDbEntity
8
SK1
62
256
6
ByLayer
370
18
48
1
60
0
100
AcDbSpline
70
4
71
3
72
33
73
29
40
0
40
0
40
0
40
0
40
0.125000000000006
40
0.125000000000006
40
0.250000000000012
40
0.250000000000012
40
0.375000000000017
40
0.375000000000017
40
0.40625000000002
40
0.40625000000002
40
0.437500000000023
40
0.437500000000023
40
0.500000000000019
40
0.500000000000019
40
0.625000000000009
40
0.625000000000009
40
0.656250000000005
40
0.656250000000005
40
0.687500000000001
40
0.687500000000001
40
0.749999999999993
40
0.812499999999985
40
0.812499999999985
40
0.843749999999988
40
0.843749999999988
40
0.87499999999999
40
0.87499999999999
40
1
40
1
40
1
40
1
41
1
10
-14.051872681288
20
7.58734230610622
30
0
41
1
10
-14.0806477010082
20
7.63716049470688
30
0
41
1
10
-14.1111960666033
20
7.68574713585582
30
0
41
1
10
-14.1763795738798
20
7.78016829172287
30
0
41
1
10
-14.2110110664831
20
7.82600493913273
30
0
41
1
10
-14.2851110385999
20
7.91451556477941
30
0
41
1
10
-14.3245721279275
20
7.95719387593883
30
0
41
1
10
-14.3776213268518
20
8.00817431396229
30
0
41
1
10
-14.3884185818754
20
8.01825128676794
30
0
41
1
10
-14.4104115542246
20
8.03815365023897
30
0
41
1
10
-14.4216108037395
20
8.04798083475526
30
0
41
1
10
-14.455622663142
20
8.07687937861485
30
0
41
1
10
-14.4789160665747
20
8.09543103467254
30
0
41
1
10
-14.5508106006942
20
8.14878338695524
30
0
41
1
10
-14.6014062936362
20
8.18130323174049
30
0
41
1
10
-14.6687381239779
20
8.21735588111801
30
0
41
1
10
-14.6824104044294
20
8.22433484183665
30
0
41
1
10
-14.710192970406
20
8.23780190427706
30
0
41
1
10
-14.7242927464647
20
8.24428275713819
30
0
41
1
10
-14.7668701147152
20
8.26277278740699
30
0
41
1
10
-14.8246359059293
20
8.28501525135295
30
0
41
1
10
-14.8845078995177
20
8.30218349007504
30
0
41
1
10
-14.9302595196826
20
8.31302504752674
30
0
41
1
10
-14.9456514993249
20
8.31629937780269
30
0
41
1
10
-14.976730334019
20
8.3221411784192
30
0
41
1
10
-14.9924519952567
20
8.32471328587587
30
0
41
1
10
-15.0714171524834
20
8.33566995587665
30
0
41
1
10
-15.1349687406039
20
8.33829643503807
30
0
41
1
10
-15.198909252112
20
8.33463752287949
30
0
0
SPLINE
5
DB
100
AcDbEntity
8
SK1
62
256
6
ByLayer
370
18
48
1
60
0
100
AcDbSpline
70
4
71
3
72
28
73
24
40
0
40
0
40
0
40
0
40
0.124999999999995
40
0.124999999999995
40
0.187499999999992
40
0.187499999999992
40
0.24999999999999
40
0.24999999999999
40
0.374999999999983
40
0.374999999999983
40
0.437499999999979
40
0.437499999999979
40
0.499999999999976
40
0.499999999999976
40
0.624999999999981
40
0.624999999999981
40
0.687499999999984
40
0.687499999999984
40
0.749999999999987
40
0.749999999999987
40
0.874999999999994
40
0.874999999999994
40
1
40
1
40
1
40
1
41
1
10
-15.198909252112
20
-8.33463752287949
30
0
41
1
10
-15.1350143484387
20
-8.33829382518937
30
0
41
1
10
-15.0719017967204
20
-8.33565332559238
30
0
41
1
10
-14.978337274282
20
-8.32279548271791
30
0
41
1
10
-14.9473338896935
20
-8.31702027865589
30
0
41
1
10
-14.8856931933269
20
-8.30251274872501
30
0
41
1
10
-14.8554833479755
20
-8.29387762923409
30
0
41
1
10
-14.7669559756536
20
-8.26429996307647
30
0
41
1
10
-14.7105270717761
20
-8.23965842490713
30
0
41
1
10
-14.6292411643099
20
-8.19624288886422
30
0
41
1
10
-14.6029581616285
20
-8.18081975592636
30
0
41
1
10
-14.5521237698499
20
-8.14844888077508
30
0
41
1
10
-14.5275204196119
20
-8.13147265143903
30
0
41
1
10
-14.4558957807576
20
-8.07840113768455
30
0
41
1
10
-14.411048006958
20
-8.04017416621042
30
0
41
1
10
-14.347408645875
20
-7.9791980354984
30
0
41
1
10
-14.3267704985616
20
-7.9582267315275
30
0
41
1
10
-14.2867812208927
20
-7.91531082173958
30
0
41
1
10
-14.267487937703
20
-7.89343345035931
30
0
41
1
10
-14.2115013365259
20
-7.82665213506647
30
0
41
1
10
-14.1766922853205
20
-7.78060380498701
30
0
41
1
10
-14.1112733091055
20
-7.68587638410847
30
0
41
1
10
-14.080667629502
20
-7.63719499690606
30
0
41
1
10
-14.051872681288
20
-7.58734230610622
30
0
0
SPLINE
5
DC
100
AcDbEntity
8
1
62
256
6
ByLayer
370
13
48
1
60
0
100
AcDbSpline
70
4
71
3
72
88
73
84
40
0
40
0
40
0
40
0
40
0.0312499999999997
40
0.0312499999999997
40
0.0624999999999994
40
0.0624999999999994
40
0.0937499999999991
40
0.0937499999999991
40
0.0976562499999991
40
0.0976562499999991
40
0.101562499999999
40
0.101562499999999
40
0.109374999999999
40
0.109374999999999
40
0.124999999999999
40
0.124999999999999
40
0.156249999999999
40
0.156249999999999
40
0.187499999999998
40
0.187499999999998
40
0.218749999999998
40
0.218749999999998
40
0.249999999999998
40
0.249999999999998
40
0.281249999999997
40
0.281249999999997
40
0.312499999999997
40
0.312499999999997
40
0.343749999999997
40
0.343749999999997
40
0.374999999999997
40
0.374999999999997
40
0.390624999999997
40
0.390624999999997
40
0.398437499999997
40
0.398437499999997
40
0.402343749999997
40
0.402343749999997
40
0.406249999999997
40
0.406249999999997
40
0.437499999999997
40
0.437499999999997
40
0.468749999999997
40
0.468749999999997
40
0.499999999999997
40
0.499999999999997
40
0.531249999999997
40
0.531249999999997
40
0.562499999999997
40
0.562499999999997
40
0.593749999999997
40
0.593749999999997
40
0.624999999999998
40
0.624999999999998
40
0.656249999999998
40
0.656249999999998
40
0.687499999999998
40
0.687499999999998
40
0.695312499999998
40
0.695312499999998
40
0.699218749999998
40
0.699218749999998
40
0.703124999999998
40
0.703124999999998
40
0.718749999999998
40
0.718749999999998
40
0.749999999999998
40
0.749999999999998
40
0.781249999999999
40
0.781249999999999
40
0.812499999999999
40
0.812499999999999
40
0.843749999999999
40
0.843749999999999
40
0.874999999999999
40
0.874999999999999
40
0.906249999999999
40
0.906249999999999
40
0.9375
40
0.9375
40
0.96875
40
0.96875
40
1
40
1
40
1
40
1
41
1
10
153.6
20
6.39068178849908
30
0
41
1
10
153.701342736092
20
5.75098509932585
30
0
41
1
10
153.802685472183
20
5.08811277002459
30
0
41
1
10
154.005370944367
20
3.74722980432637
30
0
41
1
10
154.106713680458
20
3.06934205703357
30
0
41
1
10
154.309399152642
20
1.72684859832469
30
0
41
1
10
154.410741888733
20
1.06230976527581
30
0
41
1
10
154.524752466836
20
0.334775852282434
30
0
41
1
10
154.537420308848
20
0.254213130495231
30
0
41
1
10
154.562755992871
20
0.0936722698309609
30
0
41
1
10
154.575423834882
20
0.013891155053841
30
0
41
1
10
154.613427360917
20
-0.226123287321229
30
0
41
1
10
154.63876304494
20
-0.387333953121356
30
0
41
1
10
154.714770097008
20
-0.874138104607994
30
0
41
1
10
154.765441465054
20
-1.20291733271262
30
0
41
1
10
154.917455569192
20
-2.19803891646853
30
0
41
1
10
155.018798305283
20
-2.87334515327598
30
0
41
1
10
155.221483777466
20
-4.22186168998073
30
0
41
1
10
155.322826513558
20
-4.89497181293564
30
0
41
1
10
155.525511985741
20
-6.20853624086948
30
0
41
1
10
155.626854721833
20
-6.84884484617081
30
0
41
1
10
155.829540194016
20
-8.06541326959999
30
0
41
1
10
155.930882930108
20
-8.64151842369606
30
0
41
1
10
156.133568402291
20
-9.70212038973045
30
0
41
1
10
156.234911138383
20
-10.1865005449917
30
0
41
1
10
156.437596610566
20
-11.0441772580142
30
0
41
1
10
156.538939346658
20
-11.417429825919
30
0
41
1
10
156.741624818841
20
-12.0439814341178
30
0
41
1
10
156.842967554933
20
-12.297314658563
30
0
41
1
10
157.045653027116
20
-12.6859006310301
30
0
41
1
10
157.146995763208
20
-12.8212429313378
30
0
41
1
10
157.299009867345
20
-12.9436843898017
30
0
41
1
10
157.349681235391
20
-12.9711287731218
30
0
41
1
10
157.42568828746
20
-12.9936523348931
30
0
41
1
10
157.451023971483
20
-12.9980554361316
30
0
41
1
10
157.489027497517
20
-13.0001978628048
30
0
41
1
10
157.501695339529
20
-13.000172760505
30
0
41
1
10
157.527031023552
20
-12.9986423463931
30
0
41
1
10
157.539698865563
20
-12.9971329713667
30
0
41
1
10
157.653709443666
20
-12.9767030987338
30
0
41
1
10
157.755052179758
20
-12.9096627605671
30
0
41
1
10
157.957737651941
20
-12.6634779331291
30
0
41
1
10
158.059080388033
20
-12.4842273588682
30
0
41
1
10
158.261765860216
20
-12.0059035483889
30
0
41
1
10
158.363108596308
20
-11.7067578416588
30
0
41
1
10
158.565794068491
20
-10.9905787384759
30
0
41
1
10
158.667136804583
20
-10.5735394181466
30
0
41
1
10
158.869822276766
20
-9.63445438956305
30
0
41
1
10
158.971165012858
20
-9.11248264797166
30
0
41
1
10
159.173850485041
20
-7.98636370307869
30
0
41
1
10
159.275193221132
20
-7.38235282809663
30
0
41
1
10
159.477878693316
20
-6.12168349080028
30
0
41
1
10
159.579221429407
20
-5.46518171426763
30
0
41
1
10
159.781906901591
20
-4.13118304474855
30
0
41
1
10
159.883249637683
20
-3.45381773915634
30
0
41
1
10
160.085935109866
20
-2.10737735463118
30
0
41
1
10
160.187277845958
20
-1.43838042811444
30
0
41
1
10
160.313956266072
20
-0.622118556799137
30
0
41
1
10
160.339291950095
20
-0.459849206215978
30
0
41
1
10
160.377295476129
20
-0.218145310492332
30
0
41
1
10
160.389963318141
20
-0.137860482784021
30
0
41
1
10
160.415299002164
20
0.0221079199917824
30
0
41
1
10
160.427966844175
20
0.101919052190169
30
0
41
1
10
160.491306054232
20
0.503371404151551
30
0
41
1
10
160.541977422278
20
0.829217714353092
30
0
41
1
10
160.693991526416
20
1.81711461365401
30
0
41
1
10
160.795334262507
20
2.48971574726176
30
0
41
1
10
160.998019734691
20
3.83818826257883
30
0
41
1
10
161.099362470782
20
4.51397033673501
30
0
41
1
10
161.302047942966
20
5.83887198844323
30
0
41
1
10
161.403390679057
20
6.48785232031241
30
0
41
1
10
161.606076151241
20
7.72756850906941
30
0
41
1
10
161.707418887332
20
8.31814781759493
30
0
41
1
10
161.910104359515
20
9.41241590401694
30
0
41
1
10
162.011447095607
20
9.91597746262187
30
0
41
1
10
162.214132567791
20
10.8149407085885
30
0
41
1
10
162.315475303882
20
11.2102832057315
30
0
41
1
10
162.518160776065
20
11.8818423089856
30
0
41
1
10
162.619503512157
20
12.1580793215338
30
0
41
1
10
162.82218898434
20
12.5913605335555
30
0
41
1
10
162.923531720432
20
12.7484863943935
30
0
41
1
10
163.126217192615
20
12.9527519420927
30
0
41
1
10
163.227559928707
20
13
30
0
41
1
10
163.328902664799
20
13
30
0
0
SPLINE
5
DD
100
AcDbEntity
8
1
62
256
6
ByLayer
370
13
48
1
60
0
100
AcDbSpline
70
4
71
3
72
42
73
38
40
0
40
0
40
0
40
0
40
0.0624999999999997
40
0.0624999999999997
40
0.124999999999999
40
0.124999999999999
40
0.187499999999999
40
0.187499999999999
40
0.249999999999999
40
0.249999999999999
40
0.312499999999999
40
0.312499999999999
40
0.374999999999998
40
0.374999999999998
40
0.437499999999998
40
0.437499999999998
40
0.499999999999998
40
0.499999999999998
40
0.562499999999998
40
0.562499999999998
40
0.624999999999997
40
0.624999999999997
40
0.687499999999997
40
0.687499999999997
40
0.749999999999997
40
0.749999999999997
40
0.812499999999997
40
0.812499999999997
40
0.843749999999997
40
0.843749999999997
40
0.859374999999997
40
0.859374999999997
40
0.874999999999997
40
0.874999999999997
40
0.937499999999999
40
0.937499999999999
40
1
40
1
40
1
40
1
41
1
10
161.84281129435
20
13
30
0
41
1
10
161.914177453937
20
13
30
0
41
1
10
161.985543613524
20
12.9766177759074
30
0
41
1
10
162.128275932699
20
12.8775161442298
30
0
41
1
10
162.199642092286
20
12.8017776374821
30
0
41
1
10
162.342374411461
20
12.5936474575465
30
0
41
1
10
162.413740571048
20
12.4612379887827
30
0
41
1
10
162.556472890222
20
12.1373065515651
30
0
41
1
10
162.62783904981
20
11.9457712111216
30
0
41
1
10
162.770571368984
20
11.5034652966681
30
0
41
1
10
162.841937528572
20
11.2526887800968
30
0
41
1
10
162.984669847746
20
10.6944152900574
30
0
41
1
10
163.056036007333
20
10.3869218492592
30
0
41
1
10
163.198768326508
20
9.72040955704591
30
0
41
1
10
163.270134486095
20
9.36140406464997
30
0
41
1
10
163.41286680527
20
8.59948906786994
30
0
41
1
10
163.484232964857
20
8.19660110639148
30
0
41
1
10
163.626965284032
20
7.35643709841685
30
0
41
1
10
163.698331443619
20
6.91918746192633
30
0
41
1
10
163.841063762794
20
6.02097706864794
30
0
41
1
10
163.912429922381
20
5.56004345139201
30
0
41
1
10
164.055162241556
20
4.62548345829927
30
0
41
1
10
164.126528401143
20
4.15188105587058
30
0
41
1
10
164.269260720317
20
3.20256208508209
30
0
41
1
10
164.340626879905
20
2.72686354498236
30
0
41
1
10
164.483359199079
20
1.78285160404738
30
0
41
1
10
164.554725358667
20
1.31454904108429
30
0
41
1
10
164.661774598047
20
0.623621783108774
30
0
41
1
10
164.697457677841
20
0.395220986919497
30
0
41
1
10
164.750982297532
20
0.0561087091942909
30
0
41
1
10
164.768823837428
20
-0.0560460053951033
30
0
41
1
10
164.804506917222
20
-0.282120426499915
30
0
41
1
10
164.822348457119
20
-0.395738274823401
30
0
41
1
10
164.911556156603
20
-0.966478250789834
30
0
41
1
10
164.98292231619
20
-1.43161923658155
30
0
41
1
10
165.125654635365
20
-2.37145497625096
30
0
41
1
10
165.197020794952
20
-2.84614070676824
30
0
41
1
10
165.268386954539
20
-3.3210342682242
30
0
0
SPLINE
5
DE
100
AcDbEntity
8
1
62
256
6
ByLayer
370
13
48
1
60
0
100
AcDbSpline
70
4
71
3
72
87
73
83
40
0
40
0
40
0
40
0
40
0.0312499999999994
40
0.0312499999999994
40
0.0468749999999993
40
0.0468749999999993
40
0.0507812499999992
40
0.0507812499999992
40
0.0546874999999992
40
0.0546874999999992
40
0.0624999999999991
40
0.0624999999999991
40
0.0937499999999987
40
0.0937499999999987
40
0.124999999999998
40
0.124999999999998
40
0.156249999999998
40
0.156249999999998
40
0.187499999999998
40
0.187499999999998
40
0.218749999999997
40
0.218749999999997
40
0.249999999999997
40
0.249999999999997
40
0.281249999999997
40
0.281249999999997
40
0.312499999999997
40
0.312499999999997
40
0.343749999999996
40
0.343749999999996
40
0.359374999999996
40
0.359374999999996
40
0.367187499999996
40
0.367187499999996
40
0.371093749999996
40
0.371093749999996
40
0.374999999999996
40
0.374999999999996
40
0.406249999999996
40
0.406249999999996
40
0.437499999999996
40
0.437499999999996
40
0.468749999999997
40
0.468749999999997
40
0.499999999999997
40
0.499999999999997
40
0.531249999999997
40
0.531249999999997
40
0.562499999999997
40
0.562499999999997
40
0.593749999999997
40
0.593749999999997
40
0.624999999999998
40
0.624999999999998
40
0.656249999999998
40
0.656249999999998
40
0.671874999999998
40
0.671874999999998
40
0.679687499999998
40
0.683593749999998
40
0.683593749999998
40
0.687499999999998
40
0.687499999999998
40
0.718749999999998
40
0.718749999999998
40
0.749999999999998
40
0.749999999999998
40
0.781249999999999
40
0.781249999999999
40
0.812499999999999
40
0.812499999999999
40
0.843749999999999
40
0.843749999999999
40
0.874999999999999
40
0.874999999999999
40
0.906249999999999
40
0.906249999999999
40
0.9375
40
0.9375
40
0.96875
40
0.96875
40
1
40
1
40
1
40
1
41
1
10
153.6
20
3.21631494469463
30
0
41
1
10
153.696291994235
20
2.57562216586274
30
0
41
1
10
153.792583988469
20
1.93605669444281
30
0
41
1
10
153.937021979821
20
0.994518101626937
30
0
41
1
10
153.985167976938
20
0.683601571403187
30
0
41
1
10
154.045350473335
20
0.29998058126094
30
0
41
1
10
154.057386972614
20
0.223506737927124
30
0
41
1
10
154.081459971172
20
0.0710902868976575
30
0
41
1
10
154.093496470452
20
-0.0046697016265398
30
0
41
1
10
154.12960596829
20
-0.232826130077001
30
0
41
1
10
154.153678966848
20
-0.386010859643307
30
0
41
1
10
154.274043959641
20
-1.15672025887213
30
0
41
1
10
154.370335953876
20
-1.78881903335429
30
0
41
1
10
154.562919942345
20
-3.06474822988005
30
0
41
1
10
154.659211936579
20
-3.70852620539298
30
0
41
1
10
154.851795925048
20
-4.98357807416056
30
0
41
1
10
154.948087919282
20
-5.61475805726241
30
0
41
1
10
155.140671907752
20
-6.83770521277128
30
0
41
1
10
155.236963901986
20
-7.42935305345631
30
0
41
1
10
155.429547890455
20
-8.54693172471855
30
0
41
1
10
155.525839884689
20
-9.07274760084792
30
0
41
1
10
155.718423873158
20
-10.0366017175311
30
0
41
1
10
155.814715867393
20
-10.4745615970111
30
0
41
1
10
156.007299855862
20
-11.2479060325876
30
0
41
1
10
156.103591850096
20
-11.5832688550527
30
0
41
1
10
156.296175838565
20
-12.1454457561438
30
0
41
1
10
156.392467832799
20
-12.3722941823347
30
0
41
1
10
156.585051821269
20
-12.720081725679
30
0
41
1
10
156.681343815503
20
-12.8410930427771
30
0
41
1
10
156.825781806855
20
-12.9503565426798
30
0
41
1
10
156.873927803972
20
-12.9747821864033
30
0
41
1
10
156.946146799648
20
-12.994651014615
30
0
41
1
10
156.970219798206
20
-12.998480938775
30
0
41
1
10
157.006329296044
20
-13.0002040426836
30
0
41
1
10
157.018365795323
20
-13.0001122359149
30
0
41
1
10
157.042438793882
20
-12.9985903306746
30
0
41
1
10
157.054475293161
20
-12.9971571808267
30
0
41
1
10
157.162803786675
20
-12.9780821091317
30
0
41
1
10
157.25909578091
20
-12.9170416107984
30
0
41
1
10
157.451679769379
20
-12.6943552442127
30
0
41
1
10
157.547971763613
20
-12.532626501937
30
0
41
1
10
157.740555752082
20
-12.1013996158077
30
0
41
1
10
157.836847746316
20
-11.8318412345396
30
0
41
1
10
158.029431734785
20
-11.185470099106
30
0
41
1
10
158.12572372902
20
-10.8086436175633
30
0
41
1
10
158.318307717489
20
-9.95712676924626
30
0
41
1
10
158.414599711723
20
-9.4824814875449
30
0
41
1
10
158.607183700192
20
-8.45315315263662
30
0
41
1
10
158.703475694427
20
-7.89856617534107
30
0
41
1
10
158.896059682896
20
-6.73344741278342
30
0
41
1
10
158.99235167713
20
-6.12303633910267
30
0
41
1
10
159.184935665599
20
-4.87326191315321
30
0
41
1
10
159.281227659833
20
-4.23401087534009
30
0
41
1
10
159.473811648302
20
-2.95282634618971
30
0
41
1
10
159.570103642537
20
-2.3109714679963
30
0
41
1
10
159.714541633889
20
-1.36312572007853
30
0
41
1
10
159.762687631006
20
-1.04963058551846
30
0
41
1
10
159.834906626682
20
-0.584807697518556
30
0
41
1
10
159.87101612452
20
-0.353747102054115
30
0
41
1
10
159.907125622358
20
-0.125001043603589
30
0
41
1
10
159.931198620916
20
0.0269526279644481
30
0
41
1
10
159.943235120196
20
0.102810507227531
30
0
41
1
10
160.051563613709
20
0.789346357170956
30
0
41
1
10
160.147855607944
20
1.41670070406971
30
0
41
1
10
160.340439596413
20
2.68736978564695
30
0
41
1
10
160.436731590647
20
3.33064064852024
30
0
41
1
10
160.629315579116
20
4.60973128147472
30
0
41
1
10
160.72560757335
20
5.24546454401712
30
0
41
1
10
160.918191561819
20
6.48286357001285
30
0
41
1
10
161.014483556054
20
7.08441296032584
30
0
41
1
10
161.207067544523
20
8.2267326230556
30
0
41
1
10
161.303359538757
20
8.767384403975
30
0
41
1
10
161.495943527226
20
9.76474400205575
30
0
41
1
10
161.592235521461
20
10.2213641329492
30
0
41
1
10
161.784819509929
20
11.0342604149852
30
0
41
1
10
161.881111504164
20
11.3905030886501
30
0
41
1
10
162.073695492633
20
11.9949015180748
30
0
41
1
10
162.169987486868
20
12.2430816259746
30
0
41
1
10
162.362571475336
20
12.6323994081942
30
0
41
1
10
162.458863469571
20
12.7736037960044
30
0
41
1
10
162.65144745804
20
12.9573619150435
30
0
41
1
10
162.747739452274
20
13
30
0
41
1
10
162.844031446509
20
13
30
0
0
SPLINE
5
DF
100
AcDbEntity
8
1
62
256
6
ByLayer
370
13
48
1
60
0
100
AcDbSpline
70
4
71
3
72
43
73
39
40
0
40
0
40
0
40
0
40
0.0624999999999996
40
0.0624999999999996
40
0.124999999999999
40
0.124999999999999
40
0.187499999999999
40
0.187499999999999
40
0.249999999999999
40
0.249999999999999
40
0.312499999999998
40
0.312499999999998
40
0.374999999999998
40
0.374999999999998
40
0.437499999999998
40
0.437499999999998
40
0.499999999999997
40
0.499999999999997
40
0.562499999999997
40
0.562499999999997
40
0.624999999999997
40
0.624999999999997
40
0.687499999999997
40
0.687499999999997
40
0.718749999999997
40
0.718749999999997
40
0.734374999999997
40
0.742187499999997
40
0.742187499999997
40
0.749999999999997
40
0.749999999999997
40
0.812499999999998
40
0.812499999999998
40
0.874999999999998
40
0.874999999999998
40
0.937499999999999
40
0.937499999999999
40
1
40
1
40
1
40
1
41
1
10
161.357940076059
20
13
30
0
41
1
10
161.439407719361
20
13
30
0
41
1
10
161.520875362663
20
12.969512118357
30
0
41
1
10
161.683810649266
20
12.8393855035635
30
0
41
1
10
161.765278292568
20
12.7397098428488
30
0
41
1
10
161.928213579171
20
12.4652947918535
30
0
41
1
10
162.009681222473
20
12.2905227900717
30
0
41
1
10
162.172616509076
20
11.8634047743047
30
0
41
1
10
162.254084152378
20
11.6110383899452
30
0
41
1
10
162.417019438981
20
11.0304496455168
30
0
41
1
10
162.498487082283
20
10.7022258969508
30
0
41
1
10
162.661422368886
20
9.97621879488375
30
0
41
1
10
162.742890012188
20
9.57845589828838
30
0
41
1
10
162.905825298791
20
8.72396535667656
30
0
41
1
10
162.987292942093
20
8.26727733887063
30
0
41
1
10
163.150228228696
20
7.30891262442665
30
0
41
1
10
163.231695871998
20
6.80728695403602
30
0
41
1
10
163.394631158601
20
5.77501021965688
30
0
41
1
10
163.476098801903
20
5.24441124579636
30
0
41
1
10
163.639034088506
20
4.17055066812773
30
0
41
1
10
163.720501731808
20
3.62733272919786
30
0
41
1
10
163.883437018411
20
2.54352556523708
30
0
41
1
10
163.964904661713
20
2.00296559965921
30
0
41
1
10
164.087106126665
20
1.20392732146345
30
0
41
1
10
164.127839948316
20
0.939528432950027
30
0
41
1
10
164.188940680792
20
0.546881471055428
30
0
41
1
10
164.21949104703
20
0.351543709014266
30
0
41
1
10
164.250041413269
20
0.157858240883684
30
0
41
1
10
164.270408324094
20
0.0291197051276981
30
0
41
1
10
164.280591779507
20
-0.0349647750307156
30
0
41
1
10
164.372242878221
20
-0.614393238439106
30
0
41
1
10
164.453710521523
20
-1.14187184172013
30
0
41
1
10
164.616645808126
20
-2.21105694429812
30
0
41
1
10
164.698113451428
20
-2.75274814784888
30
0
41
1
10
164.861048738031
20
-3.83695599319176
30
0
41
1
10
164.942516381333
20
-4.37944134122219
30
0
41
1
10
165.105451667936
20
-5.44976419507694
30
0
41
1
10
165.186919311238
20
-5.97755652417911
30
0
41
1
10
165.268386954539
20
-6.48983272262433
30
0
0
SPLINE
5
E0
100
AcDbEntity
8
1
62
256
6
ByLayer
370
13
48
1
60
0
100
AcDbSpline
70
4
71
3
72
86
73
82
40
0
40
0
40
0
40
0
40
0.00390625
40
0.00390625
40
0.0078125000000001
40
0.0156250000000001
40
0.0156250000000001
40
0.0312500000000002
40
0.0312500000000002
40
0.0625000000000002
40
0.0625000000000002
40
0.0937500000000002
40
0.0937500000000002
40
0.125
40
0.125
40
0.15625
40
0.15625
40
0.1875
40
0.1875
40
0.21875
40
0.21875
40
0.25
40
0.25
40
0.28125
40
0.28125
40
0.3125
40
0.3125
40
0.328125
40
0.328125
40
0.33203125
40
0.33203125
40
0.3359375
40
0.3359375
40
0.34375
40
0.34375
40
0.375
40
0.375
40
0.406249999999999
40
0.406249999999999
40
0.437499999999999
40
0.437499999999999
40
0.468749999999998
40
0.468749999999998
40
0.499999999999998
40
0.499999999999998
40
0.531249999999997
40
0.531249999999997
40
0.562499999999997
40
0.562499999999997
40
0.593749999999997
40
0.593749999999997
40
0.624999999999996
40
0.624999999999996
40
0.656249999999995
40
0.656249999999995
40
0.664062499999995
40
0.664062499999995
40
0.667968749999996
40
0.667968749999996
40
0.671874999999996
40
0.687499999999996
40
0.687499999999996
40
0.718749999999996
40
0.718749999999996
40
0.749999999999996
40
0.749999999999996
40
0.781249999999997
40
0.781249999999997
40
0.812499999999997
40
0.812499999999997
40
0.843749999999998
40
0.843749999999998
40
0.874999999999998
40
0.874999999999998
40
0.906249999999999
40
0.906249999999999
40
0.937499999999999
40
0.937499999999999
40
0.96875
40
0.96875
40
1
40
1
40
1
40
1
41
1
10
153.6
20
0.0496391870056527
30
0
41
1
10
153.611405156547
20
-0.0223538750218495
30
0
41
1
10
153.622810313094
20
-0.0942207373734334
30
0
41
1
10
153.645620626189
20
-0.238726781865239
30
0
41
1
10
153.67983609583
20
-0.456197625858124
30
0
41
1
10
153.714051565472
20
-0.675688616954034
30
0
41
1
10
153.782482504755
20
-1.11703119960327
30
0
41
1
10
153.828103130943
20
-1.41441583999457
30
0
41
1
10
153.964965009509
20
-2.31305024528953
30
0
41
1
10
154.056206261887
20
-2.92089693456575
30
0
41
1
10
154.238688766641
20
-4.1350405406443
30
0
41
1
10
154.329930019018
20
-4.74127845425087
30
0
41
1
10
154.512412523773
20
-5.93004597430772
30
0
41
1
10
154.60365377615
20
-6.51249131229773
30
0
41
1
10
154.786136280905
20
-7.63065958777949
30
0
41
1
10
154.877377533282
20
-8.16628960289444
30
0
41
1
10
155.059860038036
20
-9.1696891142382
30
0
41
1
10
155.151101290414
20
-9.63737963493281
30
0
41
1
10
155.333583795168
20
-10.4883061102036
30
0
41
1
10
155.424825047546
20
-10.8714968961053
30
0
41
1
10
155.6073075523
20
-11.5433058077191
30
0
41
1
10
155.698548804677
20
-11.8319214947037
30
0
41
1
10
155.881031309432
20
-12.3116737304546
30
0
41
1
10
155.972272561809
20
-12.5028457972317
30
0
41
1
10
156.154755066564
20
-12.7914891281747
30
0
41
1
10
156.245996318941
20
-12.8890192212103
30
0
41
1
10
156.382858197507
20
-12.9717776258652
30
0
41
1
10
156.428478823696
20
-12.9888090317488
30
0
41
1
10
156.485504606431
20
-12.9978064847349
30
0
41
1
10
156.496909762979
20
-12.9989917996825
30
0
41
1
10
156.519720076073
20
-13.0001581550778
30
0
41
1
10
156.53112523262
20
-13.0001423489321
30
0
41
1
10
156.565340702262
20
-12.9982965154331
30
0
41
1
10
156.588151015356
20
-12.9946558337852
30
0
41
1
10
156.702202580828
20
-12.963926123821
30
0
41
1
10
156.793443833205
20
-12.899125743394
30
0
41
1
10
156.975926337959
20
-12.6787801804123
30
0
41
1
10
157.067167590337
20
-12.5231719962711
30
0
41
1
10
157.249650095091
20
-12.1152557071201
30
0
41
1
10
157.340891347468
20
-11.8629014047295
30
0
41
1
10
157.523373852223
20
-11.2617260827879
30
0
41
1
10
157.6146151046
20
-10.9128921707783
30
0
41
1
10
157.797097609355
20
-10.1261259530545
30
0
41
1
10
157.888338861732
20
-9.68822323153111
30
0
41
1
10
158.070821366487
20
-8.73759721374373
30
0
41
1
10
158.162062618864
20
-8.22494220207631
30
0
41
1
10
158.344545123618
20
-7.14450237917458
30
0
41
1
10
158.435786375996
20
-6.57680800998926
30
0
41
1
10
158.61826888075
20
-5.4089381168925
30
0
41
1
10
158.709510133128
20
-4.80885249382357
30
0
41
1
10
158.891992637882
20
-3.59901205124996
30
0
41
1
10
158.983233890259
20
-2.9893269304678
30
0
41
1
10
159.165716395014
20
-1.78079929854752
30
0
41
1
10
159.256957647391
20
-1.18199611472954
30
0
41
1
10
159.371009212863
20
-0.450610669616793
30
0
41
1
10
159.393819525957
20
-0.305178591583825
30
0
41
1
10
159.428034995599
20
-0.0884574957462974
30
0
41
1
10
159.439440152146
20
-0.0166107348565561
30
0
41
1
10
159.46225046524
20
0.127401391307018
30
0
41
1
10
159.519276247976
20
0.488647928627643
30
0
41
1
10
159.576302030712
20
0.855688794542317
30
0
41
1
10
159.713163909278
20
1.74499544146667
30
0
41
1
10
159.804405161655
20
2.3492065920781
30
0
41
1
10
159.98688766641
20
3.56249337061257
30
0
41
1
10
160.078128918787
20
4.17151970651423
30
0
41
1
10
160.260611423541
20
5.37303615152942
30
0
41
1
10
160.351852675919
20
5.9654485995373
30
0
41
1
10
160.534335180673
20
7.11071328297601
30
0
41
1
10
160.62557643305
20
7.66347301328889
30
0
41
1
10
160.808058937805
20
8.70740038909747
30
0
41
1
10
160.899300190182
20
9.19848221646294
30
0
41
1
10
161.081782694937
20
10.1007770969992
30
0
41
1
10
161.173023947314
20
10.5119327635965
30
0
41
1
10
161.355506452069
20
11.24208170507
30
0
41
1
10
161.446747704446
20
11.5610590065648
30
0
41
1
10
161.6292302092
20
12.1016795077657
30
0
41
1
10
161.720471461578
20
12.3233475447468
30
0
41
1
10
161.902953966332
20
12.6711513006002
30
0
41
1
10
161.99419521871
20
12.7973404110314
30
0
41
1
10
162.176677723464
20
12.9617324090996
30
0
41
1
10
162.267918975841
20
13
30
0
41
1
10
162.359160228219
20
13
30
0
0
SPLINE
5
E1
100
AcDbEntity
8
1
62
256
6
ByLayer
370
13
48
1
60
0
100
AcDbSpline
70
4
71
3
72
42
73
38
40
0
40
0
40
0
40
0
40
0.0624999999999997
40
0.0624999999999997
40
0.124999999999999
40
0.124999999999999
40
0.187499999999999
40
0.187499999999999
40
0.249999999999999
40
0.249999999999999
40
0.312499999999998
40
0.312499999999998
40
0.374999999999998
40
0.374999999999998
40
0.437499999999998
40
0.437499999999998
40
0.499999999999998
40
0.499999999999998
40
0.562499999999997
40
0.562499999999997
40
0.624999999999997
40
0.624999999999997
40
0.656249999999997
40
0.656249999999997
40
0.671874999999997
40
0.671874999999997
40
0.687499999999997
40
0.687499999999997
40
0.749999999999998
40
0.749999999999998
40
0.812499999999998
40
0.812499999999998
40
0.874999999999999
40
0.874999999999999
40
0.937499999999999
40
0.937499999999999
40
1
40
1
40
1
40
1
41
1
10
160.87306885777
20
13
30
0
41
1
10
160.964637984786
20
13
30
0
41
1
10
161.056207111802
20
12.9614559481971
30
0
41
1
10
161.239345365834
20
12.7958412543683
30
0
41
1
10
161.33091449285
20
12.6687047542771
30
0
41
1
10
161.514052746882
20
12.3182803887756
30
0
41
1
10
161.605621873898
20
12.0949383195132
30
0
41
1
10
161.78876012793
20
11.5502820333769
30
0
41
1
10
161.880329254946
20
11.2289429318164
30
0
41
1
10
162.063467508978
20
10.4935293833637
30
0
41
1
10
162.155036635994
20
10.0794718348735
30
0
41
1
10
162.338174890026
20
9.17107480492032
30
0
41
1
10
162.429744017042
20
8.67679441838584
30
0
41
1
10
162.612882271074
20
7.62646941424089
30
0
41
1
10
162.70445139809
20
7.0705125568177
30
0
41
1
10
162.887589652123
20
5.91914911031049
30
0
41
1
10
162.979158779138
20
5.32383656024845
30
0
41
1
10
163.16229703317
20
4.11705498949769
30
0
41
1
10
163.253866160187
20
3.50566434102419
30
0
41
1
10
163.437004414219
20
2.28833224077698
30
0
41
1
10
163.528573541235
20
1.68243993419154
30
0
41
1
10
163.665927231759
20
0.791160490818498
30
0
41
1
10
163.711711795267
20
0.496960934659398
30
0
41
1
10
163.780388640529
20
0.0613593789049389
30
0
41
1
10
163.803280922283
20
-0.0824488192576212
30
0
41
1
10
163.849065485791
20
-0.373033409454877
30
0
41
1
10
163.871957767545
20
-0.519267961963124
30
0
41
1
10
163.986419176315
20
-1.25460732370237
30
0
41
1
10
164.077988303331
20
-1.85638802307776
30
0
41
1
10
164.261126557363
20
-3.07013761942235
30
0
41
1
10
164.352695684379
20
-3.68206508154964
30
0
41
1
10
164.535833938411
20
-4.89528765994771
30
0
41
1
10
164.627403065427
20
-5.49651054075639
30
0
41
1
10
164.810541319459
20
-6.66524949813217
30
0
41
1
10
164.902110446475
20
-7.23267348712579
30
0
41
1
10
165.085248700507
20
-8.311004904865
30
0
41
1
10
165.176817827523
20
-8.82182090469627
30
0
41
1
10
165.268386954539
20
-9.29452570598716
30
0
0
SPLINE
5
E2
100
AcDbEntity
8
1
62
256
6
ByLayer
370
13
48
1
60
0
100
AcDbSpline
70
4
71
3
72
81
73
77
40
0
40
0
40
0
40
0
40
0.0312500000000003
40
0.0312500000000003
40
0.0625000000000006
40
0.0625000000000006
40
0.0937500000000009
40
0.0937500000000009
40
0.125000000000001
40
0.125000000000001
40
0.156250000000001
40
0.156250000000001
40
0.187500000000002
40
0.187500000000002
40
0.218750000000002
40
0.218750000000002
40
0.250000000000002
40
0.250000000000002
40
0.281250000000003
40
0.281250000000003
40
0.289062500000003
40
0.292968750000003
40
0.292968750000003
40
0.296875000000003
40
0.296875000000003
40
0.312500000000003
40
0.312500000000003
40
0.343750000000003
40
0.343750000000003
40
0.375000000000004
40
0.375000000000004
40
0.406250000000004
40
0.406250000000004
40
0.437500000000004
40
0.437500000000004
40
0.468750000000005
40
0.468750000000005
40
0.500000000000005
40
0.500000000000005
40
0.531250000000005
40
0.531250000000005
40
0.562500000000005
40
0.562500000000005
40
0.593750000000005
40
0.593750000000005
40
0.625000000000006
40
0.625000000000006
40
0.640625000000006
40
0.640625000000006
40
0.644531250000006
40
0.644531250000006
40
0.648437500000006
40
0.648437500000006
40
0.656250000000006
40
0.656250000000006
40
0.687500000000005
40
0.687500000000005
40
0.718750000000005
40
0.718750000000005
40
0.750000000000004
40
0.750000000000004
40
0.781250000000004
40
0.781250000000004
40
0.812500000000003
40
0.812500000000003
40
0.843750000000003
40
0.843750000000003
40
0.875000000000002
40
0.875000000000002
40
0.906250000000002
40
0.906250000000002
40
0.937500000000001
40
0.937500000000001
40
0.968750000000001
40
0.968750000000001
40
1
40
1
40
1
40
1
41
1
10
153.6
20
-3.11159656889578
30
0
41
1
10
153.68619051052
20
-3.68495582105615
30
0
41
1
10
153.77238102104
20
-4.25966534069769
30
0
41
1
10
153.94476204208
20
-5.39369619679712
30
0
41
1
10
154.0309525526
20
-5.9529585351238
30
0
41
1
10
154.203333573641
20
-7.03669304535492
30
0
41
1
10
154.289524084161
20
-7.56109564605757
30
0
41
1
10
154.461905105201
20
-8.5564449726061
30
0
41
1
10
154.548095615721
20
-9.0273260016701
30
0
41
1
10
154.720476636761
20
-9.89979103102669
30
0
41
1
10
154.806667147281
20
-10.3013281215955
30
0
41
1
10
154.979048168321
20
-11.0238332984302
30
0
41
1
10
155.065238678842
20
-11.3447831153483
30
0
41
1
10
155.237619699882
20
-11.9004197471525
30
0
41
1
10
155.323810210402
20
-12.1351183025078
30
0
41
1
10
155.496191231442
20
-12.5182310654267
30
0
41
1
10
155.582381741962
20
-12.6666803247726
30
0
41
1
10
155.754762763002
20
-12.8822116406788
30
0
41
1
10
155.840953273522
20
-12.9493408820781
30
0
41
1
10
155.948691411673
20
-12.9877583413838
30
0
41
1
10
155.981012853118
20
-12.995881836695
30
0
41
1
10
156.013334294562
20
-12.9990794593373
30
0
41
1
10
156.034881922193
20
-13.0001370793664
30
0
41
1
10
156.045655736008
20
-13.0001314021986
30
0
41
1
10
156.099524805083
20
-12.9974297525928
30
0
41
1
10
156.142620060343
20
-12.9866682391891
30
0
41
1
10
156.271905826123
20
-12.926700307771
30
0
41
1
10
156.358096336643
20
-12.8497090014415
30
0
41
1
10
156.530477357683
20
-12.6135987981032
30
0
41
1
10
156.616667868203
20
-12.4544335922094
30
0
41
1
10
156.789048889243
20
-12.0495923957494
30
0
41
1
10
156.875239399764
20
-11.8038837296829
30
0
41
1
10
157.047620420804
20
-11.2266191347238
30
0
41
1
10
157.133810931324
20
-10.8950550287105
30
0
41
1
10
157.306191952364
20
-10.152442006834
30
0
41
1
10
157.392382462884
20
-9.74141524279577
30
0
41
1
10
157.564763483924
20
-8.85174423877851
30
0
41
1
10
157.650953994444
20
-8.37314997801511
30
0
41
1
10
157.823335015484
20
-7.36461567444547
30
0
41
1
10
157.909525526005
20
-6.83474268731013
30
0
41
1
10
158.081906547045
20
-5.74252305032408
30
0
41
1
10
158.168097057565
20
-5.18024536253822
30
0
41
1
10
158.340478078605
20
-4.0425881269307
30
0
41
1
10
158.426668589125
20
-3.46726543910339
30
0
41
1
10
158.599049610165
20
-2.32145157615503
30
0
41
1
10
158.685240120685
20
-1.75099668604682
30
0
41
1
10
158.814525886465
20
-0.91024140191027
30
0
41
1
10
158.857621141725
20
-0.632451830218713
30
0
41
1
10
158.911490210801
20
-0.289258070971584
30
0
41
1
10
158.922264024616
20
-0.220820913687646
30
0
41
1
10
158.943811652246
20
-0.0843716500731944
30
0
41
1
10
158.954585466061
20
-0.0164978439428296
30
0
41
1
10
158.986906907506
20
0.187537625863939
30
0
41
1
10
159.008454535136
20
0.324432782000514
30
0
41
1
10
159.116192673286
20
1.01282877977559
30
0
41
1
10
159.202383183806
20
1.57623126560011
30
0
41
1
10
159.374764204846
20
2.7149164715976
30
0
41
1
10
159.460954715366
20
3.29017277187555
30
0
41
1
10
159.633335736406
20
4.43578975561172
30
0
41
1
10
159.719526246926
20
5.0061019359122
30
0
41
1
10
159.891907267967
20
6.1229063392172
30
0
41
1
10
159.978097778487
20
6.66933341914083
30
0
41
1
10
160.150478799527
20
7.71902771015257
30
0
41
1
10
160.236669310047
20
8.22222510683955
30
0
41
1
10
160.409050331087
20
9.16778087414562
30
0
41
1
10
160.495240841607
20
9.61008010131312
30
0
41
1
10
160.667621862647
20
10.4198159187701
30
0
41
1
10
160.753812373167
20
10.7872173594349
30
0
41
1
10
160.926193394208
20
11.438250926457
30
0
41
1
10
161.012383904728
20
11.7218782534999
30
0
41
1
10
161.184764925768
20
12.2021894986514
30
0
41
1
10
161.270955436288
20
12.3988965330469
30
0
41
1
10
161.443336457328
20
12.7076335140152
30
0
41
1
10
161.529526967848
20
12.8197052848919
30
0
41
1
10
161.701907988889
20
12.9658641117181
30
0
41
1
10
161.788098499409
20
13
30
0
41
1
10
161.874289009929
20
13
30
0
0
SPLINE
5
E3
100
AcDbEntity
8
1
62
256
6
ByLayer
370
13
48
1
60
0
100
AcDbSpline
70
4
71
3
72
43
73
39
40
0
40
0
40
0
40
0
40
0.0625
40
0.0625
40
0.125
40
0.125
40
0.1875
40
0.1875
40
0.25
40
0.25
40
0.3125
40
0.3125
40
0.375
40
0.375
40
0.4375
40
0.4375
40
0.5
40
0.5
40
0.5625
40
0.5625
40
0.59375
40
0.59375
40
0.6015625
40
0.6015625
40
0.609375
40
0.625
40
0.625
40
0.6875
40
0.6875
40
0.75
40
0.75
40
0.8125
40
0.8125
40
0.875
40
0.875
40
0.9375
40
0.9375
40
1
40
1
40
1
40
1
41
1
10
160.38819763948
20
13
30
0
41
1
10
160.48986825021
20
13
30
0
41
1
10
160.59153886094
20
12.9524443854644
30
0
41
1
10
160.794880082401
20
12.7468079326255
30
0
41
1
10
160.896550693132
20
12.588616998546
30
0
41
1
10
161.099891914593
20
12.1523972087668
30
0
41
1
10
161.201562525323
20
11.8742856706871
30
0
41
1
10
161.404903746784
20
11.1982521538272
30
0
41
1
10
161.506574357514
20
10.8003101798944
30
0
41
1
10
161.709915578975
20
9.89565303577118
30
0
41
1
10
161.811586189705
20
9.38899905674526
30
0
41
1
10
162.014927411166
20
8.28839257320263
30
0
41
1
10
162.116598021897
20
7.6945701957242
30
0
41
1
10
162.319939243358
20
6.44858964166084
30
0
41
1
10
162.421609854088
20
5.79659064231578
30
0
41
1
10
162.624951075549
20
4.46619493791073
30
0
41
1
10
162.726621686279
20
3.78793886705813
30
0
41
1
10
162.92996290774
20
2.43526591385552
30
0
41
1
10
163.03163351847
20
1.76093825686388
30
0
41
1
10
163.184139434566
20
0.771062715786002
30
0
41
1
10
163.234974739931
20
0.444657670807686
30
0
41
1
10
163.298518871638
20
0.0426311445937415
30
0
41
1
10
163.311227697979
20
-0.0373164594041953
30
0
41
1
10
163.336645350662
20
-0.198100738930606
30
0
41
1
10
163.374771829686
20
-0.44017153651194
30
0
41
1
10
163.412898308709
20
-0.684767618284098
30
0
41
1
10
163.539986572122
20
-1.50493184160743
30
0
41
1
10
163.641657182853
20
-2.17682445844309
30
0
41
1
10
163.844998404314
20
-3.52815229419304
30
0
41
1
10
163.946669015044
20
-4.20750594790707
30
0
41
1
10
164.150010236505
20
-5.54413393289957
30
0
41
1
10
164.251680847235
20
-6.20127285875742
30
0
41
1
10
164.455022068696
20
-7.46155084797607
30
0
41
1
10
164.556692679427
20
-8.06453056919381
30
0
41
1
10
164.760033900887
20
-9.18683193590107
30
0
41
1
10
164.861704511618
20
-9.7060171164774
30
0
41
1
10
165.065045733079
20
-10.6379591504023
30
0
41
1
10
165.166716343809
20
-11.0506446269295
30
0
41
1
10
165.268386954539
20
-11.4038069005013
30
0
0
SPLINE
5
E4
100
AcDbEntity
8
1
62
256
6
ByLayer
370
13
48
1
60
0
100
AcDbSpline
70
4
71
3
72
79
73
75
40
0
40
0
40
0
40
0
40
0.0312500000000007
40
0.0312500000000007
40
0.0625000000000013
40
0.0625000000000013
40
0.093750000000002
40
0.093750000000002
40
0.125000000000003
40
0.125000000000003
40
0.156250000000003
40
0.156250000000003
40
0.187500000000004
40
0.187500000000004
40
0.218750000000004
40
0.218750000000004
40
0.250000000000005
40
0.250000000000005
40
0.253906250000005
40
0.253906250000005
40
0.257812500000005
40
0.265625000000005
40
0.265625000000005
40
0.281250000000005
40
0.281250000000005
40
0.312500000000005
40
0.312500000000005
40
0.343750000000005
40
0.343750000000005
40
0.375000000000005
40
0.375000000000005
40
0.406250000000005
40
0.406250000000005
40
0.437500000000004
40
0.437500000000004
40
0.468750000000004
40
0.468750000000004
40
0.500000000000004
40
0.500000000000004
40
0.531250000000004
40
0.531250000000004
40
0.562500000000003
40
0.562500000000003
40
0.593750000000003
40
0.593750000000003
40
0.625000000000003
40
0.625000000000003
40
0.632812500000003
40
0.632812500000003
40
0.640625000000003
40
0.640625000000003
40
0.656250000000003
40
0.656250000000003
40
0.687500000000002
40
0.687500000000002
40
0.718750000000002
40
0.718750000000002
40
0.750000000000002
40
0.750000000000002
40
0.781250000000002
40
0.781250000000002
40
0.812500000000002
40
0.812500000000002
40
0.843750000000001
40
0.843750000000001
40
0.875000000000001
40
0.875000000000001
40
0.906250000000001
40
0.906250000000001
40
0.937500000000001
40
0.937500000000001
40
0.96875
40
0.96875
40
1
40
1
40
1
40
1
41
1
10
153.6
20
-6.2911430424648
30
0
41
1
10
153.681139768663
20
-6.80520426263274
30
0
41
1
10
153.762279537326
20
-7.30486984186081
30
0
41
1
10
153.924559074652
20
-8.25973654553266
30
0
41
1
10
154.005698843314
20
-8.71488763321483
30
0
41
1
10
154.16797838064
20
-9.56687914641034
30
0
41
1
10
154.249118149303
20
-9.96368060686601
30
0
41
1
10
154.411397686629
20
-10.6884290354205
30
0
41
1
10
154.492537455292
20
-11.0163556999491
30
0
41
1
10
154.654816992618
20
-11.5970277588885
30
0
41
1
10
154.735956761281
20
-11.8497741793729
30
0
41
1
10
154.898236298606
20
-12.2782702375344
30
0
41
1
10
154.979376067269
20
-12.4540395237197
30
0
41
1
10
155.141655604595
20
-12.7309517980116
30
0
41
1
10
155.222795373258
20
-12.8321265521569
30
0
41
1
10
155.385074910584
20
-12.9656073383835
30
0
41
1
10
155.466214679247
20
-12.9979495440825
30
0
41
1
10
155.557496918993
20
-13.0001496930561
30
0
41
1
10
155.567639390075
20
-12.9999229020403
30
0
41
1
10
155.587924332241
20
-12.9985153466495
30
0
41
1
10
155.61835174549
20
-12.9949705768876
30
0
41
1
10
155.648779158738
20
-12.9870488113501
30
0
41
1
10
155.709633985236
20
-12.9651730994613
30
0
41
1
10
155.750203869567
20
-12.9425423994578
30
0
41
1
10
155.871913522561
20
-12.8490669850916
30
0
41
1
10
155.953053291224
20
-12.7525479872722
30
0
41
1
10
156.11533282855
20
-12.4852285942845
30
0
41
1
10
156.196472597213
20
-12.3143959166609
30
0
41
1
10
156.358752134539
20
-11.895808333568
30
0
41
1
10
156.439891903202
20
-11.6480327722802
30
0
41
1
10
156.602171440527
20
-11.0770517533684
30
0
41
1
10
156.68331120919
20
-10.7538439311345
30
0
41
1
10
156.845590746516
20
-10.0379927310409
30
0
41
1
10
156.926730515179
20
-9.64536829798342
30
0
41
1
10
157.089010052505
20
-8.80093854129888
30
0
41
1
10
157.170149821168
20
-8.34917116202044
30
0
41
1
10
157.332429358493
20
-7.400102727442
30
0
41
1
10
157.413569127156
20
-6.90285128759399
30
0
41
1
10
157.575848664482
20
-5.87850860673828
30
0
41
1
10
157.656988433145
20
-5.35146865819198
30
0
41
1
10
157.819267970471
20
-4.28373603228272
30
0
41
1
10
157.900407739134
20
-3.74308695055626
30
0
41
1
10
158.06268727646
20
-2.6633586424509
30
0
41
1
10
158.143827045122
20
-2.1243092171751
30
0
41
1
10
158.306106582448
20
-1.060917512396
30
0
41
1
10
158.387246351111
20
-0.536589421745333
30
0
41
1
10
158.48867106194
20
0.103135616264524
30
0
41
1
10
158.508956004106
20
0.231482231857484
30
0
41
1
10
158.549525888437
20
0.489969231307441
30
0
41
1
10
158.569810830603
20
0.61992716953705
30
0
41
1
10
158.6306656571
20
1.01171211621991
30
0
41
1
10
158.671235541431
20
1.2754558023704
30
0
41
1
10
158.792945194426
20
2.07228736405071
30
0
41
1
10
158.874084963089
20
2.6110525456188
30
0
41
1
10
159.036364500414
20
3.69067356117625
30
0
41
1
10
159.117504269077
20
4.23150009311823
30
0
41
1
10
159.279783806403
20
5.30010124055977
30
0
41
1
10
159.360923575066
20
5.82783263341858
30
0
41
1
10
159.523203112392
20
6.85408200744953
30
0
41
1
10
159.604342881055
20
7.35254881042994
30
0
41
1
10
159.766622418381
20
8.30453192422007
30
0
41
1
10
159.847762187043
20
8.7579984035298
30
0
41
1
10
160.010041724369
20
9.60622176333251
30
0
41
1
10
160.091181493032
20
10.0009401851112
30
0
41
1
10
160.253461030358
20
10.7212487071231
30
0
41
1
10
160.334600799021
20
11.0468191818528
30
0
41
1
10
160.496880336347
20
11.6226497987069
30
0
41
1
10
160.57802010501
20
11.8729116377477
30
0
41
1
10
160.740299642335
20
12.2964529563787
30
0
41
1
10
160.821439410998
20
12.469752591696
30
0
41
1
10
160.983718948324
20
12.7418639678076
30
0
41
1
10
161.064858716987
20
12.8407077369807
30
0
41
1
10
161.227138254313
20
12.9697576554156
30
0
41
1
10
161.308278022976
20
13
30
0
41
1
10
161.389417791639
20
13
30
0
0
SPLINE
5
E5
100
AcDbEntity
8
1
62
256
6
ByLayer
370
13
48
1
60
0
100
AcDbSpline
70
4
71
3
72
72
73
68
40
0
40
0
40
0
40
0
40
0.0624999999999999
40
0.0624999999999999
40
0.0937499999999999
40
0.0937499999999999
40
0.125
40
0.125
40
0.15625
40
0.15625
40
0.1875
40
0.1875
40
0.21875
40
0.21875
40
0.25
40
0.25
40
0.28125
40
0.28125
40
0.3125
40
0.3125
40
0.34375
40
0.34375
40
0.375
40
0.375
40
0.40625
40
0.40625
40
0.4375
40
0.4375
40
0.46875
40
0.46875
40
0.5
40
0.5
40
0.53125
40
0.53125
40
0.5390625
40
0.5390625
40
0.546875
40
0.546875
40
0.5625
40
0.5625
40
0.59375
40
0.59375
40
0.625
40
0.625
40
0.65625
40
0.65625
40
0.6875
40
0.6875
40
0.71875
40
0.71875
40
0.75
40
0.75
40
0.78125
40
0.78125
40
0.8125
40
0.8125
40
0.84375
40
0.84375
40
0.875
40
0.875
40
0.90625
40
0.90625
40
0.9375
40
0.9375
40
0.96875
40
0.96875
40
1
40
1
40
1
40
1
41
1
10
159.90332642119
20
13
30
0
41
1
10
160.015098515634
20
13
30
0
41
1
10
160.126870610079
20
12.9424716692403
30
0
41
1
10
160.294528751746
20
12.7547787668889
30
0
41
1
10
160.350414798969
20
12.6753653004378
30
0
41
1
10
160.462186893413
20
12.4811589102811
30
0
41
1
10
160.518072940636
20
12.3663610758646
30
0
41
1
10
160.629845035081
20
12.100461041433
30
0
41
1
10
160.685731082303
20
11.9493551295688
30
0
41
1
10
160.797503176748
20
11.610812917835
30
0
41
1
10
160.85338922397
20
11.4233746419207
30
0
41
1
10
160.965161318415
20
11.0131278936927
30
0
41
1
10
161.021047365637
20
10.7903195783845
30
0
41
1
10
161.132819460082
20
10.3113078114189
30
0
41
1
10
161.188705507305
20
10.0551068202503
30
0
41
1
10
161.300477601749
20
9.51226077790071
30
0
41
1
10
161.356363648972
20
9.22562038099591
30
0
41
1
10
161.468135743417
20
8.62571518586108
30
0
41
1
10
161.524021790639
20
8.31245684421609
30
0
41
1
10
161.635793885084
20
7.66383555161221
30
0
41
1
10
161.691679932306
20
7.3284802410455
30
0
41
1
10
161.803452026751
20
6.64067088701299
30
0
41
1
10
161.859338073973
20
6.28822492212578
30
0
41
1
10
161.971110168418
20
5.57148745629388
30
0
41
1
10
162.026996215641
20
5.2072037202727
30
0
41
1
10
162.138768310085
20
4.47205068986756
30
0
41
1
10
162.194654357308
20
4.10118820162958
30
0
41
1
10
162.306426451752
20
3.35792348423794
30
0
41
1
10
162.362312498975
20
2.98552664475642
30
0
41
1
10
162.47408459342
20
2.24384035754113
30
0
41
1
10
162.529970640642
20
1.87455464847778
30
0
41
1
10
162.641742735087
20
1.14320144058905
30
0
41
1
10
162.697628782309
20
0.781136009523436
30
0
41
1
10
162.767486341337
20
0.335245299418176
30
0
41
1
10
162.781457853143
20
0.246400124442943
30
0
41
1
10
162.809400876754
20
0.0694237338507833
30
0
41
1
10
162.82337238856
20
-0.0184714805612316
30
0
41
1
10
162.865286923976
20
-0.283521058415118
30
0
41
1
10
162.893229947588
20
-0.461667894106654
30
0
41
1
10
162.977059018421
20
-0.999863912025802
30
0
41
1
10
163.032945065644
20
-1.36368851052143
30
0
41
1
10
163.144717160089
20
-2.09777908565874
30
0
41
1
10
163.200603207311
20
-2.46804266480927
30
0
41
1
10
163.312375301756
20
-3.21078685017335
30
0
41
1
10
163.368261348978
20
-3.58326337637351
30
0
41
1
10
163.480033443423
20
-4.32569639688506
30
0
41
1
10
163.535919490645
20
-4.69564718938131
30
0
41
1
10
163.64769158509
20
-5.42792614569143
30
0
41
1
10
163.703577632312
20
-5.79024726609345
30
0
41
1
10
163.815349726757
20
-6.50199124240146
30
0
41
1
10
163.871235773979
20
-6.85140621322972
30
0
41
1
10
163.983007868424
20
-7.53211529995048
30
0
41
1
10
164.038893915647
20
-7.86340136357569
30
0
41
1
10
164.150666010091
20
-8.50292492212142
30
0
41
1
10
164.206552057314
20
-8.81115495793372
30
0
41
1
10
164.318324151759
20
-9.40016929627012
30
0
41
1
10
164.374210198981
20
-9.68094746228667
30
0
41
1
10
164.485982293426
20
-10.2113981410747
30
0
41
1
10
164.541868340648
20
-10.4610664194947
30
0
41
1
10
164.653640435093
20
-10.9265322795265
30
0
41
1
10
164.709526482316
20
-11.1423278661966
30
0
41
1
10
164.82129857676
20
-11.5382726695592
30
0
41
1
10
164.877184623983
20
-11.7184221819026
30
0
41
1
10
164.988956718427
20
-12.0423139463236
30
0
41
1
10
165.04484276565
20
-12.1860585627226
30
0
41
1
10
165.156614860094
20
-12.4373534234665
30
0
41
1
10
165.212500907317
20
-12.5449076676655
30
0
41
1
10
165.268386954539
20
-12.6349094014128
30
0
0
SPLINE
5
E6
100
AcDbEntity
8
1
62
256
6
ByLayer
370
13
48
1
60
0
100
AcDbSpline
70
4
71
3
72
81
73
77
40
0
40
0
40
0
40
0
40
0.03125
40
0.03125
40
0.0625000000000001
40
0.0625000000000001
40
0.0937500000000001
40
0.0937500000000001
40
0.125
40
0.125
40
0.15625
40
0.15625
40
0.1875
40
0.1875
40
0.1953125
40
0.19921875
40
0.19921875
40
0.203125
40
0.203125
40
0.21875
40
0.21875
40
0.25
40
0.25
40
0.28125
40
0.28125
40
0.3125
40
0.3125
40
0.34375
40
0.34375
40
0.375
40
0.375
40
0.40625
40
0.40625
40
0.4375
40
0.4375
40
0.46875
40
0.46875
40
0.5
40
0.5
40
0.53125
40
0.53125
40
0.5625
40
0.5625
40
0.59375
40
0.59375
40
0.59765625
40
0.59765625
40
0.6015625
40
0.6015625
40
0.609375
40
0.609375
40
0.625
40
0.625
40
0.65625
40
0.65625
40
0.6875
40
0.6875
40
0.71875
40
0.71875
40
0.75
40
0.75
40
0.78125
40
0.78125
40
0.8125
40
0.8125
40
0.84375
40
0.84375
40
0.875
40
0.875
40
0.90625
40
0.90625
40
0.9375
40
0.9375
40
0.96875
40
0.96875
40
1
40
1
40
1
40
1
41
1
10
153.6
20
-9.1305485951487
30
0
41
1
10
153.676089026806
20
-9.53046701808802
30
0
41
1
10
153.752178053611
20
-9.9047737498862
30
0
41
1
10
153.904356107223
20
-10.5934078552242
30
0
41
1
10
153.980445134029
20
-10.9077194298336
30
0
41
1
10
154.13262318764
20
-11.4707774989108
30
0
41
1
10
154.208712214446
20
-11.7195227304127
30
0
41
1
10
154.360890268057
20
-12.1493497592483
30
0
41
1
10
154.436979294863
20
-12.3304435087453
30
0
41
1
10
154.589157348474
20
-12.6261882025073
30
0
41
1
10
154.66524637528
20
-12.7408604893685
30
0
41
1
10
154.817424428892
20
-12.9077858219774
30
0
41
1
10
154.893513455697
20
-12.9600646945506
30
0
41
1
10
154.988624739204
20
-12.9902134849756
30
0
41
1
10
155.017158124256
20
-12.9966240797867
30
0
41
1
10
155.045691509309
20
-12.9992059858333
30
0
41
1
10
155.06471376601
20
-13.0000905537673
30
0
41
1
10
155.074224894361
20
-13.000116127451
30
0
41
1
10
155.121780536114
20
-12.9981637330475
30
0
41
1
10
155.159825049517
20
-12.9899120046335
30
0
41
1
10
155.273958589726
20
-12.9437814006166
30
0
41
1
10
155.350047616531
20
-12.8844694001621
30
0
41
1
10
155.502225670143
20
-12.7028829082868
30
0
41
1
10
155.578314696949
20
-12.5805828619474
30
0
41
1
10
155.73049275056
20
-12.2692803106231
30
0
41
1
10
155.806581777366
20
-12.0802573170469
30
0
41
1
10
155.958759830977
20
-11.6346364493185
30
0
41
1
10
156.034848857783
20
-11.3780280112548
30
0
41
1
10
156.187026911394
20
-10.7997155948061
30
0
41
1
10
156.2631159382
20
-10.4780145753649
30
0
41
1
10
156.415293991811
20
-9.77547417611666
30
0
41
1
10
156.491383018617
20
-9.39465223594235
30
0
41
1
10
156.643561072229
20
-8.58299966449181
30
0
41
1
10
156.719650099034
20
-8.15219861378762
30
0
41
1
10
156.871828152646
20
-7.25217238215808
30
0
41
1
10
156.947917179452
20
-6.78298376832618
30
0
41
1
10
157.100095233063
20
-5.81920746079467
30
0
41
1
10
157.176184259869
20
-5.32465684812234
30
0
41
1
10
157.32836231348
20
-4.32349181219581
30
0
41
1
10
157.404451340286
20
-3.81690906263131
30
0
41
1
10
157.556629393897
20
-2.80427221557463
30
0
41
1
10
157.632718420703
20
-2.2982404752467
30
0
41
1
10
157.784896474314
20
-1.29773194336172
30
0
41
1
10
157.86098550112
20
-0.803266861944195
30
0
41
1
10
157.946585656277
20
-0.258525605891606
30
0
41
1
10
157.956096784627
20
-0.198157538399954
30
0
41
1
10
157.975119041329
20
-0.0777538397227033
30
0
41
1
10
157.984630169679
20
-0.0178226324602235
30
0
41
1
10
158.013163554732
20
0.162247278799129
30
0
41
1
10
158.032185811433
20
0.28297446995785
30
0
41
1
10
158.089252581537
20
0.647018496450983
30
0
41
1
10
158.12729709494
20
0.8922021682192
30
0
41
1
10
158.241430635149
20
1.63362246234919
30
0
41
1
10
158.317519661954
20
2.13579202425322
30
0
41
1
10
158.469697715566
20
3.14579287996085
30
0
41
1
10
158.545786742371
20
3.65360650106246
30
0
41
1
10
158.697964795983
20
4.66293060349321
30
0
41
1
10
158.774053822789
20
5.16441319209511
30
0
41
1
10
158.9262318764
20
6.1479636881154
30
0
41
1
10
159.002320903206
20
6.629996265514
30
0
41
1
10
159.154498956817
20
7.56135032403941
30
0
41
1
10
159.230587983623
20
8.0106342039571
30
0
41
1
10
159.382766037234
20
8.86412563924691
30
0
41
1
10
159.45885506404
20
9.26829977420576
30
0
41
1
10
159.611033117651
20
10.0212285748603
30
0
41
1
10
159.687122144457
20
10.3699599624534
30
0
41
1
10
159.839300198069
20
11.0045544776223
30
0
41
1
10
159.915389224874
20
11.2904081808828
30
0
41
1
10
160.067567278486
20
11.7951950428753
30
0
41
1
10
160.143656305291
20
12.0141331108431
30
0
41
1
10
160.295834358903
20
12.3844993176488
30
0
41
1
10
160.371923385709
20
12.5359441247064
30
0
41
1
10
160.52410143932
20
12.773861174361
30
0
41
1
10
160.600190466126
20
12.860357352531
30
0
41
1
10
160.752368519737
20
12.9734136197774
30
0
41
1
10
160.828457546543
20
13
30
0
41
1
10
160.904546573349
20
13
30
0
0
SPLINE
5
E7
100
AcDbEntity
8
1
62
256
6
ByLayer
370
13
48
1
60
0
100
AcDbSpline
70
4
71
3
72
78
73
74
40
0
40
0
40
0
40
0
40
0.03125
40
0.03125
40
0.0625
40
0.0625
40
0.09375
40
0.09375
40
0.125
40
0.125
40
0.15625
40
0.15625
40
0.1875
40
0.1875
40
0.21875
40
0.21875
40
0.25
40
0.25
40
0.28125
40
0.28125
40
0.3125
40
0.3125
40
0.34375
40
0.34375
40
0.375
40
0.375
40
0.40625
40
0.40625
40
0.4375
40
0.4375
40
0.46875
40
0.46875
40
0.484375
40
0.484375
40
0.4921875
40
0.4921875
40
0.5
40
0.5
40
0.53125
40
0.53125
40
0.5625
40
0.5625
40
0.59375
40
0.59375
40
0.625
40
0.625
40
0.65625
40
0.65625
40
0.6875
40
0.6875
40
0.71875
40
0.71875
40
0.75
40
0.75
40
0.78125
40
0.78125
40
0.8125
40
0.8125
40
0.84375
40
0.84375
40
0.875
40
0.875
40
0.90625
40
0.90625
40
0.9375
40
0.9375
40
0.96875
40
0.96875
40
0.984375
40
0.984375
40
0.9921875
40
0.9921875
40
1
40
1
40
1
40
1
41
1
10
159.4184552029
20
13
30
0
41
1
10
159.479391991979
20
13
30
0
41
1
10
159.540328781059
20
12.9829610881893
30
0
41
1
10
159.662202359218
20
12.9112888843681
30
0
41
1
10
159.723139148297
20
12.8566469290759
30
0
41
1
10
159.845012726457
20
12.7068785982248
30
0
41
1
10
159.905949515536
20
12.6117438149076
30
0
41
1
10
160.027823093695
20
12.3790019997478
30
0
41
1
10
160.088759882775
20
12.2413878200879
30
0
41
1
10
160.210633460934
20
11.9228389854399
30
0
41
1
10
160.271570250014
20
11.7418994961737
30
0
41
1
10
160.393443828173
20
11.337175223142
30
0
41
1
10
160.454380617252
20
11.1133888260939
30
0
41
1
10
160.576254195412
20
10.6248693341737
30
0
41
1
10
160.637190984491
20
10.3601384006841
30
0
41
1
10
160.75906456265
20
9.79304534878787
30
0
41
1
10
160.82000135173
20
9.49068920573794
30
0
41
1
10
160.941874929889
20
8.85295571346018
30
0
41
1
10
161.002811718969
20
8.51758762114247
30
0
41
1
10
161.124685297128
20
7.81950356908601
30
0
41
1
10
161.185622086207
20
7.45679911833997
30
0
41
1
10
161.307495664367
20
6.71046313583003
30
0
41
1
10
161.368432453446
20
6.32684403143583
30
0
41
1
10
161.490306031605
20
5.54548254872628
30
0
41
1
10
161.551242820685
20
5.14775213522827
30
0
41
1
10
161.673116398844
20
4.3449836678943
30
0
41
1
10
161.734053187924
20
3.93995593623291
30
0
41
1
10
161.855926766083
20
3.12908166927849
30
0
41
1
10
161.916863555162
20
2.72324300947682
30
0
41
1
10
162.038737133322
20
1.91663322684124
30
0
41
1
10
162.099673922401
20
1.51586717427438
30
0
41
1
10
162.191079106021
20
0.922335254621117
30
0
41
1
10
162.22154750056
20
0.725754119215821
30
0
41
1
10
162.26725009237
20
0.43318997401721
30
0
41
1
10
162.28248428964
20
0.336052735589959
30
0
41
1
10
162.31295268418
20
0.142609983334779
30
0
41
1
10
162.32818688145
20
0.0465295343481102
30
0
41
1
10
162.404357867799
20
-0.434286451926596
30
0
41
1
10
162.465294656879
20
-0.825946251005547
30
0
41
1
10
162.587168235038
20
-1.61902377719707
30
0
41
1
10
162.648105024118
20
-2.02043895865864
30
0
41
1
10
162.769978602277
20
-2.82786991268478
30
0
41
1
10
162.830915391356
20
-3.23388037029963
30
0
41
1
10
162.952788969515
20
-4.04456035959799
30
0
41
1
10
163.013725758595
20
-4.44922178466607
30
0
41
1
10
163.135599336754
20
-5.25067962659045
30
0
41
1
10
163.196536125834
20
-5.64746554207974
30
0
41
1
10
163.318409703993
20
-6.42634683271319
30
0
41
1
10
163.379346493072
20
-6.80843015246441
30
0
41
1
10
163.501220071232
20
-7.55112132421266
30
0
41
1
10
163.562156860311
20
-7.91171677243318
30
0
41
1
10
163.68403043847
20
-8.60505975985484
30
0
41
1
10
163.74496722755
20
-8.93779593414561
30
0
41
1
10
163.866840805709
20
-9.56982242788172
30
0
41
1
10
163.927777594788
20
-9.8691037384759
30
0
41
1
10
164.049651172948
20
-10.4297076067352
30
0
41
1
10
164.110587962027
20
-10.6910245044641
30
0
41
1
10
164.232461540187
20
-11.1724951854834
30
0
41
1
10
164.293398329266
20
-11.3926471419742
30
0
41
1
10
164.415271907425
20
-11.7900057656734
30
0
41
1
10
164.476208696505
20
-11.9672143515969
30
0
41
1
10
164.598082274664
20
-12.2783239911132
30
0
41
1
10
164.659019063744
20
-12.412230117395
30
0
41
1
10
164.780892641903
20
-12.6376849342358
30
0
41
1
10
164.841829430982
20
-12.7292409230484
30
0
41
1
10
164.963703009142
20
-12.8720684902487
30
0
41
1
10
165.024639798221
20
-12.9233485359656
30
0
41
1
10
165.11604498184
20
-12.972271787109
30
0
41
1
10
165.14651337638
20
-12.9839194765584
30
0
41
1
10
165.19221596819
20
-12.994722819607
30
0
41
1
10
165.20745016546
20
-12.9972128465344
30
0
41
1
10
165.23791856
20
-13.0000273727248
30
0
41
1
10
165.25315275727
20
-13.000356433691
30
0
41
1
10
165.268386954539
20
-12.9996204026135
30
0
0
SPLINE
5
E8
100
AcDbEntity
8
1
62
256
6
ByLayer
370
13
48
1
60
0
100
AcDbSpline
70
4
71
3
72
79
73
75
40
0
40
0
40
0
40
0
40
0.0312499999999996
40
0.0312499999999996
40
0.0624999999999992
40
0.0624999999999992
40
0.0937499999999988
40
0.0937499999999988
40
0.124999999999998
40
0.124999999999998
40
0.140624999999998
40
0.140624999999998
40
0.148437499999998
40
0.148437499999998
40
0.156249999999998
40
0.156249999999998
40
0.187499999999997
40
0.187499999999997
40
0.218749999999997
40
0.218749999999997
40
0.249999999999996
40
0.249999999999996
40
0.281249999999996
40
0.281249999999996
40
0.312499999999995
40
0.312499999999995
40
0.343749999999995
40
0.343749999999995
40
0.374999999999994
40
0.374999999999994
40
0.406249999999994
40
0.406249999999994
40
0.437499999999993
40
0.437499999999993
40
0.468749999999993
40
0.468749999999993
40
0.499999999999992
40
0.499999999999992
40
0.531249999999992
40
0.531249999999992
40
0.562499999999991
40
0.562499999999991
40
0.570312499999991
40
0.570312499999991
40
0.574218749999991
40
0.574218749999991
40
0.578124999999991
40
0.593749999999991
40
0.593749999999991
40
0.624999999999992
40
0.624999999999992
40
0.656249999999993
40
0.656249999999993
40
0.687499999999993
40
0.687499999999993
40
0.718749999999994
40
0.718749999999994
40
0.749999999999994
40
0.749999999999994
40
0.781249999999995
40
0.781249999999995
40
0.812499999999996
40
0.812499999999996
40
0.843749999999996
40
0.843749999999996
40
0.874999999999997
40
0.874999999999997
40
0.906249999999998
40
0.906249999999998
40
0.937499999999999
40
0.937499999999999
40
0.968749999999999
40
0.968749999999999
40
1
40
1
40
1
40
1
41
1
10
153.6
20
-11.2925828777767
30
0
41
1
10
153.671038284949
20
-11.5478318225449
30
0
41
1
10
153.742076569897
20
-11.7743258770547
30
0
41
1
10
153.884153139794
20
-12.1683533045177
30
0
41
1
10
153.955191424743
20
-12.3358956442728
30
0
41
1
10
154.09726799464
20
-12.6130744006696
30
0
41
1
10
154.168306279588
20
-12.7227259353804
30
0
41
1
10
154.310382849485
20
-12.8873109971048
30
0
41
1
10
154.381421134434
20
-12.9422627464551
30
0
41
1
10
154.487978561857
20
-12.9872585503989
30
0
41
1
10
154.523497704331
20
-12.9960294035568
30
0
41
1
10
154.576776418042
20
-13.0003717909931
30
0
41
1
10
154.59453598928
20
-13.0003624062496
30
0
41
1
10
154.630055131754
20
-12.9974290409773
30
0
41
1
10
154.647814702991
20
-12.9944935220299
30
0
41
1
10
154.736612559177
20
-12.9722474879965
30
0
41
1
10
154.807650844125
20
-12.9301862950475
30
0
41
1
10
154.949727414022
20
-12.7924476370207
30
0
41
1
10
155.020765698971
20
-12.6967516452166
30
0
41
1
10
155.162842268868
20
-12.4480969745085
30
0
41
1
10
155.233880553816
20
-12.2951221169054
30
0
41
1
10
155.375957123713
20
-11.9302725799708
30
0
41
1
10
155.446995408662
20
-11.7183871401667
30
0
41
1
10
155.589071978559
20
-11.2365046469198
30
0
41
1
10
155.660110263507
20
-10.9665049236426
30
0
41
1
10
155.802186833404
20
-10.3718184786056
30
0
41
1
10
155.873225118353
20
-10.0471386413459
30
0
41
1
10
156.01530168825
20
-9.34909392517193
30
0
41
1
10
156.086339973199
20
-8.97574515112251
30
0
41
1
10
156.228416543096
20
-8.18859381160095
30
0
41
1
10
156.299454828044
20
-7.77481435280507
30
0
41
1
10
156.441531397941
20
-6.91666368957999
30
0
41
1
10
156.51256968289
20
-6.47231899780599
30
0
41
1
10
156.654646252787
20
-5.56377148607615
30
0
41
1
10
156.725684537735
20
-5.09959454274954
30
0
41
1
10
156.867761107632
20
-4.16218620181786
30
0
41
1
10
156.938799392581
20
-3.68897655607677
30
0
41
1
10
157.080875962478
20
-2.74364945144708
30
0
41
1
10
157.151914247426
20
-2.27154739619519
30
0
41
1
10
157.293990817323
20
-1.33736046625586
30
0
41
1
10
157.365029102272
20
-0.875283925762602
30
0
41
1
10
157.453826958458
20
-0.308540133794082
30
0
41
1
10
157.471586529695
20
-0.195729856717975
30
0
41
1
10
157.49822588655
20
-0.027395561163047
30
0
41
1
10
157.507105672169
20
0.02849522569133
30
0
41
1
10
157.524865243406
20
0.140721931030185
30
0
41
1
10
157.569264171499
20
0.422021453012491
30
0
41
1
10
157.613663099592
20
0.706846020055366
30
0
41
1
10
157.720220527015
20
1.39593807152409
30
0
41
1
10
157.791258811963
20
1.86273343117401
30
0
41
1
10
157.93333538186
20
2.80317983118365
30
0
41
1
10
158.004373666809
20
3.27681988675951
30
0
41
1
10
158.146450236706
20
4.22153199031166
30
0
41
1
10
158.217488521654
20
4.69258608399028
30
0
41
1
10
158.359565091551
20
5.62166765229426
30
0
41
1
10
158.4306033765
20
6.07967148562864
30
0
41
1
10
158.572679946397
20
6.97178945093754
30
0
41
1
10
158.643718231346
20
7.40587700842644
30
0
41
1
10
158.785794801242
20
8.2396601766585
30
0
41
1
10
158.856833086191
20
8.63933008175047
30
0
41
1
10
158.998909656088
20
9.39493622670349
30
0
41
1
10
159.069947941037
20
9.75085162632377
30
0
41
1
10
159.212024510934
20
10.4114810195279
30
0
41
1
10
159.283062795882
20
10.716182209472
30
0
41
1
10
159.425139365779
20
11.269305175623
30
0
41
1
10
159.496177650728
20
11.5177237236242
30
0
41
1
10
159.638254220625
20
11.9558377940306
30
0
41
1
10
159.709292505573
20
12.1455392802378
30
0
41
1
10
159.85136907547
20
12.4663657033312
30
0
41
1
10
159.922407360419
20
12.5975037898815
30
0
41
1
10
160.064483930316
20
12.8036442169153
30
0
41
1
10
160.135522215265
20
12.8786639744506
30
0
41
1
10
160.277598785162
20
12.976832533484
30
0
41
1
10
160.34863707011
20
13
30
0
41
1
10
160.419675355059
20
13
30
0
0
SPLINE
5
E9
100
AcDbEntity
8
1
62
256
6
ByLayer
370
13
48
1
60
0
100
AcDbSpline
70
4
71
3
72
78
73
74
40
0
40
0
40
0
40
0
40
0.0312500000000003
40
0.0312500000000003
40
0.0625000000000006
40
0.0625000000000006
40
0.0937500000000009
40
0.0937500000000009
40
0.125000000000001
40
0.125000000000001
40
0.156250000000001
40
0.156250000000001
40
0.187500000000002
40
0.187500000000002
40
0.218750000000002
40
0.218750000000002
40
0.250000000000002
40
0.250000000000002
40
0.281250000000003
40
0.281250000000003
40
0.312500000000003
40
0.312500000000003
40
0.343750000000003
40
0.343750000000003
40
0.375000000000003
40
0.375000000000003
40
0.406250000000003
40
0.406250000000003
40
0.437500000000004
40
0.437500000000004
40
0.453125000000004
40
0.453125000000004
40
0.460937500000004
40
0.460937500000004
40
0.468750000000004
40
0.468750000000004
40
0.500000000000003
40
0.500000000000003
40
0.531250000000003
40
0.531250000000003
40
0.562500000000003
40
0.562500000000003
40
0.593750000000003
40
0.593750000000003
40
0.625000000000003
40
0.625000000000003
40
0.656250000000003
40
0.656250000000003
40
0.687500000000003
40
0.687500000000003
40
0.718750000000003
40
0.718750000000003
40
0.750000000000003
40
0.750000000000003
40
0.781250000000003
40
0.781250000000003
40
0.812500000000003
40
0.812500000000003
40
0.843750000000003
40
0.843750000000003
40
0.875000000000003
40
0.875000000000003
40
0.906250000000003
40
0.906250000000003
40
0.914062500000003
40
0.914062500000003
40
0.921875000000002
40
0.921875000000002
40
0.937500000000002
40
0.937500000000002
40
0.968750000000001
40
0.968750000000001
40
1
40
1
40
1
40
1
41
1
10
158.933583984609
20
13
30
0
41
1
10
158.999571515546
20
13
30
0
41
1
10
159.065559046483
20
12.9800148837256
30
0
41
1
10
159.197534108357
20
12.8956377343893
30
0
41
1
10
159.263521639293
20
12.8312327920694
30
0
41
1
10
159.395496701167
20
12.6544684747637
30
0
41
1
10
159.461484232104
20
12.5420967953372
30
0
41
1
10
159.593459293977
20
12.2671490943484
30
0
41
1
10
159.659446824914
20
12.1045631553372
30
0
41
1
10
159.791421886788
20
11.7285751173845
30
0
41
1
10
159.857409417724
20
11.5151672903338
30
0
41
1
10
159.989384479598
20
11.0388032929796
30
0
41
1
10
160.055372010535
20
10.7758469939484
30
0
41
1
10
160.187347072408
20
10.203626257168
30
0
41
1
10
160.253334603345
20
9.89436790518923
30
0
41
1
10
160.385309665218
20
9.23466775661495
30
0
41
1
10
160.451297196155
20
8.88423783121519
30
0
41
1
10
160.583272258029
20
8.14893162779089
30
0
41
1
10
160.649259788966
20
7.76407154852842
30
0
41
1
10
160.781234850839
20
6.96782689436779
30
0
41
1
10
160.847222381776
20
6.55646065873174
30
0
41
1
10
160.979197443649
20
5.71578322724565
30
0
41
1
10
161.045184974586
20
5.28649008733737
30
0
41
1
10
161.17716003646
20
4.41864071142939
30
0
41
1
10
161.243147567397
20
3.98010010880847
30
0
41
1
10
161.37512262927
20
3.10202680265721
30
0
41
1
10
161.441110160207
20
2.66250584343828
30
0
41
1
10
161.57308522208
20
1.78991631435264
30
0
41
1
10
161.639072753017
20
1.35685496812351
30
0
41
1
10
161.738054049422
20
0.716851080667283
30
0
41
1
10
161.771047814891
20
0.505105134050638
30
0
41
1
10
161.820538463093
20
0.190374088744733
30
0
41
1
10
161.837035345827
20
0.0860532076686695
30
0
41
1
10
161.870029111296
20
-0.122006267028638
30
0
41
1
10
161.88652599403
20
-0.226550711287246
30
0
41
1
10
161.969010407701
20
-0.75165349508535
30
0
41
1
10
162.034997938638
20
-1.17940287913771
30
0
41
1
10
162.166973000511
20
-2.04449861581094
30
0
41
1
10
162.232960531448
20
-2.48183986634749
30
0
41
1
10
162.364935593321
20
-3.35918100473995
30
0
41
1
10
162.430923124258
20
-3.79917125056275
30
0
41
1
10
162.562898186132
20
-4.67389308887201
30
0
41
1
10
162.628885717069
20
-5.10861074781081
30
0
41
1
10
162.760860778942
20
-5.96424654956124
30
0
41
1
10
162.826848309879
20
-6.38514754582718
30
0
41
1
10
162.958823371752
20
-7.20445683802518
30
0
41
1
10
163.024810902689
20
-7.60284663229578
30
0
41
1
10
163.156785964563
20
-8.3688306557242
30
0
41
1
10
163.2227734955
20
-8.73640737788162
30
0
41
1
10
163.354748557373
20
-9.43340228180728
30
0
41
1
10
163.42073608831
20
-9.76280631717819
30
0
41
1
10
163.552711150183
20
-10.3775165447887
30
0
41
1
10
163.61869868112
20
-10.6628138050818
30
0
41
1
10
163.750673742994
20
-11.185147531344
30
0
41
1
10
163.81666127393
20
-11.4221812137966
30
0
41
1
10
163.948636335804
20
-11.8457795522231
30
0
41
1
10
164.014623866741
20
-12.0323474333551
30
0
41
1
10
164.146598928614
20
-12.3547524805024
30
0
41
1
10
164.212586459551
20
-12.4905978007609
30
0
41
1
10
164.344561521425
20
-12.7130669277662
30
0
41
1
10
164.410549052361
20
-12.7997021463072
30
0
41
1
10
164.542524114235
20
-12.926730792208
30
0
41
1
10
164.608511645172
20
-12.9671370504567
30
0
41
1
10
164.690996058843
20
-12.9912934183224
30
0
41
1
10
164.707492941577
20
-12.9948092615074
30
0
41
1
10
164.740486707045
20
-12.9992812137896
30
0
41
1
10
164.75698358978
20
-13.0002382088058
30
0
41
1
10
164.806474237982
20
-12.9993743483178
30
0
41
1
10
164.83946800345
20
-12.993790562922
30
0
41
1
10
164.938449299856
20
-12.961154158397
30
0
41
1
10
165.004436830792
20
-12.9181863738922
30
0
41
1
10
165.136411892666
20
-12.7858293449526
30
0
41
1
10
165.202399423602
20
-12.6964273036455
30
0
41
1
10
165.268386954539
20
-12.5823606858079
30
0
0
SPLINE
5
EA
100
AcDbEntity
8
1
62
256
6
ByLayer
370
13
48
1
60
0
100
AcDbSpline
70
4
71
3
72
78
73
74
40
0
40
0
40
0
40
0
40
0.0312499999999989
40
0.0312499999999989
40
0.0624999999999977
40
0.0624999999999977
40
0.0781249999999972
40
0.0781249999999972
40
0.085937499999997
40
0.085937499999997
40
0.0937499999999969
40
0.0937499999999969
40
0.124999999999997
40
0.124999999999997
40
0.156249999999997
40
0.156249999999997
40
0.187499999999997
40
0.187499999999997
40
0.218749999999998
40
0.218749999999998
40
0.249999999999998
40
0.249999999999998
40
0.281249999999998
40
0.281249999999998
40
0.312499999999998
40
0.312499999999998
40
0.343749999999998
40
0.343749999999998
40
0.374999999999998
40
0.374999999999998
40
0.406249999999998
40
0.406249999999998
40
0.437499999999998
40
0.437499999999998
40
0.468749999999998
40
0.468749999999998
40
0.499999999999998
40
0.499999999999998
40
0.531249999999998
40
0.531249999999998
40
0.539062499999999
40
0.539062499999999
40
0.546874999999999
40
0.546874999999999
40
0.562499999999999
40
0.562499999999999
40
0.593749999999999
40
0.593749999999999
40
0.624999999999999
40
0.624999999999999
40
0.656249999999999
40
0.656249999999999
40
0.687499999999999
40
0.687499999999999
40
0.718749999999999
40
0.718749999999999
40
0.749999999999999
40
0.749999999999999
40
0.781249999999999
40
0.781249999999999
40
0.8125
40
0.8125
40
0.84375
40
0.84375
40
0.875
40
0.875
40
0.90625
40
0.90625
40
0.9375
40
0.9375
40
0.96875
40
0.96875
40
1
40
1
40
1
40
1
41
1
10
153.6
20
-12.5823586687979
30
0
41
1
10
153.665987543091
20
-12.6964255977427
30
0
41
1
10
153.731975086183
20
-12.7858279345045
30
0
41
1
10
153.863950172365
20
-12.9181855170427
30
0
41
1
10
153.929937715457
20
-12.9611535596997
30
0
41
1
10
154.028919030094
20
-12.9937903212363
30
0
41
1
10
154.061912801639
20
-12.9993742206227
30
0
41
1
10
154.111403458958
20
-13.0002382444867
30
0
41
1
10
154.127900344731
20
-12.9992813036012
30
0
41
1
10
154.160894116276
20
-12.9948094608148
30
0
41
1
10
154.177391002049
20
-12.9912936726864
30
0
41
1
10
154.259875430913
20
-12.9671375814108
30
0
41
1
10
154.325862974005
20
-12.9267315486698
30
0
41
1
10
154.457838060187
20
-12.7997033552765
30
0
41
1
10
154.523825603279
20
-12.7130683637205
30
0
41
1
10
154.655800689461
20
-12.4905996839956
30
0
41
1
10
154.721788232553
20
-12.3547545840104
30
0
41
1
10
154.853763318736
20
-12.0323499619032
30
0
41
1
10
154.919750861827
20
-11.8457822855105
30
0
41
1
10
155.05172594801
20
-11.4221843323564
30
0
41
1
10
155.117713491101
20
-11.1851508304079
30
0
41
1
10
155.249688577284
20
-10.6628174332237
30
0
41
1
10
155.315676120375
20
-10.3775203214792
30
0
41
1
10
155.447651206558
20
-9.76281035311487
30
0
41
1
10
155.513638749649
20
-9.43340642842486
30
0
41
1
10
155.645613835832
20
-8.73641170453598
30
0
41
1
10
155.711601378923
20
-8.36883505172946
30
0
41
1
10
155.843576465106
20
-7.60285112498332
30
0
41
1
10
155.909564008197
20
-7.20446135805156
30
0
41
1
10
156.04153909438
20
-6.38515208055759
30
0
41
1
10
156.107526637471
20
-5.96425107167471
30
0
41
1
10
156.239501723654
20
-5.10861520911274
30
0
41
1
10
156.305489266745
20
-4.67389750200354
30
0
41
1
10
156.437464352928
20
-3.79917553787536
30
0
41
1
10
156.503451896019
20
-3.35918521442972
30
0
41
1
10
156.635426982202
20
-2.48184389834964
30
0
41
1
10
156.701414525293
20
-2.04450254777143
30
0
41
1
10
156.833389611476
20
-1.17940659579796
30
0
41
1
10
156.899377154567
20
-0.751657096504772
30
0
41
1
10
156.981861583431
20
-0.226554163390091
30
0
41
1
10
156.998358469204
20
-0.122009689003193
30
0
41
1
10
157.03135224075
20
0.0860498463827923
30
0
41
1
10
157.047849126522
20
0.190370717318842
30
0
41
1
10
157.097339783841
20
0.505101789798033
30
0
41
1
10
157.130333555387
20
0.716847756931685
30
0
41
1
10
157.229314870024
20
1.35685171321478
30
0
41
1
10
157.295302413115
20
1.78991311506957
30
0
41
1
10
157.427277499298
20
2.66250277438488
30
0
41
1
10
157.493265042389
20
3.10202380821201
30
0
41
1
10
157.625240128572
20
3.98009728073379
30
0
41
1
10
157.691227671663
20
4.4186379751157
30
0
41
1
10
157.823202757846
20
5.28648754848652
30
0
41
1
10
157.889190300937
20
5.71578079408889
30
0
41
1
10
158.02116538712
20
6.55645844643237
30
0
41
1
10
158.087152930211
20
6.96782479721779
30
0
41
1
10
158.219128016394
20
7.76406968574378
30
0
41
1
10
158.285115559485
20
8.14892988420385
30
0
41
1
10
158.417090645668
20
8.88423632424957
30
0
41
1
10
158.483078188759
20
9.23466636705336
30
0
41
1
10
158.615053274942
20
9.89436674296854
30
0
41
1
10
158.681040818033
20
10.2036252048666
30
0
41
1
10
158.813015904216
20
10.7758461490467
30
0
41
1
10
158.879003447307
20
11.0388025455459
30
0
41
1
10
159.01097853349
20
11.5151667216097
30
0
41
1
10
159.076966076581
20
11.7285746298963
30
0
41
1
10
159.208941162764
20
12.1045628117641
30
0
41
1
10
159.274928705855
20
12.267148813456
30
0
41
1
10
159.406903792038
20
12.5420966204339
30
0
41
1
10
159.472891335129
20
12.6544683431762
30
0
41
1
10
159.604866421312
20
12.8312327283024
30
0
41
1
10
159.670853964403
20
12.8956376951378
30
0
41
1
10
159.802829050586
20
12.9800148763516
30
0
41
1
10
159.868816593677
20
13
30
0
41
1
10
159.934804136768
20
13
30
0
0
SPLINE
5
EB
100
AcDbEntity
8
1
62
256
6
ByLayer
370
13
48
1
60
0
100
AcDbSpline
70
4
71
3
72
80
73
76
40
0
40
0
40
0
40
0
40
0.0312499999999997
40
0.0312499999999997
40
0.0624999999999994
40
0.0624999999999994
40
0.0937499999999991
40
0.0937499999999991
40
0.124999999999999
40
0.124999999999999
40
0.156249999999999
40
0.156249999999999
40
0.187499999999998
40
0.187499999999998
40
0.218749999999998
40
0.218749999999998
40
0.249999999999998
40
0.249999999999998
40
0.281249999999998
40
0.281249999999998
40
0.312499999999997
40
0.312499999999997
40
0.343749999999997
40
0.343749999999997
40
0.374999999999997
40
0.374999999999997
40
0.406249999999997
40
0.406249999999997
40
0.421874999999996
40
0.421874999999996
40
0.425781249999996
40
0.425781249999996
40
0.429687499999996
40
0.429687499999996
40
0.437499999999996
40
0.437499999999996
40
0.468749999999996
40
0.468749999999996
40
0.499999999999997
40
0.499999999999997
40
0.531249999999997
40
0.531249999999997
40
0.562499999999998
40
0.562499999999998
40
0.593749999999998
40
0.593749999999998
40
0.624999999999998
40
0.624999999999998
40
0.656249999999999
40
0.656249999999999
40
0.687499999999999
40
0.687499999999999
40
0.71875
40
0.71875
40
0.75
40
0.75
40
0.78125
40
0.78125
40
0.812500000000001
40
0.812500000000001
40
0.843750000000001
40
0.843750000000001
40
0.851562500000001
40
0.851562500000001
40
0.859375000000001
40
0.859375000000001
40
0.875000000000001
40
0.875000000000001
40
0.906250000000001
40
0.906250000000001
40
0.9375
40
0.9375
40
0.96875
40
0.96875
40
1
40
1
40
1
40
1
41
1
10
158.448712766319
20
13
30
0
41
1
10
158.519751039113
20
13
30
0
41
1
10
158.590789311907
20
12.9768325414268
30
0
41
1
10
158.732865857495
20
12.8786640168974
30
0
41
1
10
158.803904130289
20
12.8036442859394
30
0
41
1
10
158.945980675877
20
12.5975039324797
30
0
41
1
10
159.017018948671
20
12.4663658929402
30
0
41
1
10
159.159095494259
20
12.1455395846661
30
0
41
1
10
159.230133767053
20
11.9558381662755
30
0
41
1
10
159.372210312641
20
11.5177242509089
30
0
41
1
10
159.443248585435
20
11.2693057901302
30
0
41
1
10
159.585325131023
20
10.7161830145454
30
0
41
1
10
159.656363403817
20
10.4114819279339
30
0
41
1
10
159.798439949405
20
9.75085275251044
30
0
41
1
10
159.869478222199
20
9.39493746731787
30
0
41
1
10
160.011554767787
20
8.63933155608623
30
0
41
1
10
160.082593040581
20
8.23966177026222
30
0
41
1
10
160.224669586168
20
7.40587883864694
30
0
41
1
10
160.295707858962
20
6.97179139848097
30
0
41
1
10
160.43778440455
20
6.07967365937492
30
0
41
1
10
160.508822677344
20
5.6216699348995
30
0
41
1
10
160.650899222932
20
4.69258857032881
30
0
41
1
10
160.721937495726
20
4.22153457151214
30
0
41
1
10
160.864014041314
20
3.27682263965138
30
0
41
1
10
160.935052314108
20
2.80318266090205
30
0
41
1
10
161.077128859696
20
1.8627363941907
30
0
41
1
10
161.14816713249
20
1.39594109101779
30
0
41
1
10
161.254724541681
20
0.706849108520373
30
0
41
1
10
161.290243678078
20
0.478989475265052
30
0
41
1
10
161.334642598574
20
0.196985176609161
30
0
41
1
10
161.343522382673
20
0.140725066407214
30
0
41
1
10
161.361281950872
20
0.0284983693232448
30
0
41
1
10
161.370161734971
20
-0.0273924080903214
30
0
41
1
10
161.396801087269
20
-0.195726658267944
30
0
41
1
10
161.414560655467
20
-0.308536905335984
30
0
41
1
10
161.50335849646
20
-0.875280548767478
30
0
41
1
10
161.574396769254
20
-1.33735697521007
30
0
41
1
10
161.716473314842
20
-2.27154369451688
30
0
41
1
10
161.787511587635
20
-2.74364565321187
30
0
41
1
10
161.929588133223
20
-3.6889725905813
30
0
41
1
10
162.000626406017
20
-4.16218216565116
30
0
41
1
10
162.142702951605
20
-5.09959039905161
30
0
41
1
10
162.213741224399
20
-5.56376730555269
30
0
41
1
10
162.355817769987
20
-6.47231478395096
30
0
41
1
10
162.426856042781
20
-6.91665947924884
30
0
41
1
10
162.568932588369
20
-7.77481019390507
30
0
41
1
10
162.639970861163
20
-8.18858970062641
30
0
41
1
10
162.782047406751
20
-8.97574118125385
30
0
41
1
10
162.853085679545
20
-9.34909004848501
30
0
41
1
10
162.995162225133
20
-10.0471349936476
30
0
41
1
10
163.066200497927
20
-10.3718149666978
30
0
41
1
10
163.208277043515
20
-10.9665017200367
30
0
41
1
10
163.279315316309
20
-11.2365016157946
30
0
41
1
10
163.421391861896
20
-11.7183844822706
30
0
41
1
10
163.49243013469
20
-11.9302701227849
30
0
41
1
10
163.634506680278
20
-12.2951200794639
30
0
41
1
10
163.705544953072
20
-12.4480951560638
30
0
41
1
10
163.84762149866
20
-12.6967502728184
30
0
41
1
10
163.918659771454
20
-12.7924464916419
30
0
41
1
10
164.060736317042
20
-12.9301856022028
30
0
41
1
10
164.131774589836
20
-12.9722470206468
30
0
41
1
10
164.220572430828
20
-12.9944933305575
30
0
41
1
10
164.238331999027
20
-12.997428904385
30
0
41
1
10
164.273851135424
20
-13.0003623787191
30
0
41
1
10
164.291610703622
20
-13.0003718171982
30
0
41
1
10
164.344889408218
20
-12.9960295963244
30
0
41
1
10
164.380408544615
20
-12.9872588596644
30
0
41
1
10
164.486965953806
20
-12.9422634213057
30
0
41
1
10
164.5580042266
20
-12.8873119372505
30
0
41
1
10
164.700080772188
20
-12.7227274451782
30
0
41
1
10
164.771119044982
20
-12.6130762148321
30
0
41
1
10
164.91319559057
20
-12.3358980983528
30
0
41
1
10
164.984233863364
20
-12.1683560941394
30
0
41
1
10
165.126310408951
20
-11.7743293572689
30
0
41
1
10
165.197348681745
20
-11.5478356577774
30
0
41
1
10
165.268386954539
20
-11.2925870703632
30
0
0
SPLINE
5
EC
100
AcDbEntity
8
1
62
256
6
ByLayer
370
13
48
1
60
0
100
AcDbSpline
70
4
71
3
72
76
73
72
40
0
40
0
40
0
40
0
40
0.0078124999999999
40
0.0078124999999999
40
0.0156249999999997
40
0.0312499999999997
40
0.0312499999999997
40
0.0624999999999998
40
0.0624999999999998
40
0.0937499999999999
40
0.0937499999999999
40
0.125
40
0.125
40
0.15625
40
0.15625
40
0.1875
40
0.1875
40
0.21875
40
0.21875
40
0.25
40
0.25
40
0.28125
40
0.28125
40
0.312500000000001
40
0.312500000000001
40
0.343750000000001
40
0.343750000000001
40
0.375000000000001
40
0.375000000000001
40
0.406250000000001
40
0.406250000000001
40
0.437500000000001
40
0.437500000000001
40
0.468750000000001
40
0.468750000000001
40
0.500000000000001
40
0.500000000000001
40
0.507812500000001
40
0.507812500000001
40
0.515625000000001
40
0.531250000000001
40
0.531250000000001
40
0.562500000000001
40
0.562500000000001
40
0.593750000000001
40
0.593750000000001
40
0.625000000000001
40
0.625000000000001
40
0.656250000000001
40
0.656250000000001
40
0.687500000000001
40
0.687500000000001
40
0.71875
40
0.71875
40
0.75
40
0.75
40
0.78125
40
0.78125
40
0.8125
40
0.8125
40
0.84375
40
0.84375
40
0.875
40
0.875
40
0.90625
40
0.90625
40
0.9375
40
0.9375
40
0.96875
40
0.96875
40
1
40
1
40
1
40
1
41
1
10
153.6
20
-12.9996203462363
30
0
41
1
10
153.615234200309
20
-13.0003564322861
30
0
41
1
10
153.630468400617
20
-13.0000274250957
30
0
41
1
10
153.660936801234
20
-12.9972130080492
30
0
41
1
10
153.70663940216
20
-12.9897436474033
30
0
41
1
10
153.752342003085
20
-12.9722722801539
30
0
41
1
10
153.843747204937
20
-12.923349364918
30
0
41
1
10
153.904684006171
20
-12.8720695459136
30
0
41
1
10
154.026557608639
20
-12.7292424313587
30
0
41
1
10
154.087494409873
20
-12.6376866684668
30
0
41
1
10
154.209368012342
20
-12.4122322955195
30
0
41
1
10
154.270304813576
20
-12.2783263871938
30
0
41
1
10
154.392178416044
20
-11.9672171680927
30
0
41
1
10
154.453115217278
20
-11.7900087846081
30
0
41
1
10
154.574988819746
20
-11.3926505429271
30
0
41
1
10
154.635925620981
20
-11.1724987659948
30
0
41
1
10
154.757799223449
20
-10.6910284146849
30
0
41
1
10
154.818736024683
20
-10.4297116670886
30
0
41
1
10
154.940609627151
20
-9.8691080645543
30
0
41
1
10
155.001546428386
20
-9.56982686953964
30
0
41
1
10
155.123420030854
20
-8.93780056918152
30
0
41
1
10
155.184356832088
20
-8.60506447268418
30
0
41
1
10
155.306230434556
20
-7.91172160199366
30
0
41
1
10
155.367167235791
20
-7.55112619271424
30
0
41
1
10
155.489040838259
20
-6.80843506111015
30
0
41
1
10
155.549977639493
20
-6.42635174257288
30
0
41
1
10
155.671851241961
20
-5.64747041972072
30
0
41
1
10
155.732788043195
20
-5.25068447081497
30
0
41
1
10
155.854661645664
20
-4.44922653206083
30
0
41
1
10
155.915598446898
20
-4.04456504359806
30
0
41
1
10
156.037472049366
20
-3.2338849031878
30
0
41
1
10
156.0984088506
20
-2.82787435787392
30
0
41
1
10
156.220282453069
20
-2.02044321026341
30
0
41
1
10
156.281219254303
20
-1.61902792293191
30
0
41
1
10
156.403092856771
20
-0.825950172898501
30
0
41
1
10
156.464029658005
20
-0.434290255859025
30
0
41
1
10
156.540200659548
20
0.0465258819156986
30
0
41
1
10
156.555434859856
20
0.142606328258552
30
0
41
1
10
156.585903260473
20
0.33604909820275
30
0
41
1
10
156.631605861399
20
0.627459942317842
30
0
41
1
10
156.677308462325
20
0.922331678632901
30
0
41
1
10
156.768713664176
20
1.51586367141925
30
0
41
1
10
156.82965046541
20
1.91662978173196
30
0
41
1
10
156.951524067878
20
2.72323969729257
30
0
41
1
10
157.012460869113
20
3.12907843227632
30
0
41
1
10
157.134334471581
20
3.93995286543179
30
0
41
1
10
157.195271272815
20
4.34498068811138
30
0
41
1
10
157.317144875283
20
5.14774935062817
30
0
41
1
10
157.378081676517
20
5.54547986828561
30
0
41
1
10
157.499955278986
20
6.32684156876462
30
0
41
1
10
157.56089208022
20
6.71046078675943
30
0
41
1
10
157.682765682688
20
7.45679700144186
30
0
41
1
10
157.743702483922
20
7.81950157074704
30
0
41
1
10
157.865576086391
20
8.51758585996899
30
0
41
1
10
157.926512887625
20
8.85295407087875
30
0
41
1
10
158.048386490093
20
9.49068779543381
30
0
41
1
10
158.109323291327
20
9.79304405215527
30
0
41
1
10
158.231196893796
20
10.3601373219335
30
0
41
1
10
158.29213369503
20
10.6248683596226
30
0
41
1
10
158.414007297498
20
11.1133880467061
30
0
41
1
10
158.474944098732
20
11.3371745347111
30
0
41
1
10
158.596817701201
20
11.7418989736982
30
0
41
1
10
158.657754502435
20
11.922838537961
30
0
41
1
10
158.779628104903
20
12.2413875051064
30
0
41
1
10
158.840564906137
20
12.3790017422697
30
0
41
1
10
158.962438508605
20
12.6117436545775
30
0
41
1
10
159.02337530984
20
12.7068784775454
30
0
41
1
10
159.145248912308
20
12.8566468705168
30
0
41
1
10
159.206185713542
20
12.9112888482867
30
0
41
1
10
159.32805931601
20
12.9829610813831
30
0
41
1
10
159.388996117244
20
13
30
0
41
1
10
159.449932918479
20
13
30
0
0
SPLINE
5
ED
100
AcDbEntity
8
1
62
256
6
ByLayer
370
13
48
1
60
0
100
AcDbSpline
70
4
71
3
72
81
73
77
40
0
40
0
40
0
40
0
40
0.031249999999999
40
0.031249999999999
40
0.062499999999998
40
0.062499999999998
40
0.093749999999997
40
0.093749999999997
40
0.124999999999996
40
0.124999999999996
40
0.156249999999995
40
0.156249999999995
40
0.187499999999994
40
0.187499999999994
40
0.218749999999993
40
0.218749999999993
40
0.249999999999992
40
0.249999999999992
40
0.281249999999991
40
0.281249999999991
40
0.31249999999999
40
0.31249999999999
40
0.343749999999989
40
0.343749999999989
40
0.374999999999988
40
0.374999999999988
40
0.390624999999988
40
0.390624999999988
40
0.398437499999988
40
0.398437499999988
40
0.402343749999988
40
0.402343749999988
40
0.406249999999988
40
0.406249999999988
40
0.437499999999989
40
0.437499999999989
40
0.46874999999999
40
0.46874999999999
40
0.499999999999991
40
0.499999999999991
40
0.531249999999992
40
0.531249999999992
40
0.562499999999993
40
0.562499999999993
40
0.593749999999995
40
0.593749999999995
40
0.624999999999996
40
0.624999999999996
40
0.656249999999997
40
0.656249999999997
40
0.687499999999998
40
0.687499999999998
40
0.71875
40
0.71875
40
0.750000000000001
40
0.750000000000001
40
0.781250000000002
40
0.781250000000002
40
0.796875000000003
40
0.796875000000003
40
0.800781250000003
40
0.800781250000003
40
0.804687500000003
40
0.812500000000003
40
0.812500000000003
40
0.843750000000002
40
0.843750000000002
40
0.875000000000002
40
0.875000000000002
40
0.906250000000001
40
0.906250000000001
40
0.937500000000001
40
0.937500000000001
40
0.968750000000001
40
0.968750000000001
40
1
40
1
40
1
40
1
41
1
10
157.963841548029
20
13
30
0
41
1
10
158.039930562681
20
13
30
0
41
1
10
158.116019577332
20
12.97341362829
30
0
41
1
10
158.268197606634
20
12.8603573981976
30
0
41
1
10
158.344286621285
20
12.7738612486901
30
0
41
1
10
158.496464650588
20
12.5359442784085
30
0
41
1
10
158.572553665239
20
12.3844995220792
30
0
41
1
10
158.724731694541
20
12.0141334388781
30
0
41
1
10
158.800820709192
20
11.7951954437952
30
0
41
1
10
158.952998738494
20
11.2904087475873
30
0
41
1
10
159.029087753145
20
11.0045551372218
30
0
41
1
10
159.181265782448
20
10.3699608234192
30
0
41
1
10
159.257354797099
20
10.0212295442781
30
0
41
1
10
159.409532826401
20
9.26830096971838
30
0
41
1
10
159.485621841052
20
8.86412695237189
30
0
41
1
10
159.637799870355
20
8.01063575392863
30
0
41
1
10
159.713888885006
20
7.56135199321028
30
0
41
1
10
159.866066914308
20
6.62999816696276
30
0
41
1
10
159.942155928959
20
6.14796570261169
30
0
41
1
10
160.094333958262
20
5.16441541967015
30
0
41
1
10
160.170422972913
20
4.66293293107881
30
0
41
1
10
160.322601002215
20
3.65360901040287
30
0
41
1
10
160.398690016866
20
3.14579547103813
30
0
41
1
10
160.550868046168
20
2.13579475736219
30
0
41
1
10
160.62695706082
20
1.63362525575778
30
0
41
1
10
160.741090582796
20
0.892205035194252
30
0
41
1
10
160.779135090122
20
0.647021385150254
30
0
41
1
10
160.83620185111
20
0.282977387076755
30
0
41
1
10
160.855224104773
20
0.162250204697614
30
0
41
1
10
160.883757485267
20
-0.0178196944217746
30
0
41
1
10
160.893268612098
20
-0.0777508832391902
30
0
41
1
10
160.912290865761
20
-0.19815455174512
30
0
41
1
10
160.921801992593
20
-0.258522604218768
30
0
41
1
10
161.007402134075
20
-0.803263725791936
30
0
41
1
10
161.083491148726
20
-1.29772869248308
30
0
41
1
10
161.235669178029
20
-2.29823701357387
30
0
41
1
10
161.31175819268
20
-2.80426865786686
30
0
41
1
10
161.463936221982
20
-3.8169053411367
30
0
41
1
10
161.540025236633
20
-4.32348802299208
30
0
41
1
10
161.692203265936
20
-5.32465296080446
30
0
41
1
10
161.768292280587
20
-5.81920354311686
30
0
41
1
10
161.920470309889
20
-6.7829798342984
30
0
41
1
10
161.99655932454
20
-7.25216846217705
30
0
41
1
10
162.148737353843
20
-8.15219477010822
30
0
41
1
10
162.224826368494
20
-8.58299588308543
30
0
41
1
10
162.377004397796
20
-9.39464862703869
30
0
41
1
10
162.453093412447
20
-9.77547067743612
30
0
41
1
10
162.605271441749
20
-10.4780113405554
30
0
41
1
10
162.6813604564
20
-10.7997125136141
30
0
41
1
10
162.833538485703
20
-11.3780252724763
30
0
41
1
10
162.909627500354
20
-11.6346338992896
30
0
41
1
10
163.061805529656
20
-12.0802551689219
30
0
41
1
10
163.137894544307
20
-12.2692783756016
30
0
41
1
10
163.29007257361
20
-12.5805813657401
30
0
41
1
10
163.366161588261
20
-12.7028816377462
30
0
41
1
10
163.518339617563
20
-12.8844685822043
30
0
41
1
10
163.594428632214
20
-12.9437808095448
30
0
41
1
10
163.708562154191
20
-12.9899117474948
30
0
41
1
10
163.746606661516
20
-12.9981635861689
30
0
41
1
10
163.794162295673
20
-13.0001161164516
30
0
41
1
10
163.803673422505
20
-13.0000905697453
30
0
41
1
10
163.822695676168
20
-12.9992060567535
30
0
41
1
10
163.851229056662
20
-12.9966242342148
30
0
41
1
10
163.879762437156
20
-12.9902137261904
30
0
41
1
10
163.97487370547
20
-12.9600652322795
30
0
41
1
10
164.050962720121
20
-12.9077866202096
30
0
41
1
10
164.203140749424
20
-12.7408618509889
30
0
41
1
10
164.279229764074
20
-12.6261898670244
30
0
41
1
10
164.431407793377
20
-12.3304458126092
30
0
41
1
10
164.507496808028
20
-12.149352399548
30
0
41
1
10
164.65967483733
20
-11.7195260636315
30
0
41
1
10
164.735763851981
20
-11.4707811885686
30
0
41
1
10
164.887941881284
20
-10.907723835104
30
0
41
1
10
164.964030895935
20
-10.5934126195984
30
0
41
1
10
165.116208925237
20
-9.90477921582314
30
0
41
1
10
165.192297939888
20
-9.53047282640145
30
0
41
1
10
165.268386954539
20
-9.1305547279664
30
0
0
SPLINE
5
EE
100
AcDbEntity
8
1
62
256
6
ByLayer
370
13
48
1
60
0
100
AcDbSpline
70
4
71
3
72
72
73
68
40
0
40
0
40
0
40
0
40
0.03125
40
0.03125
40
0.0625
40
0.0625
40
0.09375
40
0.09375
40
0.125
40
0.125
40
0.15625
40
0.15625
40
0.1875
40
0.1875
40
0.21875
40
0.21875
40
0.25
40
0.25
40
0.28125
40
0.28125
40
0.3125
40
0.3125
40
0.34375
40
0.34375
40
0.375
40
0.375
40
0.40625
40
0.40625
40
0.4375
40
0.4375
40
0.453125
40
0.453125
40
0.4609375
40
0.4609375
40
0.46875
40
0.46875
40
0.5
40
0.5
40
0.53125
40
0.53125
40
0.5625
40
0.5625
40
0.59375
40
0.59375
40
0.625
40
0.625
40
0.65625
40
0.65625
40
0.6875
40
0.6875
40
0.71875
40
0.71875
40
0.75
40
0.75
40
0.78125
40
0.78125
40
0.8125
40
0.8125
40
0.84375
40
0.84375
40
0.875
40
0.875
40
0.90625
40
0.90625
40
0.9375
40
0.9375
40
1
40
1
40
1
40
1
41
1
10
153.6
20
-12.6349112805466
30
0
41
1
10
153.655886059377
20
-12.5449097710813
30
0
41
1
10
153.711772118754
20
-12.4373557486785
30
0
41
1
10
153.823544237508
20
-12.1860613203025
30
0
41
1
10
153.879430296885
20
-12.0423169144617
30
0
41
1
10
153.991202415639
20
-11.7184255536044
30
0
41
1
10
154.047088475016
20
-11.5382762342516
30
0
41
1
10
154.15886059377
20
-11.1423317933675
30
0
41
1
10
154.214746653147
20
-10.9265363761709
30
0
41
1
10
154.326518771901
20
-10.461070826456
30
0
41
1
10
154.382404831278
20
-10.2114026888675
30
0
41
1
10
154.494176950031
20
-9.68095225920899
30
0
41
1
10
154.550063009408
20
-9.40017420148263
30
0
41
1
10
154.661835128162
20
-8.81116004481598
30
0
41
1
10
154.717721187539
20
-8.50293008238063
30
0
41
1
10
154.829493306293
20
-7.86340663498825
30
0
41
1
10
154.88537936567
20
-7.53212060914228
30
0
41
1
10
154.997151484424
20
-6.85141156337446
30
0
41
1
10
155.053037543801
20
-6.50199659572755
30
0
41
1
10
155.164809662555
20
-5.79025259369669
30
0
41
1
10
155.220695721932
20
-5.42793144440168
30
0
41
1
10
155.332467840686
20
-4.6956524019765
30
0
41
1
10
155.388353900063
20
-4.32570155227128
30
0
41
1
10
155.500126018817
20
-3.58326839363519
30
0
41
1
10
155.556012078194
20
-3.21079178653267
30
0
41
1
10
155.667784196948
20
-2.46804742074678
30
0
41
1
10
155.723670256325
20
-2.09778374208861
30
0
41
1
10
155.835442375079
20
-1.36369295449632
30
0
41
1
10
155.891328434456
20
-0.999868243062764
30
0
41
1
10
155.975157523521
20
-0.461672049364949
30
0
41
1
10
156.00310055321
20
-0.283525154015877
30
0
41
1
10
156.045015097742
20
-0.0184754855094127
30
0
41
1
10
156.058986612586
20
0.0694197415686801
30
0
41
1
10
156.086929642275
20
0.24639614922927
30
0
41
1
10
156.100901157119
20
0.335241333244682
30
0
41
1
10
156.17075873134
20
0.781132091098726
30
0
41
1
10
156.226644790717
20
1.14319756854377
30
0
41
1
10
156.338416909471
20
1.87455088560148
30
0
41
1
10
156.394302968848
20
2.24383665745773
30
0
41
1
10
156.506075087602
20
2.98552308597101
30
0
41
1
10
156.561961146979
20
3.35792000395904
30
0
41
1
10
156.673733265733
20
4.10118489254592
30
0
41
1
10
156.72961932511
20
4.47204747347155
30
0
41
1
10
156.841391443864
20
5.20720070106427
30
0
41
1
10
156.897277503241
20
5.57148454158141
30
0
41
1
10
157.009049621995
20
6.28822222508177
30
0
41
1
10
157.064935681372
20
6.64066830313476
30
0
41
1
10
157.176707800126
20
7.32847788843404
30
0
41
1
10
157.232593859503
20
7.66383331709287
30
0
41
1
10
157.344365978257
20
8.31245484670603
30
0
41
1
10
157.400252037633
20
8.62571330725817
30
0
41
1
10
157.512024156387
20
9.22561873684242
30
0
41
1
10
157.567910215764
20
9.51225924927954
30
0
41
1
10
157.679682334518
20
10.0551055153654
30
0
41
1
10
157.735568393895
20
10.3113066147294
30
0
41
1
10
157.847340512649
20
10.7903185873039
30
0
41
1
10
157.903226572026
20
11.0131270000195
30
0
41
1
10
158.01499869078
20
11.4233739295631
30
0
41
1
10
158.070884750157
20
11.6108122893822
30
0
41
1
10
158.182656868911
20
11.9493546535861
30
0
41
1
10
158.238542928288
20
12.1004606340153
30
0
41
1
10
158.350315047042
20
12.36636078932
30
0
41
1
10
158.406201106419
20
12.4811586760474
30
0
41
1
10
158.517973225173
20
12.6753651545327
30
0
41
1
10
158.57385928455
20
12.7547786570063
30
0
41
1
10
158.741517462681
20
12.9424716440794
30
0
41
1
10
158.853289581435
20
13
30
0
41
1
10
158.965061700189
20
13
30
0
0
SPLINE
5
EF
100
AcDbEntity
8
1
62
256
6
ByLayer
370
13
48
1
60
0
100
AcDbSpline
70
4
71
3
72
79
73
75
40
0
40
0
40
0
40
0
40
0.031249999999999
40
0.031249999999999
40
0.062499999999998
40
0.062499999999998
40
0.093749999999997
40
0.093749999999997
40
0.124999999999996
40
0.124999999999996
40
0.156249999999995
40
0.156249999999995
40
0.187499999999994
40
0.187499999999994
40
0.218749999999993
40
0.218749999999993
40
0.249999999999992
40
0.249999999999992
40
0.281249999999991
40
0.281249999999991
40
0.31249999999999
40
0.31249999999999
40
0.343749999999989
40
0.343749999999989
40
0.359374999999989
40
0.359374999999989
40
0.367187499999989
40
0.367187499999989
40
0.374999999999989
40
0.374999999999989
40
0.406249999999989
40
0.406249999999989
40
0.43749999999999
40
0.43749999999999
40
0.46874999999999
40
0.46874999999999
40
0.499999999999991
40
0.499999999999991
40
0.531249999999991
40
0.531249999999991
40
0.562499999999992
40
0.562499999999992
40
0.593749999999992
40
0.593749999999992
40
0.624999999999993
40
0.624999999999993
40
0.656249999999994
40
0.656249999999994
40
0.687499999999994
40
0.687499999999994
40
0.718749999999995
40
0.718749999999995
40
0.734374999999995
40
0.734374999999995
40
0.742187499999995
40
0.746093749999995
40
0.746093749999995
40
0.749999999999995
40
0.749999999999995
40
0.781249999999996
40
0.781249999999996
40
0.812499999999997
40
0.812499999999997
40
0.843749999999997
40
0.843749999999997
40
0.874999999999998
40
0.874999999999998
40
0.906249999999998
40
0.906249999999998
40
0.937499999999999
40
0.937499999999999
40
0.968749999999999
40
0.968749999999999
40
1
40
1
40
1
40
1
41
1
10
157.478970329739
20
13
30
0
41
1
10
157.560110086248
20
13
30
0
41
1
10
157.641249842756
20
12.9697576644993
30
0
41
1
10
157.803529355773
20
12.8407077858912
30
0
41
1
10
157.884669112281
20
12.7418640474881
30
0
41
1
10
158.046948625298
20
12.4697527565857
30
0
41
1
10
158.128088381806
20
12.2964531757289
30
0
41
1
10
158.290367894823
20
11.8729119894079
30
0
41
1
10
158.371507651331
20
11.6226502282249
30
0
41
1
10
158.533787164348
20
11.0468197874336
30
0
41
1
10
158.614926920856
20
10.7212494108978
30
0
41
1
10
158.777206433873
20
10.0009410998472
30
0
41
1
10
158.858346190381
20
9.60622279080562
30
0
41
1
10
159.020625703398
20
8.75799966317445
30
0
41
1
10
159.101765459906
20
8.30453330325636
30
0
41
1
10
159.264044972923
20
7.35255042610063
30
0
41
1
10
159.345184729431
20
6.854083740319
30
0
41
1
10
159.507464242448
20
5.82783459006978
30
0
41
1
10
159.588603998956
20
5.30010330376021
30
0
41
1
10
159.750883511973
20
4.23150235192225
30
0
41
1
10
159.832023268481
20
3.69067590901804
30
0
41
1
10
159.994302781498
20
2.6110550495269
30
0
41
1
10
160.075442538006
20
2.07228993498862
30
0
41
1
10
160.197152172769
20
1.27545845590433
30
0
41
1
10
160.237722051023
20
1.01171479431431
30
0
41
1
10
160.298576868404
20
0.619929880001649
30
0
41
1
10
160.318861807531
20
0.489971951818063
30
0
41
1
10
160.359431685785
20
0.231484970982365
30
0
41
1
10
160.379716624912
20
0.103138345818792
30
0
41
1
10
160.481141320548
20
-0.536586540516822
30
0
41
1
10
160.562281077056
20
-1.06091451404191
30
0
41
1
10
160.724560590073
20
-2.12430600306814
30
0
41
1
10
160.805700346581
20
-2.66335532975691
30
0
41
1
10
160.967979859598
20
-3.74308347012544
30
0
41
1
10
161.049119616106
20
-4.28373248275673
30
0
41
1
10
161.211399129123
20
-5.35146501023149
30
0
41
1
10
161.292538885631
20
-5.87850492949673
30
0
41
1
10
161.454818398648
20
-6.9028475995031
30
0
41
1
10
161.535958155156
20
-7.40009905782924
30
0
41
1
10
161.698237668173
20
-8.34916758103944
30
0
41
1
10
161.779377424681
20
-8.80093503049108
30
0
41
1
10
161.941656937698
20
-9.64536497812304
30
0
41
1
10
162.022796694206
20
-10.0379895319398
30
0
41
1
10
162.185076207223
20
-10.7538410179513
30
0
41
1
10
162.266215963731
20
-11.0770490052978
30
0
41
1
10
162.428495476748
20
-11.6480303884422
30
0
41
1
10
162.509635233256
20
-11.8958061487865
30
0
41
1
10
162.671914746273
20
-12.3143941511163
30
0
41
1
10
162.753054502781
20
-12.4852270488565
30
0
41
1
10
162.915334015798
20
-12.752546889801
30
0
41
1
10
162.996473772306
20
-12.8490661154109
30
0
41
1
10
163.118183407069
20
-12.9425418681291
30
0
41
1
10
163.158753285323
20
-12.9651726803752
30
0
41
1
10
163.219608102704
20
-12.9870485588433
30
0
41
1
10
163.250035511394
20
-12.9949704072263
30
0
41
1
10
163.280462920085
20
-12.9985152590027
30
0
41
1
10
163.300747859212
20
-12.9999228688683
30
0
41
1
10
163.310890328776
20
-13.0001496868632
30
0
41
1
10
163.402172554848
20
-12.9979497834523
30
0
41
1
10
163.483312311356
20
-12.9656078211549
30
0
41
1
10
163.645591824373
20
-12.8321275690186
30
0
41
1
10
163.726731580881
20
-12.7309531055861
30
0
41
1
10
163.889011093898
20
-12.4540414516509
30
0
41
1
10
163.970150850406
20
-12.2782724951011
30
0
41
1
10
164.132430363423
20
-11.8497771210162
30
0
41
1
10
164.213570119931
20
-11.5970310549237
30
0
41
1
10
164.375849632948
20
-11.0163597105218
30
0
41
1
10
164.456989389456
20
-10.6884334060523
30
0
41
1
10
164.619268902473
20
-9.96368568145624
30
0
41
1
10
164.700408658981
20
-9.56688456479372
30
0
41
1
10
164.862688171998
20
-8.71489370121893
30
0
41
1
10
164.943827928506
20
-8.25974291926551
30
0
41
1
10
165.106107441523
20
-7.30487677057141
30
0
41
1
10
165.187247198031
20
-6.80521144052631
30
0
41
1
10
165.268386954539
20
-6.29115043497333
30
0
0
SPLINE
5
F0
100
AcDbEntity
8
1
62
256
6
ByLayer
370
13
48
1
60
0
100
AcDbSpline
70
4
71
3
72
44
73
40
40
0
40
0
40
0
40
0
40
0.0625000000000002
40
0.0625000000000002
40
0.125
40
0.125
40
0.1875
40
0.1875
40
0.250000000000001
40
0.250000000000001
40
0.312500000000001
40
0.312500000000001
40
0.375000000000001
40
0.375000000000001
40
0.390625
40
0.390625
40
0.398437500000001
40
0.398437500000001
40
0.406250000000001
40
0.406250000000001
40
0.4375
40
0.4375
40
0.5
40
0.5
40
0.5625
40
0.5625
40
0.625
40
0.625
40
0.6875
40
0.6875
40
0.75
40
0.75
40
0.8125
40
0.8125
40
0.875
40
0.875
40
0.9375
40
0.9375
40
1
40
1
40
1
40
1
41
1
10
153.6
20
-11.4038109536208
30
0
41
1
10
153.70167063504
20
-11.0506490475261
30
0
41
1
10
153.803341270079
20
-10.63796389638
30
0
41
1
10
154.006682540158
20
-9.70602239760052
30
0
41
1
10
154.108353175198
20
-9.18683742659098
30
0
41
1
10
154.311694445277
20
-8.06453634873498
30
0
41
1
10
154.413365080317
20
-7.46155670680704
30
0
41
1
10
154.616706350396
20
-6.20127875174418
30
0
41
1
10
154.718376985435
20
-5.54413978094743
30
0
41
1
10
154.921718255514
20
-4.20751160487384
30
0
41
1
10
155.023388890554
20
-3.52815780530207
30
0
41
1
10
155.226730160633
20
-2.17682960958291
30
0
41
1
10
155.328400795673
20
-1.50493677889176
30
0
41
1
10
155.455489089472
20
-0.68477226692778
30
0
41
1
10
155.480906748232
20
-0.521708153611883
30
0
41
1
10
155.519033236372
20
-0.278795651759339
30
0
41
1
10
155.531742065752
20
-0.198105209303577
30
0
41
1
10
155.557159724512
20
-0.0373208693742129
30
0
41
1
10
155.569868553891
20
0.0426267529684026
30
0
41
1
10
155.633412700791
20
0.444653321188866
30
0
41
1
10
155.684248018311
20
0.771058407146654
30
0
41
1
10
155.83675397087
20
1.76093409362395
30
0
41
1
10
155.93842460591
20
2.43526187780733
30
0
41
1
10
156.141765875989
20
3.78793514102492
30
0
41
1
10
156.243436511029
20
4.46619139470809
30
0
41
1
10
156.446777781108
20
5.79658750555183
30
0
41
1
10
156.548448416147
20
6.4485867284026
30
0
41
1
10
156.751789686226
20
7.69456774659798
30
0
41
1
10
156.853460321266
20
8.28839036450717
30
0
41
1
10
157.056801591345
20
9.38899731816454
30
0
41
1
10
157.158472226384
20
9.89565152665728
30
0
41
1
10
157.361813496463
20
10.8003090933982
30
0
41
1
10
157.463484131503
20
11.1982512603318
30
0
41
1
10
157.666825401582
20
11.8742851094439
30
0
41
1
10
157.768496036622
20
12.1523967867436
30
0
41
1
10
157.971837306701
20
12.588616794776
30
0
41
1
10
158.07350794174
20
12.7468078079646
30
0
41
1
10
158.276849211819
20
12.9524443626241
30
0
41
1
10
158.378519846859
20
13
30
0
41
1
10
158.480190481898
20
13
30
0
0
SPLINE
5
F1
100
AcDbEntity
8
1
62
256
6
ByLayer
370
13
48
1
60
0
100
AcDbSpline
70
4
71
3
72
80
73
76
40
0
40
0
40
0
40
0
40
0.0312499999999986
40
0.0312499999999986
40
0.0624999999999973
40
0.0624999999999973
40
0.0937499999999959
40
0.0937499999999959
40
0.124999999999995
40
0.124999999999995
40
0.156249999999993
40
0.156249999999993
40
0.187499999999992
40
0.187499999999992
40
0.21874999999999
40
0.21874999999999
40
0.249999999999989
40
0.249999999999989
40
0.281249999999988
40
0.281249999999988
40
0.312499999999986
40
0.312499999999986
40
0.343749999999985
40
0.343749999999985
40
0.351562499999985
40
0.351562499999985
40
0.355468749999985
40
0.355468749999985
40
0.359374999999985
40
0.374999999999985
40
0.374999999999985
40
0.406249999999985
40
0.406249999999985
40
0.437499999999985
40
0.437499999999985
40
0.468749999999985
40
0.468749999999985
40
0.499999999999985
40
0.499999999999985
40
0.531249999999985
40
0.531249999999985
40
0.562499999999985
40
0.562499999999985
40
0.593749999999985
40
0.593749999999985
40
0.624999999999986
40
0.624999999999986
40
0.656249999999986
40
0.656249999999986
40
0.687499999999986
40
0.687499999999986
40
0.703124999999986
40
0.703124999999986
40
0.707031249999986
40
0.707031249999986
40
0.710937499999986
40
0.718749999999986
40
0.718749999999986
40
0.749999999999988
40
0.749999999999988
40
0.781249999999989
40
0.781249999999989
40
0.812499999999991
40
0.812499999999991
40
0.843749999999992
40
0.843749999999992
40
0.874999999999994
40
0.874999999999994
40
0.906249999999995
40
0.906249999999995
40
0.937499999999997
40
0.937499999999997
40
0.968749999999998
40
0.968749999999998
40
1
40
1
40
1
40
1
41
1
10
156.994099111449
20
13
30
0
41
1
10
157.080289609815
20
13
30
0
41
1
10
157.166480108181
20
12.9658641213742
30
0
41
1
10
157.338861104912
20
12.8197053370697
30
0
41
1
10
157.425051603277
20
12.7076335990926
30
0
41
1
10
157.597432600008
20
12.3988967091977
30
0
41
1
10
157.683623098374
20
12.2021897330015
30
0
41
1
10
157.856004095105
20
11.7218786287503
30
0
41
1
10
157.94219459347
20
11.4382513844143
30
0
41
1
10
158.114575590201
20
10.7872180031811
30
0
41
1
10
158.200766088567
20
10.4198166655774
30
0
41
1
10
158.373147085298
20
9.6100810673376
30
0
41
1
10
158.459337583663
20
9.16778195628123
30
0
41
1
10
158.631718580394
20
8.2222264248615
30
0
41
1
10
158.71790907876
20
7.71902914789288
30
0
41
1
10
158.890290075491
20
6.6693350899819
30
0
41
1
10
158.976480573856
20
6.1229081233889
30
0
41
1
10
159.148861570587
20
5.0061039315375
30
0
41
1
10
159.235052068953
20
4.4357918493273
30
0
41
1
10
159.407433065684
20
3.29017504013658
30
0
41
1
10
159.49362356405
20
2.7149188163057
30
0
41
1
10
159.66600456078
20
1.57623373820724
30
0
41
1
10
159.752195059146
20
1.0128313038478
30
0
41
1
10
159.859933182103
20
0.324435354539219
30
0
41
1
10
159.881480806694
20
0.187540207309155
30
0
41
1
10
159.913802243582
20
-0.0164952503044447
30
0
41
1
10
159.924576055877
20
-0.0843690386082301
30
0
41
1
10
159.946123680469
20
-0.220818272073387
30
0
41
1
10
159.999992741947
20
-0.563001720696292
30
0
41
1
10
160.053861803425
20
-0.910238612517276
30
0
41
1
10
160.183147550974
20
-1.75099372828618
30
0
41
1
10
160.269338049339
20
-2.32144851458486
30
0
41
1
10
160.44171904607
20
-3.46726219895788
30
0
41
1
10
160.527909544436
20
-4.04258481208618
30
0
41
1
10
160.700290541167
20
-5.18024193922986
30
0
41
1
10
160.786481039532
20
-5.74251959332543
30
0
41
1
10
160.958862036263
20
-6.83473921320103
30
0
41
1
10
161.045052534629
20
-7.36461221697684
30
0
41
1
10
161.21743353136
20
-8.37314660876379
30
0
41
1
10
161.303624029725
20
-8.85174094112907
30
0
41
1
10
161.476005026457
20
-9.74141214192099
30
0
41
1
10
161.562195524822
20
-10.1524390311105
30
0
41
1
10
161.734576521553
20
-10.8950523493826
30
0
41
1
10
161.820767019918
20
-11.2266166265782
30
0
41
1
10
161.99314801665
20
-11.8038815976993
30
0
41
1
10
162.079338515015
20
-12.0495904686632
30
0
41
1
10
162.251719511746
20
-12.4544320938559
30
0
41
1
10
162.337910010112
20
-12.6135975235071
30
0
41
1
10
162.510291006843
20
-12.8497081783739
30
0
41
1
10
162.596481505208
20
-12.9266997124191
30
0
41
1
10
162.725767252757
20
-12.9866679787234
30
0
41
1
10
162.768862501939
20
-12.997429602662
30
0
41
1
10
162.822731563418
20
-13.0001313882468
30
0
41
1
10
162.833505375714
20
-13.0001370923658
30
0
41
1
10
162.855053000305
20
-12.9990795273217
30
0
41
1
10
162.887374437192
20
-12.9958819883969
30
0
41
1
10
162.919695874079
20
-12.9877585805157
30
0
41
1
10
163.027433997036
20
-12.9493414208086
30
0
41
1
10
163.113624495401
20
-12.882212445469
30
0
41
1
10
163.286005492132
20
-12.666681708361
30
0
41
1
10
163.372195990498
20
-12.5182327617656
30
0
41
1
10
163.544576987229
20
-12.1351206581523
30
0
41
1
10
163.630767485595
20
-11.9004224493129
30
0
41
1
10
163.803148482326
20
-11.3447865249347
30
0
41
1
10
163.889338980691
20
-11.0238370688333
30
0
41
1
10
164.061719977422
20
-10.3013326040801
30
0
41
1
10
164.147910475788
20
-9.89979586464597
30
0
41
1
10
164.320291472519
20
-9.0273315029753
30
0
41
1
10
164.406481970884
20
-8.55645079033101
30
0
41
1
10
164.578862967615
20
-7.56110203999569
30
0
41
1
10
164.665053465981
20
-7.03669969899241
30
0
41
1
10
164.837434462712
20
-5.95296563600763
30
0
41
1
10
164.923624961077
20
-5.39370348519552
30
0
41
1
10
165.096005957809
20
-4.25967292493439
30
0
41
1
10
165.182196456174
20
-3.68496351364655
30
0
41
1
10
165.268386954539
20
-3.11160433097712
30
0
0
SPLINE
5
F2
100
AcDbEntity
8
1
62
256
6
ByLayer
370
13
48
1
60
0
100
AcDbSpline
70
4
71
3
72
42
73
38
40
0
40
0
40
0
40
0
40
0.0625000000000009
40
0.0625000000000009
40
0.125000000000002
40
0.125000000000002
40
0.187500000000003
40
0.187500000000003
40
0.250000000000004
40
0.250000000000004
40
0.312500000000005
40
0.312500000000005
40
0.328125000000005
40
0.328125000000005
40
0.343750000000005
40
0.343750000000005
40
0.375000000000005
40
0.375000000000005
40
0.437500000000004
40
0.437500000000004
40
0.500000000000004
40
0.500000000000004
40
0.562500000000004
40
0.562500000000004
40
0.625000000000003
40
0.625000000000003
40
0.687500000000003
40
0.687500000000003
40
0.750000000000002
40
0.750000000000002
40
0.812500000000002
40
0.812500000000002
40
0.875000000000001
40
0.875000000000001
40
0.937500000000001
40
0.937500000000001
40
1
40
1
40
1
40
1
41
1
10
153.6
20
-9.29453172952452
30
0
41
1
10
153.691569151325
20
-8.82182712484536
30
0
41
1
10
153.78313830265
20
-8.31101126463375
30
0
41
1
10
153.966276605301
20
-7.2326800094132
30
0
41
1
10
154.057845756626
20
-6.66525604338915
30
0
41
1
10
154.240984059276
20
-5.49651702678523
30
0
41
1
10
154.332553210602
20
-4.89529406394055
30
0
41
1
10
154.515691513252
20
-3.68207123859634
30
0
41
1
10
154.607260664577
20
-3.07014361174839
30
0
41
1
10
154.790398967227
20
-1.85639363059482
30
0
41
1
10
154.881968118552
20
-1.25461271128964
30
0
41
1
10
154.996429557709
20
-0.519273057089578
30
0
41
1
10
155.01932184554
20
-0.373038445205197
30
0
41
1
10
155.065106421203
20
-0.0824537348762249
30
0
41
1
10
155.087998709034
20
0.0613545045654291
30
0
41
1
10
155.156675572528
20
0.496956112637605
30
0
41
1
10
155.202460148191
20
0.791155710330742
30
0
41
1
10
155.339813875178
20
1.68243529852532
30
0
41
1
10
155.431383026504
20
2.28832772884201
30
0
41
1
10
155.614521329154
20
3.50566012739853
30
0
41
1
10
155.706090480479
20
4.11705095046199
30
0
41
1
10
155.889228783129
20
5.32383291045116
30
0
41
1
10
155.980797934455
20
5.91914567510952
30
0
41
1
10
156.163936237105
20
7.07050957324199
30
0
41
1
10
156.25550538843
20
7.62646666758019
30
0
41
1
10
156.438643691081
20
8.67679214605161
30
0
41
1
10
156.530212842406
20
9.17107276985266
30
0
41
1
10
156.713351145056
20
10.0794702526162
30
0
41
1
10
156.804920296381
20
10.4935280165225
30
0
41
1
10
156.988058599032
20
11.2289419558673
30
0
41
1
10
157.079627750357
20
11.5502812328342
30
0
41
1
10
157.262766053007
20
12.0949378187314
30
0
41
1
10
157.354335204332
20
12.3182800123515
30
0
41
1
10
157.537473506983
20
12.6687045725316
30
0
41
1
10
157.629042658308
20
12.7958411430041
30
0
41
1
10
157.812180960958
20
12.9614559276626
30
0
41
1
10
157.903750112283
20
13
30
0
41
1
10
157.995319263609
20
13
30
0
0
SPLINE
5
F3
100
AcDbEntity
8
1
62
256
6
ByLayer
370
13
48
1
60
0
100
AcDbSpline
70
4
71
3
72
86
73
82
40
0
40
0
40
0
40
0
40
0.0312499999999995
40
0.0312499999999995
40
0.062499999999999
40
0.062499999999999
40
0.0937499999999985
40
0.0937499999999985
40
0.124999999999998
40
0.124999999999998
40
0.156249999999998
40
0.156249999999998
40
0.187499999999997
40
0.187499999999997
40
0.218749999999996
40
0.218749999999996
40
0.249999999999996
40
0.249999999999996
40
0.281249999999995
40
0.281249999999995
40
0.312499999999995
40
0.312499999999995
40
0.328124999999995
40
0.328124999999995
40
0.332031249999995
40
0.332031249999995
40
0.335937499999995
40
0.335937499999995
40
0.343749999999994
40
0.343749999999994
40
0.374999999999994
40
0.374999999999994
40
0.406249999999993
40
0.406249999999993
40
0.437499999999992
40
0.437499999999992
40
0.468749999999992
40
0.468749999999992
40
0.499999999999991
40
0.499999999999991
40
0.53124999999999
40
0.53124999999999
40
0.56249999999999
40
0.56249999999999
40
0.593749999999989
40
0.593749999999989
40
0.624999999999989
40
0.624999999999989
40
0.656249999999988
40
0.656249999999988
40
0.664062499999988
40
0.664062499999988
40
0.667968749999988
40
0.667968749999988
40
0.671874999999988
40
0.687499999999988
40
0.687499999999988
40
0.718749999999989
40
0.718749999999989
40
0.74999999999999
40
0.74999999999999
40
0.781249999999992
40
0.781249999999992
40
0.812499999999993
40
0.812499999999993
40
0.843749999999994
40
0.843749999999994
40
0.874999999999995
40
0.874999999999995
40
0.906249999999996
40
0.906249999999996
40
0.937499999999997
40
0.937499999999997
40
0.968749999999999
40
0.968749999999999
40
0.984374999999999
40
0.984374999999999
40
0.9921875
40
0.99609375
40
0.99609375
40
1
40
1
40
1
40
1
41
1
10
156.509227893159
20
13
30
0
41
1
10
156.600469133382
20
13
30
0
41
1
10
156.691710373605
20
12.9617324193296
30
0
41
1
10
156.87419285405
20
12.7973404664991
30
0
41
1
10
156.965434094273
20
12.6711513911183
30
0
41
1
10
157.147916574718
20
12.3233477322217
30
0
41
1
10
157.239157814941
20
12.1016797571772
30
0
41
1
10
157.421640295387
20
11.561059405315
30
0
41
1
10
157.512881535609
20
11.2420821912244
30
0
41
1
10
157.695364016055
20
10.5119334446306
30
0
41
1
10
157.786605256277
20
10.100777885475
30
0
41
1
10
157.969087736723
20
9.19848323095536
30
0
41
1
10
158.060328976945
20
8.70740152210209
30
0
41
1
10
158.242811457391
20
7.66347438345875
30
0
41
1
10
158.334052697614
20
7.11071477172732
30
0
41
1
10
158.516535178059
20
5.96545031464569
30
0
41
1
10
158.607776418282
20
5.37303797435666
30
0
41
1
10
158.790258898727
20
4.17152172508492
30
0
41
1
10
158.88150013895
20
3.56249547718124
30
0
41
1
10
159.063982619395
20
2.3492088494173
30
0
41
1
10
159.155223859618
20
1.74499776158339
30
0
41
1
10
159.292085719952
20
0.855691188514413
30
0
41
1
10
159.337706340063
20
0.56205851704388
30
0
41
1
10
159.394732115203
20
0.199653706130732
30
0
41
1
10
159.40613727023
20
0.127403833241743
30
0
41
1
10
159.428947580286
20
-0.0166082847782718
30
0
41
1
10
159.440352735314
20
-0.0884550279791654
30
0
41
1
10
159.474568200397
20
-0.305176078611225
30
0
41
1
10
159.497378510453
20
-0.450608126836329
30
0
41
1
10
159.611430060731
20
-1.18199342503399
30
0
41
1
10
159.702671300954
20
-1.7807964980631
30
0
41
1
10
159.8851537814
20
-2.98932393523182
30
0
41
1
10
159.976395021622
20
-3.59900897212833
30
0
41
1
10
160.158877502068
20
-4.80884928742748
30
0
41
1
10
160.250118742291
20
-5.40893486720088
30
0
41
1
10
160.432601222736
20
-6.57680472548546
30
0
41
1
10
160.523842462959
20
-7.14449910323529
30
0
41
1
10
160.706324943404
20
-8.22493900120071
30
0
41
1
10
160.797566183627
20
-8.73759407940511
30
0
41
1
10
160.980048664072
20
-9.68822028732876
30
0
41
1
10
161.071289904295
20
-10.1261231324281
30
0
41
1
10
161.25377238474
20
-10.9128896462001
30
0
41
1
10
161.345013624963
20
-11.2617237306044
30
0
41
1
10
161.527496105408
20
-11.8628994323382
30
0
41
1
10
161.618737345631
20
-12.1152539420228
30
0
41
1
10
161.801219826077
20
-12.5231706639882
30
0
41
1
10
161.892461066299
20
-12.6787790735544
30
0
41
1
10
162.074943546744
20
-12.8991250890693
30
0
41
1
10
162.166184786967
20
-12.9639256965415
30
0
41
1
10
162.280236337246
20
-12.9946556827063
30
0
41
1
10
162.303046647302
20
-12.9982964192228
30
0
41
1
10
162.337262112385
20
-13.0001423343339
30
0
41
1
10
162.348667267413
20
-13.0001581674209
30
0
41
1
10
162.371477577468
20
-12.9989918670445
30
0
41
1
10
162.428503352608
20
-12.9930670903133
30
0
41
1
10
162.485529127747
20
-12.971777983626
30
0
41
1
10
162.622390988081
20
-12.8890199609245
30
0
41
1
10
162.713632228304
20
-12.7914901499173
30
0
41
1
10
162.896114708749
20
-12.5028474286191
30
0
41
1
10
162.987355948972
20
-12.3116756894529
30
0
41
1
10
163.169838429417
20
-11.8319241371857
30
0
41
1
10
163.26107966964
20
-11.5433088059957
30
0
41
1
10
163.443562150085
20
-10.8715006098784
30
0
41
1
10
163.534803390308
20
-10.4883101835352
30
0
41
1
10
163.717285870753
20
-9.63738440328206
30
0
41
1
10
163.808527110976
20
-9.16969421787616
30
0
41
1
10
163.991009591421
20
-8.16629532623168
30
0
41
1
10
164.082250831644
20
-7.63066559538453
30
0
41
1
10
164.26473331209
20
-6.51249781692295
30
0
41
1
10
164.355974552312
20
-5.93005269161512
30
0
41
1
10
164.538457032758
20
-4.74128551425542
30
0
41
1
10
164.62969827298
20
-4.13504773067947
30
0
41
1
10
164.812180753426
20
-2.92090430116269
30
0
41
1
10
164.903421993649
20
-2.31305765849891
30
0
41
1
10
165.040283853983
20
-1.41442326644503
30
0
41
1
10
165.085904474094
20
-1.11703862108092
30
0
41
1
10
165.154335404261
20
-0.675696018056215
30
0
41
1
10
165.188550869345
20
-0.456205013547191
30
0
41
1
10
165.222766334428
20
-0.238734151549721
30
0
41
1
10
165.245576644484
20
-0.0942280940634532
30
0
41
1
10
165.256981799512
20
-0.0223612142474678
30
0
41
1
10
165.268386954539
20
0.049631821540828
30
0
0
SPLINE
5
F4
100
AcDbEntity
8
1
62
256
6
ByLayer
370
13
48
1
60
0
100
AcDbSpline
70
4
71
3
72
43
73
39
40
0
40
0
40
0
40
0
40
0.0624999999999996
40
0.0624999999999996
40
0.124999999999999
40
0.124999999999999
40
0.187499999999999
40
0.187499999999999
40
0.249999999999998
40
0.249999999999998
40
0.257812499999998
40
0.257812499999998
40
0.265624999999999
40
0.281249999999999
40
0.281249999999999
40
0.312499999999999
40
0.312499999999999
40
0.374999999999999
40
0.374999999999999
40
0.437499999999999
40
0.437499999999999
40
0.499999999999999
40
0.499999999999999
40
0.562499999999999
40
0.562499999999999
40
0.624999999999999
40
0.624999999999999
40
0.687499999999999
40
0.687499999999999
40
0.75
40
0.75
40
0.8125
40
0.8125
40
0.875
40
0.875
40
0.9375
40
0.9375
40
1
40
1
40
1
40
1
41
1
10
153.6
20
-6.48984005981455
30
0
41
1
10
153.681467667611
20
-5.97756385667839
30
0
41
1
10
153.762935335222
20
-5.44977147458368
30
0
41
1
10
153.925870670443
20
-4.37944843353358
30
0
41
1
10
154.007338338054
20
-3.83696295141823
30
0
41
1
10
154.170273673276
20
-2.75275477733223
30
0
41
1
10
154.251741340886
20
-2.21106337923544
30
0
41
1
10
154.414676676108
20
-1.14187784911968
30
0
41
1
10
154.496144343719
20
-0.614399012930619
30
0
41
1
10
154.587795469781
20
-0.0349702774658738
30
0
41
1
10
154.597978928232
20
0.0291142228008425
30
0
41
1
10
154.618345845135
20
0.157852775134245
30
0
41
1
10
154.648896220489
20
0.351538269234595
30
0
41
1
10
154.679446595843
20
0.546876060577745
30
0
41
1
10
154.740547346551
20
0.939523085554498
30
0
41
1
10
154.781281180357
20
1.20392202210235
30
0
41
1
10
154.903482681773
20
2.00296046232418
30
0
41
1
10
154.984950349384
20
2.54352055997745
30
0
41
1
10
155.147885684605
20
3.62732803253732
30
0
41
1
10
155.229353352216
20
4.17054614799471
30
0
41
1
10
155.392288687438
20
5.24440711433593
30
0
41
1
10
155.473756355048
20
5.77500630030912
30
0
41
1
10
155.63669169027
20
6.80728348087521
30
0
41
1
10
155.718159357881
20
7.30890938527244
30
0
41
1
10
155.881094693103
20
8.26727457272665
30
0
41
1
10
155.962562360713
20
8.72396282944706
30
0
41
1
10
156.125497695935
20
9.57845383602981
30
0
41
1
10
156.206965363546
20
9.97621695859414
30
0
41
1
10
156.369900698767
20
10.7022244837398
30
0
41
1
10
156.451368366378
20
11.0304484293532
30
0
41
1
10
156.6143037016
20
11.6110375272052
30
0
41
1
10
156.69577136921
20
11.8634040679178
30
0
41
1
10
156.858706704432
20
12.2905223494282
30
0
41
1
10
156.940174372043
20
12.4652944606162
30
0
41
1
10
157.103109707265
20
12.7397096827896
30
0
41
1
10
157.184577374875
20
12.8393854053197
30
0
41
1
10
157.347512710097
20
12.9695121001154
30
0
41
1
10
157.428980377708
20
13
30
0
41
1
10
157.510448045318
20
13
30
0
0
SPLINE
5
F5
100
AcDbEntity
8
1
62
256
6
ByLayer
370
13
48
1
60
0
100
AcDbSpline
70
4
71
3
72
87
73
83
40
0
40
0
40
0
40
0
40
0.0312500000000002
40
0.0312500000000002
40
0.0625000000000004
40
0.0625000000000004
40
0.0937500000000006
40
0.0937500000000006
40
0.125000000000001
40
0.125000000000001
40
0.156250000000001
40
0.156250000000001
40
0.187500000000001
40
0.187500000000001
40
0.218750000000001
40
0.218750000000001
40
0.250000000000001
40
0.250000000000001
40
0.281250000000002
40
0.281250000000002
40
0.312500000000002
40
0.312500000000002
40
0.316406250000002
40
0.316406250000002
40
0.320312500000002
40
0.328125000000002
40
0.328125000000002
40
0.343750000000003
40
0.343750000000003
40
0.375000000000004
40
0.375000000000004
40
0.406250000000005
40
0.406250000000005
40
0.437500000000006
40
0.437500000000006
40
0.468750000000007
40
0.468750000000007
40
0.500000000000008
40
0.500000000000008
40
0.531250000000009
40
0.531250000000009
40
0.56250000000001
40
0.56250000000001
40
0.593750000000011
40
0.593750000000011
40
0.625000000000012
40
0.625000000000012
40
0.628906250000011
40
0.628906250000011
40
0.632812500000011
40
0.632812500000011
40
0.640625000000011
40
0.640625000000011
40
0.656250000000011
40
0.656250000000011
40
0.68750000000001
40
0.68750000000001
40
0.718750000000009
40
0.718750000000009
40
0.750000000000008
40
0.750000000000008
40
0.781250000000008
40
0.781250000000008
40
0.812500000000007
40
0.812500000000007
40
0.843750000000006
40
0.843750000000006
40
0.875000000000005
40
0.875000000000005
40
0.906250000000004
40
0.906250000000004
40
0.937500000000004
40
0.937500000000004
40
0.945312500000003
40
0.945312500000003
40
0.949218750000003
40
0.949218750000003
40
0.953125000000003
40
0.953125000000003
40
0.968750000000002
40
0.968750000000002
40
1
40
1
40
1
40
1
41
1
10
156.024356674869
20
13
30
0
41
1
10
156.120648656949
20
13
30
0
41
1
10
156.216940639029
20
12.9573619258489
30
0
41
1
10
156.409524603189
20
12.7736038547842
30
0
41
1
10
156.505816585269
20
12.6323995041953
30
0
41
1
10
156.698400549429
20
12.243081824826
30
0
41
1
10
156.794692531509
20
11.9949017825894
30
0
41
1
10
156.987276495668
20
11.3905035107535
30
0
41
1
10
157.083568477748
20
11.0342609290096
30
0
41
1
10
157.276152441908
20
10.2213648502301
30
0
41
1
10
157.372444423988
20
9.76474483062105
30
0
41
1
10
157.565028388148
20
8.76738546380281
30
0
41
1
10
157.661320370228
20
8.22673380277789
30
0
41
1
10
157.853904334387
20
7.08441437603489
30
0
41
1
10
157.950196316467
20
6.48286510172861
30
0
41
1
10
158.142780280627
20
5.2454662923362
30
0
41
1
10
158.239072262707
20
4.60973313033313
30
0
41
1
10
158.431656226867
20
3.33064267457488
30
0
41
1
10
158.527948208947
20
2.68737188834353
30
0
41
1
10
158.720532173107
20
1.4167029319488
30
0
41
1
10
158.816824155187
20
0.789348633612292
30
0
41
1
10
158.925152635026
20
0.102812822436135
30
0
41
1
10
158.937189132786
20
0.0269549432483132
30
0
41
1
10
158.961262128306
20
-0.124998698018857
30
0
41
1
10
158.997371621586
20
-0.353744711259992
30
0
41
1
10
159.033481114866
20
-0.584805262356781
30
0
41
1
10
159.105700101426
20
-1.04962806306787
30
0
41
1
10
159.153846092466
20
-1.36312314136055
30
0
41
1
10
159.298284065586
20
-2.31096872899857
30
0
41
1
10
159.394576047666
20
-2.95282351171315
30
0
41
1
10
159.587160011826
20
-4.23400788793214
30
0
41
1
10
159.683451993905
20
-4.87325886840466
30
0
41
1
10
159.876035958065
20
-6.12303323143573
30
0
41
1
10
159.972327940145
20
-6.73344429964755
30
0
41
1
10
160.164911904305
20
-7.8985631116004
30
0
41
1
10
160.261203886385
20
-8.4531501438218
30
0
41
1
10
160.453787850545
20
-9.48247864959114
30
0
41
1
10
160.550079832625
20
-9.95712404721189
30
0
41
1
10
160.742663796784
20
-10.8086411803784
30
0
41
1
10
160.838955778864
20
-11.1854678307613
30
0
41
1
10
161.031539743024
20
-11.8318393418463
30
0
41
1
10
161.127831725104
20
-12.1013979297978
30
0
41
1
10
161.320415689264
20
-12.5326252486109
30
0
41
1
10
161.416707671344
20
-12.6943542167686
30
0
41
1
10
161.609291635503
20
-12.9170410360366
30
0
41
1
10
161.705583617583
20
-12.9780817610945
30
0
41
1
10
161.813912097423
20
-12.997157079864
30
0
41
1
10
161.825948595183
20
-12.9985902570564
30
0
41
1
10
161.850021590703
20
-13.0001122167451
30
0
41
1
10
161.862058088463
20
-13.0002040504368
30
0
41
1
10
161.898167581743
20
-12.9984810289716
30
0
41
1
10
161.922240577263
20
-12.9946511616227
30
0
41
1
10
161.994459563823
20
-12.9747825093449
30
0
41
1
10
162.042605554863
20
-12.9503569902621
30
0
41
1
10
162.187043527983
20
-12.8410938853905
30
0
41
1
10
162.283335510063
20
-12.7200828600979
30
0
41
1
10
162.475919474222
20
-12.372295945306
30
0
41
1
10
162.572211456302
20
-12.1454478558368
30
0
41
1
10
162.764795420462
20
-11.5832716516961
30
0
41
1
10
162.861087402542
20
-11.2479091893385
30
0
41
1
10
163.053671366702
20
-10.4745654686313
30
0
41
1
10
163.149963348782
20
-10.0366059437178
30
0
41
1
10
163.342547312941
20
-9.07275249942953
30
0
41
1
10
163.438839295021
20
-8.54693694092251
30
0
41
1
10
163.631423259181
20
-7.42935884052878
30
0
41
1
10
163.727715241261
20
-6.83771125294766
30
0
41
1
10
163.920299205421
20
-5.61476452088729
30
0
41
1
10
164.016591187501
20
-4.98358470809643
30
0
41
1
10
164.209175151661
20
-3.70853309082926
30
0
41
1
10
164.305467133741
20
-3.06475519657488
30
0
41
1
10
164.4980510979
20
-1.78882607850181
30
0
41
1
10
164.59434307998
20
-1.15672730134128
30
0
41
1
10
164.71470805758
20
-0.386017854559327
30
0
41
1
10
164.7387810531
20
-0.232833113286603
30
0
41
1
10
164.77489054638
20
-0.0046766641730471
30
0
41
1
10
164.78692704414
20
0.0710833002134734
30
0
41
1
10
164.81100003966
20
0.223499699422149
30
0
41
1
10
164.82303653742
20
0.299973517235713
30
0
41
1
10
164.88321902622
20
0.683594381865987
30
0
41
1
10
164.93136501726
20
0.994510818363295
30
0
41
1
10
165.07580299038
20
1.93604915546518
30
0
41
1
10
165.172094972459
20
2.57561449048103
30
0
41
1
10
165.268386954539
20
3.21630718096398
30
0
0
SPLINE
5
F6
100
AcDbEntity
8
1
62
256
6
ByLayer
370
13
48
1
60
0
100
AcDbSpline
70
4
71
3
72
42
73
38
40
0
40
0
40
0
40
0
40
0.0624999999999981
40
0.0624999999999981
40
0.124999999999996
40
0.124999999999996
40
0.140624999999996
40
0.140624999999996
40
0.156249999999996
40
0.156249999999996
40
0.187499999999996
40
0.187499999999996
40
0.249999999999996
40
0.249999999999996
40
0.312499999999997
40
0.312499999999997
40
0.374999999999997
40
0.374999999999997
40
0.437499999999998
40
0.437499999999998
40
0.499999999999998
40
0.499999999999998
40
0.562499999999998
40
0.562499999999998
40
0.624999999999999
40
0.624999999999999
40
0.687499999999999
40
0.687499999999999
40
0.749999999999999
40
0.749999999999999
40
0.812499999999999
40
0.812499999999999
40
0.875
40
0.875
40
0.9375
40
0.9375
40
1
40
1
40
1
40
1
41
1
10
153.6
20
-3.32104203274704
30
0
41
1
10
153.671366183897
20
-2.84614830789369
30
0
41
1
10
153.742732367793
20
-2.37146238738919
30
0
41
1
10
153.885464735586
20
-1.43162623138809
30
0
41
1
10
153.956830919482
20
-0.966485019304145
30
0
41
1
10
154.046038649353
20
-0.395744747858146
30
0
41
1
10
154.063880195327
20
-0.282126839804135
30
0
41
1
10
154.099563287275
20
-0.056052298202502
30
0
41
1
10
154.117404833249
20
0.0561024544838347
30
0
41
1
10
154.170929471171
20
0.395214783671236
30
0
41
1
10
154.20661256312
20
0.623615619345117
30
0
41
1
10
154.313661838964
20
1.31454301150839
30
0
41
1
10
154.385028022861
20
1.78284568500959
30
0
41
1
10
154.527760390653
20
2.72685788805455
30
0
41
1
10
154.59912657455
20
3.20255657973755
30
0
41
1
10
154.741858942343
20
4.15187589025845
30
0
41
1
10
154.813225126239
20
4.62547848083125
30
0
41
1
10
154.955957494032
20
5.56003887880854
30
0
41
1
10
155.027323677929
20
6.02097271278046
30
0
41
1
10
155.170056045722
20
6.91918355705047
30
0
41
1
10
155.241422229618
20
7.3564334277747
30
0
41
1
10
155.384154597411
20
8.1965979086805
30
0
41
1
10
155.455520781307
20
8.59948610880389
30
0
41
1
10
155.5982531491
20
9.36140157363286
30
0
41
1
10
155.669619332996
20
9.72040729538017
30
0
41
1
10
155.812351700789
20
10.3869200243639
30
0
41
1
10
155.883717884686
20
10.6944136725394
30
0
41
1
10
156.026450252479
20
11.2526875451808
30
0
41
1
10
156.097816436375
20
11.5034642369539
30
0
41
1
10
156.240548804168
20
11.945770462907
30
0
41
1
10
156.311914988064
20
12.1373059396466
30
0
41
1
10
156.454647355857
20
12.461237607647
30
0
41
1
10
156.526013539754
20
12.5936471709137
30
0
41
1
10
156.668745907546
20
12.8017774987479
30
0
41
1
10
156.740112091443
20
12.8775160589196
30
0
41
1
10
156.882844459236
20
12.976617759948
30
0
41
1
10
156.954210643132
20
13
30
0
41
1
10
157.025576827028
20
13
30
0
0
SPLINE
5
F7
100
AcDbEntity
8
1
62
256
6
ByLayer
370
13
48
1
60
0
100
AcDbSpline
70
4
71
3
72
87
73
83
40
0
40
0
40
0
40
0
40
0.0312500000000016
40
0.0312500000000016
40
0.0625000000000032
40
0.0625000000000032
40
0.0937500000000048
40
0.0937500000000048
40
0.125000000000006
40
0.125000000000006
40
0.156250000000008
40
0.156250000000008
40
0.18750000000001
40
0.18750000000001
40
0.218750000000011
40
0.218750000000011
40
0.250000000000013
40
0.250000000000013
40
0.281250000000014
40
0.281250000000014
40
0.296875000000015
40
0.296875000000015
40
0.300781250000015
40
0.300781250000015
40
0.304687500000015
40
0.312500000000015
40
0.312500000000015
40
0.343750000000015
40
0.343750000000015
40
0.375000000000015
40
0.375000000000015
40
0.406250000000015
40
0.406250000000015
40
0.437500000000015
40
0.437500000000015
40
0.468750000000015
40
0.468750000000015
40
0.500000000000015
40
0.500000000000015
40
0.531250000000015
40
0.531250000000015
40
0.562500000000015
40
0.562500000000015
40
0.593750000000015
40
0.593750000000015
40
0.597656250000015
40
0.597656250000015
40
0.601562500000015
40
0.601562500000015
40
0.609375000000014
40
0.609375000000014
40
0.625000000000014
40
0.625000000000014
40
0.656250000000013
40
0.656250000000013
40
0.687500000000012
40
0.687500000000012
40
0.718750000000011
40
0.718750000000011
40
0.75000000000001
40
0.75000000000001
40
0.781250000000009
40
0.781250000000009
40
0.812500000000008
40
0.812500000000008
40
0.843750000000007
40
0.843750000000007
40
0.875000000000006
40
0.875000000000006
40
0.890625000000005
40
0.890625000000005
40
0.898437500000005
40
0.898437500000005
40
0.902343750000004
40
0.902343750000004
40
0.906250000000004
40
0.906250000000004
40
0.937500000000003
40
0.937500000000003
40
0.968750000000001
40
0.968750000000001
40
1
40
1
40
1
40
1
41
1
10
155.539485456579
20
13
30
0
41
1
10
155.640828180517
20
13
30
0
41
1
10
155.742170904454
20
12.9527519534753
30
0
41
1
10
155.944856352328
20
12.7484864565068
30
0
41
1
10
156.046199076265
20
12.5913606350805
30
0
41
1
10
156.248884524139
20
12.158079531803
30
0
41
1
10
156.350227248076
20
11.881842588625
30
0
41
1
10
156.55291269595
20
11.2102836509847
30
0
41
1
10
156.654255419887
20
10.8149412500704
30
0
41
1
10
156.856940867761
20
9.91597821494884
30
0
41
1
10
156.958283591698
20
9.41241677088698
30
0
41
1
10
157.160969039573
20
8.31814891934511
30
0
41
1
10
157.26231176351
20
7.72756973104967
30
0
41
1
10
157.464997211384
20
6.48785377467485
30
0
41
1
10
157.566339935321
20
5.83887355486064
30
0
41
1
10
157.769025383195
20
4.51397210726907
30
0
41
1
10
157.870368107132
20
3.83819012512277
30
0
41
1
10
158.073053555007
20
2.48971776622415
30
0
41
1
10
158.174396278944
20
1.81711669702727
30
0
41
1
10
158.326410364849
20
0.829219871726224
30
0
41
1
10
158.377081726818
20
0.503373582460455
30
0
41
1
10
158.440420929279
20
0.101921252066148
30
0
41
1
10
158.45308876977
20
0.022110120813835
30
0
41
1
10
158.478424450755
20
-0.137858251673663
30
0
41
1
10
158.516427972231
20
-0.378712254637719
30
0
41
1
10
158.554431493708
20
-0.62211623623341
30
0
41
1
10
158.681109898629
20
-1.43837796254601
30
0
41
1
10
158.782452622566
20
-2.10737478130281
30
0
41
1
10
158.98513807044
20
-3.45381498345648
30
0
41
1
10
159.086480794377
20
-4.13118021456222
30
0
41
1
10
159.289166242251
20
-5.46517878468762
30
0
41
1
10
159.390508966189
20
-6.12168053645388
30
0
41
1
10
159.593194414063
20
-7.38234988569212
30
0
41
1
10
159.694537138
20
-7.98636079748189
30
0
41
1
10
159.897222585874
20
-9.1124798809893
30
0
41
1
10
159.998565309811
20
-9.63445172439486
30
0
41
1
10
160.201250757685
20
-10.5735370149895
30
0
41
1
10
160.302593481622
20
-10.9905764954225
30
0
41
1
10
160.505278929497
20
-11.7067559617442
30
0
41
1
10
160.606621653434
20
-12.0059018713565
30
0
41
1
10
160.809307101308
20
-12.4842261101362
30
0
41
1
10
160.910649825245
20
-12.6634769096666
30
0
41
1
10
161.113335273119
20
-12.9096621896107
30
0
41
1
10
161.214677997056
20
-12.9767027549176
30
0
41
1
10
161.328688561485
20
-12.9971328746779
30
0
41
1
10
161.341356401977
20
-12.9986422770494
30
0
41
1
10
161.366692082962
20
-13.0001727455975
30
0
41
1
10
161.379359923454
20
-13.0001978748219
30
0
41
1
10
161.41736344493
20
-12.9980555308073
30
0
41
1
10
161.442699125914
20
-12.9936524866202
30
0
41
1
10
161.518706168867
20
-12.9711291017858
30
0
41
1
10
161.569377530836
20
-12.9436848441542
30
0
41
1
10
161.721391616741
20
-12.8212437848361
30
0
41
1
10
161.822734340679
20
-12.6859017804237
30
0
41
1
10
162.025419788553
20
-12.2973164452928
30
0
41
1
10
162.12676251249
20
-12.0439835622459
30
0
41
1
10
162.329447960364
20
-11.4174326574008
30
0
41
1
10
162.430790684301
20
-11.0441804512857
30
0
41
1
10
162.633476132175
20
-10.1865044494508
30
0
41
1
10
162.734818856112
20
-9.70212464333801
30
0
41
1
10
162.937504303986
20
-8.64152332874505
30
0
41
1
10
163.038847027924
20
-8.06541847670181
30
0
41
1
10
163.241532475798
20
-6.84885058227792
30
0
41
1
10
163.342875199735
20
-6.20854220379317
30
0
41
1
10
163.545560647609
20
-4.89497813834305
30
0
41
1
10
163.646903371546
20
-4.22186815106369
30
0
41
1
10
163.84958881942
20
-2.8733517927044
30
0
41
1
10
163.950931543357
20
-2.19804559868911
30
0
41
1
10
164.102945629263
20
-1.2029240170186
30
0
41
1
10
164.153616991231
20
-0.874144779339474
30
0
41
1
10
164.229624034184
20
-0.38734059959026
30
0
41
1
10
164.254959715169
20
-0.22612992205552
30
0
41
1
10
164.292963236645
20
0.0138845411811133
30
0
41
1
10
164.305631077137
20
0.0936656239619538
30
0
41
1
10
164.330966758121
20
0.254206432987956
30
0
41
1
10
164.343634598614
20
0.334769129370017
30
0
41
1
10
164.457645163043
20
1.06230281771988
30
0
41
1
10
164.55898788698
20
1.72684147955357
30
0
41
1
10
164.761673334854
20
3.06933468469552
30
0
41
1
10
164.863016058791
20
3.74722234989065
30
0
41
1
10
165.065701506665
20
5.08810526827642
30
0
41
1
10
165.167044230602
20
5.75097763261584
30
0
41
1
10
165.268386954539
20
6.3906744231667
30
0
0
SPLINE
5
F8
100
AcDbEntity
8
1
62
256
6
ByLayer
370
13
48
1
60
0
100
AcDbSpline
70
4
71
3
72
41
73
37
40
0
40
0
40
0
40
0
40
0.0156249999999999
40
0.0156249999999999
40
0.0312499999999997
40
0.0625000000000001
40
0.0625000000000001
40
0.125
40
0.125
40
0.1875
40
0.1875
40
0.250000000000001
40
0.250000000000001
40
0.312500000000001
40
0.312500000000001
40
0.375000000000001
40
0.375000000000001
40
0.437500000000001
40
0.437500000000001
40
0.500000000000001
40
0.500000000000001
40
0.562500000000001
40
0.562500000000001
40
0.625000000000001
40
0.625000000000001
40
0.687500000000001
40
0.687500000000001
40
0.750000000000001
40
0.750000000000001
40
0.8125
40
0.8125
40
0.875
40
0.875
40
0.9375
40
0.9375
40
1
40
1
40
1
40
1
41
1
10
153.6
20
-0.149141714932
30
0
41
1
10
153.615316175046
20
-0.0521630119923202
30
0
41
1
10
153.630632350091
20
0.0441513691428668
30
0
41
1
10
153.661264700182
20
0.23806123980242
30
0
41
1
10
153.707213225319
20
0.530217526094987
30
0
41
1
10
153.753161750455
20
0.82597023776853
30
0
41
1
10
153.845058800728
20
1.42144594051484
30
0
41
1
10
153.90632350091
20
1.82375106760836
30
0
41
1
10
154.028852901274
20
2.63391164553323
30
0
41
1
10
154.090117601457
20
3.0417621077045
30
0
41
1
10
154.212647001821
20
3.85709040793176
30
0
41
1
10
154.273911702003
20
4.2645603513979
30
0
41
1
10
154.396441102367
20
5.07257167479091
30
0
41
1
10
154.457705802549
20
5.47310259434784
30
0
41
1
10
154.580235202913
20
6.26032405136266
30
0
41
1
10
154.641499903095
20
6.64700236847847
30
0
41
1
10
154.764029303459
20
7.39959472980499
30
0
41
1
10
154.825294003641
20
7.76549599967481
30
0
41
1
10
154.947823404005
20
8.46997825811314
30
0
41
1
10
155.009088104187
20
8.80854734667116
30
0
41
1
10
155.131617504551
20
9.45255291003591
30
0
41
1
10
155.192882204733
20
9.75797975228994
30
0
41
1
10
155.315411605097
20
10.3309604242807
30
0
41
1
10
155.376676305279
20
10.5985079759504
30
0
41
1
10
155.499205705644
20
11.092304092363
30
0
41
1
10
155.560470405826
20
11.318550307926
30
0
41
1
10
155.68299980619
20
11.7277632968235
30
0
41
1
10
155.744264506372
20
11.9107316280703
30
0
41
1
10
155.866793906736
20
12.2328651309155
30
0
41
1
10
155.928058606918
20
12.3720352054465
30
0
41
1
10
156.050588007282
20
12.6074056597691
30
0
41
1
10
156.111852707464
20
12.7036133513271
30
0
41
1
10
156.234382107828
20
12.8550625570633
30
0
41
1
10
156.29564680801
20
12.9103126989361
30
0
41
1
10
156.418176208374
20
12.9827769706495
30
0
41
1
10
156.479440908557
20
13
30
0
41
1
10
156.540705608738
20
13
30
0
0
SPLINE
5
F9
100
AcDbEntity
8
1
62
256
6
ByLayer
370
13
48
1
60
0
100
AcDbSpline
70
4
71
3
72
118
73
114
40
0
40
0
40
0
40
0
40
0.0312499999999995
40
0.0312499999999995
40
0.0624999999999991
40
0.0624999999999991
40
0.0781249999999989
40
0.0781249999999989
40
0.0937499999999988
40
0.0937499999999988
40
0.109374999999999
40
0.109374999999999
40
0.124999999999999
40
0.124999999999999
40
0.140624999999998
40
0.140624999999998
40
0.156249999999998
40
0.156249999999998
40
0.171874999999998
40
0.171874999999998
40
0.187499999999998
40
0.187499999999998
40
0.203124999999998
40
0.203124999999998
40
0.218749999999998
40
0.218749999999998
40
0.249999999999997
40
0.249999999999997
40
0.281249999999997
40
0.281249999999997
40
0.285156249999997
40
0.285156249999997
40
0.289062499999997
40
0.289062499999997
40
0.296874999999996
40
0.296874999999996
40
0.312499999999996
40
0.312499999999996
40
0.343749999999995
40
0.343749999999995
40
0.374999999999994
40
0.374999999999994
40
0.390624999999993
40
0.390624999999993
40
0.406249999999993
40
0.406249999999993
40
0.421874999999992
40
0.421874999999992
40
0.437499999999992
40
0.437499999999992
40
0.453124999999991
40
0.453124999999991
40
0.468749999999991
40
0.468749999999991
40
0.48437499999999
40
0.48437499999999
40
0.49999999999999
40
0.49999999999999
40
0.531249999999988
40
0.531249999999988
40
0.562499999999987
40
0.562499999999987
40
0.570312499999987
40
0.570312499999987
40
0.574218749999987
40
0.574218749999987
40
0.578124999999987
40
0.578124999999987
40
0.593749999999987
40
0.593749999999987
40
0.624999999999988
40
0.624999999999988
40
0.656249999999988
40
0.656249999999988
40
0.671874999999988
40
0.671874999999988
40
0.687499999999989
40
0.687499999999989
40
0.703124999999989
40
0.703124999999989
40
0.718749999999989
40
0.718749999999989
40
0.734374999999989
40
0.734374999999989
40
0.749999999999989
40
0.749999999999989
40
0.76562499999999
40
0.76562499999999
40
0.78124999999999
40
0.78124999999999
40
0.81249999999999
40
0.81249999999999
40
0.843749999999991
40
0.843749999999991
40
0.851562499999991
40
0.851562499999991
40
0.855468749999991
40
0.855468749999991
40
0.859374999999991
40
0.859374999999991
40
0.874999999999992
40
0.874999999999992
40
0.906249999999994
40
0.906249999999994
40
0.937499999999996
40
0.937499999999996
40
0.953124999999997
40
0.953124999999997
40
0.968749999999998
40
0.968749999999998
40
0.984374999999999
40
0.984374999999999
40
1
40
1
40
1
40
1
41
1
10
155.054614238289
20
13
30
0
41
1
10
155.161007704084
20
13
30
0
41
1
10
155.267401169878
20
12.947901757823
30
0
41
1
10
155.480188101466
20
12.7219795083293
30
0
41
1
10
155.586581567261
20
12.5480181207746
30
0
41
1
10
155.746171765952
20
12.1882490889296
30
0
41
1
10
155.799368498849
20
12.0519292083393
30
0
41
1
10
155.905761964644
20
11.7463042006995
30
0
41
1
10
155.958958697541
20
11.576997167765
30
0
41
1
10
156.065352163335
20
11.2059965852783
30
0
41
1
10
156.118548896232
20
11.0043026536902
30
0
41
1
10
156.224942362026
20
10.5699589052826
30
0
41
1
10
156.278139094924
20
10.3373104031405
30
0
41
1
10
156.384532560718
20
9.84330657180166
30
0
41
1
10
156.437729293615
20
9.58195424545229
30
0
41
1
10
156.544122759409
20
9.03354526520084
30
0
41
1
10
156.597319492306
20
8.74649309917396
30
0
41
1
10
156.703712958101
20
8.15032704060465
30
0
41
1
10
156.756909690998
20
7.84121874478637
30
0
41
1
10
156.863303156792
20
7.20507024296904
30
0
41
1
10
156.916499889689
20
6.87803624664625
30
0
41
1
10
157.022893355483
20
6.21047425837335
30
0
41
1
10
157.076090088381
20
5.86995254716547
30
0
41
1
10
157.182483554175
20
5.17997166056341
30
0
41
1
10
157.235680287072
20
4.83051832689873
30
0
41
1
10
157.395270485763
20
3.7754892016435
30
0
41
1
10
157.501663951558
20
3.0634406891227
30
0
41
1
10
157.714450883146
20
1.65457427609931
30
0
41
1
10
157.82084434894
20
0.957840202559538
30
0
41
1
10
157.940536997959
20
0.196971935768318
30
0
41
1
10
157.953836181183
20
0.112744492327153
30
0
41
1
10
157.980434547632
20
-0.0550431671816227
30
0
41
1
10
157.993733730856
20
-0.138993522104045
30
0
41
1
10
158.033631280529
20
-0.3921817430857
30
0
41
1
10
158.060229646978
20
-0.562247702819974
30
0
41
1
10
158.140024746323
20
-1.07575129603782
30
0
41
1
10
158.193221479221
20
-1.42251090185454
30
0
41
1
10
158.352811677912
20
-2.47133609112106
30
0
41
1
10
158.459205143706
20
-3.18215327068091
30
0
41
1
10
158.671992075295
20
-4.59610413252881
30
0
41
1
10
158.778385541089
20
-5.29909830596114
30
0
41
1
10
158.93797573978
20
-6.32086579694649
30
0
41
1
10
158.991172472678
20
-6.6559764601609
30
0
41
1
10
159.097565938472
20
-7.31072602751016
30
0
41
1
10
159.150762671369
20
-7.63035861582958
30
0
41
1
10
159.257156137163
20
-8.2498267386805
30
0
41
1
10
159.31035287006
20
-8.54965626891212
30
0
41
1
10
159.416746335854
20
-9.12558155570602
30
0
41
1
10
159.469943068752
20
-9.40167215077074
30
0
41
1
10
159.576336534546
20
-9.92674094632824
30
0
41
1
10
159.629533267443
20
-10.1757152792558
30
0
41
1
10
159.735926733237
20
-10.6438681155162
30
0
41
1
10
159.789123466134
20
-10.8630443496701
30
0
41
1
10
159.895516931929
20
-11.2697058148345
30
0
41
1
10
159.948713664826
20
-11.4571904926169
30
0
41
1
10
160.05510713062
20
-11.7994045407039
30
0
41
1
10
160.108303863517
20
-11.9541349984044
30
0
41
1
10
160.267894062209
20
-12.368830532706
30
0
41
1
10
160.374287528003
20
-12.578969257272
30
0
41
1
10
160.587074459592
20
-12.8735009842345
30
0
41
1
10
160.693467925386
20
-12.9580255320856
30
0
41
1
10
160.826459757629
20
-12.9951193580308
30
0
41
1
10
160.853058124077
20
-12.9991260666736
30
0
41
1
10
160.89295567375
20
-13.0002447071961
30
0
41
1
10
160.906254856974
20
-12.9998077885571
30
0
41
1
10
160.932853223423
20
-12.9972860522277
30
0
41
1
10
160.946152406647
20
-12.9951996506302
30
0
41
1
10
161.012648322769
20
-12.980545616463
30
0
41
1
10
161.065845055666
20
-12.9552986937566
30
0
41
1
10
161.225435254357
20
-12.8356551346583
30
0
41
1
10
161.331828720151
20
-12.6970707017964
30
0
41
1
10
161.54461565174
20
-12.2899155575948
30
0
41
1
10
161.651009117534
20
-12.0212307136446
30
0
41
1
10
161.810599316226
20
-11.5191675404274
30
0
41
1
10
161.863796049123
20
-11.335401073396
30
0
41
1
10
161.970189514917
20
-10.9360118970455
30
0
41
1
10
162.023386247814
20
-10.7203895454974
30
0
41
1
10
162.129779713608
20
-10.2590862352227
30
0
41
1
10
162.182976446506
20
-10.0134073511322
30
0
41
1
10
162.2893699123
20
-9.49458457522044
30
0
41
1
10
162.342566645197
20
-9.22144437982192
30
0
41
1
10
162.448960110991
20
-8.6510014159544
30
0
41
1
10
162.502156843888
20
-8.35370368123989
30
0
41
1
10
162.608550309683
20
-7.73882467211624
30
0
41
1
10
162.66174704258
20
-7.42124933149211
30
0
41
1
10
162.768140508374
20
-6.77010439930015
30
0
41
1
10
162.821337241271
20
-6.43654111555446
30
0
41
1
10
162.927730707066
20
-5.75793411152324
30
0
41
1
10
162.980927439963
20
-5.41289653607825
30
0
41
1
10
163.140517638654
20
-4.36738737040767
30
0
41
1
10
163.246911104448
20
-3.65668212255378
30
0
41
1
10
163.459698036037
20
-2.24194596815232
30
0
41
1
10
163.566091501831
20
-1.53802099123615
30
0
41
1
10
163.699083334074
20
-0.679705266215421
30
0
41
1
10
163.725681700522
20
-0.509102211224814
30
0
41
1
10
163.765579250195
20
-0.255051445956752
30
0
41
1
10
163.778878433419
20
-0.170676563345694
30
0
41
1
10
163.805476799868
20
-0.0025849754347576
30
0
41
1
10
163.818775983093
20
0.0811176670622729
30
0
41
1
10
163.885271899214
20
0.502363064504664
30
0
41
1
10
163.938468632111
20
0.844546007099666
30
0
41
1
10
164.098058830802
20
1.88237324809066
30
0
41
1
10
164.204452296597
20
2.58952676370572
30
0
41
1
10
164.417239228185
20
4.00546121063425
30
0
41
1
10
164.52363269398
20
4.71412342993557
30
0
41
1
10
164.683222892671
20
5.75208004929345
30
0
41
1
10
164.736419625568
20
6.09385771347004
30
0
41
1
10
164.842813091362
20
6.76445167120227
30
0
41
1
10
164.896009824259
20
7.09326170979656
30
0
41
1
10
165.002403290054
20
7.73345922873642
30
0
41
1
10
165.055600022951
20
8.04484046367349
30
0
41
1
10
165.161993488745
20
8.6460046870202
30
0
41
1
10
165.215190221642
20
8.9357819816654
30
0
41
1
10
165.268386954539
20
9.21290566373136
30
0
0
SPLINE
5
FA
100
AcDbEntity
8
1
62
256
6
ByLayer
370
13
48
1
60
0
100
AcDbSpline
70
4
71
3
72
22
73
18
40
0
40
0
40
0
40
0
40
0.125
40
0.125
40
0.25
40
0.25
40
0.375
40
0.375
40
0.5
40
0.5
40
0.625
40
0.625
40
0.75
40
0.75
40
0.875
40
0.875
40
1
40
1
40
1
40
1
41
1
10
153.6
20
3.00691393837485
30
0
41
1
10
153.702326432935
20
3.68739400076697
30
0
41
1
10
153.804652865871
20
4.37055018033624
30
0
41
1
10
154.009305731741
20
5.71186191360869
30
0
41
1
10
154.111632164677
20
6.36987410530355
30
0
41
1
10
154.316285030547
20
7.62835852731053
30
0
41
1
10
154.418611463483
20
8.22866627208788
30
0
41
1
10
154.623264329354
20
9.34196482541614
30
0
41
1
10
154.725590762289
20
9.85481956231564
30
0
41
1
10
154.93024362816
20
10.7709030578865
30
0
41
1
10
155.032570061095
20
11.1740664911362
30
0
41
1
10
155.237222926966
20
11.8590912206536
30
0
41
1
10
155.339549359901
20
12.1409716242329
30
0
41
1
10
155.544202225772
20
12.5831001709499
30
0
41
1
10
155.646528658707
20
12.7434330556521
30
0
41
1
10
155.851181524578
20
12.9518261654708
30
0
41
1
10
155.953507957513
20
13
30
0
41
1
10
156.055834390448
20
13
30
0
0
SPLINE
5
FB
100
AcDbEntity
8
1
62
256
6
ByLayer
370
13
48
1
60
0
100
AcDbSpline
70
4
71
3
72
142
73
138
40
0
40
0
40
0
40
0
40
0.0312499999999996
40
0.0312499999999996
40
0.0468749999999994
40
0.0468749999999994
40
0.0624999999999991
40
0.0624999999999991
40
0.0781249999999988
40
0.0781249999999988
40
0.0937499999999986
40
0.0937499999999986
40
0.109374999999998
40
0.109374999999998
40
0.124999999999998
40
0.124999999999998
40
0.140624999999998
40
0.140624999999998
40
0.156249999999998
40
0.156249999999998
40
0.171874999999997
40
0.171874999999997
40
0.187499999999997
40
0.187499999999997
40
0.203124999999997
40
0.203124999999997
40
0.218749999999997
40
0.218749999999997
40
0.234374999999996
40
0.234374999999996
40
0.249999999999996
40
0.249999999999996
40
0.265624999999996
40
0.265624999999996
40
0.269531249999996
40
0.269531249999996
40
0.273437499999996
40
0.273437499999996
40
0.281249999999996
40
0.281249999999996
40
0.296874999999995
40
0.296874999999995
40
0.312499999999995
40
0.312499999999995
40
0.328124999999995
40
0.328124999999995
40
0.343749999999995
40
0.343749999999995
40
0.359374999999994
40
0.359374999999994
40
0.374999999999994
40
0.374999999999994
40
0.390624999999994
40
0.390624999999994
40
0.406249999999994
40
0.406249999999994
40
0.421874999999993
40
0.421874999999993
40
0.437499999999993
40
0.437499999999993
40
0.453124999999993
40
0.453124999999993
40
0.468749999999993
40
0.468749999999993
40
0.484374999999992
40
0.484374999999992
40
0.499999999999992
40
0.499999999999992
40
0.515624999999992
40
0.515624999999992
40
0.531249999999992
40
0.531249999999992
40
0.539062499999991
40
0.539062499999991
40
0.542968749999991
40
0.542968749999991
40
0.546874999999992
40
0.546874999999992
40
0.562499999999992
40
0.562499999999992
40
0.578124999999993
40
0.578124999999993
40
0.593749999999994
40
0.593749999999994
40
0.609374999999994
40
0.609374999999994
40
0.624999999999995
40
0.624999999999995
40
0.640624999999996
40
0.640624999999996
40
0.656249999999996
40
0.656249999999996
40
0.671874999999997
40
0.671874999999997
40
0.687499999999998
40
0.687499999999998
40
0.703124999999999
40
0.703124999999999
40
0.718749999999999
40
0.718749999999999
40
0.734375
40
0.734375
40
0.750000000000001
40
0.750000000000001
40
0.765625000000001
40
0.765625000000001
40
0.781250000000002
40
0.781250000000002
40
0.812500000000003
40
0.812500000000003
40
0.816406250000003
40
0.816406250000003
40
0.820312500000004
40
0.820312500000004
40
0.828125000000003
40
0.828125000000003
40
0.843750000000003
40
0.843750000000003
40
0.859375000000003
40
0.859375000000003
40
0.875000000000003
40
0.875000000000003
40
0.890625000000002
40
0.890625000000002
40
0.906250000000002
40
0.906250000000002
40
0.921875000000002
40
0.921875000000002
40
0.937500000000001
40
0.937500000000001
40
0.953125000000001
40
0.953125000000001
40
0.968750000000001
40
0.968750000000001
40
0.984375
40
0.984375
40
1
40
1
40
1
40
1
41
1
10
154.569743019999
20
13
30
0
41
1
10
154.681187227651
20
13
30
0
41
1
10
154.792631435302
20
12.9428105356129
30
0
41
1
10
154.959797746779
20
12.756258536696
30
0
41
1
10
155.015519850605
20
12.6773301593363
30
0
41
1
10
155.126964058257
20
12.4843132379626
30
0
41
1
10
155.182686162082
20
12.370219846828
30
0
41
1
10
155.294130369734
20
12.1059476131001
30
0
41
1
10
155.34985247356
20
11.9557650955284
30
0
41
1
10
155.461296681211
20
11.6192764096105
30
0
41
1
10
155.517018785037
20
11.4329682655531
30
0
41
1
10
155.628462992688
20
11.0251639477398
30
0
41
1
10
155.684185096514
20
10.8036678894442
30
0
41
1
10
155.795629304165
20
10.3274264419264
30
0
41
1
10
155.851351407991
20
10.0726834308327
30
0
41
1
10
155.962795615643
20
9.53285287163646
30
0
41
1
10
156.018517719468
20
9.24776986271331
30
0
41
1
10
156.12996192712
20
8.65102576299523
30
0
41
1
10
156.185684030946
20
8.33937099494995
30
0
41
1
10
156.297128238597
20
7.69394683762576
30
0
41
1
10
156.352850342423
20
7.36018495344376
30
0
41
1
10
156.464294550074
20
6.67549708701475
30
0
41
1
10
156.5200166539
20
6.32457906367443
30
0
41
1
10
156.631460861551
20
5.6107816299403
30
0
41
1
10
156.687182965377
20
5.24790989399278
30
0
41
1
10
156.798627173029
20
4.51542259486598
30
0
41
1
10
156.854349276854
20
4.14581378435932
30
0
41
1
10
156.965793484506
20
3.40486598731144
30
0
41
1
10
157.021515588331
20
3.03353237532321
30
0
41
1
10
157.132959795983
20
2.29376122156901
30
0
41
1
10
157.188681899809
20
1.92532743740372
30
0
41
1
10
157.30012610746
20
1.19545707267699
30
0
41
1
10
157.355848211286
20
0.834022604715415
30
0
41
1
10
157.425500841068
20
0.38878279764333
30
0
41
1
10
157.439431367024
20
0.300060936014802
30
0
41
1
10
157.467292418937
20
0.123317531984696
30
0
41
1
10
157.481222944894
20
0.0355016577528318
30
0
41
1
10
157.523014522763
20
-0.228323580669184
30
0
41
1
10
157.550875574676
20
-0.405664469547958
30
0
41
1
10
157.634458730415
20
-0.94148503649933
30
0
41
1
10
157.69018083424
20
-1.30378237251193
30
0
41
1
10
157.801625041892
20
-2.0349972691705
30
0
41
1
10
157.857347145718
20
-2.40391255760963
30
0
41
1
10
157.968791353369
20
-3.14420853732977
30
0
41
1
10
158.024513457195
20
-3.51558530568565
30
0
41
1
10
158.135957664846
20
-4.25613570048989
30
0
41
1
10
158.191679768672
20
-4.62530380096379
30
0
41
1
10
158.303123976323
20
-5.35639671043734
30
0
41
1
10
158.358846080149
20
-5.71831465123455
30
0
41
1
10
158.4702902878
20
-6.42968263897768
30
0
41
1
10
158.526012391626
20
-6.77912495222907
30
0
41
1
10
158.637456599278
20
-7.46035372266996
30
0
41
1
10
158.693178703103
20
-7.79213223225744
30
0
41
1
10
158.804622910755
20
-8.43311997717763
30
0
41
1
10
158.860345014581
20
-8.7423217935864
30
0
41
1
10
158.971789222232
20
-9.33375071571149
30
0
41
1
10
159.027511326058
20
-9.61597165219243
30
0
41
1
10
159.138955533709
20
-10.1497479210748
30
0
41
1
10
159.194677637535
20
-10.401298916638
30
0
41
1
10
159.306121845187
20
-10.8709186371164
30
0
41
1
10
159.361843949012
20
-11.0889852090976
30
0
41
1
10
159.473288156664
20
-11.4897921090579
30
0
41
1
10
159.529010260489
20
-11.672532541428
30
0
41
1
10
159.640454468141
20
-12.0018466256164
30
0
41
1
10
159.696176571967
20
-12.1484224426701
30
0
41
1
10
159.807620779618
20
-12.4055351471781
30
0
41
1
10
159.863342883444
20
-12.5160758512036
30
0
41
1
10
159.974787091095
20
-12.7021230764917
30
0
41
1
10
160.030509194921
20
-12.7776345303035
30
0
41
1
10
160.141953402572
20
-12.895371494647
30
0
41
1
10
160.197675506398
20
-12.9376024867825
30
0
41
1
10
160.281258662137
20
-12.9777345039382
30
0
41
1
10
160.30911971405
20
-12.9872468094461
30
0
41
1
10
160.350911291919
20
-12.9959665758971
30
0
41
1
10
160.364841817875
20
-12.9979485705089
30
0
41
1
10
160.392702869788
20
-13.0001068868599
30
0
41
1
10
160.406633395745
20
-13.0002874821747
30
0
41
1
10
160.476286025527
20
-12.9967311935964
30
0
41
1
10
160.532008129352
20
-12.9794992089071
30
0
41
1
10
160.643452337004
20
-12.9135908919731
30
0
41
1
10
160.69917444083
20
-12.8649090160936
30
0
41
1
10
160.810618648481
20
-12.7338704876522
30
0
41
1
10
160.866340752307
20
-12.6515084189276
30
0
41
1
10
160.977784959958
20
-12.4514957772004
30
0
41
1
10
161.033507063784
20
-12.3338404481922
30
0
41
1
10
161.144951271436
20
-12.0623989957914
30
0
41
1
10
161.200673375261
20
-11.9086093443076
30
0
41
1
10
161.312117582913
20
-11.5649548719358
30
0
41
1
10
161.367839686738
20
-11.3750882688098
30
0
41
1
10
161.47928389439
20
-10.9603150173019
30
0
41
1
10
161.535005998216
20
-10.7354087059734
30
0
41
1
10
161.646450205867
20
-10.2525936121033
30
0
41
1
10
161.702172309693
20
-9.99468743188228
30
0
41
1
10
161.813616517344
20
-9.44886885009723
30
0
41
1
10
161.86933862117
20
-9.16096118627522
30
0
41
1
10
161.980782828821
20
-8.55898367748995
30
0
41
1
10
162.036504932647
20
-8.24492030276099
30
0
41
1
10
162.147949140298
20
-7.59515326230422
30
0
41
1
10
162.203671244124
20
-7.25945718053941
30
0
41
1
10
162.315115451776
20
-6.57141106902657
30
0
41
1
10
162.370837555601
20
-6.21906900209282
30
0
41
1
10
162.482281763253
20
-5.50294558660227
30
0
41
1
10
162.538003867079
20
-5.13917184687165
30
0
41
1
10
162.64944807473
20
-4.40539169396772
30
0
41
1
10
162.705170178556
20
-4.03539191339269
30
0
41
1
10
162.816614386207
20
-3.29414232310342
30
0
41
1
10
162.872336490033
20
-2.92289773416454
30
0
41
1
10
163.03950280151
20
-1.81415798781359
30
0
41
1
10
163.150947009162
20
-1.08197720397496
30
0
41
1
10
163.27632174277
20
-0.282915123688269
30
0
41
1
10
163.290252268726
20
-0.194466273798014
30
0
41
1
10
163.318113320639
20
-0.0182873263931072
30
0
41
1
10
163.332043846595
20
0.069350702940767
30
0
41
1
10
163.373835424465
20
0.334033858202474
30
0
41
1
10
163.401696476377
20
0.511910239871696
30
0
41
1
10
163.485279632116
20
1.04921572632577
30
0
41
1
10
163.541001735942
20
1.41234077208685
30
0
41
1
10
163.652445943593
20
2.14482384586421
30
0
41
1
10
163.708168047419
20
2.51417944074737
30
0
41
1
10
163.81961225507
20
3.25491272712532
30
0
41
1
10
163.875334358896
20
3.62628633081022
30
0
41
1
10
163.986778566548
20
4.36634296730247
30
0
41
1
10
164.042500670373
20
4.73502032529098
30
0
41
1
10
164.153944878025
20
5.46461692692523
30
0
41
1
10
164.20966698185
20
5.825529191589
30
0
41
1
10
164.321111189502
20
6.53436431968254
30
0
41
1
10
164.376833293328
20
6.88227939668604
30
0
41
1
10
164.488277500979
20
7.55994873855039
30
0
41
1
10
164.543999604805
20
7.88969507455539
30
0
41
1
10
164.655443812456
20
8.526153857048
30
0
41
1
10
164.711165916282
20
8.83285897801653
30
0
41
1
10
164.822610123933
20
9.41889234321428
30
0
41
1
10
164.878332227759
20
9.69821457756575
30
0
41
1
10
164.989776435411
20
10.225871996824
30
0
41
1
10
165.045498539236
20
10.4742030507506
30
0
41
1
10
165.156942746888
20
10.9371548716008
30
0
41
1
10
165.212664850714
20
11.151773711504
30
0
41
1
10
165.268386954539
20
11.3486651978408
30
0
0
SPLINE
5
FC
100
AcDbEntity
8
1
62
256
6
ByLayer
370
13
48
1
60
0
100
AcDbSpline
70
4
71
3
72
10
73
6
40
0
40
0
40
0
40
0
40
0.5
40
0.5
40
1
40
1
40
1
40
1
41
1
10
164.75203860409
20
13
30
0
41
1
10
164.838096662498
20
13
30
0
41
1
10
164.924154720906
20
12.9659692553693
30
0
41
1
10
165.096270837723
20
12.8202734137489
30
0
41
1
10
165.182328896131
20
12.7085598548284
30
0
41
1
10
165.268386954539
20
12.5546871717897
30
0
0
SPLINE
5
FD
100
AcDbEntity
8
1
62
256
6
ByLayer
370
13
48
1
60
0
100
AcDbSpline
70
4
71
3
72
22
73
18
40
0
40
0
40
0
40
0
40
0.125
40
0.125
40
0.25
40
0.25
40
0.375
40
0.375
40
0.5
40
0.5
40
0.625
40
0.625
40
0.75
40
0.75
40
0.875
40
0.875
40
1
40
1
40
1
40
1
41
1
10
153.6
20
6.19125162387681
30
0
41
1
10
153.682123465507
20
6.71338962583718
30
0
41
1
10
153.764246931013
20
7.22131738258477
30
0
41
1
10
153.928493862026
20
8.19243530760446
30
0
41
1
10
154.010617327533
20
8.65557201468062
30
0
41
1
10
154.174864258546
20
9.52262304702418
30
0
41
1
10
154.256987724053
20
9.92649533717258
30
0
41
1
10
154.421234655066
20
10.6639472626397
30
0
41
1
10
154.503358120573
20
10.9975047093252
30
0
41
1
10
154.667605051586
20
11.5876631425224
30
0
41
1
10
154.749728517092
20
11.8442648579912
30
0
41
1
10
154.913975448106
20
12.2785824812311
30
0
41
1
10
154.996098913612
20
12.4563191816213
30
0
41
1
10
155.160345844626
20
12.7353728540065
30
0
41
1
10
155.242469310132
20
12.8367236255868
30
0
41
1
10
155.406716241145
20
12.969017984962
30
0
41
1
10
155.488839706652
20
13
30
0
41
1
10
155.570963172159
20
13
30
0
0
SPLINE
5
FE
100
AcDbEntity
8
1
62
256
6
ByLayer
370
13
48
1
60
0
100
AcDbSpline
70
4
71
3
72
145
73
141
40
0
40
0
40
0
40
0
40
0.0156250000000005
40
0.0156250000000005
40
0.031250000000001
40
0.031250000000001
40
0.0468750000000015
40
0.0468750000000015
40
0.062500000000002
40
0.062500000000002
40
0.0781250000000025
40
0.0781250000000025
40
0.093750000000003
40
0.093750000000003
40
0.109375000000003
40
0.109375000000003
40
0.125000000000004
40
0.125000000000004
40
0.140625000000004
40
0.140625000000004
40
0.156250000000005
40
0.156250000000005
40
0.171875000000005
40
0.171875000000005
40
0.187500000000006
40
0.187500000000006
40
0.203125000000006
40
0.203125000000006
40
0.218750000000007
40
0.218750000000007
40
0.234375000000007
40
0.234375000000007
40
0.250000000000008
40
0.250000000000008
40
0.257812500000008
40
0.257812500000008
40
0.261718750000008
40
0.261718750000008
40
0.265625000000008
40
0.265625000000008
40
0.281250000000008
40
0.281250000000008
40
0.296875000000008
40
0.296875000000008
40
0.312500000000007
40
0.312500000000007
40
0.328125000000007
40
0.328125000000007
40
0.343750000000007
40
0.343750000000007
40
0.359375000000007
40
0.359375000000007
40
0.375000000000007
40
0.375000000000007
40
0.390625000000006
40
0.390625000000006
40
0.406250000000006
40
0.406250000000006
40
0.421875000000006
40
0.421875000000006
40
0.437500000000006
40
0.437500000000006
40
0.453125000000006
40
0.453125000000006
40
0.468750000000005
40
0.468750000000005
40
0.484375000000005
40
0.484375000000005
40
0.500000000000005
40
0.500000000000005
40
0.515625000000005
40
0.515625000000005
40
0.519531250000005
40
0.519531250000005
40
0.523437500000005
40
0.523437500000005
40
0.531250000000005
40
0.531250000000005
40
0.546875000000005
40
0.546875000000005
40
0.562500000000006
40
0.562500000000006
40
0.578125000000006
40
0.578125000000006
40
0.593750000000006
40
0.593750000000006
40
0.609375000000007
40
0.609375000000007
40
0.625000000000007
40
0.625000000000007
40
0.640625000000007
40
0.640625000000007
40
0.656250000000008
40
0.656250000000008
40
0.671875000000008
40
0.671875000000008
40
0.687500000000008
40
0.687500000000008
40
0.703125000000008
40
0.703125000000008
40
0.718750000000009
40
0.718750000000009
40
0.734375000000009
40
0.734375000000009
40
0.750000000000009
40
0.750000000000009
40
0.76562500000001
40
0.76562500000001
40
0.78125000000001
40
0.78125000000001
40
0.78515625000001
40
0.78515625000001
40
0.78906250000001
40
0.796875000000009
40
0.796875000000009
40
0.812500000000009
40
0.812500000000009
40
0.828125000000008
40
0.828125000000008
40
0.843750000000007
40
0.843750000000007
40
0.859375000000007
40
0.859375000000007
40
0.875000000000006
40
0.875000000000006
40
0.890625000000005
40
0.890625000000005
40
0.906250000000004
40
0.906250000000004
40
0.921875000000004
40
0.921875000000004
40
0.937500000000003
40
0.937500000000003
40
0.953125000000002
40
0.953125000000002
40
0.968750000000002
40
0.968750000000002
40
0.984375000000001
40
0.984375000000001
40
1
40
1
40
1
40
1
41
1
10
154.084871801709
20
13
30
0
41
1
10
154.143119276464
20
13
30
0
41
1
10
154.201366751218
20
12.9844336165781
30
0
41
1
10
154.317861700727
20
12.9190865252253
30
0
41
1
10
154.376109175481
20
12.869298908963
30
0
41
1
10
154.49260412499
20
12.7329418814203
30
0
41
1
10
154.550851599744
20
12.6463657090286
30
0
41
1
10
154.667346549253
20
12.4345986273525
30
0
41
1
10
154.725594024007
20
12.3094018287918
30
0
41
1
10
154.842088973516
20
12.0194877705311
30
0
41
1
10
154.90033644827
20
11.8547662659628
30
0
41
1
10
155.016831397779
20
11.4859793104988
30
0
41
1
10
155.075078872533
20
11.2819119526204
30
0
41
1
10
155.191573822042
20
10.8357868843727
30
0
41
1
10
155.249821296796
20
10.5937300789854
30
0
41
1
10
155.366316246305
20
10.0741733899832
30
0
41
1
10
155.424563721059
20
9.79667735979999
30
0
41
1
10
155.541058670568
20
9.20991196045674
30
0
41
1
10
155.599306145322
20
8.90064913227297
30
0
41
1
10
155.71580109483
20
8.2549850144994
30
0
41
1
10
155.774048569585
20
7.91859231727651
30
0
41
1
10
155.890543519093
20
7.22403866617009
30
0
41
1
10
155.948790993848
20
6.86588744875644
30
0
41
1
10
156.065285943357
20
6.13364362191152
30
0
41
1
10
156.123533418111
20
5.75956087527621
30
0
41
1
10
156.240028367619
20
5.00143952864337
30
0
41
1
10
156.298275842374
20
4.61740996433826
30
0
41
1
10
156.414770791882
20
3.84525213118835
30
0
41
1
10
156.473018266637
20
3.45713132700561
30
0
41
1
10
156.589513216145
20
2.68226961122184
30
0
41
1
10
156.6477606909
20
2.29553414377585
30
0
41
1
10
156.764255640408
20
1.52834805410504
30
0
41
1
10
156.822503115163
20
1.14790071601018
30
0
41
1
10
156.909874327294
20
0.585093430521141
30
0
41
1
10
156.938998064671
20
0.398795823381533
30
0
41
1
10
156.982683670737
20
0.121646112884605
30
0
41
1
10
156.997245539426
20
0.0298854057067217
30
0
41
1
10
157.026369276803
20
-0.154024738004978
30
0
41
1
10
157.040931145491
20
-0.246376689706437
30
0
41
1
10
157.113740488934
20
-0.709987410599979
30
0
41
1
10
157.171987963689
20
-1.08682912179432
30
0
41
1
10
157.288482913197
20
-1.84851810703026
30
0
41
1
10
157.346730387952
20
-2.23336291177452
30
0
41
1
10
157.46322533746
20
-3.00641847793133
30
0
41
1
10
157.521472812214
20
-3.39462463150068
30
0
41
1
10
157.637967761723
20
-4.16913100383834
30
0
41
1
10
157.696215236478
20
-4.55542450470625
30
0
41
1
10
157.812710185986
20
-5.32037166720892
30
0
41
1
10
157.87095766074
20
-5.69901682849891
30
0
41
1
10
157.987452610249
20
-6.44270126065649
30
0
41
1
10
158.045700085003
20
-6.80773088483119
30
0
41
1
10
158.162195034512
20
-7.51826102459543
30
0
41
1
10
158.220442509266
20
-7.86375163380069
30
0
41
1
10
158.336937458775
20
-8.52962031473393
30
0
41
1
10
158.395184933529
20
-8.84998923324039
30
0
41
1
10
158.511679883038
20
-9.4606607904586
30
0
41
1
10
158.569927357792
20
-9.7509560000729
30
0
41
1
10
158.686422307301
20
-10.2974084846328
30
0
41
1
10
158.744669782055
20
-10.553560812052
30
0
41
1
10
158.861164731564
20
-11.0287262934917
30
0
41
1
10
158.919412206318
20
-11.2477373952392
30
0
41
1
10
159.035907155827
20
-11.6467958444122
30
0
41
1
10
159.094154630581
20
-11.8268440493721
30
0
41
1
10
159.21064958009
20
-12.147346378659
30
0
41
1
10
159.268897054844
20
-12.2878039154773
30
0
41
1
10
159.385392004353
20
-12.5296230868038
30
0
41
1
10
159.443639479107
20
-12.6309900639876
30
0
41
1
10
159.560134428616
20
-12.7961208365767
30
0
41
1
10
159.61838190337
20
-12.8598911464221
30
0
41
1
10
159.734876852879
20
-12.9521349677236
30
0
41
1
10
159.793124327633
20
-12.9806154091337
30
0
41
1
10
159.865933671076
20
-12.9959776388263
30
0
41
1
10
159.880495539764
20
-12.9980393659973
30
0
41
1
10
159.909619277142
20
-13.0001910936477
30
0
41
1
10
159.92418114583
20
-13.0002868038708
30
0
41
1
10
159.967866751896
20
-12.9976447476367
30
0
41
1
10
159.996990489273
20
-12.9919491683076
30
0
41
1
10
160.084361701405
20
-12.9624707184868
30
0
41
1
10
160.142609176159
20
-12.9262782802211
30
0
41
1
10
160.259104125668
20
-12.8180303511657
30
0
41
1
10
160.317351600422
20
-12.7459679623036
30
0
41
1
10
160.433846549931
20
-12.5638384769195
30
0
41
1
10
160.492094024685
20
-12.4537650618453
30
0
41
1
10
160.608588974194
20
-12.1943276235901
30
0
41
1
10
160.666836448948
20
-12.0449586287766
30
0
41
1
10
160.783331398457
20
-11.706672274678
30
0
41
1
10
160.841578873211
20
-11.5177520314163
30
0
41
1
10
160.958073822719
20
-11.1012542040324
30
0
41
1
10
161.016321297474
20
-10.8736763987538
30
0
41
1
10
161.132816246982
20
-10.3819518430961
30
0
41
1
10
161.191063721737
20
-10.117807812665
30
0
41
1
10
161.307558671245
20
-9.5561998357482
30
0
41
1
10
161.365806146
20
-9.25874144550585
30
0
41
1
10
161.482301095508
20
-8.63478946506299
30
0
41
1
10
161.540548570263
20
-8.30830376844833
30
0
41
1
10
161.657043519771
20
-7.63141352092146
30
0
41
1
10
161.715290994526
20
-7.2810183819042
30
0
41
1
10
161.831785944034
20
-6.56199419378743
30
0
41
1
10
161.890033418789
20
-6.19337507891842
30
0
41
1
10
162.006528368297
20
-5.44386231142337
30
0
41
1
10
162.064775843052
20
-5.06297811728041
30
0
41
1
10
162.18127079256
20
-4.29487428234515
30
0
41
1
10
162.239518267315
20
-3.90766278537498
30
0
41
1
10
162.356013216823
20
-3.13255605655579
30
0
41
1
10
162.414260691578
20
-2.74466708472741
30
0
41
1
10
162.530755641086
20
-1.97335174332528
30
0
41
1
10
162.589003115841
20
-1.58992949270092
30
0
41
1
10
162.705498065349
20
-0.832032157972776
30
0
41
1
10
162.763745540104
20
-0.457559083686164
30
0
41
1
10
162.836554883546
20
0.0026082621847934
30
0
41
1
10
162.851116752235
20
0.0942622596704155
30
0
41
1
10
162.880240489612
20
0.278876643261327
30
0
41
1
10
162.923926095678
20
0.556952609199044
30
0
41
1
10
162.967611701744
20
0.838250636756868
30
0
41
1
10
163.054982913875
20
1.40443157115084
30
0
41
1
10
163.113230388629
20
1.78668800207996
30
0
41
1
10
163.229725338138
20
2.55644640909239
30
0
41
1
10
163.287972812892
20
2.94394461724653
30
0
41
1
10
163.404467762401
20
3.71914295782832
30
0
41
1
10
163.462715237155
20
4.10683716815782
30
0
41
1
10
163.579210186664
20
4.87684836201922
30
0
41
1
10
163.637457661418
20
5.2591574766293
30
0
41
1
10
163.753952610927
20
6.01249177739069
30
0
41
1
10
163.812200085681
20
6.3835076673675
30
0
41
1
10
163.92869503519
20
7.10828107934188
30
0
41
1
10
163.986942509944
20
7.46202867888528
30
0
41
1
10
164.103437459453
20
8.14651498136411
30
0
41
1
10
164.161684934207
20
8.47724411782576
30
0
41
1
10
164.278179883716
20
9.11046315709478
30
0
41
1
10
164.33642735847
20
9.41294485778735
30
0
41
1
10
164.452922307979
20
9.98522928838852
30
0
41
1
10
164.511169782733
20
10.2550260393607
30
0
41
1
10
164.627664732242
20
10.7585072782492
30
0
41
1
10
164.685912206996
20
10.9921885684466
30
0
41
1
10
164.802407156505
20
11.4211515232284
30
0
41
1
10
164.860654631259
20
11.6164329415402
30
0
41
1
10
164.977149580768
20
11.96750665721
30
0
41
1
10
165.035397055522
20
12.1233014394196
30
0
41
1
10
165.151892005031
20
12.395475467867
30
0
41
1
10
165.210139479785
20
12.5118593948778
30
0
41
1
10
165.268386954539
20
12.6090989768614
30
0
0
SPLINE
5
FF
100
AcDbEntity
8
1
62
256
6
ByLayer
370
13
48
1
60
0
100
AcDbSpline
70
4
71
3
72
14
73
10
40
0
40
0
40
0
40
0
40
0.25
40
0.25
40
0.5
40
0.5
40
0.75
40
0.75
40
1
40
1
40
1
40
1
41
1
10
164.2671673858
20
13
30
0
41
1
10
164.350602349861
20
13
30
0
41
1
10
164.434037313923
20
12.9680178068804
30
0
41
1
10
164.600907242046
20
12.8313319295309
30
0
41
1
10
164.684342206108
20
12.7265866751958
30
0
41
1
10
164.851212134231
20
12.4381336879161
30
0
41
1
10
164.934647098293
20
12.2543896919458
30
0
41
1
10
165.101517026416
20
11.8054931990077
30
0
41
1
10
165.184951990478
20
11.5403190982717
30
0
41
1
10
165.268386954539
20
11.2355674250646
30
0
0
SPLINE
5
100
100
AcDbEntity
8
1
62
256
6
ByLayer
370
13
48
1
60
0
100
AcDbSpline
70
4
71
3
72
22
73
18
40
0
40
0
40
0
40
0
40
0.125
40
0.125
40
0.25
40
0.25
40
0.375
40
0.375
40
0.5
40
0.5
40
0.625
40
0.625
40
0.75
40
0.75
40
0.875
40
0.875
40
1
40
1
40
1
40
1
41
1
10
153.6
20
9.04746439373227
30
0
41
1
10
153.661920498078
20
9.37575508174012
30
0
41
1
10
153.723840996156
20
9.68734662324121
30
0
41
1
10
153.847681992311
20
10.2721581681798
30
0
41
1
10
153.909602490389
20
10.5453712572396
30
0
41
1
10
154.033443486545
20
11.0497882446637
30
0
41
1
10
154.095363984623
20
11.2809893932643
30
0
41
1
10
154.219204980779
20
11.6992482267123
30
0
41
1
10
154.281125478856
20
11.8863073440593
30
0
41
1
10
154.404966475012
20
12.2156704305349
30
0
41
1
10
154.46688697309
20
12.3579794368049
30
0
41
1
10
154.590727969246
20
12.5986534082717
30
0
41
1
10
154.652648467323
20
12.6970260199011
30
0
41
1
10
154.776489463479
20
12.8518666750104
30
0
41
1
10
154.838409961557
20
12.9083437991357
30
0
41
1
10
154.962250957713
20
12.9824057679617
30
0
41
1
10
155.024171455791
20
13
30
0
41
1
10
155.086091953869
20
13
30
0
0
SPLINE
5
101
100
AcDbEntity
8
1
62
256
6
ByLayer
370
13
48
1
60
0
100
AcDbSpline
70
4
71
3
72
134
73
130
40
0
40
0
40
0
40
0
40
0.015625
40
0.015625
40
0.0312499999999999
40
0.0312499999999999
40
0.0468749999999999
40
0.0468749999999999
40
0.0624999999999999
40
0.0624999999999999
40
0.0781249999999998
40
0.0781249999999998
40
0.0937499999999998
40
0.0937499999999998
40
0.109375
40
0.109375
40
0.125
40
0.125
40
0.140625
40
0.140625
40
0.15625
40
0.15625
40
0.171875
40
0.171875
40
0.1875
40
0.1875
40
0.203125
40
0.203125
40
0.21875
40
0.21875
40
0.234375
40
0.234375
40
0.25
40
0.25
40
0.265625
40
0.265625
40
0.28125
40
0.28125
40
0.296874999999999
40
0.296874999999999
40
0.312499999999999
40
0.312499999999999
40
0.328125
40
0.328125
40
0.34375
40
0.34375
40
0.359375
40
0.359375
40
0.375
40
0.375
40
0.390625
40
0.390625
40
0.40625
40
0.40625
40
0.421875
40
0.421875
40
0.4375
40
0.4375
40
0.453125
40
0.453125
40
0.46875
40
0.46875
40
0.484375
40
0.484375
40
0.5
40
0.5
40
0.515625
40
0.515625
40
0.53125
40
0.53125
40
0.546875
40
0.546875
40
0.5625
40
0.5625
40
0.578125
40
0.578125
40
0.59375
40
0.59375
40
0.609375
40
0.609375
40
0.624999999999999
40
0.624999999999999
40
0.640624999999999
40
0.640624999999999
40
0.656249999999999
40
0.656249999999999
40
0.671874999999999
40
0.671874999999999
40
0.687499999999999
40
0.687499999999999
40
0.703124999999999
40
0.703124999999999
40
0.718749999999999
40
0.718749999999999
40
0.734374999999999
40
0.734374999999999
40
0.749999999999999
40
0.749999999999999
40
0.765624999999999
40
0.765624999999999
40
0.781249999999999
40
0.781249999999999
40
0.796874999999999
40
0.796874999999999
40
0.812499999999999
40
0.812499999999999
40
0.828124999999999
40
0.828124999999999
40
0.843749999999999
40
0.843749999999999
40
0.859374999999999
40
0.859374999999999
40
0.874999999999999
40
0.874999999999999
40
0.890625
40
0.890625
40
0.90625
40
0.90625
40
0.921875
40
0.921875
40
0.9375
40
0.9375
40
0.953125
40
0.953125
40
0.96875
40
0.96875
40
0.984375
40
0.984375
40
1
40
1
40
1
40
1
41
1
10
153.600000583419
20
13
30
0
41
1
10
153.660773429102
20
13
30
0
41
1
10
153.721546274785
20
12.9830527675353
30
0
41
1
10
153.843091966151
20
12.9117748670912
30
0
41
1
10
153.903864811834
20
12.857435652047
30
0
41
1
10
154.0254105032
20
12.7085039714635
30
0
41
1
10
154.086183348883
20
12.6139032065126
30
0
41
1
10
154.207729040248
20
12.3824698104952
30
0
41
1
10
154.268501885931
20
12.2456301127287
30
0
41
1
10
154.390047577297
20
11.928865904953
30
0
41
1
10
154.45082042298
20
11.7489365953358
30
0
41
1
10
154.572366114346
20
11.3464478841043
30
0
41
1
10
154.633138960029
20
11.1238868432806
30
0
41
1
10
154.754684651395
20
10.6379968857054
30
0
41
1
10
154.815457497078
20
10.3746700394723
30
0
41
1
10
154.937003188444
20
9.81051342983807
30
0
41
1
10
154.997776034126
20
9.50968949422611
30
0
41
1
10
155.119321725492
20
8.87508757814646
30
0
41
1
10
155.180094571175
20
8.54131867051649
30
0
41
1
10
155.301640262541
20
7.84643355395843
30
0
41
1
10
155.362413108224
20
7.48532866139277
30
0
41
1
10
155.48395879959
20
6.74212604142491
30
0
41
1
10
155.544731645273
20
6.36004056930219
30
0
41
1
10
155.666277336639
20
5.58162013454765
30
0
41
1
10
155.727050182322
20
5.18529700866625
30
0
41
1
10
155.848595873687
20
4.38516688017668
30
0
41
1
10
155.90936871937
20
3.98137012885127
30
0
41
1
10
156.030914410736
20
3.17274503394728
30
0
41
1
10
156.091687256419
20
2.76792455355096
30
0
41
1
10
156.213232947785
20
1.96311649926173
30
0
41
1
10
156.274005793468
20
1.5631340333594
30
0
41
1
10
156.395551484834
20
0.773083129595449
30
0
41
1
10
156.456324330517
20
0.383017084448994
30
0
41
1
10
156.577870021882
20
-0.383015245971393
30
0
41
1
10
156.638642867565
20
-0.773081249221264
30
0
41
1
10
156.760188558931
20
-1.56313212148928
30
0
41
1
10
156.820961404614
20
-1.9631145753599
30
0
41
1
10
156.94250709598
20
-2.76792261437413
30
0
41
1
10
157.003279941663
20
-3.17274309153169
30
0
41
1
10
157.124825633029
20
-3.98136818986637
30
0
41
1
10
157.185598478712
20
-4.38516494786546
30
0
41
1
10
157.307144170077
20
-5.18529510035276
30
0
41
1
10
157.36791701576
20
-5.58161824356151
30
0
41
1
10
157.489462707126
20
-6.36003872387008
30
0
41
1
10
157.550235552809
20
-6.74212422422119
30
0
41
1
10
157.671781244175
20
-7.48532691122372
30
0
41
1
10
157.732554089858
20
-7.84643184259537
30
0
41
1
10
157.854099781224
20
-8.54131704643078
30
0
41
1
10
157.914872626906
20
-8.87508600252957
30
0
41
1
10
158.036418318272
20
-9.50968802375351
30
0
41
1
10
158.097191163955
20
-9.8105120160364
30
0
41
1
10
158.218736855321
20
-10.3746687453219
30
0
41
1
10
158.279509701004
20
-10.6379956545295
30
0
41
1
10
158.40105539237
20
-11.1238857421843
30
0
41
1
10
158.461828238053
20
-11.3464468501068
30
0
41
1
10
158.583373929419
20
-11.7489356973871
30
0
41
1
10
158.644146775101
20
-11.9288650759487
30
0
41
1
10
158.765692466467
20
-12.2456294212645
30
0
41
1
10
158.82646531215
20
-12.3824691876221
30
0
41
1
10
158.948011003516
20
-12.6139027185051
30
0
41
1
10
159.008783849199
20
-12.7085035497275
30
0
41
1
10
159.130329540565
20
-12.8574353589106
30
0
41
1
10
159.191102386248
20
-12.9117746362818
30
0
41
1
10
159.312648077614
20
-12.9830526562105
30
0
41
1
10
159.373420923296
20
-12.9999999458332
30
0
41
1
10
159.494966614662
20
-13.0000000541666
30
0
41
1
10
159.555739460345
20
-12.9830528788598
30
0
41
1
10
159.677285151711
20
-12.9117750979004
30
0
41
1
10
159.738057997394
20
-12.857435945183
30
0
41
1
10
159.85960368876
20
-12.7085043931992
30
0
41
1
10
159.920376534443
20
-12.6139036945199
30
0
41
1
10
160.041922225809
20
-12.382470433368
30
0
41
1
10
160.102695071492
20
-12.2456308041927
30
0
41
1
10
160.224240762857
20
-11.9288667339569
30
0
41
1
10
160.28501360854
20
-11.7489374932841
30
0
41
1
10
160.406559299906
20
-11.3464489181015
30
0
41
1
10
160.467332145589
20
-11.1238879443766
30
0
41
1
10
160.588877836955
20
-10.6379981168808
30
0
41
1
10
160.649650682638
20
-10.3746713336224
30
0
41
1
10
160.771196374003
20
-9.81051484363945
30
0
41
1
10
160.831969219686
20
-9.50969096469845
30
0
41
1
10
160.953514911052
20
-8.8750891537631
30
0
41
1
10
161.014287756735
20
-8.54132029460197
30
0
41
1
10
161.135833448101
20
-7.84643526532136
30
0
41
1
10
161.196606293784
20
-7.48533041156162
30
0
41
1
10
161.31815198515
20
-6.74212785862852
30
0
41
1
10
161.378924830833
20
-6.36004241473415
30
0
41
1
10
161.500470522199
20
-5.5816220255337
30
0
41
1
10
161.561243367882
20
-5.18529891697966
30
0
41
1
10
161.682789059247
20
-4.38516881248788
30
0
41
1
10
161.74356190493
20
-3.98137206783616
30
0
41
1
10
161.865107596296
20
-3.17274697636287
30
0
41
1
10
161.925880441979
20
-2.76792649272781
30
0
41
1
10
162.047426133345
20
-1.96311842316362
30
0
41
1
10
162.108198979028
20
-1.56313594522959
30
0
41
1
10
162.229744670394
20
-0.773085009969748
30
0
41
1
10
162.290517516077
20
-0.383018945363205
30
0
41
1
10
162.412063207442
20
0.383013429930287
30
0
41
1
10
162.472836053125
20
0.773079368847164
30
0
41
1
10
162.594381744491
20
1.56313020961923
30
0
41
1
10
162.655154590174
20
1.96311265145809
30
0
41
1
10
162.77670028154
20
2.76792067519733
30
0
41
1
10
162.837473127223
20
3.17274114911612
30
0
41
1
10
162.959018818589
20
3.98136625088142
30
0
41
1
10
163.019791664272
20
4.38516301555418
30
0
41
1
10
163.141337355637
20
5.18529319203921
30
0
41
1
10
163.20211020132
20
5.58161635257531
30
0
41
1
10
163.323655892686
20
6.36003687843785
30
0
41
1
10
163.384428738369
20
6.74212240701729
30
0
41
1
10
163.505974429735
20
7.4853251610545
30
0
41
1
10
163.566747275418
20
7.84643013123207
30
0
41
1
10
163.688292966784
20
8.54131542234484
30
0
41
1
10
163.749065812467
20
8.87508442691245
30
0
41
1
10
163.870611503832
20
9.50968655328063
30
0
41
1
10
163.931384349515
20
9.81051060223447
30
0
41
1
10
164.052930040881
20
10.3746674511713
30
0
41
1
10
164.113702886564
20
10.6379944233534
30
0
41
1
10
164.23524857793
20
11.1238846410876
30
0
41
1
10
164.296021423613
20
11.346445816109
30
0
41
1
10
164.417567114979
20
11.7489347994381
30
0
41
1
10
164.478339960661
20
11.9288642469441
30
0
41
1
10
164.599885652027
20
12.2456287297999
30
0
41
1
10
164.66065849771
20
12.3824685647487
30
0
41
1
10
164.782204189076
20
12.6139022304972
30
0
41
1
10
164.842977034759
20
12.7085031279912
30
0
41
1
10
164.964522726125
20
12.8574350657739
30
0
41
1
10
165.025295571808
20
12.9117744054721
30
0
41
1
10
165.146841263174
20
12.9830525448854
30
0
41
1
10
165.207614108856
20
12.9999998916661
30
0
41
1
10
165.268386954539
20
12.9999999999995
30
0
0
SPLINE
5
102
100
AcDbEntity
8
1
62
256
6
ByLayer
370
13
48
1
60
0
100
AcDbSpline
70
4
71
3
72
22
73
18
40
0
40
0
40
0
40
0
40
0.125
40
0.125
40
0.25
40
0.25
40
0.375
40
0.375
40
0.5
40
0.5
40
0.625
40
0.625
40
0.75
40
0.75
40
0.875
40
0.875
40
1
40
1
40
1
40
1
41
1
10
163.78229616751
20
13
30
0
41
1
10
163.844216616969
20
13
30
0
41
1
10
163.906137066429
20
12.9824057956286
30
0
41
1
10
164.029977965348
20
12.908343945923
30
0
41
1
10
164.091898414808
20
12.8518669132883
30
0
41
1
10
164.215739313727
20
12.6970265110827
30
0
41
1
10
164.277659763186
20
12.5986540609006
30
0
41
1
10
164.401500662105
20
12.3579804849108
30
0
41
1
10
164.463421111565
20
12.2156717126956
30
0
41
1
10
164.587262010484
20
11.8863091651798
30
0
41
1
10
164.649182459944
20
11.6992503527476
30
0
41
1
10
164.773023358863
20
11.2809921933076
30
0
41
1
10
164.834943808322
20
11.0497914137903
30
0
41
1
10
164.958784707242
20
10.5453752170894
30
0
41
1
10
165.020705156701
20
10.2721625496385
30
0
41
1
10
165.14454605562
20
9.68735188451711
30
0
41
1
10
165.20646650508
20
9.3757608011756
30
0
41
1
10
165.268386954539
20
9.04747058008678
30
0
0
SPLINE
5
103
100
AcDbEntity
8
1
62
256
6
ByLayer
370
13
48
1
60
0
100
AcDbSpline
70
4
71
3
72
14
73
10
40
0
40
0
40
0
40
0
40
0.25
40
0.25
40
0.5
40
0.5
40
0.75
40
0.75
40
1
40
1
40
1
40
1
41
1
10
153.6
20
11.2355631631073
30
0
41
1
10
153.683435061298
20
11.5403155585389
30
0
41
1
10
153.766870122596
20
11.8054902999019
30
0
41
1
10
153.933740245193
20
12.2543878826827
30
0
41
1
10
154.017175306491
20
12.4381323279269
30
0
41
1
10
154.184045429087
20
12.7265860181749
30
0
41
1
10
154.267480490386
20
12.8313315263915
30
0
41
1
10
154.434350612982
20
12.9680177321312
30
0
41
1
10
154.51778567428
20
13
30
0
41
1
10
154.601220735578
20
13
30
0
0
SPLINE
5
104
100
AcDbEntity
8
1
62
256
6
ByLayer
370
13
48
1
60
0
100
AcDbSpline
70
4
71
3
72
146
73
142
40
0
40
0
40
0
40
0
40
0.015625
40
0.015625
40
0.0312499999999999
40
0.0312499999999999
40
0.0468749999999999
40
0.0468749999999999
40
0.0624999999999999
40
0.0624999999999999
40
0.0781249999999998
40
0.0781249999999998
40
0.0937499999999998
40
0.0937499999999998
40
0.109375
40
0.109375
40
0.125
40
0.125
40
0.140625
40
0.140625
40
0.15625
40
0.15625
40
0.171875
40
0.171875
40
0.1875
40
0.1875
40
0.203125
40
0.203125
40
0.2109375
40
0.2109375
40
0.21484375
40
0.21484375
40
0.21875
40
0.21875
40
0.234375
40
0.234375
40
0.25
40
0.25
40
0.265625
40
0.265625
40
0.28125
40
0.28125
40
0.296875
40
0.296875
40
0.312499999999999
40
0.312499999999999
40
0.328124999999999
40
0.328124999999999
40
0.343749999999999
40
0.343749999999999
40
0.359374999999999
40
0.359374999999999
40
0.374999999999999
40
0.374999999999999
40
0.390624999999999
40
0.390624999999999
40
0.406249999999999
40
0.406249999999999
40
0.421874999999999
40
0.421874999999999
40
0.437499999999999
40
0.437499999999999
40
0.453124999999999
40
0.453124999999999
40
0.468749999999999
40
0.468749999999999
40
0.476562499999999
40
0.476562499999999
40
0.480468749999999
40
0.480468749999999
40
0.484374999999999
40
0.484374999999999
40
0.499999999999999
40
0.499999999999999
40
0.515624999999999
40
0.515624999999999
40
0.531249999999999
40
0.531249999999999
40
0.546874999999999
40
0.546874999999999
40
0.562499999999999
40
0.562499999999999
40
0.578124999999999
40
0.578124999999999
40
0.593749999999999
40
0.593749999999999
40
0.609374999999999
40
0.609374999999999
40
0.624999999999999
40
0.624999999999999
40
0.640624999999999
40
0.640624999999999
40
0.656249999999999
40
0.656249999999999
40
0.671874999999999
40
0.671874999999999
40
0.687499999999999
40
0.687499999999999
40
0.703124999999999
40
0.703124999999999
40
0.718749999999999
40
0.718749999999999
40
0.734374999999998
40
0.734374999999998
40
0.738281249999998
40
0.738281249999998
40
0.742187499999998
40
0.742187499999998
40
0.749999999999998
40
0.749999999999998
40
0.765624999999999
40
0.765624999999999
40
0.781249999999999
40
0.781249999999999
40
0.796874999999999
40
0.796874999999999
40
0.812499999999999
40
0.812499999999999
40
0.828124999999999
40
0.828124999999999
40
0.843749999999999
40
0.843749999999999
40
0.859374999999999
40
0.859374999999999
40
0.874999999999999
40
0.874999999999999
40
0.890624999999999
40
0.890624999999999
40
0.906249999999999
40
0.906249999999999
40
0.921875
40
0.921875
40
0.9375
40
0.9375
40
0.953125
40
0.953125
40
0.96875
40
0.96875
40
0.984375
40
0.984375
40
1
40
1
40
1
40
1
41
1
10
153.6
20
12.6091009248044
30
0
41
1
10
153.658247480832
20
12.5118615878142
30
0
41
1
10
153.716494961663
20
12.3954779071415
30
0
41
1
10
153.832989923326
20
12.1233043672559
30
0
41
1
10
153.891237404158
20
11.9675098272555
30
0
41
1
10
154.007732365821
20
11.6164365845737
30
0
41
1
10
154.065979846653
20
11.4211553970233
30
0
41
1
10
154.182474808316
20
10.992192885014
30
0
41
1
10
154.240722289148
20
10.7585118068093
30
0
41
1
10
154.357217250811
20
10.2550309663786
30
0
41
1
10
154.415464731642
20
9.98523440185477
30
0
41
1
10
154.531959693306
20
9.41295031292276
30
0
41
1
10
154.590207174137
20
9.11046876743845
30
0
41
1
10
154.706702135801
20
8.47725000318627
30
0
41
1
10
154.764949616632
20
8.14652098652641
30
0
41
1
10
154.881444578295
20
7.46203488590501
30
0
41
1
10
154.939692059127
20
7.10828736841705
30
0
41
1
10
155.05618702079
20
6.38351408239387
30
0
41
1
10
155.114434501622
20
6.01249823631898
30
0
41
1
10
155.230929463285
20
5.25916398663063
30
0
41
1
10
155.289176944116
20
4.87685487920268
30
0
41
1
10
155.40567190578
20
4.10684366598477
30
0
41
1
10
155.463919386612
20
3.71914942913048
30
0
41
1
10
155.580414348275
20
2.94395100598803
30
0
41
1
10
155.638661829106
20
2.55645274181268
30
0
41
1
10
155.755156790769
20
1.78669419821909
30
0
41
1
10
155.813404271601
20
1.40443768674373
30
0
41
1
10
155.900775492849
20
0.8382566171029
30
0
41
1
10
155.929899233264
20
0.650724551245474
30
0
41
1
10
155.973584843888
20
0.371574741633935
30
0
41
1
10
155.988146714096
20
0.278882476485507
30
0
41
1
10
156.017270454512
20
0.0942680413433834
30
0
41
1
10
156.03183232472
20
0.0026140167558992
30
0
41
1
10
156.104641675759
20
-0.457553294873804
30
0
41
1
10
156.162889156591
20
-0.832026351807713
30
0
41
1
10
156.279384118254
20
-1.58992367474366
30
0
41
1
10
156.337631599086
20
-1.97334593093777
30
0
41
1
10
156.454126560749
20
-2.74466130862274
30
0
41
1
10
156.512374041581
20
-3.13255031117294
30
0
41
1
10
156.628869003244
20
-3.90765712791588
30
0
41
1
10
156.687116484075
20
-4.29486868209477
30
0
41
1
10
156.803611445738
20
-5.06297265813191
30
0
41
1
10
156.86185892657
20
-5.4438569361717
30
0
41
1
10
156.978353888233
20
-6.19336989705346
30
0
41
1
10
157.036601369065
20
-6.56198912141184
30
0
41
1
10
157.153096330728
20
-7.28101355166319
30
0
41
1
10
157.21134381156
20
-7.63140882332038
30
0
41
1
10
157.327838773223
20
-8.30829935558489
30
0
41
1
10
157.386086254055
20
-8.63478520428771
30
0
41
1
10
157.502581215718
20
-9.25873750362919
30
0
41
1
10
157.560828696549
20
-9.55619606066929
30
0
41
1
10
157.677323658213
20
-10.1178043804709
30
0
41
1
10
157.735571139044
20
-10.3819485869748
30
0
41
1
10
157.852066100708
20
-10.8736734983484
30
0
41
1
10
157.910313581539
20
-11.1012514832564
30
0
41
1
10
158.026808543202
20
-11.5177496678914
30
0
41
1
10
158.085056024034
20
-11.7066700887634
30
0
41
1
10
158.201550985697
20
-12.0449567910243
30
0
41
1
10
158.259798466529
20
-12.1943259563819
30
0
41
1
10
158.376293428192
20
-12.4537637244417
30
0
41
1
10
158.434540909023
20
-12.5638372987723
30
0
41
1
10
158.551035870687
20
-12.7459670881697
30
0
41
1
10
158.609283351518
20
-12.8180296217883
30
0
41
1
10
158.725778313182
20
-12.9262778237153
30
0
41
1
10
158.784025794013
20
-12.9624703900989
30
0
41
1
10
158.87139701526
20
-12.9919490187842
30
0
41
1
10
158.900520755676
20
-12.9976446555239
30
0
41
1
10
158.9442063663
20
-13.0002867945186
30
0
41
1
10
158.958768236508
20
-13.0001911111883
30
0
41
1
10
158.987891976924
20
-12.9980394380318
30
0
41
1
10
159.002453847132
20
-12.9959777382521
30
0
41
1
10
159.075263198171
20
-12.9806156461474
30
0
41
1
10
159.133510679003
20
-12.9521353168478
30
0
41
1
10
159.250005640666
20
-12.8598917212308
30
0
41
1
10
159.308253121498
20
-12.7961215249556
30
0
41
1
10
159.424748083161
20
-12.6309909779061
30
0
41
1
10
159.482995563992
20
-12.5296241126859
30
0
41
1
10
159.599490525656
20
-12.2878051603252
30
0
41
1
10
159.657738006487
20
-12.1473477305016
30
0
41
1
10
159.77423296815
20
-11.826845606791
30
0
41
1
10
159.832480448982
20
-11.6467975004042
30
0
41
1
10
159.948975410645
20
-11.2477392366701
30
0
41
1
10
160.007222891477
20
-11.0287282217798
30
0
41
1
10
160.12371785314
20
-10.5535628994733
30
0
41
1
10
160.181965333972
20
-10.2974106443229
30
0
41
1
10
160.298460295635
20
-9.75095828750864
30
0
41
1
10
160.356707776466
20
-9.46066313336641
30
0
41
1
10
160.47320273813
20
-8.84999166894033
30
0
41
1
10
160.531450218961
20
-8.52962278775223
30
0
41
1
10
160.647945180624
20
-7.86375416289573
30
0
41
1
10
160.706192661456
20
-7.51826357245051
30
0
41
1
10
160.822687623119
20
-6.80773345219296
30
0
41
1
10
160.880935103951
20
-6.44270382876957
30
0
41
1
10
160.997430065614
20
-5.69901938150747
30
0
41
1
10
161.055677546446
20
-5.32037420436839
30
0
41
1
10
161.172172508109
20
-4.55542699565322
30
0
41
1
10
161.230419988941
20
-4.16913346442962
30
0
41
1
10
161.346914950604
20
-3.39462701942421
30
0
41
1
10
161.405162431435
20
-3.00642082355051
30
0
41
1
10
161.521657393099
20
-2.23336516361636
30
0
41
1
10
161.57990487393
20
-1.84852030740583
30
0
41
1
10
161.696399835593
20
-1.08683121286745
30
0
41
1
10
161.754647316425
20
-0.709989443842119
30
0
41
1
10
161.827456667465
20
-0.246378648322008
30
0
41
1
10
161.842018537673
20
-0.154026681577761
30
0
41
1
10
161.871142278088
20
0.0298834924162747
30
0
41
1
10
161.885704148296
20
0.121644200016391
30
0
41
1
10
161.92938975892
20
0.398793923635481
30
0
41
1
10
161.958513499336
20
0.585091540580379
30
0
41
1
10
162.045884720583
20
1.14789885869206
30
0
41
1
10
162.104132201415
20
1.52834622282438
30
0
41
1
10
162.220627163078
20
2.29553237303989
30
0
41
1
10
162.27887464391
20
2.68226787499472
30
0
41
1
10
162.395369605573
20
3.45712966771518
30
0
41
1
10
162.453617086404
20
3.84525051432604
30
0
41
1
10
162.570112048068
20
4.61740843922234
30
0
41
1
10
162.628359528899
20
5.00143805284435
30
0
41
1
10
162.744854490562
20
5.75955950350976
30
0
41
1
10
162.803101971394
20
6.13364230485763
30
0
41
1
10
162.919596933057
20
6.86588624464022
30
0
41
1
10
162.977844413889
20
7.22403752027429
30
0
41
1
10
163.094339375552
20
7.91859128917224
30
0
41
1
10
163.152586856384
20
8.25498404596047
30
0
41
1
10
163.269081818047
20
8.90064828193661
30
0
41
1
10
163.327329298879
20
9.2099111687516
30
0
41
1
10
163.443824260542
20
9.79667668221271
30
0
41
1
10
163.502071741373
20
10.0741727678771
30
0
41
1
10
163.618566703037
20
10.5937295627181
30
0
41
1
10
163.676814183868
20
10.8357864184587
30
0
41
1
10
163.793309145532
20
11.2819115806933
30
0
41
1
10
163.851556626363
20
11.4859789822029
30
0
41
1
10
163.968051588026
20
11.8547660170946
30
0
41
1
10
164.026299068858
20
12.0194875574589
30
0
41
1
10
164.142794030521
20
12.3094016788838
30
0
41
1
10
164.201041511353
20
12.4345985048139
30
0
41
1
10
164.317536473016
20
12.6463656327136
30
0
41
1
10
164.375783953848
20
12.7329418239622
30
0
41
1
10
164.492278915511
20
12.8692988810598
30
0
41
1
10
164.550526396342
20
12.9190865080233
30
0
41
1
10
164.667021358006
20
12.984433613326
30
0
41
1
10
164.725268838837
20
13
30
0
41
1
10
164.783516319669
20
13
30
0
0
SPLINE
5
105
100
AcDbEntity
8
1
62
256
6
ByLayer
370
13
48
1
60
0
100
AcDbSpline
70
4
71
3
72
22
73
18
40
0
40
0
40
0
40
0
40
0.125
40
0.125
40
0.25
40
0.25
40
0.375
40
0.375
40
0.5
40
0.5
40
0.625
40
0.625
40
0.75
40
0.75
40
0.875
40
0.875
40
1
40
1
40
1
40
1
41
1
10
163.29742494922
20
13
30
0
41
1
10
163.379548366108
20
13
30
0
41
1
10
163.461671782996
20
12.9690180217423
30
0
41
1
10
163.625918616773
20
12.836723823767
30
0
41
1
10
163.708042033661
20
12.7353731769193
30
0
41
1
10
163.872288867438
20
12.456319849931
30
0
41
1
10
163.954412284326
20
12.2785833702945
30
0
41
1
10
164.118659118103
20
11.8442662830279
30
0
41
1
10
164.200782534991
20
11.5876648828098
30
0
41
1
10
164.365029368768
20
10.9975071616243
30
0
41
1
10
164.447152785656
20
10.6639501116489
30
0
41
1
10
164.611399619433
20
9.92649903689457
30
0
41
1
10
164.693523036321
20
9.52262720061717
30
0
41
1
10
164.857769870098
20
8.65557710060676
30
0
41
1
10
164.939893286986
20
8.1924408718107
30
0
41
1
10
165.104140120763
20
7.22132389160899
30
0
41
1
10
165.186263537651
20
6.71339660121657
30
0
41
1
10
165.268386954539
20
6.19125904259369
30
0
0
SPLINE
5
106
100
AcDbEntity
8
1
62
256
6
ByLayer
370
13
48
1
60
0
100
AcDbSpline
70
4
71
3
72
10
73
6
40
0
40
0
40
0
40
0
40
0.5
40
0.5
40
1
40
1
40
1
40
1
41
1
10
153.6
20
12.5546850854677
30
0
41
1
10
153.686058252881
20
12.7085584958614
30
0
41
1
10
153.772116505763
20
12.8202725802792
30
0
41
1
10
153.944233011526
20
12.965969101112
30
0
41
1
10
154.030291264407
20
13
30
0
41
1
10
154.116349517289
20
13
30
0
0
SPLINE
5
107
100
AcDbEntity
8
1
62
256
6
ByLayer
370
13
48
1
60
0
100
AcDbSpline
70
4
71
3
72
141
73
137
40
0
40
0
40
0
40
0
40
0.015625
40
0.015625
40
0.03125
40
0.03125
40
0.046875
40
0.046875
40
0.0625
40
0.0625
40
0.078125
40
0.078125
40
0.09375
40
0.09375
40
0.109375
40
0.109375
40
0.125
40
0.125
40
0.140625
40
0.140625
40
0.15625
40
0.15625
40
0.171875
40
0.171875
40
0.1796875
40
0.1796875
40
0.18359375
40
0.18359375
40
0.1875
40
0.1875
40
0.21875
40
0.21875
40
0.234375
40
0.234375
40
0.25
40
0.25
40
0.265625
40
0.265625
40
0.28125
40
0.28125
40
0.296875
40
0.296875
40
0.3125
40
0.3125
40
0.328125
40
0.328125
40
0.34375
40
0.34375
40
0.359375
40
0.359375
40
0.375
40
0.375
40
0.390625
40
0.390625
40
0.40625
40
0.40625
40
0.421875
40
0.421875
40
0.4375
40
0.4375
40
0.453125
40
0.453125
40
0.45703125
40
0.45703125
40
0.4609375
40
0.46875
40
0.46875
40
0.484375
40
0.484375
40
0.5
40
0.5
40
0.515625
40
0.515625
40
0.53125
40
0.53125
40
0.546875
40
0.546875
40
0.5625
40
0.5625
40
0.578125
40
0.578125
40
0.59375
40
0.59375
40
0.609375
40
0.609375
40
0.625
40
0.625
40
0.640625
40
0.640625
40
0.65625
40
0.65625
40
0.671875
40
0.671875
40
0.6875
40
0.6875
40
0.703125
40
0.703125
40
0.71875
40
0.71875
40
0.7265625
40
0.7265625
40
0.73046875
40
0.73046875
40
0.734375
40
0.734375
40
0.75
40
0.75
40
0.765625
40
0.765625
40
0.78125
40
0.78125
40
0.796875
40
0.796875
40
0.8125
40
0.8125
40
0.828125
40
0.828125
40
0.84375
40
0.84375
40
0.859375
40
0.859375
40
0.875
40
0.875
40
0.890625
40
0.890625
40
0.90625
40
0.90625
40
0.921875
40
0.921875
40
0.9375
40
0.9375
40
0.953125
40
0.953125
40
0.96875
40
0.96875
40
1
40
1
40
1
40
1
41
1
10
153.6
20
11.3486693208089
30
0
41
1
10
153.655722109903
20
11.1517780598943
30
0
41
1
10
153.711444219806
20
10.937159437205
30
0
41
1
10
153.822888439612
20
10.4742080280264
30
0
41
1
10
153.878610549515
20
10.2258771685429
30
0
41
1
10
153.990054769321
20
9.69822010986667
30
0
41
1
10
154.045776879224
20
9.41889804164234
30
0
41
1
10
154.15722109903
20
8.83286497607375
30
0
41
1
10
154.212943208933
20
8.52615998859957
30
0
41
1
10
154.324387428739
20
7.8897014376731
30
0
41
1
10
154.380109538642
20
7.55995519973746
30
0
41
1
10
154.491553758448
20
6.88228601746783
30
0
41
1
10
154.547275868351
20
6.5343710019925
30
0
41
1
10
154.658720088157
20
5.82553596095852
30
0
41
1
10
154.71444219806
20
5.46462372183345
30
0
41
1
10
154.825886417866
20
4.73502713733825
30
0
41
1
10
154.881608527769
20
4.36634977096065
30
0
41
1
10
154.993052747575
20
3.62629308704655
30
0
41
1
10
155.048774857478
20
3.25491944434108
30
0
41
1
10
155.160219077284
20
2.51418605346234
30
0
41
1
10
155.215941187187
20
2.14483039311114
30
0
41
1
10
155.327385406994
20
1.4123471666407
30
0
41
1
10
155.383107516897
20
1.04922203366547
30
0
41
1
10
155.466690681751
20
0.511916403725706
30
0
41
1
10
155.494551736703
20
0.334039972117495
30
0
41
1
10
155.53634331913
20
0.0693567392300452
30
0
41
1
10
155.550273846606
20
-0.0182813093220204
30
0
41
1
10
155.578134901557
20
-0.19446024318438
30
0
41
1
10
155.592065429033
20
-0.282909086904027
30
0
41
1
10
155.717440176315
20
-1.0819711172534
30
0
41
1
10
155.82888439612
20
-1.81415189687689
30
0
41
1
10
155.99605072583
20
-2.92289171034994
30
0
41
1
10
156.051772835733
20
-3.2941363338345
30
0
41
1
10
156.163217055539
20
-4.03538601862758
30
0
41
1
10
156.218939165442
20
-4.40538585916616
30
0
41
1
10
156.330383385248
20
-5.13916615747937
30
0
41
1
10
156.386105495151
20
-5.50293998265852
30
0
41
1
10
156.497549714957
20
-6.21906359345587
30
0
41
1
10
156.55327182486
20
-6.57140577024737
30
0
41
1
10
156.664716044666
20
-7.25945212363519
30
0
41
1
10
156.720438154569
20
-7.59514833741295
30
0
41
1
10
156.831882374375
20
-8.2449156607002
30
0
41
1
10
156.887604484278
20
-8.55897918623896
30
0
41
1
10
156.999048704084
20
-9.16095701117337
30
0
41
1
10
157.054770813987
20
-9.44886484032426
30
0
41
1
10
157.166215033793
20
-9.99468376238025
30
0
41
1
10
157.221937143696
20
-10.2525901175314
30
0
41
1
10
157.333381363502
20
-10.7354055656572
30
0
41
1
10
157.389103473405
20
-10.9603120562997
30
0
41
1
10
157.500547693211
20
-11.3750856656715
30
0
41
1
10
157.556269803114
20
-11.5649524473372
30
0
41
1
10
157.66771402292
20
-11.9086072712575
30
0
41
1
10
157.723436132823
20
-12.0623970957422
30
0
41
1
10
157.834880352629
20
-12.3338388845087
30
0
41
1
10
157.890602462532
20
-12.4514943768772
30
0
41
1
10
158.002046682338
20
-12.6515073324288
30
0
41
1
10
158.057768792241
20
-12.7338695516163
30
0
41
1
10
158.169213012047
20
-12.8649083657593
30
0
41
1
10
158.22493512195
20
-12.9135903768791
30
0
41
1
10
158.336379341756
20
-12.9794989476702
30
0
41
1
10
158.392101451659
20
-12.9967310509798
30
0
41
1
10
158.461754089038
20
-13.0002874771024
30
0
41
1
10
158.475684616514
20
-13.0001069086845
30
0
41
1
10
158.503545671465
20
-12.9979486468428
30
0
41
1
10
158.545337253892
20
-12.9920031207099
30
0
41
1
10
158.58712883632
20
-12.9777347457161
30
0
41
1
10
158.670712001174
20
-12.9376028961257
30
0
41
1
10
158.726434111077
20
-12.8953720170853
30
0
41
1
10
158.837878330883
20
-12.7776352791113
30
0
41
1
10
158.893600440786
20
-12.7021239385701
30
0
41
1
10
159.005044660592
20
-12.5160769370681
30
0
41
1
10
159.060766770495
20
-12.4055363435527
30
0
41
1
10
159.172210990301
20
-12.1484238541801
30
0
41
1
10
159.227933100204
20
-12.0018481417449
30
0
41
1
10
159.339377320011
20
-11.6725342577712
30
0
41
1
10
159.395099429914
20
-11.4897939209899
30
0
41
1
10
159.50654364972
20
-11.0889872002539
30
0
41
1
10
159.562265759623
20
-10.8709207119011
30
0
41
1
10
159.673709979429
20
-10.4013011442217
30
0
41
1
10
159.729432089332
20
-10.1497502178231
30
0
41
1
10
159.840876309138
20
-9.61597407092825
30
0
41
1
10
159.896598419041
20
-9.33375318726644
30
0
41
1
10
160.008042638847
20
-8.74232435331956
30
0
41
1
10
160.06376474875
20
-8.43312257226879
30
0
41
1
10
160.175208968556
20
-7.79213488032534
30
0
41
1
10
160.230931078459
20
-7.46035638835815
30
0
41
1
10
160.342375298265
20
-6.77912763597115
30
0
41
1
10
160.398097408168
20
-6.42968532315734
30
0
41
1
10
160.509541627974
20
-5.71831732040283
30
0
41
1
10
160.565263737877
20
-5.35639936416231
30
0
41
1
10
160.676707957683
20
-4.62530640981723
30
0
41
1
10
160.732430067586
20
-4.25613827992157
30
0
41
1
10
160.843874287392
20
-3.51558781460713
30
0
41
1
10
160.899596397295
20
-3.14421100516927
30
0
41
1
10
161.011040617101
20
-2.40391493415595
30
0
41
1
10
161.066762727004
20
-2.03499959551144
30
0
41
1
10
161.17820694681
20
-1.30378459188361
30
0
41
1
10
161.233929056713
20
-0.941487199111776
30
0
41
1
10
161.317512221567
20
-0.405666543938281
30
0
41
1
10
161.345373276519
20
-0.228325625136847
30
0
41
1
10
161.387164858946
20
0.0354996587292078
30
0
41
1
10
161.401095386422
20
0.123315532510702
30
0
41
1
10
161.428956441373
20
0.300058945279943
30
0
41
1
10
161.442886968849
20
0.388780811530722
30
0
41
1
10
161.512539606228
20
0.834020642985649
30
0
41
1
10
161.568261716131
20
1.19545513453636
30
0
41
1
10
161.679705935937
20
1.92532555461469
30
0
41
1
10
161.73542804584
20
2.29375937054408
30
0
41
1
10
161.846872265646
20
3.0335305956346
30
0
41
1
10
161.902594375549
20
3.40486424719575
30
0
41
1
10
162.014038595355
20
4.14581213041916
30
0
41
1
10
162.069760705258
20
4.51542098752785
30
0
41
1
10
162.181204925064
20
5.24790838569436
30
0
41
1
10
162.236927034967
20
5.61078017407752
30
0
41
1
10
162.348371254773
20
6.3245777169472
30
0
41
1
10
162.404093364676
20
6.67549579698402
30
0
41
1
10
162.515537584482
20
7.36018377920237
30
0
41
1
10
162.571259694385
20
7.69394572247271
30
0
41
1
10
162.682703914191
20
8.33936999832349
30
0
41
1
10
162.738426024094
20
8.65102482580198
30
0
41
1
10
162.8498702439
20
9.24776904265474
30
0
41
1
10
162.905592353803
20
9.53285210927444
30
0
41
1
10
163.017036573609
20
10.0726827801666
30
0
41
1
10
163.072758683512
20
10.3274258452554
30
0
41
1
10
163.184202903318
20
10.8036673953567
30
0
41
1
10
163.239925013221
20
11.0251635022377
30
0
41
1
10
163.351369233027
20
11.4329679104721
30
0
41
1
10
163.40709134293
20
11.6192760963636
30
0
41
1
10
163.518535562737
20
11.9557648582924
30
0
41
1
10
163.57425767264
20
12.105947410041
30
0
41
1
10
163.685701892446
20
12.3702197040155
30
0
41
1
10
163.741424002349
20
12.4843131212213
30
0
41
1
10
163.852868222155
20
12.6773300866166
30
0
41
1
10
163.908590332058
20
12.7562584819289
30
0
41
1
10
164.075756661767
20
12.9428105230702
30
0
41
1
10
164.187200881573
20
13
30
0
41
1
10
164.298645101379
20
13
30
0
0
SPLINE
5
108
100
AcDbEntity
8
1
62
256
6
ByLayer
370
13
48
1
60
0
100
AcDbSpline
70
4
71
3
72
22
73
18
40
0
40
0
40
0
40
0
40
0.125
40
0.125
40
0.25
40
0.25
40
0.375
40
0.375
40
0.5
40
0.5
40
0.625
40
0.625
40
0.75
40
0.75
40
0.875
40
0.875
40
1
40
1
40
1
40
1
41
1
10
162.81255373093
20
13
30
0
41
1
10
162.914880115247
20
13
30
0
41
1
10
163.017206499564
20
12.9518262114517
30
0
41
1
10
163.221859268198
20
12.7434333067121
30
0
41
1
10
163.324185652515
20
12.5831005813718
30
0
41
1
10
163.528838421149
20
12.1409724742198
30
0
41
1
10
163.631164805466
20
11.8590923509972
30
0
41
1
10
163.8358175741
20
11.1740682900693
30
0
41
1
10
163.938143958417
20
10.7709052449833
30
0
41
1
10
164.142796727052
20
9.85482259831412
30
0
41
1
10
164.245123111369
20
9.34196832183937
30
0
41
1
10
164.449775880003
20
8.22867071007326
30
0
41
1
10
164.55210226432
20
7.6283634459862
30
0
41
1
10
164.756755032954
20
6.36987994959551
30
0
41
1
10
164.859081417271
20
5.71186820243077
30
0
41
1
10
165.063734185905
20
4.37055727473768
30
0
41
1
10
165.166060570222
20
3.68740145601799
30
0
41
1
10
165.268386954539
20
3.00692169795806
30
0
0
SPLINE
5
109
100
AcDbEntity
8
1
62
256
6
ByLayer
370
13
48
1
60
0
100
AcDbSpline
70
4
71
3
72
8
73
4
40
0
40
0
40
0
40
0
40
1
40
1
40
1
40
1
41
1
10
153.6
20
12.9984766897412
30
0
41
1
10
153.610492766333
20
12.9994953901204
30
0
41
1
10
153.620985532666
20
13
30
0
41
1
10
153.631478298998
20
13
30
0
0
SPLINE
5
10A
100
AcDbEntity
8
1
62
256
6
ByLayer
370
13
48
1
60
0
100
AcDbSpline
70
4
71
3
72
117
73
113
40
0
40
0
40
0
40
0
40
0.015625
40
0.015625
40
0.03125
40
0.03125
40
0.046875
40
0.046875
40
0.0625
40
0.0625
40
0.0937499999999998
40
0.0937499999999998
40
0.125
40
0.125
40
0.140625
40
0.140625
40
0.14453125
40
0.14453125
40
0.148437499999999
40
0.156249999999999
40
0.156249999999999
40
0.187499999999999
40
0.187499999999999
40
0.218749999999999
40
0.218749999999999
40
0.234374999999999
40
0.234374999999999
40
0.249999999999999
40
0.249999999999999
40
0.265624999999999
40
0.265624999999999
40
0.281249999999999
40
0.281249999999999
40
0.296874999999999
40
0.296874999999999
40
0.312499999999999
40
0.312499999999999
40
0.328124999999999
40
0.328124999999999
40
0.343749999999999
40
0.343749999999999
40
0.374999999999999
40
0.374999999999999
40
0.406249999999999
40
0.406249999999999
40
0.421874999999999
40
0.421874999999999
40
0.425781249999999
40
0.425781249999999
40
0.429687499999999
40
0.429687499999999
40
0.437499999999999
40
0.437499999999999
40
0.468749999999999
40
0.468749999999999
40
0.499999999999999
40
0.499999999999999
40
0.515624999999999
40
0.515624999999999
40
0.531249999999999
40
0.531249999999999
40
0.546874999999999
40
0.546874999999999
40
0.562499999999999
40
0.562499999999999
40
0.578124999999999
40
0.578124999999999
40
0.593749999999999
40
0.593749999999999
40
0.609374999999999
40
0.609374999999999
40
0.624999999999999
40
0.624999999999999
40
0.656249999999999
40
0.656249999999999
40
0.687499999999999
40
0.687499999999999
40
0.703124999999999
40
0.703124999999999
40
0.710937499999999
40
0.710937499999999
40
0.714843749999999
40
0.714843749999999
40
0.718749999999999
40
0.718749999999999
40
0.749999999999999
40
0.749999999999999
40
0.781249999999999
40
0.781249999999999
40
0.796874999999999
40
0.796874999999999
40
0.812499999999999
40
0.812499999999999
40
0.828124999999999
40
0.828124999999999
40
0.843749999999999
40
0.843749999999999
40
0.859374999999999
40
0.859374999999999
40
0.875
40
0.875
40
0.890625
40
0.890625
40
0.90625
40
0.90625
40
0.921875
40
0.921875
40
0.9375
40
0.9375
40
0.96875
40
0.96875
40
1
40
1
40
1
40
1
41
1
10
153.6
20
9.21291174227233
30
0
41
1
10
153.653196738974
20
8.93578821323644
30
0
41
1
10
153.706393477949
20
8.6460110562204
30
0
41
1
10
153.812786955898
20
8.04484707461529
30
0
41
1
10
153.865983694872
20
7.73346594378802
30
0
41
1
10
153.972377172821
20
7.09326859827038
30
0
41
1
10
154.025573911795
20
6.76445862899013
30
0
41
1
10
154.131967389744
20
6.09386477527156
30
0
41
1
10
154.185164128719
20
5.75208714579995
30
0
41
1
10
154.344754345642
20
4.7141305809464
30
0
41
1
10
154.451147823591
20
4.00546833142016
30
0
41
1
10
154.663934779488
20
2.58953371593077
30
0
41
1
10
154.770328257437
20
1.88238006230253
30
0
41
1
10
154.929918474361
20
0.844552559298165
30
0
41
1
10
154.983115213335
20
0.502369520239341
30
0
41
1
10
155.049611137053
20
0.0811239935542005
30
0
41
1
10
155.062910321797
20
-0.0025786740886815
30
0
41
1
10
155.089508691284
20
-0.170670248277759
30
0
41
1
10
155.129406245515
20
-0.423794349793951
30
0
41
1
10
155.169303799745
20
-0.679698918736619
30
0
41
1
10
155.302295647181
20
-1.53801461119102
30
0
41
1
10
155.40868912513
20
-2.24193960266069
30
0
41
1
10
155.621476081028
20
-3.65667588154113
30
0
41
1
10
155.727869558977
20
-4.36738123949388
30
0
41
1
10
155.8874597759
20
-5.41289064347947
30
0
41
1
10
155.940656514874
20
-5.75792831044277
30
0
41
1
10
156.047049992823
20
-6.43653552042767
30
0
41
1
10
156.100246731798
20
-6.77009891860754
30
0
41
1
10
156.206640209747
20
-7.42124410032588
30
0
41
1
10
156.259836948721
20
-7.73881957603803
30
0
41
1
10
156.36623042667
20
-8.35369887279697
30
0
41
1
10
156.419427165644
20
-8.6509967600519
30
0
41
1
10
156.525820643593
20
-9.22144004248747
30
0
41
1
10
156.579017382568
20
-9.49458040390476
30
0
41
1
10
156.685410860516
20
-10.0134035208348
30
0
41
1
10
156.738607599491
20
-10.259082579915
30
0
41
1
10
156.84500107744
20
-10.7203862443936
30
0
41
1
10
156.898197816414
20
-10.9360087751463
30
0
41
1
10
157.004591294363
20
-11.3353983094236
30
0
41
1
10
157.057788033337
20
-11.5191649551686
30
0
41
1
10
157.217378250261
20
-12.021228657234
30
0
41
1
10
157.323771728209
20
-12.2899138436473
30
0
41
1
10
157.536558684107
20
-12.6970696248963
30
0
41
1
10
157.642952162056
20
-12.835654352291
30
0
41
1
10
157.802542378979
20
-12.9552983058469
30
0
41
1
10
157.855739117954
20
-12.9805453522526
30
0
41
1
10
157.922235041672
20
-12.9951995308566
30
0
41
1
10
157.935534226415
20
-12.9972859608339
30
0
41
1
10
157.962132595902
20
-12.999807752903
30
0
41
1
10
157.975431780646
20
-13.0002446987066
30
0
41
1
10
158.015329334877
20
-12.9991261396249
30
0
41
1
10
158.041927704364
20
-12.9951194858251
30
0
41
1
10
158.1749195518
20
-12.9580259362396
30
0
41
1
10
158.281313029749
20
-12.8735016165529
30
0
41
1
10
158.494099985647
20
-12.5789703409901
30
0
41
1
10
158.600493463596
20
-12.3688318395309
30
0
41
1
10
158.760083680519
20
-11.9541366190159
30
0
41
1
10
158.813280419493
20
-11.799406262416
30
0
41
1
10
158.919673897442
20
-11.457192406749
30
0
41
1
10
158.972870636417
20
-11.2697078202799
30
0
41
1
10
159.079264114365
20
-10.863046525416
30
0
41
1
10
159.13246085334
20
-10.6438703702438
30
0
41
1
10
159.238854331289
20
-10.1757176775111
30
0
41
1
10
159.292051070263
20
-9.92674340912518
30
0
41
1
10
159.398444548212
20
-9.40167472669174
30
0
41
1
10
159.451641287186
20
-9.12558418020689
30
0
41
1
10
159.558034765135
20
-8.54965897377957
30
0
41
1
10
159.611231504109
20
-8.24982947533428
30
0
41
1
10
159.717624982058
20
-7.630361399164
30
0
41
1
10
159.770821721033
20
-7.31072882574054
30
0
41
1
10
159.877215198982
20
-6.65597927190751
30
0
41
1
10
159.930411937956
20
-6.32086860731687
30
0
41
1
10
160.090002154879
20
-5.29910108966817
30
0
41
1
10
160.196395632828
20
-4.59610686825076
30
0
41
1
10
160.409182588726
20
-3.18215586551949
30
0
41
1
10
160.515576066674
20
-2.471338593231
30
0
41
1
10
160.675166283598
20
-1.42251324538654
30
0
41
1
10
160.728363022572
20
-1.07575358347043
30
0
41
1
10
160.808158131034
20
-0.562249902924378
30
0
41
1
10
160.834756500521
20
-0.392183913549729
30
0
41
1
10
160.874654054752
20
-0.138995647508352
30
0
41
1
10
160.887953239496
20
-0.0550452701366737
30
0
41
1
10
160.914551608983
20
0.112742397414536
30
0
41
1
10
160.927850793726
20
0.196969845116684
30
0
41
1
10
161.047543456419
20
0.957838152431634
30
0
41
1
10
161.153936934368
20
1.65457227766188
30
0
41
1
10
161.366723890265
20
3.06343882472939
30
0
41
1
10
161.473117368214
20
3.77548741962852
30
0
41
1
10
161.632707585137
20
4.83051668681162
30
0
41
1
10
161.685904324112
20
5.1799700707991
30
0
41
1
10
161.792297802061
20
5.86995106277095
30
0
41
1
10
161.845494541035
20
6.21047282902344
30
0
41
1
10
161.951888018984
20
6.87803493051325
30
0
41
1
10
162.005084757959
20
7.20506898500503
30
0
41
1
10
162.111478235907
20
7.84121760448582
30
0
41
1
10
162.164674974882
20
8.1503259597946
30
0
41
1
10
162.271068452831
20
8.74649213677333
30
0
41
1
10
162.324265191805
20
9.03354436171497
30
0
41
1
10
162.430658669754
20
9.58195345735652
30
0
41
1
10
162.483855408728
20
9.84330584017732
30
0
41
1
10
162.590248886677
20
10.3373097803048
30
0
41
1
10
162.643445625652
20
10.5699583347608
30
0
41
1
10
162.7498391036
20
11.0043021821884
30
0
41
1
10
162.803035842575
20
11.2059961604805
30
0
41
1
10
162.909429320523
20
11.5769968296556
30
0
41
1
10
162.962626059498
20
11.7463039025738
30
0
41
1
10
163.069019537447
20
12.0519289827382
30
0
41
1
10
163.122216276421
20
12.18824889587
30
0
41
1
10
163.281806493345
20
12.5480180136864
30
0
41
1
10
163.388199971293
20
12.7219794428618
30
0
41
1
10
163.600986927191
20
12.9479017458614
30
0
41
1
10
163.70738040514
20
13
30
0
41
1
10
163.813773883089
20
13
30
0
0
SPLINE
5
10B
100
AcDbEntity
8
1
62
256
6
ByLayer
370
13
48
1
60
0
100
AcDbSpline
70
4
71
3
72
42
73
38
40
0
40
0
40
0
40
0
40
0.0625
40
0.0625
40
0.125
40
0.125
40
0.1875
40
0.1875
40
0.25
40
0.25
40
0.3125
40
0.3125
40
0.375
40
0.375
40
0.4375
40
0.4375
40
0.5
40
0.5
40
0.5625
40
0.5625
40
0.625
40
0.625
40
0.6875
40
0.6875
40
0.75
40
0.75
40
0.812499999999999
40
0.812499999999999
40
0.874999999999999
40
0.874999999999999
40
0.937499999999999
40
0.937499999999999
40
0.968749999999999
40
0.968749999999999
40
0.984375
40
0.984375
40
1
40
1
40
1
40
1
41
1
10
162.32768251264
20
13
30
0
41
1
10
162.388947188513
20
13
30
0
41
1
10
162.450211864385
20
12.9827769843356
30
0
41
1
10
162.572741216131
20
12.910312771509
30
0
41
1
10
162.634005892004
20
12.8550626748547
30
0
41
1
10
162.75653524375
20
12.7036135940956
30
0
41
1
10
162.817799919623
20
12.6074059823128
30
0
41
1
10
162.940329271369
20
12.3720357234336
30
0
41
1
10
163.001593947242
20
12.232865764583
30
0
41
1
10
163.124123298988
20
11.9107325282295
30
0
41
1
10
163.18538797486
20
11.7277643477989
30
0
41
1
10
163.307917326606
20
11.3185516925163
30
0
41
1
10
163.369182002479
20
11.0923056597477
30
0
41
1
10
163.491711354225
20
10.5985099353538
30
0
41
1
10
163.552976030098
20
10.330962592894
30
0
41
1
10
163.675505381844
20
9.75798235807281
30
0
41
1
10
163.736770057717
20
9.45255574375557
30
0
41
1
10
163.859299409462
20
8.8085506457692
30
0
41
1
10
163.920564085335
20
8.46998179462457
30
0
41
1
10
164.043093437081
20
7.76550001048801
30
0
41
1
10
164.104358112954
20
7.39959897747727
30
0
41
1
10
164.2268874647
20
6.64700707940895
30
0
41
1
10
164.288152140573
20
6.26032898866637
30
0
41
1
10
164.410681492319
20
5.47310796494176
30
0
41
1
10
164.471946168191
20
5.07257725228288
30
0
41
1
10
164.594475519937
20
4.26456631585614
30
0
41
1
10
164.65574019581
20
3.85709655244813
30
0
41
1
10
164.778269547556
20
3.04176858019645
30
0
41
1
10
164.839534223429
20
2.63391826594153
30
0
41
1
10
164.962063575175
20
1.82375794862733
30
0
41
1
10
165.023328251048
20
1.42145293423451
30
0
41
1
10
165.115225264857
20
0.825977373420187
30
0
41
1
10
165.145857602794
20
0.628808941778061
30
0
41
1
10
165.191806109698
20
0.335454212187131
30
0
41
1
10
165.207122278667
20
0.238068493810033
30
0
41
1
10
165.237754616603
20
0.0441586570312609
30
0
41
1
10
165.253070785571
20
-0.0521556841324013
30
0
41
1
10
165.268386954539
20
-0.149134326763033
30
0
0
SPLINE
5
10C
100
AcDbEntity
8
1
62
256
6
ByLayer
370
13
48
1
60
0
100
AcDbSpline
70
4
71
3
72
8
73
4
40
0
40
0
40
0
40
0
40
1
40
1
40
1
40
1
41
1
10
165.268386954539
20
-12.4524754817032
30
0
41
1
10
166.845591303026
20
-8.29576249786706
30
0
41
1
10
168.422795651513
20
-4.14489089468273
30
0
41
1
10
170
20
-6.821E-13
30
0
0
SPLINE
5
10D
100
AcDbEntity
8
1
62
256
6
ByLayer
370
13
48
1
60
0
100
AcDbSpline
70
4
71
3
72
8
73
4
40
0
40
0
40
0
40
0
40
1
40
1
40
1
40
1
41
1
10
165.268386954539
20
2.67165858409422
30
0
41
1
10
166.845591303026
20
1.80117171956749
30
0
41
1
10
168.422795651513
20
0.910608814427093
30
0
41
1
10
170
20
2.84E-14
30
0
0
SPLINE
5
10E
100
AcDbEntity
8
1
62
256
6
ByLayer
370
13
48
1
60
0
100
AcDbSpline
70
4
71
3
72
8
73
4
40
0
40
0
40
0
40
0
40
1
40
1
40
1
40
1
41
1
10
165.268386954539
20
11.7907763775201
30
0
41
1
10
166.845591303026
20
7.86915306219717
30
0
41
1
10
168.422795651513
20
3.93885024191525
30
0
41
1
10
170
20
8.53E-14
30
0
0
SPLINE
5
10F
100
AcDbEntity
8
1
62
256
6
ByLayer
370
13
48
1
60
0
100
AcDbSpline
70
4
71
3
72
8
73
4
40
0
40
0
40
0
40
0
40
1
40
1
40
1
40
1
41
1
10
165.268386954539
20
8.99766412724409
30
0
41
1
10
166.845591303026
20
6.01324177346464
30
0
41
1
10
168.422795651513
20
3.01398676903176
30
0
41
1
10
170
20
-1.421E-13
30
0
0
SPLINE
5
110
100
AcDbEntity
8
1
62
256
6
ByLayer
370
13
48
1
60
0
100
AcDbSpline
70
4
71
3
72
8
73
4
40
0
40
0
40
0
40
0
40
1
40
1
40
1
40
1
41
1
10
165.268386954539
20
11.2319701209253
30
0
41
1
10
166.845591303026
20
7.49830358456671
30
0
41
1
10
168.422795651513
20
3.754271595288
30
0
41
1
10
170
20
-5.68E-14
30
0
0
SPLINE
5
111
100
AcDbEntity
8
1
62
256
6
ByLayer
370
13
48
1
60
0
100
AcDbSpline
70
4
71
3
72
8
73
4
40
0
40
0
40
0
40
0
40
1
40
1
40
1
40
1
41
1
10
165.268386954539
20
3.52786177106853
30
0
41
1
10
166.845591303026
20
2.33217361147894
30
0
41
1
10
168.422795651513
20
1.15620659772591
30
0
41
1
10
170
20
-1.421E-13
30
0
0
SPLINE
5
112
100
AcDbEntity
8
1
62
256
6
ByLayer
370
13
48
1
60
0
100
AcDbSpline
70
4
71
3
72
8
73
4
40
0
40
0
40
0
40
0
40
1
40
1
40
1
40
1
41
1
10
165.268386954539
20
-7.91140406549201
30
0
41
1
10
166.845591303026
20
-5.29053903957185
30
0
41
1
10
168.422795651513
20
-2.65337477012238
30
0
41
1
10
170
20
-5.68E-14
30
0
0
SPLINE
5
113
100
AcDbEntity
8
1
62
256
6
ByLayer
370
13
48
1
60
0
100
AcDbSpline
70
4
71
3
72
8
73
4
40
0
40
0
40
0
40
0
40
1
40
1
40
1
40
1
41
1
10
165.268386954539
20
-10.9448292988563
30
0
41
1
10
166.845591303026
20
-7.28548872269567
30
0
41
1
10
168.422795651513
20
-3.63717149200215
30
0
41
1
10
170
20
-8.53E-14
30
0
0
SPLINE
5
114
100
AcDbEntity
8
1
62
256
6
ByLayer
370
13
48
1
60
0
100
AcDbSpline
70
4
71
3
72
8
73
4
40
0
40
0
40
0
40
0
40
1
40
1
40
1
40
1
41
1
10
165.268386954539
20
-0.0507360032759721
30
0
41
1
10
166.845591303026
20
-0.0543275025618755
30
0
41
1
10
168.422795651513
20
-0.0374152356500588
30
0
41
1
10
170.000000000001
20
2.84E-14
30
0
0
SPLINE
5
115
100
AcDbEntity
8
1
62
256
6
ByLayer
370
13
48
1
60
0
100
AcDbSpline
70
4
71
3
72
8
73
4
40
0
40
0
40
0
40
0
40
1
40
1
40
1
40
1
41
1
10
165.268386954539
20
12.8421177970886
30
0
41
1
10
166.845591303026
20
8.56459766544077
30
0
41
1
10
168.422795651513
20
4.28384380271098
30
0
41
1
10
170
20
-2.84E-14
30
0
0
SPLINE
5
116
100
AcDbEntity
8
1
62
256
6
ByLayer
370
13
48
1
60
0
100
AcDbSpline
70
4
71
3
72
8
73
4
40
0
40
0
40
0
40
0
40
1
40
1
40
1
40
1
41
1
10
165.268386954539
20
-12.9580364142247
30
0
41
1
10
166.845591303026
20
-8.64033705784601
30
0
41
1
10
168.422795651513
20
-4.32094322928268
30
0
41
1
10
170
20
-8.53E-14
30
0
0
SPLINE
5
117
100
AcDbEntity
8
1
62
256
6
ByLayer
370
13
48
1
60
0
100
AcDbSpline
70
4
71
3
72
8
73
4
40
0
40
0
40
0
40
0
40
1
40
1
40
1
40
1
41
1
10
165.268386954539
20
-12.8053232437818
30
0
41
1
10
166.845591303026
20
-8.54041724595379
30
0
41
1
10
168.422795651513
20
-4.27192837031649
30
0
41
1
10
170
20
-8.53E-14
30
0
0
SPLINE
5
118
100
AcDbEntity
8
1
62
256
6
ByLayer
370
13
48
1
60
0
100
AcDbSpline
70
4
71
3
72
8
73
4
40
0
40
0
40
0
40
0
40
1
40
1
40
1
40
1
41
1
10
165.268386954539
20
12.247879735828
30
0
41
1
10
166.845591303026
20
8.17212612118783
30
0
41
1
10
168.422795651513
20
4.08945381576566
30
0
41
1
10
170
20
0
30
0
0
SPLINE
5
119
100
AcDbEntity
8
1
62
256
6
ByLayer
370
13
48
1
60
0
100
AcDbSpline
70
4
71
3
72
8
73
4
40
0
40
0
40
0
40
0
40
1
40
1
40
1
40
1
41
1
10
165.268386954539
20
-11.5484397178403
30
0
41
1
10
166.845591303026
20
-7.68954487418537
30
0
41
1
10
168.422795651513
20
-3.8400219120596
30
0
41
1
10
170
20
-8.53E-14
30
0
0
SPLINE
5
11A
100
AcDbEntity
8
1
62
256
6
ByLayer
370
13
48
1
60
0
100
AcDbSpline
70
4
71
3
72
8
73
4
40
0
40
0
40
0
40
0
40
1
40
1
40
1
40
1
41
1
10
165.268386954539
20
9.61296761872998
30
0
41
1
10
166.845591303026
20
6.39484198594877
30
0
41
1
10
168.422795651513
20
3.19048362849739
30
0
41
1
10
170
20
5.4E-13
30
0
0
SPLINE
5
11B
100
AcDbEntity
8
1
62
256
6
ByLayer
370
13
48
1
60
0
100
AcDbSpline
70
4
71
3
72
8
73
4
40
0
40
0
40
0
40
0
40
1
40
1
40
1
40
1
41
1
10
165.268386954539
20
7.10927451198236
30
0
41
1
10
166.845591303026
20
4.75668239868784
30
0
41
1
10
168.422795651513
20
2.38689763675893
30
0
41
1
10
170
20
-2.84E-14
30
0
0
SPLINE
5
11C
100
AcDbEntity
8
1
62
256
6
ByLayer
370
13
48
1
60
0
100
AcDbSpline
70
4
71
3
72
8
73
4
40
0
40
0
40
0
40
0
40
1
40
1
40
1
40
1
41
1
10
165.268386954539
20
-12.927795843691
30
0
41
1
10
166.845591303026
20
-8.61637256035638
30
0
41
1
10
168.422795651513
20
-4.30705904900373
30
0
41
1
10
170
20
-8.53E-14
30
0
0
SPLINE
5
11D
100
AcDbEntity
8
1
62
256
6
ByLayer
370
13
48
1
60
0
100
AcDbSpline
70
4
71
3
72
8
73
4
40
0
40
0
40
0
40
0
40
1
40
1
40
1
40
1
41
1
10
165.268386954539
20
-6.64218137005719
30
0
41
1
10
166.845591303026
20
-4.41049559820624
30
0
41
1
10
168.422795651513
20
-2.19641042296098
30
0
41
1
10
170
20
-5.68E-14
30
0
0
SPLINE
5
11E
100
AcDbEntity
8
1
62
256
6
ByLayer
370
13
48
1
60
0
100
AcDbSpline
70
4
71
3
72
8
73
4
40
0
40
0
40
0
40
0
40
1
40
1
40
1
40
1
41
1
10
165.268386954539
20
7.83064557963473
30
0
41
1
10
166.845591303026
20
5.20406382347252
30
0
41
1
10
168.422795651513
20
2.59381947242477
30
0
41
1
10
170
20
4.263E-13
30
0
0
SPLINE
5
11F
100
AcDbEntity
8
1
62
256
6
ByLayer
370
13
48
1
60
0
100
AcDbSpline
70
4
71
3
72
8
73
4
40
0
40
0
40
0
40
0
40
1
40
1
40
1
40
1
41
1
10
165.268386954539
20
11.0643331920261
30
0
41
1
10
166.845591303026
20
7.3654577191987
30
0
41
1
10
168.422795651513
20
3.67730541041905
30
0
41
1
10
170
20
5.969E-13
30
0
0
SPLINE
5
120
100
AcDbEntity
8
1
62
256
6
ByLayer
370
13
48
1
60
0
100
AcDbSpline
70
4
71
3
72
8
73
4
40
0
40
0
40
0
40
0
40
1
40
1
40
1
40
1
41
1
10
165.268386954539
20
12.1347745018802
30
0
41
1
10
166.845591303026
20
8.08249454191642
30
0
41
1
10
168.422795651513
20
4.03752445626938
30
0
41
1
10
170
20
6.821E-13
30
0
0
SPLINE
5
121
100
AcDbEntity
8
1
62
256
6
ByLayer
370
13
48
1
60
0
100
AcDbSpline
70
4
71
3
72
8
73
4
40
0
40
0
40
0
40
0
40
1
40
1
40
1
40
1
41
1
10
165.268386954539
20
-12.0524375453894
30
0
41
1
10
166.845591303026
20
-8.02727384117324
30
0
41
1
10
168.422795651513
20
-4.00974971614698
30
0
41
1
10
170
20
-8.53E-14
30
0
0
SPLINE
5
122
100
AcDbEntity
8
1
62
256
6
ByLayer
370
13
48
1
60
0
100
AcDbSpline
70
4
71
3
72
8
73
4
40
0
40
0
40
0
40
0
40
1
40
1
40
1
40
1
41
1
10
165.268386954539
20
-10.4441707110042
30
0
41
1
10
166.845591303026
20
-6.97498922748747
30
0
41
1
10
168.422795651513
20
-3.49355997403927
30
0
41
1
10
170
20
-8.53E-14
30
0
0
SPLINE
5
123
100
AcDbEntity
8
1
62
256
6
ByLayer
370
13
48
1
60
0
100
AcDbSpline
70
4
71
3
72
8
73
4
40
0
40
0
40
0
40
0
40
1
40
1
40
1
40
1
41
1
10
165.268386954539
20
-7.65028863910774
30
0
41
1
10
166.845591303026
20
-5.08361503418243
30
0
41
1
10
168.422795651513
20
-2.53349033707238
30
0
41
1
10
170
20
-5.68E-14
30
0
0
SPLINE
5
124
100
AcDbEntity
8
1
62
256
6
ByLayer
370
13
48
1
60
0
100
AcDbSpline
70
4
71
3
72
8
73
4
40
0
40
0
40
0
40
0
40
1
40
1
40
1
40
1
41
1
10
165.268386954539
20
11.649797279184
30
0
41
1
10
166.845591303026
20
7.75743250968944
30
0
41
1
10
168.422795651513
20
3.87412331440254
30
0
41
1
10
170
20
-4.832E-13
30
0
0
SPLINE
5
125
100
AcDbEntity
8
1
62
256
6
ByLayer
370
13
48
1
60
0
100
AcDbSpline
70
4
71
3
72
8
73
4
40
0
40
0
40
0
40
0
40
1
40
1
40
1
40
1
41
1
10
165.268386954539
20
-3.62541772322632
30
0
41
1
10
166.845591303026
20
-2.43663535262061
30
0
41
1
10
168.422795651513
20
-1.22814917702598
30
0
41
1
10
170
20
1.421E-13
30
0
0
SPLINE
5
126
100
AcDbEntity
8
1
62
256
6
ByLayer
370
13
48
1
60
0
100
AcDbSpline
70
4
71
3
72
8
73
4
40
0
40
0
40
0
40
0
40
1
40
1
40
1
40
1
41
1
10
165.268386954539
20
-1.25657116357854
30
0
41
1
10
166.845591303026
20
-0.858121757725911
30
0
41
1
10
168.422795651513
20
-0.439259938340427
30
0
41
1
10
170.000000000001
20
1.705E-13
30
0
0
SPLINE
5
127
100
AcDbEntity
8
1
62
256
6
ByLayer
370
13
48
1
60
0
100
AcDbSpline
70
4
71
3
72
8
73
4
40
0
40
0
40
0
40
0
40
1
40
1
40
1
40
1
41
1
10
165.268386954539
20
-3.31127541314063
30
0
41
1
10
166.845591303026
20
-2.18768956659289
30
0
41
1
10
168.422795651513
20
-1.08391881399032
30
0
41
1
10
170
20
-2.84E-14
30
0
0
SPLINE
5
128
100
AcDbEntity
8
1
62
256
6
ByLayer
370
13
48
1
60
0
100
AcDbSpline
70
4
71
3
72
8
73
4
40
0
40
0
40
0
40
0
40
1
40
1
40
1
40
1
41
1
10
165.268386954539
20
-12.1708048674491
30
0
41
1
10
166.845591303026
20
-8.12107542435399
30
0
41
1
10
168.422795651513
20
-4.0640950280773
30
0
41
1
10
170
20
5.116E-13
30
0
0
SPLINE
5
129
100
AcDbEntity
8
1
62
256
6
ByLayer
370
13
48
1
60
0
100
AcDbSpline
70
4
71
3
72
8
73
4
40
0
40
0
40
0
40
0
40
1
40
1
40
1
40
1
41
1
10
165.268386954539
20
9.8293648171761
30
0
41
1
10
166.845591303026
20
6.56632850314745
30
0
41
1
10
168.422795651513
20
3.28983683718548
30
0
41
1
10
170
20
-5.68E-14
30
0
0
SPLINE
5
12A
100
AcDbEntity
8
1
62
256
6
ByLayer
370
13
48
1
60
0
100
AcDbSpline
70
4
71
3
72
8
73
4
40
0
40
0
40
0
40
0
40
1
40
1
40
1
40
1
41
1
10
165.268386954539
20
4.97612589406913
30
0
41
1
10
166.845591303026
20
3.33635936028108
30
0
41
1
10
168.422795651513
20
1.67763209056088
30
0
41
1
10
170
20
2.84E-14
30
0
0
SPLINE
5
12B
100
AcDbEntity
8
1
62
256
6
ByLayer
370
13
48
1
60
0
100
AcDbSpline
70
4
71
3
72
8
73
4
40
0
40
0
40
0
40
0
40
1
40
1
40
1
40
1
41
1
10
165.268386954539
20
8.75958507795653
30
0
41
1
10
166.845591303026
20
5.82457321733952
30
0
41
1
10
168.422795651513
20
2.90467889611057
30
0
41
1
10
170
20
-3.695E-13
30
0
0
SPLINE
5
12C
100
AcDbEntity
8
1
62
256
6
ByLayer
370
13
48
1
60
0
100
AcDbSpline
70
4
71
3
72
8
73
4
40
0
40
0
40
0
40
0
40
1
40
1
40
1
40
1
41
1
10
165.268386954539
20
-12.745102946748
30
0
41
1
10
166.845591303026
20
-8.49269495991152
30
0
41
1
10
168.422795651513
20
-4.24427976958859
30
0
41
1
10
170
20
-8.53E-14
30
0
0
SPLINE
5
12D
100
AcDbEntity
8
1
62
256
6
ByLayer
370
13
48
1
60
0
100
AcDbSpline
70
4
71
3
72
8
73
4
40
0
40
0
40
0
40
0
40
1
40
1
40
1
40
1
41
1
10
165.268386954539
20
1.47981700766104
30
0
41
1
10
166.845591303026
20
1.0069150546208
30
0
41
1
10
168.422795651513
20
0.513637121004479
30
0
41
1
10
170
20
5.68E-14
30
0
0
SPLINE
5
12E
100
AcDbEntity
8
1
62
256
6
ByLayer
370
13
48
1
60
0
100
AcDbSpline
70
4
71
3
72
8
73
4
40
0
40
0
40
0
40
0
40
1
40
1
40
1
40
1
41
1
10
165.268386954539
20
10.5762810231846
30
0
41
1
10
166.845591303026
20
7.06277649942609
30
0
41
1
10
168.422795651513
20
3.53730998336891
30
0
41
1
10
170
20
-1.705E-13
30
0
0
SPLINE
5
12F
100
AcDbEntity
8
1
62
256
6
ByLayer
370
13
48
1
60
0
100
AcDbSpline
70
4
71
3
72
8
73
4
40
0
40
0
40
0
40
0
40
1
40
1
40
1
40
1
41
1
10
165.268386954539
20
-2.45156760341456
30
0
41
1
10
166.845591303026
20
-1.65451417037775
30
0
41
1
10
168.422795651513
20
-0.837315746440765
30
0
41
1
10
170
20
1.137E-13
30
0
0
SPLINE
5
130
100
AcDbEntity
8
1
62
256
6
ByLayer
370
13
48
1
60
0
100
AcDbSpline
70
4
71
3
72
8
73
4
40
0
40
0
40
0
40
0
40
1
40
1
40
1
40
1
41
1
10
165.268386954539
20
-12.9989783308301
30
0
41
1
10
166.845591303026
20
-8.66572850173068
30
0
41
1
10
168.422795651513
20
-4.33268722196487
30
0
41
1
10
170
20
-8.53E-14
30
0
0
SPLINE
5
131
100
AcDbEntity
8
1
62
256
6
ByLayer
370
13
48
1
60
0
100
AcDbSpline
70
4
71
3
72
8
73
4
40
0
40
0
40
0
40
0
40
1
40
1
40
1
40
1
41
1
10
165.268386954539
20
12.9494951568193
30
0
41
1
10
166.845591303026
20
8.63119118206484
30
0
41
1
10
168.422795651513
20
4.31464448405308
30
0
41
1
10
170
20
-5.4E-13
30
0
0
SPLINE
5
132
100
AcDbEntity
8
1
62
256
6
ByLayer
370
13
48
1
60
0
100
AcDbSpline
70
4
71
3
72
8
73
4
40
0
40
0
40
0
40
0
40
1
40
1
40
1
40
1
41
1
10
165.268386954539
20
-9.46041108403961
30
0
41
1
10
166.845591303026
20
-6.29287787641846
30
0
41
1
10
168.422795651513
20
-3.13937226740862
30
0
41
1
10
170
20
-5.68E-14
30
0
0
SPLINE
5
133
100
AcDbEntity
8
1
62
256
6
ByLayer
370
13
48
1
60
0
100
AcDbSpline
70
4
71
3
72
8
73
4
40
0
40
0
40
0
40
0
40
1
40
1
40
1
40
1
41
1
10
165.268386954539
20
0.275211074259829
30
0
41
1
10
166.845591303026
20
0.203973110935493
30
0
41
1
10
168.422795651513
20
0.11223498278315
30
0
41
1
10
170
20
0
30
0
0
SPLINE
5
134
100
AcDbEntity
8
1
62
256
6
ByLayer
370
13
48
1
60
0
100
AcDbSpline
70
4
71
3
72
8
73
4
40
0
40
0
40
0
40
0
40
1
40
1
40
1
40
1
41
1
10
165.268386954539
20
-11.1172684807974
30
0
41
1
10
166.845591303026
20
-7.42214019023814
30
0
41
1
10
168.422795651513
20
-3.71634250785891
30
0
41
1
10
170
20
-6.253E-13
30
0
0
SPLINE
5
135
100
AcDbEntity
8
1
62
256
6
ByLayer
370
13
48
1
60
0
100
AcDbSpline
70
4
71
3
72
8
73
4
40
0
40
0
40
0
40
0
40
1
40
1
40
1
40
1
41
1
10
165.268386954539
20
12.5993373904844
30
0
41
1
10
166.845591303026
20
8.40460942741933
30
0
41
1
10
168.422795651513
20
4.20478326583012
30
0
41
1
10
170
20
0
30
0
0
SPLINE
5
136
100
AcDbEntity
8
1
62
256
6
ByLayer
370
13
48
1
60
0
100
AcDbSpline
70
4
71
3
72
8
73
4
40
0
40
0
40
0
40
0
40
1
40
1
40
1
40
1
41
1
10
165.268386954539
20
-5.57678108868475
30
0
41
1
10
166.845591303026
20
-3.69933285016501
30
0
41
1
10
168.422795651513
20
-1.84038508077174
30
0
41
1
10
170
20
-2.84E-14
30
0
0
SPLINE
5
137
100
AcDbEntity
8
1
62
256
6
ByLayer
370
13
48
1
60
0
100
AcDbSpline
70
4
71
3
72
8
73
4
40
0
40
0
40
0
40
0
40
1
40
1
40
1
40
1
41
1
10
165.268386954539
20
3.84045541669244
30
0
41
1
10
166.845591303026
20
2.57989214005263
30
0
41
1
10
168.422795651513
20
1.29972593130043
30
0
41
1
10
170
20
2.84E-14
30
0
0
SPLINE
5
138
100
AcDbEntity
8
1
62
256
6
ByLayer
370
13
48
1
60
0
100
AcDbSpline
70
4
71
3
72
8
73
4
40
0
40
0
40
0
40
0
40
1
40
1
40
1
40
1
41
1
10
165.268386954539
20
-8.59240733349483
30
0
41
1
10
166.845591303026
20
-5.71288507753198
30
0
41
1
10
168.422795651513
20
-2.84871729580473
30
0
41
1
10
170
20
-5.68E-14
30
0
0
SPLINE
5
139
100
AcDbEntity
8
1
62
256
6
ByLayer
370
13
48
1
60
0
100
AcDbSpline
70
4
71
3
72
8
73
4
40
0
40
0
40
0
40
0
40
1
40
1
40
1
40
1
41
1
10
165.268386954539
20
-11.6944727835848
30
0
41
1
10
166.845591303026
20
-7.80527050289135
30
0
41
1
10
168.422795651513
20
-3.90706923873717
30
0
41
1
10
170
20
-8.53E-14
30
0
0
SPLINE
5
13A
100
AcDbEntity
8
1
62
256
6
ByLayer
370
13
48
1
60
0
100
AcDbSpline
70
4
71
3
72
8
73
4
40
0
40
0
40
0
40
0
40
1
40
1
40
1
40
1
41
1
10
165.268386954539
20
10.3834322381843
30
0
41
1
10
166.845591303026
20
6.9099512007474
30
0
41
1
10
168.422795651513
20
3.44876842313116
30
0
41
1
10
170
20
-4.263E-13
30
0
0
SPLINE
5
13B
100
AcDbEntity
8
1
62
256
6
ByLayer
370
13
48
1
60
0
100
AcDbSpline
70
4
71
3
72
8
73
4
40
0
40
0
40
0
40
0
40
1
40
1
40
1
40
1
41
1
10
165.268386954539
20
5.77872908347379
30
0
41
1
10
166.845591303026
20
3.83411949305278
30
0
41
1
10
168.422795651513
20
1.90785497127985
30
0
41
1
10
170.000000000001
20
-7.958E-13
30
0
0
SPLINE
5
13C
100
AcDbEntity
8
1
62
256
6
ByLayer
370
13
48
1
60
0
100
AcDbSpline
70
4
71
3
72
8
73
4
40
0
40
0
40
0
40
0
40
1
40
1
40
1
40
1
41
1
10
165.268386954539
20
-4.46327754577376
30
0
41
1
10
166.845591303026
20
-2.95626101823112
30
0
41
1
10
168.422795651513
20
-1.4684852540968
30
0
41
1
10
170
20
8.53E-14
30
0
0
SPLINE
5
13D
100
AcDbEntity
8
1
62
256
6
ByLayer
370
13
48
1
60
0
100
AcDbSpline
70
4
71
3
72
8
73
4
40
0
40
0
40
0
40
0
40
1
40
1
40
1
40
1
41
1
10
165.268386954539
20
-6.9202718633714
30
0
41
1
10
166.845591303026
20
-4.63087169598828
30
0
41
1
10
168.422795651513
20
-2.32408852145235
30
0
41
1
10
170
20
2.842E-13
30
0
0
SPLINE
5
13E
100
AcDbEntity
8
1
62
256
6
ByLayer
370
13
48
1
60
0
100
AcDbSpline
70
4
71
3
72
8
73
4
40
0
40
0
40
0
40
0
40
1
40
1
40
1
40
1
41
1
10
165.268386954539
20
4.67345116227057
30
0
41
1
10
166.845591303026
20
3.09650119218577
30
0
41
1
10
168.422795651513
20
1.5386667711895
30
0
41
1
10
170
20
-1.99E-13
30
0
0
SPLINE
5
13F
100
AcDbEntity
8
1
62
256
6
ByLayer
370
13
48
1
60
0
100
AcDbSpline
70
4
71
3
72
8
73
4
40
0
40
0
40
0
40
0
40
1
40
1
40
1
40
1
41
1
10
165.268386954539
20
-5.86944794266435
30
0
41
1
10
166.845591303026
20
-3.93126015721362
30
0
41
1
10
168.422795651513
20
-1.97475554040972
30
0
41
1
10
170
20
2.558E-13
30
0
0
SPLINE
5
140
100
AcDbEntity
8
1
62
256
6
ByLayer
370
13
48
1
60
0
100
AcDbSpline
70
4
71
3
72
8
73
4
40
0
40
0
40
0
40
0
40
1
40
1
40
1
40
1
41
1
10
165.268386954539
20
12.9741268211913
30
0
41
1
10
166.845591303026
20
8.6507108355832
30
0
41
1
10
168.422795651513
20
4.32595347930973
30
0
41
1
10
170
20
-2.84E-14
30
0
0
SPLINE
5
141
100
AcDbEntity
8
1
62
256
6
ByLayer
370
13
48
1
60
0
100
AcDbSpline
70
4
71
3
72
8
73
4
40
0
40
0
40
0
40
0
40
1
40
1
40
1
40
1
41
1
10
165.268386954539
20
12.5150816250525
30
0
41
1
10
166.845591303026
20
8.33783995040338
30
0
41
1
10
168.422795651513
20
4.16609939789407
30
0
41
1
10
170.000000000001
20
-1.7053E-12
30
0
0
SPLINE
5
142
100
AcDbEntity
8
1
62
256
6
ByLayer
370
13
48
1
60
0
100
AcDbSpline
70
4
71
3
72
8
73
4
40
0
40
0
40
0
40
0
40
1
40
1
40
1
40
1
41
1
10
165.268386954539
20
6.06887414058815
30
0
41
1
10
166.845591303026
20
4.06404837237443
30
0
41
1
10
168.422795651513
20
2.04106761273974
30
0
41
1
10
170
20
5.68E-14
30
0
0
SPLINE
5
143
100
AcDbEntity
8
1
62
256
6
ByLayer
370
13
48
1
60
0
100
AcDbSpline
70
4
71
3
72
8
73
4
40
0
40
0
40
0
40
0
40
1
40
1
40
1
40
1
41
1
10
165.268386954539
20
12.7874382594011
30
0
41
1
10
166.845591303026
20
8.52126621962094
30
0
41
1
10
168.422795651513
20
4.25873909914839
30
0
41
1
10
170
20
7.105E-13
30
0
0
SPLINE
5
144
100
AcDbEntity
8
1
62
256
6
ByLayer
370
13
48
1
60
0
100
AcDbSpline
70
4
71
3
72
8
73
4
40
0
40
0
40
0
40
0
40
1
40
1
40
1
40
1
41
1
10
165.268386954539
20
8.0883528974924
30
0
41
1
10
166.845591303026
20
5.40828703298439
30
0
41
1
10
168.422795651513
20
2.71213916008921
30
0
41
1
10
170
20
5.68E-14
30
0
0
SPLINE
5
145
100
AcDbEntity
8
1
62
256
6
ByLayer
370
13
48
1
60
0
100
AcDbSpline
70
4
71
3
72
8
73
4
40
0
40
0
40
0
40
0
40
1
40
1
40
1
40
1
41
1
10
165.268386954539
20
1.15553678712112
30
0
41
1
10
166.845591303026
20
0.749935361647943
30
0
41
1
10
168.422795651513
20
0.364752197095044
30
0
41
1
10
170.000000000001
20
-1.421E-13
30
0
0
SPLINE
5
146
100
AcDbEntity
8
1
62
256
6
ByLayer
370
13
48
1
60
0
100
AcDbSpline
70
4
71
3
72
8
73
4
40
0
40
0
40
0
40
0
40
1
40
1
40
1
40
1
41
1
10
165.268386954539
20
-2.13071143727004
30
0
41
1
10
166.845591303026
20
-1.40024790977469
30
0
41
1
10
168.422795651513
20
-0.690002889052522
30
0
41
1
10
170
20
-2.84E-14
30
0
0
SPLINE
5
147
100
AcDbEntity
8
1
62
256
6
ByLayer
370
13
48
1
60
0
100
AcDbSpline
70
4
71
3
72
8
73
4
40
0
40
0
40
0
40
0
40
1
40
1
40
1
40
1
41
1
10
165.268386954539
20
2.35184234240455
30
0
41
1
10
166.845591303026
20
1.54772955938785
30
0
41
1
10
168.422795651513
20
0.763773411608753
30
0
41
1
10
170.000000000001
20
-3.126E-13
30
0
0
SPLINE
5
148
100
AcDbEntity
8
1
62
256
6
ByLayer
370
13
48
1
60
0
100
AcDbSpline
70
4
71
3
72
8
73
4
40
0
40
0
40
0
40
0
40
1
40
1
40
1
40
1
41
1
10
165.268386954539
20
-0.931768728596381
30
0
41
1
10
166.845591303026
20
-0.600728229747119
30
0
41
1
10
168.422795651513
20
-0.290135253099606
30
0
41
1
10
170
20
0
30
0
0
SPLINE
5
149
100
AcDbEntity
8
1
62
256
6
ByLayer
370
13
48
1
60
0
100
AcDbSpline
70
4
71
3
72
8
73
4
40
0
40
0
40
0
40
0
40
1
40
1
40
1
40
1
41
1
10
165.268386954539
20
-9.68098536788236
30
0
41
1
10
166.845591303026
20
-6.46767457430286
30
0
41
1
10
168.422795651513
20
-3.2406432774369
30
0
41
1
10
170
20
-5.68E-14
30
0
0
SPLINE
5
14A
100
AcDbEntity
8
1
62
256
6
ByLayer
370
13
48
1
60
0
100
AcDbSpline
70
4
71
3
72
8
73
4
40
0
40
0
40
0
40
0
40
1
40
1
40
1
40
1
41
1
10
165.268386954539
20
-10.246812809796
30
0
41
1
10
166.845591303026
20
-6.81859062638318
30
0
41
1
10
168.422795651513
20
-3.40294816905356
30
0
41
1
10
170
20
-8.53E-14
30
0
0
SPLINE
5
14B
100
AcDbEntity
8
1
62
256
6
ByLayer
370
13
48
1
60
0
100
AcDbSpline
70
4
71
3
72
8
73
4
40
0
40
0
40
0
40
0
40
1
40
1
40
1
40
1
41
1
10
165.268386954539
20
-8.83429540736623
30
0
41
1
10
166.845591303026
20
-5.90457214020191
30
0
41
1
10
168.422795651513
20
-2.95977398440863
30
0
41
1
10
170
20
-5.68E-14
30
0
0
SPLINE
5
14C
100
AcDbEntity
8
1
62
256
6
ByLayer
370
13
48
1
60
0
100
AcDbSpline
70
4
71
3
72
8
73
4
40
0
40
0
40
0
40
0
40
1
40
1
40
1
40
1
41
1
10
165.268386954539
20
6.83416181404786
30
0
41
1
10
166.845591303026
20
4.53866609004447
30
0
41
1
10
168.422795651513
20
2.26058671643722
30
0
41
1
10
170
20
-2.842E-13
30
0
0
SPLINE
5
14D
100
AcDbEntity
8
1
62
256
6
ByLayer
370
13
48
1
60
0
100
AcDbSpline
70
4
71
3
72
8
73
4
40
0
40
0
40
0
40
0
40
1
40
1
40
1
40
1
41
1
10
165.268386954539
20
-12.5421560671145
30
0
41
1
10
166.845591303026
20
-8.36683093758316
30
0
41
1
10
168.422795651513
20
-4.18606542920338
30
0
41
1
10
170
20
-8.53E-14
30
0
0
SPLINE
5
14E
100
AcDbEntity
8
1
62
256
6
ByLayer
370
13
48
1
60
0
100
AcDbSpline
70
4
71
3
72
8
73
4
40
0
40
0
40
0
40
0
40
1
40
1
40
1
40
1
41
1
10
165.268386954539
20
-4.76799632383128
30
0
41
1
10
166.845591303026
20
-3.19773901493983
30
0
41
1
10
168.422795651513
20
-1.60838904474198
30
0
41
1
10
170
20
1.99E-13
30
0
0
LINE
5
7D
100
AcDbEntity
8
80
62
256
6
ByLayer
370
18
48
1
60
0
100
AcDbLine
10
0
20
0
30
0
11
-5
21
0
31
0
39
0
210
0
220
0
230
1
0
LINE
5
7E
100
AcDbEntity
8
4
62
256
6
ByLayer
370
18
48
0.05
60
0
100
AcDbLine
10
-5
20
0
30
0
11
175
21
0
31
0
39
0
210
0
220
0
230
1
0
LINE
5
80
100
AcDbEntity
8
81
62
256
6
ByLayer
370
18
48
1
60
0
100
AcDbLine
10
170
20
0
30
0
11
175
21
0
31
0
39
0
210
0
220
0
230
1
0
LINE
5
81
100
AcDbEntity
8
SK4
62
256
6
ByLayer
370
18
48
0.05
60
0
100
AcDbLine
10
-65
20
0
30
0
11
175
21
0
31
0
39
0
210
0
220
0
230
1
0
LINE
5
83
100
AcDbEntity
8
1
62
256
6
ByLayer
370
18
48
1
60
0
100
AcDbLine
10
0
20
16
30
0
11
0
21
-16
31
0
39
0
210
0
220
0
230
1
0
LINE
5
84
100
AcDbEntity
8
1
62
256
6
ByLayer
370
18
48
1
60
0
100
AcDbLine
10
165.268387
20
13
30
0
11
165.268387
21
12.587206
31
0
39
0
210
0
220
0
230
1
0
LINE
5
85
100
AcDbEntity
8
1
62
256
6
ByLayer
370
18
48
1
60
0
100
AcDbLine
10
165.268387
20
-13
30
0
11
165.268387
21
-1.855112
31
0
39
0
210
0
220
0
230
1
0
LINE
5
86
100
AcDbEntity
8
1
62
256
6
ByLayer
370
18
48
1
60
0
100
AcDbLine
10
10
20
-9.57968
30
0
11
10
21
11.335874
31
0
39
0
210
0
220
0
230
1
0
LINE
5
87
100
AcDbEntity
8
SK1
62
256
6
ByLayer
370
13
48
1
60
0
100
AcDbLine
10
-15.198909
20
-8.334638
30
0
11
-15.198909
21
8.334638
31
0
39
0
210
0
220
0
230
1
0
LINE
5
89
100
AcDbEntity
8
SK1
62
256
6
ByLayer
370
13
48
1
60
0
100
AcDbLine
10
-55.486983
20
5.39045
30
0
11
-55.486983
21
-5.39045
31
0
39
0
210
0
220
0
230
1
0
LINE
5
8A
100
AcDbEntity
8
SK1
62
256
6
ByLayer
370
18
48
1
60
0
100
AcDbLine
10
-60
20
-15
30
0
11
-60
21
15
31
0
39
0
210
0
220
0
230
1
0
LINE
5
8B
100
AcDbEntity
8
SK1
62
256
6
ByLayer
370
13
48
1
60
0
100
AcDbLine
10
-14.051873
20
7.587342
30
0
11
-14.051873
21
-7.587342
31
0
39
0
210
0
220
0
230
1
0
LINE
5
8C
100
AcDbEntity
8
SK1
62
256
6
ByLayer
370
13
48
1
60
0
100
AcDbLine
10
-56.60131
20
-3.674042
30
0
11
-56.60131
21
3.674042
31
0
39
0
210
0
220
0
230
1
0
LINE
5
8D
100
AcDbEntity
8
SK1
62
256
6
ByLayer
370
18
48
1
60
0
100
AcDbLine
10
-59
20
-16
30
0
11
-59
21
16
31
0
39
0
210
0
220
0
230
1
0
LINE
5
8E
100
AcDbEntity
8
SK1
62
256
6
ByLayer
370
18
48
1
60
0
100
AcDbLine
10
0
20
16
30
0
11
0
21
-16
31
0
39
0
210
0
220
0
230
1
0
LINE
5
8F
100
AcDbEntity
8
1
62
256
6
ByLayer
370
18
48
1
60
0
100
AcDbLine
10
44.246633
20
-12.8
30
0
11
103.839858
21
-12.8
31
0
39
0
210
0
220
0
230
1
0
LINE
5
90
100
AcDbEntity
8
1
62
256
6
ByLayer
370
18
48
1
60
0
100
AcDbLine
10
103.839858
20
12.8
30
0
11
44.246633
21
12.8
31
0
39
0
210
0
220
0
230
1
0
LINE
5
91
100
AcDbEntity
8
1
62
256
6
ByLayer
370
18
48
1
60
0
100
AcDbLine
10
170
20
0
30
0
11
165.268387
21
13
31
0
39
0
210
0
220
0
230
1
0
LINE
5
92
100
AcDbEntity
8
1
62
256
6
ByLayer
370
18
48
1
60
0
100
AcDbLine
10
165.268387
20
-13
30
0
11
170
21
0
31
0
39
0
210
0
220
0
230
1
0
LINE
5
93
100
AcDbEntity
8
1
62
256
6
ByLayer
370
18
48
1
60
0
100
AcDbLine
10
3.371252
20
14.921199
30
0
11
0
21
16
31
0
39
0
210
0
220
0
230
1
0
LINE
5
94
100
AcDbEntity
8
1
62
256
6
ByLayer
370
18
48
1
60
0
100
AcDbLine
10
0
20
-16
30
0
11
3.371252
21
-14.921199
31
0
39
0
210
0
220
0
230
1
0
LINE
5
95
100
AcDbEntity
8
1
62
256
6
ByLayer
370
18
48
1
60
0
100
AcDbLine
10
165.268387
20
13
30
0
11
153.6
21
13
31
0
39
0
210
0
220
0
230
1
0
LINE
5
96
100
AcDbEntity
8
1
62
256
6
ByLayer
370
18
48
1
60
0
100
AcDbLine
10
153.6
20
-13
30
0
11
165.268387
21
-13
31
0
39
0
210
0
220
0
230
1
0
LINE
5
97
100
AcDbEntity
8
1
62
256
6
ByLayer
370
18
48
1
60
0
100
AcDbLine
10
170
20
0
30
0
11
165.268387
21
13
31
0
39
0
210
0
220
0
230
1
0
LINE
5
98
100
AcDbEntity
8
1
62
256
6
ByLayer
370
18
48
1
60
0
100
AcDbLine
10
165.268387
20
-13
30
0
11
170
21
0
31
0
39
0
210
0
220
0
230
1
0
LINE
5
99
100
AcDbEntity
8
SK1
62
256
6
ByLayer
370
18
48
1
60
0
100
AcDbLine
10
-60
20
-15
30
0
11
-59
21
-16
31
0
39
0
210
0
220
0
230
1
0
LINE
5
9A
100
AcDbEntity
8
SK1
62
256
6
ByLayer
370
18
48
1
60
0
100
AcDbLine
10
-59
20
16
30
0
11
-60
21
15
31
0
39
0
210
0
220
0
230
1
0
LINE
5
9B
100
AcDbEntity
8
SK1
62
256
6
ByLayer
370
18
48
1
60
0
100
AcDbLine
10
-59
20
-16
30
0
11
0
21
-16
31
0
39
0
210
0
220
0
230
1
0
LINE
5
9C
100
AcDbEntity
8
SK1
62
256
6
ByLayer
370
18
48
1
60
0
100
AcDbLine
10
0
20
16
30
0
11
-59
21
16
31
0
39
0
210
0
220
0
230
1
0
LINE
5
9D
100
AcDbEntity
8
1
62
256
6
ByLayer
370
18
48
1
60
0
100
AcDbLine
10
165.268387
20
13
30
0
11
165.268387
21
-13
31
0
39
0
210
0
220
0
230
1
0
LINE
5
9E
100
AcDbEntity
8
1
62
256
6
ByLayer
370
18
48
1
60
0
100
AcDbLine
10
165.268387
20
13
30
0
11
165.268387
21
-13
31
0
39
0
210
0
220
0
230
1
0
LINE
5
9F
100
AcDbEntity
8
1
62
256
6
ByLayer
370
18
48
1
60
0
100
AcDbLine
10
165.268387
20
13
30
0
11
165.268387
21
-13
31
0
39
0
210
0
220
0
230
1
0
LINE
5
A0
100
AcDbEntity
8
1
62
256
6
ByLayer
370
18
48
1
60
0
100
AcDbLine
10
153.6
20
13
30
0
11
153.6
21
-13
31
0
39
0
210
0
220
0
230
1
0
LINE
5
A1
100
AcDbEntity
8
1
62
256
6
ByLayer
370
18
48
1
60
0
100
AcDbLine
10
153.6
20
13
30
0
11
153.6
21
-13
31
0
39
0
210
0
220
0
230
1
0
LINE
5
A2
100
AcDbEntity
8
1
62
256
6
ByLayer
370
18
48
1
60
0
100
AcDbLine
10
165.268387
20
13
30
0
11
165.268387
21
-13
31
0
39
0
210
0
220
0
230
1
0
LINE
5
A3
100
AcDbEntity
8
1
62
256
6
ByLayer
370
18
48
1
60
0
100
AcDbLine
10
153.6
20
13
30
0
11
153.6
21
-13
31
0
39
0
210
0
220
0
230
1
0
LINE
5
A4
100
AcDbEntity
8
1
62
256
6
ByLayer
370
18
48
1
60
0
100
AcDbLine
10
165.268387
20
13
30
0
11
165.268387
21
-13
31
0
39
0
210
0
220
0
230
1
0
LINE
5
A5
100
AcDbEntity
8
SK2
62
256
6
ByLayer
370
13
48
1
60
0
100
AcDbLine
10
-66.5
20
-16
30
0
11
-66.5
21
45.024569
31
0
39
0
210
0
220
0
230
1
0
LINE
5
A7
100
AcDbEntity
8
SK2
62
256
6
ByLayer
370
13
48
1
60
0
100
AcDbLine
10
-61.5875
20
16
30
0
11
-68.5
21
16
31
0
39
0
210
0
220
0
230
1
0
LINE
5
A8
100
AcDbEntity
8
SK2
62
256
6
ByLayer
370
13
48
1
60
0
100
AcDbLine
10
-61.5875
20
-16
30
0
11
-68.5
21
-16
31
0
39
0
210
0
220
0
230
1
0
LINE
5
A9
100
AcDbEntity
8
1
62
256
6
ByLayer
370
18
48
1
60
1
100
AcDbLine
10
-66.5
20
16
30
0
11
-66.039216
21
12.500002
31
0
39
0
210
0
220
0
230
1
0
LINE
5
AA
100
AcDbEntity
8
1
62
256
6
ByLayer
370
18
48
1
60
1
100
AcDbLine
10
-66.039216
20
12.500002
30
0
11
-66.960784
21
12.499998
31
0
39
0
210
0
220
0
230
1
0
LINE
5
AB
100
AcDbEntity
8
1
62
256
6
ByLayer
370
18
48
1
60
1
100
AcDbLine
10
-66.960784
20
12.499998
30
0
11
-66.5
21
16
31
0
39
0
210
0
220
0
230
1
0
LINE
5
AC
100
AcDbEntity
8
1
62
256
6
ByLayer
370
18
48
1
60
1
100
AcDbLine
10
-66.5
20
-16
30
0
11
-66.960784
21
-12.500002
31
0
39
0
210
0
220
0
230
1
0
LINE
5
AD
100
AcDbEntity
8
1
62
256
6
ByLayer
370
18
48
1
60
1
100
AcDbLine
10
-66.960784
20
-12.500002
30
0
11
-66.039216
21
-12.499998
31
0
39
0
210
0
220
0
230
1
0
LINE
5
AE
100
AcDbEntity
8
1
62
256
6
ByLayer
370
18
48
1
60
1
100
AcDbLine
10
-66.039216
20
-12.499998
30
0
11
-66.5
21
-16
31
0
39
0
210
0
220
0
230
1
0
LINE
5
AF
100
AcDbEntity
8
2
62
256
6
ByLayer
370
13
48
1
60
0
100
AcDbLine
10
177.5
20
-13
30
0
11
177.5
21
42.024569
31
0
39
0
210
0
220
0
230
1
0
LINE
5
B1
100
AcDbEntity
8
2
62
256
6
ByLayer
370
13
48
1
60
0
100
AcDbLine
10
166.855887
20
13
30
0
11
179.5
21
13
31
0
39
0
210
0
220
0
230
1
0
LINE
5
B2
100
AcDbEntity
8
2
62
256
6
ByLayer
370
13
48
1
60
0
100
AcDbLine
10
166.855887
20
-13
30
0
11
179.5
21
-13
31
0
39
0
210
0
220
0
230
1
0
LINE
5
B3
100
AcDbEntity
8
1
62
256
6
ByLayer
370
18
48
1
60
1
100
AcDbLine
10
177.5
20
13
30
0
11
177.960784
21
9.500002
31
0
39
0
210
0
220
0
230
1
0
LINE
5
B4
100
AcDbEntity
8
1
62
256
6
ByLayer
370
18
48
1
60
1
100
AcDbLine
10
177.960784
20
9.500002
30
0
11
177.039216
21
9.499998
31
0
39
0
210
0
220
0
230
1
0
LINE
5
B5
100
AcDbEntity
8
1
62
256
6
ByLayer
370
18
48
1
60
1
100
AcDbLine
10
177.039216
20
9.499998
30
0
11
177.5
21
13
31
0
39
0
210
0
220
0
230
1
0
LINE
5
B6
100
AcDbEntity
8
1
62
256
6
ByLayer
370
18
48
1
60
1
100
AcDbLine
10
177.5
20
-13
30
0
11
177.039216
21
-9.500002
31
0
39
0
210
0
220
0
230
1
0
LINE
5
B7
100
AcDbEntity
8
1
62
256
6
ByLayer
370
18
48
1
60
1
100
AcDbLine
10
177.039216
20
-9.500002
30
0
11
177.960784
21
-9.499998
31
0
39
0
210
0
220
0
230
1
0
LINE
5
B8
100
AcDbEntity
8
1
62
256
6
ByLayer
370
18
48
1
60
1
100
AcDbLine
10
177.960784
20
-9.499998
30
0
11
177.5
21
-13
31
0
39
0
210
0
220
0
230
1
0
LINE
5
B9
100
AcDbEntity
8
SK2
62
256
6
ByLayer
370
13
48
1
60
0
100
AcDbLine
10
170.542957
20
-1.491762
30
0
11
177.182423
21
-19.733545
31
0
39
0
210
0
220
0
230
1
0
LINE
5
BA
100
AcDbEntity
8
SK2
62
256
6
ByLayer
370
13
48
1
60
0
100
AcDbLine
10
170.542957
20
1.491762
30
0
11
177.182423
21
19.733545
31
0
39
0
210
0
220
0
230
1
0
LINE
5
BB
100
AcDbEntity
8
1
62
256
6
ByLayer
370
18
48
1
60
1
100
AcDbLine
10
176.498383
20
-17.85416
30
0
11
179.551575
21
-16.082064
31
0
39
0
210
0
220
0
230
1
0
LINE
5
BC
100
AcDbEntity
8
1
62
256
6
ByLayer
370
18
48
1
60
1
100
AcDbLine
10
179.551575
20
-16.082064
30
0
11
179.906196
21
-16.93267
31
0
39
0
210
0
220
0
230
1
0
LINE
5
BD
100
AcDbEntity
8
1
62
256
6
ByLayer
370
18
48
1
60
1
100
AcDbLine
10
179.906196
20
-16.93267
30
0
11
176.498383
21
-17.85416
31
0
39
0
210
0
220
0
230
1
0
LINE
5
BE
100
AcDbEntity
8
1
62
256
6
ByLayer
370
18
48
1
60
1
100
AcDbLine
10
176.498383
20
17.85416
30
0
11
179.906193
21
16.932671
31
0
39
0
210
0
220
0
230
1
0
LINE
5
BF
100
AcDbEntity
8
1
62
256
6
ByLayer
370
18
48
1
60
1
100
AcDbLine
10
179.906193
20
16.932671
30
0
11
179.551579
21
16.082063
31
0
39
0
210
0
220
0
230
1
0
LINE
5
C0
100
AcDbEntity
8
1
62
256
6
ByLayer
370
18
48
1
60
1
100
AcDbLine
10
179.551579
20
16.082063
30
0
11
176.498383
21
17.85416
31
0
39
0
210
0
220
0
230
1
0
LINE
5
153
100
AcDbEntity
8
1
62
256
6
ByLayer
370
18
48
1
60
1
100
AcDbLine
10
-66.5
20
16
30
0
11
-66.039216
21
12.500002
31
0
39
0
210
0
220
0
230
1
0
LINE
5
154
100
AcDbEntity
8
1
62
256
6
ByLayer
370
18
48
1
60
1
100
AcDbLine
10
-66.039216
20
12.500002
30
0
11
-66.960784
21
12.499998
31
0
39
0
210
0
220
0
230
1
0
LINE
5
155
100
AcDbEntity
8
1
62
256
6
ByLayer
370
18
48
1
60
1
100
AcDbLine
10
-66.960784
20
12.499998
30
0
11
-66.5
21
16
31
0
39
0
210
0
220
0
230
1
0
LINE
5
157
100
AcDbEntity
8
1
62
256
6
ByLayer
370
18
48
1
60
1
100
AcDbLine
10
-66.5
20
-16
30
0
11
-66.960784
21
-12.500002
31
0
39
0
210
0
220
0
230
1
0
LINE
5
158
100
AcDbEntity
8
1
62
256
6
ByLayer
370
18
48
1
60
1
100
AcDbLine
10
-66.960784
20
-12.500002
30
0
11
-66.039216
21
-12.499998
31
0
39
0
210
0
220
0
230
1
0
LINE
5
159
100
AcDbEntity
8
1
62
256
6
ByLayer
370
18
48
1
60
1
100
AcDbLine
10
-66.039216
20
-12.499998
30
0
11
-66.5
21
-16
31
0
39
0
210
0
220
0
230
1
0
LINE
5
15D
100
AcDbEntity
8
1
62
256
6
ByLayer
370
18
48
1
60
1
100
AcDbLine
10
177.5
20
13
30
0
11
177.960784
21
9.500002
31
0
39
0
210
0
220
0
230
1
0
LINE
5
15E
100
AcDbEntity
8
1
62
256
6
ByLayer
370
18
48
1
60
1
100
AcDbLine
10
177.960784
20
9.500002
30
0
11
177.039216
21
9.499998
31
0
39
0
210
0
220
0
230
1
0
LINE
5
15F
100
AcDbEntity
8
1
62
256
6
ByLayer
370
18
48
1
60
1
100
AcDbLine
10
177.039216
20
9.499998
30
0
11
177.5
21
13
31
0
39
0
210
0
220
0
230
1
0
LINE
5
161
100
AcDbEntity
8
1
62
256
6
ByLayer
370
18
48
1
60
1
100
AcDbLine
10
177.5
20
-13
30
0
11
177.039216
21
-9.500002
31
0
39
0
210
0
220
0
230
1
0
LINE
5
162
100
AcDbEntity
8
1
62
256
6
ByLayer
370
18
48
1
60
1
100
AcDbLine
10
177.039216
20
-9.500002
30
0
11
177.960784
21
-9.499998
31
0
39
0
210
0
220
0
230
1
0
LINE
5
163
100
AcDbEntity
8
1
62
256
6
ByLayer
370
18
48
1
60
1
100
AcDbLine
10
177.960784
20
-9.499998
30
0
11
177.5
21
-13
31
0
39
0
210
0
220
0
230
1
0
LINE
5
166
100
AcDbEntity
8
1
62
256
6
ByLayer
370
18
48
1
60
1
100
AcDbLine
10
176.498383
20
-17.85416
30
0
11
179.551575
21
-16.082064
31
0
39
0
210
0
220
0
230
1
0
LINE
5
167
100
AcDbEntity
8
1
62
256
6
ByLayer
370
18
48
1
60
1
100
AcDbLine
10
179.551575
20
-16.082064
30
0
11
179.906196
21
-16.93267
31
0
39
0
210
0
220
0
230
1
0
LINE
5
168
100
AcDbEntity
8
1
62
256
6
ByLayer
370
18
48
1
60
1
100
AcDbLine
10
179.906196
20
-16.93267
30
0
11
176.498383
21
-17.85416
31
0
39
0
210
0
220
0
230
1
0
LINE
5
16A
100
AcDbEntity
8
1
62
256
6
ByLayer
370
18
48
1
60
1
100
AcDbLine
10
176.498383
20
17.85416
30
0
11
179.906193
21
16.932671
31
0
39
0
210
0
220
0
230
1
0
LINE
5
16B
100
AcDbEntity
8
1
62
256
6
ByLayer
370
18
48
1
60
1
100
AcDbLine
10
179.906193
20
16.932671
30
0
11
179.551579
21
16.082063
31
0
39
0
210
0
220
0
230
1
0
LINE
5
16C
100
AcDbEntity
8
1
62
256
6
ByLayer
370
18
48
1
60
1
100
AcDbLine
10
179.551579
20
16.082063
30
0
11
176.498383
21
17.85416
31
0
39
0
210
0
220
0
230
1
0
MTEXT
5
14F
100
AcDbEntity
8
SK2
62
256
6
ByLayer
370
18
48
1
60
0
100
AcDbMText
10
-67.841114
20
27.658438
30
0
210
0
220
0
230
1
1
%%c
40
3
41
0
44
1.084337
50
90
71
7
72
5
7
iso_b_vert
0
MTEXT
5
152
100
AcDbEntity
8
SK2
62
256
6
ByLayer
370
18
48
1
60
0
100
AcDbMText
10
-67.841114
20
33.635
30
0
210
0
220
0
230
1
1
\W0.7513;32.000
40
3
41
0
44
1.084337
50
90
71
7
72
5
7
iso_b_vert
0
MTEXT
5
15B
100
AcDbEntity
8
2
62
256
6
ByLayer
370
18
48
1
60
0
100
AcDbMText
10
176.158886
20
24.658438
30
0
210
0
220
0
230
1
1
%%c
40
3
41
0
44
1.084337
50
90
71
7
72
5
7
iso_b_vert
0
MTEXT
5
15C
100
AcDbEntity
8
2
62
256
6
ByLayer
370
18
48
1
60
0
100
AcDbMText
10
176.158886
20
30.635
30
0
210
0
220
0
230
1
1
\W0.7513;26.000
40
3
41
0
44
1.084337
50
90
71
7
72
5
7
iso_b_vert
0
MTEXT
5
165
100
AcDbEntity
8
SK2
62
256
6
ByLayer
370
18
48
1
60
0
100
AcDbMText
10
189.909114
20
3.734657
30
0
210
0
220
0
230
1
1
\W0.7071;140%%d
40
3
41
0
44
1.084337
50
270
71
7
72
5
7
iso_b_vert
0
MTEXT
5
16E
100
AcDbEntity
8
SK6
62
256
6
ByLayer
370
18
48
1
60
0
100
AcDbMText
10
30.71286
20
-67.114886
30
0
210
0
220
0
230
1
1
\W0.7680;H85526.0
40
3
41
0
44
1.084337
50
0
71
7
72
5
7
iso_b_vert
0
HATCH
5
156
100
AcDbEntity
8
SK2
62
256
6
ByLayer
370
13
48
1
60
0
100
AcDbHatch
10
0
20
0
30
0
210
0
220
0
230
1
2
ANSI31
70
0
71
0
91
1
92
5
93
3
72
1
10
-66.5
20
16
11
-66.0392162584472
21
12.5000016925532
72
1
10
-66.0392162584472
20
12.5000016925532
11
-66.9607837415528
21
12.4999983074468
72
1
10
-66.9607837415528
20
12.4999983074468
11
-66.5
21
16
97
0
75
0
76
1
52
0
41
0.0062
77
0
78
1
53
45
43
0
44
0
45
-0.0139193969876572
46
0.0139193969876572
79
0
47
0
98
1
10
0
20
0
0
HATCH
5
15A
100
AcDbEntity
8
SK2
62
256
6
ByLayer
370
13
48
1
60
0
100
AcDbHatch
10
0
20
0
30
0
210
0
220
0
230
1
2
ANSI31
70
0
71
0
91
1
92
5
93
3
72
1
10
-66.5
20
-16
11
-66.9607837415528
21
-12.5000016925532
72
1
10
-66.9607837415528
20
-12.5000016925532
11
-66.0392162584472
21
-12.4999983074468
72
1
10
-66.0392162584472
20
-12.4999983074468
11
-66.5
21
-16
97
0
75
0
76
1
52
0
41
0.0062
77
0
78
1
53
45
43
0
44
0
45
-0.0139193969876572
46
0.0139193969876572
79
0
47
0
98
1
10
0
20
0
0
HATCH
5
160
100
AcDbEntity
8
2
62
256
6
ByLayer
370
13
48
1
60
0
100
AcDbHatch
10
0
20
0
30
0
210
0
220
0
230
1
2
ANSI31
70
0
71
0
91
1
92
5
93
3
72
1
10
177.5
20
13
11
177.960783741553
21
9.50000169255318
72
1
10
177.960783741553
20
9.50000169255318
11
177.039216258447
21
9.49999830744682
72
1
10
177.039216258447
20
9.49999830744682
11
177.5
21
13
97
0
75
0
76
1
52
0
41
0.0062
77
0
78
1
53
45
43
0
44
0
45
-0.0139193969876572
46
0.0139193969876572
79
0
47
0
98
1
10
0
20
0
0
HATCH
5
164
100
AcDbEntity
8
2
62
256
6
ByLayer
370
13
48
1
60
0
100
AcDbHatch
10
0
20
0
30
0
210
0
220
0
230
1
2
ANSI31
70
0
71
0
91
1
92
5
93
3
72
1
10
177.5
20
-13
11
177.039216258447
21
-9.50000169255318
72
1
10
177.039216258447
20
-9.50000169255318
11
177.960783741553
21
-9.49999830744682
72
1
10
177.960783741553
20
-9.49999830744682
11
177.5
21
-13
97
0
75
0
76
1
52
0
41
0.0062
77
0
78
1
53
45
43
0
44
0
45
-0.0139193969876572
46
0.0139193969876572
79
0
47
0
98
1
10
0
20
0
0
HATCH
5
169
100
AcDbEntity
8
SK2
62
256
6
ByLayer
370
13
48
1
60
0
100
AcDbHatch
10
0
20
0
30
0
210
0
220
0
230
1
2
ANSI31
70
0
71
0
91
1
92
5
93
3
72
1
10
176.498382723188
20
-17.8541597949322
11
179.551575425693
21
-16.0820638240607
72
1
10
179.551575425693
20
-16.0820638240607
11
179.906195833975
21
-16.9326700737196
72
1
10
179.906195833975
20
-16.9326700737196
11
176.498382723188
21
-17.8541597949322
97
0
75
0
76
1
52
0
41
0.0062
77
0
78
1
53
45
43
0
44
0
45
-0.0139193969876572
46
0.0139193969876572
79
0
47
0
98
1
10
0
20
0
0
HATCH
5
16D
100
AcDbEntity
8
SK2
62
256
6
ByLayer
370
13
48
1
60
0
100
AcDbHatch
10
0
20
0
30
0
210
0
220
0
230
1
2
ANSI31
70
0
71
0
91
1
92
5
93
3
72
1
10
176.498382723188
20
17.8541597949322
11
179.906192709519
21
16.9326713763016
72
1
10
179.906192709519
20
16.9326713763016
11
179.551578550149
21
16.0820625214787
72
1
10
179.551578550149
20
16.0820625214787
11
176.498382723188
21
17.8541597949322
97
0
75
0
76
1
52
0
41
0.0062
77
0
78
1
53
45
43
0
44
0
45
-0.0139193969876572
46
0.0139193969876572
79
0
47
0
98
1
10
0
20
0
0
DIMENSION
5
171
100
AcDbEntity
8
SK2
62
256
6
ByLayer
370
18
48
1
60
0
100
AcDbDimension
2
_U0
10
170
20
-45.952229
30
0
11
55
21
-45.952229
31
0
70
32
71
1
72
1
41
1
210
0
220
0
230
1
3
Standard
100
AcDbAlignedDimension
13
-60
23
-16
33
0
14
170
24
0
34
0
50
0
100
AcDbRotatedDimension
1001
ACAD
1000
DSTYLE
1002
{
1070
   371
1070
    13
1070
   372
1070
    13
1070
     3
1000

1070
   170
1070
     0
1070
   144
1040
1.0
1070
   277
1070
     2
1070
   284
1070
     8
1070
   278
1070
    46
1070
   146
1040
1.166667
1070
   345
1005
16
1070
   347
1005
16
1070
   346
1005
16
1070
   344
1005
0
1070
   343
1005
0
1070
   172
1070
     1
1070
    76
1070
     0
1070
    75
1070
     0
1070
   282
1070
     0
1070
   281
1070
     0
1070
    71
1070
     0
1070
    74
1070
     0
1070
   279
1070
     0
1070
   173
1070
     1
1070
   340
1005
150
1070
   271
1070
     2
1070
   272
1070
     3
1070
    77
1070
     1
1070
    73
1070
     1
1070
   171
1070
     3
1070
   274
1070
     4
1070
   177
1070
     2
1070
   176
1070
     2
1070
   178
1070
     2
1070
    78
1070
     8
1070
    48
1040
-0.1
1070
    41
1040
3.5
1070
   147
1040
1.5
1070
    42
1040
1.5875
1070
    44
1040
2.0
1070
   140
1040
3.0
1002
}
1001
ACAD_DSTYLE_DIM_LINETYPE
1070
   380
1005
16
1001
ACAD_DSTYLE_DIM_EXT1_LINETYPE
1070
   381
1005
16
1001
ACAD_DSTYLE_DIM_EXT2_LINETYPE
1070
   382
1005
16
0
DIMENSION
5
18A
100
AcDbEntity
8
SK2
62
256
6
ByLayer
370
18
48
1
60
0
100
AcDbDimension
2
_U1
10
3
20
-35.952229
30
0
11
86.5
21
-35.952229
31
0
70
32
71
1
72
1
41
1
210
0
220
0
230
1
3
Standard
100
AcDbAlignedDimension
13
170
23
0
33
0
14
3
24
-13
34
0
50
0
100
AcDbRotatedDimension
1001
ACAD
1000
DSTYLE
1002
{
1070
   371
1070
    13
1070
   372
1070
    13
1070
     3
1000

1070
   170
1070
     0
1070
   144
1040
1.0
1070
   277
1070
     2
1070
   284
1070
     8
1070
   278
1070
    46
1070
   146
1040
1.166667
1070
   345
1005
16
1070
   347
1005
16
1070
   346
1005
16
1070
   344
1005
0
1070
   343
1005
0
1070
   172
1070
     1
1070
    76
1070
     0
1070
    75
1070
     0
1070
   282
1070
     0
1070
   281
1070
     0
1070
    71
1070
     0
1070
    74
1070
     0
1070
   279
1070
     0
1070
   173
1070
     1
1070
   340
1005
150
1070
   271
1070
     2
1070
   272
1070
     3
1070
    77
1070
     1
1070
    73
1070
     1
1070
   171
1070
     3
1070
   274
1070
     4
1070
   177
1070
     2
1070
   176
1070
     2
1070
   178
1070
     2
1070
    78
1070
     8
1070
    48
1040
-0.1
1070
    41
1040
3.5
1070
   147
1040
1.5
1070
    42
1040
1.5875
1070
    44
1040
2.0
1070
   140
1040
3.0
1002
}
1001
ACAD_DSTYLE_DIM_LINETYPE
1070
   380
1005
16
1001
ACAD_DSTYLE_DIM_EXT1_LINETYPE
1070
   381
1005
16
1001
ACAD_DSTYLE_DIM_EXT2_LINETYPE
1070
   382
1005
16
0
DIMENSION
5
1A2
100
AcDbEntity
8
SK2
62
256
6
ByLayer
370
18
48
1
60
0
100
AcDbDimension
2
_U2
10
0
20
-35.952229
30
0
11
-30
21
-35.952229
31
0
70
32
71
1
72
1
41
1
210
0
220
0
230
1
3
Standard
100
AcDbAlignedDimension
13
-60
23
-16
33
0
14
0
24
-16
34
0
50
0
100
AcDbRotatedDimension
1001
ACAD
1000
DSTYLE
1002
{
1070
   371
1070
    13
1070
   372
1070
    13
1070
     3
1000

1070
   170
1070
     0
1070
   144
1040
1.0
1070
   277
1070
     2
1070
   284
1070
     8
1070
   278
1070
    46
1070
   146
1040
1.166667
1070
   345
1005
16
1070
   347
1005
16
1070
   346
1005
16
1070
   344
1005
0
1070
   343
1005
0
1070
   172
1070
     1
1070
    76
1070
     0
1070
    75
1070
     0
1070
   282
1070
     0
1070
   281
1070
     0
1070
    71
1070
     0
1070
    74
1070
     0
1070
   279
1070
     0
1070
   173
1070
     1
1070
   340
1005
150
1070
   271
1070
     2
1070
   272
1070
     3
1070
    77
1070
     1
1070
    73
1070
     1
1070
   171
1070
     3
1070
   274
1070
     4
1070
   177
1070
     2
1070
   176
1070
     2
1070
   178
1070
     2
1070
    78
1070
     8
1070
    48
1040
-0.1
1070
    41
1040
3.5
1070
   147
1040
1.5
1070
    42
1040
1.5875
1070
    44
1040
2.0
1070
   140
1040
3.0
1002
}
1001
ACAD_DSTYLE_DIM_LINETYPE
1070
   380
1005
16
1001
ACAD_DSTYLE_DIM_EXT1_LINETYPE
1070
   381
1005
16
1001
ACAD_DSTYLE_DIM_EXT2_LINETYPE
1070
   382
1005
16
0
DIMENSION
5
1BA
100
AcDbEntity
8
SK2
62
256
6
ByLayer
370
18
48
1
60
0
100
AcDbDimension
2
_U3
10
24
20
32.952229
30
0
11
97
21
32.952229
31
0
70
32
71
1
72
1
41
1
210
0
220
0
230
1
3
Standard
100
AcDbAlignedDimension
13
170
23
0
33
0
14
24
24
13
34
0
50
0
100
AcDbRotatedDimension
1001
ACAD
1000
DSTYLE
1002
{
1070
   371
1070
    13
1070
   372
1070
    13
1070
     3
1000

1070
   170
1070
     0
1070
   144
1040
1.0
1070
   277
1070
     2
1070
   284
1070
     8
1070
   278
1070
    46
1070
   146
1040
1.166667
1070
   345
1005
16
1070
   347
1005
16
1070
   346
1005
16
1070
   344
1005
0
1070
   343
1005
0
1070
   172
1070
     1
1070
    76
1070
     0
1070
    75
1070
     0
1070
   282
1070
     0
1070
   281
1070
     0
1070
    71
1070
     0
1070
    74
1070
     0
1070
   279
1070
     0
1070
   173
1070
     1
1070
   340
1005
150
1070
   271
1070
     2
1070
   272
1070
     3
1070
    77
1070
     1
1070
    73
1070
     1
1070
   171
1070
     3
1070
   274
1070
     4
1070
   177
1070
     2
1070
   176
1070
     2
1070
   178
1070
     2
1070
    78
1070
     8
1070
    48
1040
-0.1
1070
    41
1040
3.5
1070
   147
1040
1.5
1070
    42
1040
1.5875
1070
    44
1040
2.0
1070
   140
1040
3.0
1002
}
1001
ACAD_DSTYLE_DIM_LINETYPE
1070
   380
1005
16
1001
ACAD_DSTYLE_DIM_EXT1_LINETYPE
1070
   381
1005
16
1001
ACAD_DSTYLE_DIM_EXT2_LINETYPE
1070
   382
1005
16
0
ENDSEC
0
SECTION
2
OBJECTS
0
DICTIONARY
5
242
330
0
100
AcDbDictionary
280
0
281
1
3
ACAD_GROUP
350
243
3
ACAD_MLINESTYLE
350
244
0
DICTIONARY
5
243
330
0
100
AcDbDictionary
280
0
281
1
0
DICTIONARY
5
244
330
0
100
AcDbDictionary
280
0
281
1
3
Standard
350
18
0
MLINESTYLE
5
18
330
244
100
AcDbMlineStyle
2
Standard
70
0
3

62
256
51
90
52
90
71
2
49
-0.5
62
256
6
ByLayer
49
0.5
62
256
6
ByLayer
0
RASTERVARIABLES
5
230
330

100
AcDbRasterVariables
90
0
70
1
71
1
72
1
0
ENDSEC
0
EOF
