0
SECTION
2
HEADER
9
$ACADVER
1
AC1015
9
$DWGCODEPAGE
3
ANSI_1252
9
$HANDSEED
5
245
9
$ANGBASE
50
0
9
$ANGDIR
70
0
9
$ATTMODE
70
1
9
$AUNITS
70
0
9
$AUPREC
70
0
9
$CECOLOR
62
256
9
$CELTSCALE
40
1
9
$CELTYPE
6
ByLayer
9
$CELWEIGHT
370
18
9
$CLAYER
8
0
9
$CMLJUST
70
0
9
$CMLSCALE
40
1
9
$CMLSTYLE
2
Standard
9
$DIMSTYLE
2
Standard
9
$TEXTSIZE
40
0.2
9
$TEXTSTYLE
7
Standard
9
$LUNITS
70
2
9
$LUPREC
70
4
9
$EXTNAMES
290
1
9
$INSUNITS
70
4
9
$LTSCALE
40
1
9
$LWDISPLAY
290
1
9
$PDMODE
70
0
9
$PDSIZE
40
0
9
$PLINEGEN
70
0
0
ENDSEC
0
SECTION
2
CLASSES
0
CLASS
1
RASTERVARIABLES
2
AcDbRasterVariables
3
ISM
90
0
280
0
281
0
0
ENDSEC
0
SECTION
2
TABLES
0
TABLE
2
VPORT
5
23b
100
AcDbSymbolTable
0
VPORT
5
1
100
AcDbSymbolTableRecord
100
AcDbViewportTableRecord
2
*Active
70
0
10
0
20
0
11
1
21
1
12
-1
22
1
13
0
23
0
14
0.5
24
0.5
15
10
25
10
16
0
26
0
36
1
17
0
27
0
37
0
0
ENDTAB
0
TABLE
2
LTYPE
5
23c
100
AcDbSymbolTable
0
LTYPE
5
14
100
AcDbSymbolTableRecord
100
AcDbLinetypeTableRecord
70
0
2
ByBlock
3

72
65
73
0
40
0
0
LTYPE
5
15
100
AcDbSymbolTableRecord
100
AcDbLinetypeTableRecord
70
0
2
ByLayer
3

72
65
73
0
40
0
0
LTYPE
5
16
100
AcDbSymbolTableRecord
100
AcDbLinetypeTableRecord
70
0
2
Continuous
3
Solid line
72
65
73
0
40
0
0
LTYPE
5
6E
100
AcDbSymbolTableRecord
100
AcDbLinetypeTableRecord
70
0
2
CENTER
3
____ _ ____ _ ____ _ ____
72
65
73
4
40
47.5
49
22
74
0
49
-8.5
74
0
49
8.5
74
0
49
-8.5
74
0
0
LTYPE
5
6F
100
AcDbSymbolTableRecord
100
AcDbLinetypeTableRecord
70
0
2
DASHED
3
__ __ __ __ __ __ __ __ __
72
65
73
2
40
25.72
49
12.86
74
0
49
-12.86
74
0
0
ENDTAB
0
TABLE
2
LAYER
5
23d
100
AcDbSymbolTable
0
LAYER
5
10
100
AcDbSymbolTableRecord
100
AcDbLayerTableRecord
2
0
70
0
62
7
6
Continuous
290
1
370
-3
390
0
0
LAYER
5
71
100
AcDbSymbolTableRecord
100
AcDbLayerTableRecord
2
80
70
0
62
-6
6
Continuous
290
1
370
-3
390
0
0
LAYER
5
73
100
AcDbSymbolTableRecord
100
AcDbLayerTableRecord
2
81
70
0
62
-3
6
Continuous
290
1
370
-3
390
0
0
LAYER
5
75
100
AcDbSymbolTableRecord
100
AcDbLayerTableRecord
2
1
70
0
62
4
6
Continuous
290
1
370
-3
390
0
0
LAYER
5
7F
100
AcDbSymbolTableRecord
100
AcDbLayerTableRecord
2
4
70
0
62
-2
6
CENTER
290
1
370
-3
390
0
0
LAYER
5
B0
100
AcDbSymbolTableRecord
100
AcDbLayerTableRecord
2
2
70
0
62
7
6
Continuous
290
1
370
-3
390
0
0
LAYER
5
16A
100
AcDbSymbolTableRecord
100
AcDbLayerTableRecord
2
Defpoints
70
0
62
7
6
Continuous
290
0
370
-3
390
0
0
LAYER
5
227
100
AcDbSymbolTableRecord
100
AcDbLayerTableRecord
2
SK4
70
0
62
2
6
CENTER
290
1
370
-3
390
0
0
LAYER
5
228
100
AcDbSymbolTableRecord
100
AcDbLayerTableRecord
2
SK1
70
0
62
4
6
Continuous
290
1
370
-3
390
0
0
LAYER
5
229
100
AcDbSymbolTableRecord
100
AcDbLayerTableRecord
2
SK2
70
0
62
7
6
Continuous
290
1
370
-3
390
0
0
LAYER
5
22a
100
AcDbSymbolTableRecord
100
AcDbLayerTableRecord
2
SK6
70
0
62
5
6
Continuous
290
1
370
-3
390
0
0
ENDTAB
0
TABLE
2
STYLE
5
23e
100
AcDbSymbolTable
0
STYLE
5
11
100
AcDbSymbolTableRecord
100
AcDbTextStyleTableRecord
2
Standard
3
txt
70
0
71
0
40
0
41
1
42
0
50
0
0
STYLE
5
146
100
AcDbSymbolTableRecord
100
AcDbTextStyleTableRecord
2
iso_b_vert
3
simplex.shx
70
0
71
0
40
0
41
1
42
0
50
0
0
STYLE
5
147
100
AcDbSymbolTableRecord
100
AcDbTextStyleTableRecord
2
DWGDirectTextStyle
3
simplex
70
0
71
0
40
0
41
1
42
0
50
0
0
ENDTAB
0
TABLE
2
DIMSTYLE
5
23f
100
AcDbSymbolTable
100
AcDbDimStyleTable
0
DIMSTYLE
105
27
100
AcDbSymbolTableRecord
100
AcDbDimStyleTableRecord
2
Standard
70
0
3
<>
41
0.18
42
0.0625
44
0.18
140
0.18
147
0.09
73
0
74
0
77
1
271
2
275
0
278
52
280
0
340
11
0
ENDTAB
0
TABLE
2
VIEW
5
240
100
AcDbSymbolTable
0
ENDTAB
0
TABLE
2
UCS
5
241
100
AcDbSymbolTable
0
ENDTAB
0
TABLE
2
APPID
5
242
100
AcDbSymbolTable
0
APPID
5
12
100
AcDbSymbolTableRecord
100
AcDbRegAppTableRecord
2
ACAD
70
0
0
APPID
5
166
100
AcDbSymbolTableRecord
100
AcDbRegAppTableRecord
2
ACAD_DSTYLE_DIMBREAK
70
0
0
APPID
5
1E6
100
AcDbSymbolTableRecord
100
AcDbRegAppTableRecord
2
ACAD_DSTYLE_DIM_LINETYPE
70
0
0
APPID
5
1E7
100
AcDbSymbolTableRecord
100
AcDbRegAppTableRecord
2
ACAD_DSTYLE_DIM_EXT1_LINETYPE
70
0
0
APPID
5
1E8
100
AcDbSymbolTableRecord
100
AcDbRegAppTableRecord
2
ACAD_DSTYLE_DIM_EXT2_LINETYPE
70
0
0
APPID
5
223
100
AcDbSymbolTableRecord
100
AcDbRegAppTableRecord
2
ACAD_MLEADERVER
70
0
0
ENDTAB
0
TABLE
2
BLOCK_RECORD
5
243
100
AcDbSymbolTable
0
BLOCK_RECORD
5
1F
100
AcDbSymbolTableRecord
100
AcDbBlockTableRecord
2
*Model_Space
340
0
70
0
0
BLOCK_RECORD
5
1B
100
AcDbSymbolTableRecord
100
AcDbBlockTableRecord
2
*Paper_Space
340
0
70
0
0
BLOCK_RECORD
5
23
100
AcDbSymbolTableRecord
100
AcDbBlockTableRecord
2
*Paper_Space0
340
0
70
0
0
BLOCK_RECORD
5
16B
100
AcDbSymbolTableRecord
100
AcDbBlockTableRecord
2
*D1
340
0
70
0
0
BLOCK_RECORD
5
177
100
AcDbSymbolTableRecord
100
AcDbBlockTableRecord
2
_U0
340
0
70
0
0
BLOCK_RECORD
5
183
100
AcDbSymbolTableRecord
100
AcDbBlockTableRecord
2
*D3
340
0
70
0
0
BLOCK_RECORD
5
18F
100
AcDbSymbolTableRecord
100
AcDbBlockTableRecord
2
_U1
340
0
70
0
0
BLOCK_RECORD
5
19B
100
AcDbSymbolTableRecord
100
AcDbBlockTableRecord
2
*D5
340
0
70
0
0
BLOCK_RECORD
5
1A7
100
AcDbSymbolTableRecord
100
AcDbBlockTableRecord
2
_U2
340
0
70
0
0
BLOCK_RECORD
5
1B3
100
AcDbSymbolTableRecord
100
AcDbBlockTableRecord
2
*D7
340
0
70
0
0
BLOCK_RECORD
5
1BF
100
AcDbSymbolTableRecord
100
AcDbBlockTableRecord
2
_U3
340
0
70
0
0
ENDTAB
0
ENDSEC
0
SECTION
2
BLOCKS
0
BLOCK
5
20
100
AcDbEntity
8
0
100
AcDbBlockBegin
2
*Model_Space
70
0
10
0
20
0
30
0
3
*Model_Space
0
ENDBLK
5
21
100
AcDbEntity
8
0
100
AcDbBlockEnd
0
BLOCK
5
1C
100
AcDbEntity
8
0
100
AcDbBlockBegin
2
*Paper_Space
70
0
10
0
20
0
30
0
3
*Paper_Space
0
ENDBLK
5
1D
100
AcDbEntity
8
0
100
AcDbBlockEnd
0
BLOCK
5
24
100
AcDbEntity
8
0
100
AcDbBlockBegin
2
*Paper_Space0
70
0
10
0
20
0
30
0
3
*Paper_Space0
0
ENDBLK
5
25
100
AcDbEntity
8
0
100
AcDbBlockEnd
0
BLOCK
5
16C
100
AcDbEntity
8
0
100
AcDbBlockBegin
2
*D1
70
1
10
0
20
0
30
0
3
*D1
0
LINE
5
16E
100
AcDbEntity
8
0
62
256
6
ByLayer
370
-2
48
1
60
0
100
AcDbLine
10
-60
20
-17.4625
30
0
11
-60
21
-47.952229
31
0
39
0
210
0
220
0
230
1
0
LINE
5
16F
100
AcDbEntity
8
0
62
256
6
ByLayer
370
-2
48
1
60
0
100
AcDbLine
10
165
20
-1.5875
30
0
11
165
21
-47.952229
31
0
39
0
210
0
220
0
230
1
0
LINE
5
170
100
AcDbEntity
8
0
62
256
6
ByLayer
370
-2
48
1
60
0
100
AcDbLine
10
-56.5
20
-45.952229
30
0
11
161.5
21
-45.952229
31
0
39
0
210
0
220
0
230
1
0
SOLID
5
171
100
AcDbEntity
8
0
62
256
6
ByLayer
370
-1
48
1
60
0
100
AcDbTrace
10
-56.5
20
-45.368896
30
0
11
-56.5
21
-46.535563
31
0
12
-60
22
-45.952229
32
0
13
-60
23
-45.952229
33
0
39
0
210
0
220
0
230
1
0
SOLID
5
172
100
AcDbEntity
8
0
62
256
6
ByLayer
370
-1
48
1
60
0
100
AcDbTrace
10
161.5
20
-46.535563
30
0
11
161.5
21
-45.368896
31
0
12
165
22
-45.952229
32
0
13
165
23
-45.952229
33
0
39
0
210
0
220
0
230
1
0
MTEXT
5
173
100
AcDbEntity
8
0
62
256
6
ByLayer
370
18
48
1
60
0
100
AcDbMText
10
52.5
20
-39.952229
30
0
210
0
220
0
230
1
1
\A1;225
40
3
41
0
44
1
50
0
71
5
72
5
7
iso_b_vert
0
POINT
5
174
100
AcDbEntity
8
Defpoints
62
0
6
ByLayer
370
-1
48
1
60
0
100
AcDbPoint
10
-60
20
-15.875
30
0
39
0
210
0
220
0
230
1
50
360
0
POINT
5
175
100
AcDbEntity
8
Defpoints
62
0
6
ByLayer
370
-1
48
1
60
0
100
AcDbPoint
10
165
20
0
30
0
39
0
210
0
220
0
230
1
50
360
0
POINT
5
176
100
AcDbEntity
8
Defpoints
62
0
6
ByLayer
370
-1
48
1
60
0
100
AcDbPoint
10
165
20
-45.952229
30
0
39
0
210
0
220
0
230
1
50
360
0
ENDBLK
5
16D
100
AcDbEntity
8
0
100
AcDbBlockEnd
0
BLOCK
5
17E
100
AcDbEntity
8
0
100
AcDbBlockBegin
2
_U0
70
0
10
0
20
0
30
0
3
_U0
0
MTEXT
5
178
100
AcDbEntity
8
SK2
62
256
6
ByLayer
370
18
48
1
60
0
100
AcDbMText
10
46.896716
20
-45.067115
30
0
210
0
220
0
230
1
1
\W0.7513;225.00
40
3
41
0
44
1.084337
50
0
71
7
72
5
7
iso_b_vert
0
LINE
5
179
100
AcDbEntity
8
SK2
62
256
6
ByLayer
370
13
48
1
60
0
100
AcDbLine
10
-60
20
-17.4625
30
0
11
-60
21
-47.952229
31
0
39
0
210
0
220
0
230
1
0
LINE
5
17A
100
AcDbEntity
8
SK2
62
256
6
ByLayer
370
13
48
1
60
0
100
AcDbLine
10
165
20
-1.5875
30
0
11
165
21
-47.952229
31
0
39
0
210
0
220
0
230
1
0
LINE
5
17B
100
AcDbEntity
8
SK2
62
256
6
ByLayer
370
13
48
1
60
0
100
AcDbLine
10
-60
20
-45.952229
30
0
11
165
21
-45.952229
31
0
39
0
210
0
220
0
230
1
0
SOLID
5
17C
100
AcDbEntity
8
SK2
62
256
6
ByLayer
370
18
48
1
60
0
100
AcDbTrace
10
-60
20
-45.952229
30
0
11
-56.500002
21
-45.491446
31
0
12
-56.499998
22
-46.413013
32
0
13
-56.499998
23
-46.413013
33
0
39
0
210
0
220
0
230
1
0
SOLID
5
17D
100
AcDbEntity
8
SK2
62
256
6
ByLayer
370
18
48
1
60
0
100
AcDbTrace
10
165
20
-45.952229
30
0
11
161.500002
21
-46.413013
31
0
12
161.499998
22
-45.491446
32
0
13
161.499998
23
-45.491446
33
0
39
0
210
0
220
0
230
1
0
ENDBLK
5
17F
100
AcDbEntity
8
0
100
AcDbBlockEnd
0
BLOCK
5
184
100
AcDbEntity
8
0
100
AcDbBlockBegin
2
*D3
70
1
10
0
20
0
30
0
3
*D3
0
LINE
5
186
100
AcDbEntity
8
0
62
256
6
ByLayer
370
-2
48
1
60
0
100
AcDbLine
10
165
20
-1.5875
30
0
11
165
21
-37.952229
31
0
39
0
210
0
220
0
230
1
0
LINE
5
187
100
AcDbEntity
8
0
62
256
6
ByLayer
370
-2
48
1
60
0
100
AcDbLine
10
3
20
-14.486
30
0
11
3
21
-37.952229
31
0
39
0
210
0
220
0
230
1
0
LINE
5
188
100
AcDbEntity
8
0
62
256
6
ByLayer
370
-2
48
1
60
0
100
AcDbLine
10
161.5
20
-35.952229
30
0
11
6.5
21
-35.952229
31
0
39
0
210
0
220
0
230
1
0
SOLID
5
189
100
AcDbEntity
8
0
62
256
6
ByLayer
370
-1
48
1
60
0
100
AcDbTrace
10
161.5
20
-36.535563
30
0
11
161.5
21
-35.368896
31
0
12
165
22
-35.952229
32
0
13
165
23
-35.952229
33
0
39
0
210
0
220
0
230
1
0
SOLID
5
18A
100
AcDbEntity
8
0
62
256
6
ByLayer
370
-1
48
1
60
0
100
AcDbTrace
10
6.5
20
-35.368896
30
0
11
6.5
21
-36.535563
31
0
12
3
22
-35.952229
32
0
13
3
23
-35.952229
33
0
39
0
210
0
220
0
230
1
0
MTEXT
5
18B
100
AcDbEntity
8
0
62
256
6
ByLayer
370
18
48
1
60
0
100
AcDbMText
10
84
20
-29.952229
30
0
210
0
220
0
230
1
1
\A1;162
40
3
41
0
44
1
50
0
71
5
72
5
7
iso_b_vert
0
POINT
5
18C
100
AcDbEntity
8
Defpoints
62
0
6
ByLayer
370
-1
48
1
60
0
100
AcDbPoint
10
165
20
0
30
0
39
0
210
0
220
0
230
1
50
360
0
POINT
5
18D
100
AcDbEntity
8
Defpoints
62
0
6
ByLayer
370
-1
48
1
60
0
100
AcDbPoint
10
3
20
-12.8985
30
0
39
0
210
0
220
0
230
1
50
360
0
POINT
5
18E
100
AcDbEntity
8
Defpoints
62
0
6
ByLayer
370
-1
48
1
60
0
100
AcDbPoint
10
3
20
-35.952229
30
0
39
0
210
0
220
0
230
1
50
360
0
ENDBLK
5
185
100
AcDbEntity
8
0
100
AcDbBlockEnd
0
BLOCK
5
196
100
AcDbEntity
8
0
100
AcDbBlockBegin
2
_U1
70
0
10
0
20
0
30
0
3
_U1
0
MTEXT
5
190
100
AcDbEntity
8
SK2
62
256
6
ByLayer
370
18
48
1
60
0
100
AcDbMText
10
78.771658
20
-35.067115
30
0
210
0
220
0
230
1
1
\W0.7022;162.00
40
3
41
0
44
1.084337
50
0
71
7
72
5
7
iso_b_vert
0
LINE
5
191
100
AcDbEntity
8
SK2
62
256
6
ByLayer
370
13
48
1
60
0
100
AcDbLine
10
165
20
-1.5875
30
0
11
165
21
-37.952229
31
0
39
0
210
0
220
0
230
1
0
LINE
5
192
100
AcDbEntity
8
SK2
62
256
6
ByLayer
370
13
48
1
60
0
100
AcDbLine
10
3
20
-14.486
30
0
11
3
21
-37.952229
31
0
39
0
210
0
220
0
230
1
0
LINE
5
193
100
AcDbEntity
8
SK2
62
256
6
ByLayer
370
13
48
1
60
0
100
AcDbLine
10
165
20
-35.952229
30
0
11
3
21
-35.952229
31
0
39
0
210
0
220
0
230
1
0
SOLID
5
194
100
AcDbEntity
8
SK2
62
256
6
ByLayer
370
18
48
1
60
0
100
AcDbTrace
10
165
20
-35.952229
30
0
11
161.500002
21
-36.413013
31
0
12
161.499998
22
-35.491446
32
0
13
161.499998
23
-35.491446
33
0
39
0
210
0
220
0
230
1
0
SOLID
5
195
100
AcDbEntity
8
SK2
62
256
6
ByLayer
370
18
48
1
60
0
100
AcDbTrace
10
3
20
-35.952229
30
0
11
6.499998
21
-35.491446
31
0
12
6.500002
22
-36.413013
32
0
13
6.500002
23
-36.413013
33
0
39
0
210
0
220
0
230
1
0
ENDBLK
5
197
100
AcDbEntity
8
0
100
AcDbBlockEnd
0
BLOCK
5
19C
100
AcDbEntity
8
0
100
AcDbBlockBegin
2
*D5
70
1
10
0
20
0
30
0
3
*D5
0
LINE
5
19E
100
AcDbEntity
8
0
62
256
6
ByLayer
370
-2
48
1
60
0
100
AcDbLine
10
-60
20
-17.4625
30
0
11
-60
21
-37.952229
31
0
39
0
210
0
220
0
230
1
0
LINE
5
19F
100
AcDbEntity
8
0
62
256
6
ByLayer
370
-2
48
1
60
0
100
AcDbLine
10
0
20
-17.4625
30
0
11
0
21
-37.952229
31
0
39
0
210
0
220
0
230
1
0
LINE
5
1A0
100
AcDbEntity
8
0
62
256
6
ByLayer
370
-2
48
1
60
0
100
AcDbLine
10
-56.5
20
-35.952229
30
0
11
-3.5
21
-35.952229
31
0
39
0
210
0
220
0
230
1
0
SOLID
5
1A1
100
AcDbEntity
8
0
62
256
6
ByLayer
370
-1
48
1
60
0
100
AcDbTrace
10
-56.5
20
-35.368896
30
0
11
-56.5
21
-36.535563
31
0
12
-60
22
-35.952229
32
0
13
-60
23
-35.952229
33
0
39
0
210
0
220
0
230
1
0
SOLID
5
1A2
100
AcDbEntity
8
0
62
256
6
ByLayer
370
-1
48
1
60
0
100
AcDbTrace
10
-3.5
20
-36.535563
30
0
11
-3.5
21
-35.368896
31
0
12
0
22
-35.952229
32
0
13
0
23
-35.952229
33
0
39
0
210
0
220
0
230
1
0
MTEXT
5
1A3
100
AcDbEntity
8
0
62
256
6
ByLayer
370
18
48
1
60
0
100
AcDbMText
10
-30
20
-29.952229
30
0
210
0
220
0
230
1
1
\A1;60
40
3
41
0
44
1
50
0
71
5
72
5
7
iso_b_vert
0
POINT
5
1A4
100
AcDbEntity
8
Defpoints
62
0
6
ByLayer
370
-1
48
1
60
0
100
AcDbPoint
10
-60
20
-15.875
30
0
39
0
210
0
220
0
230
1
50
360
0
POINT
5
1A5
100
AcDbEntity
8
Defpoints
62
0
6
ByLayer
370
-1
48
1
60
0
100
AcDbPoint
10
0
20
-15.875
30
0
39
0
210
0
220
0
230
1
50
360
0
POINT
5
1A6
100
AcDbEntity
8
Defpoints
62
0
6
ByLayer
370
-1
48
1
60
0
100
AcDbPoint
10
0
20
-35.952229
30
0
39
0
210
0
220
0
230
1
50
360
0
ENDBLK
5
19D
100
AcDbEntity
8
0
100
AcDbBlockEnd
0
BLOCK
5
1AE
100
AcDbEntity
8
0
100
AcDbBlockBegin
2
_U2
70
0
10
0
20
0
30
0
3
_U2
0
MTEXT
5
1A8
100
AcDbEntity
8
SK2
62
256
6
ByLayer
370
18
48
1
60
0
100
AcDbMText
10
-34.48237
20
-35.067115
30
0
210
0
220
0
230
1
1
\W0.7468;60.00
40
3
41
0
44
1.084337
50
0
71
7
72
5
7
iso_b_vert
0
LINE
5
1A9
100
AcDbEntity
8
SK2
62
256
6
ByLayer
370
13
48
1
60
0
100
AcDbLine
10
-60
20
-17.4625
30
0
11
-60
21
-37.952229
31
0
39
0
210
0
220
0
230
1
0
LINE
5
1AA
100
AcDbEntity
8
SK2
62
256
6
ByLayer
370
13
48
1
60
0
100
AcDbLine
10
0
20
-17.4625
30
0
11
0
21
-37.952229
31
0
39
0
210
0
220
0
230
1
0
LINE
5
1AB
100
AcDbEntity
8
SK2
62
256
6
ByLayer
370
13
48
1
60
0
100
AcDbLine
10
-60
20
-35.952229
30
0
11
0
21
-35.952229
31
0
39
0
210
0
220
0
230
1
0
SOLID
5
1AC
100
AcDbEntity
8
SK2
62
256
6
ByLayer
370
18
48
1
60
0
100
AcDbTrace
10
-60
20
-35.952229
30
0
11
-56.500002
21
-35.491446
31
0
12
-56.499998
22
-36.413013
32
0
13
-56.499998
23
-36.413013
33
0
39
0
210
0
220
0
230
1
0
SOLID
5
1AD
100
AcDbEntity
8
SK2
62
256
6
ByLayer
370
18
48
1
60
0
100
AcDbTrace
10
0
20
-35.952229
30
0
11
-3.499998
21
-36.413013
31
0
12
-3.500002
22
-35.491446
32
0
13
-3.500002
23
-35.491446
33
0
39
0
210
0
220
0
230
1
0
ENDBLK
5
1AF
100
AcDbEntity
8
0
100
AcDbBlockEnd
0
BLOCK
5
1B4
100
AcDbEntity
8
0
100
AcDbBlockBegin
2
*D7
70
1
10
0
20
0
30
0
3
*D7
0
LINE
5
1B6
100
AcDbEntity
8
0
62
256
6
ByLayer
370
-2
48
1
60
0
100
AcDbLine
10
165
20
1.5875
30
0
11
165
21
34.952229
31
0
39
0
210
0
220
0
230
1
0
LINE
5
1B7
100
AcDbEntity
8
0
62
256
6
ByLayer
370
-2
48
1
60
0
100
AcDbLine
10
25
20
14.486
30
0
11
25
21
34.952229
31
0
39
0
210
0
220
0
230
1
0
LINE
5
1B8
100
AcDbEntity
8
0
62
256
6
ByLayer
370
-2
48
1
60
0
100
AcDbLine
10
161.5
20
32.952229
30
0
11
28.5
21
32.952229
31
0
39
0
210
0
220
0
230
1
0
SOLID
5
1B9
100
AcDbEntity
8
0
62
256
6
ByLayer
370
-1
48
1
60
0
100
AcDbTrace
10
161.5
20
32.368896
30
0
11
161.5
21
33.535563
31
0
12
165
22
32.952229
32
0
13
165
23
32.952229
33
0
39
0
210
0
220
0
230
1
0
SOLID
5
1BA
100
AcDbEntity
8
0
62
256
6
ByLayer
370
-1
48
1
60
0
100
AcDbTrace
10
28.5
20
33.535563
30
0
11
28.5
21
32.368896
31
0
12
25
22
32.952229
32
0
13
25
23
32.952229
33
0
39
0
210
0
220
0
230
1
0
MTEXT
5
1BB
100
AcDbEntity
8
0
62
256
6
ByLayer
370
18
48
1
60
0
100
AcDbMText
10
95
20
38.952229
30
0
210
0
220
0
230
1
1
\A1;140
40
3
41
0
44
1
50
0
71
5
72
5
7
iso_b_vert
0
POINT
5
1BC
100
AcDbEntity
8
Defpoints
62
0
6
ByLayer
370
-1
48
1
60
0
100
AcDbPoint
10
165
20
0
30
0
39
0
210
0
220
0
230
1
50
360
0
POINT
5
1BD
100
AcDbEntity
8
Defpoints
62
0
6
ByLayer
370
-1
48
1
60
0
100
AcDbPoint
10
25
20
12.8985
30
0
39
0
210
0
220
0
230
1
50
360
0
POINT
5
1BE
100
AcDbEntity
8
Defpoints
62
0
6
ByLayer
370
-1
48
1
60
0
100
AcDbPoint
10
25
20
32.952229
30
0
39
0
210
0
220
0
230
1
50
360
0
ENDBLK
5
1B5
100
AcDbEntity
8
0
100
AcDbBlockEnd
0
BLOCK
5
1C6
100
AcDbEntity
8
0
100
AcDbBlockBegin
2
_U3
70
0
10
0
20
0
30
0
3
_U3
0
MTEXT
5
1C0
100
AcDbEntity
8
SK2
62
256
6
ByLayer
370
18
48
1
60
0
100
AcDbMText
10
89.613715
20
33.837344
30
0
210
0
220
0
230
1
1
\W0.7237;140.00
40
3
41
0
44
1.084337
50
0
71
7
72
5
7
iso_b_vert
0
LINE
5
1C1
100
AcDbEntity
8
SK2
62
256
6
ByLayer
370
13
48
1
60
0
100
AcDbLine
10
165
20
1.5875
30
0
11
165
21
34.952229
31
0
39
0
210
0
220
0
230
1
0
LINE
5
1C2
100
AcDbEntity
8
SK2
62
256
6
ByLayer
370
13
48
1
60
0
100
AcDbLine
10
25
20
14.486
30
0
11
25
21
34.952229
31
0
39
0
210
0
220
0
230
1
0
LINE
5
1C3
100
AcDbEntity
8
SK2
62
256
6
ByLayer
370
13
48
1
60
0
100
AcDbLine
10
165
20
32.952229
30
0
11
25
21
32.952229
31
0
39
0
210
0
220
0
230
1
0
SOLID
5
1C4
100
AcDbEntity
8
SK2
62
256
6
ByLayer
370
18
48
1
60
0
100
AcDbTrace
10
165
20
32.952229
30
0
11
161.500002
21
32.491446
31
0
12
161.499998
22
33.413013
32
0
13
161.499998
23
33.413013
33
0
39
0
210
0
220
0
230
1
0
SOLID
5
1C5
100
AcDbEntity
8
SK2
62
256
6
ByLayer
370
18
48
1
60
0
100
AcDbTrace
10
25
20
32.952229
30
0
11
28.499998
21
33.413013
31
0
12
28.500002
22
32.491446
32
0
13
28.500002
23
32.491446
33
0
39
0
210
0
220
0
230
1
0
ENDBLK
5
1C7
100
AcDbEntity
8
0
100
AcDbBlockEnd
0
ENDSEC
0
SECTION
2
ENTITIES
0
ARC
5
C1
100
AcDbEntity
8
SK2
62
256
6
ByLayer
370
13
48
1
60
0
100
AcDbCircle
39
0
10
165
20
0
30
0
40
19
210
0
220
0
230
1
100
AcDbArc
50
290
51
70
0
ELLIPSE
5
C2
100
AcDbEntity
8
SK1
62
256
6
ByLayer
370
18
48
1
60
0
100
AcDbEllipse
10
-38.196323
20
0
30
0
11
-2.91609388003954E-15
21
-15.875
31
0
210
0
220
0
230
1
40
0.932515
41
-2.04476529460845
42
-1.09682735898134
0
ELLIPSE
5
C3
100
AcDbEntity
8
SK1
62
256
6
ByLayer
370
18
48
1
60
0
100
AcDbEllipse
10
-24.023853
20
0
30
0
11
17.0238532716365
21
-1.92897228726061E-14
31
0
210
0
220
0
230
1
40
0.932515
41
-0.473968967813626
42
0.473968967813628
0
POINT
5
70
100
AcDbEntity
8
80
62
256
6
ByLayer
370
18
48
1
60
0
100
AcDbPoint
10
0
20
0
30
0
39
0
210
0
220
0
230
1
50
360
0
POINT
5
72
100
AcDbEntity
8
81
62
256
6
ByLayer
370
18
48
1
60
0
100
AcDbPoint
10
165
20
0
30
0
39
0
210
0
220
0
230
1
50
360
0
POINT
5
74
100
AcDbEntity
8
1
62
256
6
ByLayer
370
18
48
1
60
1
100
AcDbPoint
10
-60
20
-15.875
30
0
39
0
210
0
220
0
230
1
50
360
0
POINT
5
76
100
AcDbEntity
8
1
62
256
6
ByLayer
370
18
48
1
60
1
100
AcDbPoint
10
165
20
0
30
0
39
0
210
0
220
0
230
1
50
360
0
POINT
5
77
100
AcDbEntity
8
1
62
256
6
ByLayer
370
18
48
1
60
1
100
AcDbPoint
10
165
20
0
30
0
39
0
210
0
220
0
230
1
50
360
0
POINT
5
78
100
AcDbEntity
8
1
62
256
6
ByLayer
370
18
48
1
60
1
100
AcDbPoint
10
3
20
-12.8985
30
0
39
0
210
0
220
0
230
1
50
360
0
POINT
5
79
100
AcDbEntity
8
1
62
256
6
ByLayer
370
18
48
1
60
1
100
AcDbPoint
10
-60
20
-15.875
30
0
39
0
210
0
220
0
230
1
50
360
0
POINT
5
7A
100
AcDbEntity
8
1
62
256
6
ByLayer
370
18
48
1
60
1
100
AcDbPoint
10
0
20
-15.875
30
0
39
0
210
0
220
0
230
1
50
360
0
POINT
5
7B
100
AcDbEntity
8
1
62
256
6
ByLayer
370
18
48
1
60
1
100
AcDbPoint
10
165
20
0
30
0
39
0
210
0
220
0
230
1
50
360
0
POINT
5
7C
100
AcDbEntity
8
1
62
256
6
ByLayer
370
18
48
1
60
1
100
AcDbPoint
10
25
20
12.8985
30
0
39
0
210
0
220
0
230
1
50
360
0
SPLINE
5
C4
100
AcDbEntity
8
1
62
256
6
ByLayer
370
18
48
1
60
0
100
AcDbSpline
70
4
71
3
72
26
73
22
40
0
40
0
40
0
40
0
40
0.124999999999995
40
0.124999999999995
40
0.249999999999991
40
0.249999999999991
40
0.374999999999986
40
0.374999999999986
40
0.437499999999984
40
0.437499999999984
40
0.468749999999985
40
0.468749999999985
40
0.499999999999986
40
0.499999999999986
40
0.624999999999989
40
0.624999999999989
40
0.749999999999993
40
0.749999999999993
40
0.874999999999996
40
0.874999999999996
40
1
40
1
40
1
40
1
41
1
10
10
20
-9.89269190167053
30
0
41
1
10
10.3981104734629
20
-9.81129961971715
30
0
41
1
10
10.799812960706
20
-9.74160614279907
30
0
41
1
10
11.6098556926622
20
-9.62655915932891
30
0
41
1
10
12.0182001324464
20
-9.58120926470761
30
0
41
1
10
12.8412280284975
20
-9.51544046854147
30
0
41
1
10
13.2559144942322
20
-9.49502811841018
30
0
41
1
10
13.8825732572816
20
-9.48317281079201
30
0
41
1
10
14.0922317957229
20
-9.48234367478051
30
0
41
1
10
14.4078659781006
20
-9.48574095712343
30
0
41
1
10
14.5129241381935
20
-9.48764333513745
30
0
41
1
10
14.7224808016586
20
-9.49293600771603
30
0
41
1
10
14.8270225923999
20
-9.49632675485319
30
0
41
1
10
15.3485830234188
20
-9.51687610198161
30
0
41
1
10
15.7621581486799
20
-9.54483819814826
30
0
41
1
10
16.582788225846
20
-9.6203163899022
30
0
41
1
10
16.9898407698333
20
-9.6678310823221
30
0
41
1
10
17.7982429870452
20
-9.7784961953806
30
0
41
1
10
18.1995931850179
20
-9.84163694561434
30
0
41
1
10
18.9974400787671
20
-9.97935694030863
30
0
41
1
10
19.39394109074
20
-10.053918252716
30
0
41
1
10
19.7884209477855
20
-10.1321706348619
30
0
0
SPLINE
5
C5
100
AcDbEntity
8
1
62
256
6
ByLayer
370
18
48
1
60
0
100
AcDbSpline
70
4
71
3
72
14
73
10
40
0
40
0
40
0
40
0
40
0.25
40
0.25
40
0.5
40
0.5
40
0.75
40
0.75
40
1
40
1
40
1
40
1
41
1
10
14.2568835911738
20
8.8932353861328
30
0
41
1
10
13.8890976016487
20
8.98289943346046
30
0
41
1
10
13.5250510334448
20
9.07661529352896
30
0
41
1
10
12.8033253070595
20
9.26927624695543
30
0
41
1
10
12.4456402119142
20
9.3682186554496
30
0
41
1
10
11.7361999586271
20
9.56952659020874
30
0
41
1
10
11.3844441393362
20
9.67190070039524
30
0
41
1
10
10.6872235355506
20
9.87927409699185
30
0
41
1
10
10.341762360687
20
9.98428986985061
30
0
41
1
10
10
20
10.0905258316939
30
0
0
SPLINE
5
C6
100
AcDbEntity
8
1
62
256
6
ByLayer
370
18
48
1
60
0
100
AcDbSpline
70
4
71
3
72
10
73
6
40
0
40
0
40
0
40
0
40
0.283827754562029
40
0.283827754562029
40
1
40
1
40
1
40
1
41
1
10
11.4517801773418
20
-9.65295435408933
30
0
41
1
10
11.3126448717418
20
-9.69360896372908
30
0
41
1
10
11.173992331903
20
-9.73449510149351
30
0
41
1
10
10.6872235355506
20
-9.87927409699188
30
0
41
1
10
10.3417623606869
20
-9.98428986985061
30
0
41
1
10
10
20
-10.0905258316939
30
0
0
SPLINE
5
C7
100
AcDbEntity
8
1
62
256
6
ByLayer
370
18
48
1
60
0
100
AcDbSpline
70
4
71
3
72
24
73
20
40
0
40
0
40
0
40
0
40
0.116607787212591
40
0.116607787212591
40
0.263839822677152
40
0.263839822677152
40
0.337455840409432
40
0.337455840409432
40
0.374263849275575
40
0.374263849275575
40
0.411071858141718
40
0.411071858141718
40
0.558303893606288
40
0.558303893606288
40
0.705535929070859
40
0.705535929070859
40
0.85276796453543
40
0.85276796453543
40
1
40
1
40
1
40
1
41
1
10
11.4579974602834
20
9.64977067067812
30
0
41
1
10
11.7798640211858
20
9.60823291919326
30
0
41
1
10
12.1037949913622
20
9.57436931328445
30
0
41
1
10
12.8412280284975
20
9.51544046854147
30
0
41
1
10
13.2559144942322
20
9.4950281184102
30
0
41
1
10
13.8825732572816
20
9.48317281079201
30
0
41
1
10
14.0922317957229
20
9.48234367478057
30
0
41
1
10
14.4078659781006
20
9.48574095712348
30
0
41
1
10
14.5129241381935
20
9.48764333513748
30
0
41
1
10
14.7224808016586
20
9.49293600771605
30
0
41
1
10
14.8270225923999
20
9.49632675485321
30
0
41
1
10
15.3485830234188
20
9.51687610198167
30
0
41
1
10
15.7621581486799
20
9.54483819814826
30
0
41
1
10
16.582788225846
20
9.62031638990223
30
0
41
1
10
16.9898407698333
20
9.66783108232215
30
0
41
1
10
17.7982429870452
20
9.77849619538068
30
0
41
1
10
18.1995931850179
20
9.84163694561437
30
0
41
1
10
18.9974400787671
20
9.97935694030863
30
0
41
1
10
19.3939410907401
20
10.0539182527161
30
0
41
1
10
19.7884209477855
20
10.132170634862
30
0
0
SPLINE
5
C8
100
AcDbEntity
8
1
62
256
6
ByLayer
370
18
48
1
60
0
100
AcDbSpline
70
4
71
3
72
207
73
203
40
0
40
0
40
0
40
0
40
0.0156250000000015
40
0.0156250000000015
40
0.0312500000000029
40
0.0312500000000029
40
0.0468750000000044
40
0.0468750000000044
40
0.0546875000000052
40
0.0546875000000052
40
0.0585937500000054
40
0.0585937500000054
40
0.0625000000000056
40
0.0625000000000056
40
0.0781250000000056
40
0.0781250000000056
40
0.0937500000000056
40
0.0937500000000056
40
0.109375000000006
40
0.109375000000006
40
0.117187500000006
40
0.117187500000006
40
0.121093750000005
40
0.121093750000005
40
0.125000000000005
40
0.125000000000005
40
0.132812500000005
40
0.132812500000005
40
0.140625000000004
40
0.140625000000004
40
0.156250000000003
40
0.156250000000003
40
0.171875000000001
40
0.171875000000001
40
0.175781250000001
40
0.175781250000001
40
0.179687500000001
40
0.179687500000001
40
0.187500000000001
40
0.187500000000001
40
0.203125
40
0.203125
40
0.218749999999999
40
0.218749999999999
40
0.234374999999998
40
0.234374999999998
40
0.238281249999998
40
0.238281249999998
40
0.242187499999997
40
0.242187499999997
40
0.249999999999997
40
0.249999999999997
40
0.257812499999996
40
0.257812499999996
40
0.265624999999995
40
0.265624999999995
40
0.281249999999994
40
0.281249999999994
40
0.296874999999993
40
0.296874999999993
40
0.300781249999992
40
0.300781249999992
40
0.304687499999992
40
0.312499999999992
40
0.312499999999992
40
0.328124999999991
40
0.343749999999991
40
0.343749999999991
40
0.351562499999991
40
0.355468749999991
40
0.355468749999991
40
0.359374999999991
40
0.359374999999991
40
0.374999999999989
40
0.374999999999989
40
0.382812499999989
40
0.382812499999989
40
0.390624999999988
40
0.390624999999988
40
0.406249999999987
40
0.406249999999987
40
0.414062499999986
40
0.414062499999986
40
0.421874999999986
40
0.421874999999986
40
0.437499999999985
40
0.437499999999985
40
0.453124999999985
40
0.453124999999985
40
0.468749999999984
40
0.468749999999984
40
0.476562499999984
40
0.476562499999984
40
0.480468749999983
40
0.480468749999983
40
0.484374999999983
40
0.484374999999983
40
0.49999999999998
40
0.49999999999998
40
0.507812499999979
40
0.507812499999979
40
0.515624999999978
40
0.515624999999978
40
0.531249999999976
40
0.531249999999976
40
0.535156249999975
40
0.535156249999975
40
0.539062499999974
40
0.539062499999974
40
0.546874999999973
40
0.546874999999973
40
0.562499999999972
40
0.562499999999972
40
0.570312499999971
40
0.570312499999971
40
0.57812499999997
40
0.57812499999997
40
0.593749999999969
40
0.593749999999969
40
0.601562499999968
40
0.601562499999968
40
0.609374999999968
40
0.609374999999968
40
0.624999999999967
40
0.624999999999967
40
0.640624999999967
40
0.640624999999967
40
0.648437499999966
40
0.648437499999966
40
0.656249999999965
40
0.656249999999965
40
0.660156249999965
40
0.660156249999965
40
0.664062499999965
40
0.671874999999965
40
0.671874999999965
40
0.687499999999965
40
0.687499999999965
40
0.695312499999965
40
0.695312499999965
40
0.703124999999964
40
0.703124999999964
40
0.710937499999964
40
0.710937499999964
40
0.714843749999964
40
0.714843749999964
40
0.718749999999964
40
0.718749999999964
40
0.734374999999963
40
0.734374999999963
40
0.749999999999963
40
0.749999999999963
40
0.765624999999962
40
0.765624999999962
40
0.773437499999962
40
0.773437499999962
40
0.777343749999962
40
0.777343749999962
40
0.781249999999962
40
0.781249999999962
40
0.796874999999963
40
0.796874999999963
40
0.812499999999963
40
0.812499999999963
40
0.820312499999964
40
0.820312499999964
40
0.828124999999964
40
0.828124999999964
40
0.835937499999964
40
0.835937499999964
40
0.839843749999965
40
0.839843749999965
40
0.843749999999965
40
0.843749999999965
40
0.859374999999967
40
0.859374999999967
40
0.874999999999969
40
0.874999999999969
40
0.890624999999971
40
0.890624999999971
40
0.894531249999971
40
0.894531249999971
40
0.898437499999972
40
0.898437499999972
40
0.906249999999973
40
0.906249999999973
40
0.914062499999975
40
0.914062499999975
40
0.921874999999976
40
0.921874999999976
40
0.93749999999998
40
0.93749999999998
40
0.953124999999983
40
0.953124999999983
40
0.957031249999984
40
0.957031249999984
40
0.960937499999985
40
0.968749999999988
40
0.968749999999988
40
0.984374999999994
40
0.984374999999994
40
1
40
1
40
1
40
1
41
1
10
19.7884209477858
20
10.132170634862
30
0
41
1
10
20.4629542934511
20
10.2625694463994
30
0
41
1
10
21.137472496979
20
10.3865303476576
30
0
41
1
10
22.4862244415628
20
10.6223518589196
30
0
41
1
10
23.1604573167675
20
10.7342123630592
30
0
41
1
10
24.5084041586571
20
10.9462835222927
30
0
41
1
10
25.1821168533881
20
11.0464956097065
30
0
41
1
10
26.192119993832
20
11.1882149625674
30
0
41
1
10
26.5286942036702
20
11.2340184732786
30
0
41
1
10
27.0333996459945
20
11.3005615447165
30
0
41
1
10
27.20160737729
20
11.3223836362607
30
0
41
1
10
27.5379750566066
20
11.3652969605048
30
0
41
1
10
27.7061409876868
20
11.3863810790468
30
0
41
1
10
28.5471515351379
20
11.4896588242334
30
0
41
1
10
29.2203968437589
20
11.56559689156
30
0
41
1
10
30.5674028468316
20
11.7047191928199
30
0
41
1
10
31.241172834327
20
11.7678916759176
30
0
41
1
10
32.5890222496097
20
11.8816626373158
30
0
41
1
10
33.2630964609835
20
11.9322648294123
30
0
41
1
10
34.2742773395606
20
11.9986875211617
30
0
41
1
10
34.6113503457016
20
12.0192455569819
30
0
41
1
10
35.1169658157491
20
12.0476803674969
30
0
41
1
10
35.2854993587898
20
12.0567602767736
30
0
41
1
10
35.6226641289705
20
12.0740716443583
30
0
41
1
10
35.7913020336899
20
12.0823009094742
30
0
41
1
10
36.2973743644434
20
12.1057214135793
30
0
41
1
10
36.6348561930644
20
12.1196407859367
30
0
41
1
10
37.3096223202248
20
12.1441371928799
30
0
41
1
10
37.6469596948846
20
12.1547168066852
30
0
41
1
10
38.6587911291461
20
12.1815040137795
30
0
41
1
10
39.3331071365433
20
12.1927680972806
30
0
41
1
10
40.6810363580821
20
12.2021799749651
30
0
41
1
10
41.3546435198333
20
12.2003272891085
30
0
41
1
10
42.1960785052308
20
12.1896837505718
30
0
41
1
10
42.3643370312239
20
12.1871380396532
30
0
41
1
10
42.7007945767124
20
12.1812069841186
30
0
41
1
10
42.8689861533702
20
12.1778200513026
30
0
41
1
10
43.3735478610443
20
12.1664062638394
30
0
41
1
10
43.7099976763363
20
12.1571457443616
30
0
41
1
10
44.7196283965781
20
12.1244954102053
30
0
41
1
10
45.3930276554188
20
12.0962333800347
30
0
41
1
10
46.7401662452255
20
12.0268080635176
30
0
41
1
10
47.4139147135294
20
11.9856474513645
30
0
41
1
10
48.7615363187504
20
11.8902517194307
30
0
41
1
10
49.4354043879085
20
11.83601229058
30
0
41
1
10
50.2777042243881
20
11.759776435672
30
0
41
1
10
50.4461591375178
20
11.7441040660465
30
0
41
1
10
50.7830811690039
20
11.7119205785783
30
0
41
1
10
50.951559334399
20
11.6954180381853
30
0
41
1
10
51.457178401614
20
11.6447951363825
30
0
41
1
10
51.7944634843736
20
11.6095281268575
30
0
41
1
10
52.4693956741802
20
11.5359523337348
30
0
41
1
10
52.8070237857703
20
11.497643629625
30
0
41
1
10
53.4819882634947
20
11.4180418784593
30
0
41
1
10
53.8194019513527
20
11.3767414357249
30
0
41
1
10
54.8313972991381
20
11.2483213346232
30
0
41
1
10
55.5057354118958
20
11.1566930967085
30
0
41
1
10
56.8535218072275
20
10.9610895173193
30
0
41
1
10
57.5269668607209
20
10.8571084902442
30
0
41
1
10
58.3681047430322
20
10.7191184196852
30
0
41
1
10
58.5362990121904
20
10.6911186604666
30
0
41
1
10
58.8727376444589
20
10.6344809863572
30
0
41
1
10
59.3774607859391
20
10.5485549375784
30
0
41
1
10
59.8823520079193
20
10.4597084730516
30
0
41
1
10
60.892288963973
20
10.2780668223726
30
0
41
1
10
62.2392753728796
20
10.0253481375629
30
0
41
1
10
63.5866149312747
20
9.75102042906454
30
0
41
1
10
64.5970771559082
20
9.53677840226959
30
0
41
1
10
65.1022984835761
20
9.42753183237673
30
0
41
1
10
65.6074827899003
20
9.31501774113696
30
0
41
1
10
65.9442619442543
20
9.23927250160833
30
0
41
1
10
66.1126384426497
20
9.20101630813053
30
0
41
1
10
66.954674833736
20
9.00823627392526
30
0
41
1
10
67.6290828225269
20
8.84979699052488
30
0
41
1
10
68.6416255429826
20
8.60551292147562
30
0
41
1
10
68.9793368107481
20
8.52296549310915
30
0
41
1
10
69.654441459293
20
8.35575027870777
30
0
41
1
10
69.9919035285719
20
8.27106665151186
30
0
41
1
10
71.003978471793
20
8.01370505871188
30
0
41
1
10
71.6782765656491
20
7.83771322862077
30
0
41
1
10
72.6889247232781
20
7.56666376447745
30
0
41
1
10
73.0256751638541
20
7.47513782534085
30
0
41
1
10
73.6988898994603
20
7.28966419263483
30
0
41
1
10
74.0353067431971
20
7.19560062157868
30
0
41
1
10
75.0448873158924
20
6.91156773765115
30
0
41
1
10
75.7182121271845
20
6.71937738120337
30
0
41
1
10
77.0650642781813
20
6.32864883723033
30
0
41
1
10
77.7386020184433
20
6.13013462383341
30
0
41
1
10
79.0856748444839
20
5.72624952412934
30
0
41
1
10
79.7592041519347
20
5.52086364092855
30
0
41
1
10
80.7693339313867
20
5.20713392622255
30
0
41
1
10
81.1060145747348
20
5.10160916363685
30
0
41
1
10
81.6109917560254
20
4.94188142066531
30
0
41
1
10
81.7793172784284
20
4.88841741818325
30
0
41
1
10
82.1160768536521
20
4.78134255642408
30
0
41
1
10
82.2845024707132
20
4.72770919388071
30
0
41
1
10
83.1268439620597
20
4.45902752563944
30
0
41
1
10
83.8013909091288
20
4.24241643610654
30
0
41
1
10
84.8139878636375
20
3.91442243642553
30
0
41
1
10
85.1517067896808
20
3.80456521455733
30
0
41
1
10
85.8269895974207
20
3.5838873732998
30
0
41
1
10
86.164576167896
20
3.47305927334247
30
0
41
1
10
87.177124643495
20
3.13897476837494
30
0
41
1
10
87.8518713756063
20
2.9141086834783
30
0
41
1
10
88.6948244867657
20
2.62996982351015
30
0
41
1
10
88.8633913057723
20
2.57298971088704
30
0
41
1
10
89.2004748467409
20
2.45871655235877
30
0
41
1
10
89.3689857472053
20
2.40140675892135
30
0
41
1
10
89.8745924403316
20
2.22943284944856
30
0
41
1
10
90.2117867351589
20
2.11479506575279
30
0
41
1
10
91.2236672036727
20
1.77072480004222
30
0
41
1
10
91.898639997381
20
1.54110568940476
30
0
41
1
10
92.911472723025
20
1.19575007371648
30
0
41
1
10
93.249204722459
20
1.08046198055882
30
0
41
1
10
93.9243998859426
20
0.84962840497613
30
0
41
1
10
94.2618737692085
20
0.734077828994828
30
0
41
1
10
95.2738795660194
20
0.386892797435991
30
0
41
1
10
95.9479921949736
20
0.154713762623118
30
0
41
1
10
96.9581851409782
20
-0.195025787845594
30
0
41
1
10
97.294727671685
20
-0.31192557585328
30
0
41
1
10
97.9680248797723
20
-0.544628251015041
30
0
41
1
10
98.304722218091
20
-0.660601309267889
30
0
41
1
10
99.3148912710759
20
-1.00759842949424
30
0
41
1
10
99.9884326422212
20
-1.23772321103959
30
0
41
1
10
101.335470434754
20
-1.69626845260012
30
0
41
1
10
102.008969984333
20
-1.9246798076428
30
0
41
1
10
103.019011284296
20
-2.26651357542394
30
0
41
1
10
103.355657084402
20
-2.38032718327648
30
0
41
1
10
104.028858015799
20
-2.60774925858792
30
0
41
1
10
104.365403475728
20
-2.72138540922887
30
0
41
1
10
104.870171943019
20
-2.8916284697824
30
0
41
1
10
105.038435881038
20
-2.94829487296875
30
0
41
1
10
105.375065358305
20
-3.06121952804722
30
0
41
1
10
105.880131831428
20
-3.23008064897738
30
0
41
1
10
106.385536588421
20
-3.39744953573415
30
0
41
1
10
107.396726638528
20
-3.73040496150267
30
0
41
1
10
108.0713602682
20
-3.95000115235877
30
0
41
1
10
109.083903255972
20
-4.27631430102306
30
0
41
1
10
109.42158434599
20
-4.38459299115945
30
0
41
1
10
110.09677684597
20
-4.60009364409038
30
0
41
1
10
110.434226416893
20
-4.70729644325309
30
0
41
1
10
111.108804280848
20
-4.92067360872403
30
0
41
1
10
111.445932904719
20
-5.02684701677109
30
0
41
1
10
111.951368668701
20
-5.18536579887027
30
0
41
1
10
112.119804165755
20
-5.23808238053988
30
0
41
1
10
112.456587824639
20
-5.34326958688629
30
0
41
1
10
112.624936797714
20
-5.39573757012496
30
0
41
1
10
113.466757349801
20
-5.65668059361445
30
0
41
1
10
114.140382166019
20
-5.86117672517454
30
0
41
1
10
115.487618409937
20
-6.26275149695624
30
0
41
1
10
116.161238356513
20
-6.45980607472688
30
0
41
1
10
117.508259351372
20
-6.84704340876854
30
0
41
1
10
118.181655469408
20
-7.03723822318852
30
0
41
1
10
119.191414343659
20
-7.31771360818553
30
0
41
1
10
119.527945791911
20
-7.4103988717635
30
0
41
1
10
120.032645944076
20
-7.54823303258203
30
0
41
1
10
120.200855362209
20
-7.59399640912713
30
0
41
1
10
120.537317526358
20
-7.68494868020329
30
0
41
1
10
120.705583907211
20
-7.73010666695777
30
0
41
1
10
121.547106818365
20
-7.95428173263815
30
0
41
1
10
122.220899046333
20
-8.12854731653309
30
0
41
1
10
123.569297380788
20
-8.46779964445201
30
0
41
1
10
124.243914406901
20
-8.63276107652803
30
0
41
1
10
125.256298355975
20
-8.87355048278738
30
0
41
1
10
125.593861058713
20
-8.95271044893184
30
0
41
1
10
126.269003731689
20
-9.10882617715797
30
0
41
1
10
126.606437803054
20
-9.18574857791393
30
0
41
1
10
127.281008651603
20
-9.33734148811934
30
0
41
1
10
127.618127066245
20
-9.41204567886552
30
0
41
1
10
128.123630270541
20
-9.52229705402624
30
0
41
1
10
128.292126273669
20
-9.5587023661202
30
0
41
1
10
128.629164513393
20
-9.63072469974486
30
0
41
1
10
128.797698604532
20
-9.66635681366316
30
0
41
1
10
129.640429059214
20
-9.84266212030573
30
0
41
1
10
130.314795975592
20
-9.97779680923864
30
0
41
1
10
131.663606174835
20
-10.2369213103979
30
0
41
1
10
132.338059140916
20
-10.3608939471848
30
0
41
1
10
133.686824259991
20
-10.5980023167255
30
0
41
1
10
134.361131015052
20
-10.7111450998814
30
0
41
1
10
135.20380610977
20
-10.8458276218414
30
0
41
1
10
135.37232900465
20
-10.8724285303344
30
0
41
1
10
135.709360846791
20
-10.9249402463979
30
0
41
1
10
135.877877152023
20
-10.9508407921798
30
0
41
1
10
136.383585015871
20
-11.0272745370773
30
0
41
1
10
136.720897954483
20
-11.0765913057097
30
0
41
1
10
137.395822866592
20
-11.1720442759091
30
0
41
1
10
137.733453735641
20
-11.2181834215283
30
0
41
1
10
138.408533883905
20
-11.3072924159094
30
0
41
1
10
138.746037729604
20
-11.3502688616375
30
0
41
1
10
139.758399267733
20
-11.4745331551504
30
0
41
1
10
140.4331091777
20
-11.5511624877751
30
0
41
1
10
141.781892421996
20
-11.692177332725
30
0
41
1
10
142.455962616972
20
-11.7565639246665
30
0
41
1
10
143.298039274988
20
-11.8293099975203
30
0
41
1
10
143.466424579914
20
-11.8434742269886
30
0
41
1
10
143.803249881367
20
-11.8709511091145
30
0
41
1
10
144.308578956769
20
-11.9108849238965
30
0
41
1
10
144.814153062271
20
-11.9470247387436
30
0
41
1
10
145.825556675184
20
-12.014344521002
30
0
41
1
10
146.500161134495
20
-12.0526217084527
30
0
41
1
10
147.84980848588
20
-12.116177812919
30
0
41
1
10
148.524852225631
20
-12.1414567012192
30
0
41
1
10
149.2
20
-12.1602014006095
30
0
0
SPLINE
5
C9
100
AcDbEntity
8
1
62
256
6
ByLayer
370
18
48
1
60
0
100
AcDbSpline
70
4
71
4
72
10
73
5
40
0
40
0
40
0
40
0
40
0
40
1
40
1
40
1
40
1
40
1
41
0.996439225845415
10
19.7884209477857
20
10.132170634862
30
0
41
0.995634332074264
10
19.7073466340998
20
9.460642641126
30
0
41
0.995202869843232
10
19.6013753623893
20
8.80365602227618
30
0
41
0.995480329666277
10
19.4717091568865
20
8.17941020729133
30
0
41
0.996183576602908
10
19.3228175343469
20
7.60152056345156
30
0
0
SPLINE
5
CA
100
AcDbEntity
8
1
62
256
6
ByLayer
370
18
48
1
60
0
100
AcDbSpline
70
4
71
3
72
158
73
154
40
0
40
0
40
0
40
0
40
0.0139937031492895
40
0.0139937031492895
40
0.0234745329267017
40
0.0234745329267017
40
0.0329553627041139
40
0.0329553627041139
40
0.051917022258939
40
0.051917022258939
40
0.0708786818137641
40
0.0708786818137641
40
0.080359511591177
40
0.080359511591177
40
0.0898403413685898
40
0.094580756257296
40
0.094580756257296
40
0.0993211711460021
40
0.0993211711460021
40
0.108802000923414
40
0.108802000923414
40
0.127763660478238
40
0.146725320033062
40
0.146725320033062
40
0.165686979587886
40
0.165686979587886
40
0.170427394476591
40
0.170427394476591
40
0.175167809365297
40
0.184648639142709
40
0.184648639142709
40
0.203610298697532
40
0.203610298697532
40
0.222571958252355
40
0.222571958252355
40
0.232052788029766
40
0.232052788029766
40
0.241533617807178
40
0.241533617807178
40
0.260495277362002
40
0.260495277362002
40
0.279456936916825
40
0.279456936916825
40
0.298418596471649
40
0.298418596471649
40
0.303159011360355
40
0.303159011360355
40
0.307899426249061
40
0.307899426249061
40
0.317380256026472
40
0.317380256026472
40
0.336341915581293
40
0.355303575136115
40
0.355303575136115
40
0.364784404913526
40
0.364784404913526
40
0.374265234690937
40
0.374265234690937
40
0.379005649579642
40
0.379005649579642
40
0.383746064468348
40
0.393226894245758
40
0.393226894245758
40
0.412188553800579
40
0.412188553800579
40
0.4311502133554
40
0.4311502133554
40
0.44063104313281
40
0.44063104313281
40
0.450111872910221
40
0.450111872910221
40
0.469073532465041
40
0.469073532465041
40
0.488035192019862
40
0.488035192019862
40
0.506996851574682
40
0.506996851574682
40
0.511737266463387
40
0.511737266463387
40
0.516477681352092
40
0.516477681352092
40
0.525958511129501
40
0.525958511129501
40
0.544920170684319
40
0.563881830239138
40
0.563881830239138
40
0.582843489793956
40
0.582843489793956
40
0.587583904682661
40
0.587583904682661
40
0.592324319571366
40
0.592324319571366
40
0.601805149348776
40
0.601805149348776
40
0.620766808903596
40
0.620766808903596
40
0.639728468458416
40
0.639728468458416
40
0.649209298235827
40
0.649209298235827
40
0.658690128013237
40
0.658690128013237
40
0.677651787568057
40
0.677651787568057
40
0.696613447122877
40
0.696613447122877
40
0.715575106677697
40
0.715575106677697
40
0.720315521566402
40
0.720315521566402
40
0.725055936455107
40
0.725055936455107
40
0.734536766232518
40
0.734536766232518
40
0.744017596009928
40
0.744017596009928
40
0.753498425787338
40
0.753498425787338
40
0.772460085342158
40
0.772460085342158
40
0.791421744896979
40
0.791421744896979
40
0.800902574674389
40
0.800902574674389
40
0.810383404451799
40
0.810383404451799
40
0.829345064006619
40
0.829345064006619
40
0.848306723561439
40
0.848306723561439
40
0.857787553338849
40
0.857787553338849
40
0.867268383116259
40
0.867268383116259
40
0.876749212893669
40
0.876749212893669
40
0.886230042671079
40
0.886230042671079
40
0.905191702225899
40
0.905191702225899
40
0.92415336178072
40
0.92415336178072
40
0.928893776669425
40
0.928893776669425
40
0.93363419155813
40
0.93363419155813
40
0.94311502133554
40
0.94311502133554
40
0.96207668089036
40
0.96207668089036
40
0.98103834044518
40
0.98103834044518
40
1
40
1
40
1
40
1
41
1
10
125.45740026634
20
-8.92393544399934
30
0
41
1
10
124.939134686422
20
-9.04529467825654
30
0
41
1
10
124.420927199585
20
-9.16386518250548
30
0
41
1
10
123.551768959643
20
-9.35814297458498
30
0
41
1
10
123.200773843758
20
-9.43534095895603
30
0
41
1
10
122.498877135657
20
-9.58721078598475
30
0
41
1
10
122.148000138734
20
-9.66192269956997
30
0
41
1
10
121.094903479605
20
-9.88116243096275
30
0
41
1
10
120.392377862152
20
-10.0211025742274
30
0
41
1
10
118.986494502737
20
-10.2888266576557
30
0
41
1
10
118.283138355937
20
-10.4166134558839
30
0
41
1
10
117.227552819053
20
-10.5992751925723
30
0
41
1
10
116.875584451088
20
-10.6586601828626
30
0
41
1
10
116.171537309497
20
-10.7744150720875
30
0
41
1
10
115.643752836526
20
-10.8589152627487
30
0
41
1
10
115.116364847703
20
-10.9399453492508
30
0
41
1
10
114.764863532128
20
-10.9931933369532
30
0
41
1
10
114.589162219318
20
-11.0194359437308
30
0
41
1
10
114.062072882928
20
-11.0968482985948
30
0
41
1
10
113.710698492171
20
-11.1467043624376
30
0
41
1
10
112.656640397086
20
-11.2910860421871
30
0
41
1
10
111.251402449207
20
-11.4697769892484
30
0
41
1
10
109.846687443284
20
-11.621353979779
30
0
41
1
10
108.442336501744
20
-11.7594360631592
30
0
41
1
10
107.740357046671
20
-11.821740490951
30
0
41
1
10
106.863169144257
20
-11.8910841090598
30
0
41
1
10
106.687734646603
20
-11.9045174570494
30
0
41
1
10
106.336798642279
20
-11.9304679725053
30
0
41
1
10
105.810318151341
20
-11.9680359217861
30
0
41
1
10
105.283612516363
20
-12.0015526090825
30
0
41
1
10
104.229917878732
20
-12.0632288832249
30
0
41
1
10
103.527076890692
20
-12.097210296279
30
0
41
1
10
102.120738024044
20
-12.1509849373
30
0
41
1
10
101.417237079347
20
-12.1707779412274
30
0
41
1
10
100.361572197336
20
-12.1897270216051
30
0
41
1
10
100.009564440216
20
-12.1942511486553
30
0
41
1
10
99.3060805498016
20
-12.1996743654138
30
0
41
1
10
98.954552656757
20
-12.2005698234106
30
0
41
1
10
97.8999450749096
20
-12.1978088005658
30
0
41
1
10
97.1970041557929
20
-12.1887350332679
30
0
41
1
10
95.7914588807624
20
-12.1563536543451
30
0
41
1
10
95.0888561198433
20
-12.1330458570564
30
0
41
1
10
93.6840853639686
20
-12.072208356401
30
0
41
1
10
92.9819168607626
20
-12.0346799014581
30
0
41
1
10
92.1045612503561
20
-11.9787391749981
30
0
41
1
10
91.9291079157164
20
-11.9670989156655
30
0
41
1
10
91.5782391373571
20
-11.9429080800077
30
0
41
1
10
91.4028270717645
20
-11.930354863319
30
0
41
1
10
90.8765216235985
20
-11.8914034983334
30
0
41
1
10
90.525562148441
20
-11.8637146684212
30
0
41
1
10
89.4724289470529
20
-11.7755246507289
30
0
41
1
10
88.0675721030695
20
-11.6442885489394
30
0
41
1
10
86.6615493724887
20
-11.4858315635334
30
0
41
1
10
85.606668855932
20
-11.3566456617779
30
0
41
1
10
85.2549821065426
20
-11.3118574468
30
0
41
1
10
84.551503532173
20
-11.2187812163807
30
0
41
1
10
84.1996968741193
20
-11.1704827080449
30
0
41
1
10
83.6719652384758
20
-11.0953964864904
30
0
41
1
10
83.4960771453773
20
-11.0699464941501
30
0
41
1
10
83.1442759815718
20
-11.0182921242101
30
0
41
1
10
82.6165607496519
20
-10.9396503442171
30
0
41
1
10
82.0888085531518
20
-10.8575435090382
30
0
41
1
10
81.0332703620265
20
-10.6887273429406
30
0
41
1
10
80.329532791086
20
-10.5700530990224
30
0
41
1
10
78.9220655999359
20
-10.3203737009188
30
0
41
1
10
78.2183328060105
20
-10.1893739344245
30
0
41
1
10
77.1628264857238
20
-9.9834091648479
30
0
41
1
10
76.8110067432005
20
-9.91317478942725
30
0
41
1
10
76.1074157503424
20
-9.769486698447
30
0
41
1
10
75.7555962165698
20
-9.6959860733821
30
0
41
1
10
74.7001836581239
20
-9.47186891263098
30
0
41
1
10
73.9967871158238
20
-9.31734460730547
30
0
41
1
10
72.5904897428693
20
-8.99809557400448
30
0
41
1
10
71.8875904711889
20
-8.83336785140597
30
0
41
1
10
70.4823847093417
20
-8.49354723218573
30
0
41
1
10
69.7800778586984
20
-8.31845576430678
30
0
41
1
10
68.9026492637341
20
-8.09286927119194
30
0
41
1
10
68.7271864012551
20
-8.04741524659337
30
0
41
1
10
68.3763083633271
20
-7.95582638812775
30
0
41
1
10
68.200894830584
20
-7.90968748730148
30
0
41
1
10
67.6745937205813
20
-7.77054242276205
30
0
41
1
10
67.3236574759216
20
-7.67678332206737
30
0
41
1
10
66.2706546720138
20
-7.39252297717385
30
0
41
1
10
64.8661335529228
20
-7.00556277723189
30
0
41
1
10
63.4607687461098
20
-6.60241834632365
30
0
41
1
10
62.0550822340414
20
-6.19088468923852
30
0
41
1
10
61.3520975176115
20
-5.98087322338307
30
0
41
1
10
60.4732014433528
20
-5.71290666147854
30
0
41
1
10
60.2973988737418
20
-5.65907989027789
30
0
41
1
10
59.945684842488
20
-5.5511253510013
30
0
41
1
10
59.7697809576478
20
-5.49697772132709
30
0
41
1
10
59.241930462459
20
-5.33402243323664
30
0
41
1
10
58.889974414991
20
-5.22474262437319
30
0
41
1
10
57.8344880753434
20
-4.89511668918885
30
0
41
1
10
57.131119425692
20
-4.672919831819
30
0
41
1
10
55.7250510764874
20
-4.22341206008946
30
0
41
1
10
55.0223482446082
20
-3.99610992753802
30
0
41
1
10
53.9688843848225
20
-3.65106052821201
30
0
41
1
10
53.6178284460466
20
-3.53536015807336
30
0
41
1
10
52.9159322561814
20
-3.30253305603475
30
0
41
1
10
52.5651040650495
20
-3.18537084163626
30
0
41
1
10
51.5123229093746
20
-2.83349648905889
30
0
41
1
10
50.8102513916077
20
-2.59789893422354
30
0
41
1
10
49.405760104184
20
-2.12447137101495
30
0
41
1
10
48.7033419176028
20
-1.88663685923549
30
0
41
1
10
47.2982565655152
20
-1.40844680728674
30
0
41
1
10
46.5955891345847
20
-1.16809231495174
30
0
41
1
10
45.7171771183798
20
-0.865814311486133
30
0
41
1
10
45.5414909639278
20
-0.805266427179816
30
0
41
1
10
45.1901124488676
20
-0.683980967041833
30
0
41
1
10
45.0144210152173
20
-0.62324048488
30
0
41
1
10
44.4872043542531
20
-0.441129209555726
30
0
41
1
10
44.1355517044746
20
-0.319824838769705
30
0
41
1
10
43.4319062836528
20
-0.0773999888923811
30
0
41
1
10
43.0798363156224
20
0.0437474283401968
30
0
41
1
10
42.3758813227119
20
0.285715679526504
30
0
41
1
10
42.023976061981
20
0.406543410700095
30
0
41
1
10
40.9684940930921
20
0.768613511089029
30
0
41
1
10
40.2651501606703
20
1.00944115535583
30
0
41
1
10
38.8591872537208
20
1.49029287321855
30
0
41
1
10
38.1565909933239
20
1.73038284702901
30
0
41
1
10
37.1032871691257
20
2.09001714192505
30
0
41
1
10
36.7521787998458
20
2.20950627432194
30
0
41
1
10
36.0498084404281
20
2.44731126640076
30
0
41
1
10
35.6985684003515
20
2.5656905913585
30
0
41
1
10
34.6447001122381
20
2.91931404175213
30
0
41
1
10
33.9419234556592
20
3.15304436380635
30
0
41
1
10
32.5360737731792
20
3.6167612173748
30
0
41
1
10
31.8329976190872
20
3.84673909288475
30
0
41
1
10
30.7782452730922
20
4.18911149660624
30
0
41
1
10
30.4266382958956
20
4.30280329374452
30
0
41
1
10
29.7233947101122
20
4.52935877067816
30
0
41
1
10
29.3717653761949
20
4.64224120019881
30
0
41
1
10
28.6680629784446
20
4.86603464470593
30
0
41
1
10
28.3161116093987
20
4.97704830989639
30
0
41
1
10
27.6124384480816
20
5.19721757571389
30
0
41
1
10
27.2606549193056
20
5.30639338786017
30
0
41
1
10
26.2054789197337
20
5.63125707590402
30
0
41
1
10
25.5022614265656
20
5.84428622430627
30
0
41
1
10
24.0963874802767
20
6.26352256875415
30
0
41
1
10
23.3937308527438
20
6.46972994770394
30
0
41
1
10
22.5158458595949
20
6.72337857861262
30
0
41
1
10
22.3402910544753
20
6.77390341121566
30
0
41
1
10
21.9892259563969
20
6.87454083942433
30
0
41
1
10
21.8137149991803
20
6.92465144647477
30
0
41
1
10
21.2871117363434
20
7.07403332856413
30
0
41
1
10
20.9359700606281
20
7.1724068922762
30
0
41
1
10
19.8823412087935
20
7.46394775303725
30
0
41
1
10
19.1796524985981
20
7.65354429414529
30
0
41
1
10
17.7738153677476
20
8.02345821772741
30
0
41
1
10
17.0706649553908
20
8.20377163134691
30
0
41
1
10
15.6640048111697
20
8.55529367239433
30
0
41
1
10
14.9604958048572
20
8.72650502777404
30
0
41
1
10
14.2568835911741
20
8.8932353861324
30
0
0
SPLINE
5
CB
100
AcDbEntity
8
1
62
256
6
ByLayer
370
18
48
1
60
0
100
AcDbSpline
70
4
71
3
72
18
73
14
40
0
40
0
40
0
40
0
40
0.250000000000005
40
0.250000000000005
40
0.50000000000001
40
0.50000000000001
40
0.625000000000012
40
0.625000000000012
40
0.68750000000001
40
0.68750000000001
40
0.750000000000008
40
0.750000000000008
40
1
40
1
40
1
40
1
41
1
10
160.305329933311
20
-1.83770619417749
30
0
41
1
10
159.379394894487
20
-1.50306761850027
30
0
41
1
10
158.45356533437
20
-1.16832716426862
30
0
41
1
10
156.60237153381
20
-0.497932021967273
30
0
41
1
10
155.677001704437
20
-0.162292740028306
30
0
41
1
10
154.289555490414
20
0.342566829144573
30
0
41
1
10
153.827180458162
20
0.511102204760761
30
0
41
1
10
153.133795262032
20
0.764323946177626
30
0
41
1
10
152.902673202195
20
0.848736898375648
30
0
41
1
10
152.440289099055
20
1.01715324645593
30
0
41
1
10
152.209045493719
20
1.10120750792981
30
0
41
1
10
151.052579668032
20
1.52073708847425
30
0
41
1
10
150.126615281769
20
1.85399102258836
30
0
41
1
10
149.2
20
2.18526476888368
30
0
0
SPLINE
5
CC
100
AcDbEntity
8
1
62
256
6
ByLayer
370
18
48
1
60
0
100
AcDbSpline
70
4
71
3
72
94
73
90
40
0
40
0
40
0
40
0
40
0.0312499999999998
40
0.0312499999999998
40
0.0624999999999997
40
0.0624999999999997
40
0.0937499999999995
40
0.0937499999999995
40
0.124999999999999
40
0.124999999999999
40
0.140625
40
0.140625
40
0.1484375
40
0.1484375
40
0.15625
40
0.187500000000003
40
0.187500000000003
40
0.218750000000006
40
0.218750000000006
40
0.250000000000009
40
0.250000000000009
40
0.281250000000012
40
0.281250000000012
40
0.296875000000013
40
0.296875000000013
40
0.312500000000015
40
0.312500000000015
40
0.343750000000016
40
0.343750000000016
40
0.375000000000018
40
0.375000000000018
40
0.40625000000002
40
0.40625000000002
40
0.437500000000022
40
0.437500000000022
40
0.445312500000022
40
0.445312500000022
40
0.453125000000023
40
0.468750000000024
40
0.468750000000024
40
0.500000000000025
40
0.500000000000025
40
0.531250000000027
40
0.531250000000027
40
0.535156250000027
40
0.535156250000027
40
0.539062500000027
40
0.539062500000027
40
0.546875000000027
40
0.562500000000027
40
0.562500000000027
40
0.593750000000026
40
0.593750000000026
40
0.625000000000025
40
0.625000000000025
40
0.632812500000025
40
0.632812500000025
40
0.640625000000024
40
0.656250000000023
40
0.656250000000023
40
0.68750000000002
40
0.68750000000002
40
0.718750000000017
40
0.718750000000017
40
0.726562500000016
40
0.726562500000016
40
0.734375000000016
40
0.734375000000016
40
0.750000000000015
40
0.750000000000015
40
0.781250000000014
40
0.781250000000014
40
0.812500000000012
40
0.812500000000012
40
0.84375000000001
40
0.84375000000001
40
0.85156250000001
40
0.85156250000001
40
0.859375000000009
40
0.875000000000009
40
0.875000000000009
40
0.906250000000007
40
0.937500000000006
40
0.968750000000004
40
0.968750000000004
40
0.976562500000003
40
0.976562500000003
40
0.984375000000002
40
1
40
1
40
1
40
1
41
1
10
160.305329933317
20
12.4889361756711
30
0
41
1
10
160.385900163394
20
12.2891350502672
30
0
41
1
10
160.46659669778
20
12.0863405914773
30
0
41
1
10
160.628378772538
20
11.6752385031689
30
0
41
1
10
160.709464171997
20
11.4669297985209
30
0
41
1
10
160.872119549903
20
11.0451409223103
30
0
41
1
10
160.953689582359
20
10.8316601963999
30
0
41
1
10
161.117370859766
20
10.3997651586087
30
0
41
1
10
161.199482383051
20
10.1813506016123
30
0
41
1
10
161.323065212486
20
9.85013782827778
30
0
41
1
10
161.364328378459
20
9.73913438178977
30
0
41
1
10
161.426323810315
20
9.57173781825094
30
0
41
1
10
161.447020026971
20
9.51575151359268
30
0
41
1
10
161.488371587921
20
9.40368183314251
30
0
41
1
10
161.591598954482
20
9.12339642027865
30
0
41
1
10
161.694078854212
20
8.84256377576671
30
0
41
1
10
161.857023057055
20
8.39252640516347
30
0
41
1
10
161.937984345761
20
8.16715547762365
30
0
41
1
10
162.098699485042
20
7.71565645755192
30
0
41
1
10
162.178455177282
20
7.48952901016418
30
0
41
1
10
162.336416576437
20
7.03640350130215
30
0
41
1
10
162.414625460337
20
6.8094065792248
30
0
41
1
10
162.530345571101
20
6.46810761221622
30
0
41
1
10
162.568651306371
20
6.35420657312463
30
0
41
1
10
162.64462349092
20
6.12609797716914
30
0
41
1
10
162.682308992106
20
6.0118292849092
30
0
41
1
10
162.793672849668
20
5.67015829118921
30
0
41
1
10
162.865855175398
20
5.44336655681147
30
0
41
1
10
163.004779962111
20
4.99138586044
30
0
41
1
10
163.071531564429
20
4.76619833594219
30
0
41
1
10
163.19756666195
20
4.31695524723042
30
0
41
1
10
163.256860751274
20
4.09290064192356
30
0
41
1
10
163.364926368604
20
3.64531438623331
30
0
41
1
10
163.413702657223
20
3.42178088355888
30
0
41
1
10
163.465377951181
20
3.14222516485697
30
0
41
1
10
163.475252771245
20
3.08626020904751
30
0
41
1
10
163.493950969762
20
2.97451604962606
30
0
41
1
10
163.520372621407
20
2.80748708536586
30
0
41
1
10
163.541633422741
20
2.64224165834389
30
0
41
1
10
163.576582579683
20
2.31421848584085
30
0
41
1
10
163.589711000392
20
2.09881514800406
30
0
41
1
10
163.593171868907
20
1.67532330434
30
0
41
1
10
163.58348429265
20
1.46723770292675
30
0
41
1
10
163.559845516063
20
1.23786381897983
30
0
41
1
10
163.557043798687
20
1.21244358526613
30
0
41
1
10
163.551093253079
20
1.16173698050213
30
0
41
1
10
163.547941491956
20
1.13642896007363
30
0
41
1
10
163.537995812155
20
1.06089196942432
30
0
41
1
10
163.516154534689
20
0.911421145199569
30
0
41
1
10
163.488800942992
20
0.76670140322662
30
0
41
1
10
163.427659960719
20
0.483445589853716
30
0
41
1
10
163.378356032702
20
0.302841940913339
30
0
41
1
10
163.267098677793
20
-0.0425304957322794
30
0
41
1
10
163.205154659498
20
-0.20730395111255
30
0
41
1
10
163.121873459523
20
-0.403519882281699
30
0
41
1
10
163.104906039207
20
-0.442308716734573
30
0
41
1
10
163.070492096493
20
-0.518746527607306
30
0
41
1
10
163.018226712954
20
-0.631532500416171
30
0
41
1
10
162.964227891277
20
-0.738815941837032
30
0
41
1
10
162.854338123158
20
-0.946265412307213
30
0
41
1
10
162.778580445625
20
-1.07509492971349
30
0
41
1
10
162.623538499408
20
-1.31444213301359
30
0
41
1
10
162.544243771828
20
-1.42495643130169
30
0
41
1
10
162.443398008719
20
-1.55166993596779
30
0
41
1
10
162.423141206056
20
-1.57643982727743
30
0
41
1
10
162.38245982687
20
-1.62482918795172
30
0
41
1
10
162.362022079736
20
-1.64846210106924
30
0
41
1
10
162.300731543663
20
-1.71733471706287
30
0
41
1
10
162.259822470792
20
-1.76064780711525
30
0
41
1
10
162.137013110035
20
-1.88295584086526
30
0
41
1
10
162.055036779629
20
-1.95433529548762
30
0
41
1
10
161.89102612801
20
-2.07728593696447
30
0
41
1
10
161.808989251746
20
-2.128855084034
30
0
41
1
10
161.644831982999
20
-2.2122070845158
30
0
41
1
10
161.562710423424
20
-2.24398994794507
30
0
41
1
10
161.459920201997
20
-2.27108429655903
30
0
41
1
10
161.439343363191
20
-2.27587122412771
30
0
41
1
10
161.398359086666
20
-2.28413628913469
30
0
41
1
10
161.337070680602
20
-2.29459011705518
30
0
41
1
10
161.276326180225
20
-2.29927749593804
30
0
41
1
10
161.155509015124
20
-2.30109452182035
30
0
41
1
10
160.99621058873
20
-2.28338914346423
30
0
41
1
10
160.761794342002
20
-2.19754988634884
30
0
41
1
10
160.607985271327
20
-2.1007321463326
30
0
41
1
10
160.512452832933
20
-2.02757851067193
30
0
41
1
10
160.493393810723
20
-2.01232734747092
30
0
41
1
10
160.455430516147
20
-1.98063865181248
30
0
41
1
10
160.398688214395
20
-1.93130329850862
30
0
41
1
10
160.342529747509
20
-1.87657904546796
30
0
41
1
10
160.305329933317
20
-1.83770619417993
30
0
0
SPLINE
5
CD
100
AcDbEntity
8
1
62
256
6
ByLayer
370
18
48
1
60
0
100
AcDbSpline
70
4
71
3
72
20
73
16
40
0
40
0
40
0
40
0
40
0.0693164835746698
40
0.0693164835746698
40
0.379544322383113
40
0.379544322383113
40
0.689772161191557
40
0.689772161191557
40
0.767329120893667
40
0.767329120893667
40
0.844886080595778
40
0.844886080595778
40
0.922443040297889
40
0.922443040297889
40
1
40
1
40
1
40
1
41
1
10
151.356481678257
20
12.8968891993485
30
0
41
1
10
151.563137274429
20
12.8969275883269
30
0
41
1
10
151.769808241621
20
12.8962989690736
30
0
41
1
10
152.901594027427
20
12.8892398863556
30
0
41
1
10
153.827084068773
20
12.8702818737584
30
0
41
1
10
155.678122370232
20
12.8063926274895
30
0
41
1
10
156.603691233086
20
12.7614616453047
30
0
41
1
10
157.76033426829
20
12.6886910757949
30
0
41
1
10
157.991647856114
20
12.6733045408842
30
0
41
1
10
158.454238812863
20
12.6408494951736
30
0
41
1
10
158.685506380534
20
12.6237751280547
30
0
41
1
10
159.148049230125
20
12.5879536952156
30
0
41
1
10
159.379373197324
20
12.5692348910238
30
0
41
1
10
159.842226643053
20
12.5302558014738
30
0
41
1
10
160.073739455996
20
12.5099858799085
30
0
41
1
10
160.305329933311
20
12.4889361756717
30
0
0
SPLINE
5
CE
100
AcDbEntity
8
1
62
256
6
ByLayer
370
18
48
1
60
0
100
AcDbSpline
70
4
71
3
72
38
73
34
40
0
40
0
40
0
40
0
40
0.0965530540824828
40
0.0965530540824828
40
0.193106108164966
40
0.193106108164966
40
0.289659162247448
40
0.289659162247448
40
0.33793568928869
40
0.33793568928869
40
0.36207395280931
40
0.36207395280931
40
0.38621221632993
40
0.38621221632993
40
0.482765270412412
40
0.482765270412412
40
0.579318324494895
40
0.579318324494895
40
0.675871378577378
40
0.675871378577378
40
0.724147905618619
40
0.724147905618619
40
0.748286169139241
40
0.748286169139241
40
0.772424432659862
40
0.772424432659862
40
0.820700959701104
40
0.820700959701104
40
0.868977486742345
40
0.868977486742345
40
0.965530540824828
40
0.965530540824828
40
1
40
1
40
1
40
1
41
1
10
19.7884209477858
20
-10.132170634862
30
0
41
1
10
20.4629542934511
20
-10.2625694463994
30
0
41
1
10
21.137472496979
20
-10.3865303476576
30
0
41
1
10
22.4862244415628
20
-10.6223518589196
30
0
41
1
10
23.1604573167675
20
-10.7342123630592
30
0
41
1
10
24.5084041586571
20
-10.9462835222927
30
0
41
1
10
25.1821168533881
20
-11.0464956097065
30
0
41
1
10
26.192119993832
20
-11.1882149625674
30
0
41
1
10
26.5286942036702
20
-11.2340184732785
30
0
41
1
10
27.0333996459945
20
-11.3005615447165
30
0
41
1
10
27.20160737729
20
-11.3223836362607
30
0
41
1
10
27.5379750566067
20
-11.3652969605048
30
0
41
1
10
27.7061409876868
20
-11.3863810790468
30
0
41
1
10
28.5471515351379
20
-11.4896588242334
30
0
41
1
10
29.2203968437588
20
-11.56559689156
30
0
41
1
10
30.5674028468317
20
-11.7047191928199
30
0
41
1
10
31.241172834327
20
-11.7678916759176
30
0
41
1
10
32.5890222496097
20
-11.8816626373158
30
0
41
1
10
33.2630964609835
20
-11.9322648294123
30
0
41
1
10
34.2742773395606
20
-11.9986875211617
30
0
41
1
10
34.6113503457016
20
-12.0192455569819
30
0
41
1
10
35.1169658157491
20
-12.0476803674969
30
0
41
1
10
35.2854993587899
20
-12.0567602767736
30
0
41
1
10
35.6226641289705
20
-12.0740716443583
30
0
41
1
10
35.7913020336899
20
-12.0823009094742
30
0
41
1
10
36.2973743644434
20
-12.1057214135793
30
0
41
1
10
36.6348561930645
20
-12.1196407859367
30
0
41
1
10
37.3096223202248
20
-12.1441371928799
30
0
41
1
10
37.6469596948846
20
-12.1547168066852
30
0
41
1
10
38.658791129146
20
-12.1815040137795
30
0
41
1
10
39.3331071365432
20
-12.1927680972806
30
0
41
1
10
40.2476772450588
20
-12.1991540572091
30
0
41
1
10
40.4882371862352
20
-12.1999981872211
30
0
41
1
10
40.7287469424452
20
-12.2000017160516
30
0
0
SPLINE
5
CF
100
AcDbEntity
8
1
62
256
6
ByLayer
370
18
48
1
60
0
100
AcDbSpline
70
4
71
3
72
45
73
41
40
0
40
0
40
0
40
0
40
0.0199420592608598
40
0.0199420592608598
40
0.0625532740755979
40
0.0625532740755979
40
0.105164488890337
40
0.105164488890337
40
0.126470096297708
40
0.126470096297708
40
0.147775703705079
40
0.147775703705079
40
0.232998133334572
40
0.232998133334572
40
0.318220562964065
40
0.318220562964065
40
0.403442992593558
40
0.403442992593558
40
0.424748600000932
40
0.424748600000932
40
0.446054207408305
40
0.446054207408305
40
0.488665422223054
40
0.488665422223054
40
0.531276637037804
40
0.531276637037804
40
0.573887851852553
40
0.573887851852553
40
0.65911028148205
40
0.65911028148205
40
0.744332711111546
40
0.744332711111546
40
0.765638318518919
40
0.765638318518919
40
0.786943925926291
40
0.829555140741033
40
0.829555140741033
40
0.914777570370517
40
0.914777570370517
40
1
40
1
40
1
40
1
41
1
10
125.457497164277
20
8.92045074231473
30
0
41
1
10
125.615467345278
20
8.95746472587723
30
0
41
1
10
125.773448924739
20
8.99423721298857
30
0
41
1
10
126.269003731689
20
9.10882617715797
30
0
41
1
10
126.606437803054
20
9.1857485779139
30
0
41
1
10
127.281008651603
20
9.33734148811931
30
0
41
1
10
127.618127066245
20
9.4120456788655
30
0
41
1
10
128.123630270541
20
9.52229705402624
30
0
41
1
10
128.292126273669
20
9.55870236612017
30
0
41
1
10
128.629164513393
20
9.63072469974483
30
0
41
1
10
128.797698604532
20
9.66635681366316
30
0
41
1
10
129.640429059214
20
9.84266212030573
30
0
41
1
10
130.314795975592
20
9.97779680923864
30
0
41
1
10
131.663606174835
20
10.2369213103979
30
0
41
1
10
132.338059140916
20
10.3608939471848
30
0
41
1
10
133.686824259991
20
10.5980023167255
30
0
41
1
10
134.361131015051
20
10.7111450998814
30
0
41
1
10
135.20380610977
20
10.8458276218414
30
0
41
1
10
135.37232900465
20
10.8724285303344
30
0
41
1
10
135.709360846791
20
10.9249402463979
30
0
41
1
10
135.877877152023
20
10.9508407921798
30
0
41
1
10
136.383585015871
20
11.0272745370773
30
0
41
1
10
136.720897954483
20
11.0765913057097
30
0
41
1
10
137.395822866592
20
11.1720442759091
30
0
41
1
10
137.733453735641
20
11.2181834215283
30
0
41
1
10
138.408533883905
20
11.3072924159094
30
0
41
1
10
138.746037729604
20
11.3502688616375
30
0
41
1
10
139.758399267733
20
11.4745331551505
30
0
41
1
10
140.4331091777
20
11.5511624877752
30
0
41
1
10
141.781892421996
20
11.692177332725
30
0
41
1
10
142.455962616972
20
11.7565639246665
30
0
41
1
10
143.298039274988
20
11.8293099975203
30
0
41
1
10
143.466424579914
20
11.8434742269886
30
0
41
1
10
143.803249881367
20
11.8709511091145
30
0
41
1
10
144.308578956769
20
11.9108849238965
30
0
41
1
10
144.814153062271
20
11.9470247387436
30
0
41
1
10
145.825556675184
20
12.014344521002
30
0
41
1
10
146.500161134495
20
12.0526217084527
30
0
41
1
10
147.84980848588
20
12.116177812919
30
0
41
1
10
148.524852225631
20
12.1414567012192
30
0
41
1
10
149.2
20
12.1602014006095
30
0
0
SPLINE
5
D0
100
AcDbEntity
8
1
62
256
6
ByLayer
370
18
48
1
60
0
100
AcDbSpline
70
4
71
3
72
76
73
72
40
0
40
0
40
0
40
0
40
0.0418848165021105
40
0.0418848165021105
40
0.0628272247531665
40
0.0628272247531665
40
0.0837696330042225
40
0.0837696330042225
40
0.125654449506336
40
0.125654449506336
40
0.16753926600845
40
0.16753926600845
40
0.209424082510563
40
0.209424082510563
40
0.219895286636091
40
0.219895286636091
40
0.23036649076162
40
0.23036649076162
40
0.251308899012675
40
0.251308899012675
40
0.293193715514787
40
0.293193715514787
40
0.314136123765843
40
0.314136123765843
40
0.335078532016899
40
0.335078532016899
40
0.376963348519011
40
0.376963348519011
40
0.387434552644539
40
0.387434552644539
40
0.397905756770066
40
0.418848165021121
40
0.418848165021121
40
0.460732981523231
40
0.460732981523231
40
0.50261779802534
40
0.50261779802534
40
0.523560206276394
40
0.523560206276394
40
0.544502614527449
40
0.544502614527449
40
0.586387431029557
40
0.586387431029557
40
0.628272247531664
40
0.628272247531664
40
0.649214655782719
40
0.649214655782719
40
0.670157064033774
40
0.6806282681593
40
0.6806282681593
40
0.691099472284827
40
0.691099472284827
40
0.71204188053588
40
0.71204188053588
40
0.753926697037986
40
0.795811513540092
40
0.795811513540092
40
0.837696330042199
40
0.837696330042199
40
0.848167534167726
40
0.848167534167726
40
0.858638738293253
40
0.879581146544309
40
0.879581146544309
40
0.92146596304642
40
0.92146596304642
40
0.963350779548531
40
0.963350779548531
40
0.984293187799586
40
0.984293187799586
40
1
40
1
40
1
40
1
41
1
10
149.2
20
1.82978104934111
30
0
41
1
10
148.495790722804
20
2.06881570083664
30
0
41
1
10
147.792092351133
20
2.30663122730834
30
0
41
1
10
146.737402740207
20
2.66177933251285
30
0
41
1
10
146.385982897116
20
2.77989989405748
30
0
41
1
10
145.683448571772
20
3.01566019571129
30
0
41
1
10
145.3323605608
20
3.13337346985224
30
0
41
1
10
144.278955971706
20
3.48407758945209
30
0
41
1
10
143.576652247113
20
3.71508149788892
30
0
41
1
10
142.17205705302
20
4.17180070702392
30
0
41
1
10
141.469767196616
20
4.39752055932686
30
0
41
1
10
140.065299184193
20
4.8439533893324
30
0
41
1
10
139.363120369778
20
5.06466499636443
30
0
41
1
10
138.485547359481
20
5.33759841697213
30
0
41
1
10
138.310040306225
20
5.39203713564999
30
0
41
1
10
137.959043500432
20
5.50062254038738
30
0
41
1
10
137.783558624515
20
5.55478181443391
30
0
41
1
10
137.257013366935
20
5.71651433139166
30
0
41
1
10
136.905853446885
20
5.8233200844322
30
0
41
1
10
135.851997847531
20
6.14074179311041
30
0
41
1
10
135.14892659502
20
6.34836550532575
30
0
41
1
10
134.0936409438
20
6.65402805556158
30
0
41
1
10
133.741766223303
20
6.75495349677004
30
0
41
1
10
133.037802042818
20
6.95490509976349
30
0
41
1
10
132.685653337796
20
7.0539468165104
30
0
41
1
10
131.629858965061
20
7.34799560868697
30
0
41
1
10
130.926609702067
20
7.54003261840646
30
0
41
1
10
130.048367348319
20
7.77511639254371
30
0
41
1
10
129.872749712276
20
7.82186097523572
30
0
41
1
10
129.521501278499
20
7.91463740944258
30
0
41
1
10
128.994632630376
20
8.05278777550234
30
0
41
1
10
128.467779055563
20
8.18792027341371
30
0
41
1
10
127.414106559869
20
8.45422827332155
30
0
41
1
10
126.711703980876
20
8.626495166486
30
0
41
1
10
125.307086602489
20
8.96075888076416
30
0
41
1
10
124.604868676037
20
9.12274983402858
30
0
41
1
10
123.551768959643
20
9.35814297458498
30
0
41
1
10
123.200773843758
20
9.43534095895606
30
0
41
1
10
122.498877135657
20
9.58721078598475
30
0
41
1
10
122.148000138734
20
9.66192269957003
30
0
41
1
10
121.094903479605
20
9.88116243096275
30
0
41
1
10
120.392377862152
20
10.0211025742274
30
0
41
1
10
118.986494502737
20
10.2888266576557
30
0
41
1
10
118.283138355937
20
10.416613455884
30
0
41
1
10
117.227552819053
20
10.5992751925723
30
0
41
1
10
116.875584451088
20
10.6586601828627
30
0
41
1
10
116.171537309497
20
10.7744150720875
30
0
41
1
10
115.643752836526
20
10.8589152627487
30
0
41
1
10
115.116364847703
20
10.9399453492508
30
0
41
1
10
114.764863532128
20
10.9931933369532
30
0
41
1
10
114.589162219318
20
11.0194359437308
30
0
41
1
10
114.062072882928
20
11.0968482985949
30
0
41
1
10
113.710698492171
20
11.1467043624376
30
0
41
1
10
112.656640397086
20
11.2910860421871
30
0
41
1
10
111.251402449207
20
11.4697769892484
30
0
41
1
10
109.846687443284
20
11.621353979779
30
0
41
1
10
108.442336501744
20
11.7594360631592
30
0
41
1
10
107.740357046671
20
11.821740490951
30
0
41
1
10
106.863169144257
20
11.8910841090599
30
0
41
1
10
106.687734646603
20
11.9045174570494
30
0
41
1
10
106.336798642279
20
11.9304679725053
30
0
41
1
10
105.810318151341
20
11.9680359217861
30
0
41
1
10
105.283612516363
20
12.0015526090825
30
0
41
1
10
104.229917878732
20
12.0632288832249
30
0
41
1
10
103.527076890692
20
12.097210296279
30
0
41
1
10
102.120738024044
20
12.1509849373
30
0
41
1
10
101.417237079347
20
12.1707779412274
30
0
41
1
10
100.361572197336
20
12.1897270216051
30
0
41
1
10
100.009564440216
20
12.1942511486553
30
0
41
1
10
99.3940159351257
20
12.1989964640974
30
0
41
1
10
99.1303297796763
20
12.2000085857881
30
0
41
1
10
98.8666703639778
20
12.1999992703694
30
0
0
SPLINE
5
D1
100
AcDbEntity
8
1
62
256
6
ByLayer
370
18
48
1
60
0
100
AcDbSpline
70
4
71
3
72
55
73
51
40
0
40
0
40
0
40
0
40
0.127820061597847
40
0.127820061597847
40
0.191730092396772
40
0.191730092396772
40
0.255640123195697
40
0.255640123195697
40
0.319550153994622
40
0.319550153994622
40
0.351505169394086
40
0.351505169394086
40
0.367482677093818
40
0.367482677093818
40
0.383460184793549
40
0.383460184793549
40
0.447370215592486
40
0.447370215592486
40
0.511280246391422
40
0.511280246391422
40
0.575190277190358
40
0.575190277190358
40
0.591167784890093
40
0.591167784890093
40
0.607145292589828
40
0.607145292589828
40
0.639100307989298
40
0.639100307989298
40
0.703010338788239
40
0.703010338788239
40
0.766920369587181
40
0.766920369587181
40
0.782897877286917
40
0.782897877286917
40
0.790886631136785
40
0.790886631136785
40
0.798875384986653
40
0.830830400386126
40
0.830830400386126
40
0.894740431185074
40
0.894740431185074
40
0.926695446584548
40
0.926695446584548
40
0.934684200434416
40
0.934684200434416
40
0.942672954284284
40
0.942672954284284
40
0.95865046198402
40
0.95865046198402
40
1
40
1
40
1
40
1
41
1
10
10
20
-9.8926919016705
30
0
41
1
10
9.55585898707099
20
-10.1200091929511
30
0
41
1
10
9.12291381910245
20
-10.3552258232149
30
0
41
1
10
8.48987068565805
20
-10.7175430273872
30
0
41
1
10
8.28159071086401
20
-10.839897002003
30
0
41
1
10
7.87050359307864
20
-11.0873591483683
30
0
41
1
10
7.66769595585089
20
-11.2124677330826
30
0
41
1
10
7.26761968113755
20
-11.4650075615648
30
0
41
1
10
7.07035022853671
20
-11.5924394281028
30
0
41
1
10
6.77871127675351
20
-11.7849768334515
30
0
41
1
10
6.6822098766809
20
-11.8493872136398
30
0
41
1
10
6.53854678185621
20
-11.9463014190793
30
0
41
1
10
6.49084064377723
20
-11.9786558937891
30
0
41
1
10
6.39579587280247
20
-12.0434558399261
30
0
41
1
10
6.34840667774421
20
-12.0759363040321
30
0
41
1
10
6.11322558107895
20
-12.2379681005817
30
0
41
1
10
5.93051610153313
20
-12.3665437111563
30
0
41
1
10
5.57615085402705
20
-12.620727591638
30
0
41
1
10
5.40449265184145
20
-12.7463380938686
30
0
41
1
10
5.07266408122703
20
-12.9935922575515
30
0
41
1
10
4.91248930032083
20
-13.1152395751019
30
0
41
1
10
4.71994230508872
20
-13.2640572899904
30
0
41
1
10
4.68181755522315
20
-13.2936580496975
30
0
41
1
10
4.60635450843583
20
-13.3525116498097
30
0
41
1
10
4.56897099619931
20
-13.3818001282191
30
0
41
1
10
4.45837055250473
20
-13.468838894066
30
0
41
1
10
4.38684931652537
20
-13.5256460739708
30
0
41
1
10
4.17899546687343
20
-13.6921821239163
30
0
41
1
10
4.04935103109091
20
-13.7980385968917
30
0
41
1
10
3.80876052466081
20
-13.9979322572134
30
0
41
1
10
3.69780395502778
20
-14.09197800589
30
0
41
1
10
3.57182613702685
20
-14.200904126831
30
0
41
1
10
3.54726897134538
20
-14.2222561227535
30
0
41
1
10
3.5114187195189
20
-14.2536051010639
30
0
41
1
10
3.49963272191621
20
-14.2639418154303
30
0
41
1
10
3.47647772786348
20
-14.2843100994265
30
0
41
1
10
3.41957840687732
20
-14.3345155790397
30
0
41
1
10
3.36761369027624
20
-14.3811278947709
30
0
41
1
10
3.25243848461181
20
-14.4859073438854
30
0
41
1
10
3.18833675723667
20
-14.5463297072586
30
0
41
1
10
3.11210343674372
20
-14.6216919296721
30
0
41
1
10
3.09002128257779
20
-14.6442621559242
30
0
41
1
10
3.06675218051413
20
-14.6691214836654
30
0
41
1
10
3.0623152762644
20
-14.673925528056
30
0
41
1
10
3.05388059632315
20
-14.6831932194201
30
0
41
1
10
3.04988018660083
20
-14.6876599954463
30
0
41
1
10
3.03859087065291
20
-14.7004906452051
30
0
41
1
10
3.03199793470145
20
-14.7083018087753
30
0
41
1
10
3.01165320965953
20
-14.7336871312793
30
0
41
1
10
3.00313712360526
20
-14.7470796838827
30
0
41
1
10
3.00071103828205
20
-14.7556023733633
30
0
0
SPLINE
5
D2
100
AcDbEntity
8
1
62
256
6
ByLayer
370
18
48
1
60
0
100
AcDbSpline
70
4
71
3
72
50
73
46
40
0
40
0
40
0
40
0
40
0.002314057561022
40
0.002314057561022
40
0.0106979730437023
40
0.0274658040090623
40
0.0610014659397832
40
0.0610014659397832
40
0.128072789801225
40
0.128072789801225
40
0.144840620766585
40
0.144840620766585
40
0.161608451731946
40
0.161608451731946
40
0.195144113662667
40
0.195144113662667
40
0.262215437524111
40
0.262215437524111
40
0.329286761385555
40
0.329286761385555
40
0.346054592350916
40
0.346054592350916
40
0.362822423316277
40
0.362822423316277
40
0.396358085246999
40
0.396358085246999
40
0.463429409108445
40
0.463429409108445
40
0.530500732969892
40
0.530500732969892
40
0.597572056831338
40
0.597572056831338
40
0.63110771876206
40
0.63110771876206
40
0.664643380692782
40
0.664643380692782
40
0.731714704554225
40
0.731714704554225
40
0.798786028415669
40
0.798786028415669
40
0.865857352277113
40
0.865857352277113
40
0.932928676138556
40
0.932928676138556
40
1
40
1
40
1
40
1
41
1
10
3.07548989745112
20
-14.7399786938184
30
0
41
1
10
3.07681748344535
20
-14.7392721966154
30
0
41
1
10
3.07816223226661
20
-14.7385519760764
30
0
41
1
10
3.084456699003
20
-14.7351598526169
30
0
41
1
10
3.09990892248189
20
-14.7266568883425
30
0
41
1
10
3.14048350468548
20
-14.7031747743507
30
0
41
1
10
3.18283553665196
20
-14.6769754832571
30
0
41
1
10
3.27728596337292
20
-14.6168611776629
30
0
41
1
10
3.35322022792261
20
-14.566516022573
30
0
41
1
10
3.46367848097427
20
-14.4916699190341
30
0
41
1
10
3.48654939048532
20
-14.476103459726
30
0
41
1
10
3.53384138690615
20
-14.4437935102551
30
0
41
1
10
3.55827266042334
20
-14.4270428054134
30
0
41
1
10
3.63334237237652
20
-14.3754218865156
30
0
41
1
10
3.68591684275202
20
-14.3390741519275
30
0
41
1
10
3.85077523579417
20
-14.2247053476777
30
0
41
1
10
3.97017442319884
20
-14.1413765706969
30
0
41
1
10
4.22619524245675
20
-13.9625359634483
30
0
41
1
10
4.36282658193585
20
-13.8670166988792
30
0
41
1
10
4.54361962928789
20
-13.740923394046
30
0
41
1
10
4.58027935780021
20
-13.7153690884571
30
0
41
1
10
4.65458503644629
20
-13.6636089844435
30
0
41
1
10
4.69221532395568
20
-13.6374141635313
30
0
41
1
10
4.80598457078182
20
-13.5582822431181
30
0
41
1
10
4.88318581627371
20
-13.5046698846321
30
0
41
1
10
5.11858538770525
20
-13.3415210434496
30
0
41
1
10
5.28057179907933
20
-13.2296828488546
30
0
41
1
10
5.61346253450398
20
-13.0009603232286
30
0
41
1
10
5.78437052480254
20
-12.884072647929
30
0
41
1
10
6.13413257554052
20
-12.6460562953023
30
0
41
1
10
6.31298843322759
20
-12.5249255986701
30
0
41
1
10
6.58659701587726
20
-12.3404986444458
30
0
41
1
10
6.67868817382995
20
-12.2785664075879
30
0
41
1
10
6.8645499750225
20
-12.1538488835015
30
0
41
1
10
6.9583771879548
20
-12.091026012796
30
0
41
1
10
7.24105815891829
20
-11.9021437868687
30
0
41
1
10
7.43147350190782
20
-11.7754272573734
30
0
41
1
10
7.81570158596031
20
-11.5206137156481
30
0
41
1
10
8.00951385228998
20
-11.3925150787938
30
0
41
1
10
8.40012704308197
20
-11.1350807109304
30
0
41
1
10
8.59692712507837
20
-11.005743383535
30
0
41
1
10
8.99324437055057
20
-10.7459603276139
30
0
41
1
10
9.19276064104099
20
-10.6155130504181
30
0
41
1
10
9.59440312900045
20
-10.3536714653179
30
0
41
1
10
9.79652869902799
20
-10.2222757762375
30
0
41
1
10
10
20
-10.0905258316939
30
0
0
SPLINE
5
D3
100
AcDbEntity
8
1
62
256
6
ByLayer
370
18
48
1
60
0
100
AcDbSpline
70
4
71
3
72
52
73
48
40
0
40
0
40
0
40
0
40
0.0266059265342783
40
0.0266059265342783
40
0.0347175438131593
40
0.0347175438131593
40
0.0428291610920403
40
0.0590523956498017
40
0.0914988647653255
40
0.0914988647653255
40
0.156391802996373
40
0.156391802996373
40
0.172615037554135
40
0.172615037554135
40
0.188838272111897
40
0.188838272111897
40
0.221284741227422
40
0.221284741227422
40
0.28617767945847
40
0.28617767945847
40
0.351070617689518
40
0.351070617689518
40
0.367293852247281
40
0.367293852247281
40
0.383517086805043
40
0.383517086805043
40
0.415963555920568
40
0.415963555920568
40
0.480856494151616
40
0.480856494151616
40
0.545749432382664
40
0.545749432382664
40
0.610642370613713
40
0.610642370613713
40
0.643088839729237
40
0.643088839729237
40
0.675535308844761
40
0.675535308844761
40
0.740428247075809
40
0.740428247075809
40
0.805321185306856
40
0.805321185306856
40
0.870214123537904
40
0.870214123537904
40
0.935107061768952
40
0.935107061768952
40
1
40
1
40
1
40
1
41
1
10
3.02883507351936
20
14.7619048968365
30
0
41
1
10
3.03854683169254
20
14.7583219155288
30
0
41
1
10
3.05072756965342
20
14.7527750540257
30
0
41
1
10
3.0698783869249
20
14.7429574836285
30
0
41
1
10
3.07459085303179
20
14.7404766123947
30
0
41
1
10
3.08445669900303
20
14.7351598526169
30
0
41
1
10
3.09990892248192
20
14.7266568883425
30
0
41
1
10
3.14048350468548
20
14.7031747743507
30
0
41
1
10
3.18283553665196
20
14.6769754832571
30
0
41
1
10
3.27728596337289
20
14.6168611776629
30
0
41
1
10
3.35322022792263
20
14.566516022573
30
0
41
1
10
3.46367848097424
20
14.4916699190341
30
0
41
1
10
3.48654939048532
20
14.476103459726
30
0
41
1
10
3.53384138690615
20
14.4437935102551
30
0
41
1
10
3.5582726604234
20
14.4270428054134
30
0
41
1
10
3.63334237237658
20
14.3754218865156
30
0
41
1
10
3.68591684275202
20
14.3390741519275
30
0
41
1
10
3.85077523579417
20
14.2247053476777
30
0
41
1
10
3.97017442319884
20
14.1413765706969
30
0
41
1
10
4.22619524245675
20
13.9625359634482
30
0
41
1
10
4.36282658193588
20
13.8670166988792
30
0
41
1
10
4.54361962928789
20
13.7409233940459
30
0
41
1
10
4.58027935780029
20
13.7153690884571
30
0
41
1
10
4.65458503644635
20
13.6636089844435
30
0
41
1
10
4.69221532395571
20
13.6374141635313
30
0
41
1
10
4.80598457078179
20
13.558282243118
30
0
41
1
10
4.88318581627371
20
13.5046698846321
30
0
41
1
10
5.11858538770525
20
13.3415210434496
30
0
41
1
10
5.28057179907938
20
13.2296828488546
30
0
41
1
10
5.61346253450398
20
13.0009603232286
30
0
41
1
10
5.78437052480254
20
12.884072647929
30
0
41
1
10
6.13413257554055
20
12.6460562953023
30
0
41
1
10
6.31298843322762
20
12.5249255986701
30
0
41
1
10
6.58659701587732
20
12.3404986444458
30
0
41
1
10
6.67868817382998
20
12.2785664075878
30
0
41
1
10
6.8645499750225
20
12.1538488835015
30
0
41
1
10
6.95837718795477
20
12.091026012796
30
0
41
1
10
7.24105815891826
20
11.9021437868686
30
0
41
1
10
7.43147350190782
20
11.7754272573733
30
0
41
1
10
7.81570158596031
20
11.5206137156481
30
0
41
1
10
8.00951385229001
20
11.3925150787937
30
0
41
1
10
8.40012704308199
20
11.1350807109304
30
0
41
1
10
8.59692712507837
20
11.0057433835349
30
0
41
1
10
8.99324437055063
20
10.7459603276139
30
0
41
1
10
9.19276064104099
20
10.615513050418
30
0
41
1
10
9.59440312900045
20
10.3536714653178
30
0
41
1
10
9.79652869902799
20
10.2222757762375
30
0
41
1
10
10
20
10.0905258316939
30
0
0
SPLINE
5
D4
100
AcDbEntity
8
1
62
256
6
ByLayer
370
13
48
1
60
0
100
AcDbSpline
70
4
71
3
72
58
73
54
40
0
40
0
40
0
40
0
40
0.0312499999999998
40
0.0312499999999998
40
0.0624999999999996
40
0.0624999999999996
40
0.0937499999999994
40
0.0937499999999994
40
0.124999999999999
40
0.124999999999999
40
0.156249999999999
40
0.156249999999999
40
0.187499999999999
40
0.187499999999999
40
0.218749999999999
40
0.218749999999999
40
0.249999999999999
40
0.249999999999999
40
0.312499999999999
40
0.312499999999999
40
0.374999999999999
40
0.374999999999999
40
0.406249999999999
40
0.406249999999999
40
0.421874999999999
40
0.421874999999999
40
0.429687499999999
40
0.429687499999999
40
0.437499999999999
40
0.437499999999999
40
0.499999999999999
40
0.499999999999999
40
0.562499999999999
40
0.562499999999999
40
0.624999999999999
40
0.624999999999999
40
0.656249999999999
40
0.656249999999999
40
0.687499999999999
40
0.687499999999999
40
0.718749999999999
40
0.718749999999999
40
0.749999999999999
40
0.749999999999999
40
0.781249999999999
40
0.781249999999999
40
0.8125
40
0.8125
40
0.875
40
0.875
40
0.9375
40
0.9375
40
1
40
1
40
1
40
1
41
1
10
149.2
20
-11.9251526840465
30
0
41
1
10
149.250355453191
20
-11.7831080915448
30
0
41
1
10
149.300710906383
20
-11.6248635133128
30
0
41
1
10
149.401421812766
20
-11.2763464871583
30
0
41
1
10
149.451777265957
20
-11.0860732427418
30
0
41
1
10
149.55248817234
20
-10.6746693248149
30
0
41
1
10
149.602843625531
20
-10.4535394545623
30
0
41
1
10
149.703554531914
20
-9.98239600897438
30
0
41
1
10
149.753909985106
20
-9.7323848796882
30
0
41
1
10
149.854620891489
20
-9.20620717700189
30
0
41
1
10
149.90497634468
20
-8.93004455084105
30
0
41
1
10
150.005687251063
20
-8.35495001923323
30
0
41
1
10
150.056042704254
20
-8.05602324687854
30
0
41
1
10
150.156753610637
20
-7.43930690085813
30
0
41
1
10
150.207109063828
20
-7.12152319952747
30
0
41
1
10
150.307819970211
20
-6.47135286095565
30
0
41
1
10
150.358175423403
20
-6.13897232287187
30
0
41
1
10
150.509241782977
20
-5.12657377803919
30
0
41
1
10
150.60995268936
20
-4.43140360792992
30
0
41
1
10
150.811374502125
20
-3.03524463192801
30
0
41
1
10
150.912085408508
20
-2.33438637856344
30
0
41
1
10
151.063151768083
20
-1.30126007927825
30
0
41
1
10
151.113507221274
20
-0.959860293741457
30
0
41
1
10
151.189040401061
20
-0.454489886344533
30
0
41
1
10
151.214218127657
20
-0.287150650164733
30
0
41
1
10
151.25198471755
20
-0.038064811408475
30
0
41
1
10
151.264573580848
20
0.0444876902541296
30
0
41
1
10
151.289751307444
20
0.210577993920111
30
0
41
1
10
151.302340170742
20
0.29394288553749
30
0
41
1
10
151.415639940422
20
1.04692396920149
30
0
41
1
10
151.516350846805
20
1.73575169660347
30
0
41
1
10
151.717772659571
20
3.12724989185386
30
0
41
1
10
151.818483565954
20
3.82983608946125
30
0
41
1
10
152.01990537872
20
5.21661237643085
30
0
41
1
10
152.120616285103
20
5.90064717000141
30
0
41
1
10
152.271682644677
20
6.88616772156826
30
0
41
1
10
152.322038097868
20
7.20790834415573
30
0
41
1
10
152.422749004251
20
7.83355043045717
30
0
41
1
10
152.473104457442
20
8.1374459184708
30
0
41
1
10
152.573815363825
20
8.72338776233659
30
0
41
1
10
152.624170817017
20
9.00542876019315
30
0
41
1
10
152.7248817234
20
9.54413255057142
30
0
41
1
10
152.775237176591
20
9.80079107206836
30
0
41
1
10
152.875948082974
20
10.285827924998
30
0
41
1
10
152.926303536165
20
10.514203424673
30
0
41
1
10
153.027014442548
20
10.9405071160116
30
0
41
1
10
153.077369895739
20
11.1384341013772
30
0
41
1
10
153.228436255314
20
11.6844874057187
30
0
41
1
10
153.329147161697
20
11.9845011625108
30
0
41
1
10
153.530568974462
20
12.4550705014509
30
0
41
1
10
153.631279880845
20
12.6257213815918
30
0
41
1
10
153.832701693611
20
12.8473697547446
30
0
41
1
10
153.933412599994
20
12.8985
30
0
41
1
10
154.034123506376
20
12.8985
30
0
0
SPLINE
5
D5
100
AcDbEntity
8
1
62
256
6
ByLayer
370
13
48
1
60
0
100
AcDbSpline
70
4
71
3
72
78
73
74
40
0
40
0
40
0
40
0
40
0.0312500000000003
40
0.0312500000000003
40
0.0625000000000006
40
0.0625000000000006
40
0.0937500000000008
40
0.0937500000000008
40
0.125000000000001
40
0.125000000000001
40
0.156250000000001
40
0.156250000000001
40
0.187500000000002
40
0.187500000000002
40
0.218750000000002
40
0.218750000000002
40
0.250000000000002
40
0.250000000000002
40
0.281250000000002
40
0.281250000000002
40
0.312500000000003
40
0.312500000000003
40
0.343750000000003
40
0.343750000000003
40
0.375000000000003
40
0.375000000000003
40
0.382812500000003
40
0.382812500000003
40
0.390625000000003
40
0.390625000000003
40
0.406250000000003
40
0.406250000000003
40
0.437500000000003
40
0.437500000000003
40
0.468750000000003
40
0.468750000000003
40
0.500000000000003
40
0.500000000000003
40
0.531250000000003
40
0.531250000000003
40
0.562500000000003
40
0.562500000000003
40
0.593750000000003
40
0.593750000000003
40
0.625000000000004
40
0.625000000000004
40
0.656250000000004
40
0.656250000000004
40
0.687500000000004
40
0.687500000000004
40
0.718750000000004
40
0.718750000000004
40
0.750000000000004
40
0.750000000000004
40
0.765625000000004
40
0.765625000000004
40
0.773437500000004
40
0.773437500000004
40
0.781250000000003
40
0.781250000000003
40
0.812500000000003
40
0.812500000000003
40
0.843750000000002
40
0.843750000000002
40
0.875000000000002
40
0.875000000000002
40
0.906250000000001
40
0.906250000000001
40
0.937500000000001
40
0.937500000000001
40
0.96875
40
0.96875
40
1
40
1
40
1
40
1
41
1
10
153.059204852009
20
12.8985
30
0
41
1
10
153.134685321606
20
12.8985
30
0
41
1
10
153.210165791204
20
12.8698369636438
30
0
41
1
10
153.361126730397
20
12.7476789784542
30
0
41
1
10
153.436607199994
20
12.6541519706352
30
0
41
1
10
153.587568139188
20
12.3967516308484
30
0
41
1
10
153.663048608785
20
12.2328496232556
30
0
41
1
10
153.814009547979
20
11.8321703048565
30
0
41
1
10
153.889490017576
20
11.5953742206628
30
0
41
1
10
154.04045095677
20
11.0501005524433
30
0
41
1
10
154.115931426367
20
10.741619816223
30
0
41
1
10
154.266892365561
20
10.058242679988
30
0
41
1
10
154.342372835158
20
9.68336154101274
30
0
41
1
10
154.493333774352
20
8.8763468781905
30
0
41
1
10
154.568814243949
20
8.44424545387506
30
0
41
1
10
154.719775183143
20
7.53512987208279
30
0
41
1
10
154.79525565274
20
7.05815881487098
30
0
41
1
10
154.946216591933
20
6.07366577343586
30
0
41
1
10
155.02169706153
20
5.5661895564246
30
0
41
1
10
155.172658000724
20
4.53570356568673
30
0
41
1
10
155.248138470321
20
4.01273403908823
30
0
41
1
10
155.399099409515
20
2.96561369920363
30
0
41
1
10
155.474579879112
20
2.44149187322057
30
0
41
1
10
155.625540818306
20
1.40469630817179
30
0
41
1
10
155.701021287903
20
0.892038067351081
30
0
41
1
10
155.795371874899
20
0.264766473330838
30
0
41
1
10
155.814241992298
20
0.139983393292056
30
0
41
1
10
155.851982227097
20
-0.108106510748684
30
0
41
1
10
155.870852344496
20
-0.232649465174575
30
0
41
1
10
155.927462696694
20
-0.60866604188169
30
0
41
1
10
155.965202931492
20
-0.862057596666716
30
0
41
1
10
156.078423635888
20
-1.62859244097132
30
0
41
1
10
156.153904105485
20
-2.14817026610515
30
0
41
1
10
156.304865044679
20
-3.19304107504044
30
0
41
1
10
156.380345514276
20
-3.71831205040522
30
0
41
1
10
156.53130645347
20
-4.76103180869603
30
0
41
1
10
156.606786923066
20
-5.27844571419394
30
0
41
1
10
156.75774786226
20
-6.2906463340862
30
0
41
1
10
156.833228331857
20
-6.78538925104155
30
0
41
1
10
156.984189271051
20
-7.73737432820261
30
0
41
1
10
157.059669740648
20
-8.19457090333643
30
0
41
1
10
157.210630679842
20
-9.05789217965167
30
0
41
1
10
157.286111149439
20
-9.46397810161767
30
0
41
1
10
157.437072088633
20
-10.2141085098436
30
0
41
1
10
157.51255255823
20
-10.55812846503
30
0
41
1
10
157.663513497424
20
-11.1767351057956
30
0
41
1
10
157.738993967021
20
-11.4513154329563
30
0
41
1
10
157.889954906215
20
-11.9277031454605
30
0
41
1
10
157.965435375812
20
-12.1295217341949
30
0
41
1
10
158.116396315006
20
-12.461019156129
30
0
41
1
10
158.191876784602
20
-12.5907223149866
30
0
41
1
10
158.342837723796
20
-12.7820418888934
30
0
41
1
10
158.418318193394
20
-12.8436893828295
30
0
41
1
10
158.531538897789
20
-12.8900577323848
30
0
41
1
10
158.569279132587
20
-12.8978469998077
30
0
41
1
10
158.625889484785
20
-12.8987673853643
30
0
41
1
10
158.644759602184
20
-12.8972900993103
30
0
41
1
10
158.682499836983
20
-12.8906464673848
30
0
41
1
10
158.701369954382
20
-12.885479231334
30
0
41
1
10
158.795720541378
20
-12.8501132782739
30
0
41
1
10
158.871201010975
20
-12.7912482663092
30
0
41
1
10
159.022161950169
20
-12.6057316001242
30
0
41
1
10
159.097642419766
20
-12.4790487241035
30
0
41
1
10
159.24860335896
20
-12.1537015651214
30
0
41
1
10
159.324083828557
20
-11.955012530932
30
0
41
1
10
159.475044767751
20
-11.4848334355432
30
0
41
1
10
159.550525237348
20
-11.2133314963748
30
0
41
1
10
159.701486176542
20
-10.6006557338736
30
0
41
1
10
159.776966646139
20
-10.2594874720096
30
0
41
1
10
159.927927585333
20
-9.5146665809971
30
0
41
1
10
160.003408054929
20
-9.1110377535899
30
0
41
1
10
160.154368994124
20
-8.25209992434847
30
0
41
1
10
160.229849463721
20
-7.79682922581344
30
0
41
1
10
160.305329933317
20
-7.322453684485
30
0
0
SPLINE
5
D6
100
AcDbEntity
8
1
62
256
6
ByLayer
370
13
48
1
60
0
100
AcDbSpline
70
4
71
3
72
44
73
40
40
0
40
0
40
0
40
0
40
0.0625000000000022
40
0.0625000000000022
40
0.125000000000004
40
0.125000000000004
40
0.187500000000006
40
0.187500000000006
40
0.250000000000009
40
0.250000000000009
40
0.312500000000011
40
0.312500000000011
40
0.343750000000012
40
0.343750000000012
40
0.359375000000012
40
0.359375000000012
40
0.367187500000012
40
0.367187500000012
40
0.375000000000012
40
0.375000000000012
40
0.437500000000011
40
0.437500000000011
40
0.50000000000001
40
0.50000000000001
40
0.562500000000009
40
0.562500000000009
40
0.625000000000008
40
0.625000000000008
40
0.687500000000006
40
0.687500000000006
40
0.750000000000005
40
0.750000000000005
40
0.812500000000004
40
0.812500000000004
40
0.875000000000002
40
0.875000000000002
40
0.937500000000001
40
0.937500000000001
40
1
40
1
40
1
40
1
41
1
10
149.2
20
-10.0797515376916
30
0
41
1
10
149.290660895193
20
-9.64567513705032
30
0
41
1
10
149.381321790387
20
-9.16536109110459
30
0
41
1
10
149.562643580774
20
-8.13046418340966
30
0
41
1
10
149.653304475967
20
-7.57597740494128
30
0
41
1
10
149.834626266354
20
-6.41654005757511
30
0
41
1
10
149.925287161547
20
-5.81170375275556
30
0
41
1
10
150.106608951934
20
-4.57760055706376
30
0
41
1
10
150.197269847128
20
-3.9484359733618
30
0
41
1
10
150.378591637514
20
-2.69057520507474
30
0
41
1
10
150.469252532708
20
-2.06194785789916
30
0
41
1
10
150.605243875498
20
-1.13520315563377
30
0
41
1
10
150.650574323095
20
-0.828951835320737
30
0
41
1
10
150.71856999449
20
-0.375182407675709
30
0
41
1
10
150.741235218288
20
-0.224857884722638
30
0
41
1
10
150.775233053985
20
-0.0009464236810288
30
0
41
1
10
150.786565665885
20
0.0734234995424288
30
0
41
1
10
150.809230889683
20
0.22303488139687
30
0
41
1
10
150.820563501582
20
0.298098350225189
30
0
41
1
10
150.922557008675
20
0.975857597336699
30
0
41
1
10
151.013217903868
20
1.5940891969355
30
0
41
1
10
151.194539694255
20
2.84404044458381
30
0
41
1
10
151.285200589448
20
3.47571489030389
30
0
41
1
10
151.466522379835
20
4.72968605870534
30
0
41
1
10
151.557183275029
20
5.35189833541074
30
0
41
1
10
151.738505065415
20
6.56125034290739
30
0
41
1
10
151.829165960609
20
7.14827945820588
30
0
41
1
10
152.010487750996
20
8.26173330137638
30
0
41
1
10
152.101148646189
20
8.7880475675932
30
0
41
1
10
152.282470436576
20
9.75813078389669
30
0
41
1
10
152.373131331769
20
10.2018196015388
30
0
41
1
10
152.554453122156
20
10.9912748849237
30
0
41
1
10
152.64511401735
20
11.337012290994
30
0
41
1
10
152.826435807736
20
11.9234549168019
30
0
41
1
10
152.91709670293
20
12.1641846315843
30
0
41
1
10
153.098418493317
20
12.5418286474403
30
0
41
1
10
153.18907938851
20
12.6788062965167
30
0
41
1
10
153.370401178897
20
12.8571022884493
30
0
41
1
10
153.46106207409
20
12.8985
30
0
41
1
10
153.551722969284
20
12.8985
30
0
0
SPLINE
5
D7
100
AcDbEntity
8
1
62
256
6
ByLayer
370
13
48
1
60
0
100
AcDbSpline
70
4
71
3
72
76
73
72
40
0
40
0
40
0
40
0
40
0.0312499999999998
40
0.0312499999999998
40
0.0624999999999997
40
0.0624999999999997
40
0.0937499999999995
40
0.0937499999999995
40
0.124999999999999
40
0.124999999999999
40
0.156249999999999
40
0.156249999999999
40
0.187499999999999
40
0.187499999999999
40
0.218749999999999
40
0.218749999999999
40
0.249999999999999
40
0.249999999999999
40
0.281249999999999
40
0.281249999999999
40
0.312499999999999
40
0.312499999999999
40
0.343749999999998
40
0.343749999999998
40
0.359374999999998
40
0.359374999999998
40
0.374999999999998
40
0.374999999999998
40
0.406249999999998
40
0.406249999999998
40
0.437499999999998
40
0.437499999999998
40
0.468749999999999
40
0.468749999999999
40
0.499999999999999
40
0.499999999999999
40
0.531249999999999
40
0.531249999999999
40
0.562499999999999
40
0.562499999999999
40
0.593749999999999
40
0.593749999999999
40
0.624999999999999
40
0.624999999999999
40
0.656249999999999
40
0.656249999999999
40
0.687499999999999
40
0.687499999999999
40
0.703124999999999
40
0.703124999999999
40
0.710937499999999
40
0.710937499999999
40
0.718749999999999
40
0.718749999999999
40
0.749999999999999
40
0.749999999999999
40
0.781249999999999
40
0.781249999999999
40
0.812499999999999
40
0.812499999999999
40
0.843749999999999
40
0.843749999999999
40
0.874999999999999
40
0.874999999999999
40
0.90625
40
0.90625
40
0.9375
40
0.9375
40
0.96875
40
0.96875
40
1
40
1
40
1
40
1
41
1
10
152.576804314917
20
12.8985
30
0
41
1
10
152.657309790108
20
12.8985
30
0
41
1
10
152.7378152653
20
12.8658825053953
30
0
41
1
10
152.898826215683
20
12.7263738447172
30
0
41
1
10
152.979331690875
20
12.6194385307519
30
0
41
1
10
153.140342641259
20
12.324909582094
30
0
41
1
10
153.22084811645
20
12.1372777235754
30
0
41
1
10
153.381859066833
20
11.6789800627226
30
0
41
1
10
153.462364542025
20
11.4082921621423
30
0
41
1
10
153.623375492408
20
10.7864602584107
30
0
41
1
10
153.7038809676
20
10.4353185393487
30
0
41
1
10
153.864891917983
20
9.66043571261571
30
0
41
1
10
153.945397393175
20
9.23672393511012
30
0
41
1
10
154.106408343559
20
8.32936576723841
30
0
41
1
10
154.18691381875
20
7.84577091483524
30
0
41
1
10
154.347924769133
20
6.83488031141593
30
0
41
1
10
154.428430244325
20
6.30764719111721
30
0
41
1
10
154.589441194709
20
5.22752253818197
30
0
41
1
10
154.6699466699
20
4.67469130102543
30
0
41
1
10
154.830957620284
20
3.56132574898206
30
0
41
1
10
154.911463095475
20
3.00083828992226
30
0
41
1
10
155.072474045859
20
1.8883821145856
30
0
41
1
10
155.15297952105
20
1.33644105697093
30
0
41
1
10
155.273737733838
20
0.524933895865018
30
0
41
1
10
155.313990471434
20
0.2572624883054
30
0
41
1
10
155.394495946625
20
-0.271803003258441
30
0
41
1
10
155.434748684221
20
-0.539708275851666
30
0
41
1
10
155.555506897009
20
-1.35151158470413
30
0
41
1
10
155.6360123722
20
-1.90359643732793
30
0
41
1
10
155.797023322583
20
-3.01620368387253
30
0
41
1
10
155.877528797775
20
-3.57669823522536
30
0
41
1
10
156.038539748159
20
-4.68991946841567
30
0
41
1
10
156.11904522335
20
-5.24259913588821
30
0
41
1
10
156.280056173734
20
-6.32225308256594
30
0
41
1
10
156.360561648925
20
-6.84916698788305
30
0
41
1
10
156.521572599309
20
-7.85925921550611
30
0
41
1
10
156.6020780745
20
-8.34237494759734
30
0
41
1
10
156.763089024884
20
-9.24863992476605
30
0
41
1
10
156.843594500075
20
-9.67173779206846
30
0
41
1
10
157.004605450459
20
-10.4452971673994
30
0
41
1
10
157.08511092565
20
-10.7957295826612
30
0
41
1
10
157.246121876034
20
-11.4160947248055
30
0
41
1
10
157.326627351225
20
-11.6860254139102
30
0
41
1
10
157.487638301609
20
-12.1428086017372
30
0
41
1
10
157.5681437768
20
-12.329683389885
30
0
41
1
10
157.729154727184
20
-12.6227400861989
30
0
41
1
10
157.809660202375
20
-12.7289603187908
30
0
41
1
10
157.930418415163
20
-12.8325740776262
30
0
41
1
10
157.970671152759
20
-12.8578534301752
30
0
41
1
10
158.031050259153
20
-12.8826837763821
30
0
41
1
10
158.05117662795
20
-12.8887803141912
30
0
41
1
10
158.091429365546
20
-12.8967587838516
30
0
41
1
10
158.111555734344
20
-12.8986409587386
30
0
41
1
10
158.212187578334
20
-12.8978951765755
30
0
41
1
10
158.292693053526
20
-12.8646350154202
30
0
41
1
10
158.453704003909
20
-12.7237680517914
30
0
41
1
10
158.534209479101
20
-12.616117111787
30
0
41
1
10
158.695220429484
20
-12.3201151602852
30
0
41
1
10
158.775725904675
20
-12.1317260264428
30
0
41
1
10
158.936736855059
20
-11.6719139029206
30
0
41
1
10
159.017242330251
20
-11.4004690068946
30
0
41
1
10
159.178253280634
20
-10.7771712225487
30
0
41
1
10
159.258758755826
20
-10.4253208648679
30
0
41
1
10
159.419769706209
20
-9.64911632630799
30
0
41
1
10
159.500275181401
20
-9.22479171257768
30
0
41
1
10
159.661286131784
20
-8.31634280534047
30
0
41
1
10
159.741791606976
20
-7.83227020902137
30
0
41
1
10
159.902802557359
20
-6.8205841353838
30
0
41
1
10
159.983308032551
20
-6.29303332812322
30
0
41
1
10
160.144318982934
20
-5.21244101578182
30
0
41
1
10
160.224824458126
20
-4.65945972681843
30
0
41
1
10
160.305329933317
20
-4.10270623460781
30
0
0
SPLINE
5
D8
100
AcDbEntity
8
1
62
256
6
ByLayer
370
13
48
1
60
0
100
AcDbSpline
70
4
71
3
72
42
73
38
40
0
40
0
40
0
40
0
40
0.062499999999999
40
0.062499999999999
40
0.124999999999998
40
0.124999999999998
40
0.187499999999997
40
0.187499999999997
40
0.249999999999996
40
0.249999999999996
40
0.281249999999995
40
0.281249999999995
40
0.296874999999995
40
0.296874999999995
40
0.312499999999995
40
0.312499999999995
40
0.374999999999996
40
0.374999999999996
40
0.437499999999996
40
0.437499999999996
40
0.499999999999996
40
0.499999999999996
40
0.562499999999997
40
0.562499999999997
40
0.624999999999997
40
0.624999999999997
40
0.687499999999998
40
0.687499999999998
40
0.749999999999998
40
0.749999999999998
40
0.812499999999999
40
0.812499999999999
40
0.874999999999999
40
0.874999999999999
40
0.9375
40
0.9375
40
1
40
1
40
1
40
1
41
1
10
149.2
20
-7.3859255194794
30
0
41
1
10
149.280610884004
20
-6.88113752762663
30
0
41
1
10
149.361221768008
20
-6.35424131479709
30
0
41
1
10
149.522443536016
20
-5.27419434229265
30
0
41
1
10
149.60305442002
20
-4.72110451727104
30
0
41
1
10
149.764276188028
20
-3.60672350390226
30
0
41
1
10
149.844887072032
20
-3.04547995554884
30
0
41
1
10
150.00610884004
20
-1.93114154249562
30
0
41
1
10
150.086719724044
20
-1.37807504703582
30
0
41
1
10
150.20763605005
20
-0.564703723503413
30
0
41
1
10
150.247941492052
20
-0.296259800070544
30
0
41
1
10
150.308399655055
20
0.101362287550472
30
0
41
1
10
150.328552376056
20
0.234255330532335
30
0
41
1
10
150.368857818058
20
0.50204966229515
30
0
41
1
10
150.389010539059
20
0.636717121538851
30
0
41
1
10
150.489774144064
20
1.31346760804087
30
0
41
1
10
150.570385028068
20
1.86591752580747
30
0
41
1
10
150.731606796076
20
2.97960977994077
30
0
41
1
10
150.81221768008
20
3.54082454058781
30
0
41
1
10
150.973439448087
20
4.65582947459961
30
0
41
1
10
151.054050332091
20
5.20957269126058
30
0
41
1
10
151.215272100099
20
6.29164669409715
30
0
41
1
10
151.295882984103
20
6.81991688185181
30
0
41
1
10
151.457104752111
20
7.83292786800422
30
0
41
1
10
151.537715636115
20
8.31760558671576
30
0
41
1
10
151.698937404123
20
9.22708840918276
30
0
41
1
10
151.779548288127
20
9.65184150065537
30
0
41
1
10
151.940770056135
20
10.4286847305255
30
0
41
1
10
152.021380940139
20
10.7807451763804
30
0
41
1
10
152.182602708147
20
11.4042304084902
30
0
41
1
10
152.263213592151
20
11.6756527534794
30
0
41
1
10
152.424435360159
20
12.1352006117168
30
0
41
1
10
152.505046244163
20
12.3233482844587
30
0
41
1
10
152.666268012171
20
12.6186843487937
30
0
41
1
10
152.746878896175
20
12.7259111846827
30
0
41
1
10
152.908100664183
20
12.8657967927323
30
0
41
1
10
152.988711548187
20
12.8985
30
0
41
1
10
153.069322432191
20
12.8985
30
0
0
SPLINE
5
D9
100
AcDbEntity
8
1
62
256
6
ByLayer
370
13
48
1
60
0
100
AcDbSpline
70
4
71
3
72
80
73
76
40
0
40
0
40
0
40
0
40
0.0312500000000005
40
0.0312500000000005
40
0.062500000000001
40
0.062500000000001
40
0.0937500000000014
40
0.0937500000000014
40
0.125000000000002
40
0.125000000000002
40
0.156250000000002
40
0.156250000000002
40
0.187500000000003
40
0.187500000000003
40
0.218750000000003
40
0.218750000000003
40
0.250000000000004
40
0.250000000000004
40
0.281250000000004
40
0.281250000000004
40
0.312500000000004
40
0.312500000000004
40
0.328125000000005
40
0.328125000000005
40
0.335937500000005
40
0.335937500000005
40
0.339843750000005
40
0.339843750000005
40
0.343750000000005
40
0.343750000000005
40
0.375000000000005
40
0.375000000000005
40
0.406250000000005
40
0.406250000000005
40
0.437500000000005
40
0.437500000000005
40
0.468750000000005
40
0.468750000000005
40
0.500000000000005
40
0.500000000000005
40
0.531250000000005
40
0.531250000000005
40
0.562500000000005
40
0.562500000000005
40
0.593750000000005
40
0.593750000000005
40
0.625000000000004
40
0.625000000000004
40
0.656250000000004
40
0.656250000000004
40
0.671875000000004
40
0.671875000000004
40
0.679687500000004
40
0.679687500000004
40
0.687500000000004
40
0.687500000000004
40
0.718750000000004
40
0.718750000000004
40
0.750000000000003
40
0.750000000000003
40
0.781250000000003
40
0.781250000000003
40
0.812500000000003
40
0.812500000000003
40
0.843750000000002
40
0.843750000000002
40
0.875000000000002
40
0.875000000000002
40
0.906250000000001
40
0.906250000000001
40
0.937500000000001
40
0.937500000000001
40
0.968750000000001
40
0.968750000000001
40
1
40
1
40
1
40
1
41
1
10
152.094403777824
20
12.8985
30
0
41
1
10
152.17993425861
20
12.8985
30
0
41
1
10
152.265464739396
20
12.8616700356854
30
0
41
1
10
152.436525700969
20
12.7035948167029
30
0
41
1
10
152.522056181756
20
12.5822899963789
30
0
41
1
10
152.693117143328
20
12.2479886688933
30
0
41
1
10
152.778647624115
20
12.0349424846605
30
0
41
1
10
152.949708585688
20
11.5151683267737
30
0
41
1
10
153.035239066474
20
11.2084160027982
30
0
41
1
10
153.206300028047
20
10.5056952558235
30
0
41
1
10
153.291830508833
20
10.1097391162011
30
0
41
1
10
153.462891470406
20
9.23974966565302
30
0
41
1
10
153.548421951192
20
8.76576655211102
30
0
41
1
10
153.719482912765
20
7.75659121637131
30
0
41
1
10
153.805013393552
20
7.22147634188804
30
0
41
1
10
153.976074355124
20
6.11066890206848
30
0
41
1
10
154.061604835911
20
5.53506180238125
30
0
41
1
10
154.232665797484
20
4.36514411442261
30
0
41
1
10
154.31819627827
20
3.77090746462241
30
0
41
1
10
154.489257239843
20
2.58438369693027
30
0
41
1
10
154.574787720629
20
1.99214581764551
30
0
41
1
10
154.703083441809
20
1.11840718066603
30
0
41
1
10
154.745848682202
20
0.829568511001355
30
0
41
1
10
154.809996542792
20
0.401273635335315
30
0
41
1
10
154.831379162988
20
0.259333773180828
30
0
41
1
10
154.863453093283
20
0.0478114910947625
30
0
41
1
10
154.874144403381
20
-0.0223224838678107
30
0
41
1
10
154.895527023578
20
-0.163225321668904
30
0
41
1
10
154.906218333676
20
-0.233909298234039
30
0
41
1
10
155.002440124561
20
-0.872048707008275
30
0
41
1
10
155.087970605347
20
-1.45356474420407
30
0
41
1
10
155.25903156692
20
-2.63028013299567
30
0
41
1
10
155.344562047707
20
-3.22544858369113
30
0
41
1
10
155.515623009279
20
-4.41069640731826
30
0
41
1
10
155.601153490066
20
-5.0007167229075
30
0
41
1
10
155.772214451639
20
-6.15436148581108
30
0
41
1
10
155.857744932425
20
-6.71790587644571
30
0
41
1
10
156.028805893998
20
-7.7968818697274
30
0
41
1
10
156.114336374784
20
-8.31222851888325
30
0
41
1
10
156.285397336357
20
-9.2752270085181
30
0
41
1
10
156.370927817143
20
-9.72280937003211
30
0
41
1
10
156.541988778716
20
-10.5352282356474
30
0
41
1
10
156.627519259502
20
-10.9000275544341
30
0
41
1
10
156.798580221075
20
-11.5380181136474
30
0
41
1
10
156.884110701862
20
-11.8112110240631
30
0
41
1
10
157.055171663435
20
-12.263861850875
30
0
41
1
10
157.140702144221
20
-12.4433548949395
30
0
41
1
10
157.311763105794
20
-12.7126312091278
30
0
41
1
10
157.39729358658
20
-12.8024695052521
30
0
41
1
10
157.52558930776
20
-12.876520412729
30
0
41
1
10
157.568354548153
20
-12.8911178026294
30
0
41
1
10
157.632502408743
20
-12.8989227846919
30
0
41
1
10
157.653885028939
20
-12.8991973746481
30
0
41
1
10
157.696650269333
20
-12.8951255783205
30
0
41
1
10
157.718032889529
20
-12.890753411667
30
0
41
1
10
157.824945990512
20
-12.8567639510076
30
0
41
1
10
157.910476471298
20
-12.7906346813801
30
0
41
1
10
158.081537432871
20
-12.5708341051337
30
0
41
1
10
158.167067913658
20
-12.4171050253626
30
0
41
1
10
158.33812887523
20
-12.0165528922589
30
0
41
1
10
158.423659356017
20
-11.7696875702978
30
0
41
1
10
158.594720317589
20
-11.1831035022151
30
0
41
1
10
158.680250798376
20
-10.8433727083146
30
0
41
1
10
158.851311759949
20
-10.0779593933357
30
0
41
1
10
158.936842240735
20
-9.6523032965915
30
0
41
1
10
159.107903202308
20
-8.72840909512709
30
0
41
1
10
159.193433683094
20
-8.23023276759488
30
0
41
1
10
159.364494644667
20
-7.17978851638367
30
0
41
1
10
159.450025125453
20
-6.62760326582418
30
0
41
1
10
159.621086087026
20
-5.49052038754303
30
0
41
1
10
159.706616567813
20
-4.90570612170035
30
0
41
1
10
159.877677529385
20
-3.72506268836187
30
0
41
1
10
159.963208010172
20
-3.1292996067119
30
0
41
1
10
160.134268971745
20
-1.94646846572402
30
0
41
1
10
160.219799452531
20
-1.35943936084314
30
0
41
1
10
160.305329933317
20
-0.784816505049292
30
0
0
SPLINE
5
DA
100
AcDbEntity
8
1
62
256
6
ByLayer
370
13
48
1
60
0
100
AcDbSpline
70
4
71
3
72
42
73
38
40
0
40
0
40
0
40
0
40
0.0625
40
0.0625
40
0.125
40
0.125
40
0.15625
40
0.15625
40
0.171875
40
0.171875
40
0.1875
40
0.1875
40
0.25
40
0.25
40
0.3125
40
0.3125
40
0.375
40
0.375
40
0.4375
40
0.4375
40
0.5
40
0.5
40
0.5625
40
0.5625
40
0.625
40
0.625
40
0.6875
40
0.6875
40
0.75
40
0.75
40
0.8125
40
0.8125
40
0.875
40
0.875
40
0.9375
40
0.9375
40
1
40
1
40
1
40
1
41
1
10
149.2
20
-4.17265586488784
30
0
41
1
10
149.270560872815
20
-3.68497020953419
30
0
41
1
10
149.341121745629
20
-3.19412619892719
30
0
41
1
10
149.482243491258
20
-2.21713231151904
30
0
41
1
10
149.552804364073
20
-1.73099836618613
30
0
41
1
10
149.658645673295
20
-1.01240420447462
30
0
41
1
10
149.693926109702
20
-0.774626574652984
30
0
41
1
10
149.746846764313
20
-0.421339258468038
30
0
41
1
10
149.764486982516
20
-0.304139034267109
30
0
41
1
10
149.799767418924
20
-0.0709759427049903
30
0
41
1
10
149.817407637127
20
0.0446201623912827
30
0
41
1
10
149.905608728145
20
0.627058518333229
30
0
41
1
10
149.97616960096
20
1.10305221243527
30
0
41
1
10
150.117291346589
20
2.06718212594228
30
0
41
1
10
150.187852219404
20
2.55530935928204
30
0
41
1
10
150.328973965033
20
3.53386328775039
30
0
41
1
10
150.399534837847
20
4.02427195819368
30
0
41
1
10
150.540656583476
20
4.99605077220278
30
0
41
1
10
150.611217456291
20
5.47739461949641
30
0
41
1
10
150.75233920192
20
6.41888068689622
30
0
41
1
10
150.822900074734
20
6.8789911914763
30
0
41
1
10
150.964021820364
20
7.76590570836646
30
0
41
1
10
151.034582693178
20
8.19267722013205
30
0
41
1
10
151.175704438807
20
9.00184978129846
30
0
41
1
10
151.246265311622
20
9.38422293926394
30
0
41
1
10
151.387387057251
20
10.0955026675842
30
0
41
1
10
151.457947930065
20
10.4243906588552
30
0
41
1
10
151.599069675694
20
11.0222857558652
30
0
41
1
10
151.669630548509
20
11.2912862888144
30
0
41
1
10
151.810752294138
20
11.7660593728202
30
0
41
1
10
151.881313166953
20
11.9718374000102
30
0
41
1
10
152.022434912582
20
12.3198996387623
30
0
41
1
10
152.092995785396
20
12.4621990230266
30
0
41
1
10
152.234117531025
20
12.6857986170832
30
0
41
1
10
152.30467840384
20
12.7671199010992
30
0
41
1
10
152.445800149469
20
12.8734591330945
30
0
41
1
10
152.516361022283
20
12.8985
30
0
41
1
10
152.586921895098
20
12.8985
30
0
0
SPLINE
5
DB
100
AcDbEntity
8
1
62
256
6
ByLayer
370
13
48
1
60
0
100
AcDbSpline
70
4
71
3
72
87
73
83
40
0
40
0
40
0
40
0
40
0.031250000000001
40
0.031250000000001
40
0.062500000000002
40
0.062500000000002
40
0.093750000000003
40
0.093750000000003
40
0.125000000000004
40
0.125000000000004
40
0.156250000000005
40
0.156250000000005
40
0.187500000000006
40
0.187500000000006
40
0.218750000000007
40
0.218750000000007
40
0.250000000000008
40
0.250000000000008
40
0.281250000000009
40
0.281250000000009
40
0.31250000000001
40
0.31250000000001
40
0.31640625000001
40
0.31640625000001
40
0.32031250000001
40
0.32031250000001
40
0.32812500000001
40
0.32812500000001
40
0.34375000000001
40
0.34375000000001
40
0.37500000000001
40
0.37500000000001
40
0.40625000000001
40
0.40625000000001
40
0.43750000000001
40
0.43750000000001
40
0.46875000000001
40
0.46875000000001
40
0.50000000000001
40
0.50000000000001
40
0.53125000000001
40
0.53125000000001
40
0.56250000000001
40
0.56250000000001
40
0.59375000000001
40
0.59375000000001
40
0.62500000000001
40
0.62500000000001
40
0.63281250000001
40
0.63671875000001
40
0.63671875000001
40
0.64062500000001
40
0.64062500000001
40
0.65625000000001
40
0.65625000000001
40
0.687500000000009
40
0.687500000000009
40
0.718750000000008
40
0.718750000000008
40
0.750000000000007
40
0.750000000000007
40
0.781250000000006
40
0.781250000000006
40
0.812500000000005
40
0.812500000000005
40
0.843750000000004
40
0.843750000000004
40
0.875000000000003
40
0.875000000000003
40
0.906250000000003
40
0.906250000000003
40
0.937500000000002
40
0.937500000000002
40
0.953125000000001
40
0.953125000000001
40
0.957031250000001
40
0.957031250000001
40
0.960937500000001
40
0.960937500000001
40
0.968750000000001
40
0.968750000000001
40
1
40
1
40
1
40
1
41
1
10
151.612003240731
20
12.8985
30
0
41
1
10
151.702558727112
20
12.8985
30
0
41
1
10
151.793114213493
20
12.8571988555226
30
0
41
1
10
151.974225186255
20
12.6793312422704
30
0
41
1
10
152.064780672636
20
12.5426858574577
30
0
41
1
10
152.245891645399
20
12.1659602027751
30
0
41
1
10
152.33644713178
20
11.9258168853549
30
0
41
1
10
152.517558104542
20
11.3407830741192
30
0
41
1
10
152.608113590923
20
10.9958680575832
30
0
41
1
10
152.789224563685
20
10.2082346389719
30
0
41
1
10
152.879780050066
20
9.7655448710783
30
0
41
1
10
153.060891022829
20
8.79754347162003
30
0
41
1
10
153.15144650921
20
8.27231125951838
30
0
41
1
10
153.332557481972
20
7.16099512434636
30
0
41
1
10
153.423112968353
20
6.57502091602151
30
0
41
1
10
153.604223941115
20
5.3676484145887
30
0
41
1
10
153.694779427496
20
4.74636021633157
30
0
41
1
10
153.875890400258
20
3.49402914641388
30
0
41
1
10
153.96644588664
20
2.8630705582286
30
0
41
1
10
154.147556859402
20
1.61430197051456
30
0
41
1
10
154.238112345783
20
0.996537334222865
30
0
41
1
10
154.339987267962
20
0.319160801377592
30
0
41
1
10
154.351306703759
20
0.244137896081185
30
0
41
1
10
154.373945575355
20
0.0946037450788708
30
0
41
1
10
154.385265011152
20
0.0202570459515243
30
0
41
1
10
154.419223318545
20
-0.203243810100929
30
0
41
1
10
154.441862190141
20
-0.353297507758896
30
0
41
1
10
154.509778804926
20
-0.806265994227374
30
0
41
1
10
154.555056548117
20
-1.11199869907193
30
0
41
1
10
154.690889777689
20
-2.03725747185726
30
0
41
1
10
154.78144526407
20
-2.66498740919528
30
0
41
1
10
154.962556236832
20
-3.92137474157701
30
0
41
1
10
155.053111723213
20
-4.5499642446141
30
0
41
1
10
155.234222695975
20
-5.7833640244892
30
0
41
1
10
155.324778182356
20
-6.38807296258861
30
0
41
1
10
155.505889155119
20
-7.54778686732462
30
0
41
1
10
155.5964446415
20
-8.10267819117257
30
0
41
1
10
155.777555614262
20
-9.13893390743075
30
0
41
1
10
155.868111100643
20
-9.62020220124529
30
0
41
1
10
156.049222073405
20
-10.4907555058059
30
0
41
1
10
156.139777559786
20
-10.879988117661
30
0
41
1
10
156.320888532549
20
-11.5556988513093
30
0
41
1
10
156.41144401893
20
-11.8421790884296
30
0
41
1
10
156.592554991692
20
-12.3100769652685
30
0
41
1
10
156.683110478073
20
-12.4915433017472
30
0
41
1
10
156.864221450835
20
-12.7547593625035
30
0
41
1
10
156.954776937216
20
-12.8365838852946
30
0
41
1
10
157.067971295193
20
-12.88345506854
30
0
41
1
10
157.101929602586
20
-12.8933766524237
30
0
41
1
10
157.135887909979
20
-12.8973228179377
30
0
41
1
10
157.158526781574
20
-12.8986530630178
30
0
41
1
10
157.169846217371
20
-12.8986712148728
30
0
41
1
10
157.22644339636
20
-12.8955300415251
30
0
41
1
10
157.27172113955
20
-12.8826109352106
30
0
41
1
10
157.407554369122
20
-12.810137629967
30
0
41
1
10
157.498109855503
20
-12.7167098863491
30
0
41
1
10
157.679220828265
20
-12.4292837148584
30
0
41
1
10
157.769776314646
20
-12.2352124022403
30
0
41
1
10
157.950887287409
20
-11.7419378504903
30
0
41
1
10
158.04144277379
20
-11.442690634095
30
0
41
1
10
158.222553746552
20
-10.7422892454854
30
0
41
1
10
158.313109232933
20
-10.3411395036785
30
0
41
1
10
158.494220205695
20
-9.448604218664
30
0
41
1
10
158.584775692076
20
-8.95727733897206
30
0
41
1
10
158.765886664838
20
-7.903563610622
30
0
41
1
10
158.85644215122
20
-7.34127658980498
30
0
41
1
10
159.037553123982
20
-6.16987713415963
30
0
41
1
10
159.128108610363
20
-5.56087836718231
30
0
41
1
10
159.309219583125
20
-4.32203193250552
30
0
41
1
10
159.399775069506
20
-3.69228239827581
30
0
41
1
10
159.580886042269
20
-2.4363666585746
30
0
41
1
10
159.67144152865
20
-1.81026354291467
30
0
41
1
10
159.807274758221
20
-0.889101629848227
30
0
41
1
10
159.852552501412
20
-0.585009252626691
30
0
41
1
10
159.9091496804
20
-0.209877832518572
30
0
41
1
10
159.920469116198
20
-0.135099916534187
30
0
41
1
10
159.943107987793
20
0.0139304838803014
30
0
41
1
10
159.954427423591
20
0.0882553384167011
30
0
41
1
10
159.988385730984
20
0.312512991700714
30
0
41
1
10
160.011024602579
20
0.463043712935871
30
0
41
1
10
160.124218960555
20
1.22022566665976
30
0
41
1
10
160.214774446936
20
1.8406658673405
30
0
41
1
10
160.305329933317
20
2.4664523930241
30
0
0
SPLINE
5
DC
100
AcDbEntity
8
1
62
256
6
ByLayer
370
13
48
1
60
0
100
AcDbSpline
70
4
71
3
72
42
73
38
40
0
40
0
40
0
40
0
40
0.0312500000000003
40
0.0312500000000003
40
0.0468750000000001
40
0.0468750000000001
40
0.0625
40
0.0625
40
0.125
40
0.125
40
0.1875
40
0.1875
40
0.25
40
0.25
40
0.3125
40
0.3125
40
0.375
40
0.375
40
0.4375
40
0.4375
40
0.5
40
0.5
40
0.5625
40
0.5625
40
0.625
40
0.625
40
0.6875
40
0.6875
40
0.75
40
0.75
40
0.8125
40
0.8125
40
0.875
40
0.875
40
0.9375
40
0.9375
40
1
40
1
40
1
40
1
41
1
10
149.2
20
-0.852846485935629
30
0
41
1
10
149.230255430813
20
-0.649242769115887
30
0
41
1
10
149.260510861625
20
-0.447138183557655
30
0
41
1
10
149.305894007844
20
-0.146673130189526
30
0
41
1
10
149.32102172325
20
-0.047212244855416
30
0
41
1
10
149.351277154063
20
0.151905729374533
30
0
41
1
10
149.366404869469
20
0.251934944255822
30
0
41
1
10
149.4420434465
20
0.754259860788721
30
0
41
1
10
149.502554308125
20
1.16313428824858
30
0
41
1
10
149.623576031376
20
1.98981980772379
30
0
41
1
10
149.684086893001
20
2.40762676233297
30
0
41
1
10
149.805108616251
20
3.24605568841437
30
0
41
1
10
149.865619477876
20
3.66666991934758
30
0
41
1
10
149.986641201126
20
4.50374142733659
30
0
41
1
10
150.047152062751
20
4.9201875172098
30
0
41
1
10
150.168173786002
20
5.74138554782414
30
0
41
1
10
150.228684647627
20
6.14612362109062
30
0
41
1
10
150.349706370877
20
6.93618263346136
30
0
41
1
10
150.410217232502
20
7.32148838020737
30
0
41
1
10
150.531238955752
20
8.06521567322173
30
0
41
1
10
150.591749817377
20
8.42362246315571
30
0
41
1
10
150.712771540628
20
9.1067970574521
30
0
41
1
10
150.773282402253
20
9.4315523854238
30
0
41
1
10
150.894304125503
20
10.0417971360236
30
0
41
1
10
150.954814987128
20
10.3272779098468
30
0
41
1
10
151.075836710378
20
10.8547969529213
30
0
41
1
10
151.136347572003
20
11.096831330323
30
0
41
1
10
151.257369295254
20
11.534922331331
30
0
41
1
10
151.317880156879
20
11.7309799660684
30
0
41
1
10
151.438901880129
20
12.0762665971505
30
0
41
1
10
151.499412741754
20
12.2255009049464
30
0
41
1
10
151.620434465004
20
12.4778765347707
30
0
41
1
10
151.680945326629
20
12.5810263227067
30
0
41
1
10
151.801967049879
20
12.7433435893883
30
0
41
1
10
151.862477911505
20
12.8025212942087
30
0
41
1
10
151.983499634755
20
12.8800941831376
30
0
41
1
10
152.04401049638
20
12.8985
30
0
41
1
10
152.104521358005
20
12.8985
30
0
0
SPLINE
5
DD
100
AcDbEntity
8
1
62
256
6
ByLayer
370
13
48
1
60
0
100
AcDbSpline
70
4
71
3
72
85
73
81
40
0
40
0
40
0
40
0
40
0.0312499999999991
40
0.0312499999999991
40
0.0624999999999983
40
0.0624999999999983
40
0.0937499999999974
40
0.0937499999999974
40
0.124999999999997
40
0.124999999999997
40
0.156249999999996
40
0.156249999999996
40
0.187499999999995
40
0.187499999999995
40
0.218749999999994
40
0.218749999999994
40
0.249999999999993
40
0.249999999999993
40
0.281249999999992
40
0.281249999999992
40
0.296874999999992
40
0.296874999999992
40
0.300781249999992
40
0.300781249999992
40
0.304687499999992
40
0.304687499999992
40
0.312499999999992
40
0.312499999999992
40
0.343749999999992
40
0.343749999999992
40
0.374999999999991
40
0.374999999999991
40
0.406249999999991
40
0.406249999999991
40
0.437499999999991
40
0.437499999999991
40
0.46874999999999
40
0.46874999999999
40
0.49999999999999
40
0.49999999999999
40
0.53124999999999
40
0.53124999999999
40
0.562499999999989
40
0.562499999999989
40
0.593749999999989
40
0.593749999999989
40
0.601562499999989
40
0.601562499999989
40
0.609374999999989
40
0.609374999999989
40
0.624999999999989
40
0.624999999999989
40
0.65624999999999
40
0.65624999999999
40
0.68749999999999
40
0.68749999999999
40
0.718749999999991
40
0.718749999999991
40
0.749999999999991
40
0.749999999999991
40
0.781249999999992
40
0.781249999999992
40
0.812499999999992
40
0.812499999999992
40
0.843749999999993
40
0.843749999999993
40
0.874999999999993
40
0.874999999999993
40
0.906249999999994
40
0.906249999999994
40
0.910156249999994
40
0.910156249999994
40
0.914062499999994
40
0.921874999999995
40
0.921874999999995
40
0.937499999999996
40
0.937499999999996
40
0.968749999999998
40
0.968749999999998
40
1
40
1
40
1
40
1
41
1
10
151.129602703638
20
12.8985
30
0
41
1
10
151.225183195614
20
12.8985
30
0
41
1
10
151.32076368759
20
12.8524682014688
30
0
41
1
10
151.511924671541
20
12.6535727912616
30
0
41
1
10
151.607505163517
20
12.5006063263585
30
0
41
1
10
151.798666147469
20
12.0788008356602
30
0
41
1
10
151.894246639445
20
11.8098835861473
30
0
41
1
10
152.085407623396
20
11.1559000334727
30
0
41
1
10
152.180988115372
20
10.7708124523511
30
0
41
1
10
152.372149099324
20
9.89458771800412
30
0
41
1
10
152.4677295913
20
9.40350397070085
30
0
41
1
10
152.658890575251
20
8.33532622335937
30
0
41
1
10
152.754471067227
20
7.75835061124275
30
0
41
1
10
152.945632051179
20
6.54572468933273
30
0
41
1
10
153.041212543155
20
5.91022250960961
30
0
41
1
10
153.232373527106
20
4.61102298541974
30
0
41
1
10
153.327954019082
20
3.9474598710928
30
0
41
1
10
153.519115003034
20
2.62136043294168
30
0
41
1
10
153.614695495009
20
1.95891276472969
30
0
41
1
10
153.758066232973
20
0.984399140255846
30
0
41
1
10
153.805856478961
20
0.662709340242913
30
0
41
1
10
153.865594286446
20
0.26606341996532
30
0
41
1
10
153.877541847943
20
0.187006520162214
30
0
41
1
10
153.901436970937
20
0.0294714141063537
30
0
41
1
10
153.913384532434
20
-0.0488858898996511
30
0
41
1
10
153.949227216925
20
-0.285331116779389
30
0
41
1
10
153.973122339919
20
-0.444113999057464
30
0
41
1
10
154.092597954889
20
-1.24309006824708
30
0
41
1
10
154.188178446864
20
-1.89872050684653
30
0
41
1
10
154.379339430816
20
-3.22076616526215
30
0
41
1
10
154.474919922792
20
-3.88711288511126
30
0
41
1
10
154.666080906744
20
-5.20286664400555
30
0
41
1
10
154.761661398719
20
-5.85215350491995
30
0
41
1
10
154.952822382671
20
-7.10334067505283
30
0
41
1
10
155.048402874647
20
-7.70509311768291
30
0
41
1
10
155.239563858599
20
-8.83217830703589
30
0
41
1
10
155.335144350574
20
-9.35737681968192
30
0
41
1
10
155.526305334526
20
-10.3081360470641
30
0
41
1
10
155.621885826502
20
-10.7336169600625
30
0
41
1
10
155.813046810454
20
-11.470894843382
30
0
41
1
10
155.908627302429
20
-11.7826866255193
30
0
41
1
10
156.099788286381
20
-12.2890381716789
30
0
41
1
10
156.195368778357
20
-12.483658745353
30
0
41
1
10
156.386529762309
20
-12.7617245477966
30
0
41
1
10
156.482110254284
20
-12.8452675754911
30
0
41
1
10
156.601585869254
20
-12.8884359347195
30
0
41
1
10
156.625480992248
20
-12.8940195527821
30
0
41
1
10
156.673271238236
20
-12.8993347250091
30
0
41
1
10
156.69716636123
20
-12.8991013174297
30
0
41
1
10
156.768851730212
20
-12.8896807534295
30
0
41
1
10
156.8166419762
20
-12.8716466031513
30
0
41
1
10
156.960012714163
20
-12.7794125487282
30
0
41
1
10
157.055593206139
20
-12.6668722844204
30
0
41
1
10
157.246754190091
20
-12.3283347991579
30
0
41
1
10
157.342334682067
20
-12.1022464129423
30
0
41
1
10
157.533495666018
20
-11.5328665368672
30
0
41
1
10
157.629076157994
20
-11.1895298023558
30
0
41
1
10
157.820237141946
20
-10.3918990996472
30
0
41
1
10
157.915817633922
20
-9.93763083398323
30
0
41
1
10
158.106978617873
20
-8.93474771373678
30
0
41
1
10
158.202559109849
20
-8.38623053125283
30
0
41
1
10
158.393720093801
20
-7.21994954023572
30
0
41
1
10
158.489300585777
20
-6.60232810531247
30
0
41
1
10
158.680461569728
20
-5.32769771305021
30
0
41
1
10
158.776042061704
20
-4.67083272219259
30
0
41
1
10
158.967203045656
20
-3.34786648026923
30
0
41
1
10
159.062783537632
20
-2.6818728256124
30
0
41
1
10
159.253944521583
20
-1.36718646872427
30
0
41
1
10
159.349525013559
20
-0.718547173250897
30
0
41
1
10
159.457053067032
20
-0.0100689302608714
30
0
41
1
10
159.469000628529
20
0.0683123027241379
30
0
41
1
10
159.492895751523
20
0.226037045995639
30
0
41
1
10
159.528738436014
20
0.463483530119248
30
0
41
1
10
159.564581120505
20
0.703356221631736
30
0
41
1
10
159.636266489487
20
1.1858939714204
30
0
41
1
10
159.684056735475
20
1.51132165155656
30
0
41
1
10
159.827427473438
20
2.49480039558137
30
0
41
1
10
159.923007965414
20
3.16020803828107
30
0
41
1
10
160.114168949366
20
4.48469536762693
30
0
41
1
10
160.209749441342
20
5.14367216578228
30
0
41
1
10
160.305329933317
20
5.78454416259527
30
0
0
SPLINE
5
DE
100
AcDbEntity
8
1
62
256
6
ByLayer
370
13
48
1
60
0
100
AcDbSpline
70
4
71
3
72
28
73
24
40
0
40
0
40
0
40
0
40
0.125
40
0.125
40
0.25
40
0.25
40
0.3125
40
0.3125
40
0.375
40
0.375
40
0.4375
40
0.4375
40
0.5
40
0.5
40
0.5625
40
0.5625
40
0.625
40
0.625
40
0.75
40
0.75
40
0.875
40
0.875
40
1
40
1
40
1
40
1
41
1
10
149.2
20
2.39655645324953
30
0
41
1
10
149.300921700871
20
3.093536396632
30
0
41
1
10
149.401843401743
20
3.79762874284759
30
0
41
1
10
149.603686803485
20
5.18785283669146
30
0
41
1
10
149.704608504357
20
5.87382855120183
30
0
41
1
10
149.855991055664
20
6.86242824166953
30
0
41
1
10
149.906451906099
20
7.18522251891051
30
0
41
1
10
150.007373606971
20
7.81299415054369
30
0
41
1
10
150.057834457406
20
8.11796545828659
30
0
41
1
10
150.158756158278
20
8.70604715320161
30
0
41
1
10
150.209217008713
20
8.98915210794408
30
0
41
1
10
150.310138709585
20
9.52993862093075
30
0
41
1
10
150.36059956002
20
9.78761583889155
30
0
41
1
10
150.461521260892
20
10.2746143018047
30
0
41
1
10
150.511982111327
20
10.5039326588627
30
0
41
1
10
150.612903812199
20
10.9320204117444
30
0
41
1
10
150.663364662634
20
11.1307885640643
30
0
41
1
10
150.814747213942
20
11.6791832965996
30
0
41
1
10
150.915668914813
20
11.9805116537149
30
0
41
1
10
151.117512316555
20
12.4531436635086
30
0
41
1
10
151.218434017427
20
12.6245433434224
30
0
41
1
10
151.42027741917
20
12.8471544567116
30
0
41
1
10
151.521199120041
20
12.8985
30
0
41
1
10
151.622120820912
20
12.8985
30
0
0
SPLINE
5
DF
100
AcDbEntity
8
1
62
256
6
ByLayer
370
13
48
1
60
0
100
AcDbSpline
70
4
71
3
72
109
73
105
40
0
40
0
40
0
40
0
40
0.0312499999999993
40
0.0312499999999993
40
0.0624999999999986
40
0.0624999999999986
40
0.0937499999999979
40
0.0937499999999979
40
0.109374999999998
40
0.109374999999998
40
0.124999999999997
40
0.124999999999997
40
0.140624999999997
40
0.140624999999997
40
0.156249999999997
40
0.156249999999997
40
0.171874999999997
40
0.171874999999997
40
0.187499999999996
40
0.187499999999996
40
0.218749999999995
40
0.218749999999995
40
0.249999999999995
40
0.249999999999995
40
0.281249999999994
40
0.281249999999994
40
0.285156249999994
40
0.285156249999994
40
0.289062499999994
40
0.289062499999994
40
0.296874999999994
40
0.296874999999994
40
0.312499999999994
40
0.312499999999994
40
0.343749999999995
40
0.343749999999995
40
0.374999999999995
40
0.374999999999995
40
0.390624999999995
40
0.390624999999995
40
0.406249999999995
40
0.406249999999995
40
0.421874999999995
40
0.421874999999995
40
0.437499999999995
40
0.437499999999995
40
0.453124999999996
40
0.453124999999996
40
0.468749999999996
40
0.468749999999996
40
0.499999999999996
40
0.499999999999996
40
0.531249999999996
40
0.531249999999996
40
0.562499999999996
40
0.562499999999996
40
0.570312499999996
40
0.570312499999996
40
0.574218749999996
40
0.574218749999996
40
0.578124999999996
40
0.578124999999996
40
0.593749999999996
40
0.593749999999996
40
0.624999999999996
40
0.624999999999996
40
0.656249999999997
40
0.656249999999997
40
0.671874999999997
40
0.671874999999997
40
0.687499999999997
40
0.687499999999997
40
0.703124999999997
40
0.703124999999997
40
0.718749999999997
40
0.718749999999997
40
0.734374999999997
40
0.734374999999997
40
0.749999999999996
40
0.749999999999996
40
0.765624999999996
40
0.765624999999996
40
0.781249999999996
40
0.781249999999996
40
0.812499999999997
40
0.812499999999997
40
0.843749999999997
40
0.843749999999997
40
0.859374999999997
40
0.859374999999997
40
0.863281249999997
40
0.863281249999997
40
0.867187499999997
40
0.874999999999997
40
0.874999999999997
40
0.906249999999998
40
0.906249999999998
40
0.937499999999999
40
0.937499999999999
40
0.968749999999999
40
0.968749999999999
40
0.984375
40
0.984375
40
1
40
1
40
1
40
1
41
1
10
150.647202166545
20
12.8985
30
0
41
1
10
150.747807664116
20
12.8985
30
0
41
1
10
150.848413161686
20
12.8474772431699
30
0
41
1
10
151.049624156827
20
12.6263094655492
30
0
41
1
10
151.150229654398
20
12.4560323674346
30
0
41
1
10
151.351440649539
20
11.9864927291856
30
0
41
1
10
151.452046147109
20
11.6871352550155
30
0
41
1
10
151.602954393465
20
11.1422510868094
30
0
41
1
10
151.653257142251
20
10.9447441525547
30
0
41
1
10
151.753862639821
20
10.5193314778045
30
0
41
1
10
151.804165388606
20
10.2914269252321
30
0
41
1
10
151.904770886177
20
9.80737003629179
30
0
41
1
10
151.955073634962
20
9.55122050388854
30
0
41
1
10
152.055679132533
20
9.01355755067257
30
0
41
1
10
152.105981881318
20
8.732048366534
30
0
41
1
10
152.206587378888
20
8.14717637668167
30
0
41
1
10
152.256890127674
20
7.8438188919817
30
0
41
1
10
152.357495625244
20
7.21924207094219
30
0
41
1
10
152.40779837403
20
6.89802867498099
30
0
41
1
10
152.558706620385
20
5.91404938794801
30
0
41
1
10
152.659312117956
20
5.23098686039009
30
0
41
1
10
152.860523113097
20
3.84593934439826
30
0
41
1
10
152.961128610668
20
3.14410927849187
30
0
41
1
10
153.162339605809
20
1.75384885988058
30
0
41
1
10
153.262945103379
20
1.06550297354875
30
0
41
1
10
153.376126288146
20
0.312905096597746
30
0
41
1
10
153.388701975343
20
0.229580605565388
30
0
41
1
10
153.413853349735
20
0.063566777571026
30
0
41
1
10
153.426429036931
20
-0.0189149684876782
30
0
41
1
10
153.46415609852
20
-0.267591126007261
30
0
41
1
10
153.489307472913
20
-0.434660580051485
30
0
41
1
10
153.564761596091
20
-0.939235140549556
30
0
41
1
10
153.615064344876
20
-1.28012231795057
30
0
41
1
10
153.765972591232
20
-2.31179445821692
30
0
41
1
10
153.866578088803
20
-3.01179500436192
30
0
41
1
10
154.067789083944
20
-4.40662841893345
30
0
41
1
10
154.168394581514
20
-5.10133222054014
30
0
41
1
10
154.31930282787
20
-6.11343224485603
30
0
41
1
10
154.369605576655
20
-6.44577977767943
30
0
41
1
10
154.470211074226
20
-7.09602897426078
30
0
41
1
10
154.520513823011
20
-7.41392457168675
30
0
41
1
10
154.621119320582
20
-8.03101603332988
30
0
41
1
10
154.671422069367
20
-8.33020604281231
30
0
41
1
10
154.772027566937
20
-8.90597855620103
30
0
41
1
10
154.822330315723
20
-9.18255592641998
30
0
41
1
10
154.922935813293
20
-9.70970827357246
30
0
41
1
10
154.973238562079
20
-9.96027928404828
30
0
41
1
10
155.073844059649
20
-10.4326750600917
30
0
41
1
10
155.124146808434
20
-10.654497344035
30
0
41
1
10
155.27505505479
20
-11.2738523259215
30
0
41
1
10
155.375660552361
20
-11.6248703387694
30
0
41
1
10
155.576871547502
20
-12.1967814555153
30
0
41
1
10
155.677477045072
20
-12.417741460361
30
0
41
1
10
155.878688040213
20
-12.7352549050908
30
0
41
1
10
155.979293537784
20
-12.8319314948763
30
0
41
1
10
156.105050409747
20
-12.8842899857217
30
0
41
1
10
156.13020178414
20
-12.8913539578509
30
0
41
1
10
156.167928845729
20
-12.8970529197872
30
0
41
1
10
156.180504532925
20
-12.8981365497609
30
0
41
1
10
156.205655907318
20
-12.8987090700181
30
0
41
1
10
156.218231594514
20
-12.8982025498339
30
0
41
1
10
156.281110030496
20
-12.8916281553972
30
0
41
1
10
156.331412779281
20
-12.8734072169793
30
0
41
1
10
156.482321025637
20
-12.7765009409533
30
0
41
1
10
156.582926523207
20
-12.6553123154833
30
0
41
1
10
156.784137518348
20
-12.286721843526
30
0
41
1
10
156.884743015919
20
-12.0392044420416
30
0
41
1
10
157.035651262275
20
-11.5706059678117
30
0
41
1
10
157.08595401106
20
-11.398273905536
30
0
41
1
10
157.18655950863
20
-11.0220654590715
30
0
41
1
10
157.236862257416
20
-10.8181889695159
30
0
41
1
10
157.337467754986
20
-10.3804148246644
30
0
41
1
10
157.387770503771
20
-10.1465186946136
30
0
41
1
10
157.488376001342
20
-9.65101304024878
30
0
41
1
10
157.538678750127
20
-9.38940663447016
30
0
41
1
10
157.639284247698
20
-8.84150283301648
30
0
41
1
10
157.689586996483
20
-8.55520992942087
30
0
41
1
10
157.790192494054
20
-7.96155498061779
30
0
41
1
10
157.840495242839
20
-7.65419842396906
30
0
41
1
10
157.94110074041
20
-7.02248614689634
30
0
41
1
10
157.991403489195
20
-6.69813643066377
30
0
41
1
10
158.092008986765
20
-6.03678160260421
30
0
41
1
10
158.142311735551
20
-5.6997824965247
30
0
41
1
10
158.293219981907
20
-4.67645518912704
30
0
41
1
10
158.393825479477
20
-3.97793248878691
30
0
41
1
10
158.595036474618
20
-2.58211884914363
30
0
41
1
10
158.695641972189
20
-1.88494223882611
30
0
41
1
10
158.846550218545
20
-0.861411105884855
30
0
41
1
10
158.89685296733
20
-0.523884046036301
30
0
41
1
10
158.959731403311
20
-0.10828150097413
30
0
41
1
10
158.972307090508
20
-0.025673258008311
30
0
41
1
10
158.9974584649
20
0.139878615060951
30
0
41
1
10
159.035185526489
20
0.389179565714727
30
0
41
1
10
159.072912588078
20
0.641226109564144
30
0
41
1
10
159.198669460041
20
1.48663312373722
30
0
41
1
10
159.299274957612
20
2.18006669707202
30
0
41
1
10
159.500485952753
20
3.57438761786693
30
0
41
1
10
159.601091450324
20
4.2751749732785
30
0
41
1
10
159.802302445465
20
5.65096735054726
30
0
41
1
10
159.902907943035
20
6.32580611676963
30
0
41
1
10
160.053816189391
20
7.29202568454494
30
0
41
1
10
160.104118938176
20
7.6064240641677
30
0
41
1
10
160.204724435747
20
8.21568592350218
30
0
41
1
10
160.255027184532
20
8.51054365579171
30
0
41
1
10
160.305329933317
20
8.79372620074668
30
0
0
SPLINE
5
E0
100
AcDbEntity
8
1
62
256
6
ByLayer
370
13
48
1
60
0
100
AcDbSpline
70
4
71
3
72
22
73
18
40
0
40
0
40
0
40
0
40
0.125
40
0.125
40
0.25
40
0.25
40
0.375
40
0.375
40
0.5
40
0.5
40
0.625
40
0.625
40
0.75
40
0.75
40
0.875
40
0.875
40
1
40
1
40
1
40
1
41
1
10
149.2
20
5.71663804589963
30
0
41
1
10
149.280821678492
20
6.25962028674684
30
0
41
1
10
149.361643356985
20
6.78996185137259
30
0
41
1
10
149.52328671397
20
7.80721062140441
30
0
41
1
10
149.604108392462
20
8.29405384487836
30
0
41
1
10
149.765751749447
20
9.20778741657148
30
0
41
1
10
149.84657342794
20
9.63462479548966
30
0
41
1
10
150.008216784925
20
10.4153931354114
30
0
41
1
10
150.089038463417
20
10.7692936701666
30
0
41
1
10
150.250681820402
20
11.3960909057116
30
0
41
1
10
150.331503498895
20
11.6689848448691
30
0
41
1
10
150.493146855879
20
12.1310379151574
30
0
41
1
10
150.573968534372
20
12.3202193268477
30
0
41
1
10
150.735611891357
20
12.6171729356219
30
0
41
1
10
150.816433569849
20
12.7249840204192
30
0
41
1
10
150.978076926834
20
12.8656250456667
30
0
41
1
10
151.058898605327
20
12.8985
30
0
41
1
10
151.139720283819
20
12.8985
30
0
0
SPLINE
5
E1
100
AcDbEntity
8
1
62
256
6
ByLayer
370
13
48
1
60
0
100
AcDbSpline
70
4
71
3
72
139
73
135
40
0
40
0
40
0
40
0
40
0.0312500000000001
40
0.0312500000000001
40
0.0468750000000001
40
0.0468750000000001
40
0.0625000000000001
40
0.0625000000000001
40
0.0781250000000001
40
0.0781250000000001
40
0.0937500000000001
40
0.0937500000000001
40
0.109375
40
0.109375
40
0.125
40
0.125
40
0.140625
40
0.140625
40
0.15625
40
0.15625
40
0.171875
40
0.171875
40
0.1875
40
0.1875
40
0.203125
40
0.203125
40
0.21875
40
0.21875
40
0.234375
40
0.234375
40
0.25
40
0.25
40
0.265625
40
0.265625
40
0.2734375
40
0.2734375
40
0.27734375
40
0.27734375
40
0.28125
40
0.28125
40
0.3125
40
0.3125
40
0.328125
40
0.328125
40
0.34375
40
0.34375
40
0.359375
40
0.359375
40
0.375
40
0.375
40
0.390625000000001
40
0.390625000000001
40
0.406250000000001
40
0.406250000000001
40
0.421875000000001
40
0.421875000000001
40
0.437500000000001
40
0.437500000000001
40
0.453125000000001
40
0.453125000000001
40
0.468750000000001
40
0.468750000000001
40
0.484375000000001
40
0.484375000000001
40
0.500000000000001
40
0.500000000000001
40
0.515625000000001
40
0.515625000000001
40
0.531250000000001
40
0.531250000000001
40
0.546875000000001
40
0.546875000000001
40
0.550781250000001
40
0.550781250000001
40
0.554687500000001
40
0.562500000000001
40
0.562500000000001
40
0.578125000000001
40
0.578125000000001
40
0.593750000000001
40
0.593750000000001
40
0.609375000000001
40
0.609375000000001
40
0.625000000000001
40
0.625000000000001
40
0.640625000000001
40
0.640625000000001
40
0.656250000000001
40
0.656250000000001
40
0.671875000000001
40
0.671875000000001
40
0.687500000000001
40
0.687500000000001
40
0.703125000000001
40
0.703125000000001
40
0.718750000000001
40
0.718750000000001
40
0.734375000000001
40
0.734375000000001
40
0.750000000000001
40
0.750000000000001
40
0.765625000000001
40
0.765625000000001
40
0.781250000000001
40
0.781250000000001
40
0.812500000000001
40
0.812500000000001
40
0.820312500000001
40
0.820312500000001
40
0.824218750000001
40
0.824218750000001
40
0.828125000000001
40
0.828125000000001
40
0.843750000000001
40
0.843750000000001
40
0.859375000000001
40
0.859375000000001
40
0.875000000000001
40
0.875000000000001
40
0.890625000000001
40
0.890625000000001
40
0.906250000000001
40
0.906250000000001
40
0.921875000000001
40
0.921875000000001
40
0.9375
40
0.9375
40
0.953125
40
0.953125
40
0.96875
40
0.96875
40
0.984375
40
0.984375
40
1
40
1
40
1
40
1
41
1
10
150.164801629452
20
12.8985
30
0
41
1
10
150.270432132618
20
12.8985
30
0
41
1
10
150.376062635783
20
12.842225080916
30
0
41
1
10
150.534508390531
20
12.6587049770035
30
0
41
1
10
150.587323642113
20
12.5810626336602
30
0
41
1
10
150.692954145278
20
12.3911951183295
30
0
41
1
10
150.745769396861
20
12.2789652242844
30
0
41
1
10
150.851399900026
20
12.0190042170015
30
0
41
1
10
150.904215151609
20
11.8712695084927
30
0
41
1
10
151.009845654774
20
11.5402444776871
30
0
41
1
10
151.062660906357
20
11.3569521965267
30
0
41
1
10
151.168291409522
20
10.955706844955
30
0
41
1
10
151.221106661105
20
10.7377538335474
30
0
41
1
10
151.32673716427
20
10.269060884637
30
0
41
1
10
151.379552415853
20
10.0183231954057
30
0
41
1
10
151.485182919018
20
9.48687961560961
30
0
41
1
10
151.537998170601
20
9.20617807249906
30
0
41
1
10
151.643628673766
20
8.61847081728658
30
0
41
1
10
151.696443925349
20
8.31147119610344
30
0
41
1
10
151.802074428514
20
7.67551891565455
30
0
41
1
10
151.854889680097
20
7.34657351762598
30
0
41
1
10
151.960520183262
20
6.67156521858101
30
0
41
1
10
152.013335434844
20
6.32551004955022
30
0
41
1
10
152.118965938009
20
5.62137444602288
30
0
41
1
10
152.171781189592
20
5.26330150042887
30
0
41
1
10
152.277411692758
20
4.54024822052671
30
0
41
1
10
152.33022694434
20
4.17527451066439
30
0
41
1
10
152.435857447505
20
3.44334922030379
30
0
41
1
10
152.488672699088
20
3.07640294923402
30
0
41
1
10
152.594303202253
20
2.34509311280755
30
0
41
1
10
152.647118453836
20
1.9807332993777
30
0
41
1
10
152.752748957001
20
1.25865134471545
30
0
41
1
10
152.805564208584
20
0.900931359230782
30
0
41
1
10
152.884787085958
20
0.371925211485063
30
0
41
1
10
152.911194711749
20
0.19684730169061
30
0
41
1
10
152.950806150436
20
-0.0636036689990078
30
0
41
1
10
152.964009963332
20
-0.15054395034727
30
0
41
1
10
152.990417589123
20
-0.325332761745528
30
0
41
1
10
153.003621402019
20
-0.413069291331425
30
0
41
1
10
153.12245571808
20
-1.20556379057859
30
0
41
1
10
153.228086221245
20
-1.93077846470453
30
0
41
1
10
153.386531975993
20
-3.02739004423469
30
0
41
1
10
153.439347227575
20
-3.39431477617436
30
0
41
1
10
153.544977730741
20
-4.12640920868839
30
0
41
1
10
153.597792982323
20
-4.49157366568761
30
0
41
1
10
153.703423485488
20
-5.21523358974156
30
0
41
1
10
153.756238737071
20
-5.57372248285185
30
0
41
1
10
153.861869240236
20
-6.27891921558691
30
0
41
1
10
153.914684491819
20
-6.62561959265193
30
0
41
1
10
154.020314994984
20
-7.30214159561498
30
0
41
1
10
154.073130246567
20
-7.63195548548856
30
0
41
1
10
154.178760749732
20
-8.26985170512216
30
0
41
1
10
154.231576001315
20
-8.57792673723671
30
0
41
1
10
154.33720650448
20
-9.16796565510222
30
0
41
1
10
154.390021756063
20
-9.44992338423791
30
0
41
1
10
154.495652259228
20
-9.98402582840947
30
0
41
1
10
154.548467510811
20
-10.2361661088294
30
0
41
1
10
154.654098013976
20
-10.7077704776821
30
0
41
1
10
154.706913265559
20
-10.9272322203096
30
0
41
1
10
154.812543768724
20
-11.3315579267254
30
0
41
1
10
154.865359020306
20
-11.5164217357489
30
0
41
1
10
154.970989523472
20
-11.8506092258116
30
0
41
1
10
155.023804775054
20
-11.9999347825906
30
0
41
1
10
155.12943527822
20
-12.2630559808331
30
0
41
1
10
155.182250529802
20
-12.3768551548502
30
0
41
1
10
155.287881032967
20
-12.569803609615
30
0
41
1
10
155.34069628455
20
-12.6489575738801
30
0
41
1
10
155.446326787715
20
-12.7742401401158
30
0
41
1
10
155.499142039298
20
-12.820374029077
30
0
41
1
10
155.604772542463
20
-12.881833787922
30
0
41
1
10
155.657587794046
20
-12.8971650391019
30
0
41
1
10
155.723606858524
20
-12.8987292204493
30
0
41
1
10
155.73681067142
20
-12.8981681731574
30
0
41
1
10
155.763218297211
20
-12.8952621456459
30
0
41
1
10
155.802829735898
20
-12.8882241243748
30
0
41
1
10
155.842441174585
20
-12.8729558156294
30
0
41
1
10
155.921664051959
20
-12.8309611013099
30
0
41
1
10
155.974479303542
20
-12.7876711230394
30
0
41
1
10
156.080109806707
20
-12.6682524228345
30
0
41
1
10
156.132925058289
20
-12.5921183859062
30
0
41
1
10
156.238555561455
20
-12.4053266500969
30
0
41
1
10
156.291370813037
20
-12.2946641917197
30
0
41
1
10
156.397001316203
20
-12.0378614108353
30
0
41
1
10
156.449816567785
20
-11.8917174313682
30
0
41
1
10
156.55544707095
20
-11.5638565171114
30
0
41
1
10
156.608262322533
20
-11.3821375411067
30
0
41
1
10
156.713892825699
20
-10.9839780554449
30
0
41
1
10
156.766708077281
20
-10.7675375093798
30
0
41
1
10
156.872338580446
20
-10.3017653374636
30
0
41
1
10
156.925153832029
20
-10.052435862172
30
0
41
1
10
157.030784335194
20
-9.52366408208059
30
0
41
1
10
157.083599586777
20
-9.24422603685829
30
0
41
1
10
157.189230089942
20
-8.65886644103705
30
0
41
1
10
157.242045341525
20
-8.35295091450581
30
0
41
1
10
157.34767584469
20
-7.71896090756863
30
0
41
1
10
157.400491096273
20
-7.39089365058214
30
0
41
1
10
157.506121599438
20
-6.717418864546
30
0
41
1
10
157.558936851021
20
-6.37201906200633
30
0
41
1
10
157.664567354186
20
-5.66896495264126
30
0
41
1
10
157.717382605768
20
-5.31131815981306
30
0
41
1
10
157.823013108934
20
-4.58889155456134
30
0
41
1
10
157.875828360516
20
-4.22411841618347
30
0
41
1
10
157.981458863682
20
-3.49238117603491
30
0
41
1
10
158.034274115264
20
-3.12542244906518
30
0
41
1
10
158.192719870012
20
-2.02813024962168
30
0
41
1
10
158.298350373177
20
-1.30168786420231
30
0
41
1
10
158.430388502134
20
-0.418899097465982
30
0
41
1
10
158.456796127925
20
-0.243581222498932
30
0
41
1
10
158.496407566612
20
0.0172534155015285
30
0
41
1
10
158.509611379508
20
0.103946650613494
30
0
41
1
10
158.536019005299
20
0.27849004136786
30
0
41
1
10
158.549222818195
20
0.366107957308969
30
0
41
1
10
158.615241882673
20
0.805811207209985
30
0
41
1
10
158.668057134256
20
1.1627620052204
30
0
41
1
10
158.773687637421
20
1.88363893559477
30
0
41
1
10
158.826502889004
20
2.2475630503549
30
0
41
1
10
158.932133392169
20
2.97838492315086
30
0
41
1
10
158.984948643752
20
3.34527907280409
30
0
41
1
10
159.090579146917
20
4.07752380547217
30
0
41
1
10
159.1433943985
20
4.44286921122716
30
0
41
1
10
159.249024901665
20
5.16711578318848
30
0
41
1
10
159.301840153247
20
5.52601042683551
30
0
41
1
10
159.407470656413
20
6.23224792028927
30
0
41
1
10
159.460285907995
20
6.57958333511456
30
0
41
1
10
159.565916411161
20
7.25759918846779
30
0
41
1
10
159.618731662743
20
7.5882718883652
30
0
41
1
10
159.724362165909
20
8.22809362800709
30
0
41
1
10
159.777177417491
20
8.53723533511351
30
0
41
1
10
159.882807920656
20
9.12958979796036
30
0
41
1
10
159.935623172239
20
9.41279633255942
30
0
41
1
10
160.041253675404
20
9.9495445565596
30
0
41
1
10
160.094068926987
20
10.2030817249206
30
0
41
1
10
160.199699430152
20
10.677587989507
30
0
41
1
10
160.252514681735
20
10.8985546425962
30
0
41
1
10
160.305329933317
20
11.1022548309342
30
0
0
SPLINE
5
E2
100
AcDbEntity
8
1
62
256
6
ByLayer
370
13
48
1
60
0
100
AcDbSpline
70
4
71
3
72
22
73
18
40
0
40
0
40
0
40
0
40
0.125
40
0.125
40
0.25
40
0.25
40
0.375
40
0.375
40
0.5
40
0.5
40
0.625
40
0.625
40
0.75
40
0.75
40
0.875
40
0.875
40
1
40
1
40
1
40
1
41
1
10
149.2
20
8.73661200423169
30
0
41
1
10
149.260721656114
20
9.08032529776483
30
0
41
1
10
149.321443312227
20
9.40717664514276
30
0
41
1
10
149.442886624454
20
10.021460522387
30
0
41
1
10
149.503608280568
20
10.3088841428025
30
0
41
1
10
149.625051592795
20
10.8400561910763
30
0
41
1
10
149.685773248909
20
11.083800553329
30
0
41
1
10
149.807216561136
20
11.5250195157967
30
0
41
1
10
149.86793821725
20
11.7224950610299
30
0
41
1
10
149.989381529477
20
12.0702902968996
30
0
41
1
10
150.05010318559
20
12.2206153378339
30
0
41
1
10
150.171546497818
20
12.4748344991938
30
0
41
1
10
150.232268153931
20
12.5787372071596
30
0
41
1
10
150.353711466158
20
12.7422336417102
30
0
41
1
10
150.414433122272
20
12.8018377657502
30
0
41
1
10
150.535876434499
20
12.8799655351107
30
0
41
1
10
150.596598090613
20
12.8985
30
0
41
1
10
150.657319746726
20
12.8985
30
0
0
SPLINE
5
E3
100
AcDbEntity
8
1
62
256
6
ByLayer
370
13
48
1
60
0
100
AcDbSpline
70
4
71
3
72
145
73
141
40
0
40
0
40
0
40
0
40
0.0156249999999999
40
0.0156249999999999
40
0.0312499999999999
40
0.0312499999999999
40
0.0468749999999998
40
0.0468749999999998
40
0.0624999999999997
40
0.0624999999999997
40
0.0781249999999997
40
0.0781249999999997
40
0.0937499999999996
40
0.0937499999999996
40
0.109375
40
0.109375
40
0.125
40
0.125
40
0.140624999999999
40
0.140624999999999
40
0.156249999999999
40
0.156249999999999
40
0.171874999999999
40
0.171874999999999
40
0.187499999999999
40
0.187499999999999
40
0.203124999999999
40
0.203124999999999
40
0.218749999999999
40
0.218749999999999
40
0.234374999999999
40
0.234374999999999
40
0.249999999999999
40
0.249999999999999
40
0.257812499999999
40
0.257812499999999
40
0.261718749999999
40
0.261718749999999
40
0.265624999999999
40
0.265624999999999
40
0.281249999999999
40
0.281249999999999
40
0.296874999999999
40
0.296874999999999
40
0.312499999999998
40
0.312499999999998
40
0.328124999999998
40
0.328124999999998
40
0.343749999999998
40
0.343749999999998
40
0.359374999999998
40
0.359374999999998
40
0.374999999999998
40
0.374999999999998
40
0.390624999999997
40
0.390624999999997
40
0.406249999999997
40
0.406249999999997
40
0.421874999999997
40
0.421874999999997
40
0.437499999999997
40
0.437499999999997
40
0.453124999999996
40
0.453124999999996
40
0.468749999999996
40
0.468749999999996
40
0.484374999999996
40
0.484374999999996
40
0.499999999999996
40
0.499999999999996
40
0.515624999999995
40
0.515624999999995
40
0.519531249999995
40
0.519531249999995
40
0.523437499999995
40
0.523437499999995
40
0.531249999999995
40
0.531249999999995
40
0.546874999999995
40
0.546874999999995
40
0.562499999999996
40
0.562499999999996
40
0.578124999999996
40
0.578124999999996
40
0.593749999999996
40
0.593749999999996
40
0.609374999999996
40
0.609374999999996
40
0.624999999999996
40
0.624999999999996
40
0.640624999999996
40
0.640624999999996
40
0.656249999999997
40
0.656249999999997
40
0.671874999999997
40
0.671874999999997
40
0.687499999999997
40
0.687499999999997
40
0.703124999999997
40
0.703124999999997
40
0.718749999999997
40
0.718749999999997
40
0.734374999999997
40
0.734374999999997
40
0.749999999999997
40
0.749999999999997
40
0.765624999999998
40
0.765624999999998
40
0.781249999999998
40
0.781249999999998
40
0.785156249999998
40
0.785156249999998
40
0.789062499999998
40
0.796874999999998
40
0.796874999999998
40
0.812499999999998
40
0.812499999999998
40
0.828124999999998
40
0.828124999999998
40
0.843749999999998
40
0.843749999999998
40
0.859374999999999
40
0.859374999999999
40
0.874999999999999
40
0.874999999999999
40
0.890624999999999
40
0.890624999999999
40
0.906249999999999
40
0.906249999999999
40
0.921874999999999
40
0.921874999999999
40
0.937499999999999
40
0.937499999999999
40
0.953125
40
0.953125
40
0.96875
40
0.96875
40
0.984375
40
0.984375
40
1
40
1
40
1
40
1
41
1
10
149.682401092359
20
12.8985
30
0
41
1
10
149.737728846739
20
12.8985
30
0
41
1
10
149.793056601119
20
12.8831158982013
30
0
41
1
10
149.903712109879
20
12.8185395601346
30
0
41
1
10
149.959039864259
20
12.76934053682
30
0
41
1
10
150.069695373019
20
12.634600123987
30
0
41
1
10
150.125023127399
20
12.5490520898011
30
0
41
1
10
150.235678636159
20
12.3398017176125
30
0
41
1
10
150.291006390539
20
12.2160935861008
30
0
41
1
10
150.401661899299
20
11.9296228177679
30
0
41
1
10
150.456989653679
20
11.7668559947754
30
0
41
1
10
150.567645162439
20
11.4024320195532
30
0
41
1
10
150.622972916819
20
11.2007729683596
30
0
41
1
10
150.733628425579
20
10.7598868810173
30
0
41
1
10
150.788956179959
20
10.5206606998558
30
0
41
1
10
150.899611688719
20
10.0071380751719
30
0
41
1
10
150.954939443099
20
9.73284537856668
30
0
41
1
10
151.065594951859
20
9.15279397129714
30
0
41
1
10
151.120922706239
20
8.84704164954431
30
0
41
1
10
151.231578214999
20
8.20862836962436
30
0
41
1
10
151.286905969379
20
7.87597582493575
30
0
41
1
10
151.397561478139
20
7.18904783834921
30
0
41
1
10
151.452889232519
20
6.83478194996363
30
0
41
1
10
151.563544741279
20
6.11036822764285
30
0
41
1
10
151.618872495659
20
5.74023009159771
30
0
41
1
10
151.729528004419
20
4.98997535366434
30
0
41
1
10
151.784855758799
20
4.60986765788977
30
0
41
1
10
151.895511267559
20
3.84545722291654
30
0
41
1
10
151.950839021939
20
3.46116186393027
30
0
41
1
10
152.061494530699
20
2.69379254681479
30
0
41
1
10
152.116822285079
20
2.31072399528765
30
0
41
1
10
152.227477793839
20
1.55066449619321
30
0
41
1
10
152.282805548219
20
1.17367683710165
30
0
41
1
10
152.365797179789
20
0.615877484453733
30
0
41
1
10
152.393461056979
20
0.431219031569412
30
0
41
1
10
152.434956872764
20
0.156480484763137
30
0
41
1
10
152.448788811359
20
0.0654035755124482
30
0
41
1
10
152.476452688549
20
-0.116503992640844
30
0
41
1
10
152.490284627144
20
-0.207853372011527
30
0
41
1
10
152.559444320119
20
-0.666447631484999
30
0
41
1
10
152.614772074499
20
-1.0392642371142
30
0
41
1
10
152.725427583259
20
-1.79295839014819
30
0
41
1
10
152.780755337639
20
-2.17383358327689
30
0
41
1
10
152.891410846399
20
-2.93909366477294
30
0
41
1
10
152.946738600779
20
-3.32347410570989
30
0
41
1
10
153.057394109539
20
-4.09056597589634
30
0
41
1
10
153.112721863919
20
-4.47327088237557
30
0
41
1
10
153.223377372679
20
-5.23137040513092
30
0
41
1
10
153.278705127059
20
-5.60675673182087
30
0
41
1
10
153.389360635819
20
-6.34433894050872
30
0
41
1
10
153.444688390199
20
-6.70652537680652
30
0
41
1
10
153.555343898959
20
-7.41185747417993
30
0
41
1
10
153.610671653339
20
-7.75499339269356
30
0
41
1
10
153.721327162099
20
-8.41669532564714
30
0
41
1
10
153.776654916479
20
-8.73525228971661
30
0
41
1
10
153.887310425238
20
-9.34287419726624
30
0
41
1
10
153.942638179619
20
-9.6319317387125
30
0
41
1
10
154.053293688378
20
-10.1764901020277
30
0
41
1
10
154.108621442759
20
-10.4319859252597
30
0
41
1
10
154.219276951518
20
-10.9064022635272
30
0
41
1
10
154.274604705899
20
-11.1253206074097
30
0
41
1
10
154.385260214659
20
-11.5247183522587
30
0
41
1
10
154.440587969038
20
-11.7051984444995
30
0
41
1
10
154.551243477798
20
-12.0270329661072
30
0
41
1
10
154.606571232179
20
-12.1683906197328
30
0
41
1
10
154.717226740938
20
-12.4124101275707
30
0
41
1
10
154.772554495318
20
-12.5150771391875
30
0
41
1
10
154.883210004078
20
-12.6831335445012
30
0
41
1
10
154.938537758458
20
-12.7485292903359
30
0
41
1
10
155.049193267218
20
-12.8442740698215
30
0
41
1
10
155.104521021598
20
-12.8746299067109
30
0
41
1
10
155.173680714573
20
-12.892447660187
30
0
41
1
10
155.187512653168
20
-12.8950060692574
30
0
41
1
10
155.215176530358
20
-12.8981612519097
30
0
41
1
10
155.229008468953
20
-12.8987594710474
30
0
41
1
10
155.270504284738
20
-12.8976771398503
30
0
41
1
10
155.298168161928
20
-12.8930938881241
30
0
41
1
10
155.381159793498
20
-12.8671732046845
30
0
41
1
10
155.436487547878
20
-12.8336477058223
30
0
41
1
10
155.547143056638
20
-12.7313254075552
30
0
41
1
10
155.602470811018
20
-12.6625218177073
30
0
41
1
10
155.713126319778
20
-12.4874792458933
30
0
41
1
10
155.768454074158
20
-12.3812339913224
30
0
41
1
10
155.879109582918
20
-12.1299730696194
30
0
41
1
10
155.934437337298
20
-11.9849523959411
30
0
41
1
10
156.045092846058
20
-11.6558068427887
30
0
41
1
10
156.100420600438
20
-11.4716789541467
30
0
41
1
10
156.211076109198
20
-11.0651094179108
30
0
41
1
10
156.266403863578
20
-10.8426673383201
30
0
41
1
10
156.377059372338
20
-10.3614377730328
30
0
41
1
10
156.432387126718
20
-10.1026527309317
30
0
41
1
10
156.543042635478
20
-9.55185416183409
30
0
41
1
10
156.598370389858
20
-9.25984588242511
30
0
41
1
10
156.709025898618
20
-8.64675029707638
30
0
41
1
10
156.764353652998
20
-8.32567058388321
30
0
41
1
10
156.875009161758
20
-7.65941937082582
30
0
41
1
10
156.930336916138
20
-7.31425702856262
30
0
41
1
10
157.040992424898
20
-6.60541102035748
30
0
41
1
10
157.096320179278
20
-6.2417371102589
30
0
41
1
10
157.206975688038
20
-5.50173407472622
30
0
41
1
10
157.262303442418
20
-5.12541432001314
30
0
41
1
10
157.372958951178
20
-4.36599067403557
30
0
41
1
10
157.428286705558
20
-3.9828949282776
30
0
41
1
10
157.538942214318
20
-3.21552952351607
30
0
41
1
10
157.594269968698
20
-2.83126620120345
30
0
41
1
10
157.704925477458
20
-2.06669577376363
30
0
41
1
10
157.760253231838
20
-1.68639291661754
30
0
41
1
10
157.870908740598
20
-0.934233880111037
30
0
41
1
10
157.926236494978
20
-0.562379866934577
30
0
41
1
10
157.995396187953
20
-0.105188305093662
30
0
41
1
10
158.009228126548
20
-0.0143881085841144
30
0
41
1
10
158.036892003738
20
0.167814041079453
30
0
41
1
10
158.078387819523
20
0.442288967794497
30
0
41
1
10
158.119883635308
20
0.720046572679564
30
0
41
1
10
158.202875266878
20
1.27925147687731
30
0
41
1
10
158.258203021258
20
1.65699688186723
30
0
41
1
10
158.368858530018
20
2.41814513816649
30
0
41
1
10
158.424186284398
20
2.80154450401753
30
0
41
1
10
158.534841793158
20
3.56908968780206
30
0
41
1
10
158.590169547538
20
3.9532299035771
30
0
41
1
10
158.700825056298
20
4.71680072656181
30
0
41
1
10
158.756152810678
20
5.09622378685179
30
0
41
1
10
158.866808319438
20
5.84455737327102
30
0
41
1
10
158.922136073818
20
6.21345888399466
30
0
41
1
10
159.032791582578
20
6.93485017849474
30
0
41
1
10
159.088119336958
20
7.28733023604963
30
0
41
1
10
159.198774845718
20
7.97016749356948
30
0
41
1
10
159.254102600098
20
8.30051520498859
30
0
41
1
10
159.364758108858
20
8.93385675217959
30
0
41
1
10
159.420085863238
20
9.23684232967847
30
0
41
1
10
159.530741371998
20
9.81097874437654
30
0
41
1
10
159.586069126378
20
10.0821234191189
30
0
41
1
10
159.696724635138
20
10.5890668056811
30
0
41
1
10
159.752052389518
20
10.8248620369953
30
0
41
1
10
159.862707898278
20
11.2587115634076
30
0
41
1
10
159.918035652657
20
11.4567652731013
30
0
41
1
10
160.028691161417
20
11.8139144758438
30
0
41
1
10
160.084018915797
20
11.9730121062001
30
0
41
1
10
160.194674424557
20
12.2521852627643
30
0
41
1
10
160.250002178938
20
12.3722651567697
30
0
41
1
10
160.305329933317
20
12.4733288750977
30
0
0
SPLINE
5
E4
100
AcDbEntity
8
1
62
256
6
ByLayer
370
13
48
1
60
0
100
AcDbSpline
70
4
71
3
72
10
73
6
40
0
40
0
40
0
40
0
40
0.5
40
0.5
40
1
40
1
40
1
40
1
41
1
10
159.81281237131
20
12.8985
30
0
41
1
10
159.894898631644
20
12.8985
30
0
41
1
10
159.976984891979
20
12.8645851789309
30
0
41
1
10
160.141157412648
20
12.719367343159
30
0
41
1
10
160.223243672983
20
12.6080157167519
30
0
41
1
10
160.305329933317
20
12.4546381215478
30
0
0
SPLINE
5
E5
100
AcDbEntity
8
1
62
256
6
ByLayer
370
13
48
1
60
0
100
AcDbSpline
70
4
71
3
72
14
73
10
40
0
40
0
40
0
40
0
40
0.25
40
0.25
40
0.5
40
0.5
40
0.75
40
0.75
40
1
40
1
40
1
40
1
41
1
10
149.2
20
11.0630223789785
30
0
41
1
10
149.281243267469
20
11.3797443815257
30
0
41
1
10
149.362486534939
20
11.6555929572145
30
0
41
1
10
149.524973069878
20
12.1226768002894
30
0
41
1
10
149.606216337347
20
12.3139345844789
30
0
41
1
10
149.768702872286
20
12.614137245206
30
0
41
1
10
149.849946139756
20
12.7231219064145
30
0
41
1
10
150.012432674695
20
12.8652801892011
30
0
41
1
10
150.093675942164
20
12.8985
30
0
41
1
10
150.174919209633
20
12.8985
30
0
0
SPLINE
5
E6
100
AcDbEntity
8
1
62
256
6
ByLayer
370
13
48
1
60
0
100
AcDbSpline
70
4
71
3
72
134
73
130
40
0
40
0
40
0
40
0
40
0.015625
40
0.015625
40
0.0312500000000001
40
0.0312500000000001
40
0.0468750000000001
40
0.0468750000000001
40
0.0625000000000002
40
0.0625000000000002
40
0.0781250000000002
40
0.0781250000000002
40
0.0937500000000003
40
0.0937500000000003
40
0.109375
40
0.109375
40
0.125
40
0.125
40
0.140625
40
0.140625
40
0.15625
40
0.15625
40
0.171875000000001
40
0.171875000000001
40
0.187500000000001
40
0.187500000000001
40
0.203125000000001
40
0.203125000000001
40
0.218750000000001
40
0.218750000000001
40
0.234375000000001
40
0.234375000000001
40
0.250000000000001
40
0.250000000000001
40
0.265625000000001
40
0.265625000000001
40
0.281250000000001
40
0.281250000000001
40
0.296875000000001
40
0.296875000000001
40
0.312500000000001
40
0.312500000000001
40
0.328125000000001
40
0.328125000000001
40
0.343750000000001
40
0.343750000000001
40
0.359375000000001
40
0.359375000000001
40
0.375000000000001
40
0.375000000000001
40
0.390625000000001
40
0.390625000000001
40
0.406250000000001
40
0.406250000000001
40
0.421875000000001
40
0.421875000000001
40
0.437500000000001
40
0.437500000000001
40
0.453125000000001
40
0.453125000000001
40
0.468750000000001
40
0.468750000000001
40
0.484375000000001
40
0.484375000000001
40
0.500000000000001
40
0.500000000000001
40
0.515625000000001
40
0.515625000000001
40
0.531250000000001
40
0.531250000000001
40
0.546875000000001
40
0.546875000000001
40
0.562500000000001
40
0.562500000000001
40
0.578125000000001
40
0.578125000000001
40
0.593750000000001
40
0.593750000000001
40
0.609375
40
0.609375
40
0.625
40
0.625
40
0.640625
40
0.640625
40
0.65625
40
0.65625
40
0.671875
40
0.671875
40
0.6875
40
0.6875
40
0.703125
40
0.703125
40
0.71875
40
0.71875
40
0.734375
40
0.734375
40
0.75
40
0.75
40
0.765625
40
0.765625
40
0.78125
40
0.78125
40
0.796875
40
0.796875
40
0.8125
40
0.8125
40
0.828125
40
0.828125
40
0.84375
40
0.84375
40
0.859375
40
0.859375
40
0.875
40
0.875
40
0.890625
40
0.890625
40
0.90625
40
0.90625
40
0.921875
40
0.921875
40
0.9375
40
0.9375
40
0.953125
40
0.953125
40
0.96875
40
0.96875
40
0.984375
40
0.984375
40
1
40
1
40
1
40
1
41
1
10
149.200000555267
20
12.8985
30
0
41
1
10
149.257840812444
20
12.8985
30
0
41
1
10
149.315681069621
20
12.8816850863118
30
0
41
1
10
149.431361583976
20
12.8109637017828
30
0
41
1
10
149.489201841153
20
12.7570487506098
30
0
41
1
10
149.604882355508
20
12.6092798827632
30
0
41
1
10
149.662722612685
20
12.5154177314772
30
0
41
1
10
149.77840312704
20
12.2857912962056
30
0
41
1
10
149.836243384217
20
12.1500200006948
30
0
41
1
10
149.951923898572
20
11.8357289903874
30
0
41
1
10
150.009764155749
20
11.6572045134568
30
0
41
1
10
150.125444670104
20
11.2578583102399
30
0
41
1
10
150.183284927281
20
11.0370349575427
30
0
41
1
10
150.298965441636
20
10.5549386792516
30
0
41
1
10
150.356805698813
20
10.2936678080103
30
0
41
1
10
150.472486213168
20
9.7339159595974
30
0
41
1
10
150.530326470345
20
9.43544076471349
30
0
41
1
10
150.6460069847
20
8.80579362513248
30
0
41
1
10
150.703847241877
20
8.47463068243513
30
0
41
1
10
150.819527756232
20
7.78517101505639
30
0
41
1
10
150.87736801341
20
7.42688551838265
30
0
41
1
10
150.993048527765
20
6.6894855957938
30
0
41
1
10
151.050888784942
20
6.31038332947264
30
0
41
1
10
151.166569299296
20
5.5380405619587
30
0
41
1
10
151.224409556474
20
5.14481180509861
30
0
41
1
10
151.340090070828
20
4.3509288464584
30
0
41
1
10
151.397930328006
20
3.95028481592217
30
0
41
1
10
151.51361084236
20
3.14797321695147
30
0
41
1
10
151.571451099538
20
2.74631345030593
30
0
41
1
10
151.687131613893
20
1.94778908967135
30
0
41
1
10
151.74497187107
20
1.55092956379127
30
0
41
1
10
151.860652385425
20
0.767047134391333
30
0
41
1
10
151.918492642602
20
0.380026604905026
30
0
41
1
10
152.034173156957
20
-0.380024780781696
30
0
41
1
10
152.092013414134
20
-0.767045268698496
30
0
41
1
10
152.207693928489
20
-1.55092766684842
30
0
41
1
10
152.265534185666
20
-1.94778718079073
30
0
41
1
10
152.381214700021
20
-2.74631152626958
30
0
41
1
10
152.439054957198
20
-3.14797128970164
30
0
41
1
10
152.554735471553
20
-3.95028289207624
30
0
41
1
10
152.61257572873
20
-4.35092692923405
30
0
41
1
10
152.728256243085
20
-5.1448099116846
30
0
41
1
10
152.786096500262
20
-5.53803868573678
30
0
41
1
10
152.901777014617
20
-6.31038149844909
30
0
41
1
10
152.959617271794
20
-6.68948379277819
30
0
41
1
10
153.075297786149
20
-7.42688378187839
30
0
41
1
10
153.133138043326
20
-7.78516931705508
30
0
41
1
10
153.248818557681
20
-8.47462907102977
30
0
41
1
10
153.306658814858
20
-8.8057920618175
30
0
41
1
10
153.422339329213
20
-9.43543930572187
30
0
41
1
10
153.48017958639
20
-9.73391455683426
30
0
41
1
10
153.595860100745
20
-10.2936665239642
30
0
41
1
10
153.653700357922
20
-10.5549374576884
30
0
41
1
10
153.769380872277
20
-11.0370338650434
30
0
41
1
10
153.827221129454
20
-11.2578572843156
30
0
41
1
10
153.942901643809
20
-11.6572036225191
30
0
41
1
10
154.000741900986
20
-11.8357281678557
30
0
41
1
10
154.116422415341
20
-12.1500193146292
30
0
41
1
10
154.174262672518
20
-12.2857906781957
30
0
41
1
10
154.289943186873
20
-12.5154172472799
30
0
41
1
10
154.34778344405
20
-12.60927946432
30
0
41
1
10
154.463463958405
20
-12.7570484597622
30
0
41
1
10
154.521304215582
20
-12.8109634727755
30
0
41
1
10
154.636984729937
20
-12.8816849758563
30
0
41
1
10
154.694824987115
20
-12.8984999462561
30
0
41
1
10
154.810505501469
20
-12.8985000537436
30
0
41
1
10
154.868345758647
20
-12.8816851967672
30
0
41
1
10
154.984026273001
20
-12.8109639307898
30
0
41
1
10
155.041866530179
20
-12.7570490414572
30
0
41
1
10
155.157547044533
20
-12.6092803012061
30
0
41
1
10
155.215387301711
20
-12.5154182156742
30
0
41
1
10
155.331067816066
20
-12.2857919142151
30
0
41
1
10
155.388908073243
20
-12.15002068676
30
0
41
1
10
155.504588587598
20
-11.8357298129187
30
0
41
1
10
155.562428844775
20
-11.6572054043943
30
0
41
1
10
155.67810935913
20
-11.257859336164
30
0
41
1
10
155.735949616307
20
-11.0370360500416
30
0
41
1
10
155.851630130662
20
-10.5549399008145
30
0
41
1
10
155.909470387839
20
-10.2936690920561
30
0
41
1
10
156.025150902194
20
-9.73391736236027
30
0
41
1
10
156.082991159371
20
-9.43544222370485
30
0
41
1
10
156.198671673726
20
-8.80579518844721
30
0
41
1
10
156.256511930903
20
-8.4746322938403
30
0
41
1
10
156.372192445258
20
-7.78517271305753
30
0
41
1
10
156.430032702435
20
-7.42688725488676
30
0
41
1
10
156.54571321679
20
-6.68948739880923
30
0
41
1
10
156.603553473967
20
-6.31038516049608
30
0
41
1
10
156.719233988322
20
-5.53804243818053
30
0
41
1
10
156.777074245499
20
-5.14481369851251
30
0
41
1
10
156.892754759854
20
-4.35093076368273
30
0
41
1
10
156.950595017031
20
-3.9502867397681
30
0
41
1
10
157.066275531386
20
-3.14797514420132
30
0
41
1
10
157.124115788563
20
-2.74631537434232
30
0
41
1
10
157.239796302918
20
-1.94779099855205
30
0
41
1
10
157.297636560095
20
-1.55093146073418
30
0
41
1
10
157.41331707445
20
-0.767049000084256
30
0
41
1
10
157.471157331627
20
-0.380028451289831
30
0
41
1
10
157.586837845982
20
0.380022978919641
30
0
41
1
10
157.644678103159
20
0.767043403005744
30
0
41
1
10
157.760358617514
20
1.55092576990563
30
0
41
1
10
157.818198874691
20
1.94778527191013
30
0
41
1
10
157.933879389046
20
2.74630960223325
30
0
41
1
10
157.991719646223
20
3.14796936245182
30
0
41
1
10
158.107400160578
20
3.95028096823026
30
0
41
1
10
158.165240417756
20
4.35092501200964
30
0
41
1
10
158.28092093211
20
5.14480801827057
30
0
41
1
10
158.338761189288
20
5.53803680951475
30
0
41
1
10
158.454441703642
20
6.31037966742539
30
0
41
1
10
158.51228196082
20
6.68948198976244
30
0
41
1
10
158.627962475174
20
7.42688204537393
30
0
41
1
10
158.685802732352
20
7.78516761905357
30
0
41
1
10
158.801483246706
20
8.47462745962417
30
0
41
1
10
158.859323503884
20
8.80579049850229
30
0
41
1
10
158.975004018239
20
9.43543784673
30
0
41
1
10
159.032844275416
20
9.73391315407085
30
0
41
1
10
159.14852478977
20
10.2936652399178
30
0
41
1
10
159.206365046948
20
10.5549362361249
30
0
41
1
10
159.322045561302
20
11.0370327725437
30
0
41
1
10
159.37988581848
20
11.2578562583909
30
0
41
1
10
159.495566332835
20
11.657202731581
30
0
41
1
10
159.553406590012
20
11.8357273453237
30
0
41
1
10
159.669087104366
20
12.1500186285633
30
0
41
1
10
159.726927361544
20
12.2857900601855
30
0
41
1
10
159.842607875899
20
12.5154167630822
30
0
41
1
10
159.900448133076
20
12.6092790458764
30
0
41
1
10
160.016128647431
20
12.7570481689142
30
0
41
1
10
160.073968904608
20
12.8109632437678
30
0
41
1
10
160.189649418963
20
12.8816848654004
30
0
41
1
10
160.24748967614
20
12.898499892512
30
0
41
1
10
160.305329933317
20
12.8984999999995
30
0
0
SPLINE
5
E7
100
AcDbEntity
8
1
62
256
6
ByLayer
370
13
48
1
60
0
100
AcDbSpline
70
4
71
3
72
14
73
10
40
0
40
0
40
0
40
0
40
0.25
40
0.25
40
0.5
40
0.5
40
0.75
40
0.75
40
1
40
1
40
1
40
1
41
1
10
159.330411834217
20
12.8985
30
0
41
1
10
159.411655009142
20
12.8985
30
0
41
1
10
159.492898184067
20
12.865280265101
30
0
41
1
10
159.655384533917
20
12.7231223163128
30
0
41
1
10
159.736627708842
20
12.6141379134635
30
0
41
1
10
159.899114058692
20
12.3139359679899
30
0
41
1
10
159.980357233617
20
12.1226786408933
30
0
41
1
10
160.142843583467
20
11.6555959051153
30
0
41
1
10
160.224086758392
20
11.3797479796814
30
0
41
1
10
160.305329933317
20
11.0630267083221
30
0
0
SPLINE
5
E8
100
AcDbEntity
8
1
62
256
6
ByLayer
370
13
48
1
60
0
100
AcDbSpline
70
4
71
3
72
10
73
6
40
0
40
0
40
0
40
0
40
0.5
40
0.5
40
1
40
1
40
1
40
1
41
1
10
149.2
20
12.4546360465223
30
0
41
1
10
149.282086445423
20
12.6080143651577
30
0
41
1
10
149.364172890847
20
12.7193665142378
30
0
41
1
10
149.528345781694
20
12.8645850255355
30
0
41
1
10
149.610432227117
20
12.8985
30
0
41
1
10
149.692518672541
20
12.8985
30
0
0
SPLINE
5
E9
100
AcDbEntity
8
1
62
256
6
ByLayer
370
13
48
1
60
0
100
AcDbSpline
70
4
71
3
72
146
73
142
40
0
40
0
40
0
40
0
40
0.015625
40
0.015625
40
0.03125
40
0.03125
40
0.046875
40
0.046875
40
0.0625
40
0.0625
40
0.0781249999999999
40
0.0781249999999999
40
0.0937499999999999
40
0.0937499999999999
40
0.109375
40
0.109375
40
0.125
40
0.125
40
0.140625
40
0.140625
40
0.15625
40
0.15625
40
0.171875
40
0.171875
40
0.1875
40
0.1875
40
0.203125
40
0.203125
40
0.2109375
40
0.2109375
40
0.21484375
40
0.21484375
40
0.21875
40
0.21875
40
0.234375
40
0.234375
40
0.25
40
0.25
40
0.265625
40
0.265625
40
0.28125
40
0.28125
40
0.296875
40
0.296875
40
0.3125
40
0.3125
40
0.328125000000001
40
0.328125000000001
40
0.343750000000001
40
0.343750000000001
40
0.359375000000001
40
0.359375000000001
40
0.375000000000001
40
0.375000000000001
40
0.390625000000001
40
0.390625000000001
40
0.406250000000001
40
0.406250000000001
40
0.421875000000002
40
0.421875000000002
40
0.437500000000002
40
0.437500000000002
40
0.453125000000002
40
0.453125000000002
40
0.468750000000002
40
0.468750000000002
40
0.476562500000002
40
0.476562500000002
40
0.480468750000002
40
0.480468750000002
40
0.484375000000002
40
0.484375000000002
40
0.500000000000002
40
0.500000000000002
40
0.515625000000003
40
0.515625000000003
40
0.531250000000003
40
0.531250000000003
40
0.546875000000003
40
0.546875000000003
40
0.562500000000003
40
0.562500000000003
40
0.578125000000003
40
0.578125000000003
40
0.593750000000003
40
0.593750000000003
40
0.609375000000003
40
0.609375000000003
40
0.625000000000003
40
0.625000000000003
40
0.640625000000003
40
0.640625000000003
40
0.656250000000003
40
0.656250000000003
40
0.671875000000004
40
0.671875000000004
40
0.687500000000004
40
0.687500000000004
40
0.703125000000004
40
0.703125000000004
40
0.718750000000004
40
0.718750000000004
40
0.734375000000004
40
0.734375000000004
40
0.738281250000004
40
0.738281250000004
40
0.742187500000004
40
0.742187500000004
40
0.750000000000004
40
0.750000000000004
40
0.765625000000003
40
0.765625000000003
40
0.781250000000003
40
0.781250000000003
40
0.796875000000003
40
0.796875000000003
40
0.812500000000003
40
0.812500000000003
40
0.828125000000002
40
0.828125000000002
40
0.843750000000002
40
0.843750000000002
40
0.859375000000002
40
0.859375000000002
40
0.875000000000002
40
0.875000000000002
40
0.890625000000001
40
0.890625000000001
40
0.906250000000001
40
0.906250000000001
40
0.921875000000001
40
0.921875000000001
40
0.937500000000001
40
0.937500000000001
40
0.953125000000001
40
0.953125000000001
40
0.96875
40
0.96875
40
0.984375
40
0.984375
40
1
40
1
40
1
40
1
41
1
10
149.2
20
12.4733309036356
30
0
41
1
10
149.255327760164
20
12.3722674286657
30
0
41
1
10
149.310655520328
20
12.2521877789445
30
0
41
1
10
149.421311040656
20
11.9730151059944
30
0
41
1
10
149.47663880082
20
11.8139177149533
30
0
41
1
10
149.587294321148
20
11.4567689786282
30
0
41
1
10
149.642622081312
20
11.2587154960194
30
0
41
1
10
149.75327760164
20
10.8248664043657
30
0
41
1
10
149.808605361804
20
10.5890713807071
30
0
41
1
10
149.919260882132
20
10.0821283834468
30
0
41
1
10
149.974588642296
20
9.8109838903346
30
0
41
1
10
150.085244162624
20
9.23684780741058
30
0
41
1
10
150.140571922788
20
8.93386238004379
30
0
41
1
10
150.251227443116
20
8.30052109770321
30
0
41
1
10
150.30655520328
20
7.97017350099648
30
0
41
1
10
150.417210723608
20
7.28733643538308
30
0
41
1
10
150.472538483772
20
6.93485645502281
30
0
41
1
10
150.5831940041
20
6.21346527719507
30
0
41
1
10
150.638521764264
20
5.84456380595574
30
0
41
1
10
150.749177284592
20
5.09623026238629
30
0
41
1
10
150.804505044756
20
4.71680720547289
30
0
41
1
10
150.915160565085
20
3.95323635624362
30
0
41
1
10
150.970488325249
20
3.56909611086129
30
0
41
1
10
151.081143845576
20
2.80155083912476
30
0
41
1
10
151.136471605741
20
2.41815141494345
30
0
41
1
10
151.247127126069
20
1.65700301821323
30
0
41
1
10
151.302454886233
20
1.2792575311359
30
0
41
1
10
151.385446526479
20
0.720052489917435
30
0
41
1
10
151.413110406561
20
0.534880705339873
30
0
41
1
10
151.454606226684
20
0.259311726028557
30
0
41
1
10
151.468438166725
20
0.167819809879688
30
0
41
1
10
151.496102046807
20
-0.0143823916694146
30
0
41
1
10
151.509933986848
20
-0.10518257595794
30
0
41
1
10
151.579093687053
20
-0.56237410628674
30
0
41
1
10
151.634421447217
20
-0.934228104344299
30
0
41
1
10
151.745076967545
20
-1.68638713354633
30
0
41
1
10
151.800404727709
20
-2.06668999851596
30
0
41
1
10
151.911060248037
20
-2.8312604666674
30
0
41
1
10
151.966388008201
20
-3.21552382187656
30
0
41
1
10
152.077043528529
20
-3.98288931872136
30
0
41
1
10
152.132371288693
20
-4.3659851236726
30
0
41
1
10
152.243026809021
20
-5.12540891441691
30
0
41
1
10
152.298354569185
20
-5.50172875470676
30
0
41
1
10
152.409010089513
20
-6.2417319865759
30
0
41
1
10
152.464337849677
20
-6.6054060074332
30
0
41
1
10
152.574993370005
20
-7.31425225981553
30
0
41
1
10
152.630321130169
20
-7.65941473549162
30
0
41
1
10
152.740976650497
20
-8.32566623428156
30
0
41
1
10
152.796304410661
20
-8.64674609978468
30
0
41
1
10
152.906959930989
20
-9.25984200390835
30
0
41
1
10
152.962287691153
20
-9.5518504497696
30
0
41
1
10
153.072943211481
20
-10.1026493605185
30
0
41
1
10
153.128270971645
20
-10.3614345778046
30
0
41
1
10
153.238926491973
20
-10.8426644965525
30
0
41
1
10
153.294254252137
20
-11.0651067544054
30
0
41
1
10
153.404909772465
20
-11.4716766447714
30
0
41
1
10
153.460237532629
20
-11.6558047092702
30
0
41
1
10
153.570893052957
20
-11.9849506068035
30
0
41
1
10
153.626220813121
20
-12.1299714489981
30
0
41
1
10
153.736876333449
20
-12.3812326962938
30
0
41
1
10
153.792204093613
20
-12.4874781079373
30
0
41
1
10
153.902859613941
20
-12.6625209793537
30
0
41
1
10
153.958187374105
20
-12.7313247117312
30
0
41
1
10
154.068842894433
20
-12.8336472784716
30
0
41
1
10
154.124170654597
20
-12.8671729032803
30
0
41
1
10
154.207162294844
20
-12.893093762428
30
0
41
1
10
154.234826174925
20
-12.8976770705292
30
0
41
1
10
154.276321995048
20
-12.8987594829643
30
0
41
1
10
154.290153935089
20
-12.8981612906056
30
0
41
1
10
154.317817815172
20
-12.8950061621691
30
0
41
1
10
154.331649755212
20
-12.8924477803449
30
0
41
1
10
154.400809455417
20
-12.8746301637011
30
0
41
1
10
154.456137215581
20
-12.8442744382213
30
0
41
1
10
154.56679273591
20
-12.7485298828246
30
0
41
1
10
154.622120496074
20
-12.6831342496653
30
0
41
1
10
154.732776016401
20
-12.5150780679212
30
0
41
1
10
154.788103776565
20
-12.4124111671925
30
0
41
1
10
154.898759296894
20
-12.1683918760166
30
0
41
1
10
154.954087057058
20
-12.0270343281572
30
0
41
1
10
155.064742577386
20
-11.7052000095585
30
0
41
1
10
155.12007033755
20
-11.524720014552
30
0
41
1
10
155.230725857878
20
-11.1253224524086
30
0
41
1
10
155.286053618042
20
-10.9064041939893
30
0
41
1
10
155.39670913837
20
-10.4319880120744
30
0
41
1
10
155.452036898534
20
-10.1764922597249
30
0
41
1
10
155.562692418862
20
-9.63193402145671
30
0
41
1
10
155.618020179026
20
-9.34287653417016
30
0
41
1
10
155.728675699354
20
-8.73525471692309
30
0
41
1
10
155.784003459518
20
-8.41669778899492
30
0
41
1
10
155.894658979846
20
-7.75499590995014
30
0
41
1
10
155.94998674001
20
-7.41186000920573
30
0
41
1
10
156.060642260338
20
-6.70652792957915
30
0
41
1
10
156.115970020502
20
-6.34434149326358
30
0
41
1
10
156.22662554083
20
-5.60675926817245
30
0
41
1
10
156.281953300994
20
-5.2313729251037
30
0
41
1
10
156.392608821322
20
-4.47327335531523
30
0
41
1
10
156.447936581486
20
-4.09056841818938
30
0
41
1
10
156.558592101814
20
-3.32347647497585
30
0
41
1
10
156.613919861978
20
-2.93909599166599
30
0
41
1
10
156.724575382306
20
-2.17383581644961
30
0
41
1
10
156.77990314247
20
-1.79296057198005
30
0
41
1
10
156.890558662798
20
-1.03926631005245
30
0
41
1
10
156.945886422962
20
-0.666449646875549
30
0
41
1
10
157.015046123167
20
-0.207855313204021
30
0
41
1
10
157.028878063208
20
-0.116505918879938
30
0
41
1
10
157.05654194329
20
0.0654016793700691
30
0
41
1
10
157.070373883331
20
0.156478584737698
30
0
41
1
10
157.111869703454
20
0.4312171447678
30
0
41
1
10
157.139533583536
20
0.615875607515932
30
0
41
1
10
157.222525223782
20
1.17367499293187
30
0
41
1
10
157.277852983946
20
1.55066267811733
30
0
41
1
10
157.388508504274
20
2.31072223777707
30
0
41
1
10
157.443836264438
20
2.69379082377716
30
0
41
1
10
157.554491784766
20
3.4611602176584
30
0
41
1
10
157.60981954493
20
3.84545561893773
30
0
41
1
10
157.720475065258
20
4.60986614528767
30
0
41
1
10
157.775802825422
20
4.98997389014448
30
0
41
1
10
157.88645834575
20
5.74022873154834
30
0
41
1
10
157.941786105915
20
6.11036692197857
30
0
41
1
10
158.052441626243
20
6.8347807565039
30
0
41
1
10
158.107769386406
20
7.18904670270422
30
0
41
1
10
158.218424906734
20
7.87597480621386
30
0
41
1
10
158.273752666899
20
8.20862741000516
30
0
41
1
10
158.384408187227
20
8.84704080717142
30
0
41
1
10
158.43973594739
20
9.15279318706203
30
0
41
1
10
158.550391467719
20
9.7328447074602
30
0
41
1
10
158.605719227883
20
10.007137459051
30
0
41
1
10
158.716374748211
20
10.5206601886078
30
0
41
1
10
158.771702508375
20
10.7598864196525
30
0
41
1
10
158.882358028703
20
11.2007726000912
30
0
41
1
10
158.937685788867
20
11.4024316944958
30
0
41
1
10
159.048341309195
20
11.7668557483734
30
0
41
1
10
159.103669069359
20
11.92962260681
30
0
41
1
10
159.214324589687
20
12.216093437683
30
0
41
1
10
159.269652349851
20
12.339801596292
30
0
41
1
10
159.380307870179
20
12.5490520142442
30
0
41
1
10
159.435635630343
20
12.6346000670989
30
0
41
1
10
159.546291150671
20
12.7693405091925
30
0
41
1
10
159.601618910835
20
12.8185395431023
30
0
41
1
10
159.712274431163
20
12.8831158949809
30
0
41
1
10
159.767602191327
20
12.8985
30
0
41
1
10
159.822929951491
20
12.8985
30
0
0
SPLINE
5
EA
100
AcDbEntity
8
1
62
256
6
ByLayer
370
13
48
1
60
0
100
AcDbSpline
70
4
71
3
72
22
73
18
40
0
40
0
40
0
40
0
40
0.125
40
0.125
40
0.25
40
0.25
40
0.375
40
0.375
40
0.5
40
0.5
40
0.625
40
0.625
40
0.75
40
0.75
40
0.875
40
0.875
40
1
40
1
40
1
40
1
41
1
10
158.848011297124
20
12.8985
30
0
41
1
10
158.908732906965
20
12.8985
30
0
41
1
10
158.969454516807
20
12.8799655634001
30
0
41
1
10
159.090897736489
20
12.8018379160698
30
0
41
1
10
159.151619346331
20
12.7422338858118
30
0
41
1
10
159.273062566014
20
12.5787377106005
30
0
41
1
10
159.333784175855
20
12.4748351682298
30
0
41
1
10
159.455227395538
20
12.220616412319
30
0
41
1
10
159.515949005379
20
12.0702916112656
30
0
41
1
10
159.637392225062
20
11.7224969270607
30
0
41
1
10
159.698113834903
20
11.5250216936198
30
0
41
1
10
159.819557054586
20
11.0838034188879
30
0
41
1
10
159.880278664428
20
10.8400594325639
30
0
41
1
10
160.00172188411
20
10.308888187231
30
0
41
1
10
160.062443493952
20
10.0214649937892
30
0
41
1
10
160.183886713635
20
9.4071820039976
30
0
41
1
10
160.244608323476
20
9.08033111704083
30
0
41
1
10
160.305329933317
20
8.73661829037172
30
0
0
SPLINE
5
EB
100
AcDbEntity
8
1
62
256
6
ByLayer
370
13
48
1
60
0
100
AcDbSpline
70
4
71
3
72
8
73
4
40
0
40
0
40
0
40
0
40
1
40
1
40
1
40
1
41
1
10
149.2
20
12.8983283190936
30
0
41
1
10
149.203372711816
20
12.8984428945705
30
0
41
1
10
149.206745423632
20
12.8985
30
0
41
1
10
149.210118135448
20
12.8985
30
0
0
SPLINE
5
EC
100
AcDbEntity
8
1
62
256
6
ByLayer
370
13
48
1
60
0
100
AcDbSpline
70
4
71
3
72
140
73
136
40
0
40
0
40
0
40
0
40
0.0156249999999997
40
0.0156249999999997
40
0.0312499999999993
40
0.0312499999999993
40
0.046874999999999
40
0.046874999999999
40
0.0624999999999987
40
0.0624999999999987
40
0.0781249999999984
40
0.0781249999999984
40
0.093749999999998
40
0.093749999999998
40
0.109374999999998
40
0.109374999999998
40
0.124999999999997
40
0.124999999999997
40
0.140624999999997
40
0.140624999999997
40
0.156249999999997
40
0.156249999999997
40
0.171874999999996
40
0.171874999999996
40
0.175781249999996
40
0.175781249999996
40
0.179687499999996
40
0.179687499999996
40
0.187499999999996
40
0.187499999999996
40
0.218749999999996
40
0.218749999999996
40
0.234374999999996
40
0.234374999999996
40
0.249999999999996
40
0.249999999999996
40
0.265624999999996
40
0.265624999999996
40
0.281249999999996
40
0.281249999999996
40
0.296874999999996
40
0.296874999999996
40
0.312499999999996
40
0.312499999999996
40
0.328124999999996
40
0.328124999999996
40
0.343749999999996
40
0.343749999999996
40
0.359374999999996
40
0.359374999999996
40
0.374999999999996
40
0.374999999999996
40
0.390624999999996
40
0.390624999999996
40
0.406249999999996
40
0.406249999999996
40
0.421874999999996
40
0.421874999999996
40
0.437499999999996
40
0.437499999999996
40
0.445312499999996
40
0.445312499999996
40
0.449218749999996
40
0.449218749999996
40
0.453124999999996
40
0.453124999999996
40
0.468749999999996
40
0.468749999999996
40
0.484374999999996
40
0.484374999999996
40
0.499999999999996
40
0.499999999999996
40
0.515624999999996
40
0.515624999999996
40
0.531249999999996
40
0.531249999999996
40
0.546874999999996
40
0.546874999999996
40
0.562499999999996
40
0.562499999999996
40
0.578124999999996
40
0.578124999999996
40
0.593749999999996
40
0.593749999999996
40
0.609374999999996
40
0.609374999999996
40
0.624999999999996
40
0.624999999999996
40
0.640624999999996
40
0.640624999999996
40
0.656249999999996
40
0.656249999999996
40
0.671874999999996
40
0.671874999999996
40
0.687499999999996
40
0.687499999999996
40
0.718749999999996
40
0.718749999999996
40
0.722656249999996
40
0.722656249999996
40
0.726562499999996
40
0.726562499999996
40
0.734374999999996
40
0.734374999999996
40
0.749999999999996
40
0.749999999999996
40
0.765624999999997
40
0.765624999999997
40
0.781249999999997
40
0.781249999999997
40
0.796874999999997
40
0.796874999999997
40
0.812499999999997
40
0.812499999999997
40
0.828124999999998
40
0.828124999999998
40
0.843749999999998
40
0.843749999999998
40
0.859374999999998
40
0.859374999999998
40
0.874999999999998
40
0.874999999999998
40
0.890624999999998
40
0.890624999999998
40
0.906249999999999
40
0.906249999999999
40
0.921874999999999
40
0.921874999999999
40
0.937499999999999
40
0.937499999999999
40
0.953124999999999
40
0.953124999999999
40
0.968749999999999
40
0.968749999999999
40
1
40
1
40
1
40
1
41
1
10
149.2
20
11.1022591140842
30
0
41
1
10
149.252815257367
20
10.8985591449103
30
0
41
1
10
149.305630514733
20
10.67759270202
30
0
41
1
10
149.411261029467
20
10.2030868338309
30
0
41
1
10
149.464076286833
20
9.94954985165467
30
0
41
1
10
149.569706801567
20
9.41280197084015
30
0
41
1
10
149.622522058933
20
9.12959559323127
30
0
41
1
10
149.728152573667
20
8.53724141128538
30
0
41
1
10
149.780967831033
20
8.22809982808351
30
0
41
1
10
149.886598345766
20
7.58827830082069
30
0
41
1
10
149.939413603133
20
7.25760568939674
30
0
41
1
10
150.045044117867
20
6.57958997686526
30
0
41
1
10
150.097859375233
20
6.23225461439219
30
0
41
1
10
150.203489889967
20
5.52601719043281
30
0
41
1
10
150.256305147333
20
5.16712256393606
30
0
41
1
10
150.361935662066
20
4.44287599340618
30
0
41
1
10
150.414750919433
20
4.07753057194321
30
0
41
1
10
150.520381434166
20
3.34528577846754
30
0
41
1
10
150.573196691533
20
2.97839158372665
30
0
41
1
10
150.678827206266
20
2.24756959562936
30
0
41
1
10
150.731642463633
20
1.88364541066721
30
0
41
1
10
150.837272978366
20
1.16276831945589
30
0
41
1
10
150.890088235733
20
0.805817430820809
30
0
41
1
10
150.956107307441
20
0.366114057860926
30
0
41
1
10
150.969311121783
20
0.278496116818957
30
0
41
1
10
150.995718750466
20
0.103952674958038
30
0
41
1
10
151.008922564808
20
0.0172594072963363
30
0
41
1
10
151.048534007833
20
-0.243575210060982
30
0
41
1
10
151.074941636516
20
-0.418893073628738
30
0
41
1
10
151.206979779933
20
-1.30168179601648
30
0
41
1
10
151.312610294666
20
-2.02812418680503
30
0
41
1
10
151.471056066766
20
-3.12541646778371
30
0
41
1
10
151.523871324133
20
-3.4923752341048
30
0
41
1
10
151.629501838866
20
-4.22411257816546
30
0
41
1
10
151.682317096233
20
-4.58888578110898
30
0
41
1
10
151.787947610966
20
-5.3113125405533
30
0
41
1
10
151.840762868333
20
-5.66895942301068
30
0
41
1
10
151.946393383066
20
-6.37201373541336
30
0
41
1
10
151.999208640433
20
-6.71741365136026
30
0
41
1
10
152.104839155166
20
-7.39088868555902
30
0
41
1
10
152.157654412533
20
-7.71895607729596
30
0
41
1
10
152.263284927266
20
-8.3529463715947
30
0
41
1
10
152.316100184633
20
-8.65886205072883
30
0
41
1
10
152.421730699366
20
-9.24422196527129
30
0
41
1
10
152.474545956733
20
-9.52366017660142
30
0
41
1
10
152.580176471466
20
-10.0524322975072
30
0
41
1
10
152.632991728833
20
-10.3017619474937
30
0
41
1
10
152.738622243566
20
-10.7675344722491
30
0
41
1
10
152.791437500933
20
-10.983975196447
30
0
41
1
10
152.897068015666
20
-11.3821350367906
30
0
41
1
10
152.949883273033
20
-11.5638541893347
30
0
41
1
10
153.055513787766
20
-11.8917154504873
30
0
41
1
10
153.108329045133
20
-12.037859600304
30
0
41
1
10
153.213959559866
20
-12.2946627117902
30
0
41
1
10
153.266774817233
20
-12.405325330416
30
0
41
1
10
153.372405331966
20
-12.5921173735593
30
0
41
1
10
153.425220589332
20
-12.6682515575723
30
0
41
1
10
153.530851104066
20
-12.7876705366357
30
0
41
1
10
153.583666361433
20
-12.8309606466818
30
0
41
1
10
153.662889247482
20
-12.8729555462479
30
0
41
1
10
153.689296876166
20
-12.8831344784312
30
0
41
1
10
153.728908319191
20
-12.8929158903555
30
0
41
1
10
153.742112133532
20
-12.8952620505952
30
0
41
1
10
153.768519762216
20
-12.8981681335863
30
0
41
1
10
153.781723576558
20
-12.8987292079147
30
0
41
1
10
153.847742648266
20
-12.8971651611831
30
0
41
1
10
153.900557905632
20
-12.8818340199941
30
0
41
1
10
154.006188420366
20
-12.8203744835374
30
0
41
1
10
154.059003677732
20
-12.7742407069712
30
0
41
1
10
154.164634192466
20
-12.6489583653265
30
0
41
1
10
154.217449449832
20
-12.5698045132531
30
0
41
1
10
154.323079964566
20
-12.3768562797501
30
0
41
1
10
154.375895221932
20
-12.2630572147974
30
0
41
1
10
154.481525736666
20
-11.99993622847
30
0
41
1
10
154.534340994032
20
-11.850610774535
30
0
41
1
10
154.639971508766
20
-11.5164234808725
30
0
41
1
10
154.692786766132
20
-11.331559765398
30
0
41
1
10
154.798417280866
20
-10.9272342339481
30
0
41
1
10
154.851232538232
20
-10.7077725727307
30
0
41
1
10
154.956863052966
20
-10.2361683521637
30
0
41
1
10
155.009678310332
20
-9.98402813861389
30
0
41
1
10
155.115308825066
20
-9.44992581187347
30
0
41
1
10
155.168124082432
20
-9.16796813329549
30
0
41
1
10
155.273754597165
20
-8.57792929922383
30
0
41
1
10
155.326569854532
20
-8.26985430034466
30
0
41
1
10
155.432200369266
20
-7.63195812967297
30
0
41
1
10
155.485015626632
20
-7.30214425552774
30
0
41
1
10
155.590646141366
20
-6.62562226713538
30
0
41
1
10
155.643461398732
20
-6.27892188891676
30
0
41
1
10
155.749091913465
20
-5.57372513833209
30
0
41
1
10
155.801907170832
20
-5.21523622853141
30
0
41
1
10
155.907537685565
20
-4.49157625747145
30
0
41
1
10
155.960352942932
20
-4.12641177016297
30
0
41
1
10
156.065983457665
20
-3.39431726571326
30
0
41
1
10
156.118798715032
20
-3.02739249215344
30
0
41
1
10
156.277244487132
20
-1.93078077454683
30
0
41
1
10
156.382875001865
20
-1.20556599083085
30
0
41
1
10
156.50170933094
20
-0.413071359616168
30
0
41
1
10
156.514913145282
20
-0.3253348152451
30
0
41
1
10
156.541320773965
20
-0.150545974067455
30
0
41
1
10
156.554524588307
20
-0.0636056695960576
30
0
41
1
10
156.594136031332
20
0.196845313032071
30
0
41
1
10
156.620543660015
20
0.371923231778538
30
0
41
1
10
156.699766546065
20
0.900929409402096
30
0
41
1
10
156.752581803432
20
1.25864941884535
30
0
41
1
10
156.858212318165
20
1.98073142948906
30
0
41
1
10
156.911027575532
20
2.34509127494326
30
0
41
1
10
157.016658090265
20
3.07640118309811
30
0
41
1
10
157.069473347632
20
3.44334749387249
30
0
41
1
10
157.175103862365
20
4.17527287053127
30
0
41
1
10
157.227919119732
20
4.54024662698652
30
0
41
1
10
157.333549634465
20
5.26330000576641
30
0
41
1
10
157.386364891832
20
5.62137300364321
30
0
41
1
10
157.491995406565
20
6.32550871586446
30
0
41
1
10
157.544810663932
20
6.67156394130305
30
0
41
1
10
157.650441178665
20
7.34657235544256
30
0
41
1
10
157.703256436032
20
7.67551781215357
30
0
41
1
10
157.808886950765
20
8.31147021022804
30
0
41
1
10
157.861702208132
20
8.61846989034945
30
0
41
1
10
157.967332722865
20
9.20617726165253
30
0
41
1
10
158.020147980232
20
9.48687886191061
30
0
41
1
10
158.125778494965
20
10.0183225522884
30
0
41
1
10
158.178593752332
20
10.2690602949497
30
0
41
1
10
158.284224267065
20
10.7377533453343
30
0
41
1
10
158.337039524432
20
10.9557064047832
30
0
41
1
10
158.442670039165
20
11.3569518457406
30
0
41
1
10
158.495485296532
20
11.540244168244
30
0
41
1
10
158.601115811265
20
11.8712692741561
30
0
41
1
10
158.653931068631
20
12.0190040164283
30
0
41
1
10
158.759561583365
20
12.2789650832241
30
0
41
1
10
158.812376840731
20
12.39119500302
30
0
41
1
10
158.918007355465
20
12.5810625618308
30
0
41
1
10
158.970822612832
20
12.6587049229054
30
0
41
1
10
159.129268384931
20
12.8422250685236
30
0
41
1
10
159.234898899665
20
12.8985
30
0
41
1
10
159.340529414398
20
12.8985
30
0
0
SPLINE
5
ED
100
AcDbEntity
8
1
62
256
6
ByLayer
370
13
48
1
60
0
100
AcDbSpline
70
4
71
3
72
22
73
18
40
0
40
0
40
0
40
0
40
0.125
40
0.125
40
0.25
40
0.25
40
0.375
40
0.375
40
0.5
40
0.5
40
0.625
40
0.625
40
0.75
40
0.75
40
0.875
40
0.875
40
1
40
1
40
1
40
1
41
1
10
158.365610760031
20
12.8985
30
0
41
1
10
158.446432392251
20
12.8985
30
0
41
1
10
158.527254024472
20
12.8656250834173
30
0
41
1
10
158.688897288912
20
12.7249842242288
30
0
41
1
10
158.769718921132
20
12.6171732678677
30
0
41
1
10
158.931362185573
20
12.3202200146768
30
0
41
1
10
159.012183817793
20
12.1310388302313
30
0
41
1
10
159.173827082234
20
11.6689863106152
30
0
41
1
10
159.254648714454
20
11.3960926949115
30
0
41
1
10
159.416291978894
20
10.7692961872297
30
0
41
1
10
159.497113611115
20
10.4153960568127
30
0
41
1
10
159.658756875555
20
9.63462857919501
30
0
41
1
10
159.739578507776
20
9.20779165808017
30
0
41
1
10
159.901221772216
20
8.29405901975761
30
0
41
1
10
159.982043404436
20
7.80721627163953
30
0
41
1
10
160.143686668877
20
6.78996843148357
30
0
41
1
10
160.224508301097
20
6.2596273211791
30
0
41
1
10
160.305329933317
20
5.71664550676448
30
0
0
SPLINE
5
EE
100
AcDbEntity
8
1
62
256
6
ByLayer
370
13
48
1
60
0
100
AcDbSpline
70
4
71
3
72
109
73
105
40
0
40
0
40
0
40
0
40
0.015625
40
0.015625
40
0.0312500000000001
40
0.0312500000000001
40
0.0625000000000002
40
0.0625000000000002
40
0.0937500000000002
40
0.0937500000000002
40
0.125
40
0.125
40
0.1328125
40
0.1328125
40
0.13671875
40
0.13671875
40
0.140625
40
0.140625
40
0.15625
40
0.15625
40
0.1875
40
0.1875
40
0.218750000000001
40
0.218750000000001
40
0.234375000000001
40
0.234375000000001
40
0.250000000000001
40
0.250000000000001
40
0.265625000000001
40
0.265625000000001
40
0.281250000000001
40
0.281250000000001
40
0.296875000000001
40
0.296875000000001
40
0.312500000000001
40
0.312500000000001
40
0.328125000000001
40
0.328125000000001
40
0.343750000000001
40
0.343750000000001
40
0.375000000000001
40
0.375000000000001
40
0.406250000000001
40
0.406250000000001
40
0.421875000000001
40
0.421875000000001
40
0.425781250000001
40
0.425781250000001
40
0.429687500000001
40
0.437500000000001
40
0.437500000000001
40
0.468750000000001
40
0.468750000000001
40
0.500000000000001
40
0.500000000000001
40
0.531250000000001
40
0.531250000000001
40
0.546875000000001
40
0.546875000000001
40
0.562500000000001
40
0.562500000000001
40
0.578125000000001
40
0.578125000000001
40
0.593750000000001
40
0.593750000000001
40
0.609375000000001
40
0.609375000000001
40
0.625000000000001
40
0.625000000000001
40
0.656250000000001
40
0.656250000000001
40
0.687500000000001
40
0.687500000000001
40
0.703125000000001
40
0.703125000000001
40
0.710937500000001
40
0.710937500000001
40
0.714843750000001
40
0.714843750000001
40
0.718750000000001
40
0.718750000000001
40
0.750000000000001
40
0.750000000000001
40
0.781250000000001
40
0.781250000000001
40
0.8125
40
0.8125
40
0.828125
40
0.828125
40
0.84375
40
0.84375
40
0.859375
40
0.859375
40
0.875
40
0.875
40
0.890625
40
0.890625
40
0.90625
40
0.90625
40
0.9375
40
0.9375
40
0.96875
40
0.96875
40
1
40
1
40
1
40
1
41
1
10
149.2
20
8.79373245256127
30
0
41
1
10
149.250302754569
20
8.51055004658446
30
0
41
1
10
149.300605509139
20
8.21569243745427
30
0
41
1
10
149.401211018277
20
7.60643079071014
30
0
41
1
10
149.451513772846
20
7.29203250051751
30
0
41
1
10
149.602422036554
20
6.32581314943437
30
0
41
1
10
149.703027545693
20
5.65097445825916
30
0
41
1
10
149.90423856397
20
4.27518210307167
30
0
41
1
10
150.004844073109
20
3.57439469496614
30
0
41
1
10
150.206055091386
20
2.18007356824825
30
0
41
1
10
150.306660600525
20
1.48663984199302
30
0
41
1
10
150.432417486948
20
0.641232595517039
30
0
41
1
10
150.457568864233
20
0.473201517770832
30
0
41
1
10
150.495295930159
20
0.222985464110337
30
0
41
1
10
150.507871618802
20
0.139884951458953
30
0
41
1
10
150.533022996086
20
-0.025666973626727
30
0
41
1
10
150.545598684729
20
-0.108275199316267
30
0
41
1
10
150.60847712794
20
-0.523877712746497
30
0
41
1
10
150.65877988251
20
-0.861404756453879
30
0
41
1
10
150.809688146218
20
-1.88493587190908
30
0
41
1
10
150.910293655356
20
-2.58211251215997
30
0
41
1
10
151.111504673633
20
-3.97792630703253
30
0
41
1
10
151.212110182772
20
-4.6764491328226
30
0
41
1
10
151.36301844648
20
-5.69977669968398
30
0
41
1
10
151.413321201049
20
-6.03677590401645
30
0
41
1
10
151.513926710188
20
-6.69813095057418
30
0
41
1
10
151.564229464757
20
-7.02248078704989
30
0
41
1
10
151.664834973895
20
-7.65419332408769
30
0
41
1
10
151.715137728465
20
-7.96155002045347
30
0
41
1
10
151.815743237603
20
-8.55520526478327
30
0
41
1
10
151.866045992173
20
-8.84149832418126
30
0
41
1
10
151.966651501311
20
-9.38940244925777
30
0
41
1
10
152.016954255881
20
-9.65100902284783
30
0
41
1
10
152.117559765019
20
-10.1465150203379
30
0
41
1
10
152.167862519589
20
-10.3804113256929
30
0
41
1
10
152.268468028727
20
-10.8181858239814
30
0
41
1
10
152.318770783296
20
-11.0220624916605
30
0
41
1
10
152.419376292435
20
-11.3982712926548
30
0
41
1
10
152.469679047004
20
-11.570603531329
30
0
41
1
10
152.620587310712
20
-12.0392025259393
30
0
41
1
10
152.721192819851
20
-12.2867202622097
30
0
41
1
10
152.922403838128
20
-12.6553113538707
30
0
41
1
10
153.023009347267
20
-12.7765002642275
30
0
41
1
10
153.173917610975
20
-12.8734069202071
30
0
41
1
10
153.224220365544
20
-12.8916279774802
30
0
41
1
10
153.287098808755
20
-12.8982025104016
30
0
41
1
10
153.299674497398
20
-12.8987090576119
30
0
41
1
10
153.324825874682
20
-12.8981365911971
30
0
41
1
10
153.362552940609
20
-12.8948860665225
30
0
41
1
10
153.400280006536
20
-12.8842901905949
30
0
41
1
10
153.52603689296
20
-12.8319319757875
30
0
41
1
10
153.626642402098
20
-12.7352556128449
30
0
41
1
10
153.827853420375
20
-12.4177426145674
30
0
41
1
10
153.928458929514
20
-12.1967828291982
30
0
41
1
10
154.129669947791
20
-11.6248721216033
30
0
41
1
10
154.23027545693
20
-11.2738542982463
30
0
41
1
10
154.381183720638
20
-10.654499562596
30
0
41
1
10
154.431486475207
20
-10.4326773544303
30
0
41
1
10
154.532091984346
20
-9.96028171538293
30
0
41
1
10
154.582394738915
20
-9.70971076612182
30
0
41
1
10
154.683000248053
20
-9.18255852546585
30
0
41
1
10
154.733303002623
20
-8.90598120052664
30
0
41
1
10
154.833908511761
20
-8.33020876107437
30
0
41
1
10
154.884211266331
20
-8.03101878024859
30
0
41
1
10
154.984816775469
20
-7.41392735932183
30
0
41
1
10
155.035119530039
20
-7.09603177395752
30
0
41
1
10
155.135725039177
20
-6.44578258561555
30
0
41
1
10
155.186027793746
20
-6.11343504897351
30
0
41
1
10
155.336936057454
20
-5.10133499134829
30
0
41
1
10
155.437541566593
20
-4.40663113825076
30
0
41
1
10
155.63875258487
20
-3.0117975777143
30
0
41
1
10
155.739358094009
20
-2.31179693725781
30
0
41
1
10
155.890266357717
20
-1.28012463721288
30
0
41
1
10
155.940569112286
20
-0.939237403505132
30
0
41
1
10
156.01602324414
20
-0.43466275560823
30
0
41
1
10
156.041174621424
20
-0.267593271940115
30
0
41
1
10
156.078901687352
20
-0.0189170694389134
30
0
41
1
10
156.091477375994
20
0.0635646831129861
30
0
41
1
10
156.116628753278
20
0.229578519536432
30
0
41
1
10
156.129204441921
20
0.312903015020623
30
0
41
1
10
156.242385639702
20
1.06550093418866
30
0
41
1
10
156.34299114884
20
1.75384687353946
30
0
41
1
10
156.544202167118
20
3.14410742823844
30
0
41
1
10
156.644807676256
20
3.84593757723482
30
0
41
1
10
156.846018694533
20
5.23098528312065
30
0
41
1
10
156.946624203672
20
5.91404791744142
30
0
41
1
10
157.09753246738
20
6.89802737367532
30
0
41
1
10
157.147835221949
20
7.21924082750917
30
0
41
1
10
157.248440731088
20
7.84381776546934
30
0
41
1
10
157.298743485657
20
8.14717530921345
30
0
41
1
10
157.399348994796
20
8.73204741646941
30
0
41
1
10
157.449651749365
20
9.01355665896341
30
0
41
1
10
157.550257258504
20
9.55121972638219
30
0
41
1
10
157.600560013073
20
9.807369314629
30
0
41
1
10
157.701165522212
20
10.2914263110804
30
0
41
1
10
157.751468276781
20
10.5193309153171
30
0
41
1
10
157.852073785919
20
10.9447436878108
30
0
41
1
10
157.902376540489
20
11.1422506681426
30
0
41
1
10
158.053284804197
20
11.6871349645927
30
0
41
1
10
158.153890313335
20
11.9864925107465
30
0
41
1
10
158.355101331612
20
12.4560322619357
30
0
41
1
10
158.455706840751
20
12.6263094010467
30
0
41
1
10
158.656917859028
20
12.8474772313799
30
0
41
1
10
158.757523368167
20
12.8985
30
0
41
1
10
158.858128877305
20
12.8985
30
0
0
SPLINE
5
EF
100
AcDbEntity
8
1
62
256
6
ByLayer
370
13
48
1
60
0
100
AcDbSpline
70
4
71
3
72
28
73
24
40
0
40
0
40
0
40
0
40
0.125
40
0.125
40
0.250000000000001
40
0.250000000000001
40
0.375000000000001
40
0.375000000000001
40
0.437500000000001
40
0.437500000000001
40
0.500000000000001
40
0.500000000000001
40
0.562500000000001
40
0.562500000000001
40
0.625000000000001
40
0.625000000000001
40
0.687500000000001
40
0.687500000000001
40
0.750000000000001
40
0.750000000000001
40
0.875
40
0.875
40
1
40
1
40
1
40
1
41
1
10
157.883210222938
20
12.8985
30
0
41
1
10
157.984131877537
20
12.8985
30
0
41
1
10
158.085053532136
20
12.8471545040228
30
0
41
1
10
158.286896841335
20
12.6245436023101
30
0
41
1
10
158.387818495934
20
12.4531440869606
30
0
41
1
10
158.589661805132
20
11.9805125304622
30
0
41
1
10
158.690583459731
20
11.6791844622379
30
0
41
1
10
158.84196594163
20
11.1307902441762
30
0
41
1
10
158.89242676893
20
10.9320222766729
30
0
41
1
10
158.993348423529
20
10.5039349157413
30
0
41
1
10
159.043809250828
20
10.2746167658088
30
0
41
1
10
159.144730905427
20
9.78761873377195
30
0
41
1
10
159.195191732727
20
9.52994173954954
30
0
41
1
10
159.296113387326
20
8.98915568393386
30
0
41
1
10
159.346574214625
20
8.70605096280869
30
0
41
1
10
159.447495869225
20
8.11796973767323
30
0
41
1
10
159.497956696524
20
7.81299866607617
30
0
41
1
10
159.598878351123
20
7.18522750179477
30
0
41
1
10
159.649339178423
20
6.86243345574414
30
0
41
1
10
159.800721660322
20
5.87383444073888
30
0
41
1
10
159.901643314921
20
5.18785915178725
30
0
41
1
10
160.103486624119
20
3.79763581341038
30
0
41
1
10
160.204408278718
20
3.09354379694256
30
0
41
1
10
160.305329933317
20
2.39656412275207
30
0
0
SPLINE
5
F0
100
AcDbEntity
8
1
62
256
6
ByLayer
370
13
48
1
60
0
100
AcDbSpline
70
4
71
3
72
85
73
81
40
0
40
0
40
0
40
0
40
0.0312500000000008
40
0.0312500000000008
40
0.0625000000000016
40
0.0625000000000016
40
0.0781250000000021
40
0.0781250000000021
40
0.0859375000000024
40
0.0898437500000025
40
0.0898437500000025
40
0.0937500000000027
40
0.0937500000000027
40
0.125000000000002
40
0.125000000000002
40
0.156250000000002
40
0.156250000000002
40
0.187500000000001
40
0.187500000000001
40
0.218750000000001
40
0.218750000000001
40
0.250000000000001
40
0.250000000000001
40
0.28125
40
0.28125
40
0.3125
40
0.3125
40
0.343749999999999
40
0.343749999999999
40
0.374999999999999
40
0.374999999999999
40
0.390624999999999
40
0.390624999999999
40
0.398437499999999
40
0.398437499999999
40
0.406249999999998
40
0.406249999999998
40
0.437499999999998
40
0.437499999999998
40
0.468749999999997
40
0.468749999999997
40
0.499999999999997
40
0.499999999999997
40
0.531249999999996
40
0.531249999999996
40
0.562499999999995
40
0.562499999999995
40
0.593749999999995
40
0.593749999999995
40
0.624999999999994
40
0.624999999999994
40
0.656249999999994
40
0.656249999999994
40
0.687499999999993
40
0.687499999999993
40
0.695312499999993
40
0.695312499999993
40
0.699218749999993
40
0.699218749999993
40
0.703124999999993
40
0.703124999999993
40
0.718749999999994
40
0.718749999999994
40
0.749999999999994
40
0.749999999999994
40
0.781249999999995
40
0.781249999999995
40
0.812499999999996
40
0.812499999999996
40
0.843749999999996
40
0.843749999999996
40
0.874999999999997
40
0.874999999999997
40
0.906249999999998
40
0.906249999999998
40
0.937499999999999
40
0.937499999999999
40
0.968749999999999
40
0.968749999999999
40
1
40
1
40
1
40
1
41
1
10
149.2
20
5.78455160877382
30
0
41
1
10
149.295580503544
20
5.14367967521272
30
0
41
1
10
149.391161007088
20
4.48470287650579
30
0
41
1
10
149.582322014176
20
3.16021543748212
30
0
41
1
10
149.677902517719
20
2.4948076859088
30
0
41
1
10
149.821273273035
20
1.51132871908129
30
0
41
1
10
149.869063524807
20
1.1859009548134
30
0
41
1
10
149.940748902465
20
0.703363066960094
30
0
41
1
10
149.976591591294
20
0.463490303449078
30
0
41
1
10
150.012434280123
20
0.226043743423389
30
0
41
1
10
150.036329406009
20
0.0683189487427285
30
0
41
1
10
150.048276968952
20
-0.0100623059769021
30
0
41
1
10
150.155805035439
20
-0.718540487816369
30
0
41
1
10
150.251385538983
20
-1.3671797634473
30
0
41
1
10
150.44254654607
20
-2.68186616516849
30
0
41
1
10
150.538127049614
20
-3.34785988465626
30
0
41
1
10
150.729288056702
20
-4.67082634826011
30
0
41
1
10
150.824868560246
20
-5.32769149606321
30
0
41
1
10
151.016029567334
20
-6.60232228941135
30
0
41
1
10
151.111610070878
20
-7.21994396845105
30
0
41
1
10
151.302771077965
20
-8.38622551646193
30
0
41
1
10
151.398351581509
20
-8.93474301166475
30
0
41
1
10
151.589512588597
20
-9.93762679681055
30
0
41
1
10
151.685093092141
20
-10.3918954144146
30
0
41
1
10
151.876254099229
20
-11.1895268265477
30
0
41
1
10
151.971834602772
20
-11.5328639183154
30
0
41
1
10
152.16299560986
20
-12.1022444833182
30
0
41
1
10
152.258576113404
20
-12.328333201069
30
0
41
1
10
152.449737120492
20
-12.6668713012084
30
0
41
1
10
152.545317624036
20
-12.7794118488385
30
0
41
1
10
152.688688379352
20
-12.8716462833127
30
0
41
1
10
152.736478631124
20
-12.8896805528715
30
0
41
1
10
152.808164008781
20
-12.8991012843081
30
0
41
1
10
152.832059134668
20
-12.8993347451039
30
0
41
1
10
152.879849386439
20
-12.8940196812863
30
0
41
1
10
152.903744512325
20
-12.888436117908
30
0
41
1
10
153.023220141755
20
-12.8452680339515
30
0
41
1
10
153.118800645299
20
-12.7617252325713
30
0
41
1
10
153.309961652387
20
-12.4836598779005
30
0
41
1
10
153.405542155931
20
-12.2890395255827
30
0
41
1
10
153.596703163019
20
-11.7826883970693
30
0
41
1
10
153.692283666562
20
-11.4708968110753
30
0
41
1
10
153.88344467365
20
-10.7336192755191
30
0
41
1
10
153.979025177194
20
-10.308138513999
30
0
41
1
10
154.170186184282
20
-9.35737953088884
30
0
41
1
10
154.265766687826
20
-8.83218111095889
30
0
41
1
10
154.456927694913
20
-7.705096042999
30
0
41
1
10
154.552508198457
20
-7.10334362906582
30
0
41
1
10
154.743669205545
20
-5.85215645669464
30
0
41
1
10
154.839249709089
20
-5.20286956494783
30
0
41
1
10
155.030410716177
20
-3.88711569698594
30
0
41
1
10
155.12599121972
20
-3.22076889903724
30
0
41
1
10
155.317152226808
20
-1.8987230532835
30
0
41
1
10
155.412732730352
20
-1.24309250556141
30
0
41
1
10
155.532208359782
20
-0.444116290717346
30
0
41
1
10
155.556103485668
20
-0.285333378841642
30
0
41
1
10
155.591946174497
20
-0.0488881070376976
30
0
41
1
10
155.60389373744
20
0.029469207797689
30
0
41
1
10
155.627788863326
20
0.187004322136545
30
0
41
1
10
155.639736426269
20
0.266061226306306
30
0
41
1
10
155.699474240984
20
0.662707169550771
30
0
41
1
10
155.747264492756
20
0.984396991574357
30
0
41
1
10
155.890635248072
20
1.95891069307237
30
0
41
1
10
155.986215751615
20
2.6213584274407
30
0
41
1
10
156.177376758703
20
3.94745802466457
30
0
41
1
10
156.272957262247
20
4.61102123190682
30
0
41
1
10
156.464118269335
20
5.91022096105374
30
0
41
1
10
156.559698772879
20
6.54572325276581
30
0
41
1
10
156.750859779967
20
7.75834940606808
30
0
41
1
10
156.84644028351
20
8.33532513749344
30
0
41
1
10
157.037601290598
20
9.40350311735261
30
0
41
1
10
157.133181794142
20
9.89458697776308
30
0
41
1
10
157.32434280123
20
10.7708119200044
30
0
41
1
10
157.419923304774
20
11.1558995958447
30
0
41
1
10
157.611084311861
20
11.809883311414
30
0
41
1
10
157.706664815405
20
12.0788006290902
30
0
41
1
10
157.897825822493
20
12.5006062266233
30
0
41
1
10
157.993406326037
20
12.6535727302347
30
0
41
1
10
158.184567333125
20
12.8524681902791
30
0
41
1
10
158.280147836669
20
12.8985
30
0
41
1
10
158.375728340212
20
12.8985
30
0
0
SPLINE
5
F1
100
AcDbEntity
8
1
62
256
6
ByLayer
370
13
48
1
60
0
100
AcDbSpline
70
4
71
3
72
42
73
38
40
0
40
0
40
0
40
0
40
0.0624999999999999
40
0.0624999999999999
40
0.125
40
0.125
40
0.1875
40
0.1875
40
0.25
40
0.25
40
0.3125
40
0.3125
40
0.375
40
0.375
40
0.4375
40
0.4375
40
0.499999999999999
40
0.499999999999999
40
0.562499999999999
40
0.562499999999999
40
0.624999999999999
40
0.624999999999999
40
0.687499999999999
40
0.687499999999999
40
0.749999999999999
40
0.749999999999999
40
0.812499999999999
40
0.812499999999999
40
0.874999999999999
40
0.874999999999999
40
0.937499999999999
40
0.937499999999999
40
0.953124999999999
40
0.953124999999999
40
0.96875
40
0.96875
40
1
40
1
40
1
40
1
41
1
10
157.400809685845
20
12.8985
30
0
41
1
10
157.461320524334
20
12.8985
30
0
41
1
10
157.521831362823
20
12.8800941972329
30
0
41
1
10
157.642853039801
20
12.8025213690925
30
0
41
1
10
157.70336387829
20
12.7433437109857
30
0
41
1
10
157.824385555268
20
12.5810265734776
30
0
41
1
10
157.884896393757
20
12.47787686802
30
0
41
1
10
158.005918070735
20
12.2255014401509
30
0
41
1
10
158.066428909224
20
12.076267251845
30
0
41
1
10
158.187450586202
20
11.7309808956024
30
0
41
1
10
158.247961424691
20
11.5349234162189
30
0
41
1
10
158.36898310167
20
11.0968327579716
30
0
41
1
10
158.429493940158
20
10.8547985679697
30
0
41
1
10
158.550515617136
20
10.3272799253069
30
0
41
1
10
158.611026455625
20
10.0417993644768
30
0
41
1
10
158.732048132603
20
9.43155505679096
30
0
41
1
10
158.792558971092
20
9.10679995871172
30
0
41
1
10
158.91358064807
20
8.42362583091773
30
0
41
1
10
158.974091486559
20
8.06521927756029
30
0
41
1
10
159.095113163537
20
7.32149245362495
30
0
41
1
10
159.155624002026
20
6.9361869393486
30
0
41
1
10
159.276645679004
20
6.14612837748655
30
0
41
1
10
159.337156517493
20
5.74139052223197
30
0
41
1
10
159.458178194471
20
4.92019290420811
30
0
41
1
10
159.51868903296
20
4.50374700889586
30
0
41
1
10
159.639710709938
20
3.66667585963083
30
0
41
1
10
159.700221548427
20
3.24606179285391
30
0
41
1
10
159.821243225405
20
2.40763316013116
30
0
41
1
10
159.881754063894
20
1.98982633472758
30
0
41
1
10
160.002775740872
20
1.16314103661159
30
0
41
1
10
160.063286579361
20
0.754266701316141
30
0
41
1
10
160.138925127473
20
0.251941876917954
30
0
41
1
10
160.154052837095
20
0.151912679315046
30
0
41
1
10
160.184308256339
20
-0.0472052626348045
30
0
41
1
10
160.199435965962
20
-0.146666067055264
30
0
41
1
10
160.244819094829
20
-0.447130941832285
30
0
41
1
10
160.275074514073
20
-0.649235410253908
30
0
41
1
10
160.305329933317
20
-0.852839012612151
30
0
0
SPLINE
5
F2
100
AcDbEntity
8
1
62
256
6
ByLayer
370
13
48
1
60
0
100
AcDbSpline
70
4
71
3
72
87
73
83
40
0
40
0
40
0
40
0
40
0.03125
40
0.03125
40
0.0390625000000001
40
0.0390625000000001
40
0.0429687500000002
40
0.0429687500000002
40
0.0468750000000003
40
0.0468750000000003
40
0.0625
40
0.0625
40
0.0937499999999991
40
0.0937499999999991
40
0.124999999999998
40
0.124999999999998
40
0.156249999999997
40
0.156249999999997
40
0.187499999999997
40
0.187499999999997
40
0.218749999999996
40
0.218749999999996
40
0.249999999999995
40
0.249999999999995
40
0.281249999999994
40
0.281249999999994
40
0.312499999999993
40
0.312499999999993
40
0.343749999999992
40
0.343749999999992
40
0.359374999999992
40
0.359374999999992
40
0.363281249999992
40
0.363281249999992
40
0.367187499999992
40
0.374999999999992
40
0.374999999999992
40
0.406249999999992
40
0.406249999999992
40
0.437499999999993
40
0.437499999999993
40
0.468749999999993
40
0.468749999999993
40
0.499999999999994
40
0.499999999999994
40
0.531249999999994
40
0.531249999999994
40
0.562499999999995
40
0.562499999999995
40
0.593749999999995
40
0.593749999999995
40
0.624999999999995
40
0.624999999999995
40
0.656249999999996
40
0.656249999999996
40
0.671874999999996
40
0.671874999999996
40
0.679687499999996
40
0.679687499999996
40
0.683593749999996
40
0.683593749999996
40
0.687499999999996
40
0.687499999999996
40
0.718749999999997
40
0.718749999999997
40
0.749999999999997
40
0.749999999999997
40
0.781249999999997
40
0.781249999999997
40
0.812499999999998
40
0.812499999999998
40
0.843749999999998
40
0.843749999999998
40
0.874999999999999
40
0.874999999999999
40
0.906249999999999
40
0.906249999999999
40
0.937499999999999
40
0.937499999999999
40
0.96875
40
0.96875
40
1
40
1
40
1
40
1
41
1
10
149.2
20
2.46646006739729
30
0
41
1
10
149.290555497949
20
1.84067341978553
30
0
41
1
10
149.381110995898
20
1.22023305515304
30
0
41
1
10
149.494305368335
20
0.463050861382868
30
0
41
1
10
149.516944242822
20
0.31252009038468
30
0
41
1
10
149.550902554553
20
0.0882623601494856
30
0
41
1
10
149.562221991796
20
0.0139374734062017
30
0
41
1
10
149.584860866284
20
-0.135092913163732
30
0
41
1
10
149.596180303528
20
-0.209870822731432
30
0
41
1
10
149.652777489746
20
-0.585002213362344
30
0
41
1
10
149.69805523872
20
-0.889094575351976
30
0
41
1
10
149.833888485644
20
-1.81025647054415
30
0
41
1
10
149.924443983593
20
-2.43635961162352
30
0
41
1
10
150.105554979492
20
-3.69227548716208
30
0
41
1
10
150.196110477441
20
-4.32202513191709
30
0
41
1
10
150.377221473339
20
-5.56087187418177
30
0
41
1
10
150.467776971288
20
-6.16987083825819
30
0
41
1
10
150.648887967187
20
-7.34127076478728
30
0
41
1
10
150.739443465136
20
-7.90355805932251
30
0
41
1
10
150.920554461034
20
-8.95727239091232
30
0
41
1
10
151.011109958983
20
-9.44859959996612
30
0
41
1
10
151.192220954882
20
-10.3411355710741
30
0
41
1
10
151.282776452831
20
-10.7422856694132
30
0
41
1
10
151.463887448729
20
-11.4426877681015
30
0
41
1
10
151.554442946678
20
-11.7419353378738
30
0
41
1
10
151.735553942577
20
-12.2352105669169
30
0
41
1
10
151.826109440526
20
-12.429282203361
30
0
41
1
10
152.007220436424
20
-12.7167089744966
30
0
41
1
10
152.097775934373
20
-12.8101369939315
30
0
41
1
10
152.233609181297
20
-12.8826106699644
30
0
41
1
10
152.278886930272
20
-12.8955298927911
30
0
41
1
10
152.33548411649
20
-12.8986712026989
30
0
41
1
10
152.346803553733
20
-12.8986530775686
30
0
41
1
10
152.369442428221
20
-12.8973228864823
30
0
41
1
10
152.403400739952
20
-12.8933768023149
30
0
41
1
10
152.437359051683
20
-12.8834553007415
30
0
41
1
10
152.550553424119
20
-12.8365843935036
30
0
41
1
10
152.641108922068
20
-12.7547600969133
30
0
41
1
10
152.822219917966
20
-12.4915444839411
30
0
41
1
10
152.912775415916
20
-12.3100783689637
30
0
41
1
10
153.093886411814
20
-11.8421809124114
30
0
41
1
10
153.184441909763
20
-11.5557008739595
30
0
41
1
10
153.365552905661
20
-10.8799904972771
30
0
41
1
10
153.456108403611
20
-10.4907580436023
30
0
41
1
10
153.637219399509
20
-9.62020500149072
30
0
41
1
10
153.727774897458
20
-9.13893681187136
30
0
41
1
10
153.908885893356
20
-8.10268124369426
30
0
41
1
10
153.999441391306
20
-7.54778996373119
30
0
41
1
10
154.180552387204
20
-6.38807608840517
30
0
41
1
10
154.271107885153
20
-5.78336713589934
30
0
41
1
10
154.452218881051
20
-4.5499672780912
30
0
41
1
10
154.542774379
20
-3.92137771163365
30
0
41
1
10
154.723885374899
20
-2.6649902170584
30
0
41
1
10
154.814440872848
20
-2.03726018105076
30
0
41
1
10
154.950274119772
20
-1.11200124499621
30
0
41
1
10
154.995551868746
20
-0.806268483183942
30
0
41
1
10
155.063468492208
20
-0.353299908754678
30
0
41
1
10
155.086107366695
20
-0.203246181357315
30
0
41
1
10
155.120065678426
20
0.0202547197797003
30
0
41
1
10
155.13138511567
20
0.0946014198905232
30
0
41
1
10
155.154023990157
20
0.244135579408805
30
0
41
1
10
155.165343427401
20
0.319158489176914
30
0
41
1
10
155.267218362594
20
0.996535064203186
30
0
41
1
10
155.357773860543
20
1.61429975189714
30
0
41
1
10
155.538884856441
20
2.86306846968427
30
0
41
1
10
155.629440354391
20
3.49402713655789
30
0
41
1
10
155.810551350289
20
4.74635838667709
30
0
41
1
10
155.901106848238
20
5.36764668642945
30
0
41
1
10
156.082217844136
20
6.57501940521735
30
0
41
1
10
156.172773342085
20
7.16099372934488
30
0
41
1
10
156.353884337984
20
8.27231009913922
30
0
41
1
10
156.444439835933
20
8.79754242997859
30
0
41
1
10
156.625550831831
20
9.76554405785291
30
0
41
1
10
156.71610632978
20
10.2082339353467
30
0
41
1
10
156.897217325679
20
10.9958675538092
30
0
41
1
10
156.987772823628
20
11.3407826605495
30
0
41
1
10
157.168883819526
20
11.9258166263059
30
0
41
1
10
157.259439317475
20
12.1659600080396
30
0
41
1
10
157.440550313374
20
12.5426857634433
30
0
41
1
10
157.531105811323
20
12.6793311846965
30
0
41
1
10
157.712216807221
20
12.8571988449312
30
0
41
1
10
157.80277230517
20
12.8985
30
0
41
1
10
157.893327803119
20
12.8985
30
0
0
SPLINE
5
F3
100
AcDbEntity
8
1
62
256
6
ByLayer
370
13
48
1
60
0
100
AcDbSpline
70
4
71
3
72
42
73
38
40
0
40
0
40
0
40
0
40
0.0625
40
0.0625
40
0.125
40
0.125
40
0.1875
40
0.1875
40
0.25
40
0.25
40
0.3125
40
0.3125
40
0.375
40
0.375
40
0.4375
40
0.4375
40
0.5
40
0.5
40
0.5625
40
0.5625
40
0.625
40
0.625
40
0.6875
40
0.6875
40
0.75
40
0.75
40
0.8125
40
0.8125
40
0.828125
40
0.828125
40
0.84375
40
0.84375
40
0.875
40
0.875
40
0.9375
40
0.9375
40
1
40
1
40
1
40
1
41
1
10
156.918409148752
20
12.8985
30
0
41
1
10
156.988969998431
20
12.8985
30
0
41
1
10
157.059530848109
20
12.8734591495498
30
0
41
1
10
157.200652547466
20
12.7671199892462
30
0
41
1
10
157.271213397145
20
12.6857987605039
30
0
41
1
10
157.412335096502
20
12.4621993195003
30
0
41
1
10
157.48289594618
20
12.3199000330471
30
0
41
1
10
157.624017645537
20
11.971838032856
30
0
41
1
10
157.694578495215
20
11.7660601464329
30
0
41
1
10
157.835700194572
20
11.2912873832734
30
0
41
1
10
157.90626104425
20
11.0222870303977
30
0
41
1
10
158.047382743607
20
10.4243923249667
30
0
41
1
10
158.117943593286
20
10.0955045451698
30
0
41
1
10
158.259065292643
20
9.38422525964651
30
0
41
1
10
158.329626142321
20
9.00185233295173
30
0
41
1
10
158.470747841678
20
8.1926802401652
30
0
41
1
10
158.541308691357
20
7.76590896544678
30
0
41
1
10
158.682430390714
20
6.87899491381447
30
0
41
1
10
158.752991240392
20
6.41888463738692
30
0
41
1
10
158.894112939749
20
5.47739900397315
30
0
41
1
10
158.964673789427
20
4.996055362471
30
0
41
1
10
159.105795488784
20
4.02427692698015
30
0
41
1
10
159.176356338462
20
3.53386842924419
30
0
41
1
10
159.317478037819
20
2.55531480605771
30
0
41
1
10
159.388038887498
20
2.0671877052954
30
0
41
1
10
159.529160586854
20
1.1030580136611
30
0
41
1
10
159.599721436533
20
0.627064408874134
30
0
41
1
10
159.687922498631
20
0.0446261377770441
30
0
41
1
10
159.705562711051
20
-0.0709699245274464
30
0
41
1
10
159.74084313589
20
-0.304132896655261
30
0
41
1
10
159.75848334831
20
-0.421333061679803
30
0
41
1
10
159.811403985568
20
-0.774620202333637
30
0
41
1
10
159.846684410408
20
-1.01239771779493
30
0
41
1
10
159.952525684925
20
-1.73099154756667
30
0
41
1
10
160.023086534604
20
-2.21712528644235
30
0
41
1
10
160.16420823396
20
-3.19411880847343
30
0
41
1
10
160.234769083639
20
-3.68496266023143
30
0
41
1
10
160.305329933317
20
-4.17264818937309
30
0
0
SPLINE
5
F4
100
AcDbEntity
8
1
62
256
6
ByLayer
370
13
48
1
60
0
100
AcDbSpline
70
4
71
3
72
80
73
76
40
0
40
0
40
0
40
0
40
0.0312500000000004
40
0.0312500000000004
40
0.0625000000000009
40
0.0625000000000009
40
0.0937500000000013
40
0.0937500000000013
40
0.125000000000002
40
0.125000000000002
40
0.156250000000002
40
0.156250000000002
40
0.187500000000003
40
0.187500000000003
40
0.218750000000003
40
0.218750000000003
40
0.250000000000004
40
0.250000000000004
40
0.281250000000004
40
0.281250000000004
40
0.312500000000005
40
0.312500000000005
40
0.320312500000005
40
0.320312500000005
40
0.328125000000005
40
0.328125000000005
40
0.343750000000005
40
0.343750000000005
40
0.375000000000005
40
0.375000000000005
40
0.406250000000006
40
0.406250000000006
40
0.437500000000006
40
0.437500000000006
40
0.468750000000006
40
0.468750000000006
40
0.500000000000007
40
0.500000000000007
40
0.531250000000007
40
0.531250000000007
40
0.562500000000007
40
0.562500000000007
40
0.593750000000007
40
0.593750000000007
40
0.625000000000007
40
0.625000000000007
40
0.656250000000008
40
0.656250000000008
40
0.660156250000008
40
0.660156250000008
40
0.664062500000008
40
0.664062500000008
40
0.671875000000007
40
0.671875000000007
40
0.687500000000007
40
0.687500000000007
40
0.718750000000006
40
0.718750000000006
40
0.750000000000006
40
0.750000000000006
40
0.781250000000005
40
0.781250000000005
40
0.812500000000004
40
0.812500000000004
40
0.843750000000004
40
0.843750000000004
40
0.875000000000003
40
0.875000000000003
40
0.906250000000002
40
0.906250000000002
40
0.937500000000001
40
0.937500000000001
40
0.968750000000001
40
0.968750000000001
40
1
40
1
40
1
40
1
41
1
10
149.2
20
-0.784809044111853
30
0
41
1
10
149.285530492354
20
-1.35943187172208
30
0
41
1
10
149.371060984709
20
-1.9464609821207
30
0
41
1
10
149.542121969418
20
-3.12929221230004
30
0
41
1
10
149.627652461772
20
-3.72505537771826
30
0
41
1
10
149.798713446481
20
-4.9056990608938
30
0
41
1
10
149.884243938836
20
-5.49051349285733
30
0
41
1
10
150.055304923544
20
-6.62759678067562
30
0
41
1
10
150.140835415899
20
-7.17978227463163
30
0
41
1
10
150.311896400608
20
-8.23022707519144
30
0
41
1
10
150.397426892962
20
-8.72840370857807
30
0
41
1
10
150.568487877671
20
-9.6522985615982
30
0
41
1
10
150.654018370026
20
-10.0779550038936
30
0
41
1
10
150.825079354734
20
-10.8433690229879
30
0
41
1
10
150.910609847089
20
-11.1831001752973
30
0
41
1
10
151.081670831798
20
-11.7696849470223
30
0
41
1
10
151.167201324152
20
-12.0165506141029
30
0
41
1
10
151.338262308861
20
-12.4171034029206
30
0
41
1
10
151.423792801216
20
-12.5708327932387
30
0
41
1
10
151.594853785924
20
-12.790633942029
30
0
41
1
10
151.680384278279
20
-12.8567634736684
30
0
41
1
10
151.787297393722
20
-12.8907532275922
30
0
41
1
10
151.80868001681
20
-12.8951254512036
30
0
41
1
10
151.851445262988
20
-12.8991973580269
30
0
41
1
10
151.872827886076
20
-12.8989228212297
30
0
41
1
10
151.936975755342
20
-12.8911180019032
30
0
41
1
10
151.979741001519
20
-12.876520722201
30
0
41
1
10
152.108036740051
20
-12.8024701482496
30
0
41
1
10
152.193567232406
20
-12.7126320784706
30
0
41
1
10
152.364628217114
20
-12.4433562107823
30
0
41
1
10
152.450158709469
20
-12.2638633868029
30
0
41
1
10
152.621219694178
20
-11.8112129777481
30
0
41
1
10
152.706750186532
20
-11.5380202649099
30
0
41
1
10
152.877811171241
20
-10.9000300627559
30
0
41
1
10
152.963341663595
20
-10.5352309033574
30
0
41
1
10
153.134402648304
20
-9.72281230620931
30
0
41
1
10
153.219933140659
20
-9.27523005371276
30
0
41
1
10
153.390994125368
20
-8.31223172550318
30
0
41
1
10
153.476524617722
20
-7.79688512874745
30
0
41
1
10
153.647585602431
20
-6.71790918437353
30
0
41
1
10
153.733116094786
20
-6.15436479029319
30
0
41
1
10
153.904177079495
20
-5.00071997173498
30
0
41
1
10
153.989707571849
20
-4.41069960401762
30
0
41
1
10
154.160768556558
20
-3.22545163890703
30
0
41
1
10
154.246299048912
20
-2.6302830989421
30
0
41
1
10
154.417360033621
20
-1.45356750771188
30
0
41
1
10
154.502890525975
20
-0.872051357414165
30
0
41
1
10
154.599112329874
20
-0.233911815122468
30
0
41
1
10
154.609803641419
20
-0.163227823633832
30
0
41
1
10
154.631186264507
20
-0.0223249558318059
30
0
41
1
10
154.641877576052
20
0.0478090266011861
30
0
41
1
10
154.673951510685
20
0.259331321169355
30
0
41
1
10
154.695334133773
20
0.40127119245173
30
0
41
1
10
154.759482003039
20
0.829566097947378
30
0
41
1
10
154.802247249216
20
1.11840479076545
30
0
41
1
10
154.930542987748
20
1.99214350702448
30
0
41
1
10
155.016073480102
20
2.58438145236224
30
0
41
1
10
155.187134464811
20
3.77090537628195
30
0
41
1
10
155.272664957165
20
4.36514211625769
30
0
41
1
10
155.443725941874
20
5.53506000297548
30
0
41
1
10
155.529256434229
20
6.11066721121767
30
0
41
1
10
155.700317418938
20
7.22147487775311
30
0
41
1
10
155.785847911292
20
7.75658987034191
30
0
41
1
10
155.956908896001
20
8.76576544129142
30
0
41
1
10
156.042439388355
20
9.23974867187061
30
0
41
1
10
156.213500373064
20
10.109738344984
30
0
41
1
10
156.299030865419
20
10.5056945900775
30
0
41
1
10
156.470091850128
20
11.2084155280231
30
0
41
1
10
156.555622342482
20
11.5151679374688
30
0
41
1
10
156.726683327191
20
12.0349422412673
30
0
41
1
10
156.812213819545
20
12.2479884859448
30
0
41
1
10
156.983274804254
20
12.5822899080406
30
0
41
1
10
157.068805296609
20
12.7035947625586
30
0
41
1
10
157.239866281318
20
12.8616700256904
30
0
41
1
10
157.325396773672
20
12.8985
30
0
41
1
10
157.410927266027
20
12.8985
30
0
0
SPLINE
5
F5
100
AcDbEntity
8
1
62
256
6
ByLayer
370
13
48
1
60
0
100
AcDbSpline
70
4
71
3
72
42
73
38
40
0
40
0
40
0
40
0
40
0.0625000000000001
40
0.0625000000000001
40
0.125
40
0.125
40
0.1875
40
0.1875
40
0.25
40
0.25
40
0.3125
40
0.3125
40
0.375
40
0.375
40
0.4375
40
0.4375
40
0.5
40
0.5
40
0.5625
40
0.5625
40
0.625000000000001
40
0.625000000000001
40
0.687500000000001
40
0.687500000000001
40
0.703125000000001
40
0.703125000000001
40
0.71875
40
0.71875
40
0.75
40
0.75
40
0.8125
40
0.8125
40
0.875
40
0.875
40
0.9375
40
0.9375
40
1
40
1
40
1
40
1
41
1
10
156.43600861166
20
12.8985
30
0
41
1
10
156.516619472528
20
12.8985
30
0
41
1
10
156.597230333395
20
12.8657968115578
30
0
41
1
10
156.758452055131
20
12.7259112863028
30
0
41
1
10
156.839062915999
20
12.6186845144462
30
0
41
1
10
157.000284637735
20
12.323348627392
30
0
41
1
10
157.080895498603
20
12.1352010679472
30
0
41
1
10
157.242117220338
20
11.675653484301
30
0
41
1
10
157.322728081206
20
11.4042313006194
30
0
41
1
10
157.483949802942
20
10.7807464316065
30
0
41
1
10
157.56456066381
20
10.4286861875061
30
0
41
1
10
157.725782385546
20
9.65184338809712
30
0
41
1
10
157.806393246413
20
9.22709052525113
30
0
41
1
10
157.967614968149
20
8.31760816919353
30
0
41
1
10
158.048225829017
20
7.83293068816033
30
0
41
1
10
158.209447550753
20
6.81992016731817
30
0
41
1
10
158.290058411621
20
6.29165020709672
30
0
41
1
10
158.451280133356
20
5.20957663183759
30
0
41
1
10
158.531890994224
20
4.65583361515445
30
0
41
1
10
158.69311271596
20
3.54082904049736
30
0
41
1
10
158.773723576828
20
2.97961443920531
30
0
41
1
10
158.934945298563
20
1.86592245575676
30
0
41
1
10
159.015556159431
20
1.31347264933845
30
0
41
1
10
159.116319735516
20
0.636722270934825
30
0
41
1
10
159.136472450733
20
0.502054831769186
30
0
41
1
10
159.176777881167
20
0.234260537100312
30
0
41
1
10
159.196930596384
20
0.101367476956114
30
0
41
1
10
159.257388742035
20
-0.296254430131796
30
0
41
1
10
159.297694172469
20
-0.564698235423407
30
0
41
1
10
159.418610463771
20
-1.37806921512526
30
0
41
1
10
159.499221324639
20
-1.93113549544202
30
0
41
1
10
159.660443046374
20
-3.04547352939238
30
0
41
1
10
159.741053907242
20
-3.60671691390215
30
0
41
1
10
159.902275628978
20
-4.72109767406917
30
0
41
1
10
159.982886489846
20
-5.27418740987036
30
0
41
1
10
160.144108211582
20
-6.35423429794102
30
0
41
1
10
160.224719072449
20
-6.88113051568018
30
0
41
1
10
160.305329933317
20
-7.38591856528419
30
0
0
SPLINE
5
F6
100
AcDbEntity
8
1
62
256
6
ByLayer
370
13
48
1
60
0
100
AcDbSpline
70
4
71
3
72
76
73
72
40
0
40
0
40
0
40
0
40
0.0312499999999999
40
0.0312499999999999
40
0.0624999999999998
40
0.0624999999999998
40
0.0937499999999998
40
0.0937499999999998
40
0.125
40
0.125
40
0.15625
40
0.15625
40
0.1875
40
0.1875
40
0.218749999999999
40
0.218749999999999
40
0.249999999999999
40
0.249999999999999
40
0.281249999999999
40
0.281249999999999
40
0.289062499999999
40
0.289062499999999
40
0.296874999999999
40
0.296874999999999
40
0.312499999999999
40
0.312499999999999
40
0.343749999999999
40
0.343749999999999
40
0.374999999999999
40
0.374999999999999
40
0.406249999999999
40
0.406249999999999
40
0.437499999999999
40
0.437499999999999
40
0.468749999999999
40
0.468749999999999
40
0.499999999999999
40
0.499999999999999
40
0.531249999999999
40
0.531249999999999
40
0.562499999999999
40
0.562499999999999
40
0.593749999999999
40
0.593749999999999
40
0.624999999999999
40
0.624999999999999
40
0.640624999999999
40
0.640624999999999
40
0.656249999999998
40
0.656249999999998
40
0.687499999999999
40
0.687499999999999
40
0.718749999999999
40
0.718749999999999
40
0.749999999999999
40
0.749999999999999
40
0.781249999999999
40
0.781249999999999
40
0.812499999999999
40
0.812499999999999
40
0.843749999999999
40
0.843749999999999
40
0.874999999999999
40
0.874999999999999
40
0.90625
40
0.90625
40
0.9375
40
0.9375
40
0.96875
40
0.96875
40
1
40
1
40
1
40
1
41
1
10
149.2
20
-4.10269855447015
30
0
41
1
10
149.28050548676
20
-4.65945216180995
30
0
41
1
10
149.36101097352
20
-5.21243360462492
30
0
41
1
10
149.522021947039
20
-6.2930262988651
30
0
41
1
10
149.602527433799
20
-6.82057733416858
30
0
41
1
10
149.763538407318
20
-7.83226392675979
30
0
41
1
10
149.844043894078
20
-8.31633681392648
30
0
41
1
10
150.005054867597
20
-9.22478634722543
30
0
41
1
10
150.085560354357
20
-9.64911129606065
30
0
41
1
10
150.246571327876
20
-10.4253165261758
30
0
41
1
10
150.327076814636
20
-10.7771672401816
30
0
41
1
10
150.488087788156
20
-11.4004657346257
30
0
41
1
10
150.568593274915
20
-11.6719109843184
30
0
41
1
10
150.729604248435
20
-12.131723791452
30
0
41
1
10
150.810109735194
20
-12.3201132551761
30
0
41
1
10
150.971120708714
20
-12.6161158268932
30
0
41
1
10
151.051626195474
20
-12.7237670572184
30
0
41
1
10
151.212637168993
20
-12.8646345525983
30
0
41
1
10
151.293142655753
20
-12.8978949552115
30
0
41
1
10
151.393774514203
20
-12.898641006684
30
0
41
1
10
151.413900885892
20
-12.8967588858115
30
0
41
1
10
151.454153629272
20
-12.8887805252095
30
0
41
1
10
151.474280000962
20
-12.8826840423018
30
0
41
1
10
151.534659116032
20
-12.8578538616765
30
0
41
1
10
151.574911859412
20
-12.8325746206908
30
0
41
1
10
151.695670089551
20
-12.7289611979461
30
0
41
1
10
151.776175576311
20
-12.6227411913424
30
0
41
1
10
151.937186549831
20
-12.3296849376767
30
0
41
1
10
152.01769203659
20
-12.1428103661286
30
0
41
1
10
152.17870301011
20
-11.6860275877022
30
0
41
1
10
152.25920849687
20
-11.4160970913226
30
0
41
1
10
152.420219470389
20
-10.7957322972342
30
0
41
1
10
152.500724957149
20
-10.4453000372311
30
0
41
1
10
152.661735930668
20
-9.6717409245978
30
0
41
1
10
152.742241417428
20
-9.24864316468799
30
0
41
1
10
152.903252390947
20
-8.34237834908262
30
0
41
1
10
152.983757877707
20
-7.85926267115616
30
0
41
1
10
153.144768851227
20
-6.8491704990922
30
0
41
1
10
153.225274337986
20
-6.32225659520395
30
0
41
1
10
153.386285311506
20
-5.24260260447909
30
0
41
1
10
153.466790798265
20
-4.68992289159212
30
0
41
1
10
153.627801771785
20
-3.57670153044452
30
0
41
1
10
153.708307258545
20
-3.01620689661729
30
0
41
1
10
153.869318232064
20
-1.90359945965275
30
0
41
1
10
153.949823718824
20
-1.35151449914088
30
0
41
1
10
154.070581948964
20
-0.539711018041942
30
0
41
1
10
154.110834692343
20
-0.271805686291458
30
0
41
1
10
154.191340179103
20
0.257259925760394
30
0
41
1
10
154.231592922483
20
0.524931308699109
30
0
41
1
10
154.352351152623
20
1.33643853519595
30
0
41
1
10
154.432856639382
20
1.8883796488258
30
0
41
1
10
154.593867612902
20
3.00083596012601
30
0
41
1
10
154.674373099661
20
3.56132349914316
30
0
41
1
10
154.835384073181
20
4.67468923133572
30
0
41
1
10
154.91588955994
20
5.22752056867296
30
0
41
1
10
155.07690053346
20
6.30764543568057
30
0
41
1
10
155.15740602022
20
6.83487866983776
30
0
41
1
10
155.318416993739
20
7.84576950600294
30
0
41
1
10
155.398922480499
20
8.32936447724435
30
0
41
1
10
155.559933454018
20
9.23672287825008
30
0
41
1
10
155.640438940778
20
9.66043476999951
30
0
41
1
10
155.801449914298
20
10.4353178117893
30
0
41
1
10
155.881955401057
20
10.7864596316247
30
0
41
1
10
156.042966374577
20
11.4082917166955
30
0
41
1
10
156.123471861336
20
11.6789796978247
30
0
41
1
10
156.284482834856
20
12.1372774957868
30
0
41
1
10
156.364988321616
20
12.3249094108726
30
0
41
1
10
156.525999295135
20
12.6194384480432
30
0
41
1
10
156.606504781895
20
12.7263737939783
30
0
41
1
10
156.767515755414
20
12.865882495995
30
0
41
1
10
156.848021242174
20
12.8985
30
0
41
1
10
156.928526728934
20
12.8985
30
0
0
SPLINE
5
F7
100
AcDbEntity
8
1
62
256
6
ByLayer
370
13
48
1
60
0
100
AcDbSpline
70
4
71
3
72
44
73
40
40
0
40
0
40
0
40
0
40
0.0625000000000009
40
0.0625000000000009
40
0.125000000000002
40
0.125000000000002
40
0.187500000000003
40
0.187500000000003
40
0.250000000000004
40
0.250000000000004
40
0.312500000000005
40
0.312500000000005
40
0.375000000000006
40
0.375000000000006
40
0.437500000000007
40
0.437500000000007
40
0.500000000000008
40
0.500000000000008
40
0.562500000000008
40
0.562500000000008
40
0.625000000000009
40
0.625000000000009
40
0.632812500000009
40
0.632812500000009
40
0.640625000000009
40
0.640625000000009
40
0.656250000000009
40
0.656250000000009
40
0.687500000000008
40
0.687500000000008
40
0.750000000000007
40
0.750000000000007
40
0.812500000000005
40
0.812500000000005
40
0.875000000000003
40
0.875000000000003
40
0.937500000000002
40
0.937500000000002
40
1
40
1
40
1
40
1
41
1
10
155.953608074567
20
12.8985
30
0
41
1
10
156.044268946624
20
12.8985
30
0
41
1
10
156.134929818681
20
12.8571023096573
30
0
41
1
10
156.316251562796
20
12.6788064118089
30
0
41
1
10
156.406912434853
20
12.5418288357083
30
0
41
1
10
156.588234178968
20
12.1641850215508
30
0
41
1
10
156.678895051025
20
11.9234554355574
30
0
41
1
10
156.86021679514
20
11.3370131191473
30
0
41
1
10
156.950877667197
20
10.9912758936797
30
0
41
1
10
157.132199411312
20
10.2018210103521
30
0
41
1
10
157.222860283369
20
9.75813241207078
30
0
41
1
10
157.404182027484
20
8.7880496528079
30
0
41
1
10
157.494842899541
20
8.26173562411392
30
0
41
1
10
157.676164643656
20
7.1482822501064
30
0
41
1
10
157.766825515713
20
6.56125336628384
30
0
41
1
10
157.948147259827
20
5.35190179303729
30
0
41
1
10
158.038808131885
20
4.72968971899184
30
0
41
1
10
158.220129875999
20
3.47571891015505
30
0
41
1
10
158.310790748057
20
2.84404462130428
30
0
41
1
10
158.492112492171
20
1.59409363267204
30
0
41
1
10
158.582773364229
20
0.975862135255653
30
0
41
1
10
158.684766845293
20
0.298102971785596
30
0
41
1
10
158.6960994543
20
0.22303951182036
30
0
41
1
10
158.718764672315
20
0.0734281468367328
30
0
41
1
10
158.730097281322
20
-0.0009417681591515
30
0
41
1
10
158.764095108343
20
-0.224853139123269
30
0
41
1
10
158.786760326358
20
-0.375177602668828
30
0
41
1
10
158.854755980401
20
-0.828946854639895
30
0
41
1
10
158.900086416429
20
-1.13519806122764
30
0
41
1
10
159.036077724515
20
-2.06194243774144
30
0
41
1
10
159.126738596572
20
-2.69056958831357
30
0
41
1
10
159.308060340687
20
-3.94843003418262
30
0
41
1
10
159.398721212744
20
-4.57759449227837
30
0
41
1
10
159.580042956859
20
-5.81169753505344
30
0
41
1
10
159.670703828916
20
-6.41653381277524
30
0
41
1
10
159.852025573031
20
-7.57597122272503
30
0
41
1
10
159.942686445088
20
-8.1304580910105
30
0
41
1
10
160.124008189203
20
-9.16535529903041
30
0
41
1
10
160.21466906126
20
-9.64566955547932
30
0
41
1
10
160.305329933317
20
-10.079746220555
30
0
0
SPLINE
5
F8
100
AcDbEntity
8
1
62
256
6
ByLayer
370
13
48
1
60
0
100
AcDbSpline
70
4
71
3
72
78
73
74
40
0
40
0
40
0
40
0
40
0.0312500000000001
40
0.0312500000000001
40
0.0625000000000002
40
0.0625000000000002
40
0.0937500000000002
40
0.0937500000000002
40
0.125
40
0.125
40
0.15625
40
0.15625
40
0.187500000000001
40
0.187500000000001
40
0.218750000000001
40
0.218750000000001
40
0.226562500000001
40
0.226562500000001
40
0.234375000000001
40
0.234375000000001
40
0.250000000000001
40
0.250000000000001
40
0.281250000000001
40
0.281250000000001
40
0.312500000000001
40
0.312500000000001
40
0.343750000000001
40
0.343750000000001
40
0.375000000000001
40
0.375000000000001
40
0.406250000000001
40
0.406250000000001
40
0.437500000000001
40
0.437500000000001
40
0.468750000000001
40
0.468750000000001
40
0.500000000000001
40
0.500000000000001
40
0.531250000000001
40
0.531250000000001
40
0.562500000000002
40
0.562500000000002
40
0.593750000000002
40
0.593750000000002
40
0.609375000000002
40
0.609375000000002
40
0.617187500000002
40
0.617187500000002
40
0.625000000000002
40
0.625000000000002
40
0.656250000000002
40
0.656250000000002
40
0.687500000000001
40
0.687500000000001
40
0.718750000000001
40
0.718750000000001
40
0.750000000000001
40
0.750000000000001
40
0.781250000000001
40
0.781250000000001
40
0.812500000000001
40
0.812500000000001
40
0.843750000000001
40
0.843750000000001
40
0.875000000000001
40
0.875000000000001
40
0.90625
40
0.90625
40
0.9375
40
0.9375
40
0.96875
40
0.96875
40
1
40
1
40
1
40
1
41
1
10
149.2
20
-7.32244670506648
30
0
41
1
10
149.275480481165
20
-7.7968225057088
30
0
41
1
10
149.35096096233
20
-8.25209349296196
30
0
41
1
10
149.50192192466
20
-9.11103194246735
30
0
41
1
10
149.577402405825
20
-9.51466110133754
30
0
41
1
10
149.728363368155
20
-10.2594826781281
30
0
41
1
10
149.80384384932
20
-10.6006512942105
30
0
41
1
10
149.95480481165
20
-11.213327766908
30
0
41
1
10
150.030285292815
20
-11.4848300619676
30
0
41
1
10
150.181246255145
20
-11.9550098515375
30
0
41
1
10
150.25672673631
20
-12.1536992239588
30
0
41
1
10
150.40768769864
20
-12.4790470264128
30
0
41
1
10
150.483168179805
20
-12.605730207652
30
0
41
1
10
150.634129142135
20
-12.7912474410764
30
0
41
1
10
150.7096096233
20
-12.8501127150731
30
0
41
1
10
150.803960224757
20
-12.8854789656215
30
0
41
1
10
150.822830345048
20
-12.8906462596796
30
0
41
1
10
150.86057058563
20
-12.8972900046089
30
0
41
1
10
150.879440705921
20
-12.8987673453723
30
0
41
1
10
150.936051066795
20
-12.8978471212589
30
0
41
1
10
150.973791307378
20
-12.8900579631103
30
0
41
1
10
151.087012029125
20
-12.8436899446907
30
0
41
1
10
151.16249251029
20
-12.7820426759968
30
0
41
1
10
151.31345347262
20
-12.5907235510589
30
0
41
1
10
151.388933953785
20
-12.461020615892
30
0
41
1
10
151.539894916115
20
-12.1295236275542
30
0
41
1
10
151.61537539728
20
-11.9277052486728
30
0
41
1
10
151.76633635961
20
-11.4513179294123
30
0
41
1
10
151.841816840775
20
-11.176737785583
30
0
41
1
10
151.992777803105
20
-10.5581314736581
30
0
41
1
10
152.06825828427
20
-10.214111663929
30
0
41
1
10
152.2192192466
20
-9.46398150048685
30
0
41
1
10
152.294699727765
20
-9.05789567781682
30
0
41
1
10
152.445660690095
20
-8.19457454999906
30
0
41
1
10
152.52114117126
20
-7.73737802406612
30
0
41
1
10
152.67210213359
20
-6.78539299608551
30
0
41
1
10
152.747582614755
20
-6.29065007913812
30
0
41
1
10
152.898543577085
20
-5.27844941532055
30
0
41
1
10
152.97402405825
20
-4.76103546593703
30
0
41
1
10
153.12498502058
20
-3.71831558443662
30
0
41
1
10
153.200465501745
20
-3.19304452980097
30
0
41
1
10
153.351426464075
20
-2.1481735370451
30
0
41
1
10
153.42690694524
20
-1.62859560740773
30
0
41
1
10
153.540127666988
20
-0.862060595101099
30
0
41
1
10
153.577867907571
20
-0.608668982437536
30
0
41
1
10
153.634478268444
20
-0.23265231698764
30
0
41
1
10
153.653348388736
20
-0.10810931329533
30
0
41
1
10
153.691088629318
20
0.139980606607992
30
0
41
1
10
153.709958749609
20
0.264763695287172
30
0
41
1
10
153.804309351066
20
0.89203533609512
30
0
41
1
10
153.879789832231
20
1.4046936258988
30
0
41
1
10
154.030750794561
20
2.44148931185566
30
0
41
1
10
154.106231275725
20
2.96561120977464
30
0
41
1
10
154.257192238056
20
4.01273171410267
30
0
41
1
10
154.332672719221
20
4.53570133320645
30
0
41
1
10
154.483633681551
20
5.56618752476447
30
0
41
1
10
154.559114162716
20
6.07366385007222
30
0
41
1
10
154.710075125046
20
7.05815711705938
30
0
41
1
10
154.785555606211
20
7.53512829149389
30
0
41
1
10
154.936516568541
20
8.44424410853318
30
0
41
1
10
155.011997049706
20
8.87634565083252
30
0
41
1
10
155.162958012036
20
9.68336054209169
30
0
41
1
10
155.238438493201
20
10.0582417914821
30
0
41
1
10
155.389399455531
20
10.7416191337246
30
0
41
1
10
155.464879936696
20
11.0500999655114
30
0
41
1
10
155.615840899026
20
11.5953738047783
30
0
41
1
10
155.691321380191
20
11.8321699644445
30
0
41
1
10
155.842282342521
20
12.2328494109985
30
0
41
1
10
155.917762823686
20
12.396751471282
30
0
41
1
10
156.068723786016
20
12.6541518935082
30
0
41
1
10
156.144204267181
20
12.7476789310959
30
0
41
1
10
156.295165229511
20
12.8698369548367
30
0
41
1
10
156.370645710676
20
12.8985
30
0
41
1
10
156.446126191841
20
12.8985
30
0
0
SPLINE
5
F9
100
AcDbEntity
8
1
62
256
6
ByLayer
370
13
48
1
60
0
100
AcDbSpline
70
4
71
3
72
58
73
54
40
0
40
0
40
0
40
0
40
0.0624999999999989
40
0.0624999999999989
40
0.124999999999998
40
0.124999999999998
40
0.187499999999997
40
0.187499999999997
40
0.218749999999996
40
0.218749999999996
40
0.249999999999995
40
0.249999999999995
40
0.281249999999995
40
0.281249999999995
40
0.312499999999994
40
0.312499999999994
40
0.343749999999993
40
0.343749999999993
40
0.374999999999993
40
0.374999999999993
40
0.437499999999991
40
0.437499999999991
40
0.499999999999989
40
0.499999999999989
40
0.562499999999987
40
0.562499999999987
40
0.570312499999988
40
0.570312499999988
40
0.578124999999988
40
0.578124999999988
40
0.593749999999988
40
0.593749999999988
40
0.624999999999988
40
0.624999999999988
40
0.68749999999999
40
0.68749999999999
40
0.749999999999992
40
0.749999999999992
40
0.781249999999993
40
0.781249999999993
40
0.812499999999994
40
0.812499999999994
40
0.843749999999995
40
0.843749999999995
40
0.874999999999996
40
0.874999999999996
40
0.906249999999997
40
0.906249999999997
40
0.937499999999998
40
0.937499999999998
40
0.968749999999999
40
0.968749999999999
40
1
40
1
40
1
40
1
41
1
10
155.471207537474
20
12.8985
30
0
41
1
10
155.571918420721
20
12.8985
30
0
41
1
10
155.672629303967
20
12.8473697783498
30
0
41
1
10
155.874051070461
20
12.6257215107431
30
0
41
1
10
155.974761953708
20
12.4550707126915
30
0
41
1
10
156.176183720201
20
11.9845015998875
30
0
41
1
10
156.276894603448
20
11.6844879872222
30
0
41
1
10
156.427960928318
20
11.1384349396184
30
0
41
1
10
156.478316369941
20
10.9405080464918
30
0
41
1
10
156.579027253188
20
10.5142045508032
30
0
41
1
10
156.629382694811
20
10.2858291545352
30
0
41
1
10
156.730093578058
20
9.80079251676668
30
0
41
1
10
156.780449019681
20
9.54413410701784
30
0
41
1
10
156.881159902928
20
9.00543054513906
30
0
41
1
10
156.931515344552
20
8.72338966402637
30
0
41
1
10
157.032226227798
20
8.13744805499613
30
0
41
1
10
157.082581669422
20
7.83355268506608
30
0
41
1
10
157.183292552668
20
7.20791083255179
30
0
41
1
10
157.233647994292
20
6.88617032566009
30
0
41
1
10
157.384714319162
20
5.90065011227318
30
0
41
1
10
157.485425202409
20
5.21661553198066
30
0
41
1
10
157.686846968902
20
3.82983962411618
30
0
41
1
10
157.787557852149
20
3.12725359225425
30
0
41
1
10
157.988979618642
20
1.73575566818576
30
0
41
1
10
158.089690501889
20
1.04692804626376
30
0
41
1
10
158.202990245542
20
0.293947046385284
30
0
41
1
10
158.215579105948
20
0.210582163599241
30
0
41
1
10
158.240756826759
20
0.0444918766463331
30
0
41
1
10
158.253345687165
20
-0.0380606069427643
30
0
41
1
10
158.291112268383
20
-0.287146355821108
30
0
41
1
10
158.316289989194
20
-0.454485532820314
30
0
41
1
10
158.391823151629
20
-0.959855765655618
30
0
41
1
10
158.442178593253
20
-1.30125543878219
30
0
41
1
10
158.593244918123
20
-2.33438141928085
30
0
41
1
10
158.693955801369
20
-3.03523948475404
30
0
41
1
10
158.895377567863
20
-4.43139817079427
30
0
41
1
10
158.99608845111
20
-5.12656823916018
30
0
41
1
10
159.14715477598
20
-6.13896671956829
30
0
41
1
10
159.197510217603
20
-6.47134725080096
30
0
41
1
10
159.29822110085
20
-7.12151760751138
30
0
41
1
10
159.348576542473
20
-7.43930133383881
30
0
41
1
10
159.44928742572
20
-8.0560177630943
30
0
41
1
10
159.499642867344
20
-8.35494459369107
30
0
41
1
10
159.60035375059
20
-8.93003927504523
30
0
41
1
10
159.650709192214
20
-9.20620199271011
30
0
41
1
10
159.75142007546
20
-9.73237991025067
30
0
41
1
10
159.801775517084
20
-9.98239116288275
30
0
41
1
10
159.90248640033
20
-10.4535348842236
30
0
41
1
10
159.952841841954
20
-10.6746649068751
30
0
41
1
10
160.0535527252
20
-11.0860691546914
30
0
41
1
10
160.103908166824
20
-11.2763425765879
30
0
41
1
10
160.204619050071
20
-11.6248599779189
30
0
41
1
10
160.254974491694
20
-11.7831047538358
30
0
41
1
10
160.305329933317
20
-11.9251495514099
30
0
0
SPLINE
5
FA
100
AcDbEntity
8
1
62
256
6
ByLayer
370
13
48
1
60
0
100
AcDbSpline
70
4
71
3
72
78
73
74
40
0
40
0
40
0
40
0
40
0.0312499999999996
40
0.0312499999999996
40
0.0624999999999992
40
0.0624999999999992
40
0.0937499999999988
40
0.0937499999999988
40
0.124999999999998
40
0.124999999999998
40
0.156249999999998
40
0.156249999999998
40
0.171874999999998
40
0.171874999999998
40
0.179687499999998
40
0.179687499999998
40
0.187499999999998
40
0.187499999999998
40
0.218749999999998
40
0.218749999999998
40
0.249999999999997
40
0.249999999999997
40
0.281249999999997
40
0.281249999999997
40
0.312499999999997
40
0.312499999999997
40
0.343749999999997
40
0.343749999999997
40
0.374999999999997
40
0.374999999999997
40
0.406249999999996
40
0.406249999999996
40
0.437499999999996
40
0.437499999999996
40
0.468749999999996
40
0.468749999999996
40
0.499999999999996
40
0.499999999999996
40
0.531249999999996
40
0.531249999999996
40
0.562499999999995
40
0.562499999999995
40
0.578124999999995
40
0.578124999999995
40
0.585937499999995
40
0.585937499999995
40
0.593749999999995
40
0.593749999999995
40
0.624999999999996
40
0.624999999999996
40
0.656249999999996
40
0.656249999999996
40
0.687499999999996
40
0.687499999999996
40
0.718749999999997
40
0.718749999999997
40
0.749999999999997
40
0.749999999999997
40
0.781249999999998
40
0.781249999999998
40
0.812499999999998
40
0.812499999999998
40
0.843749999999998
40
0.843749999999998
40
0.874999999999999
40
0.874999999999999
40
0.906249999999999
40
0.906249999999999
40
0.937499999999999
40
0.937499999999999
40
0.96875
40
0.96875
40
1
40
1
40
1
40
1
41
1
10
149.2
20
-10.0311137306266
30
0
41
1
10
149.27045547557
20
-10.371097255708
30
0
41
1
10
149.340910951141
20
-10.6833745431927
30
0
41
1
10
149.481821902281
20
-11.2469881772686
30
0
41
1
10
149.552277377851
20
-11.4983214265993
30
0
41
1
10
149.693188328992
20
-11.9375775748303
30
0
41
1
10
149.763643804562
20
-12.1255088800583
30
0
41
1
10
149.904554755703
20
-12.4384966559632
30
0
41
1
10
149.975010231273
20
-12.5635702012175
30
0
41
1
10
150.115921182414
20
-12.7539880481797
30
0
41
1
10
150.186376657984
20
-12.8193541517983
30
0
41
1
10
150.292059871339
20
-12.8764738958092
30
0
41
1
10
150.327287609125
20
-12.8887058151891
30
0
41
1
10
150.380129215802
20
-12.897421577273
30
0
41
1
10
150.397743084695
20
-12.8987226921167
30
0
41
1
10
150.43297082248
20
-12.8982154775302
30
0
41
1
10
150.450584691373
20
-12.8963999942841
30
0
41
1
10
150.538654035836
20
-12.8792578060279
30
0
41
1
10
150.609109511406
20
-12.8396856519237
30
0
41
1
10
150.750020462546
20
-12.7030169303413
30
0
41
1
10
150.820475938117
20
-12.6058977363731
30
0
41
1
10
150.961386889257
20
-12.3499776813143
30
0
41
1
10
151.031842364828
20
-12.1911570625594
30
0
41
1
10
151.172753315968
20
-11.8100216821869
30
0
41
1
10
151.243208791538
20
-11.5876940857267
30
0
41
1
10
151.384119742679
20
-11.0805817489276
30
0
41
1
10
151.454575218249
20
-10.7957945873537
30
0
41
1
10
151.59548616939
20
-10.167890881818
30
0
41
1
10
151.66594164496
20
-9.82478410330054
30
0
41
1
10
151.806852596101
20
-9.08735423551923
30
0
41
1
10
151.877308071671
20
-8.69305235631398
30
0
41
1
10
152.018219022812
20
-7.86286051618026
30
0
41
1
10
152.088674498382
20
-7.42699992914498
30
0
41
1
10
152.229585449523
20
-6.52506033832336
30
0
41
1
10
152.300040925093
20
-6.05901389854066
30
0
41
1
10
152.440951876233
20
-5.10886426372568
30
0
41
1
10
152.511407351804
20
-4.62479154951095
30
0
41
1
10
152.652318302944
20
-3.65057724032249
30
0
41
1
10
152.722773778515
20
-3.16045983876981
30
0
41
1
10
152.863684729655
20
-2.18513528024758
30
0
41
1
10
152.934140205225
20
-1.69994373354891
30
0
41
1
10
153.039823418581
20
-0.982863850281262
30
0
41
1
10
153.075051156366
20
-0.745607782535046
30
0
41
1
10
153.127892763044
20
-0.393120834479959
30
0
41
1
10
153.145506631936
20
-0.276190408095545
30
0
41
1
10
153.180734369721
20
-0.0435717911160793
30
0
41
1
10
153.198348238614
20
0.0718529284996237
30
0
41
1
10
153.286417583077
20
0.653902414724229
30
0
41
1
10
153.356873058647
20
1.12948737729096
30
0
41
1
10
153.497784009788
20
2.0926030353902
30
0
41
1
10
153.568239485358
20
2.58012465535796
30
0
41
1
10
153.709150436499
20
3.55728488564068
30
0
41
1
10
153.779605912069
20
4.04690545884461
30
0
41
1
10
153.92051686321
20
5.01695769392808
30
0
41
1
10
153.99097233878
20
5.49736314861278
30
0
41
1
10
154.13188328992
20
6.43687082698682
30
0
41
1
10
154.202338765491
20
6.89594152655678
30
0
41
1
10
154.343249716631
20
7.78073607115712
30
0
41
1
10
154.413705192202
20
8.20642767979908
30
0
41
1
10
154.554616143342
20
9.0134667965612
30
0
41
1
10
154.625071618912
20
9.39478669524351
30
0
41
1
10
154.765982570053
20
10.1040500497448
30
0
41
1
10
154.836438045623
20
10.4319751630848
30
0
41
1
10
154.977348996764
20
11.0280874686259
30
0
41
1
10
155.047804472334
20
11.2962682294757
30
0
41
1
10
155.188715423475
20
11.769580748605
30
0
41
1
10
155.259170899045
20
11.9747180090169
30
0
41
1
10
155.400081850186
20
12.3216943454391
30
0
41
1
10
155.470537325756
20
12.4635485170002
30
0
41
1
10
155.611448276897
20
12.686451448651
30
0
41
1
10
155.681903752467
20
12.7675211379447
30
0
41
1
10
155.822814703607
20
12.8735340392554
30
0
41
1
10
155.893270179178
20
12.8985
30
0
41
1
10
155.963725654748
20
12.8985
30
0
0
SPLINE
5
FB
100
AcDbEntity
8
1
62
256
6
ByLayer
370
13
48
1
60
0
100
AcDbSpline
70
4
71
3
72
74
73
70
40
0
40
0
40
0
40
0
40
0.03125
40
0.03125
40
0.0625
40
0.0625
40
0.09375
40
0.09375
40
0.125
40
0.125
40
0.15625
40
0.15625
40
0.1875
40
0.1875
40
0.21875
40
0.21875
40
0.25
40
0.25
40
0.28125
40
0.28125
40
0.3125
40
0.3125
40
0.34375
40
0.34375
40
0.375
40
0.375
40
0.40625
40
0.40625
40
0.4375
40
0.4375
40
0.46875
40
0.46875
40
0.5
40
0.5
40
0.515625
40
0.515625
40
0.5234375
40
0.5234375
40
0.53125
40
0.53125
40
0.5625
40
0.5625
40
0.59375
40
0.59375
40
0.625
40
0.625
40
0.65625
40
0.65625
40
0.6875
40
0.6875
40
0.71875
40
0.71875
40
0.75
40
0.75
40
0.78125
40
0.78125
40
0.8125
40
0.8125
40
0.84375
40
0.84375
40
0.875
40
0.875
40
0.90625
40
0.90625
40
0.9375
40
0.9375
40
0.96875
40
0.96875
40
1
40
1
40
1
40
1
41
1
10
154.988807000381
20
12.8985
30
0
41
1
10
155.044187447599
20
12.8985
30
0
41
1
10
155.099567894817
20
12.8830865464925
30
0
41
1
10
155.210328789253
20
12.8183843170382
30
0
41
1
10
155.265709236471
20
12.7690887215523
30
0
41
1
10
155.376470130908
20
12.6340816028645
30
0
41
1
10
155.431850578126
20
12.5483634042793
30
0
41
1
10
155.542611472562
20
12.3386959047091
30
0
41
1
10
155.59799191978
20
12.2147407861808
30
0
41
1
10
155.708752814216
20
11.9276999856103
30
0
41
1
10
155.764133261434
20
11.764610105039
30
0
41
1
10
155.87489415587
20
11.3994692392198
30
0
41
1
10
155.930274603088
20
11.1974163582794
30
0
41
1
10
156.041035497525
20
10.7556818112422
30
0
41
1
10
156.096415944743
20
10.5160010207915
30
0
41
1
10
156.207176839179
20
10.001522690293
30
0
41
1
10
156.262557286397
20
9.72672893398504
30
0
41
1
10
156.373318180833
20
9.14564670065394
30
0
41
1
10
156.428698628051
20
8.83936466123333
30
0
41
1
10
156.539459522487
20
8.19988318528112
30
0
41
1
10
156.594839969706
20
7.86669221616239
30
0
41
1
10
156.705600864142
20
7.17869916446782
30
0
41
1
10
156.76098131136
20
6.82390668702939
30
0
41
1
10
156.871742205796
20
6.09847110033812
30
0
41
1
10
156.927122653014
20
5.72783773145167
30
0
41
1
10
157.03788354745
20
4.97664092031172
30
0
41
1
10
157.093263994668
20
4.59608641274639
30
0
41
1
10
157.204024889104
20
3.83084429232102
30
0
41
1
10
157.259405336323
20
3.44616407240349
30
0
41
1
10
157.370166230759
20
2.67809635973415
30
0
41
1
10
157.425546677977
20
2.29471427129303
30
0
41
1
10
157.536307572413
20
1.534104104384
30
0
41
1
10
157.591688019631
20
1.15687930000135
30
0
41
1
10
157.674758690458
20
0.598782309721599
30
0
41
1
10
157.702448914067
20
0.414034294232437
30
0
41
1
10
157.743984249481
20
0.139175727490567
30
0
41
1
10
157.757829361285
20
0.0481247208806224
30
0
41
1
10
157.785519584894
20
-0.134056919231369
30
0
41
1
10
157.799364696699
20
-0.225542463740567
30
0
41
1
10
157.868590255722
20
-0.684812335420844
30
0
41
1
10
157.92397070294
20
-1.05815283615328
30
0
41
1
10
158.034731597376
20
-1.81283804284453
30
0
41
1
10
158.090112044594
20
-2.19418034847524
30
0
41
1
10
158.20087293903
20
-2.96029274714775
30
0
41
1
10
158.256253386248
20
-3.34505833283723
30
0
41
1
10
158.367014280684
20
-4.11281344992304
30
0
41
1
10
158.422394727902
20
-4.49579638976434
30
0
41
1
10
158.533155622339
20
-5.25432179167078
30
0
41
1
10
158.588536069557
20
-5.62985589444372
30
0
41
1
10
158.699296963993
20
-6.36758442349208
30
0
41
1
10
158.754677411211
20
-6.72976934327463
30
0
41
1
10
158.865438305647
20
-7.43493622925564
30
0
41
1
10
158.920818752865
20
-7.77790841089688
30
0
41
1
10
159.031579647301
20
-8.43911542221667
30
0
41
1
10
159.086960094519
20
-8.75734118602588
30
0
41
1
10
159.197720988956
20
-9.36413654190551
30
0
41
1
10
159.253101436174
20
-9.65269874648655
30
0
41
1
10
159.36386233061
20
-10.1961141713275
30
0
41
1
10
159.419242777828
20
-10.4509624359053
30
0
41
1
10
159.530003672264
20
-10.9239509942208
30
0
41
1
10
159.585384119482
20
-11.1420891816554
30
0
41
1
10
159.696145013918
20
-11.5398196221323
30
0
41
1
10
159.751525461137
20
-11.7194126433424
30
0
41
1
10
159.862286355573
20
-12.0393956048862
30
0
41
1
10
159.917666802791
20
-12.1797888475027
30
0
41
1
10
160.028427697227
20
-12.4218332248845
30
0
41
1
10
160.083808144445
20
-12.5234895865096
30
0
41
1
10
160.194569038881
20
-12.6895087810876
30
0
41
1
10
160.249949486099
20
-12.7538780202239
30
0
41
1
10
160.305329933317
20
-12.8007298527762
30
0
0
SPLINE
5
FC
100
AcDbEntity
8
1
62
256
6
ByLayer
370
13
48
1
60
0
100
AcDbSpline
70
4
71
3
72
78
73
74
40
0
40
0
40
0
40
0
40
0.0312499999999999
40
0.0312499999999999
40
0.0624999999999999
40
0.0624999999999999
40
0.0937499999999998
40
0.0937499999999998
40
0.109375
40
0.109375
40
0.1171875
40
0.1171875
40
0.125
40
0.125
40
0.156250000000001
40
0.156250000000001
40
0.187500000000002
40
0.187500000000002
40
0.218750000000002
40
0.218750000000002
40
0.250000000000003
40
0.250000000000003
40
0.281250000000004
40
0.281250000000004
40
0.312500000000005
40
0.312500000000005
40
0.343750000000006
40
0.343750000000006
40
0.375000000000006
40
0.375000000000006
40
0.406250000000007
40
0.406250000000007
40
0.437500000000008
40
0.437500000000008
40
0.468750000000008
40
0.468750000000008
40
0.500000000000009
40
0.500000000000009
40
0.53125000000001
40
0.53125000000001
40
0.54687500000001
40
0.54687500000001
40
0.55468750000001
40
0.55468750000001
40
0.56250000000001
40
0.56250000000001
40
0.593750000000009
40
0.593750000000009
40
0.625000000000009
40
0.625000000000009
40
0.656250000000008
40
0.656250000000008
40
0.687500000000007
40
0.687500000000007
40
0.718750000000006
40
0.718750000000006
40
0.750000000000006
40
0.750000000000006
40
0.781250000000005
40
0.781250000000005
40
0.812500000000004
40
0.812500000000004
40
0.843750000000003
40
0.843750000000003
40
0.875000000000003
40
0.875000000000003
40
0.906250000000002
40
0.906250000000002
40
0.937500000000001
40
0.937500000000001
40
0.968750000000001
40
0.968750000000001
40
1
40
1
40
1
40
1
41
1
10
149.2
20
-11.8963918838651
30
0
41
1
10
149.265430469976
20
-12.083774908077
30
0
41
1
10
149.330860939951
20
-12.2437760300854
30
0
41
1
10
149.461721879902
20
-12.5099801502668
30
0
41
1
10
149.527152349878
20
-12.6161958872663
30
0
41
1
10
149.658013289829
20
-12.7776668668967
30
0
41
1
10
149.723443759805
20
-12.8329374194237
30
0
41
1
10
149.821589464768
20
-12.8808207295444
30
0
41
1
10
149.854304699756
20
-12.8909543990979
30
0
41
1
10
149.903377552237
20
-12.8978825608769
30
0
41
1
10
149.919735169731
20
-12.8988152676344
30
0
41
1
10
149.952450404719
20
-12.8979995533401
30
0
41
1
10
149.968808022213
20
-12.8962420265344
30
0
41
1
10
150.050596109682
20
-12.8805016615469
30
0
41
1
10
150.116026579658
20
-12.8456232686553
30
0
41
1
10
150.246887519609
20
-12.7265993654465
30
0
41
1
10
150.312317989585
20
-12.6424381685975
30
0
41
1
10
150.443178929536
20
-12.4213462525212
30
0
41
1
10
150.508609399511
20
-12.2844014049391
30
0
41
1
10
150.639470339463
20
-11.9559185138932
30
0
41
1
10
150.704900809438
20
-11.7643703189764
30
0
41
1
10
150.835761749389
20
-11.3269095180634
30
0
41
1
10
150.901192219365
20
-11.080992962935
30
0
41
1
10
151.032053159316
20
-10.5372963807335
30
0
41
1
10
151.097483629292
20
-10.2395200326777
30
0
41
1
10
151.228344569243
20
-9.59688549622524
30
0
41
1
10
151.293775039218
20
-9.2520387450129
30
0
41
1
10
151.42463597917
20
-8.5220980634414
30
0
41
1
10
151.490066449145
20
-8.13702198704416
30
0
41
1
10
151.620927389096
20
-7.33506436585319
30
0
41
1
10
151.686357859072
20
-6.91820453161091
30
0
41
1
10
151.817218799023
20
-6.06212377968768
30
0
41
1
10
151.882649268999
20
-5.62292526470441
30
0
41
1
10
152.01351020895
20
-4.73193995862044
30
0
41
1
10
152.078940678925
20
-4.28017325138768
30
0
41
1
10
152.209801618876
20
-3.37350424228794
30
0
41
1
10
152.275232088852
20
-2.91861748421903
30
0
41
1
10
152.406093028803
20
-2.01429881338885
30
0
41
1
10
152.471523498779
20
-1.56487680182295
30
0
41
1
10
152.569669203742
20
-0.90034240591126
30
0
41
1
10
152.60238443873
20
-0.680420075163283
30
0
41
1
10
152.651457291212
20
-0.353506257364785
30
0
41
1
10
152.667814908705
20
-0.245029207448141
30
0
41
1
10
152.700530143693
20
-0.0291524494080306
30
0
41
1
10
152.716887761187
20
0.0780726927627029
30
0
41
1
10
152.798675848657
20
0.618575147538564
30
0
41
1
10
152.864106318632
20
1.05954917959397
30
0
41
1
10
152.994967258583
20
1.95233659665112
30
0
41
1
10
153.060397728559
20
2.40414415486819
30
0
41
1
10
153.19125866851
20
3.31087852042867
30
0
41
1
10
153.256689138486
20
3.7657937571619
30
0
41
1
10
153.387550078437
20
4.66986875198401
30
0
41
1
10
153.452980548412
20
5.11901149462059
30
0
41
1
10
153.583841488364
20
6.00194317923658
30
0
41
1
10
153.649271958339
20
6.43571109812763
30
0
41
1
10
153.78013289829
20
7.27814855736312
30
0
41
1
10
153.845563368266
20
7.68679556488831
30
0
41
1
10
153.976424308217
20
8.46976434356597
30
0
41
1
10
154.041854778192
20
8.84406520248069
30
0
41
1
10
154.172715718144
20
9.55029673773527
30
0
41
1
10
154.238146188119
20
9.88221118939924
30
0
41
1
10
154.36900712807
20
10.4973754470155
30
0
41
1
10
154.434437598046
20
10.7806159753611
30
0
41
1
10
154.565298537997
20
11.2942786558149
30
0
41
1
10
154.630729007973
20
11.5246994018981
30
0
41
1
10
154.761589947924
20
11.9308719613874
30
0
41
1
10
154.827020417899
20
12.1066297018845
30
0
41
1
10
154.957881357851
20
12.403857634847
30
0
41
1
10
155.023311827826
20
12.5253393714767
30
0
41
1
10
155.154172767777
20
12.7163589847853
30
0
41
1
10
155.219603237753
20
12.785911680331
30
0
41
1
10
155.350464177704
20
12.8769743268552
30
0
41
1
10
155.415894647679
20
12.8985
30
0
41
1
10
155.481325117655
20
12.8985
30
0
0
SPLINE
5
FD
100
AcDbEntity
8
1
62
256
6
ByLayer
370
13
48
1
60
0
100
AcDbSpline
70
4
71
3
72
78
73
74
40
0
40
0
40
0
40
0
40
0.0312500000000003
40
0.0312500000000003
40
0.0625000000000007
40
0.0625000000000007
40
0.093750000000001
40
0.093750000000001
40
0.125000000000001
40
0.125000000000001
40
0.156250000000002
40
0.156250000000002
40
0.187500000000002
40
0.187500000000002
40
0.218750000000003
40
0.218750000000003
40
0.250000000000003
40
0.250000000000003
40
0.281250000000003
40
0.281250000000003
40
0.312500000000003
40
0.312500000000003
40
0.343750000000004
40
0.343750000000004
40
0.375000000000004
40
0.375000000000004
40
0.406250000000004
40
0.406250000000004
40
0.437500000000004
40
0.437500000000004
40
0.468750000000005
40
0.468750000000005
40
0.476562500000005
40
0.476562500000005
40
0.484375000000005
40
0.484375000000005
40
0.500000000000005
40
0.500000000000005
40
0.531250000000005
40
0.531250000000005
40
0.562500000000004
40
0.562500000000004
40
0.593750000000004
40
0.593750000000004
40
0.625000000000004
40
0.625000000000004
40
0.656250000000003
40
0.656250000000003
40
0.687500000000003
40
0.687500000000003
40
0.718750000000003
40
0.718750000000003
40
0.750000000000002
40
0.750000000000002
40
0.781250000000002
40
0.781250000000002
40
0.812500000000002
40
0.812500000000002
40
0.843750000000001
40
0.843750000000001
40
0.875000000000001
40
0.875000000000001
40
0.906250000000001
40
0.906250000000001
40
0.937500000000001
40
0.937500000000001
40
0.953125
40
0.953125
40
0.9609375
40
0.9609375
40
0.96875
40
0.96875
40
1
40
1
40
1
40
1
41
1
10
154.506406463288
20
12.8985
30
0
41
1
10
154.566811916101
20
12.8985
30
0
41
1
10
154.627217368914
20
12.8801583453727
30
0
41
1
10
154.748028274539
20
12.802862153064
30
0
41
1
10
154.808433727352
20
12.7438970750785
30
0
41
1
10
154.929244632978
20
12.5821677614494
30
0
41
1
10
154.989650085791
20
12.4793933846267
30
0
41
1
10
155.110460991416
20
12.2279369923606
30
0
41
1
10
155.170866444229
20
12.0792465714646
30
0
41
1
10
155.291677349854
20
11.7352109865716
30
0
41
1
10
155.352082802667
20
11.5398605308481
30
0
41
1
10
155.472893708293
20
11.1033298950904
30
0
41
1
10
155.533299161106
20
10.8621486719203
30
0
41
1
10
155.654110066732
20
10.3364527060766
30
0
41
1
10
155.714515519544
20
10.051941770051
30
0
41
1
10
155.83532642517
20
9.44371401536094
30
0
41
1
10
155.895731877983
20
9.12000571714216
30
0
41
1
10
156.016542783608
20
8.43895609791343
30
0
41
1
10
156.076948236421
20
8.08162710181702
30
0
41
1
10
156.197759142047
20
7.34003723445406
30
0
41
1
10
156.258164594859
20
6.95579097014192
30
0
41
1
10
156.378975500485
20
6.16778562322747
30
0
41
1
10
156.439380953298
20
5.76404160958569
30
0
41
1
10
156.560191858924
20
4.94472538195268
30
0
41
1
10
156.620597311736
20
4.52916695476733
30
0
41
1
10
156.741408217362
20
3.69373267695534
30
0
41
1
10
156.801813670175
20
3.27386798203301
30
0
41
1
10
156.9226245758
20
2.43677918899221
30
0
41
1
10
156.983030028613
20
2.019562845499
30
0
41
1
10
157.103840934239
20
1.19388993893759
30
0
41
1
10
157.164246387051
20
0.78543756205579
30
0
41
1
10
157.239753203068
20
0.283535148422089
30
0
41
1
10
157.254854566271
20
0.183585203564491
30
0
41
1
10
157.285057292677
20
-0.0153845994277049
30
0
41
1
10
157.30015865588
20
-0.114509219892341
30
0
41
1
10
157.34546274549
20
-0.414159900109581
30
0
41
1
10
157.375665471896
20
-0.615730239450897
30
0
41
1
10
157.466273651116
20
-1.22497489006452
30
0
41
1
10
157.526679103928
20
-1.63721497047067
30
0
41
1
10
157.647490009554
20
-2.46837962354519
30
0
41
1
10
157.707895462367
20
-2.88729874456862
30
0
41
1
10
157.828706367993
20
-3.72538208468728
30
0
41
1
10
157.889111820805
20
-4.14453727898186
30
0
41
1
10
158.009922726431
20
-4.97590450423635
30
0
41
1
10
158.070328179244
20
-5.3881043142928
30
0
41
1
10
158.191139084869
20
-6.19794439876387
30
0
41
1
10
158.251544537682
20
-6.59557024485437
30
0
41
1
10
158.372355443308
20
-7.36862211163924
30
0
41
1
10
158.43276089612
20
-7.7440330167401
30
0
41
1
10
158.553571801746
20
-8.46544031935579
30
0
41
1
10
158.613977254559
20
-8.81142272718901
30
0
41
1
10
158.734788160184
20
-9.46762774492476
30
0
41
1
10
158.795193612997
20
-9.77783924668827
30
0
41
1
10
158.916004518623
20
-10.3574096320476
30
0
41
1
10
158.976409971436
20
-10.626761621283
30
0
41
1
10
159.097220877061
20
-11.1210473039288
30
0
41
1
10
159.157626329874
20
-11.3459789568787
30
0
41
1
10
159.2784372355
20
-11.7495212102518
30
0
41
1
10
159.338842688312
20
-11.9281344813456
30
0
41
1
10
159.459653593938
20
-12.2387893969756
30
0
41
1
10
159.520059046751
20
-12.3708376005943
30
0
41
1
10
159.640869952376
20
-12.5896217874734
30
0
41
1
10
159.701275405189
20
-12.6763669611003
30
0
41
1
10
159.822086310815
20
-12.8070730561358
30
0
41
1
10
159.882491763628
20
-12.851044406159
30
0
41
1
10
159.973099942847
20
-12.8875358530489
30
0
41
1
10
160.003302669253
20
-12.8947953016676
30
0
41
1
10
160.048606758863
20
-12.8987028898882
30
0
41
1
10
160.063708122066
20
-12.8988491416684
30
0
41
1
10
160.093910848473
20
-12.8968415723996
30
0
41
1
10
160.109012211676
20
-12.8946786330566
30
0
41
1
10
160.184519027692
20
-12.877908501675
30
0
41
1
10
160.244924480505
20
-12.845407729933
30
0
41
1
10
160.305329933317
20
-12.7919765066237
30
0
0
SPLINE
5
FE
100
AcDbEntity
8
1
62
256
6
ByLayer
370
13
48
1
60
0
100
AcDbSpline
70
4
71
3
72
78
73
74
40
0
40
0
40
0
40
0
40
0.0312499999999998
40
0.0312499999999998
40
0.0390624999999996
40
0.0390624999999996
40
0.0468749999999994
40
0.0468749999999994
40
0.0624999999999993
40
0.0624999999999993
40
0.0937499999999995
40
0.0937499999999995
40
0.125
40
0.125
40
0.15625
40
0.15625
40
0.1875
40
0.1875
40
0.21875
40
0.21875
40
0.25
40
0.25
40
0.28125
40
0.28125
40
0.312500000000001
40
0.312500000000001
40
0.343750000000001
40
0.343750000000001
40
0.375000000000001
40
0.375000000000001
40
0.406250000000001
40
0.406250000000001
40
0.437500000000001
40
0.437500000000001
40
0.468750000000002
40
0.468750000000002
40
0.500000000000002
40
0.500000000000002
40
0.515625000000002
40
0.515625000000002
40
0.523437500000001
40
0.523437500000001
40
0.531250000000001
40
0.531250000000001
40
0.562500000000001
40
0.562500000000001
40
0.593750000000001
40
0.593750000000001
40
0.625000000000001
40
0.625000000000001
40
0.656250000000001
40
0.656250000000001
40
0.687500000000001
40
0.687500000000001
40
0.718750000000001
40
0.718750000000001
40
0.75
40
0.75
40
0.78125
40
0.78125
40
0.8125
40
0.8125
40
0.84375
40
0.84375
40
0.875
40
0.875
40
0.90625
40
0.90625
40
0.9375
40
0.9375
40
0.96875
40
0.96875
40
1
40
1
40
1
40
1
41
1
10
149.2
20
-12.7919755243071
30
0
41
1
10
149.260405464381
20
-12.8454070139981
30
0
41
1
10
149.320810928762
20
-12.8779080339012
30
0
41
1
10
149.396317759238
20
-12.8946784513194
30
0
41
1
10
149.411419125333
20
-12.8968414466674
30
0
41
1
10
149.441621857523
20
-12.8988491255299
30
0
41
1
10
149.456723223619
20
-12.8987029270768
30
0
41
1
10
149.502027321904
20
-12.8947955011735
30
0
41
1
10
149.532230054095
20
-12.8875361620068
30
0
41
1
10
149.622838250666
20
-12.8510450461418
30
0
41
1
10
149.683243715047
20
-12.8070739203964
30
0
41
1
10
149.804054643809
20
-12.6763682745413
30
0
41
1
10
149.864460108189
20
-12.5896233258042
30
0
41
1
10
149.985271036951
20
-12.3708395817461
30
0
41
1
10
150.045676501332
20
-12.2387915960394
30
0
41
1
10
150.166487430094
20
-11.9281371011716
30
0
41
1
10
150.226892894475
20
-11.7495240329045
30
0
41
1
10
150.347703823236
20
-11.3459821621456
30
0
41
1
10
150.408109287617
20
-11.1210506889586
30
0
41
1
10
150.528920216379
20
-10.6267653356783
30
0
41
1
10
150.58932568076
20
-10.357413496024
30
0
41
1
10
150.710136609521
20
-9.77784337410731
30
0
41
1
10
150.770542073902
20
-9.4676319861905
30
0
41
1
10
150.891353002664
20
-8.81142715699173
30
0
41
1
10
150.951758467045
20
-8.46544482384328
30
0
41
1
10
151.072569395807
20
-7.74403763043921
30
0
41
1
10
151.132974860187
20
-7.3686267598699
30
0
41
1
10
151.253785788949
20
-6.59557492343552
30
0
41
1
10
151.31419125333
20
-6.19794907317763
30
0
41
1
10
151.435002182092
20
-5.38810894526884
30
0
41
1
10
151.495407646473
20
-4.97590909596164
30
0
41
1
10
151.616218575234
20
-4.14454176236498
30
0
41
1
10
151.676624039615
20
-3.72538649900085
30
0
41
1
10
151.797434968377
20
-2.88730299718026
30
0
41
1
10
151.857840432758
20
-2.46838378354508
30
0
41
1
10
151.978651361519
20
-1.63721892832663
30
0
41
1
10
152.0390568259
20
-1.22497873840516
30
0
41
1
10
152.129665022472
20
-0.615733915654999
30
0
41
1
10
152.159867754662
20
-0.414163517621063
30
0
41
1
10
152.205171852948
20
-0.114512747953739
30
0
41
1
10
152.220273219043
20
-0.0153880941400075
30
0
41
1
10
152.250475951233
20
0.183581725234205
30
0
41
1
10
152.265577317328
20
0.283531678851574
30
0
41
1
10
152.341084147805
20
0.785434139152898
30
0
41
1
10
152.401489612185
20
1.19388656258809
30
0
41
1
10
152.522300540947
20
2.0195595807275
30
0
41
1
10
152.582706005328
20
2.43677598925063
30
0
41
1
10
152.70351693409
20
3.27386492975668
30
0
41
1
10
152.763922398471
20
3.69372970711584
30
0
41
1
10
152.884733327232
20
4.52916416491991
30
0
41
1
10
152.945138791613
20
4.944722689657
30
0
41
1
10
153.065949720375
20
5.76403912402986
30
0
41
1
10
153.126355184756
20
6.16778324685089
30
0
41
1
10
153.247166113517
20
6.95578881926807
30
0
41
1
10
153.307571577898
20
7.34003519989014
30
0
41
1
10
153.42838250666
20
8.08162530185515
30
0
41
1
10
153.488787971041
20
8.43895441622729
30
0
41
1
10
153.609598899803
20
9.12000426861371
30
0
41
1
10
153.670004364183
20
9.44371268169792
30
0
41
1
10
153.790815292945
20
10.0519406576397
30
0
41
1
10
153.851220757326
20
10.3364517000376
30
0
41
1
10
153.972031686088
20
10.8621478658212
30
0
41
1
10
154.032437150469
20
11.1033291825496
30
0
41
1
10
154.15324807923
20
11.5398599894103
30
0
41
1
10
154.213653543611
20
11.7352105226751
30
0
41
1
10
154.334464472373
20
12.0792462447395
30
0
41
1
10
154.394869936754
20
12.2279367252677
30
0
41
1
10
154.515680865515
20
12.4793932183191
30
0
41
1
10
154.576086329896
20
12.5821676363013
30
0
41
1
10
154.696897258658
20
12.743897014393
30
0
41
1
10
154.757302723039
20
12.8028621156911
30
0
41
1
10
154.878113651801
20
12.8801583383375
30
0
41
1
10
154.938519116182
20
12.8985
30
0
41
1
10
154.998924580562
20
12.8985
30
0
0
SPLINE
5
FF
100
AcDbEntity
8
1
62
256
6
ByLayer
370
13
48
1
60
0
100
AcDbSpline
70
4
71
3
72
77
73
73
40
0
40
0
40
0
40
0
40
0.0312500000000009
40
0.0312500000000009
40
0.0625000000000018
40
0.0625000000000018
40
0.0937500000000027
40
0.0937500000000027
40
0.125000000000004
40
0.125000000000004
40
0.156250000000005
40
0.156250000000005
40
0.187500000000005
40
0.187500000000005
40
0.218750000000006
40
0.218750000000006
40
0.250000000000007
40
0.250000000000007
40
0.281250000000008
40
0.281250000000008
40
0.312500000000009
40
0.312500000000009
40
0.34375000000001
40
0.34375000000001
40
0.375000000000011
40
0.375000000000011
40
0.406250000000011
40
0.406250000000011
40
0.437500000000012
40
0.437500000000012
40
0.445312500000012
40
0.445312500000012
40
0.453125000000012
40
0.468750000000012
40
0.468750000000012
40
0.500000000000011
40
0.500000000000011
40
0.531250000000011
40
0.531250000000011
40
0.56250000000001
40
0.56250000000001
40
0.59375000000001
40
0.59375000000001
40
0.625000000000009
40
0.625000000000009
40
0.656250000000008
40
0.656250000000008
40
0.687500000000008
40
0.687500000000008
40
0.718750000000007
40
0.718750000000007
40
0.750000000000006
40
0.750000000000006
40
0.781250000000006
40
0.781250000000006
40
0.812500000000005
40
0.812500000000005
40
0.843750000000004
40
0.843750000000004
40
0.875000000000004
40
0.875000000000004
40
0.882812500000003
40
0.882812500000003
40
0.890625000000003
40
0.890625000000003
40
0.906250000000003
40
0.906250000000003
40
0.937500000000002
40
0.937500000000002
40
0.968750000000001
40
0.968750000000001
40
1
40
1
40
1
40
1
41
1
10
154.024005926195
20
12.8985
30
0
41
1
10
154.089436384603
20
12.8985
30
0
41
1
10
154.15486684301
20
12.8769743344799
30
0
41
1
10
154.285727759825
20
12.7859117210057
30
0
41
1
10
154.351158218233
20
12.7163590508991
30
0
41
1
10
154.482019135048
20
12.5253395079954
30
0
41
1
10
154.547449593455
20
12.4038578163438
30
0
41
1
10
154.67831051027
20
12.1066299933345
30
0
41
1
10
154.743740968678
20
11.9308723178205
30
0
41
1
10
154.874601885493
20
11.5246999071966
30
0
41
1
10
154.940032343901
20
11.2942792449962
30
0
41
1
10
155.070893260716
20
10.7806167484067
30
0
41
1
10
155.136323719123
20
10.4973763200342
30
0
41
1
10
155.267184635938
20
9.88221227406981
30
0
41
1
10
155.332615094346
20
9.55029793406834
30
0
41
1
10
155.463476011161
20
8.84406662823133
30
0
41
1
10
155.528906469568
20
8.46976588704996
30
0
41
1
10
155.659767386383
20
7.68679734368138
30
0
41
1
10
155.725197844791
20
7.27815045370886
30
0
41
1
10
155.856058761606
20
6.43571322322191
30
0
41
1
10
155.921489220014
20
6.00194541550687
30
0
41
1
10
156.052350136828
20
5.11901394139747
30
0
41
1
10
156.117780595236
20
4.66987129807811
30
0
41
1
10
156.248641512051
20
3.76579648577771
30
0
41
1
10
156.314071970459
20
3.31088133224355
30
0
41
1
10
156.444932887274
20
2.40414711420868
30
0
41
1
10
156.510363345681
20
1.95233962032023
30
0
41
1
10
156.641224262496
20
1.05955231184345
30
0
41
1
10
156.706654720903
20
0.618578324047405
30
0
41
1
10
156.788442793913
20
0.0780759121715278
30
0
41
1
10
156.804800408515
20
-0.0291492160797873
30
0
41
1
10
156.837515637719
20
-0.245025914249027
30
0
41
1
10
156.886588481524
20
-0.570455527512223
30
0
41
1
10
156.93566132533
20
-0.900338937217441
30
0
41
1
10
157.033807012941
20
-1.56487316519019
30
0
41
1
10
157.099237471349
20
-2.01429507131232
30
0
41
1
10
157.230098388164
20
-2.91861355192236
30
0
41
1
10
157.295528846571
20
-3.37350022524012
30
0
41
1
10
157.426389763387
20
-4.28016909322133
30
0
41
1
10
157.491820221794
20
-4.73193574411636
30
0
41
1
10
157.622681138609
20
-5.62292097283384
30
0
41
1
10
157.688111597017
20
-6.06211946681753
30
0
41
1
10
157.818972513832
20
-6.91820021728213
30
0
41
1
10
157.884402972239
20
-7.33506007108815
30
0
41
1
10
158.015263889054
20
-8.13701777468222
30
0
41
1
10
158.080694347462
20
-8.52209391392975
30
0
41
1
10
158.211555264277
20
-9.25203476419043
30
0
41
1
10
158.276985722684
20
-9.59688162123771
30
0
41
1
10
158.407846639499
20
-10.239516408925
30
0
41
1
10
158.473277097907
20
-10.5372929023624
30
0
41
1
10
158.604138014722
20
-11.0809898086719
30
0
41
1
10
158.669568473129
20
-11.326906542498
30
0
41
1
10
158.800429389944
20
-11.7643677258645
30
0
41
1
10
158.865859848352
20
-11.9559161245037
30
0
41
1
10
158.996720765167
20
-12.284399438663
30
0
41
1
10
159.062151223574
20
-12.4213445056044
30
0
41
1
10
159.193012140389
20
-12.6424368665796
30
0
41
1
10
159.258442598797
20
-12.7265982889433
30
0
41
1
10
159.389303515612
20
-12.8456226406458
30
0
41
1
10
159.45473397402
20
-12.8805012565008
30
0
41
1
10
159.536522047029
20
-12.8962418940317
30
0
41
1
10
159.552879661631
20
-12.897999475042
30
0
41
1
10
159.585594890835
20
-12.8988152970396
30
0
41
1
10
159.601952505436
20
-12.8978826445494
30
0
41
1
10
159.651025349242
20
-12.8909546506612
30
0
41
1
10
159.683740578446
20
-12.8808210982657
30
0
41
1
10
159.781886266057
20
-12.8329381550123
30
0
41
1
10
159.847316724465
20
-12.7776678676932
30
0
41
1
10
159.97817764128
20
-12.6161974557795
30
0
41
1
10
160.043608099687
20
-12.5099820212951
30
0
41
1
10
160.174469016502
20
-12.243778536066
30
0
41
1
10
160.23989947491
20
-12.0837777464853
30
0
41
1
10
160.305329933317
20
-11.8963950642618
30
0
0
SPLINE
5
100
100
AcDbEntity
8
1
62
256
6
ByLayer
370
13
48
1
60
0
100
AcDbSpline
70
4
71
3
72
74
73
70
40
0
40
0
40
0
40
0
40
0.0312500000000003
40
0.0312500000000003
40
0.0625000000000007
40
0.0625000000000007
40
0.093750000000001
40
0.093750000000001
40
0.125000000000001
40
0.125000000000001
40
0.156250000000002
40
0.156250000000002
40
0.187500000000002
40
0.187500000000002
40
0.218750000000002
40
0.218750000000002
40
0.250000000000003
40
0.250000000000003
40
0.281250000000003
40
0.281250000000003
40
0.312500000000004
40
0.312500000000004
40
0.343750000000004
40
0.343750000000004
40
0.375000000000004
40
0.375000000000004
40
0.406250000000005
40
0.406250000000005
40
0.437500000000005
40
0.437500000000005
40
0.468750000000006
40
0.468750000000006
40
0.476562500000006
40
0.476562500000006
40
0.484375000000006
40
0.484375000000006
40
0.500000000000005
40
0.500000000000005
40
0.531250000000005
40
0.531250000000005
40
0.562500000000005
40
0.562500000000005
40
0.593750000000004
40
0.593750000000004
40
0.625000000000004
40
0.625000000000004
40
0.656250000000004
40
0.656250000000004
40
0.687500000000003
40
0.687500000000003
40
0.718750000000003
40
0.718750000000003
40
0.750000000000003
40
0.750000000000003
40
0.781250000000002
40
0.781250000000002
40
0.812500000000002
40
0.812500000000002
40
0.843750000000002
40
0.843750000000002
40
0.875000000000001
40
0.875000000000001
40
0.906250000000001
40
0.906250000000001
40
0.937500000000001
40
0.937500000000001
40
0.96875
40
0.96875
40
1
40
1
40
1
40
1
41
1
10
149.2
20
-12.8007307922842
30
0
41
1
10
149.255380458786
20
-12.7538791837432
30
0
41
1
10
149.310760917572
20
-12.6895101699684
30
0
41
1
10
149.421521835145
20
-12.5234914227378
30
0
41
1
10
149.476902293931
20
-12.4218352830865
30
0
41
1
10
149.587663211503
20
-12.1797913396093
30
0
41
1
10
149.643043670289
20
-12.0393983089081
30
0
41
1
10
149.753804587861
20
-11.7194157543183
30
0
41
1
10
149.809185046648
20
-11.5398229281296
30
0
41
1
10
149.91994596422
20
-11.1420928543116
30
0
41
1
10
149.975326423006
20
-10.9239548384975
30
0
41
1
10
150.086087340578
20
-10.4509665943783
30
0
41
1
10
150.141467799364
20
-10.1961184723617
30
0
41
1
10
150.252228716937
20
-9.65270329926207
30
0
41
1
10
150.307609175723
20
-9.36414120385143
30
0
41
1
10
150.418370093295
20
-8.75734603028477
30
0
41
1
10
150.473750552081
20
-8.43912033961476
30
0
41
1
10
150.584511469653
20
-7.77791343778537
30
0
41
1
10
150.63989192844
20
-7.43494129249871
30
0
41
1
10
150.750652846012
20
-6.72977444356479
30
0
41
1
10
150.806033304798
20
-6.36758952448395
30
0
41
1
10
150.91679422237
20
-5.62986096399729
30
0
41
1
10
150.972174681157
20
-5.25432682909764
30
0
41
1
10
151.082935598729
20
-4.49580133426534
30
0
41
1
10
151.138316057515
20
-4.11281833364026
30
0
41
1
10
151.249076975087
20
-3.34506307139429
30
0
41
1
10
151.304457433873
20
-2.96029740134364
30
0
41
1
10
151.415218351446
20
-2.19418481588141
30
0
41
1
10
151.470598810232
20
-1.81284240783535
30
0
41
1
10
151.581359727804
20
-1.0581569837851
30
0
41
1
10
151.63674018659
20
-0.684816368119101
30
0
41
1
10
151.705965760073
20
-0.225546348190932
30
0
41
1
10
151.719810874769
20
-0.134060773801906
30
0
41
1
10
151.747501104162
20
0.0481209264547147
30
0
41
1
10
151.761346218859
20
0.139171929458257
30
0
41
1
10
151.802881562949
20
0.414030522450304
30
0
41
1
10
151.830571792342
20
0.598778557536463
30
0
41
1
10
151.913642480521
20
1.15687561296537
30
0
41
1
10
151.969022939307
20
1.53410046928471
30
0
41
1
10
152.079783856879
20
2.29471075684745
30
0
41
1
10
152.135164315665
20
2.6780929140088
30
0
41
1
10
152.245925233238
20
3.44616077979438
30
0
41
1
10
152.301305692024
20
3.8308410841085
30
0
41
1
10
152.412066609596
20
4.59608338695247
30
0
41
1
10
152.467447068382
20
4.97663799253709
30
0
41
1
10
152.578207985954
20
5.72783501037662
30
0
41
1
10
152.633588444741
20
6.09846848793708
30
0
41
1
10
152.744349362313
20
6.82390429889415
30
0
41
1
10
152.799729821099
20
7.17869689191502
30
0
41
1
10
152.910490738671
20
7.86669017740667
30
0
41
1
10
152.965871197457
20
8.19988126472862
30
0
41
1
10
153.07663211503
20
8.83936297520614
30
0
41
1
10
153.132012573816
20
9.14564513093691
30
0
41
1
10
153.242773491388
20
9.72672759062053
30
0
41
1
10
153.298153950174
20
10.0015214569601
30
0
41
1
10
153.408914867747
20
10.5159999973394
30
0
41
1
10
153.464295326533
20
10.7556808876311
30
0
41
1
10
153.575056244105
20
11.1974156210127
30
0
41
1
10
153.630436702891
20
11.399468588452
30
0
41
1
10
153.741197620464
20
11.7646096117291
30
0
41
1
10
153.79657807925
20
11.9276995632587
30
0
41
1
10
153.907338996822
20
12.2147404890359
30
0
41
1
10
153.962719455608
20
12.3386956618154
30
0
41
1
10
154.07348037318
20
12.5483632530086
30
0
41
1
10
154.128860831966
20
12.634081488971
30
0
41
1
10
154.239621749539
20
12.7690886662413
30
0
41
1
10
154.295002208325
20
12.8183842829394
30
0
41
1
10
154.405763125897
20
12.8830865400456
30
0
41
1
10
154.461143584683
20
12.8985
30
0
41
1
10
154.516524043469
20
12.8985
30
0
0
SPLINE
5
101
100
AcDbEntity
8
1
62
256
6
ByLayer
370
13
48
1
60
0
100
AcDbSpline
70
4
71
3
72
78
73
74
40
0
40
0
40
0
40
0
40
0.0312500000000001
40
0.0312500000000001
40
0.0625000000000002
40
0.0625000000000002
40
0.0937500000000003
40
0.0937500000000003
40
0.125
40
0.125
40
0.156250000000001
40
0.156250000000001
40
0.187500000000001
40
0.187500000000001
40
0.218750000000001
40
0.218750000000001
40
0.250000000000001
40
0.250000000000001
40
0.281250000000001
40
0.281250000000001
40
0.312500000000001
40
0.312500000000001
40
0.343750000000001
40
0.343750000000001
40
0.375000000000001
40
0.375000000000001
40
0.406250000000002
40
0.406250000000002
40
0.414062500000002
40
0.414062500000002
40
0.421875000000001
40
0.421875000000001
40
0.437500000000002
40
0.437500000000002
40
0.468750000000002
40
0.468750000000002
40
0.500000000000002
40
0.500000000000002
40
0.531250000000002
40
0.531250000000002
40
0.562500000000002
40
0.562500000000002
40
0.593750000000003
40
0.593750000000003
40
0.625000000000003
40
0.625000000000003
40
0.656250000000003
40
0.656250000000003
40
0.687500000000003
40
0.687500000000003
40
0.718750000000003
40
0.718750000000003
40
0.750000000000003
40
0.750000000000003
40
0.781250000000003
40
0.781250000000003
40
0.812500000000004
40
0.812500000000004
40
0.820312500000004
40
0.820312500000004
40
0.828125000000004
40
0.828125000000004
40
0.843750000000003
40
0.843750000000003
40
0.875000000000003
40
0.875000000000003
40
0.906250000000002
40
0.906250000000002
40
0.937500000000001
40
0.937500000000001
40
0.968750000000001
40
0.968750000000001
40
1
40
1
40
1
40
1
41
1
10
153.541605389102
20
12.8985
30
0
41
1
10
153.612060853105
20
12.8985
30
0
41
1
10
153.682516317107
20
12.8735340474706
30
0
41
1
10
153.823427245111
20
12.7675211819481
30
0
41
1
10
153.893882709114
20
12.6864515202459
30
0
41
1
10
154.034793637118
20
12.4635486649953
30
0
41
1
10
154.10524910112
20
12.3216945422588
30
0
41
1
10
154.246160029125
20
11.9747183249261
30
0
41
1
10
154.316615493127
20
11.7695811347876
30
0
41
1
10
154.457526421131
20
11.2962687758486
30
0
41
1
10
154.527981885134
20
11.0280881049129
30
0
41
1
10
154.668892813138
20
10.4319759949287
30
0
41
1
10
154.73934827714
20
10.1040509872162
30
0
41
1
10
154.880259205145
20
9.39478785393717
30
0
41
1
10
154.950714669147
20
9.01346807082393
30
0
41
1
10
155.091625597152
20
8.20642918819112
30
0
41
1
10
155.162081061154
20
7.78073769807858
30
0
41
1
10
155.302991989158
20
6.89594338621126
30
0
41
1
10
155.373447453161
20
6.43687280081596
30
0
41
1
10
155.514358381165
20
5.4973653397314
30
0
41
1
10
155.584813845167
20
5.01695998814054
30
0
41
1
10
155.725724773172
20
4.04690794280486
30
0
41
1
10
155.796180237174
20
3.55728745624504
30
0
41
1
10
155.937091165179
20
2.58012737925662
30
0
41
1
10
156.007546629181
20
2.09260582594032
30
0
41
1
10
156.148457557185
20
1.12949027954744
30
0
41
1
10
156.218913021187
20
0.653905362045265
30
0
41
1
10
156.30698235119
20
0.071855918760491
30
0
41
1
10
156.324596217191
20
-0.0435687846305939
30
0
41
1
10
156.359823949192
20
-0.276187341807997
30
0
41
1
10
156.377437815193
20
-0.393117738556498
30
0
41
1
10
156.430279413194
20
-0.745604598686043
30
0
41
1
10
156.465507145195
20
-0.982860609122866
30
0
41
1
10
156.571190341199
20
-1.6999403259569
30
0
41
1
10
156.641645805201
20
-2.18513176901575
30
0
41
1
10
156.782556733205
20
-3.16045614378783
30
0
41
1
10
156.853012197208
20
-3.65057346526533
30
0
41
1
10
156.993923125212
20
-4.62478764668981
30
0
41
1
10
157.064378589214
20
-5.10886031325606
30
0
41
1
10
157.205289517219
20
-6.05900989277382
30
0
41
1
10
157.275744981221
20
-6.52505632494513
30
0
41
1
10
157.416655909226
20
-7.42699594571408
30
0
41
1
10
157.487111373228
20
-7.86285657033332
30
0
41
1
10
157.628022301232
20
-8.69304853255738
30
0
41
1
10
157.698477765234
20
-9.08735049627481
30
0
41
1
10
157.839388693239
20
-9.82478057784726
30
0
41
1
10
157.909844157241
20
-10.1678874856277
30
0
41
1
10
158.050755085246
20
-10.7957914885432
30
0
41
1
10
158.121210549248
20
-11.0805788181999
30
0
41
1
10
158.262121477252
20
-11.5876915211243
30
0
41
1
10
158.332576941255
20
-11.810019315583
30
0
41
1
10
158.473487869259
20
-12.1911551112482
30
0
41
1
10
158.543943333261
20
-12.3499759472534
30
0
41
1
10
158.684854261266
20
-12.6058964450347
30
0
41
1
10
158.755309725268
20
-12.7030158644398
30
0
41
1
10
158.896220653273
20
-12.8396850348543
30
0
41
1
10
158.966676117275
20
-12.8792574123314
30
0
41
1
10
159.054745447278
20
-12.8963998731702
30
0
41
1
10
159.072359313278
20
-12.8982154106059
30
0
41
1
10
159.107587045279
20
-12.8987227328052
30
0
41
1
10
159.12520091128
20
-12.8974216726305
30
0
41
1
10
159.178042509282
20
-12.8887060795394
30
0
41
1
10
159.213270241283
20
-12.876474278451
30
0
41
1
10
159.318953437286
20
-12.8193549058211
30
0
41
1
10
159.389408901288
20
-12.7539890719319
30
0
41
1
10
159.530319829293
20
-12.5635718036895
30
0
41
1
10
159.600775293295
20
-12.4384985674309
30
0
41
1
10
159.741686221299
20
-12.1255114394569
30
0
41
1
10
159.812141685302
20
-11.9375804731459
30
0
41
1
10
159.953052613306
20
-11.4983250191928
30
0
41
1
10
160.023508077308
20
-11.2469921251787
30
0
41
1
10
160.164419005313
20
-10.6833792014476
30
0
41
1
10
160.234874469315
20
-10.371102268926
30
0
41
1
10
160.305329933317
20
-10.0311190895111
30
0
0
SPLINE
5
102
100
AcDbEntity
8
1
62
256
6
ByLayer
370
13
48
1
60
0
100
AcDbSpline
70
4
71
3
72
8
73
4
40
0
40
0
40
0
40
0
40
1
40
1
40
1
40
1
41
1
10
160.305329933317
20
-12.8895421428887
30
0
41
1
10
161.870219955545
20
-8.59227596151686
30
0
41
1
10
163.435109977772
20
-4.29571456930901
30
0
41
1
10
165
20
5.68E-14
30
0
0
SPLINE
5
103
100
AcDbEntity
8
1
62
256
6
ByLayer
370
13
48
1
60
0
100
AcDbSpline
70
4
71
3
72
8
73
4
40
0
40
0
40
0
40
0
40
1
40
1
40
1
40
1
41
1
10
160.305329933317
20
0.750965083733064
30
0
41
1
10
161.870219955545
20
0.520793883985959
30
0
41
1
10
163.435109977772
20
0.270469356858257
30
0
41
1
10
165
20
0
30
0
0
SPLINE
5
104
100
AcDbEntity
8
1
62
256
6
ByLayer
370
13
48
1
60
0
100
AcDbSpline
70
4
71
3
72
8
73
4
40
0
40
0
40
0
40
0
40
1
40
1
40
1
40
1
41
1
10
160.305329933317
20
-11.1643967527002
30
0
41
1
10
161.870219955545
20
-7.45303986714123
30
0
41
1
10
163.435109977772
20
-3.73153323543568
30
0
41
1
10
165
20
2.84E-14
30
0
0
SPLINE
5
105
100
AcDbEntity
8
1
62
256
6
ByLayer
370
13
48
1
60
0
100
AcDbSpline
70
4
71
3
72
8
73
4
40
0
40
0
40
0
40
0
40
1
40
1
40
1
40
1
41
1
10
160.305329933318
20
-1.4149789999467
30
0
41
1
10
161.870219955545
20
-0.9633822448491
30
0
41
1
10
163.435109977772
20
-0.491717306840002
30
0
41
1
10
165
20
-5.68E-14
30
0
0
SPLINE
5
106
100
AcDbEntity
8
1
62
256
6
ByLayer
370
13
48
1
60
0
100
AcDbSpline
70
4
71
3
72
8
73
4
40
0
40
0
40
0
40
0
40
1
40
1
40
1
40
1
41
1
10
160.305329933318
20
10.9480771284299
30
0
41
1
10
161.870219955545
20
7.28804570667884
30
0
41
1
10
163.435109977772
20
3.63864648734244
30
0
41
1
10
165
20
4.832E-13
30
0
0
SPLINE
5
107
100
AcDbEntity
8
1
62
256
6
ByLayer
370
13
48
1
60
0
100
AcDbSpline
70
4
71
3
72
8
73
4
40
0
40
0
40
0
40
0
40
1
40
1
40
1
40
1
41
1
10
160.305329933317
20
11.9351632656173
30
0
41
1
10
161.870219955545
20
7.96442959532854
30
0
41
1
10
163.435109977772
20
3.9859979703995
30
0
41
1
10
165
20
-5.68E-14
30
0
0
SPLINE
5
108
100
AcDbEntity
8
1
62
256
6
ByLayer
370
13
48
1
60
0
100
AcDbSpline
70
4
71
3
72
8
73
4
40
0
40
0
40
0
40
0
40
1
40
1
40
1
40
1
41
1
10
160.305329933317
20
-12.5175873557604
30
0
41
1
10
161.870219955545
20
-8.34992736149439
30
0
41
1
10
163.435109977772
20
-4.17735224398754
30
0
41
1
10
165
20
5.68E-14
30
0
0
SPLINE
5
109
100
AcDbEntity
8
1
62
256
6
ByLayer
370
13
48
1
60
0
100
AcDbSpline
70
4
71
3
72
8
73
4
40
0
40
0
40
0
40
0
40
1
40
1
40
1
40
1
41
1
10
160.305329933318
20
0.996651248997949
30
0
41
1
10
161.870219955545
20
0.644309778359741
30
0
41
1
10
163.435109977772
20
0.312089108270271
30
0
41
1
10
165
20
2.84E-14
30
0
0
SPLINE
5
10A
100
AcDbEntity
8
1
62
256
6
ByLayer
370
13
48
1
60
0
100
AcDbSpline
70
4
71
3
72
8
73
4
40
0
40
0
40
0
40
0
40
1
40
1
40
1
40
1
41
1
10
160.305329933317
20
10.1114404020032
30
0
41
1
10
161.870219955545
20
6.75349210381333
30
0
41
1
10
163.435109977772
20
3.38297478127893
30
0
41
1
10
165
20
-2.84E-14
30
0
0
SPLINE
5
10B
100
AcDbEntity
8
1
62
256
6
ByLayer
370
13
48
1
60
0
100
AcDbSpline
70
4
71
3
72
8
73
4
40
0
40
0
40
0
40
0
40
1
40
1
40
1
40
1
41
1
10
160.305329933317
20
12.3401894405372
30
0
41
1
10
161.870219955545
20
8.23266724710444
30
0
41
1
10
163.435109977772
20
4.11922541595135
30
0
41
1
10
165
20
2.84E-14
30
0
0
SPLINE
5
10C
100
AcDbEntity
8
1
62
256
6
ByLayer
370
13
48
1
60
0
100
AcDbSpline
70
4
71
3
72
8
73
4
40
0
40
0
40
0
40
0
40
1
40
1
40
1
40
1
41
1
10
160.305329933317
20
-1.65947569386532
30
0
41
1
10
161.870219955545
20
-1.08630014618157
30
0
41
1
10
163.435109977772
20
-0.533135559312512
30
0
41
1
10
165
20
0
30
0
0
SPLINE
5
10D
100
AcDbEntity
8
1
62
256
6
ByLayer
370
13
48
1
60
0
100
AcDbSpline
70
4
71
3
72
8
73
4
40
0
40
0
40
0
40
0
40
1
40
1
40
1
40
1
41
1
10
160.305329933317
20
12.63710400413
30
0
41
1
10
161.870219955545
20
8.42877902707795
30
0
41
1
10
163.435109977772
20
4.21636459079352
30
0
41
1
10
165
20
0
30
0
0
SPLINE
5
10E
100
AcDbEntity
8
1
62
256
6
ByLayer
370
13
48
1
60
0
100
AcDbSpline
70
4
71
3
72
8
73
4
40
0
40
0
40
0
40
0
40
1
40
1
40
1
40
1
41
1
10
160.305329933317
20
-12.1718394246944
30
0
41
1
10
161.870219955545
20
-8.12123889765988
30
0
41
1
10
163.435109977772
20
-4.06391435389992
30
0
41
1
10
165
20
5.68E-14
30
0
0
SPLINE
5
10F
100
AcDbEntity
8
1
62
256
6
ByLayer
370
13
48
1
60
0
100
AcDbSpline
70
4
71
3
72
8
73
4
40
0
40
0
40
0
40
0
40
1
40
1
40
1
40
1
41
1
10
160.305329933317
20
8.44374027616294
30
0
41
1
10
161.870219955545
20
5.64441882900894
30
0
41
1
10
163.435109977772
20
2.82980766439184
30
0
41
1
10
165
20
-2.84E-14
30
0
0
SPLINE
5
110
100
AcDbEntity
8
1
62
256
6
ByLayer
370
13
48
1
60
0
100
AcDbSpline
70
4
71
3
72
8
73
4
40
0
40
0
40
0
40
0
40
1
40
1
40
1
40
1
41
1
10
160.305329933317
20
1.95160492109156
30
0
41
1
10
161.870219955545
20
1.3210222976621
30
0
41
1
10
163.435109977772
20
0.670480081815072
30
0
41
1
10
165
20
0
30
0
0
SPLINE
5
111
100
AcDbEntity
8
1
62
256
6
ByLayer
370
13
48
1
60
0
100
AcDbSpline
70
4
71
3
72
8
73
4
40
0
40
0
40
0
40
0
40
1
40
1
40
1
40
1
41
1
10
160.305329933317
20
9.31840933351208
30
0
41
1
10
161.870219955545
20
6.22622926482225
30
0
41
1
10
163.435109977772
20
3.1200585396046
30
0
41
1
10
165
20
-2.84E-14
30
0
0
SPLINE
5
112
100
AcDbEntity
8
1
62
256
6
ByLayer
370
13
48
1
60
0
100
AcDbSpline
70
4
71
3
72
8
73
4
40
0
40
0
40
0
40
0
40
1
40
1
40
1
40
1
41
1
10
160.305329933317
20
-12.8780175678886
30
0
41
1
10
161.870219955545
20
-8.58648211395982
30
0
41
1
10
163.435109977772
20
-4.29376228214576
30
0
41
1
10
165
20
5.68E-14
30
0
0
SPLINE
5
113
100
AcDbEntity
8
1
62
256
6
ByLayer
370
13
48
1
60
0
100
AcDbSpline
70
4
71
3
72
8
73
4
40
0
40
0
40
0
40
0
40
1
40
1
40
1
40
1
41
1
10
160.305329933318
20
9.48696989012853
30
0
41
1
10
161.870219955545
20
6.3109711463365
30
0
41
1
10
163.435109977773
20
3.1486130512377
30
0
41
1
10
165
20
-4.832E-13
30
0
0
SPLINE
5
114
100
AcDbEntity
8
1
62
256
6
ByLayer
370
13
48
1
60
0
100
AcDbSpline
70
4
71
3
72
8
73
4
40
0
40
0
40
0
40
0
40
1
40
1
40
1
40
1
41
1
10
160.305329933317
20
7.49509614968838
30
0
41
1
10
161.870219955545
20
5.01315800043218
30
0
41
1
10
163.435109977772
20
2.51476502501544
30
0
41
1
10
165
20
-1.137E-13
30
0
0
SPLINE
5
115
100
AcDbEntity
8
1
62
256
6
ByLayer
370
13
48
1
60
0
100
AcDbSpline
70
4
71
3
72
8
73
4
40
0
40
0
40
0
40
0
40
1
40
1
40
1
40
1
41
1
10
160.305329933318
20
10.2624779661975
30
0
41
1
10
161.870219955545
20
6.82942450238934
30
0
41
1
10
163.435109977772
20
3.40856086126405
30
0
41
1
10
165
20
4.547E-13
30
0
0
SPLINE
5
116
100
AcDbEntity
8
1
62
256
6
ByLayer
370
13
48
1
60
0
100
AcDbSpline
70
4
71
3
72
8
73
4
40
0
40
0
40
0
40
0
40
1
40
1
40
1
40
1
41
1
10
160.305329933318
20
7.69413186622555
30
0
41
1
10
161.870219955545
20
5.11322091815458
30
0
41
1
10
163.435109977772
20
2.54848209262289
30
0
41
1
10
165
20
3.411E-13
30
0
0
SPLINE
5
117
100
AcDbEntity
8
1
62
256
6
ByLayer
370
13
48
1
60
0
100
AcDbSpline
70
4
71
3
72
8
73
4
40
0
40
0
40
0
40
0
40
1
40
1
40
1
40
1
41
1
10
160.305329933317
20
12.8971632475426
30
0
41
1
10
161.870219955545
20
8.59839942303427
30
0
41
1
10
163.435109977772
20
4.29929763078351
30
0
41
1
10
165
20
0
30
0
0
SPLINE
5
118
100
AcDbEntity
8
1
62
256
6
ByLayer
370
13
48
1
60
0
100
AcDbSpline
70
4
71
3
72
8
73
4
40
0
40
0
40
0
40
0
40
1
40
1
40
1
40
1
41
1
10
160.305329933318
20
-3.77713169170519
30
0
41
1
10
161.870219955545
20
-2.53738769029698
30
0
41
1
10
163.435109977773
20
-1.27832984757487
30
0
41
1
10
165
20
1.99E-13
30
0
0
SPLINE
5
119
100
AcDbEntity
8
1
62
256
6
ByLayer
370
13
48
1
60
0
100
AcDbSpline
70
4
71
3
72
8
73
4
40
0
40
0
40
0
40
0
40
1
40
1
40
1
40
1
41
1
10
160.305329933318
20
8.62834707693366
30
0
41
1
10
161.870219955545
20
5.73722777525185
30
0
41
1
10
163.435109977772
20
2.861080443422
30
0
41
1
10
165
20
3.979E-13
30
0
0
SPLINE
5
11A
100
AcDbEntity
8
1
62
256
6
ByLayer
370
13
48
1
60
0
100
AcDbSpline
70
4
71
3
72
8
73
4
40
0
40
0
40
0
40
0
40
1
40
1
40
1
40
1
41
1
10
160.305329933317
20
-11.8201707924441
30
0
41
1
10
161.870219955545
20
-7.87203459273476
30
0
41
1
10
163.435109977772
20
-3.9319342723939
30
0
41
1
10
165
20
5.68E-14
30
0
0
SPLINE
5
11B
100
AcDbEntity
8
1
62
256
6
ByLayer
370
13
48
1
60
0
100
AcDbSpline
70
4
71
3
72
8
73
4
40
0
40
0
40
0
40
0
40
1
40
1
40
1
40
1
41
1
10
160.305329933318
20
6.69250885778226
30
0
41
1
10
161.870219955545
20
4.44441745925496
30
0
41
1
10
163.435109977772
20
2.21355665302181
30
0
41
1
10
165
20
2.842E-13
30
0
0
SPLINE
5
11C
100
AcDbEntity
8
1
62
256
6
ByLayer
370
13
48
1
60
0
100
AcDbSpline
70
4
71
3
72
8
73
4
40
0
40
0
40
0
40
0
40
1
40
1
40
1
40
1
41
1
10
160.305329933317
20
12.8233057068725
30
0
41
1
10
161.870219955545
20
8.55104681247346
30
0
41
1
10
163.435109977772
20
4.27656446482106
30
0
41
1
10
165
20
0
30
0
0
SPLINE
5
11D
100
AcDbEntity
8
1
62
256
6
ByLayer
370
13
48
1
60
0
100
AcDbSpline
70
4
71
3
72
8
73
4
40
0
40
0
40
0
40
0
40
1
40
1
40
1
40
1
41
1
10
160.305329933318
20
-2.60747731692251
30
0
41
1
10
161.870219955545
20
-1.75808620804918
30
0
41
1
10
163.435109977772
20
-0.888917451710228
30
0
41
1
10
165
20
-1.137E-13
30
0
0
SPLINE
5
11E
100
AcDbEntity
8
1
62
256
6
ByLayer
370
13
48
1
60
0
100
AcDbSpline
70
4
71
3
72
8
73
4
40
0
40
0
40
0
40
0
40
1
40
1
40
1
40
1
41
1
10
160.305329933318
20
4.52265374527607
30
0
41
1
10
161.870219955545
20
2.99619924037916
30
0
41
1
10
163.435109977772
20
1.48863144826225
30
0
41
1
10
165
20
1.99E-13
30
0
0
SPLINE
5
11F
100
AcDbEntity
8
1
62
256
6
ByLayer
370
13
48
1
60
0
100
AcDbSpline
70
4
71
3
72
8
73
4
40
0
40
0
40
0
40
0
40
1
40
1
40
1
40
1
41
1
10
160.305329933317
20
5.40970201033394
30
0
41
1
10
161.870219955545
20
3.62479168808812
30
0
41
1
10
163.435109977772
20
1.82153774579837
30
0
41
1
10
165
20
-2.84E-14
30
0
0
SPLINE
5
120
100
AcDbEntity
8
1
62
256
6
ByLayer
370
13
48
1
60
0
100
AcDbSpline
70
4
71
3
72
8
73
4
40
0
40
0
40
0
40
0
40
1
40
1
40
1
40
1
41
1
10
160.305329933318
20
-7.04809527599207
30
0
41
1
10
161.870219955545
20
-4.7156350278982
30
0
41
1
10
163.435109977772
20
-2.36624398393406
30
0
41
1
10
165
20
-3.126E-13
30
0
0
SPLINE
5
121
100
AcDbEntity
8
1
62
256
6
ByLayer
370
13
48
1
60
0
100
AcDbSpline
70
4
71
3
72
8
73
4
40
0
40
0
40
0
40
0
40
1
40
1
40
1
40
1
41
1
10
160.305329933317
20
4.29122200228215
30
0
41
1
10
161.870219955545
20
2.87984959288653
30
0
41
1
10
163.435109977772
20
1.44942642586346
30
0
41
1
10
165
20
-2.84E-14
30
0
0
SPLINE
5
122
100
AcDbEntity
8
1
62
256
6
ByLayer
370
13
48
1
60
0
100
AcDbSpline
70
4
71
3
72
8
73
4
40
0
40
0
40
0
40
0
40
1
40
1
40
1
40
1
41
1
10
160.305329933317
20
-9.92563299582736
30
0
41
1
10
161.870219955545
20
-6.60419819524856
30
0
41
1
10
163.435109977772
20
-3.295617450686
30
0
41
1
10
165
20
2.84E-14
30
0
0
SPLINE
5
123
100
AcDbEntity
8
1
62
256
6
ByLayer
370
13
48
1
60
0
100
AcDbSpline
70
4
71
3
72
8
73
4
40
0
40
0
40
0
40
0
40
1
40
1
40
1
40
1
41
1
10
160.305329933318
20
-4.91369485704146
30
0
41
1
10
161.870219955545
20
-3.29445928109303
30
0
41
1
10
163.435109977772
20
-1.65654287731235
30
0
41
1
10
165
20
-2.274E-13
30
0
0
SPLINE
5
124
100
AcDbEntity
8
1
62
256
6
ByLayer
370
13
48
1
60
0
100
AcDbSpline
70
4
71
3
72
8
73
4
40
0
40
0
40
0
40
0
40
1
40
1
40
1
40
1
41
1
10
160.305329933318
20
12.4096030317397
30
0
41
1
10
161.870219955545
20
8.2675641318755
30
0
41
1
10
163.435109977772
20
4.13098422380858
30
0
41
1
10
165
20
5.684E-13
30
0
0
SPLINE
5
125
100
AcDbEntity
8
1
62
256
6
ByLayer
370
13
48
1
60
0
100
AcDbSpline
70
4
71
3
72
8
73
4
40
0
40
0
40
0
40
0
40
1
40
1
40
1
40
1
41
1
10
160.305329933318
20
5.63225320679135
30
0
41
1
10
161.870219955545
20
3.7366767429294
30
0
41
1
10
163.435109977772
20
1.85923838499818
30
0
41
1
10
165
20
2.558E-13
30
0
0
SPLINE
5
126
100
AcDbEntity
8
1
62
256
6
ByLayer
370
13
48
1
60
0
100
AcDbSpline
70
4
71
3
72
8
73
4
40
0
40
0
40
0
40
0
40
1
40
1
40
1
40
1
41
1
10
160.305329933317
20
-6.22401980218689
30
0
41
1
10
161.870219955545
20
-4.13166723315533
30
0
41
1
10
163.435109977772
20
-2.05697116791964
30
0
41
1
10
165
20
2.84E-14
30
0
0
SPLINE
5
127
100
AcDbEntity
8
1
62
256
6
ByLayer
370
13
48
1
60
0
100
AcDbSpline
70
4
71
3
72
8
73
4
40
0
40
0
40
0
40
0
40
1
40
1
40
1
40
1
41
1
10
160.305329933317
20
-11.2856817147831
30
0
41
1
10
161.870219955545
20
-7.51401448713906
30
0
41
1
10
163.435109977772
20
-3.7520791622544
30
0
41
1
10
165
20
2.84E-14
30
0
0
SPLINE
5
128
100
AcDbEntity
8
1
62
256
6
ByLayer
370
13
48
1
60
0
100
AcDbSpline
70
4
71
3
72
8
73
4
40
0
40
0
40
0
40
0
40
1
40
1
40
1
40
1
41
1
10
160.305329933317
20
-9.76656872601077
30
0
41
1
10
161.870219955545
20
-6.5242304627223
30
0
41
1
10
163.435109977772
20
-3.26867162994284
30
0
41
1
10
165
20
2.84E-14
30
0
0
SPLINE
5
129
100
AcDbEntity
8
1
62
256
6
ByLayer
370
13
48
1
60
0
100
AcDbSpline
70
4
71
3
72
8
73
4
40
0
40
0
40
0
40
0
40
1
40
1
40
1
40
1
41
1
10
160.305329933318
20
-6.00720945564993
30
0
41
1
10
161.870219955545
20
-4.02266832459586
30
0
41
1
10
163.435109977773
20
-2.02024304073043
30
0
41
1
10
165
20
3.126E-13
30
0
0
SPLINE
5
12A
100
AcDbEntity
8
1
62
256
6
ByLayer
370
13
48
1
60
0
100
AcDbSpline
70
4
71
3
72
8
73
4
40
0
40
0
40
0
40
0
40
1
40
1
40
1
40
1
41
1
10
160.305329933317
20
-7.25303898801766
30
0
41
1
10
161.870219955545
20
-4.81866812241461
30
0
41
1
10
163.435109977772
20
-2.40096187836136
30
0
41
1
10
165
20
2.84E-14
30
0
0
SPLINE
5
12B
100
AcDbEntity
8
1
62
256
6
ByLayer
370
13
48
1
60
0
100
AcDbSpline
70
4
71
3
72
8
73
4
40
0
40
0
40
0
40
0
40
1
40
1
40
1
40
1
41
1
10
160.305329933317
20
6.48078796467564
30
0
41
1
10
161.870219955545
20
4.33797721488267
30
0
41
1
10
163.435109977772
20
2.17769068991245
30
0
41
1
10
165
20
-2.84E-14
30
0
0
SPLINE
5
12C
100
AcDbEntity
8
1
62
256
6
ByLayer
370
13
48
1
60
0
100
AcDbSpline
70
4
71
3
72
8
73
4
40
0
40
0
40
0
40
0
40
1
40
1
40
1
40
1
41
1
10
160.305329933317
20
-0.456253910748103
30
0
41
1
10
161.870219955545
20
-0.283997171636486
30
0
41
1
10
163.435109977772
20
-0.131910932854879
30
0
41
1
10
165
20
0
30
0
0
SPLINE
5
12D
100
AcDbEntity
8
1
62
256
6
ByLayer
370
13
48
1
60
0
100
AcDbSpline
70
4
71
3
72
8
73
4
40
0
40
0
40
0
40
0
40
1
40
1
40
1
40
1
41
1
10
160.305329933317
20
-10.6523195006124
30
0
41
1
10
161.870219955545
20
-7.0901645806594
30
0
41
1
10
163.435109977772
20
-3.5393523262785
30
0
41
1
10
165
20
2.84E-14
30
0
0
SPLINE
5
12E
100
AcDbEntity
8
1
62
256
6
ByLayer
370
13
48
1
60
0
100
AcDbSpline
70
4
71
3
72
8
73
4
40
0
40
0
40
0
40
0
40
1
40
1
40
1
40
1
41
1
10
160.305329933317
20
-2.8481589164453
30
0
41
1
10
161.870219955545
20
-1.87908611454498
30
0
41
1
10
163.435109977772
20
-0.929689419194716
30
0
41
1
10
165
20
0
30
0
0
SPLINE
5
12F
100
AcDbEntity
8
1
62
256
6
ByLayer
370
13
48
1
60
0
100
AcDbSpline
70
4
71
3
72
8
73
4
40
0
40
0
40
0
40
0
40
1
40
1
40
1
40
1
41
1
10
160.305329933318
20
12.8475187063441
30
0
41
1
10
161.870219955545
20
8.56321961952554
30
0
41
1
10
163.435109977773
20
4.28066619768717
30
0
41
1
10
165
20
-6.821E-13
30
0
0
SPLINE
5
130
100
AcDbEntity
8
1
62
256
6
ByLayer
370
13
48
1
60
0
100
AcDbSpline
70
4
71
3
72
8
73
4
40
0
40
0
40
0
40
0
40
1
40
1
40
1
40
1
41
1
10
160.305329933317
20
-12.251104108932
30
0
41
1
10
161.870219955545
20
-8.16108830617378
30
0
41
1
10
163.435109977772
20
-4.07734195756723
30
0
41
1
10
165
20
5.68E-14
30
0
0
SPLINE
5
131
100
AcDbEntity
8
1
62
256
6
ByLayer
370
13
48
1
60
0
100
AcDbSpline
70
4
71
3
72
8
73
4
40
0
40
0
40
0
40
0
40
1
40
1
40
1
40
1
41
1
10
160.305329933318
20
12.684123265841
30
0
41
1
10
161.870219955545
20
8.45241742021577
30
0
41
1
10
163.435109977772
20
4.22432975229111
30
0
41
1
10
165
20
5.684E-13
30
0
0
SPLINE
5
132
100
AcDbEntity
8
1
62
256
6
ByLayer
370
13
48
1
60
0
100
AcDbSpline
70
4
71
3
72
8
73
4
40
0
40
0
40
0
40
0
40
1
40
1
40
1
40
1
41
1
10
160.305329933317
20
-11.7194547860349
30
0
41
1
10
161.870219955545
20
-7.82140077867379
30
0
41
1
10
163.435109977772
20
-3.9148727697837
30
0
41
1
10
165
20
5.68E-14
30
0
0
SPLINE
5
133
100
AcDbEntity
8
1
62
256
6
ByLayer
370
13
48
1
60
0
100
AcDbSpline
70
4
71
3
72
8
73
4
40
0
40
0
40
0
40
0
40
1
40
1
40
1
40
1
41
1
10
160.305329933318
20
3.37343160323121
30
0
41
1
10
161.870219955545
20
2.22947222769815
30
0
41
1
10
163.435109977772
20
1.10498270651036
30
0
41
1
10
165
20
1.421E-13
30
0
0
SPLINE
5
134
100
AcDbEntity
8
1
62
256
6
ByLayer
370
13
48
1
60
0
100
AcDbSpline
70
4
71
3
72
8
73
4
40
0
40
0
40
0
40
0
40
1
40
1
40
1
40
1
41
1
10
160.305329933317
20
11.4255738878132
30
0
41
1
10
161.870219955545
20
7.62641608468098
30
0
41
1
10
163.435109977772
20
3.81784945127723
30
0
41
1
10
165
20
2.84E-14
30
0
0
SPLINE
5
135
100
AcDbEntity
8
1
62
256
6
ByLayer
370
13
48
1
60
0
100
AcDbSpline
70
4
71
3
72
8
73
4
40
0
40
0
40
0
40
0
40
1
40
1
40
1
40
1
41
1
10
160.305329933318
20
2.19465504242442
30
0
41
1
10
161.870219955545
20
1.44321295126164
30
0
41
1
10
163.435109977772
20
0.71165328185927
30
0
41
1
10
165
20
8.53E-14
30
0
0
SPLINE
5
136
100
AcDbEntity
8
1
62
256
6
ByLayer
370
13
48
1
60
0
100
AcDbSpline
70
4
71
3
72
8
73
4
40
0
40
0
40
0
40
0
40
1
40
1
40
1
40
1
41
1
10
160.305329933317
20
-12.753669503697
30
0
41
1
10
161.870219955545
20
-8.5054626451556
30
0
41
1
10
163.435109977772
20
-4.25419261793854
30
0
41
1
10
165
20
5.68E-14
30
0
0
SPLINE
5
137
100
AcDbEntity
8
1
62
256
6
ByLayer
370
13
48
1
60
0
100
AcDbSpline
70
4
71
3
72
8
73
4
40
0
40
0
40
0
40
0
40
1
40
1
40
1
40
1
41
1
10
160.305329933317
20
-8.02723318389394
30
0
41
1
10
161.870219955545
20
-5.36728835398259
30
0
41
1
10
163.435109977772
20
-2.69151441476299
30
0
41
1
10
165
20
2.84E-14
30
0
0
SPLINE
5
138
100
AcDbEntity
8
1
62
256
6
ByLayer
370
13
48
1
60
0
100
AcDbSpline
70
4
71
3
72
8
73
4
40
0
40
0
40
0
40
0
40
1
40
1
40
1
40
1
41
1
10
160.305329933317
20
-5.14047237649484
30
0
41
1
10
161.870219955545
20
-3.40846907122079
30
0
41
1
10
163.435109977772
20
-1.69495946448689
30
0
41
1
10
165
20
-1.137E-13
30
0
0
SPLINE
5
139
100
AcDbEntity
8
1
62
256
6
ByLayer
370
13
48
1
60
0
100
AcDbSpline
70
4
71
3
72
8
73
4
40
0
40
0
40
0
40
0
40
1
40
1
40
1
40
1
41
1
10
160.305329933317
20
-8.93604501469659
30
0
41
1
10
161.870219955545
20
-5.97191920969044
30
0
41
1
10
163.435109977772
20
-2.99320465975353
30
0
41
1
10
165
20
2.84E-14
30
0
0
SPLINE
5
13A
100
AcDbEntity
8
1
62
256
6
ByLayer
370
13
48
1
60
0
100
AcDbSpline
70
4
71
3
72
8
73
4
40
0
40
0
40
0
40
0
40
1
40
1
40
1
40
1
41
1
10
160.305329933317
20
3.13514687241599
30
0
41
1
10
161.870219955545
20
2.1096773193828
30
0
41
1
10
163.435109977772
20
1.06461677360917
30
0
41
1
10
165
20
0
30
0
0
SPLINE
5
13B
100
AcDbEntity
8
1
62
256
6
ByLayer
370
13
48
1
60
0
100
AcDbSpline
70
4
71
3
72
8
73
4
40
0
40
0
40
0
40
0
40
1
40
1
40
1
40
1
41
1
10
160.305329933317
20
-9.1119886544717
30
0
41
1
10
161.870219955545
20
-6.06037285136279
30
0
41
1
10
163.435109977772
20
-3.02300988115078
30
0
41
1
10
165
20
2.84E-14
30
0
0
SPLINE
5
13C
100
AcDbEntity
8
1
62
256
6
ByLayer
370
13
48
1
60
0
100
AcDbSpline
70
4
71
3
72
8
73
4
40
0
40
0
40
0
40
0
40
1
40
1
40
1
40
1
41
1
10
160.305329933317
20
10.8158857871086
30
0
41
1
10
161.870219955545
20
7.22158802993431
30
0
41
1
10
163.435109977772
20
3.61625299701819
30
0
41
1
10
165
20
8.53E-14
30
0
0
SPLINE
5
13D
100
AcDbEntity
8
1
62
256
6
ByLayer
370
13
48
1
60
0
100
AcDbSpline
70
4
71
3
72
8
73
4
40
0
40
0
40
0
40
0
40
1
40
1
40
1
40
1
41
1
10
160.305329933317
20
-8.21851476263973
30
0
41
1
10
161.870219955545
20
-5.46345296809724
30
0
41
1
10
163.435109977772
20
-2.72391791517381
30
0
41
1
10
165
20
2.84E-14
30
0
0
SPLINE
5
13E
100
AcDbEntity
8
1
62
256
6
ByLayer
370
13
48
1
60
0
100
AcDbSpline
70
4
71
3
72
8
73
4
40
0
40
0
40
0
40
0
40
1
40
1
40
1
40
1
41
1
10
160.305329933318
20
12.0263630582732
30
0
41
1
10
161.870219955545
20
8.01027924235515
30
0
41
1
10
163.435109977772
20
4.00144740645274
30
0
41
1
10
164.999999999999
20
1.7053E-12
30
0
0
SPLINE
5
13F
100
AcDbEntity
8
1
62
256
6
ByLayer
370
13
48
1
60
0
100
AcDbSpline
70
4
71
3
72
8
73
4
40
0
40
0
40
0
40
0
40
1
40
1
40
1
40
1
41
1
10
160.305329933318
20
11.5377608863654
30
0
41
1
10
161.870219955545
20
7.68281680813388
30
0
41
1
10
163.435109977772
20
3.8368541640026
30
0
41
1
10
165
20
5.116E-13
30
0
0
SPLINE
5
140
100
AcDbEntity
8
1
62
256
6
ByLayer
370
13
48
1
60
0
100
AcDbSpline
70
4
71
3
72
8
73
4
40
0
40
0
40
0
40
0
40
1
40
1
40
1
40
1
41
1
10
160.305329933318
20
-0.210084142349245
30
0
41
1
10
161.870219955545
20
-0.16023815134821
30
0
41
1
10
163.435109977772
20
-0.0902092580582519
30
0
41
1
10
164.999999999999
20
-2.84E-14
30
0
0
SPLINE
5
141
100
AcDbEntity
8
1
62
256
6
ByLayer
370
13
48
1
60
0
100
AcDbSpline
70
4
71
3
72
8
73
4
40
0
40
0
40
0
40
0
40
1
40
1
40
1
40
1
41
1
10
160.305329933317
20
-4.01188960071485
30
0
41
1
10
161.870219955545
20
-2.65540952950553
30
0
41
1
10
163.435109977772
20
-1.31809832946919
30
0
41
1
10
165
20
2.84E-14
30
0
0
SPLINE
5
142
100
AcDbEntity
8
1
62
256
6
ByLayer
370
13
48
1
60
0
100
AcDbSpline
70
4
71
3
72
8
73
4
40
0
40
0
40
0
40
0
40
1
40
1
40
1
40
1
41
1
10
160.305329933317
20
-12.7881422626321
30
0
41
1
10
161.870219955545
20
-8.5227934282984
30
0
41
1
10
163.435109977772
20
-4.26003237556517
30
0
41
1
10
165
20
5.68E-14
30
0
0
SPLINE
5
143
100
AcDbEntity
8
1
62
256
6
ByLayer
370
13
48
1
60
0
100
AcDbSpline
70
4
71
3
72
8
73
4
40
0
40
0
40
0
40
0
40
1
40
1
40
1
40
1
41
1
10
160.305329933317
20
-12.5747062849916
30
0
41
1
10
161.870219955545
20
-8.37864324633904
30
0
41
1
10
163.435109977772
20
-4.18702831033406
30
0
41
1
10
165
20
5.68E-14
30
0
0
SPLINE
5
144
100
AcDbEntity
8
1
62
256
6
ByLayer
370
13
48
1
60
0
100
AcDbSpline
70
4
71
3
72
8
73
4
40
0
40
0
40
0
40
0
40
1
40
1
40
1
40
1
41
1
10
160.305329933317
20
-10.5115281526602
30
0
41
1
10
161.870219955545
20
-7.01938334947545
30
0
41
1
10
163.435109977772
20
-3.51550197680422
30
0
41
1
10
165
20
-9.948E-13
30
0
0
LINE
5
7D
100
AcDbEntity
8
80
62
256
6
ByLayer
370
18
48
1
60
0
100
AcDbLine
10
0
20
0
30
0
11
-5
21
0
31
0
39
0
210
0
220
0
230
1
0
LINE
5
7E
100
AcDbEntity
8
4
62
256
6
ByLayer
370
18
48
0.05
60
0
100
AcDbLine
10
-5
20
0
30
0
11
170
21
0
31
0
39
0
210
0
220
0
230
1
0
LINE
5
80
100
AcDbEntity
8
81
62
256
6
ByLayer
370
18
48
1
60
0
100
AcDbLine
10
165
20
0
30
0
11
170
21
0
31
0
39
0
210
0
220
0
230
1
0
LINE
5
81
100
AcDbEntity
8
SK4
62
256
6
ByLayer
370
18
48
0.05
60
0
100
AcDbLine
10
-65
20
0
30
0
11
170
21
0
31
0
39
0
210
0
220
0
230
1
0
LINE
5
83
100
AcDbEntity
8
1
62
256
6
ByLayer
370
18
48
1
60
0
100
AcDbLine
10
40.727029
20
-12.2
30
0
11
98.867888
21
-12.2
31
0
39
0
210
0
220
0
230
1
0
LINE
5
84
100
AcDbEntity
8
1
62
256
6
ByLayer
370
18
48
1
60
0
100
AcDbLine
10
98.867888
20
12.2
30
0
11
40.727029
21
12.2
31
0
39
0
210
0
220
0
230
1
0
LINE
5
85
100
AcDbEntity
8
1
62
256
6
ByLayer
370
18
48
1
60
0
100
AcDbLine
10
165
20
0
30
0
11
160.30533
21
12.8985
31
0
39
0
210
0
220
0
230
1
0
LINE
5
86
100
AcDbEntity
8
1
62
256
6
ByLayer
370
18
48
1
60
0
100
AcDbLine
10
160.30533
20
-12.8985
30
0
11
165
21
0
31
0
39
0
210
0
220
0
230
1
0
LINE
5
87
100
AcDbEntity
8
1
62
256
6
ByLayer
370
18
48
1
60
0
100
AcDbLine
10
3.046755
20
14.755317
30
0
11
0
21
15.875
31
0
39
0
210
0
220
0
230
1
0
LINE
5
88
100
AcDbEntity
8
1
62
256
6
ByLayer
370
18
48
1
60
0
100
AcDbLine
10
0
20
-15.875
30
0
11
3.046755
21
-14.755317
31
0
39
0
210
0
220
0
230
1
0
LINE
5
89
100
AcDbEntity
8
1
62
256
6
ByLayer
370
18
48
1
60
0
100
AcDbLine
10
165
20
0
30
0
11
160.30533
21
12.8985
31
0
39
0
210
0
220
0
230
1
0
LINE
5
8A
100
AcDbEntity
8
1
62
256
6
ByLayer
370
18
48
1
60
0
100
AcDbLine
10
160.30533
20
-12.8985
30
0
11
165
21
0
31
0
39
0
210
0
220
0
230
1
0
LINE
5
8B
100
AcDbEntity
8
1
62
256
6
ByLayer
370
18
48
1
60
0
100
AcDbLine
10
160.30533
20
12.8985
30
0
11
149.2
21
12.8985
31
0
39
0
210
0
220
0
230
1
0
LINE
5
8C
100
AcDbEntity
8
1
62
256
6
ByLayer
370
18
48
1
60
0
100
AcDbLine
10
149.2
20
-12.8985
30
0
11
160.30533
21
-12.8985
31
0
39
0
210
0
220
0
230
1
0
LINE
5
8D
100
AcDbEntity
8
SK1
62
256
6
ByLayer
370
18
48
1
60
0
100
AcDbLine
10
-60
20
-14.875
30
0
11
-59
21
-15.875
31
0
39
0
210
0
220
0
230
1
0
LINE
5
8F
100
AcDbEntity
8
SK1
62
256
6
ByLayer
370
18
48
1
60
0
100
AcDbLine
10
-59
20
15.875
30
0
11
-60
21
14.875
31
0
39
0
210
0
220
0
230
1
0
LINE
5
90
100
AcDbEntity
8
SK1
62
256
6
ByLayer
370
18
48
1
60
0
100
AcDbLine
10
-59
20
-15.875
30
0
11
0
21
-15.875
31
0
39
0
210
0
220
0
230
1
0
LINE
5
91
100
AcDbEntity
8
SK1
62
256
6
ByLayer
370
18
48
1
60
0
100
AcDbLine
10
0
20
15.875
30
0
11
-59
21
15.875
31
0
39
0
210
0
220
0
230
1
0
LINE
5
92
100
AcDbEntity
8
1
62
256
6
ByLayer
370
18
48
1
60
0
100
AcDbLine
10
0
20
15.875
30
0
11
0
21
-15.875
31
0
39
0
210
0
220
0
230
1
0
LINE
5
93
100
AcDbEntity
8
1
62
256
6
ByLayer
370
18
48
1
60
0
100
AcDbLine
10
160.30533
20
12.8985
30
0
11
160.30533
21
12.488936
31
0
39
0
210
0
220
0
230
1
0
LINE
5
94
100
AcDbEntity
8
1
62
256
6
ByLayer
370
18
48
1
60
0
100
AcDbLine
10
160.30533
20
-12.8985
30
0
11
160.30533
21
-1.837706
31
0
39
0
210
0
220
0
230
1
0
LINE
5
95
100
AcDbEntity
8
1
62
256
6
ByLayer
370
18
48
1
60
0
100
AcDbLine
10
10
20
-9.892692
30
0
11
10
21
10.090526
31
0
39
0
210
0
220
0
230
1
0
LINE
5
96
100
AcDbEntity
8
SK1
62
256
6
ByLayer
370
18
48
1
60
0
100
AcDbLine
10
-60
20
-14.875
30
0
11
-60
21
14.875
31
0
39
0
210
0
220
0
230
1
0
LINE
5
97
100
AcDbEntity
8
SK1
62
256
6
ByLayer
370
18
48
1
60
0
100
AcDbLine
10
-51.368099
20
-7.245688
30
0
11
-51.368099
21
7.245688
31
0
39
0
210
0
220
0
230
1
0
LINE
5
98
100
AcDbEntity
8
SK1
62
256
6
ByLayer
370
18
48
1
60
0
100
AcDbLine
10
0
20
15.875
30
0
11
0
21
-15.875
31
0
39
0
210
0
220
0
230
1
0
LINE
5
99
100
AcDbEntity
8
SK1
62
256
6
ByLayer
370
18
48
1
60
0
100
AcDbLine
10
-59
20
-15.875
30
0
11
-59
21
15.875
31
0
39
0
210
0
220
0
230
1
0
LINE
5
9A
100
AcDbEntity
8
SK1
62
256
6
ByLayer
370
18
48
1
60
0
100
AcDbLine
10
-8.876645
20
-7.245688
30
0
11
-51.368099
21
-7.245688
31
0
39
0
210
0
220
0
230
1
0
LINE
5
9B
100
AcDbEntity
8
SK1
62
256
6
ByLayer
370
18
48
1
60
0
100
AcDbLine
10
-51.368099
20
7.245688
30
0
11
-8.876645
21
7.245688
31
0
39
0
210
0
220
0
230
1
0
LINE
5
9C
100
AcDbEntity
8
SK1
62
256
6
ByLayer
370
18
48
1
60
0
100
AcDbLine
10
-8.876645
20
-7.245688
30
0
11
-8.876645
21
7.245688
31
0
39
0
210
0
220
0
230
1
0
LINE
5
9D
100
AcDbEntity
8
1
62
256
6
ByLayer
370
18
48
1
60
0
100
AcDbLine
10
160.30533
20
12.8985
30
0
11
160.30533
21
-12.8985
31
0
39
0
210
0
220
0
230
1
0
LINE
5
9E
100
AcDbEntity
8
1
62
256
6
ByLayer
370
18
48
1
60
0
100
AcDbLine
10
160.30533
20
12.8985
30
0
11
160.30533
21
-12.8985
31
0
39
0
210
0
220
0
230
1
0
LINE
5
9F
100
AcDbEntity
8
1
62
256
6
ByLayer
370
18
48
1
60
0
100
AcDbLine
10
160.30533
20
12.8985
30
0
11
160.30533
21
-12.8985
31
0
39
0
210
0
220
0
230
1
0
LINE
5
A0
100
AcDbEntity
8
1
62
256
6
ByLayer
370
18
48
1
60
0
100
AcDbLine
10
149.2
20
12.8985
30
0
11
149.2
21
-12.8985
31
0
39
0
210
0
220
0
230
1
0
LINE
5
A1
100
AcDbEntity
8
1
62
256
6
ByLayer
370
18
48
1
60
0
100
AcDbLine
10
149.2
20
12.8985
30
0
11
149.2
21
-12.8985
31
0
39
0
210
0
220
0
230
1
0
LINE
5
A2
100
AcDbEntity
8
1
62
256
6
ByLayer
370
18
48
1
60
0
100
AcDbLine
10
160.30533
20
12.8985
30
0
11
160.30533
21
-12.8985
31
0
39
0
210
0
220
0
230
1
0
LINE
5
A3
100
AcDbEntity
8
1
62
256
6
ByLayer
370
18
48
1
60
0
100
AcDbLine
10
149.2
20
12.8985
30
0
11
149.2
21
-12.8985
31
0
39
0
210
0
220
0
230
1
0
LINE
5
A4
100
AcDbEntity
8
1
62
256
6
ByLayer
370
18
48
1
60
0
100
AcDbLine
10
160.30533
20
12.8985
30
0
11
160.30533
21
-12.8985
31
0
39
0
210
0
220
0
230
1
0
LINE
5
A5
100
AcDbEntity
8
SK2
62
256
6
ByLayer
370
13
48
1
60
0
100
AcDbLine
10
-66.5
20
-15.875
30
0
11
-66.5
21
44.149683
31
0
39
0
210
0
220
0
230
1
0
LINE
5
A7
100
AcDbEntity
8
SK2
62
256
6
ByLayer
370
13
48
1
60
0
100
AcDbLine
10
-61.5875
20
15.875
30
0
11
-68.5
21
15.875
31
0
39
0
210
0
220
0
230
1
0
LINE
5
A8
100
AcDbEntity
8
SK2
62
256
6
ByLayer
370
13
48
1
60
0
100
AcDbLine
10
-61.5875
20
-15.875
30
0
11
-68.5
21
-15.875
31
0
39
0
210
0
220
0
230
1
0
LINE
5
A9
100
AcDbEntity
8
1
62
256
6
ByLayer
370
18
48
1
60
1
100
AcDbLine
10
-66.5
20
15.875
30
0
11
-66.039216
21
12.375002
31
0
39
0
210
0
220
0
230
1
0
LINE
5
AA
100
AcDbEntity
8
1
62
256
6
ByLayer
370
18
48
1
60
1
100
AcDbLine
10
-66.039216
20
12.375002
30
0
11
-66.960784
21
12.374998
31
0
39
0
210
0
220
0
230
1
0
LINE
5
AB
100
AcDbEntity
8
1
62
256
6
ByLayer
370
18
48
1
60
1
100
AcDbLine
10
-66.960784
20
12.374998
30
0
11
-66.5
21
15.875
31
0
39
0
210
0
220
0
230
1
0
LINE
5
AC
100
AcDbEntity
8
1
62
256
6
ByLayer
370
18
48
1
60
1
100
AcDbLine
10
-66.5
20
-15.875
30
0
11
-66.960784
21
-12.375002
31
0
39
0
210
0
220
0
230
1
0
LINE
5
AD
100
AcDbEntity
8
1
62
256
6
ByLayer
370
18
48
1
60
1
100
AcDbLine
10
-66.960784
20
-12.375002
30
0
11
-66.039216
21
-12.374998
31
0
39
0
210
0
220
0
230
1
0
LINE
5
AE
100
AcDbEntity
8
1
62
256
6
ByLayer
370
18
48
1
60
1
100
AcDbLine
10
-66.039216
20
-12.374998
30
0
11
-66.5
21
-15.875
31
0
39
0
210
0
220
0
230
1
0
LINE
5
AF
100
AcDbEntity
8
2
62
256
6
ByLayer
370
13
48
1
60
0
100
AcDbLine
10
172.5
20
-12.8985
30
0
11
172.5
21
41.923069
31
0
39
0
210
0
220
0
230
1
0
LINE
5
B1
100
AcDbEntity
8
2
62
256
6
ByLayer
370
13
48
1
60
0
100
AcDbLine
10
161.89283
20
12.8985
30
0
11
174.5
21
12.8985
31
0
39
0
210
0
220
0
230
1
0
LINE
5
B2
100
AcDbEntity
8
2
62
256
6
ByLayer
370
13
48
1
60
0
100
AcDbLine
10
161.89283
20
-12.8985
30
0
11
174.5
21
-12.8985
31
0
39
0
210
0
220
0
230
1
0
LINE
5
B3
100
AcDbEntity
8
1
62
256
6
ByLayer
370
18
48
1
60
1
100
AcDbLine
10
172.5
20
12.8985
30
0
11
172.960784
21
9.398502
31
0
39
0
210
0
220
0
230
1
0
LINE
5
B4
100
AcDbEntity
8
1
62
256
6
ByLayer
370
18
48
1
60
1
100
AcDbLine
10
172.960784
20
9.398502
30
0
11
172.039216
21
9.398498
31
0
39
0
210
0
220
0
230
1
0
LINE
5
B5
100
AcDbEntity
8
1
62
256
6
ByLayer
370
18
48
1
60
1
100
AcDbLine
10
172.039216
20
9.398498
30
0
11
172.5
21
12.8985
31
0
39
0
210
0
220
0
230
1
0
LINE
5
B6
100
AcDbEntity
8
1
62
256
6
ByLayer
370
18
48
1
60
1
100
AcDbLine
10
172.5
20
-12.8985
30
0
11
172.039216
21
-9.398502
31
0
39
0
210
0
220
0
230
1
0
LINE
5
B7
100
AcDbEntity
8
1
62
256
6
ByLayer
370
18
48
1
60
1
100
AcDbLine
10
172.039216
20
-9.398502
30
0
11
172.960784
21
-9.398498
31
0
39
0
210
0
220
0
230
1
0
LINE
5
B8
100
AcDbEntity
8
1
62
256
6
ByLayer
370
18
48
1
60
1
100
AcDbLine
10
172.960784
20
-9.398498
30
0
11
172.5
21
-12.8985
31
0
39
0
210
0
220
0
230
1
0
LINE
5
B9
100
AcDbEntity
8
SK2
62
256
6
ByLayer
370
13
48
1
60
0
100
AcDbLine
10
165.542957
20
-1.491762
30
0
11
172.182423
21
-19.733545
31
0
39
0
210
0
220
0
230
1
0
LINE
5
BA
100
AcDbEntity
8
SK2
62
256
6
ByLayer
370
13
48
1
60
0
100
AcDbLine
10
165.542957
20
1.491762
30
0
11
172.182423
21
19.733545
31
0
39
0
210
0
220
0
230
1
0
LINE
5
BB
100
AcDbEntity
8
1
62
256
6
ByLayer
370
18
48
1
60
1
100
AcDbLine
10
171.498383
20
-17.85416
30
0
11
174.551575
21
-16.082064
31
0
39
0
210
0
220
0
230
1
0
LINE
5
BC
100
AcDbEntity
8
1
62
256
6
ByLayer
370
18
48
1
60
1
100
AcDbLine
10
174.551575
20
-16.082064
30
0
11
174.906196
21
-16.93267
31
0
39
0
210
0
220
0
230
1
0
LINE
5
BD
100
AcDbEntity
8
1
62
256
6
ByLayer
370
18
48
1
60
1
100
AcDbLine
10
174.906196
20
-16.93267
30
0
11
171.498383
21
-17.85416
31
0
39
0
210
0
220
0
230
1
0
LINE
5
BE
100
AcDbEntity
8
1
62
256
6
ByLayer
370
18
48
1
60
1
100
AcDbLine
10
171.498383
20
17.85416
30
0
11
174.906193
21
16.932671
31
0
39
0
210
0
220
0
230
1
0
LINE
5
BF
100
AcDbEntity
8
1
62
256
6
ByLayer
370
18
48
1
60
1
100
AcDbLine
10
174.906193
20
16.932671
30
0
11
174.551579
21
16.082063
31
0
39
0
210
0
220
0
230
1
0
LINE
5
C0
100
AcDbEntity
8
1
62
256
6
ByLayer
370
18
48
1
60
1
100
AcDbLine
10
174.551579
20
16.082063
30
0
11
171.498383
21
17.85416
31
0
39
0
210
0
220
0
230
1
0
LINE
5
149
100
AcDbEntity
8
1
62
256
6
ByLayer
370
18
48
1
60
1
100
AcDbLine
10
-66.5
20
15.875
30
0
11
-66.039216
21
12.375002
31
0
39
0
210
0
220
0
230
1
0
LINE
5
14A
100
AcDbEntity
8
1
62
256
6
ByLayer
370
18
48
1
60
1
100
AcDbLine
10
-66.039216
20
12.375002
30
0
11
-66.960784
21
12.374998
31
0
39
0
210
0
220
0
230
1
0
LINE
5
14B
100
AcDbEntity
8
1
62
256
6
ByLayer
370
18
48
1
60
1
100
AcDbLine
10
-66.960784
20
12.374998
30
0
11
-66.5
21
15.875
31
0
39
0
210
0
220
0
230
1
0
LINE
5
14D
100
AcDbEntity
8
1
62
256
6
ByLayer
370
18
48
1
60
1
100
AcDbLine
10
-66.5
20
-15.875
30
0
11
-66.960784
21
-12.375002
31
0
39
0
210
0
220
0
230
1
0
LINE
5
14E
100
AcDbEntity
8
1
62
256
6
ByLayer
370
18
48
1
60
1
100
AcDbLine
10
-66.960784
20
-12.375002
30
0
11
-66.039216
21
-12.374998
31
0
39
0
210
0
220
0
230
1
0
LINE
5
14F
100
AcDbEntity
8
1
62
256
6
ByLayer
370
18
48
1
60
1
100
AcDbLine
10
-66.039216
20
-12.374998
30
0
11
-66.5
21
-15.875
31
0
39
0
210
0
220
0
230
1
0
LINE
5
153
100
AcDbEntity
8
1
62
256
6
ByLayer
370
18
48
1
60
1
100
AcDbLine
10
172.5
20
12.8985
30
0
11
172.960784
21
9.398502
31
0
39
0
210
0
220
0
230
1
0
LINE
5
154
100
AcDbEntity
8
1
62
256
6
ByLayer
370
18
48
1
60
1
100
AcDbLine
10
172.960784
20
9.398502
30
0
11
172.039216
21
9.398498
31
0
39
0
210
0
220
0
230
1
0
LINE
5
155
100
AcDbEntity
8
1
62
256
6
ByLayer
370
18
48
1
60
1
100
AcDbLine
10
172.039216
20
9.398498
30
0
11
172.5
21
12.8985
31
0
39
0
210
0
220
0
230
1
0
LINE
5
157
100
AcDbEntity
8
1
62
256
6
ByLayer
370
18
48
1
60
1
100
AcDbLine
10
172.5
20
-12.8985
30
0
11
172.039216
21
-9.398502
31
0
39
0
210
0
220
0
230
1
0
LINE
5
158
100
AcDbEntity
8
1
62
256
6
ByLayer
370
18
48
1
60
1
100
AcDbLine
10
172.039216
20
-9.398502
30
0
11
172.960784
21
-9.398498
31
0
39
0
210
0
220
0
230
1
0
LINE
5
159
100
AcDbEntity
8
1
62
256
6
ByLayer
370
18
48
1
60
1
100
AcDbLine
10
172.960784
20
-9.398498
30
0
11
172.5
21
-12.8985
31
0
39
0
210
0
220
0
230
1
0
LINE
5
15C
100
AcDbEntity
8
1
62
256
6
ByLayer
370
18
48
1
60
1
100
AcDbLine
10
171.498383
20
-17.85416
30
0
11
174.551575
21
-16.082064
31
0
39
0
210
0
220
0
230
1
0
LINE
5
15D
100
AcDbEntity
8
1
62
256
6
ByLayer
370
18
48
1
60
1
100
AcDbLine
10
174.551575
20
-16.082064
30
0
11
174.906196
21
-16.93267
31
0
39
0
210
0
220
0
230
1
0
LINE
5
15E
100
AcDbEntity
8
1
62
256
6
ByLayer
370
18
48
1
60
1
100
AcDbLine
10
174.906196
20
-16.93267
30
0
11
171.498383
21
-17.85416
31
0
39
0
210
0
220
0
230
1
0
LINE
5
160
100
AcDbEntity
8
1
62
256
6
ByLayer
370
18
48
1
60
1
100
AcDbLine
10
171.498383
20
17.85416
30
0
11
174.906193
21
16.932671
31
0
39
0
210
0
220
0
230
1
0
LINE
5
161
100
AcDbEntity
8
1
62
256
6
ByLayer
370
18
48
1
60
1
100
AcDbLine
10
174.906193
20
16.932671
30
0
11
174.551579
21
16.082063
31
0
39
0
210
0
220
0
230
1
0
LINE
5
162
100
AcDbEntity
8
1
62
256
6
ByLayer
370
18
48
1
60
1
100
AcDbLine
10
174.551579
20
16.082063
30
0
11
171.498383
21
17.85416
31
0
39
0
210
0
220
0
230
1
0
MTEXT
5
145
100
AcDbEntity
8
SK2
62
256
6
ByLayer
370
18
48
1
60
0
100
AcDbMText
10
-67.841114
20
27.533438
30
0
210
0
220
0
230
1
1
%%c
40
3
41
0
44
1.084337
50
90
71
7
72
5
7
iso_b_vert
0
MTEXT
5
148
100
AcDbEntity
8
SK2
62
256
6
ByLayer
370
18
48
1
60
0
100
AcDbMText
10
-67.841114
20
33.51
30
0
210
0
220
0
230
1
1
\W0.7022;31.750
40
3
41
0
44
1.084337
50
90
71
7
72
5
7
iso_b_vert
0
MTEXT
5
151
100
AcDbEntity
8
2
62
256
6
ByLayer
370
18
48
1
60
0
100
AcDbMText
10
171.158886
20
24.556938
30
0
210
0
220
0
230
1
1
%%c
40
3
41
0
44
1.084337
50
90
71
7
72
5
7
iso_b_vert
0
MTEXT
5
152
100
AcDbEntity
8
2
62
256
6
ByLayer
370
18
48
1
60
0
100
AcDbMText
10
171.158886
20
30.5335
30
0
210
0
220
0
230
1
1
\W0.7513;25.797
40
3
41
0
44
1.084337
50
90
71
7
72
5
7
iso_b_vert
0
MTEXT
5
15B
100
AcDbEntity
8
SK2
62
256
6
ByLayer
370
18
48
1
60
0
100
AcDbMText
10
184.909114
20
3.734657
30
0
210
0
220
0
230
1
1
\W0.7071;140%%d
40
3
41
0
44
1.084337
50
270
71
7
72
5
7
iso_b_vert
0
MTEXT
5
164
100
AcDbEntity
8
SK6
62
256
6
ByLayer
370
18
48
1
60
0
100
AcDbMText
10
24.241946
20
-67.114886
30
0
210
0
220
0
230
1
1
\W0.7441;H8551.1/64
40
3
41
0
44
1.084337
50
0
71
7
72
5
7
iso_b_vert
0
HATCH
5
14C
100
AcDbEntity
8
SK2
62
256
6
ByLayer
370
13
48
1
60
0
100
AcDbHatch
10
0
20
0
30
0
210
0
220
0
230
1
2
ANSI31
70
0
71
0
91
1
92
5
93
3
72
1
10
-66.5
20
15.875
11
-66.0392162584472
21
12.3750016925532
72
1
10
-66.0392162584472
20
12.3750016925532
11
-66.9607837415528
21
12.3749983074468
72
1
10
-66.9607837415528
20
12.3749983074468
11
-66.5
21
15.875
97
0
75
0
76
1
52
0
41
0.0062
77
0
78
1
53
45
43
0
44
0
45
-0.0139193969876572
46
0.0139193969876572
79
0
47
0
98
1
10
0
20
0
0
HATCH
5
150
100
AcDbEntity
8
SK2
62
256
6
ByLayer
370
13
48
1
60
0
100
AcDbHatch
10
0
20
0
30
0
210
0
220
0
230
1
2
ANSI31
70
0
71
0
91
1
92
5
93
3
72
1
10
-66.5
20
-15.875
11
-66.9607837415528
21
-12.3750016925532
72
1
10
-66.9607837415528
20
-12.3750016925532
11
-66.0392162584472
21
-12.3749983074468
72
1
10
-66.0392162584472
20
-12.3749983074468
11
-66.5
21
-15.875
97
0
75
0
76
1
52
0
41
0.0062
77
0
78
1
53
45
43
0
44
0
45
-0.0139193969876572
46
0.0139193969876572
79
0
47
0
98
1
10
0
20
0
0
HATCH
5
156
100
AcDbEntity
8
2
62
256
6
ByLayer
370
13
48
1
60
0
100
AcDbHatch
10
0
20
0
30
0
210
0
220
0
230
1
2
ANSI31
70
0
71
0
91
1
92
5
93
3
72
1
10
172.5
20
12.8985
11
172.960783741553
21
9.3985016925532
72
1
10
172.960783741553
20
9.3985016925532
11
172.039216258447
21
9.39849830744683
72
1
10
172.039216258447
20
9.39849830744683
11
172.5
21
12.8985
97
0
75
0
76
1
52
0
41
0.0062
77
0
78
1
53
45
43
0
44
0
45
-0.0139193969876572
46
0.0139193969876572
79
0
47
0
98
1
10
0
20
0
0
HATCH
5
15A
100
AcDbEntity
8
2
62
256
6
ByLayer
370
13
48
1
60
0
100
AcDbHatch
10
0
20
0
30
0
210
0
220
0
230
1
2
ANSI31
70
0
71
0
91
1
92
5
93
3
72
1
10
172.5
20
-12.8985
11
172.039216258447
21
-9.39850169255317
72
1
10
172.039216258447
20
-9.39850169255317
11
172.960783741553
21
-9.3984983074468
72
1
10
172.960783741553
20
-9.3984983074468
11
172.5
21
-12.8985
97
0
75
0
76
1
52
0
41
0.0062
77
0
78
1
53
45
43
0
44
0
45
-0.0139193969876572
46
0.0139193969876572
79
0
47
0
98
1
10
0
20
0
0
HATCH
5
15F
100
AcDbEntity
8
SK2
62
256
6
ByLayer
370
13
48
1
60
0
100
AcDbHatch
10
0
20
0
30
0
210
0
220
0
230
1
2
ANSI31
70
0
71
0
91
1
92
5
93
3
72
1
10
171.498382723188
20
-17.8541597949322
11
174.551575425693
21
-16.0820638240608
72
1
10
174.551575425693
20
-16.0820638240608
11
174.906195833975
21
-16.9326700737196
72
1
10
174.906195833975
20
-16.9326700737196
11
171.498382723188
21
-17.8541597949322
97
0
75
0
76
1
52
0
41
0.0062
77
0
78
1
53
45
43
0
44
0
45
-0.0139193969876572
46
0.0139193969876572
79
0
47
0
98
1
10
0
20
0
0
HATCH
5
163
100
AcDbEntity
8
SK2
62
256
6
ByLayer
370
13
48
1
60
0
100
AcDbHatch
10
0
20
0
30
0
210
0
220
0
230
1
2
ANSI31
70
0
71
0
91
1
92
5
93
3
72
1
10
171.498382723188
20
17.8541597949322
11
174.906192709519
21
16.9326713763016
72
1
10
174.906192709519
20
16.9326713763016
11
174.551578550149
21
16.0820625214787
72
1
10
174.551578550149
20
16.0820625214787
11
171.498382723188
21
17.8541597949322
97
0
75
0
76
1
52
0
41
0.0062
77
0
78
1
53
45
43
0
44
0
45
-0.0139193969876572
46
0.0139193969876572
79
0
47
0
98
1
10
0
20
0
0
DIMENSION
5
167
100
AcDbEntity
8
SK2
62
256
6
ByLayer
370
18
48
1
60
0
100
AcDbDimension
2
_U0
10
165
20
-45.952229
30
0
11
52.5
21
-45.952229
31
0
70
32
71
1
72
1
41
1
210
0
220
0
230
1
3
Standard
100
AcDbAlignedDimension
13
-60
23
-15.875
33
0
14
165
24
0
34
0
50
0
100
AcDbRotatedDimension
1001
ACAD
1000
DSTYLE
1002
{
1070
   371
1070
    13
1070
   372
1070
    13
1070
     3
1000

1070
   170
1070
     0
1070
   144
1040
1.0
1070
   277
1070
     2
1070
   284
1070
     8
1070
   278
1070
    46
1070
   146
1040
1.166667
1070
   345
1005
16
1070
   347
1005
16
1070
   346
1005
16
1070
   344
1005
0
1070
   343
1005
0
1070
   172
1070
     1
1070
    76
1070
     0
1070
    75
1070
     0
1070
   282
1070
     0
1070
   281
1070
     0
1070
    71
1070
     0
1070
    74
1070
     0
1070
   279
1070
     0
1070
   173
1070
     1
1070
   340
1005
146
1070
   271
1070
     2
1070
   272
1070
     3
1070
    77
1070
     1
1070
    73
1070
     1
1070
   171
1070
     3
1070
   274
1070
     4
1070
   177
1070
     2
1070
   176
1070
     2
1070
   178
1070
     2
1070
    78
1070
     8
1070
    48
1040
-0.1
1070
    41
1040
3.5
1070
   147
1040
1.5
1070
    42
1040
1.5875
1070
    44
1040
2.0
1070
   140
1040
3.0
1002
}
1001
ACAD_DSTYLE_DIM_LINETYPE
1070
   380
1005
16
1001
ACAD_DSTYLE_DIM_EXT1_LINETYPE
1070
   381
1005
16
1001
ACAD_DSTYLE_DIM_EXT2_LINETYPE
1070
   382
1005
16
0
DIMENSION
5
180
100
AcDbEntity
8
SK2
62
256
6
ByLayer
370
18
48
1
60
0
100
AcDbDimension
2
_U1
10
3
20
-35.952229
30
0
11
84
21
-35.952229
31
0
70
32
71
1
72
1
41
1
210
0
220
0
230
1
3
Standard
100
AcDbAlignedDimension
13
165
23
0
33
0
14
3
24
-12.8985
34
0
50
0
100
AcDbRotatedDimension
1001
ACAD
1000
DSTYLE
1002
{
1070
   371
1070
    13
1070
   372
1070
    13
1070
     3
1000

1070
   170
1070
     0
1070
   144
1040
1.0
1070
   277
1070
     2
1070
   284
1070
     8
1070
   278
1070
    46
1070
   146
1040
1.166667
1070
   345
1005
16
1070
   347
1005
16
1070
   346
1005
16
1070
   344
1005
0
1070
   343
1005
0
1070
   172
1070
     1
1070
    76
1070
     0
1070
    75
1070
     0
1070
   282
1070
     0
1070
   281
1070
     0
1070
    71
1070
     0
1070
    74
1070
     0
1070
   279
1070
     0
1070
   173
1070
     1
1070
   340
1005
146
1070
   271
1070
     2
1070
   272
1070
     3
1070
    77
1070
     1
1070
    73
1070
     1
1070
   171
1070
     3
1070
   274
1070
     4
1070
   177
1070
     2
1070
   176
1070
     2
1070
   178
1070
     2
1070
    78
1070
     8
1070
    48
1040
-0.1
1070
    41
1040
3.5
1070
   147
1040
1.5
1070
    42
1040
1.5875
1070
    44
1040
2.0
1070
   140
1040
3.0
1002
}
1001
ACAD_DSTYLE_DIM_LINETYPE
1070
   380
1005
16
1001
ACAD_DSTYLE_DIM_EXT1_LINETYPE
1070
   381
1005
16
1001
ACAD_DSTYLE_DIM_EXT2_LINETYPE
1070
   382
1005
16
0
DIMENSION
5
198
100
AcDbEntity
8
SK2
62
256
6
ByLayer
370
18
48
1
60
0
100
AcDbDimension
2
_U2
10
0
20
-35.952229
30
0
11
-30
21
-35.952229
31
0
70
32
71
1
72
1
41
1
210
0
220
0
230
1
3
Standard
100
AcDbAlignedDimension
13
-60
23
-15.875
33
0
14
0
24
-15.875
34
0
50
0
100
AcDbRotatedDimension
1001
ACAD
1000
DSTYLE
1002
{
1070
   371
1070
    13
1070
   372
1070
    13
1070
     3
1000

1070
   170
1070
     0
1070
   144
1040
1.0
1070
   277
1070
     2
1070
   284
1070
     8
1070
   278
1070
    46
1070
   146
1040
1.166667
1070
   345
1005
16
1070
   347
1005
16
1070
   346
1005
16
1070
   344
1005
0
1070
   343
1005
0
1070
   172
1070
     1
1070
    76
1070
     0
1070
    75
1070
     0
1070
   282
1070
     0
1070
   281
1070
     0
1070
    71
1070
     0
1070
    74
1070
     0
1070
   279
1070
     0
1070
   173
1070
     1
1070
   340
1005
146
1070
   271
1070
     2
1070
   272
1070
     3
1070
    77
1070
     1
1070
    73
1070
     1
1070
   171
1070
     3
1070
   274
1070
     4
1070
   177
1070
     2
1070
   176
1070
     2
1070
   178
1070
     2
1070
    78
1070
     8
1070
    48
1040
-0.1
1070
    41
1040
3.5
1070
   147
1040
1.5
1070
    42
1040
1.5875
1070
    44
1040
2.0
1070
   140
1040
3.0
1002
}
1001
ACAD_DSTYLE_DIM_LINETYPE
1070
   380
1005
16
1001
ACAD_DSTYLE_DIM_EXT1_LINETYPE
1070
   381
1005
16
1001
ACAD_DSTYLE_DIM_EXT2_LINETYPE
1070
   382
1005
16
0
DIMENSION
5
1B0
100
AcDbEntity
8
SK2
62
256
6
ByLayer
370
18
48
1
60
0
100
AcDbDimension
2
_U3
10
25
20
32.952229
30
0
11
95
21
32.952229
31
0
70
32
71
1
72
1
41
1
210
0
220
0
230
1
3
Standard
100
AcDbAlignedDimension
13
165
23
0
33
0
14
25
24
12.8985
34
0
50
0
100
AcDbRotatedDimension
1001
ACAD
1000
DSTYLE
1002
{
1070
   371
1070
    13
1070
   372
1070
    13
1070
     3
1000

1070
   170
1070
     0
1070
   144
1040
1.0
1070
   277
1070
     2
1070
   284
1070
     8
1070
   278
1070
    46
1070
   146
1040
1.166667
1070
   345
1005
16
1070
   347
1005
16
1070
   346
1005
16
1070
   344
1005
0
1070
   343
1005
0
1070
   172
1070
     1
1070
    76
1070
     0
1070
    75
1070
     0
1070
   282
1070
     0
1070
   281
1070
     0
1070
    71
1070
     0
1070
    74
1070
     0
1070
   279
1070
     0
1070
   173
1070
     1
1070
   340
1005
146
1070
   271
1070
     2
1070
   272
1070
     3
1070
    77
1070
     1
1070
    73
1070
     1
1070
   171
1070
     3
1070
   274
1070
     4
1070
   177
1070
     2
1070
   176
1070
     2
1070
   178
1070
     2
1070
    78
1070
     8
1070
    48
1040
-0.1
1070
    41
1040
3.5
1070
   147
1040
1.5
1070
    42
1040
1.5875
1070
    44
1040
2.0
1070
   140
1040
3.0
1002
}
1001
ACAD_DSTYLE_DIM_LINETYPE
1070
   380
1005
16
1001
ACAD_DSTYLE_DIM_EXT1_LINETYPE
1070
   381
1005
16
1001
ACAD_DSTYLE_DIM_EXT2_LINETYPE
1070
   382
1005
16
0
ENDSEC
0
SECTION
2
OBJECTS
0
DICTIONARY
5
238
330
0
100
AcDbDictionary
280
0
281
1
3
ACAD_GROUP
350
239
3
ACAD_MLINESTYLE
350
23a
0
DICTIONARY
5
239
330
0
100
AcDbDictionary
280
0
281
1
0
DICTIONARY
5
23a
330
0
100
AcDbDictionary
280
0
281
1
3
Standard
350
18
0
MLINESTYLE
5
18
330
23a
100
AcDbMlineStyle
2
Standard
70
0
3

62
256
51
90
52
90
71
2
49
-0.5
62
256
6
ByLayer
49
0.5
62
256
6
ByLayer
0
RASTERVARIABLES
5
226
330

100
AcDbRasterVariables
90
0
70
1
71
1
72
1
0
ENDSEC
0
EOF
