0
SECTION
2
HEADER
9
$ACADVER
1
AC1015
9
$DWGCODEPAGE
3
ANSI_1252
9
$HANDSEED
5
221
9
$ANGBASE
50
0
9
$ANGDIR
70
0
9
$ATTMODE
70
1
9
$AUNITS
70
0
9
$AUPREC
70
0
9
$CECOLOR
62
256
9
$CELTSCALE
40
1
9
$CELTYPE
6
ByLayer
9
$CELWEIGHT
370
18
9
$CLAYER
8
0
9
$CMLJUST
70
0
9
$CMLSCALE
40
1
9
$CMLSTYLE
2
Standard
9
$DIMSTYLE
2
Standard
9
$TEXTSIZE
40
0.2
9
$TEXTSTYLE
7
Standard
9
$LUNITS
70
2
9
$LUPREC
70
4
9
$EXTNAMES
290
1
9
$INSUNITS
70
4
9
$LTSCALE
40
1
9
$LWDISPLAY
290
1
9
$PDMODE
70
0
9
$PDSIZE
40
0
9
$PLINEGEN
70
0
0
ENDSEC
0
SECTION
2
CLASSES
0
CLASS
1
RASTERVARIABLES
2
AcDbRasterVariables
3
ISM
90
0
280
0
281
0
0
ENDSEC
0
SECTION
2
TABLES
0
TABLE
2
VPORT
5
217
100
AcDbSymbolTable
0
VPORT
5
1
100
AcDbSymbolTableRecord
100
AcDbViewportTableRecord
2
*Active
70
0
10
0
20
0
11
1
21
1
12
-1
22
1
13
0
23
0
14
0.5
24
0.5
15
10
25
10
16
0
26
0
36
1
17
0
27
0
37
0
0
ENDTAB
0
TABLE
2
LTYPE
5
218
100
AcDbSymbolTable
0
LTYPE
5
14
100
AcDbSymbolTableRecord
100
AcDbLinetypeTableRecord
70
0
2
ByBlock
3

72
65
73
0
40
0
0
LTYPE
5
15
100
AcDbSymbolTableRecord
100
AcDbLinetypeTableRecord
70
0
2
ByLayer
3

72
65
73
0
40
0
0
LTYPE
5
16
100
AcDbSymbolTableRecord
100
AcDbLinetypeTableRecord
70
0
2
Continuous
3
Solid line
72
65
73
0
40
0
0
LTYPE
5
6E
100
AcDbSymbolTableRecord
100
AcDbLinetypeTableRecord
70
0
2
CENTER
3
____ _ ____ _ ____ _ ____
72
65
73
4
40
47.5
49
22
74
0
49
-8.5
74
0
49
8.5
74
0
49
-8.5
74
0
0
LTYPE
5
6F
100
AcDbSymbolTableRecord
100
AcDbLinetypeTableRecord
70
0
2
DASHED
3
__ __ __ __ __ __ __ __ __
72
65
73
2
40
25.72
49
12.86
74
0
49
-12.86
74
0
0
ENDTAB
0
TABLE
2
LAYER
5
219
100
AcDbSymbolTable
0
LAYER
5
10
100
AcDbSymbolTableRecord
100
AcDbLayerTableRecord
2
0
70
0
62
7
6
Continuous
290
1
370
-3
390
0
0
LAYER
5
71
100
AcDbSymbolTableRecord
100
AcDbLayerTableRecord
2
80
70
0
62
-6
6
Continuous
290
1
370
-3
390
0
0
LAYER
5
73
100
AcDbSymbolTableRecord
100
AcDbLayerTableRecord
2
81
70
0
62
-3
6
Continuous
290
1
370
-3
390
0
0
LAYER
5
75
100
AcDbSymbolTableRecord
100
AcDbLayerTableRecord
2
1
70
0
62
4
6
Continuous
290
1
370
-3
390
0
0
LAYER
5
82
100
AcDbSymbolTableRecord
100
AcDbLayerTableRecord
2
4
70
0
62
-2
6
CENTER
290
1
370
-3
390
0
0
LAYER
5
AF
100
AcDbSymbolTableRecord
100
AcDbLayerTableRecord
2
2
70
0
62
7
6
Continuous
290
1
370
-3
390
0
0
LAYER
5
146
100
AcDbSymbolTableRecord
100
AcDbLayerTableRecord
2
Defpoints
70
0
62
7
6
Continuous
290
0
370
-3
390
0
0
LAYER
5
203
100
AcDbSymbolTableRecord
100
AcDbLayerTableRecord
2
SK4
70
0
62
2
6
CENTER
290
1
370
-3
390
0
0
LAYER
5
204
100
AcDbSymbolTableRecord
100
AcDbLayerTableRecord
2
SK1
70
0
62
4
6
Continuous
290
1
370
-3
390
0
0
LAYER
5
205
100
AcDbSymbolTableRecord
100
AcDbLayerTableRecord
2
SK2
70
0
62
7
6
Continuous
290
1
370
-3
390
0
0
LAYER
5
206
100
AcDbSymbolTableRecord
100
AcDbLayerTableRecord
2
SK6
70
0
62
5
6
Continuous
290
1
370
-3
390
0
0
ENDTAB
0
TABLE
2
STYLE
5
21a
100
AcDbSymbolTable
0
STYLE
5
11
100
AcDbSymbolTableRecord
100
AcDbTextStyleTableRecord
2
Standard
3
txt
70
0
71
0
40
0
41
1
42
0
50
0
0
STYLE
5
122
100
AcDbSymbolTableRecord
100
AcDbTextStyleTableRecord
2
iso_b_vert
3
simplex.shx
70
0
71
0
40
0
41
1
42
0
50
0
0
STYLE
5
123
100
AcDbSymbolTableRecord
100
AcDbTextStyleTableRecord
2
DWGDirectTextStyle
3
simplex
70
0
71
0
40
0
41
1
42
0
50
0
0
ENDTAB
0
TABLE
2
DIMSTYLE
5
21b
100
AcDbSymbolTable
100
AcDbDimStyleTable
0
DIMSTYLE
105
27
100
AcDbSymbolTableRecord
100
AcDbDimStyleTableRecord
2
Standard
70
0
3
<>
41
0.18
42
0.0625
44
0.18
140
0.18
147
0.09
73
0
74
0
77
1
271
2
275
0
278
52
280
0
340
11
0
ENDTAB
0
TABLE
2
VIEW
5
21c
100
AcDbSymbolTable
0
ENDTAB
0
TABLE
2
UCS
5
21d
100
AcDbSymbolTable
0
ENDTAB
0
TABLE
2
APPID
5
21e
100
AcDbSymbolTable
0
APPID
5
12
100
AcDbSymbolTableRecord
100
AcDbRegAppTableRecord
2
ACAD
70
0
0
APPID
5
142
100
AcDbSymbolTableRecord
100
AcDbRegAppTableRecord
2
ACAD_DSTYLE_DIMBREAK
70
0
0
APPID
5
1C2
100
AcDbSymbolTableRecord
100
AcDbRegAppTableRecord
2
ACAD_DSTYLE_DIM_LINETYPE
70
0
0
APPID
5
1C3
100
AcDbSymbolTableRecord
100
AcDbRegAppTableRecord
2
ACAD_DSTYLE_DIM_EXT1_LINETYPE
70
0
0
APPID
5
1C4
100
AcDbSymbolTableRecord
100
AcDbRegAppTableRecord
2
ACAD_DSTYLE_DIM_EXT2_LINETYPE
70
0
0
APPID
5
1FF
100
AcDbSymbolTableRecord
100
AcDbRegAppTableRecord
2
ACAD_MLEADERVER
70
0
0
ENDTAB
0
TABLE
2
BLOCK_RECORD
5
21f
100
AcDbSymbolTable
0
BLOCK_RECORD
5
1F
100
AcDbSymbolTableRecord
100
AcDbBlockTableRecord
2
*Model_Space
340
0
70
0
0
BLOCK_RECORD
5
1B
100
AcDbSymbolTableRecord
100
AcDbBlockTableRecord
2
*Paper_Space
340
0
70
0
0
BLOCK_RECORD
5
23
100
AcDbSymbolTableRecord
100
AcDbBlockTableRecord
2
*Paper_Space0
340
0
70
0
0
BLOCK_RECORD
5
147
100
AcDbSymbolTableRecord
100
AcDbBlockTableRecord
2
*D1
340
0
70
0
0
BLOCK_RECORD
5
153
100
AcDbSymbolTableRecord
100
AcDbBlockTableRecord
2
_U0
340
0
70
0
0
BLOCK_RECORD
5
15F
100
AcDbSymbolTableRecord
100
AcDbBlockTableRecord
2
*D3
340
0
70
0
0
BLOCK_RECORD
5
16B
100
AcDbSymbolTableRecord
100
AcDbBlockTableRecord
2
_U1
340
0
70
0
0
BLOCK_RECORD
5
177
100
AcDbSymbolTableRecord
100
AcDbBlockTableRecord
2
*D5
340
0
70
0
0
BLOCK_RECORD
5
183
100
AcDbSymbolTableRecord
100
AcDbBlockTableRecord
2
_U2
340
0
70
0
0
BLOCK_RECORD
5
18F
100
AcDbSymbolTableRecord
100
AcDbBlockTableRecord
2
*D7
340
0
70
0
0
BLOCK_RECORD
5
19B
100
AcDbSymbolTableRecord
100
AcDbBlockTableRecord
2
_U3
340
0
70
0
0
ENDTAB
0
ENDSEC
0
SECTION
2
BLOCKS
0
BLOCK
5
20
100
AcDbEntity
8
0
100
AcDbBlockBegin
2
*Model_Space
70
0
10
0
20
0
30
0
3
*Model_Space
0
ENDBLK
5
21
100
AcDbEntity
8
0
100
AcDbBlockEnd
0
BLOCK
5
1C
100
AcDbEntity
8
0
100
AcDbBlockBegin
2
*Paper_Space
70
0
10
0
20
0
30
0
3
*Paper_Space
0
ENDBLK
5
1D
100
AcDbEntity
8
0
100
AcDbBlockEnd
0
BLOCK
5
24
100
AcDbEntity
8
0
100
AcDbBlockBegin
2
*Paper_Space0
70
0
10
0
20
0
30
0
3
*Paper_Space0
0
ENDBLK
5
25
100
AcDbEntity
8
0
100
AcDbBlockEnd
0
BLOCK
5
148
100
AcDbEntity
8
0
100
AcDbBlockBegin
2
*D1
70
1
10
0
20
0
30
0
3
*D1
0
LINE
5
14A
100
AcDbEntity
8
0
62
256
6
ByLayer
370
-2
48
1
60
0
100
AcDbLine
10
-50
20
-11.5875
30
0
11
-50
21
-47.952229
31
0
39
0
210
0
220
0
230
1
0
LINE
5
14B
100
AcDbEntity
8
0
62
256
6
ByLayer
370
-2
48
1
60
0
100
AcDbLine
10
106.5
20
-1.5875
30
0
11
106.5
21
-47.952229
31
0
39
0
210
0
220
0
230
1
0
LINE
5
14C
100
AcDbEntity
8
0
62
256
6
ByLayer
370
-2
48
1
60
0
100
AcDbLine
10
-46.5
20
-45.952229
30
0
11
103
21
-45.952229
31
0
39
0
210
0
220
0
230
1
0
SOLID
5
14D
100
AcDbEntity
8
0
62
256
6
ByLayer
370
-1
48
1
60
0
100
AcDbTrace
10
-46.5
20
-45.368896
30
0
11
-46.5
21
-46.535563
31
0
12
-50
22
-45.952229
32
0
13
-50
23
-45.952229
33
0
39
0
210
0
220
0
230
1
0
SOLID
5
14E
100
AcDbEntity
8
0
62
256
6
ByLayer
370
-1
48
1
60
0
100
AcDbTrace
10
103
20
-46.535563
30
0
11
103
21
-45.368896
31
0
12
106.5
22
-45.952229
32
0
13
106.5
23
-45.952229
33
0
39
0
210
0
220
0
230
1
0
MTEXT
5
14F
100
AcDbEntity
8
0
62
256
6
ByLayer
370
18
48
1
60
0
100
AcDbMText
10
28.25
20
-39.952229
30
0
210
0
220
0
230
1
1
\A1;156.5
40
3
41
0
44
1
50
0
71
5
72
5
7
iso_b_vert
0
POINT
5
150
100
AcDbEntity
8
Defpoints
62
0
6
ByLayer
370
-1
48
1
60
0
100
AcDbPoint
10
-50
20
-10
30
0
39
0
210
0
220
0
230
1
50
360
0
POINT
5
151
100
AcDbEntity
8
Defpoints
62
0
6
ByLayer
370
-1
48
1
60
0
100
AcDbPoint
10
106.5
20
0
30
0
39
0
210
0
220
0
230
1
50
360
0
POINT
5
152
100
AcDbEntity
8
Defpoints
62
0
6
ByLayer
370
-1
48
1
60
0
100
AcDbPoint
10
106.5
20
-45.952229
30
0
39
0
210
0
220
0
230
1
50
360
0
ENDBLK
5
149
100
AcDbEntity
8
0
100
AcDbBlockEnd
0
BLOCK
5
15A
100
AcDbEntity
8
0
100
AcDbBlockBegin
2
_U0
70
0
10
0
20
0
30
0
3
_U0
0
MTEXT
5
154
100
AcDbEntity
8
SK2
62
256
6
ByLayer
370
18
48
1
60
0
100
AcDbMText
10
23.021658
20
-45.067115
30
0
210
0
220
0
230
1
1
\W0.7022;156.50
40
3
41
0
44
1.084337
50
0
71
7
72
5
7
iso_b_vert
0
LINE
5
155
100
AcDbEntity
8
SK2
62
256
6
ByLayer
370
13
48
1
60
0
100
AcDbLine
10
-50
20
-11.5875
30
0
11
-50
21
-47.952229
31
0
39
0
210
0
220
0
230
1
0
LINE
5
156
100
AcDbEntity
8
SK2
62
256
6
ByLayer
370
13
48
1
60
0
100
AcDbLine
10
106.5
20
-1.5875
30
0
11
106.5
21
-47.952229
31
0
39
0
210
0
220
0
230
1
0
LINE
5
157
100
AcDbEntity
8
SK2
62
256
6
ByLayer
370
13
48
1
60
0
100
AcDbLine
10
-50
20
-45.952229
30
0
11
106.5
21
-45.952229
31
0
39
0
210
0
220
0
230
1
0
SOLID
5
158
100
AcDbEntity
8
SK2
62
256
6
ByLayer
370
18
48
1
60
0
100
AcDbTrace
10
-50
20
-45.952229
30
0
11
-46.500002
21
-45.491446
31
0
12
-46.499998
22
-46.413013
32
0
13
-46.499998
23
-46.413013
33
0
39
0
210
0
220
0
230
1
0
SOLID
5
159
100
AcDbEntity
8
SK2
62
256
6
ByLayer
370
18
48
1
60
0
100
AcDbTrace
10
106.5
20
-45.952229
30
0
11
103.000002
21
-46.413013
31
0
12
102.999998
22
-45.491446
32
0
13
102.999998
23
-45.491446
33
0
39
0
210
0
220
0
230
1
0
ENDBLK
5
15B
100
AcDbEntity
8
0
100
AcDbBlockEnd
0
BLOCK
5
160
100
AcDbEntity
8
0
100
AcDbBlockBegin
2
*D3
70
1
10
0
20
0
30
0
3
*D3
0
LINE
5
162
100
AcDbEntity
8
0
62
256
6
ByLayer
370
-2
48
1
60
0
100
AcDbLine
10
106.5
20
-1.5875
30
0
11
106.5
21
-37.952229
31
0
39
0
210
0
220
0
230
1
0
LINE
5
163
100
AcDbEntity
8
0
62
256
6
ByLayer
370
-2
48
1
60
0
100
AcDbLine
10
3
20
-9.0875
30
0
11
3
21
-37.952229
31
0
39
0
210
0
220
0
230
1
0
LINE
5
164
100
AcDbEntity
8
0
62
256
6
ByLayer
370
-2
48
1
60
0
100
AcDbLine
10
103
20
-35.952229
30
0
11
6.5
21
-35.952229
31
0
39
0
210
0
220
0
230
1
0
SOLID
5
165
100
AcDbEntity
8
0
62
256
6
ByLayer
370
-1
48
1
60
0
100
AcDbTrace
10
103
20
-36.535563
30
0
11
103
21
-35.368896
31
0
12
106.5
22
-35.952229
32
0
13
106.5
23
-35.952229
33
0
39
0
210
0
220
0
230
1
0
SOLID
5
166
100
AcDbEntity
8
0
62
256
6
ByLayer
370
-1
48
1
60
0
100
AcDbTrace
10
6.5
20
-35.368896
30
0
11
6.5
21
-36.535563
31
0
12
3
22
-35.952229
32
0
13
3
23
-35.952229
33
0
39
0
210
0
220
0
230
1
0
MTEXT
5
167
100
AcDbEntity
8
0
62
256
6
ByLayer
370
18
48
1
60
0
100
AcDbMText
10
54.75
20
-29.952229
30
0
210
0
220
0
230
1
1
\A1;103.5
40
3
41
0
44
1
50
0
71
5
72
5
7
iso_b_vert
0
POINT
5
168
100
AcDbEntity
8
Defpoints
62
0
6
ByLayer
370
-1
48
1
60
0
100
AcDbPoint
10
106.5
20
0
30
0
39
0
210
0
220
0
230
1
50
360
0
POINT
5
169
100
AcDbEntity
8
Defpoints
62
0
6
ByLayer
370
-1
48
1
60
0
100
AcDbPoint
10
3
20
-7.5
30
0
39
0
210
0
220
0
230
1
50
360
0
POINT
5
16A
100
AcDbEntity
8
Defpoints
62
0
6
ByLayer
370
-1
48
1
60
0
100
AcDbPoint
10
3
20
-35.952229
30
0
39
0
210
0
220
0
230
1
50
360
0
ENDBLK
5
161
100
AcDbEntity
8
0
100
AcDbBlockEnd
0
BLOCK
5
172
100
AcDbEntity
8
0
100
AcDbBlockBegin
2
_U1
70
0
10
0
20
0
30
0
3
_U1
0
MTEXT
5
16C
100
AcDbEntity
8
SK2
62
256
6
ByLayer
370
18
48
1
60
0
100
AcDbMText
10
49.521658
20
-35.067115
30
0
210
0
220
0
230
1
1
\W0.7022;103.50
40
3
41
0
44
1.084337
50
0
71
7
72
5
7
iso_b_vert
0
LINE
5
16D
100
AcDbEntity
8
SK2
62
256
6
ByLayer
370
13
48
1
60
0
100
AcDbLine
10
106.5
20
-1.5875
30
0
11
106.5
21
-37.952229
31
0
39
0
210
0
220
0
230
1
0
LINE
5
16E
100
AcDbEntity
8
SK2
62
256
6
ByLayer
370
13
48
1
60
0
100
AcDbLine
10
3
20
-9.0875
30
0
11
3
21
-37.952229
31
0
39
0
210
0
220
0
230
1
0
LINE
5
16F
100
AcDbEntity
8
SK2
62
256
6
ByLayer
370
13
48
1
60
0
100
AcDbLine
10
106.5
20
-35.952229
30
0
11
3
21
-35.952229
31
0
39
0
210
0
220
0
230
1
0
SOLID
5
170
100
AcDbEntity
8
SK2
62
256
6
ByLayer
370
18
48
1
60
0
100
AcDbTrace
10
106.5
20
-35.952229
30
0
11
103.000002
21
-36.413013
31
0
12
102.999998
22
-35.491446
32
0
13
102.999998
23
-35.491446
33
0
39
0
210
0
220
0
230
1
0
SOLID
5
171
100
AcDbEntity
8
SK2
62
256
6
ByLayer
370
18
48
1
60
0
100
AcDbTrace
10
3
20
-35.952229
30
0
11
6.499998
21
-35.491446
31
0
12
6.500002
22
-36.413013
32
0
13
6.500002
23
-36.413013
33
0
39
0
210
0
220
0
230
1
0
ENDBLK
5
173
100
AcDbEntity
8
0
100
AcDbBlockEnd
0
BLOCK
5
178
100
AcDbEntity
8
0
100
AcDbBlockBegin
2
*D5
70
1
10
0
20
0
30
0
3
*D5
0
LINE
5
17A
100
AcDbEntity
8
0
62
256
6
ByLayer
370
-2
48
1
60
0
100
AcDbLine
10
-50
20
-11.5875
30
0
11
-50
21
-37.952229
31
0
39
0
210
0
220
0
230
1
0
LINE
5
17B
100
AcDbEntity
8
0
62
256
6
ByLayer
370
-2
48
1
60
0
100
AcDbLine
10
0
20
-11.5875
30
0
11
0
21
-37.952229
31
0
39
0
210
0
220
0
230
1
0
LINE
5
17C
100
AcDbEntity
8
0
62
256
6
ByLayer
370
-2
48
1
60
0
100
AcDbLine
10
-46.5
20
-35.952229
30
0
11
-3.5
21
-35.952229
31
0
39
0
210
0
220
0
230
1
0
SOLID
5
17D
100
AcDbEntity
8
0
62
256
6
ByLayer
370
-1
48
1
60
0
100
AcDbTrace
10
-46.5
20
-35.368896
30
0
11
-46.5
21
-36.535563
31
0
12
-50
22
-35.952229
32
0
13
-50
23
-35.952229
33
0
39
0
210
0
220
0
230
1
0
SOLID
5
17E
100
AcDbEntity
8
0
62
256
6
ByLayer
370
-1
48
1
60
0
100
AcDbTrace
10
-3.5
20
-36.535563
30
0
11
-3.5
21
-35.368896
31
0
12
0
22
-35.952229
32
0
13
0
23
-35.952229
33
0
39
0
210
0
220
0
230
1
0
MTEXT
5
17F
100
AcDbEntity
8
0
62
256
6
ByLayer
370
18
48
1
60
0
100
AcDbMText
10
-25
20
-29.952229
30
0
210
0
220
0
230
1
1
\A1;50
40
3
41
0
44
1
50
0
71
5
72
5
7
iso_b_vert
0
POINT
5
180
100
AcDbEntity
8
Defpoints
62
0
6
ByLayer
370
-1
48
1
60
0
100
AcDbPoint
10
-50
20
-10
30
0
39
0
210
0
220
0
230
1
50
360
0
POINT
5
181
100
AcDbEntity
8
Defpoints
62
0
6
ByLayer
370
-1
48
1
60
0
100
AcDbPoint
10
0
20
-10
30
0
39
0
210
0
220
0
230
1
50
360
0
POINT
5
182
100
AcDbEntity
8
Defpoints
62
0
6
ByLayer
370
-1
48
1
60
0
100
AcDbPoint
10
0
20
-35.952229
30
0
39
0
210
0
220
0
230
1
50
360
0
ENDBLK
5
179
100
AcDbEntity
8
0
100
AcDbBlockEnd
0
BLOCK
5
18A
100
AcDbEntity
8
0
100
AcDbBlockBegin
2
_U2
70
0
10
0
20
0
30
0
3
_U2
0
MTEXT
5
184
100
AcDbEntity
8
SK2
62
256
6
ByLayer
370
18
48
1
60
0
100
AcDbMText
10
-29.48237
20
-35.067115
30
0
210
0
220
0
230
1
1
\W0.7468;50.00
40
3
41
0
44
1.084337
50
0
71
7
72
5
7
iso_b_vert
0
LINE
5
185
100
AcDbEntity
8
SK2
62
256
6
ByLayer
370
13
48
1
60
0
100
AcDbLine
10
-50
20
-11.5875
30
0
11
-50
21
-37.952229
31
0
39
0
210
0
220
0
230
1
0
LINE
5
186
100
AcDbEntity
8
SK2
62
256
6
ByLayer
370
13
48
1
60
0
100
AcDbLine
10
0
20
-11.5875
30
0
11
0
21
-37.952229
31
0
39
0
210
0
220
0
230
1
0
LINE
5
187
100
AcDbEntity
8
SK2
62
256
6
ByLayer
370
13
48
1
60
0
100
AcDbLine
10
-50
20
-35.952229
30
0
11
0
21
-35.952229
31
0
39
0
210
0
220
0
230
1
0
SOLID
5
188
100
AcDbEntity
8
SK2
62
256
6
ByLayer
370
18
48
1
60
0
100
AcDbTrace
10
-50
20
-35.952229
30
0
11
-46.500002
21
-35.491446
31
0
12
-46.499998
22
-36.413013
32
0
13
-46.499998
23
-36.413013
33
0
39
0
210
0
220
0
230
1
0
SOLID
5
189
100
AcDbEntity
8
SK2
62
256
6
ByLayer
370
18
48
1
60
0
100
AcDbTrace
10
0
20
-35.952229
30
0
11
-3.499998
21
-36.413013
31
0
12
-3.500002
22
-35.491446
32
0
13
-3.500002
23
-35.491446
33
0
39
0
210
0
220
0
230
1
0
ENDBLK
5
18B
100
AcDbEntity
8
0
100
AcDbBlockEnd
0
BLOCK
5
190
100
AcDbEntity
8
0
100
AcDbBlockBegin
2
*D7
70
1
10
0
20
0
30
0
3
*D7
0
LINE
5
192
100
AcDbEntity
8
0
62
256
6
ByLayer
370
-2
48
1
60
0
100
AcDbLine
10
106.5
20
1.5875
30
0
11
106.5
21
34.952229
31
0
39
0
210
0
220
0
230
1
0
LINE
5
193
100
AcDbEntity
8
0
62
256
6
ByLayer
370
-2
48
1
60
0
100
AcDbLine
10
20
20
9.0875
30
0
11
20
21
34.952229
31
0
39
0
210
0
220
0
230
1
0
LINE
5
194
100
AcDbEntity
8
0
62
256
6
ByLayer
370
-2
48
1
60
0
100
AcDbLine
10
103
20
32.952229
30
0
11
23.5
21
32.952229
31
0
39
0
210
0
220
0
230
1
0
SOLID
5
195
100
AcDbEntity
8
0
62
256
6
ByLayer
370
-1
48
1
60
0
100
AcDbTrace
10
103
20
32.368896
30
0
11
103
21
33.535563
31
0
12
106.5
22
32.952229
32
0
13
106.5
23
32.952229
33
0
39
0
210
0
220
0
230
1
0
SOLID
5
196
100
AcDbEntity
8
0
62
256
6
ByLayer
370
-1
48
1
60
0
100
AcDbTrace
10
23.5
20
33.535563
30
0
11
23.5
21
32.368896
31
0
12
20
22
32.952229
32
0
13
20
23
32.952229
33
0
39
0
210
0
220
0
230
1
0
MTEXT
5
197
100
AcDbEntity
8
0
62
256
6
ByLayer
370
18
48
1
60
0
100
AcDbMText
10
63.25
20
38.952229
30
0
210
0
220
0
230
1
1
\A1;86.5
40
3
41
0
44
1
50
0
71
5
72
5
7
iso_b_vert
0
POINT
5
198
100
AcDbEntity
8
Defpoints
62
0
6
ByLayer
370
-1
48
1
60
0
100
AcDbPoint
10
106.5
20
0
30
0
39
0
210
0
220
0
230
1
50
360
0
POINT
5
199
100
AcDbEntity
8
Defpoints
62
0
6
ByLayer
370
-1
48
1
60
0
100
AcDbPoint
10
20
20
7.5
30
0
39
0
210
0
220
0
230
1
50
360
0
POINT
5
19A
100
AcDbEntity
8
Defpoints
62
0
6
ByLayer
370
-1
48
1
60
0
100
AcDbPoint
10
20
20
32.952229
30
0
39
0
210
0
220
0
230
1
50
360
0
ENDBLK
5
191
100
AcDbEntity
8
0
100
AcDbBlockEnd
0
BLOCK
5
1A2
100
AcDbEntity
8
0
100
AcDbBlockBegin
2
_U3
70
0
10
0
20
0
30
0
3
_U3
0
MTEXT
5
19C
100
AcDbEntity
8
SK2
62
256
6
ByLayer
370
18
48
1
60
0
100
AcDbMText
10
58.76763
20
33.837344
30
0
210
0
220
0
230
1
1
\W0.7468;86.50
40
3
41
0
44
1.084337
50
0
71
7
72
5
7
iso_b_vert
0
LINE
5
19D
100
AcDbEntity
8
SK2
62
256
6
ByLayer
370
13
48
1
60
0
100
AcDbLine
10
106.5
20
1.5875
30
0
11
106.5
21
34.952229
31
0
39
0
210
0
220
0
230
1
0
LINE
5
19E
100
AcDbEntity
8
SK2
62
256
6
ByLayer
370
13
48
1
60
0
100
AcDbLine
10
20
20
9.0875
30
0
11
20
21
34.952229
31
0
39
0
210
0
220
0
230
1
0
LINE
5
19F
100
AcDbEntity
8
SK2
62
256
6
ByLayer
370
13
48
1
60
0
100
AcDbLine
10
106.5
20
32.952229
30
0
11
20
21
32.952229
31
0
39
0
210
0
220
0
230
1
0
SOLID
5
1A0
100
AcDbEntity
8
SK2
62
256
6
ByLayer
370
18
48
1
60
0
100
AcDbTrace
10
106.5
20
32.952229
30
0
11
103.000002
21
32.491446
31
0
12
102.999998
22
33.413013
32
0
13
102.999998
23
33.413013
33
0
39
0
210
0
220
0
230
1
0
SOLID
5
1A1
100
AcDbEntity
8
SK2
62
256
6
ByLayer
370
18
48
1
60
0
100
AcDbTrace
10
20
20
32.952229
30
0
11
23.499998
21
33.413013
31
0
12
23.500002
22
32.491446
32
0
13
23.500002
23
32.491446
33
0
39
0
210
0
220
0
230
1
0
ENDBLK
5
1A3
100
AcDbEntity
8
0
100
AcDbBlockEnd
0
ENDSEC
0
SECTION
2
ENTITIES
0
ARC
5
C0
100
AcDbEntity
8
SK2
62
256
6
ByLayer
370
13
48
1
60
0
100
AcDbCircle
39
0
10
106.5
20
0
30
0
40
19
210
0
220
0
230
1
100
AcDbArc
50
290
51
70
0
ELLIPSE
5
C1
100
AcDbEntity
8
SK1
62
256
6
ByLayer
370
18
48
1
60
0
100
AcDbEllipse
10
209.817277
20
0
30
0
11
286.362532830084
21
-3.24477297310427E-13
31
0
210
0
220
0
230
1
40
0.034921
41
2.47357625657654
42
2.64710298745217
0
ELLIPSE
5
C2
100
AcDbEntity
8
SK1
62
256
6
ByLayer
370
18
48
1
60
0
100
AcDbEllipse
10
-22.723687
20
0
30
0
11
10.7236871002449
21
-1.21510065339267E-14
31
0
210
0
220
0
230
1
40
0.932515
41
-0.59537570803654
42
0.595375708036542
0
ELLIPSE
5
C3
100
AcDbEntity
8
SK1
62
256
6
ByLayer
370
18
48
1
60
0
100
AcDbEllipse
10
209.817277
20
0
30
0
11
286.362532824103
21
-3.2447729730365E-13
31
0
210
0
220
0
230
1
40
0.034921
41
-2.64710298745053
42
-2.47357625657208
0
ELLIPSE
5
C4
100
AcDbEntity
8
SK1
62
256
6
ByLayer
370
18
48
1
60
0
100
AcDbEllipse
10
-34.674849
20
0
30
0
11
-1.83690953073338E-15
21
-9.99999999999897
31
0
210
0
220
0
230
1
40
0.932515
41
-1.94446667349865
42
-1.19712598009114
0
POINT
5
70
100
AcDbEntity
8
80
62
256
6
ByLayer
370
18
48
1
60
0
100
AcDbPoint
10
0
20
0
30
0
39
0
210
0
220
0
230
1
50
360
0
POINT
5
72
100
AcDbEntity
8
81
62
256
6
ByLayer
370
18
48
1
60
0
100
AcDbPoint
10
106.5
20
0
30
0
39
0
210
0
220
0
230
1
50
360
0
POINT
5
74
100
AcDbEntity
8
1
62
256
6
ByLayer
370
18
48
1
60
1
100
AcDbPoint
10
-50
20
-10
30
0
39
0
210
0
220
0
230
1
50
360
0
POINT
5
76
100
AcDbEntity
8
1
62
256
6
ByLayer
370
18
48
1
60
1
100
AcDbPoint
10
106.5
20
0
30
0
39
0
210
0
220
0
230
1
50
360
0
POINT
5
77
100
AcDbEntity
8
1
62
256
6
ByLayer
370
18
48
1
60
1
100
AcDbPoint
10
106.5
20
0
30
0
39
0
210
0
220
0
230
1
50
360
0
POINT
5
78
100
AcDbEntity
8
1
62
256
6
ByLayer
370
18
48
1
60
1
100
AcDbPoint
10
3
20
-7.5
30
0
39
0
210
0
220
0
230
1
50
360
0
POINT
5
79
100
AcDbEntity
8
1
62
256
6
ByLayer
370
18
48
1
60
1
100
AcDbPoint
10
-50
20
-10
30
0
39
0
210
0
220
0
230
1
50
360
0
POINT
5
7A
100
AcDbEntity
8
1
62
256
6
ByLayer
370
18
48
1
60
1
100
AcDbPoint
10
0
20
-10
30
0
39
0
210
0
220
0
230
1
50
360
0
POINT
5
7B
100
AcDbEntity
8
1
62
256
6
ByLayer
370
18
48
1
60
1
100
AcDbPoint
10
106.5
20
0
30
0
39
0
210
0
220
0
230
1
50
360
0
POINT
5
7C
100
AcDbEntity
8
1
62
256
6
ByLayer
370
18
48
1
60
1
100
AcDbPoint
10
20
20
7.5
30
0
39
0
210
0
220
0
230
1
50
360
0
SPLINE
5
C5
100
AcDbEntity
8
1
62
256
6
ByLayer
370
18
48
1
60
0
100
AcDbSpline
70
4
71
3
72
14
73
10
40
0
40
0
40
0
40
0
40
0.25
40
0.25
40
0.5
40
0.5
40
0.75
40
0.75
40
1
40
1
40
1
40
1
41
1
10
13.2911082975523
20
6.38811231593613
30
0
41
1
10
13.0118928598517
20
6.43467037092339
30
0
41
1
10
12.734372410647
20
6.48115566953942
30
0
41
1
10
12.1818444659201
20
6.57219846989969
30
0
41
1
10
11.9068331292845
20
6.61675675446574
30
0
41
1
10
11.3587664860839
20
6.70273111760483
30
0
41
1
10
11.0857092684885
20
6.74415274376014
30
0
41
1
10
10.5414135254325
20
6.82311906319768
30
0
41
1
10
10.2701751458864
20
6.86067278181804
30
0
41
1
10
10
20
6.8960482364734
30
0
0
SPLINE
5
C6
100
AcDbEntity
8
1
62
256
6
ByLayer
370
18
48
1
60
0
100
AcDbSpline
70
4
71
3
72
12
73
8
40
0
40
0
40
0
40
0
40
0.673996450585116
40
0.673996450585116
40
0.842495563231378
40
0.842495563231378
40
1
40
1
40
1
40
1
41
1
10
95.5
20
-7.41565425091471
30
0
41
1
10
96.1897744709123
20
-7.45285633073362
30
0
41
1
10
96.8793358968202
20
-7.47764934346552
30
0
41
1
10
97.740563132456
20
-7.49307974030842
30
0
41
1
10
97.9127729855637
20
-7.49538384689043
30
0
41
1
10
98.2458794851379
20
-7.49831303838104
30
0
41
1
10
98.4067649000595
20
-7.49903705736941
30
0
41
1
10
98.5676716434864
20
-7.49906351150455
30
0
0
SPLINE
5
C7
100
AcDbEntity
8
1
62
256
6
ByLayer
370
18
48
1
60
0
100
AcDbSpline
70
4
71
3
72
165
73
161
40
0
40
0
40
0
40
0
40
0.0033115739221899
40
0.0193871936976382
40
0.0193871936976382
40
0.0274250035853626
40
0.0274250035853626
40
0.035462813473087
40
0.035462813473087
40
0.0515384332485363
40
0.0515384332485363
40
0.0676140530239856
40
0.0676140530239856
40
0.0836896727994349
40
0.0836896727994349
40
0.0917274826871593
40
0.0917274826871593
40
0.0997652925748837
40
0.0997652925748837
40
0.115840912350332
40
0.115840912350332
40
0.13191653212578
40
0.13191653212578
40
0.147992151901229
40
0.147992151901229
40
0.156029961788953
40
0.156029961788953
40
0.164067771676676
40
0.164067771676676
40
0.180143391452125
40
0.180143391452125
40
0.196219011227573
40
0.196219011227573
40
0.212294631003022
40
0.212294631003022
40
0.220332440890746
40
0.220332440890746
40
0.22837025077847
40
0.22837025077847
40
0.244445870553919
40
0.244445870553919
40
0.260521490329367
40
0.260521490329367
40
0.276597110104815
40
0.276597110104815
40
0.284634919992539
40
0.284634919992539
40
0.292672729880263
40
0.292672729880263
40
0.308748349655711
40
0.308748349655711
40
0.32482396943116
40
0.32482396943116
40
0.340899589206608
40
0.340899589206608
40
0.348937399094332
40
0.348937399094332
40
0.356975208982056
40
0.356975208982056
40
0.373050828757504
40
0.373050828757504
40
0.389126448532952
40
0.389126448532952
40
0.397164258420676
40
0.397164258420676
40
0.4052020683084
40
0.4052020683084
40
0.413239878196125
40
0.413239878196125
40
0.421277688083849
40
0.421277688083849
40
0.437353307859297
40
0.437353307859297
40
0.453428927634745
40
0.453428927634745
40
0.461466737522469
40
0.461466737522469
40
0.469504547410194
40
0.469504547410194
40
0.477542357297918
40
0.477542357297918
40
0.485580167185642
40
0.485580167185642
40
0.517731406736539
40
0.517731406736539
40
0.533807026511987
40
0.533807026511987
40
0.541844836399711
40
0.541844836399711
40
0.549882646287436
40
0.549882646287436
40
0.582033885838334
40
0.582033885838334
40
0.590071695726058
40
0.590071695726058
40
0.598109505613782
40
0.598109505613782
40
0.606147315501507
40
0.606147315501507
40
0.614185125389231
40
0.614185125389231
40
0.646336364940128
40
0.646336364940128
40
0.654374174827853
40
0.654374174827853
40
0.662411984715577
40
0.662411984715577
40
0.670449794603302
40
0.670449794603302
40
0.678487604491026
40
0.678487604491026
40
0.710638844041924
40
0.710638844041924
40
0.718676653929649
40
0.718676653929649
40
0.726714463817373
40
0.726714463817373
40
0.742790083592823
40
0.742790083592823
40
0.758865703368273
40
0.758865703368273
40
0.766903513255997
40
0.766903513255997
40
0.774941323143722
40
0.774941323143722
40
0.782979133031447
40
0.782979133031447
40
0.791016942919172
40
0.791016942919172
40
0.80709256269462
40
0.80709256269462
40
0.823168182470069
40
0.823168182470069
40
0.831205992357793
40
0.831205992357793
40
0.839243802245518
40
0.839243802245518
40
0.847281612133243
40
0.847281612133243
40
0.855319422020968
40
0.855319422020968
40
0.871395041796416
40
0.871395041796416
40
0.887470661571865
40
0.887470661571865
40
0.903546281347313
40
0.903546281347313
40
0.911584091235037
40
0.911584091235037
40
0.919621901122761
40
0.919621901122761
40
0.935697520898209
40
0.935697520898209
40
0.967848760449105
40
0.967848760449105
40
0.975886570336829
40
0.975886570336829
40
0.983924380224553
40
0.983924380224553
40
1
40
1
40
1
40
1
41
1
10
18.7461035215136
20
5.2831536605423
30
0
41
1
10
18.8307711137996
20
5.30316534953121
30
0
41
1
10
19.3264115804413
20
5.41952610078692
30
0
41
1
10
19.8218222615235
20
5.53128912248192
30
0
41
1
10
20.4376528592236
20
5.66572275155772
30
0
41
1
10
20.6428714189242
20
5.70976950297668
30
0
41
1
10
21.0531776541283
20
5.79633889650111
30
0
41
1
10
21.2582385731896
20
5.83890537672337
30
0
41
1
10
21.873460003451
20
5.96388996537775
30
0
41
1
10
22.2839276750385
20
6.04316266401696
30
0
41
1
10
23.1053077553609
20
6.19409841750854
30
0
41
1
10
23.5162105364129
20
6.26577482126595
30
0
41
1
10
24.3383016437654
20
6.40177522740393
30
0
41
1
10
24.7494869918012
20
6.46610373193298
30
0
41
1
10
25.3663663171541
20
6.55714697181949
30
0
41
1
10
25.5720102999334
20
6.58658431434264
30
0
41
1
10
25.9833215460834
20
6.64362550823495
30
0
41
1
10
26.1889662550629
20
6.67126223322629
30
0
41
1
10
26.8058731743089
20
6.75089198942942
30
0
41
1
10
27.2173367119497
20
6.79957646031025
30
0
41
1
10
28.040369206939
20
6.88863401875477
30
0
41
1
10
28.4519478045642
20
6.92899446405431
30
0
41
1
10
29.2750874741016
20
7.00152905734842
30
0
41
1
10
29.6866443686335
20
7.03370646529859
30
0
41
1
10
30.3038506626086
20
7.07581177029951
30
0
41
1
10
30.5095652645379
20
7.08881815908273
30
0
41
1
10
30.9209400797294
20
7.11274937478899
30
0
41
1
10
31.1265195142935
20
7.12367068749904
30
0
41
1
10
31.7434585465273
20
7.15306475292019
30
0
41
1
10
32.1549318827072
20
7.16824262023917
30
0
41
1
10
32.9779781271772
20
7.19004681109749
30
0
41
1
10
33.3895623503175
20
7.19666709699328
30
0
41
1
10
34.2127080518613
20
7.20138220333021
30
0
41
1
10
34.6242647652084
20
7.19947726122007
30
0
41
1
10
35.2414709902567
20
7.19010825420813
30
0
41
1
10
35.4472090972389
20
7.18589727225577
30
0
41
1
10
35.8584925558671
20
7.17527196915393
30
0
41
1
10
36.0640669033808
20
7.16886073856409
30
0
41
1
10
36.6810301883868
20
7.1464752470732
30
0
41
1
10
37.0925099826792
20
7.12733138018785
30
0
41
1
10
37.9155694598632
20
7.08069178751381
30
0
41
1
10
38.3271608787623
20
7.05319873773433
30
0
41
1
10
39.1503185589471
20
6.98978703149453
30
0
41
1
10
39.5618799531045
20
6.95386504890396
30
0
41
1
10
40.179096263628
20
6.89346212377961
30
0
41
1
10
40.3848037469856
20
6.87222842207692
30
0
41
1
10
40.7960201010531
20
6.82761908353999
30
0
41
1
10
41.0016162333202
20
6.80429452235771
30
0
41
1
10
41.6186121459911
20
6.73152936665102
30
0
41
1
10
42.0301025846997
20
6.67920137797432
30
0
41
1
10
42.8531825034488
20
6.56682721139592
30
0
41
1
10
43.2647830331073
20
6.5067915615432
30
0
41
1
10
44.0879529497338
20
6.37882593660947
30
0
41
1
10
44.4995186412412
20
6.31088955242544
30
0
41
1
10
45.1167402001418
20
6.20279902464719
30
0
41
1
10
45.3223587118934
20
6.16571288152912
30
0
41
1
10
45.7335345914989
20
6.08968241489208
30
0
41
1
10
45.9391576559858
20
6.05083917828887
30
0
41
1
10
46.5561798875512
20
5.93194264803961
30
0
41
1
10
46.9676792452677
20
5.84944735487545
30
0
41
1
10
47.7907808110366
20
5.67777974286611
30
0
41
1
10
48.2023925971462
20
5.5886228298275
30
0
41
1
10
48.8197848356614
20
5.44967473499139
30
0
41
1
10
49.0255776339929
20
5.40248795560944
30
0
41
1
10
49.4371366546181
20
5.30632387889827
30
0
41
1
10
49.642928801545
20
5.25734061229511
30
0
41
1
10
50.0543150416058
20
5.15757320131033
30
0
41
1
10
50.2598789875531
20
5.10672172811454
30
0
41
1
10
50.6710598456649
20
5.00370613821514
30
0
41
1
10
50.8767067416765
20
4.95160670860091
30
0
41
1
10
51.4937626403747
20
4.79345615628372
30
0
41
1
10
51.9052751845593
20
4.68553204633244
30
0
41
1
10
52.7284043569611
20
4.46439337373258
30
0
41
1
10
53.1400284451101
20
4.35119492977304
30
0
41
1
10
53.7574348495122
20
4.17715935084553
30
0
41
1
10
53.9632317925173
20
4.11843957541842
30
0
41
1
10
54.3747991800486
20
3.99953175975412
30
0
41
1
10
54.5805658240045
20
3.93934499391034
30
0
41
1
10
54.9918541785256
20
3.8175149166089
30
0
41
1
10
55.1973823127511
20
3.75581547196612
30
0
41
1
10
55.6085890283446
20
3.6317861725025
30
0
41
1
10
55.8142475333545
20
3.56940957483295
30
0
41
1
10
56.842721386168
20
3.25551999626163
30
0
41
1
10
57.6660373579483
20
2.99793298932542
30
0
41
1
10
58.9008918174508
20
2.59950019470881
30
0
41
1
10
59.3125908005987
20
2.46461829249739
30
0
41
1
10
59.9291633200095
20
2.25927096479674
30
0
41
1
10
60.1345807795973
20
2.19037920317368
30
0
41
1
10
60.5455111988052
20
2.05257599089876
30
0
41
1
10
60.7509895977357
20
1.98356847805124
30
0
41
1
10
61.778358584522
20
1.63776250649235
30
0
41
1
10
62.600160504157
20
1.35861900127509
30
0
41
1
10
63.6265510269624
20
1.00446756827253
30
0
41
1
10
63.8317854940819
20
0.933373632274282
30
0
41
1
10
64.2421524752604
20
0.790613389373448
30
0
41
1
10
64.4472755303304
20
0.718919843602606
30
0
41
1
10
64.8574516899425
20
0.575048291359536
30
0
41
1
10
65.0625605457329
20
0.503030465728074
30
0
41
1
10
65.4730154907103
20
0.359398328190338
30
0
41
1
10
65.678331396107
20
0.287697242100904
30
0
41
1
10
66.7052601126615
20
-0.0704943974461685
30
0
41
1
10
67.5279141115265
20
-0.356046721087807
30
0
41
1
10
68.5568884789037
20
-0.713897587657783
30
0
41
1
10
68.7627178680856
20
-0.785514238833372
30
0
41
1
10
69.1741205329552
20
-0.928770923527424
30
0
41
1
10
69.3797111036809
20
-1.00048429444027
30
0
41
1
10
69.7908178464286
20
-1.14365671876817
30
0
41
1
10
69.9964023727775
20
-1.21492174941312
30
0
41
1
10
70.4076988721345
20
-1.35663221705016
30
0
41
1
10
70.6133954059271
20
-1.42712155760813
30
0
41
1
10
71.6420302833031
20
-1.77800269769088
30
0
41
1
10
72.4654472612522
20
-2.05367296544469
30
0
41
1
10
73.4945886875552
20
-2.39401103460281
30
0
41
1
10
73.7003346695342
20
-2.46183830552829
30
0
41
1
10
74.1116472976536
20
-2.59704126355362
30
0
41
1
10
74.3171827757353
20
-2.66449914648592
30
0
41
1
10
74.9338400844917
20
-2.86532707455021
30
0
41
1
10
75.3451967888969
20
-2.99667380542118
30
0
41
1
10
76.1681505818673
20
-3.25507881789326
30
0
41
1
10
76.5797517962568
20
-3.38212486278115
30
0
41
1
10
77.1972337377466
20
-3.56974202313691
30
0
41
1
10
77.4030739020716
20
-3.63178973926944
30
0
41
1
10
77.8147599434516
20
-3.75494740599464
30
0
41
1
10
78.0206311997863
20
-3.81606516428519
30
0
41
1
10
78.432204061151
20
-3.93734747899816
30
0
41
1
10
78.637908404549
20
-3.99751247571055
30
0
41
1
10
79.0491385117746
20
-4.1169078495825
30
0
41
1
10
79.254637789814
20
-4.17619764078711
30
0
41
1
10
79.8713526159836
20
-4.35151810067018
30
0
41
1
10
80.2827446152917
20
-4.46511430607077
30
0
41
1
10
81.1057529213446
20
-4.68648789119013
30
0
41
1
10
81.5173799713695
20
-4.79423907925343
30
0
41
1
10
82.1348971164845
20
-4.95170438396056
30
0
41
1
10
82.3407482948207
20
-5.00349966453615
30
0
41
1
10
82.7524554504341
20
-5.10573584905521
30
0
41
1
10
82.9583066944118
20
-5.15617574802926
30
0
41
1
10
83.3697939396262
20
-5.25566862437589
30
0
41
1
10
83.5754551949556
20
-5.3047279451722
30
0
41
1
10
83.9865997466787
20
-5.40147537812655
30
0
41
1
10
84.1920948174229
20
-5.44913680613118
30
0
41
1
10
84.8088660133341
20
-5.58902386904842
30
0
41
1
10
85.2202855398062
20
-5.67844028107174
30
0
41
1
10
86.0433477863259
20
-5.85019020415245
30
0
41
1
10
86.4550022385538
20
-5.93250106097213
30
0
41
1
10
87.2784111186984
20
-6.09023930531009
30
0
41
1
10
87.6902551203888
20
-6.16568903152992
30
0
41
1
10
88.3072047956717
20
-6.27363311210138
30
0
41
1
10
88.512739647338
20
-6.30875573494811
30
0
41
1
10
88.9236112171543
20
-6.37721289972262
30
0
41
1
10
89.1289977811231
20
-6.41047631700596
30
0
41
1
10
89.745348599938
20
-6.50695801623695
30
0
41
1
10
90.156366583797
20
-6.56706656543372
30
0
41
1
10
91.3894318973889
20
-6.73541638483434
30
0
41
1
10
92.2115312250522
20
-6.83171671800756
30
0
41
1
10
93.2384906127315
20
-6.93248814108691
30
0
41
1
10
93.4438326216916
20
-6.95166666771212
30
0
41
1
10
93.8545381439837
20
-6.98795295266154
30
0
41
1
10
94.0599693187672
20
-7.00501193610785
30
0
41
1
10
94.6766385733181
20
-7.05288203699655
30
0
41
1
10
95.0881656762357
20
-7.08045575717858
30
0
41
1
10
95.4999999999992
20
-7.10380707032738
30
0
0
SPLINE
5
C8
100
AcDbEntity
8
1
62
256
6
ByLayer
370
18
48
1
60
0
100
AcDbSpline
70
4
71
3
72
150
73
146
40
0
40
0
40
0
40
0
40
0.0123818011719845
40
0.0123818011719845
40
0.0306710270762051
40
0.0306710270762051
40
0.0398156400283154
40
0.0398156400283154
40
0.0489602529804257
40
0.0489602529804257
40
0.0855387047888668
40
0.0855387047888668
40
0.0946833177409776
40
0.0946833177409776
40
0.103827930693088
40
0.103827930693088
40
0.112972543645199
40
0.112972543645199
40
0.12211715659731
40
0.12211715659731
40
0.158695608405753
40
0.158695608405753
40
0.167840221357864
40
0.167840221357864
40
0.176984834309974
40
0.176984834309974
40
0.186129447262085
40
0.186129447262085
40
0.195274060214196
40
0.195274060214196
40
0.231852512022638
40
0.231852512022638
40
0.240997124974749
40
0.240997124974749
40
0.25014173792686
40
0.25014173792686
40
0.268430963831081
40
0.268430963831081
40
0.305009415639523
40
0.305009415639523
40
0.314154028591634
40
0.314154028591634
40
0.323298641543744
40
0.323298641543744
40
0.341587867447965
40
0.341587867447965
40
0.359877093352186
40
0.359877093352186
40
0.378166319256408
40
0.378166319256408
40
0.387310932208518
40
0.387310932208518
40
0.396455545160629
40
0.396455545160629
40
0.41474477106485
40
0.41474477106485
40
0.433033996969071
40
0.433033996969071
40
0.442178609921182
40
0.442178609921182
40
0.451323222873293
40
0.451323222873293
40
0.460467835825403
40
0.460467835825403
40
0.469612448777514
40
0.469612448777514
40
0.487901674681736
40
0.487901674681736
40
0.497046287633847
40
0.497046287633847
40
0.506190900585958
40
0.506190900585958
40
0.515335513538069
40
0.515335513538069
40
0.52448012649018
40
0.52448012649018
40
0.561058578298626
40
0.561058578298626
40
0.579347804202849
40
0.579347804202849
40
0.588492417154961
40
0.588492417154961
40
0.597637030107072
40
0.597637030107072
40
0.63421548191552
40
0.63421548191552
40
0.643360094867632
40
0.643360094867632
40
0.652504707819744
40
0.652504707819744
40
0.661649320771856
40
0.661649320771856
40
0.670793933723967
40
0.670793933723967
40
0.689083159628191
40
0.689083159628191
40
0.698227772580303
40
0.698227772580303
40
0.707372385532415
40
0.707372385532415
40
0.716516998484528
40
0.716516998484528
40
0.72566161143664
40
0.72566161143664
40
0.734806224388752
40
0.734806224388752
40
0.743950837340864
40
0.743950837340864
40
0.762240063245088
40
0.762240063245088
40
0.780529289149311
40
0.780529289149311
40
0.789673902101423
40
0.789673902101423
40
0.798818515053535
40
0.798818515053535
40
0.817107740957759
40
0.817107740957759
40
0.835396966861982
40
0.835396966861982
40
0.844541579814095
40
0.844541579814095
40
0.853686192766207
40
0.853686192766207
40
0.862830805718319
40
0.862830805718319
40
0.871975418670431
40
0.871975418670431
40
0.890264644574655
40
0.890264644574655
40
0.899409257526767
40
0.899409257526767
40
0.90855387047888
40
0.90855387047888
40
0.926843096383105
40
0.926843096383105
40
0.935987709335217
40
0.935987709335217
40
0.945132322287329
40
0.945132322287329
40
0.963421548191553
40
0.963421548191553
40
0.981710774095776
40
0.981710774095776
40
1
40
1
40
1
40
1
41
1
10
83.5223912259069
20
-5.28727722555897
30
0
41
1
10
83.2324406587849
20
-5.35585036870793
30
0
41
1
10
82.9424667819899
20
-5.42282554626044
30
0
41
1
10
82.2241357025658
20
-5.58484059917868
30
0
41
1
10
81.7957632404541
20
-5.67801440956887
30
0
41
1
10
81.1532176497572
20
-5.81265165562053
30
0
41
1
10
80.9391116561582
20
-5.85668085983477
30
0
41
1
10
80.5110368816365
20
-5.94288162426656
30
0
41
1
10
80.2970076744526
20
-5.98497162223984
30
0
41
1
10
79.2266795479468
20
-6.19006036125802
30
0
41
1
10
78.3700587967081
20
-6.33742984354814
30
0
41
1
10
77.2991317321872
20
-6.50140213043963
30
0
41
1
10
77.0849396215378
20
-6.5331806495241
30
0
41
1
10
76.6565521785265
20
-6.59470391827398
30
0
41
1
10
76.4423436930047
20
-6.62444960293107
30
0
41
1
10
76.0141490376013
20
-6.68186389164021
30
0
41
1
10
75.8001530132436
20
-6.70954969925626
30
0
41
1
10
75.372081045706
20
-6.76258090589599
30
0
41
1
10
75.1580191806125
20
-6.78794477519057
30
0
41
1
10
74.0875989140154
20
-6.90908044046716
30
0
41
1
10
73.2309072104855
20
-6.98789188695426
30
0
41
1
10
72.15990891402
20
-7.06408225488517
30
0
41
1
10
71.9456792212196
20
-7.07820072831245
30
0
41
1
10
71.5173406620235
20
-7.10417144762351
30
0
41
1
10
71.3032646718219
20
-7.11602728887763
30
0
41
1
10
70.8752240117554
20
-7.13742576223552
30
0
41
1
10
70.6612088011927
20
-7.14694750545846
30
0
41
1
10
70.2330986958517
20
-7.16362599326357
30
0
41
1
10
70.0190176483623
20
-7.17078863023312
30
0
41
1
10
68.9485044029072
20
-7.20077276742856
30
0
41
1
10
68.0917334626174
20
-7.20620079705478
30
0
41
1
10
67.0206529812701
20
-7.18968807908198
30
0
41
1
10
66.806496467386
20
-7.1852151439511
30
0
41
1
10
66.3784798242874
20
-7.17391179472989
30
0
41
1
10
66.1646096786605
20
-7.16707319298573
30
0
41
1
10
65.5229981899673
20
-7.1431130677324
30
0
41
1
10
65.0953092055695
20
-7.12255240325402
30
0
41
1
10
63.8124830660715
20
-7.04732816521499
30
0
41
1
10
62.9575692778948
20
-6.979207055768
30
0
41
1
10
61.8896583629633
20
-6.87117385797728
30
0
41
1
10
61.6761236851868
20
-6.84840695000213
30
0
41
1
10
61.2490797567738
20
-6.80059156629227
30
0
41
1
10
61.0355213623776
20
-6.77558795887262
30
0
41
1
10
60.3945917807129
20
-6.69745725148553
30
0
41
1
10
59.9670266219071
20
-6.64115995447148
30
0
41
1
10
59.111401549769
20
-6.52016943046689
30
0
41
1
10
58.6833401190041
20
-6.45547808476448
30
0
41
1
10
57.8267792390202
20
-6.3175858747789
30
0
41
1
10
57.3981852784072
20
-6.24435861102856
30
0
41
1
10
56.7559870344398
20
-6.12810886668609
30
0
41
1
10
56.542018505558
20
-6.08825392280943
30
0
41
1
10
56.1139950707129
20
-6.00676206306184
30
0
41
1
10
55.8999512275226
20
-5.96511143403069
30
0
41
1
10
55.2577344528551
20
-5.83745649984272
30
0
41
1
10
54.8294780040387
20
-5.74875005561671
30
0
41
1
10
53.9727976992056
20
-5.56410114420245
30
0
41
1
10
53.5443720698522
20
-5.46816226478765
30
0
41
1
10
52.9016599691655
20
-5.31869545613449
30
0
41
1
10
52.687424676619
20
-5.26794703725253
30
0
41
1
10
52.2591575552377
20
-5.16461540899925
30
0
41
1
10
52.0451100409647
20
-5.11200437203317
30
0
41
1
10
51.6171206827018
20
-5.00501200650859
30
0
41
1
10
51.4031296457812
20
-4.95073091694775
30
0
41
1
10
50.9750522194446
20
-4.84082613560093
30
0
41
1
10
50.7609812697259
20
-4.78517105391882
30
0
41
1
10
50.118685030283
20
-4.61608811938558
30
0
41
1
10
49.6903756253107
20
-4.50054709858543
30
0
41
1
10
49.0477857626048
20
-4.32293667918057
30
0
41
1
10
48.8335680407731
20
-4.26301631084271
30
0
41
1
10
48.4050994518001
20
-4.14171607681308
30
0
41
1
10
48.1908218917386
20
-4.08032755078654
30
0
41
1
10
47.7624265252298
20
-3.95610731348518
30
0
41
1
10
47.5483003933415
20
-3.89327453771782
30
0
41
1
10
47.120199888549
20
-3.76613303818681
30
0
41
1
10
46.9062440383913
20
-3.7017771661271
30
0
41
1
10
45.836233177712
20
-3.37779966200858
30
0
41
1
10
44.9796599982789
20
-3.11122303948935
30
0
41
1
10
43.694309853366
20
-2.69958173219166
30
0
41
1
10
43.2657009634541
20
-2.5603670671085
30
0
41
1
10
42.6233547588644
20
-2.34859450051098
30
0
41
1
10
42.4093220643813
20
-2.27747723310887
30
0
41
1
10
41.9813561312484
20
-2.13436402061672
30
0
41
1
10
41.767373788597
20
-2.06250217407728
30
0
41
1
10
40.697206615255
20
-1.70239042662266
30
0
41
1
10
39.8405098878608
20
-1.41106244059549
30
0
41
1
10
38.7692334879721
20
-1.04207676599216
30
0
41
1
10
38.5549600164285
20
-0.968035132109634
30
0
41
1
10
38.1266056048752
20
-0.81950582088956
30
0
41
1
10
37.9124966825992
20
-0.745009838898142
30
0
41
1
10
37.4844240176608
20
-0.595529946549789
30
0
41
1
10
37.2704789353505
20
-0.520492509748607
30
0
41
1
10
36.8424898775247
20
-0.370628161213574
30
0
41
1
10
36.6284565751593
20
-0.295770814654929
30
0
41
1
10
35.9862516465638
20
-0.0713919562713841
30
0
41
1
10
35.5579767571526
20
0.0779412735498113
30
0
41
1
10
34.9153996461818
20
0.301682610401713
30
0
41
1
10
34.701179784631
20
0.376219925282754
30
0
41
1
10
34.2726924601003
20
0.52522960170603
30
0
41
1
10
34.0583973927928
20
0.599711495318957
30
0
41
1
10
33.6299316047371
20
0.748585434562216
30
0
41
1
10
33.415763555083
20
0.822977804234341
30
0
41
1
10
32.987565258961
20
0.971693298949077
30
0
41
1
10
32.7735454766277
20
1.04604606574074
30
0
41
1
10
32.3455991549339
20
1.1945511651688
30
0
41
1
10
32.1316236057244
20
1.26856440892718
30
0
41
1
10
31.7035634981282
20
1.41582181367326
30
0
41
1
10
31.4894945923707
20
1.48911041590009
30
0
41
1
10
30.847184778931
20
1.70799924237161
30
0
41
1
10
30.418840086929
20
1.85262144406528
30
0
41
1
10
29.5619306959238
20
2.13942379778661
30
0
41
1
10
29.1332758134781
20
2.28162885918485
30
0
41
1
10
28.4907998861243
20
2.49304880459306
30
0
41
1
10
28.2767062572171
20
2.56321276404492
30
0
41
1
10
27.8486575941481
20
2.7029362911054
30
0
41
1
10
27.6347213557253
20
2.77254430474468
30
0
41
1
10
26.9927549698872
20
2.97948620354316
30
0
41
1
10
26.5646087004671
20
3.11505668551246
30
0
41
1
10
25.7080436303146
20
3.38164585687073
30
0
41
1
10
25.2796237795292
20
3.5126617500687
30
0
41
1
10
24.6368313935042
20
3.70587948860728
30
0
41
1
10
24.4225315059535
20
3.76973636553325
30
0
41
1
10
23.994107645338
20
3.89630413765718
30
0
41
1
10
23.7799573064873
20
3.95902406409405
30
0
41
1
10
23.3517878950852
20
4.08334524218571
30
0
41
1
10
23.1377792285011
20
4.14497063506462
30
0
41
1
10
22.7098489056425
20
4.2669845790212
30
0
41
1
10
22.4958783066226
20
4.32725877570934
30
0
41
1
10
21.853792547582
20
4.50553937185643
30
0
41
1
10
21.4255677211814
20
4.6211570246507
30
0
41
1
10
20.7830255260205
20
4.7898841331625
30
0
41
1
10
20.5688104259187
20
4.84534208927769
30
0
41
1
10
20.1403186588424
20
4.954705122956
30
0
41
1
10
19.9260107232661
20
5.0086174917418
30
0
41
1
10
19.2832515623353
20
5.16798470775393
30
0
41
1
10
18.8550373782323
20
5.27106341586969
30
0
41
1
10
18.2132097848557
20
5.42096809962484
30
0
41
1
10
17.9993682481786
20
5.47018223033788
30
0
41
1
10
17.5716080108318
20
5.56657562582407
30
0
41
1
10
17.3576993693299
20
5.61377695553583
30
0
41
1
10
16.7158991685997
20
5.752443848951
30
0
41
1
10
16.2879353559619
20
5.84097946008194
30
0
41
1
10
15.4318649341936
20
6.01038687822276
30
0
41
1
10
15.0037570160131
20
6.0912569753134
30
0
41
1
10
14.147463741516
20
6.24539184729923
30
0
41
1
10
13.7192788975815
20
6.31865858207445
30
0
41
1
10
13.2911082975524
20
6.38811231593598
30
0
0
SPLINE
5
C9
100
AcDbEntity
8
1
62
256
6
ByLayer
370
18
48
1
60
0
100
AcDbSpline
70
4
71
3
72
18
73
14
40
0
40
0
40
0
40
0
40
0.250000000000009
40
0.250000000000009
40
0.375000000000018
40
0.375000000000018
40
0.437500000000018
40
0.437500000000018
40
0.500000000000018
40
0.500000000000018
40
0.750000000000009
40
0.750000000000009
40
1
40
1
40
1
40
1
41
1
10
103.770223243001
20
-1.06816407103327
30
0
41
1
10
103.080027461588
20
-0.819522475453937
30
0
41
1
10
102.390256361201
20
-0.570438371772809
30
0
41
1
10
101.356447360099
20
-0.195547508525749
30
0
41
1
10
101.011989606475
20
-0.0703625385960436
30
0
41
1
10
100.495560206079
20
0.117853534936472
30
0
41
1
10
100.323460657978
20
0.180667268184493
30
0
41
1
10
99.9793479533014
20
0.306441868014844
30
0
41
1
10
99.807327928621
20
0.369383609689294
30
0
41
1
10
98.9469806463036
20
0.683179170816857
30
0
41
1
10
98.2581316297371
20
0.931905196719782
30
0
41
1
10
96.8796015786521
20
1.4256174971118
30
0
41
1
10
96.1899165668999
20
1.67059315204872
30
0
41
1
10
95.4999999999999
20
1.91418693080851
30
0
0
SPLINE
5
CA
100
AcDbEntity
8
1
62
256
6
ByLayer
370
18
48
1
60
0
100
AcDbSpline
70
4
71
3
72
84
73
80
40
0
40
0
40
0
40
0
40
0.0312500000000037
40
0.0312500000000037
40
0.0625000000000075
40
0.0625000000000075
40
0.125000000000013
40
0.125000000000013
40
0.140625000000014
40
0.140625000000014
40
0.156250000000015
40
0.156250000000015
40
0.187500000000018
40
0.187500000000018
40
0.250000000000021
40
0.250000000000021
40
0.281250000000023
40
0.281250000000023
40
0.296875000000023
40
0.296875000000023
40
0.312500000000024
40
0.312500000000024
40
0.343750000000026
40
0.343750000000026
40
0.375000000000027
40
0.375000000000027
40
0.406250000000029
40
0.406250000000029
40
0.437500000000031
40
0.437500000000031
40
0.453125000000031
40
0.453125000000031
40
0.468750000000031
40
0.468750000000031
40
0.500000000000033
40
0.500000000000033
40
0.531250000000034
40
0.531250000000034
40
0.539062500000034
40
0.539062500000034
40
0.546875000000034
40
0.562500000000035
40
0.562500000000035
40
0.593750000000036
40
0.593750000000036
40
0.625000000000038
40
0.625000000000038
40
0.632812500000037
40
0.632812500000037
40
0.640625000000036
40
0.656250000000035
40
0.656250000000035
40
0.687500000000033
40
0.687500000000033
40
0.71875000000003
40
0.71875000000003
40
0.72656250000003
40
0.72656250000003
40
0.734375000000029
40
0.734375000000029
40
0.750000000000028
40
0.750000000000028
40
0.781250000000028
40
0.781250000000028
40
0.812500000000027
40
0.843750000000027
40
0.843750000000027
40
0.851562500000026
40
0.851562500000026
40
0.859375000000025
40
0.875000000000023
40
0.875000000000023
40
0.906250000000017
40
0.937500000000012
40
0.968750000000006
40
0.968750000000006
40
0.984375000000003
40
0.984375000000003
40
1
40
1
40
1
40
1
41
1
10
103.770223243003
20
7.26183979907327
30
0
41
1
10
103.817076436252
20
7.14563396972017
30
0
41
1
10
103.864002667263
20
7.02769034863803
30
0
41
1
10
103.95808026268
20
6.78860324715563
30
0
41
1
10
104.005231543475
20
6.6674591499723
30
0
41
1
10
104.147106061209
20
6.29952552798235
30
0
41
1
10
104.242262806738
20
6.04826030216404
30
0
41
1
10
104.362026081487
20
5.72726800078109
30
0
41
1
10
104.386018574383
20
5.66272193811619
30
0
41
1
10
104.434081149968
20
5.53294043299854
30
0
41
1
10
104.458160092331
20
5.46768009372542
30
0
41
1
10
104.530080359948
20
5.27203328699943
30
0
41
1
10
104.577749333934
20
5.14139886377336
30
0
41
1
10
104.719864073388
20
4.74888175660394
30
0
41
1
10
104.813465556047
20
4.48640369008632
30
0
41
1
10
104.951237782414
20
4.0911981118573
30
0
41
1
10
104.996713446655
20
3.95921089102759
30
0
41
1
10
105.064001244656
20
3.76076342500392
30
0
41
1
10
105.086275009345
20
3.69453604139161
30
0
41
1
10
105.130451103567
20
3.56190326473447
30
0
41
1
10
105.152365763268
20
3.49545856198367
30
0
41
1
10
105.217127860792
20
3.29677871337506
30
0
41
1
10
105.259105766242
20
3.16489897150242
30
0
41
1
10
105.339900463633
20
2.90206924100102
30
0
41
1
10
105.378722561891
20
2.77112010676925
30
0
41
1
10
105.452025834382
20
2.50987844529649
30
0
41
1
10
105.486513195894
20
2.37958647126098
30
0
41
1
10
105.549369987902
20
2.11930525191264
30
0
41
1
10
105.577742223985
20
1.98931492913977
30
0
41
1
10
105.613813522454
20
1.79423148011944
30
0
41
1
10
105.624754863344
20
1.72910864465504
30
0
41
1
10
105.643911750536
20
1.60007597092732
30
0
41
1
10
105.652156196685
20
1.53601998905924
30
0
41
1
10
105.672485104975
20
1.34528553307192
30
0
41
1
10
105.680121826963
20
1.22003388245275
30
0
41
1
10
105.682132073697
20
0.973780980686456
30
0
41
1
10
105.676493596515
20
0.852781762207059
30
0
41
1
10
105.661207173213
20
0.704583070698419
30
0
41
1
10
105.657736524579
20
0.675056257872029
30
0
41
1
10
105.650021231652
20
0.616508447813345
30
0
41
1
10
105.637314289391
20
0.529618759946516
30
0
41
1
10
105.621401650505
20
0.445490995471886
30
0
41
1
10
105.585834914509
20
0.28082969241612
30
0
41
1
10
105.557155612507
20
0.175841121423446
30
0
41
1
10
105.492440853635
20
-0.0249333198179045
30
0
41
1
10
105.456410849299
20
-0.120721889808635
30
0
41
1
10
105.407970007619
20
-0.234790065206255
30
0
41
1
10
105.398099626648
20
-0.257342242064283
30
0
41
1
10
105.378088245575
20
-0.301766367088106
30
0
41
1
10
105.347696458632
20
-0.367315798707267
30
0
41
1
10
105.316296643933
20
-0.429668495419577
30
0
41
1
10
105.252396355227
20
-0.550238455355611
30
0
41
1
10
105.208343137508
20
-0.625115984270678
30
0
41
1
10
105.118183677333
20
-0.764228621772958
30
0
41
1
10
105.07207136457
20
-0.82846176383012
30
0
41
1
10
105.013424580786
20
-0.902109215980431
30
0
41
1
10
105.001644159313
20
-0.916505728964182
30
0
41
1
10
104.977985552799
20
-0.944629974639128
30
0
41
1
10
104.966102780794
20
-0.95836191271394
30
0
41
1
10
104.93047066451
20
-0.998377103199317
30
0
41
1
10
104.906687099327
20
-1.02354242238596
30
0
41
1
10
104.835287105506
20
-1.09460493659628
30
0
41
1
10
104.787624922924
20
-1.13607781237357
30
0
41
1
10
104.69226259589
20
-1.20751367071978
30
0
41
1
10
104.596860019609
20
-1.26743727206104
30
0
41
1
10
104.501349622525
20
-1.30436391740898
30
0
41
1
10
104.441572437956
20
-1.32010013635787
30
0
41
1
10
104.429609695621
20
-1.32287916782661
30
0
41
1
10
104.405784163219
20
-1.32767690926124
30
0
41
1
10
104.370154579438
20
-1.33374469324272
30
0
41
1
10
104.334839495649
20
-1.33646341221547
30
0
41
1
10
104.264597768154
20
-1.33751070266064
30
0
41
1
10
104.17197776615
20
-1.32721490341231
30
0
41
1
10
104.03566702552
20
-1.27732164266348
30
0
41
1
10
103.946219098423
20
-1.22104321798042
30
0
41
1
10
103.879547185833
20
-1.17001230013102
30
0
41
1
10
103.857466543331
20
-1.15158533265628
30
0
41
1
10
103.81362504083
20
-1.11196150603109
30
0
41
1
10
103.791854785298
20
-1.09075747420678
30
0
41
1
10
103.770223243003
20
-1.0681640710342
30
0
0
SPLINE
5
CB
100
AcDbEntity
8
1
62
256
6
ByLayer
370
18
48
1
60
0
100
AcDbSpline
70
4
71
3
72
18
73
14
40
0
40
0
40
0
40
0
40
0.0064826091429808
40
0.0064826091429808
40
0.205186087314379
40
0.205186087314379
40
0.602593043657175
40
0.602593043657175
40
0.801296521828581
40
0.801296521828581
40
0.90064826091429
40
0.90064826091429
40
1
40
1
40
1
40
1
41
1
10
98.5676724542001
20
7.49906351163781
30
0
41
1
10
98.5789043595606
20
7.49906535807395
30
0
41
1
10
98.5901363688463
20
7.49906380557417
30
0
41
1
10
98.9456534668942
20
7.49890701513283
30
0
41
1
10
99.2902222472378
20
7.49557283918159
30
0
41
1
10
100.324566644834
20
7.47621507124933
30
0
41
1
10
101.014156289059
20
7.450889065529
30
0
41
1
10
102.048055700551
20
7.39421906230501
30
0
41
1
10
102.392604014957
20
7.3722018297459
30
0
41
1
10
102.909244982181
20
7.33437791907554
30
0
41
1
10
103.081419413562
20
7.32096384117375
30
0
41
1
10
103.425748810194
20
7.29254055179507
30
0
41
1
10
103.597937336845
20
7.27755120575657
30
0
41
1
10
103.770223243001
20
7.26183979907373
30
0
0
SPLINE
5
CC
100
AcDbEntity
8
1
62
256
6
ByLayer
370
18
48
1
60
0
100
AcDbSpline
70
4
71
3
72
41
73
37
40
0
40
0
40
0
40
0
40
0.0700574489938439
40
0.0700574489938439
40
0.140114897987688
40
0.210172346981532
40
0.210172346981532
40
0.245201071478453
40
0.245201071478453
40
0.280229795975376
40
0.280229795975376
40
0.350287244969217
40
0.350287244969217
40
0.420344693963059
40
0.420344693963059
40
0.490402142956901
40
0.490402142956901
40
0.525430867453821
40
0.525430867453821
40
0.56045959195074
40
0.56045959195074
40
0.630517040944582
40
0.630517040944582
40
0.700574489938424
40
0.700574489938424
40
0.770631938932266
40
0.770631938932266
40
0.805660663429186
40
0.805660663429186
40
0.840689387926105
40
0.840689387926105
40
0.910746836919947
40
0.910746836919947
40
0.980804285913789
40
0.980804285913789
40
1
40
1
40
1
40
1
41
1
10
16.533139003354
20
-4.72820152043792
30
0
41
1
10
16.9443994989342
20
-4.83755729156377
30
0
41
1
10
17.3556656930099
20
-4.94325855125968
30
0
41
1
10
18.1780368143889
20
-5.14795438218044
30
0
41
1
10
19.0002455170004
20
-5.34594410868107
30
0
41
1
10
19.8218222615235
20
-5.53128912248189
30
0
41
1
10
20.4376528592235
20
-5.66572275155772
30
0
41
1
10
20.6428714189241
20
-5.70976950297666
30
0
41
1
10
21.0531776541283
20
-5.79633889650111
30
0
41
1
10
21.2582385731895
20
-5.8389053767234
30
0
41
1
10
21.873460003451
20
-5.96388996537769
30
0
41
1
10
22.2839276750385
20
-6.04316266401696
30
0
41
1
10
23.1053077553609
20
-6.19409841750851
30
0
41
1
10
23.5162105364129
20
-6.26577482126592
30
0
41
1
10
24.3383016437654
20
-6.40177522740393
30
0
41
1
10
24.7494869918011
20
-6.46610373193295
30
0
41
1
10
25.366366317154
20
-6.55714697181949
30
0
41
1
10
25.5720102999333
20
-6.58658431434264
30
0
41
1
10
25.9833215460834
20
-6.64362550823495
30
0
41
1
10
26.1889662550628
20
-6.67126223322626
30
0
41
1
10
26.8058731743087
20
-6.75089198942942
30
0
41
1
10
27.2173367119497
20
-6.79957646031025
30
0
41
1
10
28.040369206939
20
-6.88863401875477
30
0
41
1
10
28.4519478045641
20
-6.92899446405431
30
0
41
1
10
29.2750874741015
20
-7.00152905734842
30
0
41
1
10
29.6866443686334
20
-7.03370646529856
30
0
41
1
10
30.3038506626086
20
-7.07581177029951
30
0
41
1
10
30.5095652645378
20
-7.08881815908273
30
0
41
1
10
30.9209400797293
20
-7.11274937478899
30
0
41
1
10
31.1265195142934
20
-7.12367068749904
30
0
41
1
10
31.7434585465273
20
-7.15306475292019
30
0
41
1
10
32.1549318827072
20
-7.16824262023917
30
0
41
1
10
32.9779781271771
20
-7.19004681109749
30
0
41
1
10
33.3895623503175
20
-7.19666709699325
30
0
41
1
10
33.9139060039452
20
-7.19967061882338
30
0
41
1
10
34.0266755952711
20
-7.19999657728764
30
0
41
1
10
34.1394425400684
20
-7.20000090936753
30
0
0
SPLINE
5
CD
100
AcDbEntity
8
1
62
256
6
ByLayer
370
18
48
1
60
0
100
AcDbSpline
70
4
71
3
72
30
73
26
40
0
40
0
40
0
40
0
40
0.021526435843977
40
0.021526435843977
40
0.0730250444837701
40
0.0730250444837701
40
0.176022261763351
40
0.176022261763351
40
0.279019479042931
40
0.279019479042931
40
0.382016696322511
40
0.382016696322511
40
0.433515304962301
40
0.433515304962301
40
0.485013913602092
40
0.485013913602092
40
0.588011130881672
40
0.588011130881672
40
0.79400556544084
40
0.79400556544084
40
0.845504174080632
40
0.845504174080632
40
0.897002782720423
40
0.897002782720423
40
1
40
1
40
1
40
1
41
1
10
83.5231934704237
20
5.29208148638759
30
0
41
1
10
83.6091533621486
20
5.31254141020182
30
0
41
1
10
83.6950981899197
20
5.33288143178711
30
0
41
1
10
83.9865997466787
20
5.40147537812652
30
0
41
1
10
84.1920948174229
20
5.44913680613118
30
0
41
1
10
84.8088660133342
20
5.58902386904842
30
0
41
1
10
85.2202855398062
20
5.67844028107174
30
0
41
1
10
86.043347786326
20
5.85019020415248
30
0
41
1
10
86.4550022385537
20
5.9325010609721
30
0
41
1
10
87.2784111186983
20
6.09023930531006
30
0
41
1
10
87.6902551203887
20
6.16568903152987
30
0
41
1
10
88.3072047956716
20
6.27363311210138
30
0
41
1
10
88.512739647338
20
6.30875573494811
30
0
41
1
10
88.9236112171542
20
6.37721289972257
30
0
41
1
10
89.1289977811231
20
6.41047631700596
30
0
41
1
10
89.745348599938
20
6.50695801623695
30
0
41
1
10
90.1563665837969
20
6.56706656543372
30
0
41
1
10
91.3894318973889
20
6.73541638483431
30
0
41
1
10
92.2115312250521
20
6.83171671800756
30
0
41
1
10
93.2384906127316
20
6.93248814108691
30
0
41
1
10
93.4438326216916
20
6.95166666771212
30
0
41
1
10
93.8545381439837
20
6.98795295266152
30
0
41
1
10
94.0599693187672
20
7.00501193610782
30
0
41
1
10
94.6766385733182
20
7.05288203699652
30
0
41
1
10
95.0881656762358
20
7.08045575717858
30
0
41
1
10
95.4999999999993
20
7.10380707032738
30
0
0
SPLINE
5
CE
100
AcDbEntity
8
1
62
256
6
ByLayer
370
18
48
1
60
0
100
AcDbSpline
70
4
71
3
72
60
73
56
40
0
40
0
40
0
40
0
40
0.0234841010509473
40
0.0234841010509473
40
0.0469682021018945
40
0.0469682021018945
40
0.0939364042037918
40
0.0939364042037918
40
0.140904606305689
40
0.140904606305689
40
0.164388707356638
40
0.164388707356638
40
0.187872808407586
40
0.187872808407586
40
0.211356909458535
40
0.211356909458535
40
0.234841010509484
40
0.234841010509484
40
0.281809212611383
40
0.281809212611383
40
0.328777414713283
40
0.328777414713283
40
0.352261515764233
40
0.352261515764233
40
0.375745616815183
40
0.375745616815183
40
0.469682021018975
40
0.469682021018975
40
0.51665022312087
40
0.51665022312087
40
0.540134324171817
40
0.540134324171817
40
0.563618425222764
40
0.563618425222764
40
0.657554829426553
40
0.657554829426553
40
0.681038930477502
40
0.681038930477502
40
0.704523031528451
40
0.704523031528451
40
0.728007132579399
40
0.728007132579399
40
0.751491233630348
40
0.751491233630348
40
0.845427637834141
40
0.845427637834141
40
0.868911738885089
40
0.868911738885089
40
0.892395839936038
40
0.892395839936038
40
0.915879940986987
40
0.915879940986987
40
0.939364042037935
40
0.939364042037935
40
1
40
1
40
1
40
1
41
1
10
95.5
20
1.73450145280316
30
0
41
1
10
95.2858583839483
20
1.80740172756893
30
0
41
1
10
95.0718243364324
20
1.88018754412349
30
0
41
1
10
94.6436890906041
20
2.02474435140891
30
0
41
1
10
94.4296022716101
20
2.09655671543405
30
0
41
1
10
93.7872951215183
20
2.31063846969403
30
0
41
1
10
93.3590297206517
20
2.45155857511722
30
0
41
1
10
92.5024331266565
20
2.72997720044418
30
0
41
1
10
92.0741001307722
20
2.86747108772727
30
0
41
1
10
91.4316042253751
20
3.07127168454804
30
0
41
1
10
91.2174402966452
20
3.138800086391
30
0
41
1
10
90.7891223345035
20
3.27305782996146
30
0
41
1
10
90.5749764345026
20
3.33981800787049
30
0
41
1
10
90.1468636915701
20
3.4723228121228
30
0
41
1
10
89.9328185704015
20
3.53794755441845
30
0
41
1
10
89.504662348052
20
3.6677322729698
30
0
41
1
10
89.290564890587
20
3.73192700441442
30
0
41
1
10
88.6482274988218
20
3.92246671653709
30
0
41
1
10
88.2199416738558
20
4.0467675779343
30
0
41
1
10
87.3633040382394
20
4.29008011472544
30
0
41
1
10
86.9349508722111
20
4.40908909528409
30
0
41
1
10
86.2924311856743
20
4.58373443675217
30
0
41
1
10
86.0782318807517
20
4.64131051152611
30
0
41
1
10
85.6499948702711
20
4.75513224033139
30
0
41
1
10
85.4359808004953
20
4.81140730231192
30
0
41
1
10
84.3657265875882
20
5.08808666839147
30
0
41
1
10
83.5091646668357
20
5.29501040581633
30
0
41
1
10
82.2241357025659
20
5.5848405991787
30
0
41
1
10
81.7957632404541
20
5.6780144095689
30
0
41
1
10
81.1532176497572
20
5.81265165562056
30
0
41
1
10
80.939111656158
20
5.85668085983474
30
0
41
1
10
80.5110368816365
20
5.94288162426662
30
0
41
1
10
80.2970076744525
20
5.98497162223984
30
0
41
1
10
79.2266795479467
20
6.19006036125805
30
0
41
1
10
78.3700587967081
20
6.33742984354814
30
0
41
1
10
77.2991317321872
20
6.50140213043963
30
0
41
1
10
77.0849396215378
20
6.5331806495241
30
0
41
1
10
76.6565521785266
20
6.59470391827398
30
0
41
1
10
76.4423436930046
20
6.62444960293107
30
0
41
1
10
76.0141490376013
20
6.68186389164021
30
0
41
1
10
75.8001530132435
20
6.70954969925629
30
0
41
1
10
75.372081045706
20
6.76258090589599
30
0
41
1
10
75.1580191806125
20
6.78794477519057
30
0
41
1
10
74.0875989140153
20
6.90908044046716
30
0
41
1
10
73.2309072104855
20
6.98789188695426
30
0
41
1
10
72.15990891402
20
7.06408225488519
30
0
41
1
10
71.9456792212196
20
7.07820072831245
30
0
41
1
10
71.5173406620235
20
7.10417144762351
30
0
41
1
10
71.3032646718219
20
7.11602728887763
30
0
41
1
10
70.8752240117554
20
7.13742576223552
30
0
41
1
10
70.6612088011927
20
7.14694750545848
30
0
41
1
10
70.2330986958517
20
7.16362599326357
30
0
41
1
10
70.0190176483623
20
7.17078863023312
30
0
41
1
10
69.2521018768237
20
7.19226926843055
30
0
41
1
10
68.6991386097377
20
7.20001997698924
30
0
41
1
10
68.1460969834099
20
7.2000163559226
30
0
0
SPLINE
5
CF
100
AcDbEntity
8
1
62
256
6
ByLayer
370
18
48
1
60
0
100
AcDbSpline
70
4
71
3
72
18
73
14
40
0
40
0
40
0
40
0
40
0.0586020025097818
40
0.0586020025097818
40
0.176276752196062
40
0.176276752196062
40
0.293951501882342
40
0.293951501882342
40
0.529301001254895
40
0.529301001254895
40
0.764650500627447
40
0.764650500627447
40
1
40
1
40
1
40
1
41
1
10
18.746842976263
20
-5.29576253218306
30
0
41
1
10
18.6402593998221
20
-5.32103671346002
30
0
41
1
10
18.5336956549677
20
-5.3461157038991
30
0
41
1
10
18.2132097848557
20
-5.42096809962487
30
0
41
1
10
17.9993682481786
20
-5.47018223033791
30
0
41
1
10
17.5716080108318
20
-5.56657562582407
30
0
41
1
10
17.3576993693299
20
-5.61377695553583
30
0
41
1
10
16.7158991685997
20
-5.752443848951
30
0
41
1
10
16.2879353559619
20
-5.84097946008194
30
0
41
1
10
15.4318649341936
20
-6.01038687822276
30
0
41
1
10
15.0037570160131
20
-6.0912569753134
30
0
41
1
10
14.147463741516
20
-6.24539184729923
30
0
41
1
10
13.7192788975815
20
-6.31865858207445
30
0
41
1
10
13.2911082975525
20
-6.38811231593601
30
0
0
SPLINE
5
D0
100
AcDbEntity
8
1
62
256
6
ByLayer
370
18
48
1
60
0
100
AcDbSpline
70
4
71
3
72
14
73
10
40
0
40
0
40
0
40
0
40
0.249999999999996
40
0.249999999999996
40
0.499999999999997
40
0.499999999999997
40
0.749999999999999
40
0.749999999999999
40
1
40
1
40
1
40
1
41
1
10
13.2911082975523
20
-6.38811231593613
30
0
41
1
10
13.0118928598517
20
-6.43467037092339
30
0
41
1
10
12.734372410647
20
-6.48115566953939
30
0
41
1
10
12.1818444659201
20
-6.57219846989966
30
0
41
1
10
11.9068331292845
20
-6.61675675446571
30
0
41
1
10
11.3587664860839
20
-6.7027311176048
30
0
41
1
10
11.0857092684885
20
-6.74415274376011
30
0
41
1
10
10.5414135254325
20
-6.82311906319765
30
0
41
1
10
10.2701751458864
20
-6.86067278181804
30
0
41
1
10
10
20
-6.89604823647343
30
0
0
SPLINE
5
D1
100
AcDbEntity
8
1
62
256
6
ByLayer
370
18
48
1
60
0
100
AcDbSpline
70
4
71
4
72
10
73
5
40
0
40
0
40
0
40
0
40
0
40
1
40
1
40
1
40
1
40
1
41
0.998026587761514
10
13.7607375338286
20
-4.08035465905357
30
0
41
0.996379452223807
10
13.6027339639836
20
-4.57455680633527
30
0
41
0.994717992745537
10
13.4647778698371
20
-5.14438709752171
30
0
41
0.995301340635031
10
13.3601180162357
20
-5.76288723535894
30
0
41
0.996676335528713
10
13.2911082975524
20
-6.38811231593614
30
0
0
SPLINE
5
D2
100
AcDbEntity
8
1
62
256
6
ByLayer
370
18
48
1
60
0
100
AcDbSpline
70
4
71
3
72
25
73
21
40
0
40
0
40
0
40
0
40
0.124999999999994
40
0.124999999999994
40
0.249999999999987
40
0.249999999999987
40
0.374999999999981
40
0.374999999999981
40
0.499999999999977
40
0.499999999999977
40
0.562499999999975
40
0.562499999999975
40
0.593749999999975
40
0.593749999999975
40
0.624999999999974
40
0.749999999999982
40
0.749999999999982
40
0.874999999999991
40
0.874999999999991
40
1
40
1
40
1
40
1
41
1
10
10
20
-3.92349613212619
30
0
41
1
10
10.2784096057664
20
-3.89670179715481
30
0
41
1
10
10.5561926265937
20
-3.87954350479956
30
0
41
1
10
11.1106126931475
20
-3.86314818254505
30
0
41
1
10
11.3872490833227
20
-3.86391835709958
30
0
41
1
10
11.9394579728036
20
-3.88208165045302
30
0
41
1
10
12.215029990551
20
-3.89948009496536
30
0
41
1
10
12.7651855790242
20
-3.94944962779684
30
0
41
1
10
13.0397687731528
20
-3.98202438136252
30
0
41
1
10
13.4509633570917
20
-4.04096296231492
30
0
41
1
10
13.5879149331581
20
-4.06228597222392
30
0
41
1
10
13.7931810873997
20
-4.09659715125753
30
0
41
1
10
13.8615427053296
20
-4.10841657458397
30
0
41
1
10
13.9979339484155
20
-4.13274406052557
30
0
41
1
10
14.3382425984373
20
-4.19531044652146
30
0
41
1
10
14.6753308937768
20
-4.26612260429187
30
0
41
1
10
15.2112325671628
20
-4.38739138054157
30
0
41
1
10
15.4774646127211
20
-4.45200533336697
30
0
41
1
10
16.0071881096278
20
-4.58664123913246
30
0
41
1
10
16.2706816813781
20
-4.65665630941453
30
0
41
1
10
16.5331390033539
20
-4.72820152043789
30
0
0
SPLINE
5
D3
100
AcDbEntity
8
1
62
256
6
ByLayer
370
18
48
1
60
0
100
AcDbSpline
70
4
71
3
72
108
73
104
40
0
40
0
40
0
40
0
40
0.0625000000000068
40
0.0625000000000068
40
0.125000000000013
40
0.125000000000013
40
0.156250000000017
40
0.156250000000017
40
0.187500000000021
40
0.187500000000021
40
0.218750000000025
40
0.218750000000025
40
0.226562500000026
40
0.226562500000026
40
0.234375000000026
40
0.234375000000026
40
0.250000000000027
40
0.250000000000027
40
0.281250000000028
40
0.281250000000028
40
0.312500000000029
40
0.312500000000029
40
0.34375000000003
40
0.34375000000003
40
0.375000000000031
40
0.375000000000031
40
0.390625000000032
40
0.390625000000032
40
0.398437500000032
40
0.398437500000032
40
0.406250000000032
40
0.406250000000032
40
0.421875000000032
40
0.421875000000032
40
0.437500000000032
40
0.437500000000032
40
0.441406250000032
40
0.441406250000032
40
0.445312500000032
40
0.445312500000032
40
0.453125000000032
40
0.453125000000032
40
0.468750000000032
40
0.468750000000032
40
0.484375000000033
40
0.484375000000033
40
0.488281250000033
40
0.488281250000033
40
0.492187500000033
40
0.492187500000033
40
0.500000000000033
40
0.500000000000033
40
0.515625000000034
40
0.515625000000034
40
0.531250000000034
40
0.531250000000034
40
0.535156250000034
40
0.535156250000034
40
0.539062500000034
40
0.546875000000034
40
0.546875000000034
40
0.562500000000034
40
0.562500000000034
40
0.578125000000034
40
0.578125000000034
40
0.582031250000034
40
0.582031250000034
40
0.585937500000034
40
0.585937500000034
40
0.593750000000033
40
0.593750000000033
40
0.609375000000032
40
0.609375000000032
40
0.62500000000003
40
0.62500000000003
40
0.656250000000027
40
0.656250000000027
40
0.664062500000027
40
0.664062500000027
40
0.671875000000026
40
0.687500000000025
40
0.687500000000025
40
0.718750000000022
40
0.718750000000022
40
0.75000000000002
40
0.75000000000002
40
0.781250000000018
40
0.781250000000018
40
0.812500000000016
40
0.812500000000016
40
0.843750000000014
40
0.843750000000014
40
0.859375000000013
40
0.859375000000013
40
0.875000000000012
40
0.875000000000012
40
0.906250000000009
40
0.906250000000009
40
0.937500000000006
40
0.937500000000006
40
0.968750000000003
40
0.968750000000003
40
1
40
1
40
1
40
1
41
1
10
10
20
-3.92349613212619
30
0
41
1
10
9.61463035948518
20
-4.02414680235432
30
0
41
1
10
9.23387688348987
20
-4.13728480392865
30
0
41
1
10
8.4816834184804
20
-4.38907988395613
30
0
41
1
10
8.1102383279121
20
-4.5277210212962
30
0
41
1
10
7.56021221072595
20
-4.7556254504041
30
0
41
1
10
7.37806189944871
20
-4.83492296631167
30
0
41
1
10
7.01620044776135
20
-5.00041690515525
30
0
41
1
10
6.83648884425438
20
-5.08661176474681
30
0
41
1
10
6.47959196827142
20
-5.26625060629439
30
0
41
1
10
6.30240590610387
20
-5.35969190153654
30
0
41
1
10
6.08258805521172
20
-5.48135135088253
30
0
41
1
10
6.03870788172952
20
-5.50592668492044
30
0
41
1
10
5.95111721391382
20
-5.55557497136024
30
0
41
1
10
5.90737385539396
20
-5.58066740999237
30
0
41
1
10
5.776866105083
20
-5.65643787014756
30
0
41
1
10
5.690706759401
20
-5.70767323808477
30
0
41
1
10
5.43485415841525
20
-5.86355342387955
30
0
41
1
10
5.26777584184987
20
-5.97036676236075
30
0
41
1
10
4.94127512073177
20
-6.18993758903613
30
0
41
1
10
4.78180953366257
20
-6.30271697896458
30
0
41
1
10
4.47177001930791
20
-6.534493435771
30
0
41
1
10
4.32340374456106
20
-6.65184064894498
30
0
41
1
10
4.0415850177414
20
-6.88906928405302
30
0
41
1
10
3.90810554452273
20
-7.00895002006536
30
0
41
1
10
3.72118519290333
20
-7.19042936651292
30
0
41
1
10
3.66110656581955
20
-7.25119937351474
30
0
41
1
10
3.57476084109749
20
-7.34274605253989
30
0
41
1
10
3.54654777463054
20
-7.37339755613112
30
0
41
1
10
3.49194902270006
20
-7.43429012130105
30
0
41
1
10
3.46552547780666
20
-7.46456774194695
30
0
41
1
10
3.3889697578791
20
-7.55485650181384
30
0
41
1
10
3.34154545309059
20
-7.6143249584087
30
0
41
1
10
3.25453594783639
20
-7.73158169434905
30
0
41
1
10
3.21494743169296
20
-7.78937074402236
30
0
41
1
10
3.17090672760946
20
-7.86037858686194
30
0
41
1
10
3.16237163509311
20
-7.87451856304313
30
0
41
1
10
3.14586479477111
20
-7.9026701032993
30
0
41
1
10
3.13789004633887
20
-7.91668889093145
30
0
41
1
10
3.11499137847858
20
-7.95825733548011
30
0
41
1
10
3.10103523709319
20
-7.98541440750665
30
0
41
1
10
3.06312632457468
20
-8.06519248091047
30
0
41
1
10
3.04312550229616
20
-8.11612271289644
30
0
41
1
10
3.0140030205084
20
-8.21327382412588
30
0
41
1
10
3.00487979259896
20
-8.25949535261273
30
0
41
1
10
3.00064648482225
20
-8.31415285747426
30
0
41
1
10
3.00015907054549
20
-8.32492815386922
30
0
41
1
10
2.99991505384767
20
-8.34616092297915
30
0
41
1
10
3.00015973025717
20
-8.35663648879401
30
0
41
1
10
3.00200131154074
20
-8.38744479291432
30
0
41
1
10
3.00469448073775
20
-8.40708456542347
30
0
41
1
10
3.01702690700736
20
-8.46339790509614
30
0
41
1
10
3.03091139309544
20
-8.49746942960184
30
0
41
1
10
3.06945420887737
20
-8.55904879148594
30
0
41
1
10
3.09411447200648
20
-8.5865556133941
30
0
41
1
10
3.13147145006934
20
-8.61699993374577
30
0
41
1
10
3.13928116050633
20
-8.62289849384962
30
0
41
1
10
3.15544894570553
20
-8.63423654299973
30
0
41
1
10
3.18054791006767
20
-8.65057832191536
30
0
41
1
10
3.20810358262435
20
-8.66499703126578
30
0
41
1
10
3.26629494823234
20
-8.69143947611207
30
0
41
1
10
3.30918870412395
20
-8.70588028610655
30
0
41
1
10
3.40234683264984
20
-8.72911667577958
30
0
41
1
10
3.45261389534946
20
-8.73791018475376
30
0
41
1
10
3.51966544565494
20
-8.74572503708822
30
0
41
1
10
3.53328702979314
20
-8.7471288349401
30
0
41
1
10
3.56094437546634
20
-8.74962573588383
30
0
41
1
10
3.5749960361328
20
-8.75071978372455
30
0
41
1
10
3.61762420644067
20
-8.75353837428588
30
0
41
1
10
3.64666227848815
20
-8.75480107086887
30
0
41
1
10
3.73550182418194
20
-8.75688816661955
30
0
41
1
10
3.79702413826897
20
-8.75601667859016
30
0
41
1
10
3.92408759357605
20
-8.75038713655869
30
0
41
1
10
3.98963041375617
20
-8.74562727443393
30
0
41
1
10
4.19162095285802
20
-8.72625525626813
30
0
41
1
10
4.33340432384253
20
-8.70658347466198
30
0
41
1
10
4.51788186082359
20
-8.67533161330246
30
0
41
1
10
4.5551711346472
20
-8.66874001413359
30
0
41
1
10
4.63031469086422
20
-8.65494406796586
30
0
41
1
10
4.74365944754294
20
-8.63337172371436
30
0
41
1
10
4.8587684789411
20
-8.60935521386156
30
0
41
1
10
5.0910606351305
20
-8.55847656084424
30
0
41
1
10
5.24867775107344
20
-8.52078220727515
30
0
41
1
10
5.56826313546983
20
-8.43943720311751
30
0
41
1
10
5.73023595005515
20
-8.39577827156657
30
0
41
1
10
6.05765072768435
20
-8.30355748846151
30
0
41
1
10
6.22309478597882
20
-8.25499123283302
30
0
41
1
10
6.55673802387395
20
-8.15367704386256
30
0
41
1
10
6.72493803566064
20
-8.10092650365763
30
0
41
1
10
7.06350703638986
20
-7.99173131195511
30
0
41
1
10
7.233876135163
20
-7.93528490340347
30
0
41
1
10
7.49070358160398
20
-7.84808186009349
30
0
41
1
10
7.57655202456169
20
-7.81858165597814
30
0
41
1
10
7.74850289738333
20
-7.75880539023041
30
0
41
1
10
7.8345711613066
20
-7.72854141607357
30
0
41
1
10
8.09301049986223
20
-7.63665436396531
30
0
41
1
10
8.26561284134749
20
-7.57393784108137
30
0
41
1
10
8.61127680211084
20
-7.44570515361278
30
0
41
1
10
8.7843380037751
20
-7.38018756531551
30
0
41
1
10
9.13086938763894
20
-7.24643022439059
30
0
41
1
10
9.30433924448965
20
-7.17818908304031
30
0
41
1
10
9.65175936355431
20
-7.03906736480974
30
0
41
1
10
9.825709496206
20
-6.96818547345032
30
0
41
1
10
10
20
-6.89604823647343
30
0
0
SPLINE
5
D4
100
AcDbEntity
8
1
62
256
6
ByLayer
370
18
48
1
60
0
100
AcDbSpline
70
4
71
3
72
26
73
22
40
0
40
0
40
0
40
0
40
0.0066430946496689
40
0.0066430946496689
40
0.130812707818464
40
0.130812707818464
40
0.254982320987259
40
0.254982320987259
40
0.379151934156055
40
0.379151934156055
40
0.441236740740451
40
0.441236740740451
40
0.503321547324847
40
0.503321547324847
40
0.627491160493635
40
0.627491160493635
40
0.751660773662423
40
0.751660773662423
40
0.875830386831212
40
0.875830386831212
40
1
40
1
40
1
40
1
41
1
10
5.86768318516889
20
8.35704748839981
30
0
41
1
10
5.87643155943528
20
8.35459469028615
30
0
41
1
10
5.88518496674476
20
8.35213479351731
30
0
41
1
10
6.05765072768432
20
8.30355748846154
30
0
41
1
10
6.22309478597884
20
8.25499123283302
30
0
41
1
10
6.55673802387395
20
8.15367704386256
30
0
41
1
10
6.72493803566064
20
8.1009265036576
30
0
41
1
10
7.06350703638984
20
7.99173131195508
30
0
41
1
10
7.233876135163
20
7.93528490340347
30
0
41
1
10
7.49070358160398
20
7.84808186009352
30
0
41
1
10
7.57655202456169
20
7.81858165597816
30
0
41
1
10
7.7485028973833
20
7.75880539023046
30
0
41
1
10
7.83457116130657
20
7.72854141607357
30
0
41
1
10
8.0930104998622
20
7.63665436396531
30
0
41
1
10
8.26561284134749
20
7.57393784108137
30
0
41
1
10
8.61127680211084
20
7.44570515361278
30
0
41
1
10
8.7843380037751
20
7.38018756531554
30
0
41
1
10
9.13086938763894
20
7.24643022439059
30
0
41
1
10
9.30433924448965
20
7.17818908304031
30
0
41
1
10
9.65175936355433
20
7.03906736480974
30
0
41
1
10
9.82570949620603
20
6.96818547345032
30
0
41
1
10
10
20
6.89604823647343
30
0
0
SPLINE
5
D5
100
AcDbEntity
8
SK1
62
256
6
ByLayer
370
18
48
1
60
0
100
AcDbSpline
70
4
71
3
72
32
73
28
40
0
40
0
40
0
40
0
40
0.124999999999998
40
0.124999999999998
40
0.249999999999995
40
0.249999999999995
40
0.374999999999994
40
0.374999999999994
40
0.437499999999993
40
0.437499999999993
40
0.499999999999992
40
0.499999999999992
40
0.624999999999988
40
0.624999999999988
40
0.656249999999988
40
0.656249999999988
40
0.687499999999988
40
0.687499999999988
40
0.74999999999999
40
0.74999999999999
40
0.874999999999995
40
0.874999999999995
40
0.906249999999996
40
0.906249999999996
40
0.937499999999998
40
0.937499999999998
40
1
40
1
40
1
40
1
41
1
10
-43.3565069115799
20
-3.65034953143106
30
0
41
1
10
-43.3331458400142
20
-3.71424193668162
30
0
41
1
10
-43.3079887114829
20
-3.77702079626832
30
0
41
1
10
-43.2534212788423
20
-3.90009490817781
30
0
41
1
10
-43.2240149751524
20
-3.96039186522651
30
0
41
1
10
-43.1600568886594
20
-4.07814914960466
30
0
41
1
10
-43.1255132756746
20
-4.13561297938583
30
0
41
1
10
-43.0688646453433
20
-4.21928792338744
30
0
41
1
10
-43.0491724017425
20
-4.24675781820287
30
0
41
1
10
-43.0079384175976
20
-4.30075945417201
30
0
41
1
10
-42.9863407519915
20
-4.32734895814056
30
0
41
1
10
-42.9191284528727
20
-4.40464696643178
30
0
41
1
10
-42.8709653357112
20
-4.45314968312832
30
0
41
1
10
-42.8054200814028
20
-4.509129269905
30
0
41
1
10
-42.7920414880158
20
-4.52009075475445
30
0
41
1
10
-42.7647046009874
20
-4.54151368998052
30
0
41
1
10
-42.7507137384423
20
-4.55199803198428
30
0
41
1
10
-42.7080552923505
20
-4.58246627252342
30
0
41
1
10
-42.6787844981831
20
-4.60141919352105
30
0
41
1
10
-42.588250922941
20
-4.65388326760876
30
0
41
1
10
-42.5243097226538
20
-4.68306815187688
30
0
41
1
10
-42.4386823815538
20
-4.71050598268181
30
0
41
1
10
-42.4212064346087
20
-4.71554997578619
30
0
41
1
10
-42.3860524535981
20
-4.72455026306568
30
0
41
1
10
-42.3683576016114
20
-4.72851630488563
30
0
41
1
10
-42.3149119913326
20
-4.73878190613445
30
0
41
1
10
-42.2788010667419
20
-4.74345326345804
30
0
41
1
10
-42.2421801837133
20
-4.74582511601491
30
0
0
SPLINE
5
D6
100
AcDbEntity
8
SK1
62
256
6
ByLayer
370
18
48
1
60
0
100
AcDbSpline
70
4
71
3
72
32
73
28
40
0
40
0
40
0
40
0
40
0.125000000000003
40
0.125000000000003
40
0.156250000000003
40
0.156250000000003
40
0.187500000000004
40
0.187500000000004
40
0.250000000000005
40
0.250000000000005
40
0.312500000000005
40
0.312500000000005
40
0.343750000000005
40
0.343750000000005
40
0.375000000000006
40
0.375000000000006
40
0.500000000000003
40
0.500000000000003
40
0.625
40
0.625
40
0.6875
40
0.6875
40
0.749999999999999
40
0.749999999999999
40
0.875
40
0.875
40
1
40
1
40
1
40
1
41
1
10
-42.2421801837133
20
4.74582511601491
30
0
41
1
10
-42.3153322469605
20
4.74108722075121
30
0
41
1
10
-42.3858382182456
20
4.7272872503076
30
0
41
1
10
-42.4711061087408
20
4.70015187597528
30
0
41
1
10
-42.48801508965
20
4.69422552159887
30
0
41
1
10
-42.5215500807622
20
4.68139247012627
30
0
41
1
10
-42.538108088977
20
4.67450874413797
30
0
41
1
10
-42.5867495214036
20
4.65272655031879
30
0
41
1
10
-42.6179919315484
20
4.63663028483114
30
0
41
1
10
-42.6784054316375
20
4.60165673094545
30
0
41
1
10
-42.707575323895
20
4.58277786641952
30
0
41
1
10
-42.7499378830322
20
4.55256723042981
30
0
41
1
10
-42.7638261651475
20
4.54218093900309
30
0
41
1
10
-42.7911594285605
20
4.52080182261719
30
0
41
1
10
-42.8046315534326
20
4.50978473494575
30
0
41
1
10
-42.8704332773146
20
4.45367358335039
30
0
41
1
10
-42.9183823606968
20
4.40538606397868
30
0
41
1
10
-43.007200043589
20
4.30347549467811
30
0
41
1
10
-43.0480454261384
20
4.2498368571521
30
0
41
1
10
-43.1050091824334
20
4.16599396786131
30
0
41
1
10
-43.1233071500575
20
4.13742383693679
30
0
41
1
10
-43.1584042823023
20
4.07953032751405
30
0
41
1
10
-43.1751994309136
20
4.05022195040382
30
0
41
1
10
-43.2235710813646
20
3.96130068776944
30
0
41
1
10
-43.2531438067293
20
3.90069540381026
30
0
41
1
10
-43.3079263511211
20
3.77718661911314
30
0
41
1
10
-43.3331314373585
20
3.7142813278675
30
0
41
1
10
-43.3565069115799
20
3.65034953143106
30
0
0
SPLINE
5
D7
100
AcDbEntity
8
SK1
62
256
6
ByLayer
370
18
48
1
60
0
100
AcDbSpline
70
4
71
3
72
30
73
26
40
0
40
0
40
0
40
0
40
0.124999999999979
40
0.124999999999979
40
0.249999999999958
40
0.249999999999958
40
0.374999999999936
40
0.374999999999936
40
0.437499999999926
40
0.437499999999926
40
0.499999999999916
40
0.499999999999916
40
0.624999999999908
40
0.624999999999908
40
0.656249999999909
40
0.656249999999909
40
0.68749999999991
40
0.68749999999991
40
0.749999999999925
40
0.749999999999925
40
0.874999999999955
40
0.874999999999955
40
0.937499999999978
40
0.937499999999978
40
1
40
1
40
1
40
1
41
1
10
-13.8451406288876
20
5.60819856978108
30
0
41
1
10
-13.8759395902576
20
5.65059861248182
30
0
41
1
10
-13.9086043985849
20
5.69152013904011
30
0
41
1
10
-13.97811386775
20
5.77019024979575
30
0
41
1
10
-14.014955839279
20
5.80794050815649
30
0
41
1
10
-14.0934302354091
20
5.87995203844818
30
0
41
1
10
-14.1350574932389
20
5.91421654427231
30
0
41
1
10
-14.2017568377706
20
5.9626308553903
30
0
41
1
10
-14.2245427507748
20
5.97815093867467
30
0
41
1
10
-14.271111369383
20
6.00780504420359
30
0
41
1
10
-14.2949186549204
20
6.02195716348245
30
0
41
1
10
-14.3679929543377
20
6.06230994483028
30
0
41
1
10
-14.4189025587777
20
6.08641928516369
30
0
41
1
10
-14.4856782999412
20
6.11265441828212
30
0
41
1
10
-14.4991911565357
20
6.11770540783806
30
0
41
1
10
-14.5265457311327
20
6.12740066932034
30
0
41
1
10
-14.5403907312758
20
6.13204445753533
30
0
41
1
10
-14.5820565255816
20
6.14522762072318
30
0
41
1
10
-14.6101298025697
20
6.1530644585383
30
0
41
1
10
-14.6952537679042
20
6.17368858860661
30
0
41
1
10
-14.7532042147282
20
6.18360487337517
30
0
41
1
10
-14.8420639597241
20
6.19236276786617
30
0
41
1
10
-14.8721089186227
20
6.1942576600421
30
0
41
1
10
-14.9321260265236
20
6.19588455534111
30
0
41
1
10
-14.9621459212296
20
6.19562887243728
30
0
41
1
10
-14.9921771997116
20
6.19429975368809
30
0
0
SPLINE
5
D8
100
AcDbEntity
8
SK1
62
256
6
ByLayer
370
18
48
1
60
0
100
AcDbSpline
70
4
71
3
72
29
73
25
40
0
40
0
40
0
40
0
40
0.125000000000045
40
0.125000000000045
40
0.25000000000009
40
0.25000000000009
40
0.281250000000093
40
0.281250000000093
40
0.312500000000097
40
0.375000000000092
40
0.375000000000092
40
0.500000000000084
40
0.500000000000084
40
0.562500000000073
40
0.562500000000073
40
0.625000000000062
40
0.625000000000062
40
0.750000000000038
40
0.750000000000038
40
0.875000000000015
40
0.875000000000015
40
0.937500000000008
40
0.937500000000008
40
1
40
1
40
1
40
1
41
1
10
-14.9921771997116
20
-6.19429975368809
30
0
41
1
10
-14.9320573843484
20
-6.19696052531805
30
0
41
1
10
-14.8726744232101
20
-6.19530622075879
30
0
41
1
10
-14.7552923361598
20
-6.18388224594813
30
0
41
1
10
-14.6972937188803
20
-6.17410945589265
30
0
41
1
10
-14.6256493001772
20
-6.15684175670819
30
0
41
1
10
-14.6113371248737
20
-6.15312631775188
30
0
41
1
10
-14.5830607924918
20
-6.14526136952958
30
0
41
1
10
-14.5410867139313
20
-6.13279564418732
30
0
41
1
10
-14.500383626949
20
-6.118393573753
30
0
41
1
10
-14.4205661285236
20
-6.08714648466275
30
0
41
1
10
-14.3694669105832
20
-6.06306708368854
30
0
41
1
10
-14.2956992221607
20
-6.02241573888855
30
0
41
1
10
-14.2715415923124
20
-6.00806907471573
30
0
41
1
10
-14.2247924605031
20
-5.97831973436635
30
0
41
1
10
-14.2021202056678
20
-5.96287721339851
30
0
41
1
10
-14.1360355381032
20
-5.91496059376203
30
0
41
1
10
-14.0945476428777
20
-5.88090305019935
30
0
41
1
10
-14.0160214797599
20
-5.80899071657845
30
0
41
1
10
-13.9789867514485
20
-5.77113330484545
30
0
41
1
10
-13.9264169069796
20
-5.7117020344985
30
0
41
1
10
-13.9093970751005
20
-5.69145219620981
30
0
41
1
10
-13.8764815896183
20
-5.65032851626569
30
0
41
1
10
-13.8605603440826
20
-5.62942644739971
30
0
41
1
10
-13.845140628887
20
-5.60819856978154
30
0
0
SPLINE
5
D9
100
AcDbEntity
8
1
62
256
6
ByLayer
370
13
48
1
60
0
100
AcDbSpline
70
4
71
3
72
86
73
82
40
0
40
0
40
0
40
0
40
0.0312499999999973
40
0.0312499999999973
40
0.0624999999999946
40
0.0624999999999946
40
0.0937499999999919
40
0.0937499999999919
40
0.124999999999989
40
0.124999999999989
40
0.156249999999986
40
0.156249999999986
40
0.187499999999984
40
0.187499999999984
40
0.218749999999981
40
0.218749999999981
40
0.249999999999978
40
0.249999999999978
40
0.281249999999976
40
0.281249999999976
40
0.285156249999976
40
0.285156249999976
40
0.289062499999975
40
0.296874999999976
40
0.296874999999976
40
0.312499999999976
40
0.312499999999976
40
0.343749999999977
40
0.343749999999977
40
0.374999999999977
40
0.374999999999977
40
0.406249999999978
40
0.406249999999978
40
0.437499999999979
40
0.437499999999979
40
0.468749999999979
40
0.468749999999979
40
0.49999999999998
40
0.49999999999998
40
0.53124999999998
40
0.53124999999998
40
0.562499999999981
40
0.562499999999981
40
0.566406249999981
40
0.566406249999981
40
0.570312499999982
40
0.570312499999982
40
0.578124999999982
40
0.578124999999982
40
0.593749999999983
40
0.593749999999983
40
0.624999999999984
40
0.624999999999984
40
0.656249999999986
40
0.656249999999986
40
0.687499999999987
40
0.687499999999987
40
0.718749999999988
40
0.718749999999988
40
0.74999999999999
40
0.74999999999999
40
0.781249999999991
40
0.781249999999991
40
0.812499999999993
40
0.812499999999993
40
0.843749999999994
40
0.843749999999994
40
0.851562499999994
40
0.851562499999994
40
0.855468749999994
40
0.855468749999994
40
0.859374999999994
40
0.874999999999995
40
0.874999999999995
40
0.906249999999996
40
0.906249999999996
40
0.937499999999997
40
0.937499999999997
40
0.968749999999999
40
0.968749999999999
40
1
40
1
40
1
40
1
41
1
10
96.4974448908567
20
7.5
30
0
41
1
10
96.5732029986916
20
7.5
30
0
41
1
10
96.6489611065265
20
7.46966275213043
30
0
41
1
10
96.8004773221961
20
7.33806775113405
30
0
41
1
10
96.8762354300311
20
7.23672893823525
30
0
41
1
10
97.0277516457008
20
6.95729446448641
30
0
41
1
10
97.1035097535357
20
6.77914133442178
30
0
41
1
10
97.2550259692055
20
6.34699795759101
30
0
41
1
10
97.3307840770402
20
6.09300181737888
30
0
41
1
10
97.48230029271
20
5.51789885941818
30
0
41
1
10
97.5580584005448
20
5.19684933010248
30
0
41
1
10
97.7095746162146
20
4.50342257783069
30
0
41
1
10
97.7853327240495
20
4.13115048012045
30
0
41
1
10
97.9368489397191
20
3.35559617148644
30
0
41
1
10
98.012607047554
20
2.95243101603049
30
0
41
1
10
98.1641232632236
20
2.13646021316819
30
0
41
1
10
98.2398813710586
20
1.72374686667348
30
0
41
1
10
98.3913975867284
20
0.907828890291171
30
0
41
1
10
98.4671556945632
20
0.504672015736332
30
0
41
1
10
98.5523835658774
20
0.064778245831036
30
0
41
1
10
98.5618533293568
20
0.0162036117083915
30
0
41
1
10
98.5807928563155
20
-0.0811294391810407
30
0
41
1
10
98.6092021467535
20
-0.227707737973532
30
0
41
1
10
98.6376114371916
20
-0.37591772640485
30
0
41
1
10
98.6944300180677
20
-0.674206647356328
30
0
41
1
10
98.7323090719852
20
-0.875567334702424
30
0
41
1
10
98.8459462337374
20
-1.48434822911392
30
0
41
1
10
98.9217043415723
20
-1.89658488502377
30
0
41
1
10
99.0732205572421
20
-2.71556907743272
30
0
41
1
10
99.1489786650769
20
-3.12223211243025
30
0
41
1
10
99.3004948807466
20
-3.90896078196792
30
0
41
1
10
99.3762529885815
20
-4.28891164578326
30
0
41
1
10
99.5277692042512
20
-5.00140291131538
30
0
41
1
10
99.6035273120861
20
-5.33383271749634
30
0
41
1
10
99.7550435277558
20
-5.9342907706752
30
0
41
1
10
99.8308016355907
20
-6.20225038287711
30
0
41
1
10
99.9823178512604
20
-6.66342566562099
30
0
41
1
10
100.058075959095
20
-6.8566350797048
30
0
41
1
10
100.209592174765
20
-7.16579389296115
30
0
41
1
10
100.2853502826
20
-7.2817926587318
30
0
41
1
10
100.43686649827
20
-7.44114304376737
30
0
41
1
10
100.512624606104
20
-7.48457352099263
30
0
41
1
10
100.597852477419
20
-7.49802906146959
30
0
41
1
10
100.607322240898
20
-7.49903470589291
30
0
41
1
10
100.626261767857
20
-7.50008936923027
30
0
41
1
10
100.635731531336
20
-7.50014089627038
30
0
41
1
10
100.664140821774
20
-7.49887362921689
30
0
41
1
10
100.683080348733
20
-7.49612017284068
30
0
41
1
10
100.739898929609
20
-7.48187041920124
30
0
41
1
10
100.777777983526
20
-7.46437770642044
30
0
41
1
10
100.891415145279
20
-7.38602664138827
30
0
41
1
10
100.967173253114
20
-7.29912116256864
30
0
41
1
10
101.118689468783
20
-7.04921655946328
30
0
41
1
10
101.194447576618
20
-6.88615297719423
30
0
41
1
10
101.345963792288
20
-6.48340870585312
30
0
41
1
10
101.421721900123
20
-6.24371044929055
30
0
41
1
10
101.573238115793
20
-5.69490370559032
30
0
41
1
10
101.648996223627
20
-5.38584055988369
30
0
41
1
10
101.800512439297
20
-4.71286490714439
30
0
41
1
10
101.876270547132
20
-4.3490506311382
30
0
41
1
10
102.027786762802
20
-3.58626777325958
30
0
41
1
10
102.103544870636
20
-3.18741708689691
30
0
41
1
10
102.255061086306
20
-2.37600531101387
30
0
41
1
10
102.330819194141
20
-1.96354356323542
30
0
41
1
10
102.482335409811
20
-1.14470221119993
30
0
41
1
10
102.558093517646
20
-0.738379522669675
30
0
41
1
10
102.652791152439
20
-0.244105258920086
30
0
41
1
10
102.671730679398
20
-0.14592014344268
30
0
41
1
10
102.700139969836
20
0.0002061516206595
30
0
41
1
10
102.709609733316
20
0.0487240005885496
30
0
41
1
10
102.728549260274
20
0.146395982068981
30
0
41
1
10
102.775898077671
20
0.391511938870678
30
0
41
1
10
102.823246895068
20
0.641038428137421
30
0
41
1
10
102.93688405682
20
1.24574633698634
30
0
41
1
10
103.012642164655
20
1.65680634296561
30
0
41
1
10
103.164158380325
20
2.47729513051581
30
0
41
1
10
103.239916488159
20
2.88664779935516
30
0
41
1
10
103.391432703829
20
3.68294393036479
30
0
41
1
10
103.467190811664
20
4.06977625893376
30
0
41
1
10
103.618707027334
20
4.79988402538575
30
0
41
1
10
103.694465135169
20
5.14304489541047
30
0
41
1
10
103.770223243003
20
5.45543050213672
30
0
0
SPLINE
5
DA
100
AcDbEntity
8
1
62
256
6
ByLayer
370
13
48
1
60
0
100
AcDbSpline
70
4
71
3
72
84
73
80
40
0
40
0
40
0
40
0
40
0.0312500000000019
40
0.0312500000000019
40
0.0625000000000037
40
0.0625000000000037
40
0.0937500000000056
40
0.0937500000000056
40
0.125000000000007
40
0.125000000000007
40
0.156250000000009
40
0.156250000000009
40
0.187500000000011
40
0.187500000000011
40
0.218750000000013
40
0.218750000000013
40
0.250000000000015
40
0.250000000000015
40
0.265625000000016
40
0.265625000000016
40
0.273437500000016
40
0.273437500000016
40
0.281250000000016
40
0.281250000000016
40
0.312500000000017
40
0.312500000000017
40
0.343750000000017
40
0.343750000000017
40
0.375000000000017
40
0.375000000000017
40
0.406250000000017
40
0.406250000000017
40
0.437500000000018
40
0.437500000000018
40
0.468750000000018
40
0.468750000000018
40
0.500000000000018
40
0.500000000000018
40
0.531250000000019
40
0.531250000000019
40
0.535156250000019
40
0.535156250000019
40
0.539062500000019
40
0.546875000000018
40
0.546875000000018
40
0.562500000000017
40
0.562500000000017
40
0.593750000000016
40
0.593750000000016
40
0.625000000000015
40
0.625000000000015
40
0.656250000000014
40
0.656250000000014
40
0.687500000000012
40
0.687500000000012
40
0.718750000000011
40
0.718750000000011
40
0.75000000000001
40
0.75000000000001
40
0.781250000000009
40
0.781250000000009
40
0.796875000000008
40
0.796875000000008
40
0.800781250000008
40
0.800781250000008
40
0.804687500000008
40
0.812500000000007
40
0.812500000000007
40
0.843750000000006
40
0.843750000000006
40
0.875000000000005
40
0.875000000000005
40
0.906250000000004
40
0.906250000000004
40
0.937500000000002
40
0.937500000000002
40
0.968750000000001
40
0.968750000000001
40
1
40
1
40
1
40
1
41
1
10
95.9987226521839
20
7.5
30
0
41
1
10
96.0796757833383
20
7.5
30
0
41
1
10
96.1606289144927
20
7.46533482993459
30
0
41
1
10
96.3225351768014
20
7.31432483379433
30
0
41
1
10
96.4034883079557
20
7.19786825343724
30
0
41
1
10
96.5653945702645
20
6.87687460615786
30
0
41
1
10
96.6463477014189
20
6.6722655479756
30
0
41
1
10
96.8082539637277
20
6.17766755899268
30
0
41
1
10
96.889207094882
20
5.88768841719133
30
0
41
1
10
97.0511133571907
20
5.23522949547089
30
0
41
1
10
97.1320664883451
20
4.87285131013826
30
0
41
1
10
97.2939727506538
20
4.09697609610109
30
0
41
1
10
97.3749258818083
20
3.68363718985185
30
0
41
1
10
97.5368321441169
20
2.83165327716838
30
0
41
1
10
97.6177852752713
20
2.39316209247423
30
0
41
1
10
97.77969153758
20
1.51619743879277
30
0
41
1
10
97.8606446687344
20
1.07782422192744
30
0
41
1
10
97.982074365466
20
0.435922865884947
30
0
41
1
10
98.0225509310432
20
0.224521374401462
30
0
41
1
10
98.083265779409
20
-0.0872329108405836
30
0
41
1
10
98.1035040621975
20
-0.191683857614095
30
0
41
1
10
98.1439806277747
20
-0.402503378420903
30
0
41
1
10
98.1642189105634
20
-0.508696044773814
30
0
41
1
10
98.2654103245063
20
-1.04292368631656
30
0
41
1
10
98.3463634556607
20
-1.48098163324167
30
0
41
1
10
98.5082697179694
20
-2.35794244283736
30
0
41
1
10
98.5892228491238
20
-2.79674685799512
30
0
41
1
10
98.7511291114325
20
-3.65006094000503
30
0
41
1
10
98.8320822425869
20
-4.06441770500268
30
0
41
1
10
98.9939885048956
20
-4.84298519079266
30
0
41
1
10
99.07494163605
20
-5.20703708125637
30
0
41
1
10
99.2368478983587
20
-5.86332326085684
30
0
41
1
10
99.3178010295131
20
-6.15545379609179
30
0
41
1
10
99.4797072918219
20
-6.65457292232213
30
0
41
1
10
99.5606604229762
20
-6.86154919698964
30
0
41
1
10
99.722566685285
20
-7.18722435160174
30
0
41
1
10
99.8035198164393
20
-7.30599350193808
30
0
41
1
10
99.965426078748
20
-7.46136249619005
30
0
41
1
10
100.046379209902
20
-7.49807365793876
30
0
41
1
10
100.137451482451
20
-7.50015719733747
30
0
41
1
10
100.147570623845
20
-7.4998504219507
30
0
41
1
10
100.167808906634
20
-7.49813926033937
30
0
41
1
10
100.198166330817
20
-7.4939233293872
30
0
41
1
10
100.228523755
20
-7.48463725329603
30
0
41
1
10
100.289238603366
20
-7.45899845353918
30
0
41
1
10
100.329715168943
20
-7.43247314371388
30
0
41
1
10
100.451144865674
20
-7.32247439354802
30
0
41
1
10
100.532097996829
20
-7.20832563619939
30
0
41
1
10
100.694004259137
20
-6.89201064093399
30
0
41
1
10
100.774957390292
20
-6.68977072302792
30
0
41
1
10
100.9368636526
20
-6.1997051900313
30
0
41
1
10
101.017816783755
20
-5.91188684476708
30
0
41
1
10
101.179723046064
20
-5.26328023529959
30
0
41
1
10
101.260676177218
20
-4.90259137975008
30
0
41
1
10
101.422582439527
20
-4.12944291536957
30
0
41
1
10
101.503535570681
20
-3.71714067499295
30
0
41
1
10
101.66544183299
20
-2.86652413174488
30
0
41
1
10
101.746394964144
20
-2.42836453371888
30
0
41
1
10
101.908301226453
20
-1.55142942190264
30
0
41
1
10
101.989254357607
20
-1.11275595452528
30
0
41
1
10
102.110684054339
20
-0.470045374206251
30
0
41
1
10
102.151160619916
20
-0.258314790193367
30
0
41
1
10
102.201756326888
20
0.0019521670232336
30
0
41
1
10
102.211875468282
20
0.0537978081057986
30
0
41
1
10
102.23211375107
20
0.158213701509169
30
0
41
1
10
102.262471175253
20
0.315478194155503
30
0
41
1
10
102.292828599436
20
0.474533642181228
30
0
41
1
10
102.394020013379
20
1.00805548222542
30
0
41
1
10
102.474973144534
20
1.44578325552149
30
0
41
1
10
102.636879406842
20
2.32270700903848
30
0
41
1
10
102.717832537997
20
2.76180635594011
30
0
41
1
10
102.879738800306
20
3.61641343063741
30
0
41
1
10
102.96069193146
20
4.03176921266214
30
0
41
1
10
103.122598193769
20
4.81299432696864
30
0
41
1
10
103.203551324923
20
5.17870416730193
30
0
41
1
10
103.365457587232
20
5.83879222644734
30
0
41
1
10
103.446410718386
20
6.13306455949362
30
0
41
1
10
103.608316980695
20
6.63669311271735
30
0
41
1
10
103.689270111849
20
6.84603448197856
30
0
41
1
10
103.770223243003
20
7.0112140644618
30
0
0
SPLINE
5
DB
100
AcDbEntity
8
1
62
256
6
ByLayer
370
13
48
1
60
0
100
AcDbSpline
70
4
71
3
72
102
73
98
40
0
40
0
40
0
40
0
40
0.0312499999999995
40
0.0312499999999995
40
0.0624999999999991
40
0.0624999999999991
40
0.078124999999999
40
0.078124999999999
40
0.0937499999999989
40
0.0937499999999989
40
0.109374999999999
40
0.109374999999999
40
0.124999999999999
40
0.124999999999999
40
0.140624999999999
40
0.140624999999999
40
0.156249999999999
40
0.156249999999999
40
0.171874999999998
40
0.171874999999998
40
0.187499999999998
40
0.187499999999998
40
0.218749999999998
40
0.218749999999998
40
0.249999999999998
40
0.249999999999998
40
0.281249999999998
40
0.281249999999998
40
0.312499999999998
40
0.312499999999998
40
0.328124999999998
40
0.328124999999998
40
0.343749999999997
40
0.343749999999997
40
0.359374999999997
40
0.359374999999997
40
0.374999999999997
40
0.374999999999997
40
0.390624999999997
40
0.390624999999997
40
0.406249999999997
40
0.406249999999997
40
0.421874999999997
40
0.421874999999997
40
0.437499999999997
40
0.437499999999997
40
0.468749999999997
40
0.468749999999997
40
0.499999999999997
40
0.499999999999997
40
0.531249999999997
40
0.531249999999997
40
0.562499999999997
40
0.562499999999997
40
0.578124999999997
40
0.578124999999997
40
0.593749999999997
40
0.593749999999997
40
0.609374999999997
40
0.609374999999997
40
0.624999999999997
40
0.624999999999997
40
0.640624999999997
40
0.640624999999997
40
0.656249999999997
40
0.656249999999997
40
0.671874999999997
40
0.671874999999997
40
0.687499999999997
40
0.687499999999997
40
0.718749999999998
40
0.718749999999998
40
0.749999999999998
40
0.749999999999998
40
0.781249999999998
40
0.781249999999998
40
0.812499999999998
40
0.812499999999998
40
0.828124999999998
40
0.828124999999998
40
0.843749999999998
40
0.843749999999998
40
0.859374999999999
40
0.859374999999999
40
0.874999999999999
40
0.874999999999999
40
0.890624999999999
40
0.890624999999999
40
0.906249999999999
40
0.906249999999999
40
0.921874999999999
40
0.921874999999999
40
0.937499999999999
40
0.937499999999999
40
0.96875
40
0.96875
40
1
40
1
40
1
40
1
41
1
10
95.5000004135112
20
7.5
30
0
41
1
10
95.5861485679851
20
7.5
30
0
41
1
10
95.6722967224589
20
7.46071239942617
30
0
41
1
10
95.8445930314067
20
7.28886815259909
30
0
41
1
10
95.9307411858805
20
7.15616089420192
30
0
41
1
10
96.0599634175915
20
6.88203802208827
30
0
41
1
10
96.1030374948283
20
6.77823265115526
30
0
41
1
10
96.1891856493022
20
6.54602762544479
30
0
41
1
10
96.2322597265391
20
6.41762702496956
30
0
41
1
10
96.3184078810129
20
6.13730589559924
30
0
41
1
10
96.36148195825
20
5.98538656123404
30
0
41
1
10
96.4476301127238
20
5.65991159413735
30
0
41
1
10
96.4907041899608
20
5.48635932359198
30
0
41
1
10
96.5768523444347
20
5.12024283354603
30
0
41
1
10
96.6199264216716
20
4.9276838483749
30
0
41
1
10
96.7060745761454
20
4.52678858882217
30
0
41
1
10
96.7491486533823
20
4.31845884311122
30
0
41
1
10
96.8352968078563
20
3.88968810082207
30
0
41
1
10
96.8783708850932
20
3.66925417459743
30
0
41
1
10
96.9645190395671
20
3.22016546223904
30
0
41
1
10
97.0075931168039
20
2.99151750499976
30
0
41
1
10
97.1368153485148
20
2.29909720149919
30
0
41
1
10
97.2229635029887
20
1.82903571963206
30
0
41
1
10
97.3952598119365
20
0.900411041606048
30
0
41
1
10
97.4814079664104
20
0.441942259418767
30
0
41
1
10
97.6537042753581
20
-0.441941198758599
30
0
41
1
10
97.739852429832
20
-0.900409936068911
30
0
41
1
10
97.9121487387797
20
-1.82903459646994
30
0
41
1
10
97.9982968932537
20
-2.29909607978181
30
0
41
1
10
98.1275191249646
20
-2.99151640404966
30
0
41
1
10
98.1705932022014
20
-3.22016437128548
30
0
41
1
10
98.2567413566753
20
-3.66925310992505
30
0
41
1
10
98.2998154339122
20
-3.88968705243528
30
0
41
1
10
98.3859635883862
20
-4.3184578333983
30
0
41
1
10
98.429037665623
20
-4.52678760149732
30
0
41
1
10
98.5151858200969
20
-4.92768291140237
30
0
41
1
10
98.5582598973338
20
-5.12024192453629
30
0
41
1
10
98.6444080518078
20
-5.48635847524241
30
0
41
1
10
98.6874821290447
20
-5.65991077848253
30
0
41
1
10
98.7736302835185
20
-5.9853858146088
30
0
41
1
10
98.8167043607555
20
-6.13730518530548
30
0
41
1
10
98.9028525152294
20
-6.41762638972168
30
0
41
1
10
98.9459265924663
20
-6.54602702890779
30
0
41
1
10
99.0320747469403
20
-6.77823213310796
30
0
41
1
10
99.0751488241772
20
-6.88203754381655
30
0
41
1
10
99.204371055888
20
-7.15616053495521
30
0
41
1
10
99.2905192103618
20
-7.2888678721938
30
0
41
1
10
99.4628155193096
20
-7.46071226740509
30
0
41
1
10
99.5489636737834
20
-7.49999993749992
30
0
41
1
10
99.7212599827312
20
-7.50000006249994
30
0
41
1
10
99.807408137205
20
-7.46071253144709
30
0
41
1
10
99.9797044461528
20
-7.28886843300418
30
0
41
1
10
100.065852600627
20
-7.15616125344843
30
0
41
1
10
100.195074832338
20
-6.88203850035976
30
0
41
1
10
100.238148909575
20
-6.77823316920239
30
0
41
1
10
100.324297064048
20
-6.54602822198163
30
0
41
1
10
100.367371141285
20
-6.41762766021725
30
0
41
1
10
100.453519295759
20
-6.1373066058928
30
0
41
1
10
100.496593372996
20
-5.9853873078591
30
0
41
1
10
100.58274152747
20
-5.65991240979199
30
0
41
1
10
100.625815604707
20
-5.48636017194141
30
0
41
1
10
100.711963759181
20
-5.12024374255566
30
0
41
1
10
100.755037836418
20
-4.92768478534731
30
0
41
1
10
100.841185990892
20
-4.52678957614694
30
0
41
1
10
100.884260068129
20
-4.31845985282402
30
0
41
1
10
100.970408222603
20
-3.88968914920878
30
0
41
1
10
101.013482299839
20
-3.66925523926972
30
0
41
1
10
101.099630454313
20
-3.22016655319254
30
0
41
1
10
101.14270453155
20
-2.99151860594983
30
0
41
1
10
101.271926763261
20
-2.29909832321656
30
0
41
1
10
101.358074917735
20
-1.82903684279418
30
0
41
1
10
101.530371226683
20
-0.900412147143214
30
0
41
1
10
101.616519381156
20
-0.441943345967303
30
0
41
1
10
101.788815690104
20
0.441940163986743
30
0
41
1
10
101.874963844578
20
0.900408830531802
30
0
41
1
10
102.047260153526
20
1.82903347330785
30
0
41
1
10
102.133408308
20
2.29909495806442
30
0
41
1
10
102.262630539711
20
2.99151530309953
30
0
41
1
10
102.305704616947
20
3.22016328033189
30
0
41
1
10
102.391852771421
20
3.66925204525259
30
0
41
1
10
102.434926848658
20
3.88968600404843
30
0
41
1
10
102.521075003132
20
4.31845682368527
30
0
41
1
10
102.564149080369
20
4.52678661417232
30
0
41
1
10
102.650297234843
20
4.9276819744297
30
0
41
1
10
102.69337131208
20
5.1202410155264
30
0
41
1
10
102.779519466554
20
5.48635762689267
30
0
41
1
10
102.822593543791
20
5.65990996282756
30
0
41
1
10
102.908741698265
20
5.9853850679834
30
0
41
1
10
102.951815775502
20
6.13730447501155
30
0
41
1
10
103.037963929976
20
6.41762575447362
30
0
41
1
10
103.081038007212
20
6.54602643237058
30
0
41
1
10
103.167186161686
20
6.77823161506046
30
0
41
1
10
103.210260238923
20
6.88203706554467
30
0
41
1
10
103.339482470634
20
7.15616017570829
30
0
41
1
10
103.425630625108
20
7.28886759178832
30
0
41
1
10
103.597926934056
20
7.46071213538383
30
0
41
1
10
103.68407508853
20
7.4999998749997
30
0
41
1
10
103.770223243004
20
7.49999999999969
30
0
0
SPLINE
5
DC
100
AcDbEntity
8
1
62
256
6
ByLayer
370
13
48
1
60
0
100
AcDbSpline
70
4
71
3
72
84
73
80
40
0
40
0
40
0
40
0
40
0.03125
40
0.03125
40
0.0625
40
0.0625
40
0.09375
40
0.09375
40
0.125
40
0.125
40
0.15625
40
0.15625
40
0.1875
40
0.1875
40
0.1953125
40
0.19921875
40
0.19921875
40
0.203125
40
0.203125
40
0.21875
40
0.21875
40
0.25
40
0.25
40
0.28125
40
0.28125
40
0.3125
40
0.3125
40
0.34375
40
0.34375
40
0.375
40
0.375
40
0.40625
40
0.40625
40
0.4375
40
0.4375
40
0.453125
40
0.453125
40
0.4609375
40
0.46484375
40
0.46484375
40
0.46875
40
0.46875
40
0.5
40
0.5
40
0.53125
40
0.53125
40
0.5625
40
0.5625
40
0.59375
40
0.59375
40
0.625
40
0.625
40
0.65625
40
0.65625
40
0.6875
40
0.6875
40
0.71875
40
0.71875
40
0.7265625
40
0.7265625
40
0.734375
40
0.734375
40
0.75
40
0.75
40
0.78125
40
0.78125
40
0.8125
40
0.8125
40
0.84375
40
0.84375
40
0.875
40
0.875
40
0.90625
40
0.90625
40
0.9375
40
0.9375
40
0.96875
40
0.96875
40
1
40
1
40
1
40
1
41
1
10
95.5
20
7.01121575194534
30
0
41
1
10
95.5809531397692
20
6.84603644985083
30
0
41
1
10
95.6619062795384
20
6.6366953542113
30
0
41
1
10
95.8238125590767
20
6.13306730231369
30
0
41
1
10
95.9047656988459
20
5.83879519666715
30
0
41
1
10
96.0666719783843
20
5.17870751911249
30
0
41
1
10
96.1476251181534
20
4.81299783277359
30
0
41
1
10
96.3095313976918
20
4.03177293967798
30
0
41
1
10
96.3904845374611
20
3.61641722488037
30
0
41
1
10
96.5523908169994
20
2.76181020107649
30
0
41
1
10
96.6333439567686
20
2.32271083802991
30
0
41
1
10
96.795250236307
20
1.44578698544041
30
0
41
1
10
96.8762033760762
20
1.00805912946328
30
0
41
1
10
96.9773948007877
20
0.474537158897533
30
0
41
1
10
97.0077522282012
20
0.315481669685937
30
0
41
1
10
97.0381096556146
20
0.158217133221115
30
0
41
1
10
97.0583479405568
20
0.0538012100654441
30
0
41
1
10
97.0684670830279
20
0.0019555531674484
30
0
41
1
10
97.1190627953837
20
-0.258311384260765
30
0
41
1
10
97.1595393652683
20
-0.470041958119623
30
0
41
1
10
97.2809690749222
20
-1.112752527368
30
0
41
1
10
97.3619222146913
20
-1.55142601347487
30
0
41
1
10
97.5238284942296
20
-2.42836122302819
30
0
41
1
10
97.6047816339988
20
-2.86652090017827
30
0
41
1
10
97.7666879135372
20
-3.71713766065579
30
0
41
1
10
97.8476410533063
20
-4.12944003913506
30
0
41
1
10
98.0095473328448
20
-4.9025888257419
30
0
41
1
10
98.0905004726139
20
-5.26327786526409
30
0
41
1
10
98.2524067521524
20
-5.91188486635372
30
0
41
1
10
98.3333598919215
20
-6.19970341903132
30
0
41
1
10
98.4952661714599
20
-6.68976936493894
30
0
41
1
10
98.5762193112291
20
-6.89200948813871
30
0
41
1
10
98.7381255907674
20
-7.20832487029404
30
0
41
1
10
98.8190787305367
20
-7.32247380915135
30
0
41
1
10
98.9405084401905
20
-7.43247280379981
30
0
41
1
10
98.9809850100751
20
-7.45899819056254
30
0
41
1
10
99.0416998649019
20
-7.48463709830045
30
0
41
1
10
99.0720572923153
20
-7.49392322653244
30
0
41
1
10
99.1024147197287
20
-7.49813920679637
30
0
41
1
10
99.1226530046711
20
-7.49985040065104
30
0
41
1
10
99.1327721471422
20
-7.50015719172686
30
0
41
1
10
99.2238444293826
20
-7.49807379328419
30
0
41
1
10
99.3047975691517
20
-7.46136276243925
30
0
41
1
10
99.4667038486901
20
-7.3059940293179
30
0
41
1
10
99.5476569884593
20
-7.18722500912088
30
0
41
1
10
99.7095632679976
20
-6.86155009905642
30
0
41
1
10
99.7905164077669
20
-6.65457393865668
30
0
41
1
10
99.9524226873052
20
-6.15545501058344
30
0
41
1
10
100.033375827074
20
-5.86332455910349
30
0
41
1
10
100.195282106613
20
-5.20703850677788
30
0
41
1
10
100.276235246382
20
-4.84298665977789
30
0
41
1
10
100.43814152592
20
-4.06441921872769
30
0
41
1
10
100.519094665689
20
-3.65006245505728
30
0
41
1
10
100.681000945228
20
-2.79674833958705
30
0
41
1
10
100.761954084997
20
-2.35794388976365
30
0
41
1
10
100.923860364535
20
-1.48098298603011
30
0
41
1
10
101.004813504305
20
-1.04292497975703
30
0
41
1
10
101.106004929016
20
-0.508697256392821
30
0
41
1
10
101.126243213958
20
-0.402504573291992
30
0
41
1
10
101.166719783843
20
-0.191685018402268
30
0
41
1
10
101.186958068785
20
-0.0872340434665091
30
0
41
1
10
101.247672923612
20
0.22452025569558
30
0
41
1
10
101.288149493497
20
0.43592175884271
30
0
41
1
10
101.409579203151
20
1.07782315715954
30
0
41
1
10
101.49053234292
20
1.51619641204786
30
0
41
1
10
101.652438622458
20
2.39316115941025
30
0
41
1
10
101.733391762227
20
2.83165239975924
30
0
41
1
10
101.895298041766
20
3.68363643527567
30
0
41
1
10
101.976251181535
20
4.09697540864326
30
0
41
1
10
102.138157461073
20
4.87285075909756
30
0
41
1
10
102.219110600842
20
5.23522901363097
30
0
41
1
10
102.381016880381
20
5.88768806583604
30
0
41
1
10
102.46197002015
20
6.17766726883303
30
0
41
1
10
102.623876299688
20
6.67226536443107
30
0
41
1
10
102.704829439457
20
6.87687446799734
30
0
41
1
10
102.866735718996
20
7.19786818664204
30
0
41
1
10
102.947688858765
20
7.31432479300474
30
0
41
1
10
103.109595138304
20
7.46533482251391
30
0
41
1
10
103.190548278073
20
7.5
30
0
41
1
10
103.271501417842
20
7.5
30
0
0
SPLINE
5
DD
100
AcDbEntity
8
1
62
256
6
ByLayer
370
13
48
1
60
0
100
AcDbSpline
70
4
71
3
72
87
73
83
40
0
40
0
40
0
40
0
40
0.0312499999999994
40
0.0312499999999994
40
0.0624999999999987
40
0.0624999999999987
40
0.0937499999999981
40
0.0937499999999981
40
0.124999999999997
40
0.124999999999997
40
0.140624999999997
40
0.140624999999997
40
0.144531249999997
40
0.144531249999997
40
0.148437499999997
40
0.148437499999997
40
0.156249999999997
40
0.156249999999997
40
0.187499999999997
40
0.187499999999997
40
0.218749999999997
40
0.218749999999997
40
0.249999999999996
40
0.249999999999996
40
0.281249999999996
40
0.281249999999996
40
0.312499999999996
40
0.312499999999996
40
0.343749999999996
40
0.343749999999996
40
0.374999999999996
40
0.374999999999996
40
0.406249999999995
40
0.406249999999995
40
0.421874999999995
40
0.421874999999995
40
0.429687499999995
40
0.429687499999995
40
0.433593749999995
40
0.433593749999995
40
0.437499999999995
40
0.437499999999995
40
0.468749999999995
40
0.468749999999995
40
0.499999999999996
40
0.499999999999996
40
0.531249999999996
40
0.531249999999996
40
0.562499999999996
40
0.562499999999996
40
0.593749999999996
40
0.593749999999996
40
0.624999999999997
40
0.624999999999997
40
0.656249999999997
40
0.656249999999997
40
0.687499999999997
40
0.687499999999997
40
0.703124999999997
40
0.703124999999997
40
0.710937499999997
40
0.714843749999997
40
0.714843749999997
40
0.718749999999997
40
0.718749999999997
40
0.749999999999997
40
0.749999999999997
40
0.781249999999998
40
0.781249999999998
40
0.812499999999998
40
0.812499999999998
40
0.843749999999998
40
0.843749999999998
40
0.874999999999999
40
0.874999999999999
40
0.906249999999999
40
0.906249999999999
40
0.937499999999999
40
0.937499999999999
40
0.96875
40
0.96875
40
1
40
1
40
1
40
1
41
1
10
95.5
20
5.4554339123298
30
0
41
1
10
95.5757581164497
20
5.14304849249854
30
0
41
1
10
95.6515162328994
20
4.79988777448941
30
0
41
1
10
95.8030324657987
20
4.06978023106385
30
0
41
1
10
95.8787905822484
20
3.68294797351223
30
0
41
1
10
96.0303068151478
20
2.8866519057637
30
0
41
1
10
96.1060649315974
20
2.477299229306
30
0
41
1
10
96.2575811644967
20
1.65681036142266
30
0
41
1
10
96.3333392809465
20
1.24575028291821
30
0
41
1
10
96.446976455621
20
0.641042231366328
30
0
41
1
10
96.4848555138457
20
0.441420986761784
30
0
41
1
10
96.5322043366268
20
0.195423464742078
30
0
41
1
10
96.5416741011831
20
0.146399645540868
30
0
41
1
10
96.5606136302955
20
0.0487276342499854
30
0
41
1
10
96.5700833948517
20
0.0002097700998718
30
0
41
1
10
96.5984926885203
20
-0.14591651306867
30
0
41
1
10
96.6174322176328
20
-0.244101621941894
30
0
41
1
10
96.7121298631949
20
-0.738375859748061
30
0
41
1
10
96.7878879796446
20
-1.14469855036396
30
0
41
1
10
96.9394042125439
20
-1.96353996115187
30
0
41
1
10
97.0151623289935
20
-2.3760017657039
30
0
41
1
10
97.1666785618929
20
-3.18741371199385
30
0
41
1
10
97.2424366783426
20
-3.5862645120302
30
0
41
1
10
97.393952911242
20
-4.3490476471101
30
0
41
1
10
97.4697110276916
20
-4.71286208657855
30
0
41
1
10
97.621227260591
20
-5.38583810006674
30
0
41
1
10
97.6969853770406
20
-5.69490144290262
30
0
41
1
10
97.84850160994
20
-6.24370859308644
30
0
41
1
10
97.9242597263897
20
-6.48340705882097
30
0
41
1
10
98.075775959289
20
-6.88615173895286
30
0
41
1
10
98.1515340757387
20
-7.04921552071079
30
0
41
1
10
98.303050308638
20
-7.29912049624932
30
0
41
1
10
98.3788084250878
20
-7.38602614797446
30
0
41
1
10
98.4924455997623
20
-7.46437744527523
30
0
41
1
10
98.5303246579871
20
-7.48187023102469
30
0
41
1
10
98.5871432453243
20
-7.4961200870631
30
0
41
1
10
98.6060827744368
20
-7.49887357640009
30
0
41
1
10
98.6344920681055
20
-7.50014089111878
30
0
41
1
10
98.6439618326617
20
-7.50008937960214
30
0
41
1
10
98.6629013617742
20
-7.49903474769016
30
0
41
1
10
98.6723711263303
20
-7.49802911905624
30
0
41
1
10
98.7575990073361
20
-7.48457372129639
30
0
41
1
10
98.8333571237857
20
-7.4411433754232
30
0
41
1
10
98.9848733566851
20
-7.28179325122028
30
0
41
1
10
99.0606314731348
20
-7.16579461485827
30
0
41
1
10
99.2121477060342
20
-6.85663604529122
30
0
41
1
10
99.2879058224839
20
-6.66342674537944
30
0
41
1
10
99.4394220553833
20
-6.20225166302788
30
0
41
1
10
99.515180171833
20
-5.93429213694174
30
0
41
1
10
99.6666964047323
20
-5.33383421902914
30
0
41
1
10
99.742454521182
20
-5.0014044619476
30
0
41
1
10
99.8939707540814
20
-4.28891325496116
30
0
41
1
10
99.9697288705309
20
-3.90896240061861
30
0
41
1
10
100.12124510343
20
-3.12223371443551
30
0
41
1
10
100.19700321988
20
-2.71557065340554
30
0
41
1
10
100.348519452779
20
-1.89658638236065
30
0
41
1
10
100.424277569229
20
-1.48434967394741
30
0
41
1
10
100.537914743904
20
-0.875568689107098
30
0
41
1
10
100.575793802128
20
-0.674207969677838
30
0
41
1
10
100.632612389466
20
-0.375918998675928
30
0
41
1
10
100.661021683134
20
-0.227708984737035
30
0
41
1
10
100.689430976803
20
-0.0811306598872363
30
0
41
1
10
100.708370505915
20
0.0162024084775112
30
0
41
1
10
100.717840270471
20
0.0647770427882506
30
0
41
1
10
100.803068151477
20
0.504670835236482
30
0
41
1
10
100.878826267927
20
0.907827738889296
30
0
41
1
10
101.030342500827
20
1.7237457913092
30
0
41
1
10
101.106100617276
20
2.1364591847591
30
0
41
1
10
101.257616850176
20
2.95243009589302
30
0
41
1
10
101.333374966625
20
3.35559531264357
30
0
41
1
10
101.484891199525
20
4.13114975150768
30
0
41
1
10
101.560649315974
20
4.50342191809278
30
0
41
1
10
101.712165548874
20
5.19684880704745
30
0
41
1
10
101.787923665323
20
5.51789840409367
30
0
41
1
10
101.939439898223
20
6.09300148793093
30
0
41
1
10
102.015198014672
20
6.3469976862294
30
0
41
1
10
102.166714247572
20
6.7791411635136
30
0
41
1
10
102.242472364021
20
6.95729433592757
30
0
41
1
10
102.393988596921
20
7.2367288761391
30
0
41
1
10
102.46974671337
20
7.33806771317478
30
0
41
1
10
102.62126294627
20
7.46966274519681
30
0
41
1
10
102.697021062719
20
7.5
30
0
41
1
10
102.772779179169
20
7.5
30
0
0
SPLINE
5
DE
100
AcDbEntity
8
1
62
256
6
ByLayer
370
13
48
1
60
0
100
AcDbSpline
70
4
71
3
72
85
73
81
40
0
40
0
40
0
40
0
40
0.0312499999999992
40
0.0312499999999992
40
0.0624999999999984
40
0.0624999999999984
40
0.0781249999999978
40
0.0781249999999978
40
0.0820312499999975
40
0.0820312499999975
40
0.0859374999999972
40
0.0859374999999972
40
0.0937499999999967
40
0.0937499999999967
40
0.124999999999995
40
0.124999999999995
40
0.156249999999993
40
0.156249999999993
40
0.187499999999992
40
0.187499999999992
40
0.21874999999999
40
0.21874999999999
40
0.249999999999989
40
0.249999999999989
40
0.281249999999987
40
0.281249999999987
40
0.312499999999985
40
0.312499999999985
40
0.343749999999984
40
0.343749999999984
40
0.374999999999982
40
0.374999999999982
40
0.382812499999982
40
0.386718749999982
40
0.386718749999982
40
0.390624999999982
40
0.390624999999982
40
0.406249999999982
40
0.406249999999982
40
0.437499999999982
40
0.437499999999982
40
0.468749999999982
40
0.468749999999982
40
0.499999999999982
40
0.499999999999982
40
0.531249999999982
40
0.531249999999982
40
0.562499999999982
40
0.562499999999982
40
0.593749999999982
40
0.593749999999982
40
0.624999999999982
40
0.624999999999982
40
0.656249999999982
40
0.656249999999982
40
0.687499999999982
40
0.687499999999982
40
0.695312499999982
40
0.695312499999982
40
0.703124999999983
40
0.703124999999983
40
0.718749999999984
40
0.718749999999984
40
0.749999999999985
40
0.749999999999985
40
0.781249999999987
40
0.781249999999987
40
0.812499999999989
40
0.812499999999989
40
0.843749999999991
40
0.843749999999991
40
0.874999999999993
40
0.874999999999993
40
0.906249999999995
40
0.906249999999995
40
0.937499999999996
40
0.937499999999996
40
0.968749999999998
40
0.968749999999998
40
1
40
1
40
1
40
1
41
1
10
95.5000000000001
20
3.0514457668219
30
0
41
1
10
95.5705630931302
20
2.67689286386076
30
0
41
1
10
95.6411261862604
20
2.29441629298998
30
0
41
1
10
95.7822523725206
20
1.53001447866757
30
0
41
1
10
95.8528154656508
20
1.14813865939553
30
0
41
1
10
95.958660105346
20
0.586169898306281
30
0
41
1
10
95.9939416519112
20
0.400629310190027
30
0
41
1
10
96.0380435851175
20
0.171802778180421
30
0
41
1
10
96.0468639717589
20
0.126191852887729
30
0
41
1
10
96.0645047450414
20
0.0352982148206138
30
0
41
1
10
96.0733251316826
20
-0.0098768806011549
30
0
41
1
10
96.0997862916064
20
-0.146032228092935
30
0
41
1
10
96.1174270648889
20
-0.237466421629534
30
0
41
1
10
96.2056309313016
20
-0.697562310382011
30
0
41
1
10
96.2761940244318
20
-1.07514100519205
30
0
41
1
10
96.4173202106921
20
-1.83686041186684
30
0
41
1
10
96.4878833038224
20
-2.22096386332112
30
0
41
1
10
96.6290094900827
20
-2.98010960225989
30
0
41
1
10
96.6995725832129
20
-3.3550858728012
30
0
41
1
10
96.8406987694732
20
-4.07875124079678
30
0
41
1
10
96.9112618626034
20
-4.42735824475807
30
0
41
1
10
97.0523880488637
20
-5.08173936796044
30
0
41
1
10
97.1229511419939
20
-5.38743768848727
30
0
41
1
10
97.2640773282542
20
-5.94259685540248
30
0
41
1
10
97.3346404213845
20
-6.1920108700761
30
0
41
1
10
97.4757666076448
20
-6.62625954877299
30
0
41
1
10
97.5463297007749
20
-6.81108833842544
30
0
41
1
10
97.6874558870352
20
-7.11371011673984
30
0
41
1
10
97.7580189801654
20
-7.23153453169948
30
0
41
1
10
97.8991451664257
20
-7.40316482359177
30
0
41
1
10
97.969708259556
20
-7.45702410577636
30
0
41
1
10
98.0579121259686
20
-7.4888068029469
30
0
41
1
10
98.0843732858924
20
-7.49568753531327
30
0
41
1
10
98.1108344458163
20
-7.49874165153284
30
0
41
1
10
98.1284752190988
20
-7.49994548067903
30
0
41
1
10
98.1372956057401
20
-7.50013221377623
30
0
41
1
10
98.1813975389464
20
-7.49901916739128
30
0
41
1
10
98.2166790855116
20
-7.49153188816197
30
0
41
1
10
98.3225237252067
20
-7.44761094675997
30
0
41
1
10
98.393086818337
20
-7.38960703710839
30
0
41
1
10
98.5342130045973
20
-7.20933225930685
30
0
41
1
10
98.6047760977274
20
-7.08700888543189
30
0
41
1
10
98.7459022839877
20
-6.77536775422973
30
0
41
1
10
98.816465377118
20
-6.58602070008163
30
0
41
1
10
98.9575915633783
20
-6.14311141556718
30
0
41
1
10
99.0281546565084
20
-5.88955789156157
30
0
41
1
10
99.1692808427687
20
-5.32687944125263
30
0
41
1
10
99.239843935899
20
-5.0178038551378
30
0
41
1
10
99.3809701221593
20
-4.3577138635703
30
0
41
1
10
99.4515332152895
20
-4.00677646089511
30
0
41
1
10
99.5926594015498
20
-3.27962490765248
30
0
41
1
10
99.66322249468
20
-2.90349239750833
30
0
41
1
10
99.8043486809403
20
-2.14316891377291
30
0
41
1
10
99.8749117740705
20
-1.7590422685374
30
0
41
1
10
100.016037960331
20
-0.998236874102275
30
0
41
1
10
100.086601053461
20
-0.621593293787356
30
0
41
1
10
100.174804919874
20
-0.163111077233197
30
0
41
1
10
100.192445693156
20
-0.0721869347767097
30
0
41
1
10
100.227727239721
20
0.108991267115329
30
0
41
1
10
100.245368013004
20
0.200254452091514
30
0
41
1
10
100.298290332852
20
0.475832384276259
30
0
41
1
10
100.333571879417
20
0.661942834202591
30
0
41
1
10
100.439416519112
20
1.22531070725981
30
0
41
1
10
100.509979612242
20
1.60770288653839
30
0
41
1
10
100.651105798502
20
2.37208658967083
30
0
41
1
10
100.721668891633
20
2.75402667794336
30
0
41
1
10
100.862795077893
20
3.50088888503478
30
0
41
1
10
100.933358171023
20
3.86573517769622
30
0
41
1
10
101.074484357283
20
4.56118992521073
30
0
41
1
10
101.145047450414
20
4.89171614268602
30
0
41
1
10
101.286173636674
20
5.50315915613416
30
0
41
1
10
101.356736729804
20
5.78401126490843
30
0
41
1
10
101.497862916064
20
6.28488007720344
30
0
41
1
10
101.568426009195
20
6.50486849143553
30
0
41
1
10
101.709552195455
20
6.87838662760674
30
0
41
1
10
101.780115288585
20
7.03192920834911
30
0
41
1
10
101.921241474845
20
7.27276946700826
30
0
41
1
10
101.991804567976
20
7.36011110865394
30
0
41
1
10
102.132930754236
20
7.47369771899366
30
0
41
1
10
102.203493847366
20
7.5
30
0
41
1
10
102.274056940496
20
7.5
30
0
0
SPLINE
5
DF
100
AcDbEntity
8
1
62
256
6
ByLayer
370
13
48
1
60
0
100
AcDbSpline
70
4
71
3
72
83
73
79
40
0
40
0
40
0
40
0
40
0.0078125
40
0.0078125
40
0.0156249999999999
40
0.0156249999999999
40
0.0312500000000003
40
0.0312500000000003
40
0.0625000000000011
40
0.0625000000000011
40
0.0937500000000019
40
0.0937500000000019
40
0.125000000000003
40
0.125000000000003
40
0.156250000000004
40
0.156250000000004
40
0.187500000000004
40
0.187500000000004
40
0.218750000000005
40
0.218750000000005
40
0.250000000000006
40
0.250000000000006
40
0.281250000000007
40
0.281250000000007
40
0.312500000000007
40
0.312500000000007
40
0.328125000000008
40
0.328125000000008
40
0.335937500000008
40
0.335937500000008
40
0.343750000000008
40
0.343750000000008
40
0.375000000000007
40
0.375000000000007
40
0.406250000000006
40
0.406250000000006
40
0.437500000000005
40
0.437500000000005
40
0.468750000000004
40
0.468750000000004
40
0.500000000000002
40
0.500000000000002
40
0.531250000000001
40
0.531250000000001
40
0.5625
40
0.5625
40
0.593749999999999
40
0.593749999999999
40
0.624999999999998
40
0.624999999999998
40
0.656249999999997
40
0.656249999999997
40
0.664062499999997
40
0.667968749999997
40
0.667968749999997
40
0.671874999999997
40
0.671874999999997
40
0.687499999999997
40
0.687499999999997
40
0.718749999999997
40
0.718749999999997
40
0.749999999999997
40
0.749999999999997
40
0.781249999999998
40
0.781249999999998
40
0.812499999999998
40
0.812499999999998
40
0.843749999999998
40
0.843749999999998
40
0.874999999999999
40
0.874999999999999
40
0.906249999999999
40
0.906249999999999
40
0.937499999999999
40
0.937499999999999
40
0.96875
40
0.96875
40
1
40
1
40
1
40
1
41
1
10
95.5
20
0.376424576049089
30
0
41
1
10
95.5163420174526
20
0.290998398450398
30
0
41
1
10
95.5326840349054
20
0.206062011313321
30
0
41
1
10
95.5653680698107
20
0.0372968604953883
30
0
41
1
10
95.5817100872633
20
-0.0462629069117213
30
0
41
1
10
95.6307361396214
20
-0.299528480391615
30
0
41
1
10
95.6634201745268
20
-0.470584205743535
30
0
41
1
10
95.7614722792427
20
-0.988780252799529
30
0
41
1
10
95.8268403490533
20
-1.34102722551694
30
0
41
1
10
95.9575764886747
20
-2.04851049400511
30
0
41
1
10
96.0229445584853
20
-2.40371697579104
30
0
41
1
10
96.1536806981065
20
-3.10437519998405
30
0
41
1
10
96.2190487679173
20
-3.44977966173809
30
0
41
1
10
96.3497849075386
20
-4.11711306808766
30
0
41
1
10
96.4151529773492
20
-4.43898567820403
30
0
41
1
10
96.5458891169706
20
-5.04615129376336
30
0
41
1
10
96.6112571867812
20
-5.33139232255343
30
0
41
1
10
96.7419933264026
20
-5.85448694504947
30
0
41
1
10
96.8073613962132
20
-6.09230636355377
30
0
41
1
10
96.9380975358346
20
-6.51338762767671
30
0
41
1
10
97.0034656056451
20
-6.69664091119955
30
0
41
1
10
97.1342017452664
20
-7.00572123275441
30
0
41
1
10
97.1995698150772
20
-7.13156457722494
30
0
41
1
10
97.3303059546986
20
-7.32713059161574
30
0
41
1
10
97.3956740245092
20
-7.39688653404022
30
0
41
1
10
97.4937261292252
20
-7.46295536736326
30
0
41
1
10
97.5264101641305
20
-7.4785739136444
30
0
41
1
10
97.5754362164885
20
-7.49300023769806
30
0
41
1
10
97.5917782339411
20
-7.49630974466544
30
0
41
1
10
97.6244622688464
20
-7.50004129047167
30
0
41
1
10
97.640804286299
20
-7.50047250602492
30
0
41
1
10
97.7225143735624
20
-7.4955856049547
30
0
41
1
10
97.7878824433731
20
-7.4687917470857
30
0
41
1
10
97.9186185829943
20
-7.36285574630233
30
0
41
1
10
97.9839866528051
20
-7.28367444227808
30
0
41
1
10
98.1147227924265
20
-7.06875747783718
30
0
41
1
10
98.1800908622372
20
-6.9329907224915
30
0
41
1
10
98.3108270018585
20
-6.60423966891506
30
0
41
1
10
98.3761950716691
20
-6.41124294584949
30
0
41
1
10
98.5069312112904
20
-5.97160432708398
30
0
41
1
10
98.572299281101
20
-5.7249756054928
30
0
41
1
10
98.7030354207224
20
-5.18589051407071
30
0
41
1
10
98.768403490533
20
-4.89347216701961
30
0
41
1
10
98.8991396301544
20
-4.27409097552095
30
0
41
1
10
98.964507699965
20
-3.94718189673387
30
0
41
1
10
99.0952438395864
20
-3.27214888342812
30
0
41
1
10
99.1606119093971
20
-2.92408058822804
30
0
41
1
10
99.2913480490184
20
-2.22040860465142
30
0
41
1
10
99.3567161188291
20
-1.86484959606312
30
0
41
1
10
99.4874522584503
20
-1.15867455311511
30
0
41
1
10
99.552820328261
20
-0.808084969947515
30
0
41
1
10
99.6345304155244
20
-0.379305131428367
30
0
41
1
10
99.6590434417033
20
-0.251370795732782
30
0
41
1
10
99.6835564678823
20
-0.124634129822112
30
0
41
1
10
99.6998984853349
20
-0.0404243458038422
30
0
41
1
10
99.7080694940613
20
0.001442915006578
30
0
41
1
10
99.748924537693
20
0.21152815945959
30
0
41
1
10
99.7816085725983
20
0.381891919839774
30
0
41
1
10
99.8796606773142
20
0.898308281257926
30
0
41
1
10
99.9450287471249
20
1.24976543490317
30
0
41
1
10
100.075764886746
20
1.9566807965945
30
0
41
1
10
100.141132956557
20
2.31211086850033
30
0
41
1
10
100.271869096178
20
3.01437485968913
30
0
41
1
10
100.337237165989
20
3.36116276911048
30
0
41
1
10
100.46797330561
20
4.03244733284413
30
0
41
1
10
100.533341375421
20
4.35688794975508
30
0
41
1
10
100.664077515042
20
4.97025276415991
30
0
41
1
10
100.729445584853
20
5.2591240376276
30
0
41
1
10
100.860181724474
20
5.79028365351337
30
0
41
1
10
100.925549794285
20
6.03253586430461
30
0
41
1
10
101.056285933906
20
6.46293591143549
30
0
41
1
10
101.121654003717
20
6.65107288005927
30
0
41
1
10
101.252390143338
20
6.96999659123642
30
0
41
1
10
101.317758213149
20
7.10079772852057
30
0
41
1
10
101.44849435277
20
7.30601831214409
30
0
41
1
10
101.513862422581
20
7.38046998348628
30
0
41
1
10
101.644598562202
20
7.47744114721863
30
0
41
1
10
101.709966632013
20
7.5
30
0
41
1
10
101.775334701823
20
7.5
30
0
0
SPLINE
5
E0
100
AcDbEntity
8
1
62
256
6
ByLayer
370
13
48
1
60
0
100
AcDbSpline
70
4
71
3
72
78
73
74
40
0
40
0
40
0
40
0
40
0.03125
40
0.03125
40
0.0624999999999999
40
0.0624999999999999
40
0.0937499999999998
40
0.0937499999999998
40
0.125
40
0.125
40
0.15625
40
0.15625
40
0.1875
40
0.1875
40
0.218749999999999
40
0.218749999999999
40
0.249999999999999
40
0.249999999999999
40
0.281249999999999
40
0.281249999999999
40
0.289062499999999
40
0.289062499999999
40
0.296874999999999
40
0.296874999999999
40
0.312499999999999
40
0.312499999999999
40
0.343749999999999
40
0.343749999999999
40
0.374999999999999
40
0.374999999999999
40
0.40625
40
0.40625
40
0.4375
40
0.4375
40
0.468750000000001
40
0.468750000000001
40
0.500000000000001
40
0.500000000000001
40
0.531250000000001
40
0.531250000000001
40
0.562500000000002
40
0.562500000000002
40
0.593750000000002
40
0.593750000000002
40
0.625000000000003
40
0.625000000000003
40
0.640625000000003
40
0.640625000000003
40
0.648437500000002
40
0.648437500000002
40
0.656250000000002
40
0.656250000000002
40
0.687500000000002
40
0.687500000000002
40
0.718750000000002
40
0.718750000000002
40
0.750000000000001
40
0.750000000000001
40
0.781250000000001
40
0.781250000000001
40
0.812500000000001
40
0.812500000000001
40
0.843750000000001
40
0.843750000000001
40
0.875000000000001
40
0.875000000000001
40
0.906250000000001
40
0.906250000000001
40
0.937500000000001
40
0.937500000000001
40
0.96875
40
0.96875
40
1
40
1
40
1
40
1
41
1
10
95.5000000000001
20
-2.27144000868247
30
0
41
1
10
95.5601730464912
20
-2.59681426198935
30
0
41
1
10
95.6203460929823
20
-2.92057075876266
30
0
41
1
10
95.7406921859646
20
-3.55444160115928
30
0
41
1
10
95.8008652324557
20
-3.86452091820345
30
0
41
1
10
95.9212113254381
20
-4.46038260052848
30
0
41
1
10
95.9813843719292
20
-4.74612762862427
30
0
41
1
10
96.1017304649115
20
-5.28358332625246
30
0
41
1
10
96.1619035114027
20
-5.53526232988841
30
0
41
1
10
96.282249604385
20
-5.99683240742368
30
0
41
1
10
96.3424226508761
20
-6.20670441652479
30
0
41
1
10
96.4627687438584
20
-6.57967622507374
30
0
41
1
10
96.5229417903497
20
-6.74277293833032
30
0
41
1
10
96.6432878833319
20
-7.02032033232845
30
0
41
1
10
96.703460929823
20
-7.13478277616485
30
0
41
1
10
96.8238070228055
20
-7.31615961491781
30
0
41
1
10
96.8839800692965
20
-7.38309595356247
30
0
41
1
10
97.0043261622789
20
-7.47296422795222
30
0
41
1
10
97.06449920877
20
-7.4959222186761
30
0
41
1
10
97.1397155168839
20
-7.50039540771519
30
0
41
1
10
97.1547587785068
20
-7.50009527329132
30
0
41
1
10
97.1848453017524
20
-7.49707180379446
30
0
41
1
10
97.1998885633751
20
-7.4943404768749
30
0
41
1
10
97.2450183482435
20
-7.48235696223981
30
0
41
1
10
97.275104871489
20
-7.46931252746657
30
0
41
1
10
97.3653644412257
20
-7.41405222081008
30
0
41
1
10
97.4255374877168
20
-7.35564624088795
30
0
41
1
10
97.5458835806992
20
-7.19182826991118
30
0
41
1
10
97.6060566271904
20
-7.08639310445645
30
0
41
1
10
97.7264027201727
20
-6.82689563965567
30
0
41
1
10
97.7865757666639
20
-6.67281925080252
30
0
41
1
10
97.9069218596461
20
-6.31730665365768
30
0
41
1
10
97.9670949061373
20
-6.11587054778087
30
0
41
1
10
98.0874409991196
20
-5.67002178026178
30
0
41
1
10
98.1476140456107
20
-5.42562532622364
30
0
41
1
10
98.267960138593
20
-4.90111379724095
30
0
41
1
10
98.3281331850842
20
-4.62102848552686
30
0
41
1
10
98.4484792780665
20
-4.03456795401897
30
0
41
1
10
98.5086523245577
20
-3.72822962788197
30
0
41
1
10
98.6289984175399
20
-3.09983490639283
30
0
41
1
10
98.6891714640311
20
-2.77781452963524
30
0
41
1
10
98.8095175570135
20
-2.12864578140747
30
0
41
1
10
98.8696906035045
20
-1.80152577206849
30
0
41
1
10
98.9900366964868
20
-1.15177632277315
30
0
41
1
10
99.050209742978
20
-0.829163938545264
30
0
41
1
10
99.1404693127147
20
-0.354579501013092
30
0
41
1
10
99.1705558359603
20
-0.197925853788433
30
0
41
1
10
99.2156856208287
20
0.0341379613624042
30
0
41
1
10
99.2307288824516
20
0.111361755975992
30
0
41
1
10
99.2608154056971
20
0.267249840213225
30
0
41
1
10
99.2758586673199
20
0.34564909611953
30
0
41
1
10
99.3510749754338
20
0.739666866544269
30
0
41
1
10
99.411248021925
20
1.06142485838106
30
0
41
1
10
99.5315941149073
20
1.71028300562435
30
0
41
1
10
99.5917671613984
20
2.03736721733424
30
0
41
1
10
99.7121132543807
20
2.68741337964787
30
0
41
1
10
99.7722863008718
20
3.01034792369995
30
0
41
1
10
99.8926323938542
20
3.6415733981585
30
0
41
1
10
99.9528054403453
20
3.94982877586133
30
0
41
1
10
100.073151533328
20
4.5410785273244
30
0
41
1
10
100.133324579819
20
4.82403574980896
30
0
41
1
10
100.253670672801
20
5.35509435202985
30
0
41
1
10
100.313843719292
20
5.60316498720772
30
0
41
1
10
100.434189812275
20
6.05692779289697
30
0
41
1
10
100.494362858766
20
6.26260231402441
30
0
41
1
10
100.614708951748
20
6.62687172158175
30
0
41
1
10
100.674881998239
20
6.78546502079098
30
0
41
1
10
100.795228091222
20
7.05398804717788
30
0
41
1
10
100.855401137713
20
7.16393072278831
30
0
41
1
10
100.975747230695
20
7.33650544446638
30
0
41
1
10
101.035920277186
20
7.3991600768048
30
0
41
1
10
101.156266370168
20
7.48089428427642
30
0
41
1
10
101.216439416659
20
7.5
30
0
41
1
10
101.276612463151
20
7.5
30
0
0
SPLINE
5
E1
100
AcDbEntity
8
1
62
256
6
ByLayer
370
13
48
1
60
0
100
AcDbSpline
70
4
71
3
72
10
73
6
40
0
40
0
40
0
40
0
40
0.5
40
0.5
40
1
40
1
40
1
40
1
41
1
10
103.479556232276
20
7.5
30
0
41
1
10
103.528000734064
20
7.5
30
0
41
1
10
103.576445235852
20
7.48762835513639
30
0
41
1
10
103.673334239428
20
7.43530605416956
30
0
41
1
10
103.721778741215
20
7.39534651771655
30
0
41
1
10
103.770223243003
20
7.34047914993141
30
0
0
SPLINE
5
E2
100
AcDbEntity
8
1
62
256
6
ByLayer
370
13
48
1
60
0
100
AcDbSpline
70
4
71
3
72
78
73
74
40
0
40
0
40
0
40
0
40
0.0312500000000009
40
0.0312500000000009
40
0.0625000000000017
40
0.0625000000000017
40
0.0937500000000026
40
0.0937500000000026
40
0.125000000000003
40
0.125000000000003
40
0.156250000000004
40
0.156250000000004
40
0.187500000000005
40
0.187500000000005
40
0.203125000000006
40
0.203125000000006
40
0.210937500000006
40
0.210937500000006
40
0.218750000000006
40
0.218750000000006
40
0.250000000000006
40
0.250000000000006
40
0.281250000000005
40
0.281250000000005
40
0.312500000000005
40
0.312500000000005
40
0.343750000000005
40
0.343750000000005
40
0.375000000000005
40
0.375000000000005
40
0.406250000000004
40
0.406250000000004
40
0.437500000000004
40
0.437500000000004
40
0.468750000000004
40
0.468750000000004
40
0.500000000000004
40
0.500000000000004
40
0.531250000000003
40
0.531250000000003
40
0.562500000000003
40
0.562500000000003
40
0.593750000000003
40
0.593750000000003
40
0.601562500000003
40
0.601562500000003
40
0.609375000000003
40
0.609375000000003
40
0.625000000000003
40
0.625000000000003
40
0.656250000000003
40
0.656250000000003
40
0.687500000000003
40
0.687500000000003
40
0.718750000000002
40
0.718750000000002
40
0.750000000000002
40
0.750000000000002
40
0.781250000000002
40
0.781250000000002
40
0.812500000000002
40
0.812500000000002
40
0.843750000000001
40
0.843750000000001
40
0.875000000000001
40
0.875000000000001
40
0.906250000000001
40
0.906250000000001
40
0.937500000000001
40
0.937500000000001
40
0.96875
40
0.96875
40
1
40
1
40
1
40
1
41
1
10
95.5
20
-4.82075342760848
30
0
41
1
10
95.5549780231717
20
-5.07340008362948
30
0
41
1
10
95.6099560463433
20
-5.31273092215559
30
0
41
1
10
95.7199120926865
20
-5.75839933254318
30
0
41
1
10
95.7748901158583
20
-5.96472177616999
30
0
41
1
10
95.8848461622015
20
-6.33975246763913
30
0
41
1
10
95.9398241853733
20
-6.50845450162836
30
0
41
1
10
96.0497802317165
20
-6.80573527632325
30
0
41
1
10
96.1047582548881
20
-6.93431708888431
30
0
41
1
10
96.2147143012314
20
-7.1510065766351
30
0
41
1
10
96.2696923244031
20
-7.23912492255775
30
0
41
1
10
96.3796483707463
20
-7.37648052227277
30
0
41
1
10
96.4346263939179
20
-7.42573307480825
30
0
41
1
10
96.5170934286755
20
-7.47280241562387
30
0
41
1
10
96.5445824402613
20
-7.48403447795892
30
0
41
1
10
96.5858159576399
20
-7.4945659363259
30
0
41
1
10
96.5995604634329
20
-7.49702411162306
30
0
41
1
10
96.6270494750187
20
-7.49990238396569
30
0
41
1
10
96.6407939808116
20
-7.5003265487324
30
0
41
1
10
96.7095165097762
20
-7.49747659932376
30
0
41
1
10
96.7644945329478
20
-7.47909516353062
30
0
41
1
10
96.8744505792911
20
-7.40609658563594
30
0
41
1
10
96.9294286024627
20
-7.35146276501345
30
0
41
1
10
97.039384648806
20
-7.2030114761065
30
0
41
1
10
97.0943626719777
20
-7.10917916687058
30
0
41
1
10
97.204318718321
20
-6.88098366387885
30
0
41
1
10
97.2592967414926
20
-6.7466107202788
30
0
41
1
10
97.3692527878359
20
-6.43796904197927
30
0
41
1
10
97.4242308110076
20
-6.26369849835538
30
0
41
1
10
97.5341868573508
20
-5.87806259623881
30
0
41
1
10
97.5891648805225
20
-5.6667047985305
30
0
41
1
10
97.6991209268659
20
-5.21177868166279
30
0
41
1
10
97.7540989500375
20
-4.96822660071018
30
0
41
1
10
97.8640549963807
20
-4.45551763457465
30
0
41
1
10
97.9190330195523
20
-4.18638286681687
30
0
41
1
10
98.0289890658956
20
-3.63024767606623
30
0
41
1
10
98.0839670890673
20
-3.3432711486422
30
0
41
1
10
98.1939231354106
20
-2.75961819006088
30
0
41
1
10
98.2489011585822
20
-2.46296327996035
30
0
41
1
10
98.3588572049255
20
-1.86784906448202
30
0
41
1
10
98.4138352280971
20
-1.5694058442551
30
0
41
1
10
98.5237912744405
20
-0.977765689163249
30
0
41
1
10
98.5787692976121
20
-0.684578027597752
30
0
41
1
10
98.6474918265767
20
-0.325010981376494
30
0
41
1
10
98.6612363323696
20
-0.253440150599033
30
0
41
1
10
98.6887253439554
20
-0.111060871227607
30
0
41
1
10
98.7024698497482
20
-0.0404370948736243
30
0
41
1
10
98.7437033671271
20
0.171441911926507
30
0
41
1
10
98.7711923787127
20
0.31432572882531
30
0
41
1
10
98.8536594134703
20
0.746958202625422
30
0
41
1
10
98.9086374366419
20
1.04072912531376
30
0
41
1
10
99.0185934829852
20
1.63307141780203
30
0
41
1
10
99.0735715061569
20
1.93163301986587
30
0
41
1
10
99.1835275525002
20
2.52644411702516
30
0
41
1
10
99.2385055756718
20
2.82267707281866
30
0
41
1
10
99.3484616220151
20
3.40490565926669
30
0
41
1
10
99.4034396451867
20
3.69087948030531
30
0
41
1
10
99.51339569153
20
4.24443476058767
30
0
41
1
10
99.5683737147016
20
4.51199230674979
30
0
41
1
10
99.6783297610449
20
5.02102980105696
30
0
41
1
10
99.7333077842166
20
5.26248792390354
30
0
41
1
10
99.8432638305599
20
5.71281401428334
30
0
41
1
10
99.8982418537315
20
5.92166629164964
30
0
41
1
10
100.008197900075
20
6.30201850882636
30
0
41
1
10
100.063175923247
20
6.47351155997916
30
0
41
1
10
100.17313196959
20
6.77648075278674
30
0
41
1
10
100.228109992761
20
6.90795933896482
30
0
41
1
10
100.338066039105
20
7.1303992104427
30
0
41
1
10
100.393044062276
20
7.22137071366456
30
0
41
1
10
100.50300010862
20
7.36426248570623
30
0
41
1
10
100.557978131791
20
7.41619783280973
30
0
41
1
10
100.667934178135
20
7.4840582430075
30
0
41
1
10
100.722912201306
20
7.5
30
0
41
1
10
100.777890224478
20
7.5
30
0
0
SPLINE
5
E3
100
AcDbEntity
8
1
62
256
6
ByLayer
370
13
48
1
60
0
100
AcDbSpline
70
4
71
3
72
14
73
10
40
0
40
0
40
0
40
0
40
0.25
40
0.25
40
0.5
40
0.5
40
0.75
40
0.75
40
1
40
1
40
1
40
1
41
1
10
102.980833993603
20
7.5
30
0
41
1
10
103.046616431053
20
7.5
30
0
41
1
10
103.112398868503
20
7.47715323171201
30
0
41
1
10
103.243963743403
20
7.37890756737974
30
0
41
1
10
103.309746180853
20
7.30346806614577
30
0
41
1
10
103.441311055753
20
7.09551558617386
30
0
41
1
10
103.507093493203
20
6.96296952099627
30
0
41
1
10
103.638658368103
20
6.63984323429048
30
0
41
1
10
103.704440805553
20
6.44924860381212
30
0
41
1
10
103.770223243003
20
6.2313142678565
30
0
0
SPLINE
5
E4
100
AcDbEntity
8
1
62
256
6
ByLayer
370
13
48
1
60
0
100
AcDbSpline
70
4
71
3
72
77
73
73
40
0
40
0
40
0
40
0
40
0.0312499999999995
40
0.0312499999999995
40
0.0624999999999991
40
0.0624999999999991
40
0.0937499999999986
40
0.0937499999999986
40
0.124999999999998
40
0.124999999999998
40
0.132812499999998
40
0.132812499999998
40
0.140624999999998
40
0.140624999999998
40
0.156249999999998
40
0.156249999999998
40
0.187499999999999
40
0.187499999999999
40
0.218749999999999
40
0.218749999999999
40
0.249999999999999
40
0.249999999999999
40
0.281249999999999
40
0.281249999999999
40
0.312499999999999
40
0.312499999999999
40
0.343749999999999
40
0.343749999999999
40
0.374999999999999
40
0.374999999999999
40
0.406249999999999
40
0.406249999999999
40
0.4375
40
0.4375
40
0.46875
40
0.46875
40
0.5
40
0.5
40
0.53125
40
0.53125
40
0.5625
40
0.5625
40
0.5703125
40
0.5703125
40
0.578125
40
0.59375
40
0.59375
40
0.625
40
0.625
40
0.65625
40
0.65625
40
0.6875
40
0.6875
40
0.71875
40
0.71875
40
0.75
40
0.75
40
0.78125
40
0.78125
40
0.8125
40
0.8125
40
0.84375
40
0.84375
40
0.875
40
0.875
40
0.90625
40
0.90625
40
0.9375
40
0.9375
40
0.96875
40
0.96875
40
1
40
1
40
1
40
1
41
1
10
95.5
20
-6.66765935730569
30
0
41
1
10
95.5497829998521
20
-6.80139432962983
30
0
41
1
10
95.5995659997043
20
-6.91868166963661
30
0
41
1
10
95.6991319994086
20
-7.12006057566646
30
0
41
1
10
95.7489149992607
20
-7.2041583801437
30
0
41
1
10
95.848480998965
20
-7.34018323938938
30
0
41
1
10
95.8982639988171
20
-7.39211929847909
30
0
41
1
10
95.9978299985214
20
-7.46593249328811
30
0
41
1
10
96.0476129983736
20
-7.48781976339373
30
0
41
1
10
96.1098417481887
20
-7.49820777682913
30
0
41
1
10
96.1222874981517
20
-7.49943833486387
30
0
41
1
10
96.1471789980777
20
-7.50025586162354
30
0
41
1
10
96.1596247480408
20
-7.49985010969615
30
0
41
1
10
96.1969619979299
20
-7.49613649578214
30
0
41
1
10
96.221853497856
20
-7.49032153936076
30
0
41
1
10
96.2965279976341
20
-7.46227616131284
30
0
41
1
10
96.3463109974863
20
-7.42942073858572
30
0
41
1
10
96.4458769971907
20
-7.33276904881046
30
0
41
1
10
96.4956599970427
20
-7.26896288572772
30
0
41
1
10
96.595225996747
20
-7.10866979623131
30
0
41
1
10
96.6450089965992
20
-7.01217471122197
30
0
41
1
10
96.7445749963034
20
-6.78594504636331
30
0
41
1
10
96.7943579961554
20
-6.65620566694716
30
0
41
1
10
96.8939239958598
20
-6.36431045269424
30
0
41
1
10
96.943706995712
20
-6.20215446964434
30
0
41
1
10
97.0432729954162
20
-5.84770957129211
30
0
41
1
10
97.0930559952683
20
-5.65542571334038
30
0
41
1
10
97.1926219949726
20
-5.24439670394722
30
0
41
1
10
97.2424049948247
20
-5.02566138035519
30
0
41
1
10
97.341970994529
20
-4.56656321460662
30
0
41
1
10
97.3917539943811
20
-4.32621357851741
30
0
41
1
10
97.4913199940854
20
-3.82953095123401
30
0
41
1
10
97.5411029939376
20
-3.57321252480676
30
0
41
1
10
97.6406689936418
20
-3.05062206369902
30
0
41
1
10
97.690451993494
20
-2.78436381771959
30
0
41
1
10
97.7900179931983
20
-2.24787557442457
30
0
41
1
10
97.8398009930504
20
-1.97765684292574
30
0
41
1
10
97.9393669927547
20
-1.43879953012114
30
0
41
1
10
97.9891499926067
20
-1.17016865815341
30
0
41
1
10
98.0887159923111
20
-0.639321100320956
30
0
41
1
10
98.1384989921633
20
-0.377108321559973
30
0
41
1
10
98.2007277419784
20
-0.0558147533136264
30
0
41
1
10
98.2131734919414
20
0.0079010890897848
30
0
41
1
10
98.2380649918675
20
0.136094378195821
30
0
41
1
10
98.2754022417566
20
0.329367455367816
30
0
41
1
10
98.3127394916457
20
0.525348812502585
30
0
41
1
10
98.3874139914239
20
0.920196340115098
30
0
41
1
10
98.4371969912761
20
1.18730131804392
30
0
41
1
10
98.5367629909802
20
1.72470233091457
30
0
41
1
10
98.5865459908324
20
1.99499185276338
30
0
41
1
10
98.6861119905367
20
2.53341600605043
30
0
41
1
10
98.7358949903888
20
2.80154040962773
30
0
41
1
10
98.8354609900931
20
3.32975540559528
30
0
41
1
10
98.8852439899451
20
3.58983283916874
30
0
41
1
10
98.9848099896495
20
4.09589665997498
30
0
41
1
10
99.0345929895017
20
4.34186850494655
30
0
41
1
10
99.1341589892059
20
4.81390782588957
30
0
41
1
10
99.1839419890581
20
5.03996143807422
30
0
41
1
10
99.2835079887624
20
5.46702931741677
30
0
41
1
10
99.3332909886145
20
5.66803251335961
30
0
41
1
10
99.4328569883188
20
6.0409249824869
30
0
41
1
10
99.4826399881709
20
6.21280761261391
30
0
41
1
10
99.5822059878752
20
6.52471616223573
30
0
41
1
10
99.6319889877273
20
6.66474061937302
30
0
41
1
10
99.7315549874316
20
6.91164537497923
30
0
41
1
10
99.7813379872837
20
7.01852913127055
30
0
41
1
10
99.880903986988
20
7.19928850087638
30
0
41
1
10
99.9306869868402
20
7.27317139073682
30
0
41
1
10
100.030252986544
20
7.38932256065297
30
0
41
1
10
100.080035986396
20
7.4316003705531
30
0
41
1
10
100.179601986101
20
7.48693400214754
30
0
41
1
10
100.229384985953
20
7.5
30
0
41
1
10
100.279167985805
20
7.5
30
0
0
SPLINE
5
E5
100
AcDbEntity
8
1
62
256
6
ByLayer
370
13
48
1
60
0
100
AcDbSpline
70
4
71
3
72
22
73
18
40
0
40
0
40
0
40
0
40
0.125
40
0.125
40
0.25
40
0.25
40
0.375
40
0.375
40
0.5
40
0.5
40
0.625
40
0.625
40
0.75
40
0.75
40
0.875
40
0.875
40
1
40
1
40
1
40
1
41
1
10
102.48211175493
20
7.5
30
0
41
1
10
102.535783066933
20
7.5
30
0
41
1
10
102.589454378936
20
7.48480867968098
30
0
41
1
10
102.696797002943
20
7.42022529281689
30
0
41
1
10
102.750468314946
20
7.37081841697773
30
0
41
1
10
102.857810938952
20
7.23492869806603
30
0
41
1
10
102.911482250955
20
7.14843234686828
30
0
41
1
10
103.018824874961
20
6.93689335590764
30
0
41
1
10
103.072496186964
20
6.8118412485469
30
0
41
1
10
103.17983881097
20
6.52348079858012
30
0
41
1
10
103.233510122973
20
6.36016954493542
30
0
41
1
10
103.340852746979
20
5.99753607250904
30
0
41
1
10
103.394524058982
20
5.79821896402021
30
0
41
1
10
103.501866682988
20
5.36774556184071
30
0
41
1
10
103.555537994991
20
5.13660217689056
30
0
41
1
10
103.662880618997
20
4.64830153638388
30
0
41
1
10
103.716551931
20
4.3911629639772
30
0
41
1
10
103.770223243003
20
4.12451520381973
30
0
0
SPLINE
5
E6
100
AcDbEntity
8
1
62
256
6
ByLayer
370
13
48
1
60
0
100
AcDbSpline
70
4
71
3
72
71
73
67
40
0
40
0
40
0
40
0
40
0.0312500000000003
40
0.0312500000000003
40
0.0390625000000003
40
0.0390625000000003
40
0.0468750000000004
40
0.0625000000000005
40
0.0625000000000005
40
0.124999999999999
40
0.124999999999999
40
0.156249999999998
40
0.156249999999998
40
0.187499999999998
40
0.187499999999998
40
0.218749999999997
40
0.218749999999997
40
0.249999999999996
40
0.249999999999996
40
0.281249999999995
40
0.281249999999995
40
0.312499999999995
40
0.312499999999995
40
0.343749999999994
40
0.343749999999994
40
0.374999999999993
40
0.374999999999993
40
0.406249999999992
40
0.406249999999992
40
0.437499999999992
40
0.437499999999992
40
0.499999999999991
40
0.499999999999991
40
0.515624999999991
40
0.515624999999991
40
0.523437499999991
40
0.523437499999991
40
0.531249999999991
40
0.531249999999991
40
0.562499999999992
40
0.562499999999992
40
0.593749999999993
40
0.593749999999993
40
0.624999999999993
40
0.624999999999993
40
0.656249999999994
40
0.656249999999994
40
0.687499999999994
40
0.687499999999994
40
0.718749999999995
40
0.718749999999995
40
0.749999999999995
40
0.749999999999995
40
0.781249999999996
40
0.781249999999996
40
0.812499999999996
40
0.812499999999996
40
0.843749999999997
40
0.843749999999997
40
0.874999999999997
40
0.874999999999997
40
0.906249999999998
40
0.906249999999998
40
0.937499999999998
40
0.937499999999998
40
1
40
1
40
1
40
1
41
1
10
95.5
20
-7.46146686969385
30
0
41
1
10
95.5445879765326
20
-7.48554551558479
30
0
41
1
10
95.5891759530652
20
-7.4979452519465
30
0
41
1
10
95.644910923731
20
-7.50021913890637
30
0
41
1
10
95.6560579178642
20
-7.50001896561432
30
0
41
1
10
95.6783519061305
20
-7.4982922414342
30
0
41
1
10
95.7117928885299
20
-7.49370420837661
30
0
41
1
10
95.7452338709294
20
-7.48295813615687
30
0
41
1
10
95.856703812261
20
-7.432774208305
30
0
41
1
10
95.9458797653263
20
-7.34631083940028
30
0
41
1
10
96.0796436949241
20
-7.13779180231555
30
0
41
1
10
96.1242316714568
20
-7.05521807324064
30
0
41
1
10
96.213407624522
20
-6.8634255805357
30
0
41
1
10
96.2579956010546
20
-6.75420362520157
30
0
41
1
10
96.3471715541199
20
-6.50946574740075
30
0
41
1
10
96.3917595306526
20
-6.37394891091199
30
0
41
1
10
96.4809354837179
20
-6.07790723532207
30
0
41
1
10
96.5255234602504
20
-5.91738413440063
30
0
41
1
10
96.6146994133157
20
-5.57353955516805
30
0
41
1
10
96.6592873898483
20
-5.39022245242998
30
0
41
1
10
96.7484633429136
20
-5.00383097660978
30
0
41
1
10
96.7930513194461
20
-4.80076317866912
30
0
41
1
10
96.8822272725114
20
-4.3785765370736
30
0
41
1
10
96.9268152490441
20
-4.1594656783243
30
0
41
1
10
97.0159912021093
20
-3.70934249909638
30
0
41
1
10
97.060579178642
20
-3.47833859095616
30
0
41
1
10
97.1497551317072
20
-3.0087723727728
30
0
41
1
10
97.1943431082399
20
-2.77021792753791
30
0
41
1
10
97.2835190613051
20
-2.2898393090602
30
0
41
1
10
97.3281070378378
20
-2.04802166607615
30
0
41
1
10
97.4618709674357
20
-1.32368744822196
30
0
41
1
10
97.5510469205009
20
-0.842581389047211
30
0
41
1
10
97.6625168618325
20
-0.259884021808261
30
0
41
1
10
97.6848108500988
20
-0.144256825822311
30
0
41
1
10
97.7182518324983
20
0.0275755764106407
30
0
41
1
10
97.7293988266314
20
0.0848009800033367
30
0
41
1
10
97.7516928148976
20
0.20003983517708
30
0
41
1
10
97.7628398090309
20
0.257914477199449
30
0
41
1
10
97.8185747796966
20
0.548462844553114
30
0
41
1
10
97.8631627562293
20
0.784685315390163
30
0
41
1
10
97.9523387092946
20
1.26173744796455
30
0
41
1
10
97.9969266858271
20
1.50256454134194
30
0
41
1
10
98.0861026388924
20
1.98530213217484
30
0
41
1
10
98.130690615425
20
2.22720808822623
30
0
41
1
10
98.2198665684903
20
2.70812397937954
30
0
41
1
10
98.264454545023
20
2.94712752722876
30
0
41
1
10
98.3536304980882
20
3.41796827855393
30
0
41
1
10
98.3982184746208
20
3.6497977053406
30
0
41
1
10
98.487394427686
20
4.10194356477041
30
0
41
1
10
98.5319824042186
20
4.32225159550867
30
0
41
1
10
98.6211583572839
20
4.74717761503442
30
0
41
1
10
98.6657463338166
20
4.95178754184514
30
0
41
1
10
98.7549222868819
20
5.34156075329372
30
0
41
1
10
98.7995102634144
20
5.52671730560337
30
0
41
1
10
98.8886862164797
20
5.8744733187649
30
0
41
1
10
98.9332741930123
20
6.03706819066898
30
0
41
1
10
99.0224501460776
20
6.33740927855027
30
0
41
1
10
99.0670381226103
20
6.47515352152172
30
0
41
1
10
99.1562140756755
20
6.72442056159534
30
0
41
1
10
99.2008020522081
20
6.83594405315824
30
0
41
1
10
99.2899780052734
20
7.0323345463614
30
0
41
1
10
99.3345659818061
20
7.11720456535932
30
0
41
1
10
99.4237419348712
20
7.26073345863361
30
0
41
1
10
99.4683299114038
20
7.31939704504413
30
0
41
1
10
99.6020938410018
20
7.45788180215413
30
0
41
1
10
99.691269794067
20
7.5
30
0
41
1
10
99.7804457471323
20
7.5
30
0
0
SPLINE
5
E7
100
AcDbEntity
8
1
62
256
6
ByLayer
370
13
48
1
60
0
100
AcDbSpline
70
4
71
3
72
22
73
18
40
0
40
0
40
0
40
0
40
0.125
40
0.125
40
0.25
40
0.25
40
0.375
40
0.375
40
0.5
40
0.5
40
0.625
40
0.625
40
0.75
40
0.75
40
0.875
40
0.875
40
1
40
1
40
1
40
1
41
1
10
101.983389516258
20
7.5
30
0
41
1
10
102.057840921539
20
7.5
30
0
41
1
10
102.13229232682
20
7.47070518558974
30
0
41
1
10
102.281195137382
20
7.34377172072411
30
0
41
1
10
102.355646542663
20
7.24605859109494
30
0
41
1
10
102.504549353225
20
6.97661137786025
30
0
41
1
10
102.579000758506
20
6.80482335553614
30
0
41
1
10
102.727903569068
20
6.38779502388371
30
0
41
1
10
102.802354974349
20
6.14254639267833
30
0
41
1
10
102.951257784912
20
5.58643580907801
30
0
41
1
10
103.025709190193
20
5.27562255838205
30
0
41
1
10
103.174612000755
20
4.60290993979751
30
0
41
1
10
103.249063406036
20
4.24110434502205
30
0
41
1
10
103.397966216598
20
3.4854156724609
30
0
41
1
10
103.472417621879
20
3.09164053549679
30
0
41
1
10
103.621320432441
20
2.29234640410013
30
0
41
1
10
103.695771837722
20
1.8869161553047
30
0
41
1
10
103.770223243003
20
1.48490703816782
30
0
0
SPLINE
5
E8
100
AcDbEntity
8
1
62
256
6
ByLayer
370
13
48
1
60
0
100
AcDbSpline
70
4
71
3
72
42
73
38
40
0
40
0
40
0
40
0
40
0.0624999999999982
40
0.0624999999999982
40
0.124999999999996
40
0.124999999999996
40
0.187499999999995
40
0.187499999999995
40
0.249999999999993
40
0.249999999999993
40
0.312499999999991
40
0.312499999999991
40
0.37499999999999
40
0.37499999999999
40
0.437499999999988
40
0.437499999999988
40
0.453124999999988
40
0.453124999999988
40
0.468749999999988
40
0.468749999999988
40
0.499999999999989
40
0.499999999999989
40
0.56249999999999
40
0.56249999999999
40
0.624999999999991
40
0.624999999999991
40
0.687499999999993
40
0.687499999999993
40
0.749999999999994
40
0.749999999999994
40
0.812499999999996
40
0.812499999999996
40
0.874999999999997
40
0.874999999999997
40
0.937499999999998
40
0.937499999999998
40
1
40
1
40
1
40
1
41
1
10
95.5
20
-7.26106156003016
30
0
41
1
10
95.5787859064262
20
-7.15069348462748
30
0
41
1
10
95.6575718128524
20
-6.99972985576383
30
0
41
1
10
95.8151436257049
20
-6.61433803718069
30
0
41
1
10
95.8939295321313
20
-6.37987407993316
30
0
41
1
10
96.0515013449836
20
-5.83388702226816
30
0
41
1
10
96.1302872514099
20
-5.52240588419394
30
0
41
1
10
96.2878590642624
20
-4.8376266010788
30
0
41
1
10
96.3666449706886
20
-4.46444123820567
30
0
41
1
10
96.5242167835411
20
-3.67794669986449
30
0
41
1
10
96.6030026899674
20
-3.26478059896982
30
0
41
1
10
96.7605745028199
20
-2.4224507793208
30
0
41
1
10
96.8393604092461
20
-1.99340985042298
30
0
41
1
10
96.9969322220986
20
-1.14171214192851
30
0
41
1
10
97.0757181285248
20
-0.719125214106327
30
0
41
1
10
97.1742005115576
20
-0.205911326151437
30
0
41
1
10
97.1938969881641
20
-0.104005805075985
30
0
41
1
10
97.2332899413773
20
0.0981136736088786
30
0
41
1
10
97.2529864179838
20
0.199955910995186
30
0
41
1
10
97.3120758478035
20
0.507798251650314
30
0
41
1
10
97.3514688010166
20
0.715995718058991
30
0
41
1
10
97.469647660656
20
1.34648099006253
30
0
41
1
10
97.5484335670822
20
1.77480664207752
30
0
41
1
10
97.7060053799347
20
2.62740114983896
30
0
41
1
10
97.7847912863609
20
3.05157168519892
30
0
41
1
10
97.9423630992134
20
3.87221909045672
30
0
41
1
10
98.0211490056396
20
4.26855740484061
30
0
41
1
10
98.1787208184921
20
5.01006103149513
30
0
41
1
10
98.2575067249184
20
5.35509183603108
30
0
41
1
10
98.4150785377708
20
5.97494433451988
30
0
41
1
10
98.4938644441971
20
6.24968501884257
30
0
41
1
10
98.6514362570496
20
6.71777761055117
30
0
41
1
10
98.7302221634758
20
6.91112757824229
30
0
41
1
10
98.8877939763283
20
7.21442447653473
30
0
41
1
10
98.9665798827546
20
7.32443728566275
30
0
41
1
10
99.124151695607
20
7.46717603342324
30
0
41
1
10
99.2029376020331
20
7.5
30
0
41
1
10
99.2817235084594
20
7.5
30
0
0
SPLINE
5
E9
100
AcDbEntity
8
1
62
256
6
ByLayer
370
13
48
1
60
0
100
AcDbSpline
70
4
71
3
72
42
73
38
40
0
40
0
40
0
40
0
40
0.0624999999999996
40
0.0624999999999996
40
0.124999999999999
40
0.124999999999999
40
0.187499999999999
40
0.187499999999999
40
0.249999999999999
40
0.249999999999999
40
0.312499999999998
40
0.312499999999998
40
0.374999999999998
40
0.374999999999998
40
0.437499999999997
40
0.437499999999997
40
0.499999999999997
40
0.499999999999997
40
0.562499999999996
40
0.562499999999996
40
0.624999999999996
40
0.624999999999996
40
0.687499999999995
40
0.687499999999995
40
0.749999999999994
40
0.749999999999994
40
0.812499999999994
40
0.812499999999994
40
0.874999999999993
40
0.874999999999993
40
0.890624999999994
40
0.890624999999994
40
0.906249999999994
40
0.906249999999994
40
0.937499999999995
40
0.937499999999995
40
1
40
1
40
1
40
1
41
1
10
101.484667277585
20
7.5
30
0
41
1
10
101.532283026864
20
7.5
30
0
41
1
10
101.579898776144
20
7.48804871931685
30
0
41
1
10
101.675130274703
20
7.43754679956231
30
0
41
1
10
101.722746023982
20
7.39898801429038
30
0
41
1
10
101.817977522542
20
7.29312943779843
30
0
41
1
10
101.865593271821
20
7.22582191857313
30
0
41
1
10
101.96082477038
20
7.06113672467529
30
0
41
1
10
102.00844051966
20
6.96375290933904
30
0
41
1
10
102.103672018219
20
6.738611189822
30
0
41
1
10
102.151287767499
20
6.61084990309971
30
0
41
1
10
102.246519266058
20
6.3258218079234
30
0
41
1
10
102.294135015337
20
6.16855526654382
30
0
41
1
10
102.389366513896
20
5.82660751964417
30
0
41
1
10
102.436982263176
20
5.64193057513003
30
0
41
1
10
102.532213761735
20
5.24840795026029
30
0
41
1
10
102.579829511015
20
5.03957016740227
30
0
41
1
10
102.675061009574
20
4.60194238857574
30
0
41
1
10
102.722676758853
20
4.3731628995192
30
0
41
1
10
102.817908257412
20
3.90055818461312
30
0
41
1
10
102.865524006692
20
3.65674460227791
30
0
41
1
10
102.960755505251
20
3.15932985629786
30
0
41
1
10
103.008371254531
20
2.9057398973965
30
0
41
1
10
103.10360275309
20
2.39403344215898
30
0
41
1
10
103.151218502369
20
2.13592637840961
30
0
41
1
10
103.246450000928
20
1.6201352520267
30
0
41
1
10
103.294065750208
20
1.36245799626406
30
0
41
1
10
103.389297248767
20
0.851918113322029
30
0
41
1
10
103.436912998047
20
0.599059371294317
30
0
41
1
10
103.496432684646
20
0.288290517925617
30
0
41
1
10
103.508336621966
20
0.226400096197295
30
0
41
1
10
103.532144496606
20
0.103195586957213
30
0
41
1
10
103.544048433926
20
0.0419903316244756
30
0
41
1
10
103.579760245885
20
-0.141404789370313
30
0
41
1
10
103.603568120525
20
-0.264896551121325
30
0
41
1
10
103.674991744444
20
-0.638472142373075
30
0
41
1
10
103.722607493724
20
-0.891679979333503
30
0
41
1
10
103.770223243003
20
-1.1471928998813
30
0
0
SPLINE
5
EA
100
AcDbEntity
8
1
62
256
6
ByLayer
370
13
48
1
60
0
100
AcDbSpline
70
4
71
3
72
43
73
39
40
0
40
0
40
0
40
0
40
0.0625000000000041
40
0.0625000000000041
40
0.125000000000008
40
0.125000000000008
40
0.187500000000012
40
0.187500000000012
40
0.250000000000016
40
0.250000000000016
40
0.31250000000002
40
0.31250000000002
40
0.343750000000023
40
0.343750000000023
40
0.359375000000024
40
0.367187500000024
40
0.367187500000024
40
0.375000000000024
40
0.375000000000024
40
0.437500000000022
40
0.437500000000022
40
0.50000000000002
40
0.50000000000002
40
0.562500000000017
40
0.562500000000017
40
0.625000000000015
40
0.625000000000015
40
0.687500000000012
40
0.687500000000012
40
0.75000000000001
40
0.75000000000001
40
0.812500000000007
40
0.812500000000007
40
0.875000000000005
40
0.875000000000005
40
0.937500000000003
40
0.937500000000003
40
1
40
1
40
1
40
1
41
1
10
95.5
20
-6.01538871339494
30
0
41
1
10
95.5683958597872
20
-5.77116798959193
30
0
41
1
10
95.6367917195744
20
-5.49848344712922
30
0
41
1
10
95.7735834391488
20
-4.90633917497055
30
0
41
1
10
95.8419792989361
20
-4.58693470506481
30
0
41
1
10
95.9787710185105
20
-3.91525415732082
30
0
41
1
10
96.0471668782978
20
-3.56304832031978
30
0
41
1
10
96.1839585978722
20
-2.84142018215238
30
0
41
1
10
96.2523544576595
20
-2.47206374901907
30
0
41
1
10
96.389146177234
20
-1.73142490162209
30
0
41
1
10
96.4575420370211
20
-1.3601889492069
30
0
41
1
10
96.560135826702
20
-0.811783007245168
30
0
41
1
10
96.5943337565956
20
-0.63036829704933
30
0
41
1
10
96.645630651436
20
-0.361344328948491
30
0
41
1
10
96.6712790988562
20
-0.227604488515624
30
0
41
1
10
96.6969275462764
20
-0.0951915695447667
30
0
41
1
10
96.7140265112232
20
-0.0072283543903495
30
0
41
1
10
96.7225759936965
20
0.0365648485837937
30
0
41
1
10
96.7995213359572
20
0.433021059171011
30
0
41
1
10
96.8679171957445
20
0.795430829739729
30
0
41
1
10
97.0047089153189
20
1.52973464004509
30
0
41
1
10
97.0731047751061
20
1.90160358567007
30
0
41
1
10
97.2098964946805
20
2.64127866767748
30
0
41
1
10
97.2782923544678
20
3.00903475171378
30
0
41
1
10
97.4150840740422
20
3.72504616002729
30
0
41
1
10
97.4834799338295
20
4.07323378375253
30
0
41
1
10
97.6202716534038
20
4.73458405782998
30
0
41
1
10
97.688667513191
20
5.04767750451563
30
0
41
1
10
97.8254592327655
20
5.62535190593763
30
0
41
1
10
97.8938550925528
20
5.88988144589089
30
0
41
1
10
98.0306468121272
20
6.36086007115657
30
0
41
1
10
98.0990426719144
20
6.56728933508657
30
0
41
1
10
98.2358343914889
20
6.91753177079624
30
0
41
1
10
98.3042302512761
20
7.06135894334514
30
0
41
1
10
98.4410219708507
20
7.28697775564396
30
0
41
1
10
98.5094178306377
20
7.36880821993853
30
0
41
1
10
98.6462095502122
20
7.47529475114865
30
0
41
1
10
98.7146054099994
20
7.5
30
0
41
1
10
98.7830012697866
20
7.5
30
0
0
SPLINE
5
EB
100
AcDbEntity
8
1
62
256
6
ByLayer
370
13
48
1
60
0
100
AcDbSpline
70
4
71
3
72
42
73
38
40
0
40
0
40
0
40
0
40
0.0625
40
0.0625
40
0.125
40
0.125
40
0.1875
40
0.1875
40
0.25
40
0.25
40
0.3125
40
0.3125
40
0.375
40
0.375
40
0.4375
40
0.4375
40
0.5
40
0.5
40
0.5625
40
0.5625
40
0.625
40
0.625
40
0.6875
40
0.6875
40
0.71875
40
0.71875
40
0.734375
40
0.734375
40
0.750000000000001
40
0.750000000000001
40
0.812500000000001
40
0.812500000000001
40
0.875
40
0.875
40
0.9375
40
0.9375
40
1
40
1
40
1
40
1
41
1
10
100.985945038912
20
7.5
30
0
41
1
10
101.04395083483
20
7.5
30
0
41
1
10
101.101956630749
20
7.48224931525908
30
0
41
1
10
101.217968222586
20
7.40646776447727
30
0
41
1
10
101.275974018505
20
7.34841510633049
30
0
41
1
10
101.391985610342
20
7.18858270021943
30
0
41
1
10
101.449991406261
20
7.08678375093959
30
0
41
1
10
101.566002998098
20
6.83801625596118
30
0
41
1
10
101.624008794016
20
6.69103581915385
30
0
41
1
10
101.740020385853
20
6.35295207339868
30
0
41
1
10
101.798026181772
20
6.16184817526818
30
0
41
1
10
101.914037773609
20
5.73925462032935
30
0
41
1
10
101.972043569528
20
5.50777732607767
30
0
41
1
10
102.088055161365
20
5.01069131180097
30
0
41
1
10
102.146060957283
20
4.74510623540138
30
0
41
1
10
102.262072549121
20
4.18802627320935
30
0
41
1
10
102.320078345039
20
3.89656161873728
30
0
41
1
10
102.436089936876
20
3.29708269249832
30
0
41
1
10
102.494095732795
20
2.9890990709865
30
0
41
1
10
102.610107324632
20
2.3661433549569
30
0
41
1
10
102.668113120551
20
2.05119673333078
30
0
41
1
10
102.784124712388
20
1.42321495338712
30
0
41
1
10
102.842130508306
20
1.11019663462398
30
0
41
1
10
102.929139202184
20
0.647797533489126
30
0
41
1
10
102.958142100143
20
0.494840816947004
30
0
41
1
10
103.001646447082
20
0.267764751327292
30
0
41
1
10
103.016147896062
20
0.192465061484285
30
0
41
1
10
103.045150794021
20
0.0427392554389314
30
0
41
1
10
103.059652243001
20
-0.0314363665128496
30
0
41
1
10
103.132159487899
20
-0.40552973383015
30
0
41
1
10
103.190165283818
20
-0.711894902692848
30
0
41
1
10
103.306176875655
20
-1.33248899654936
30
0
41
1
10
103.364182671574
20
-1.64670834205836
30
0
41
1
10
103.480194263411
20
-2.27508269376077
30
0
41
1
10
103.538200059329
20
-2.58921864098895
30
0
41
1
10
103.654211651166
20
-3.20831721748263
30
0
41
1
10
103.712217447085
20
-3.51325273534675
30
0
41
1
10
103.770223243003
20
-3.80880704353592
30
0
0
SPLINE
5
EC
100
AcDbEntity
8
1
62
256
6
ByLayer
370
13
48
1
60
0
100
AcDbSpline
70
4
71
3
72
42
73
38
40
0
40
0
40
0
40
0
40
0.0625000000000008
40
0.0625000000000008
40
0.125000000000002
40
0.125000000000002
40
0.187500000000002
40
0.187500000000002
40
0.250000000000003
40
0.250000000000003
40
0.265625000000003
40
0.265625000000003
40
0.281250000000003
40
0.281250000000003
40
0.312500000000003
40
0.312500000000003
40
0.375000000000003
40
0.375000000000003
40
0.437500000000003
40
0.437500000000003
40
0.500000000000002
40
0.500000000000002
40
0.562500000000002
40
0.562500000000002
40
0.625000000000002
40
0.625000000000002
40
0.687500000000001
40
0.687500000000001
40
0.750000000000001
40
0.750000000000001
40
0.812500000000001
40
0.812500000000001
40
0.875000000000001
40
0.875000000000001
40
0.9375
40
0.9375
40
1
40
1
40
1
40
1
41
1
10
95.5
20
-3.80881125742465
30
0
41
1
10
95.5580058131483
20
-3.5132569505964
30
0
41
1
10
95.6160116262964
20
-3.20832140585117
30
0
41
1
10
95.7320232525929
20
-2.58922272778972
30
0
41
1
10
95.7900290657411
20
-2.27508670594375
30
0
41
1
10
95.9060406920374
20
-1.6467121690861
30
0
41
1
10
95.9640465051856
20
-1.33249271310629
30
0
41
1
10
96.080058131482
20
-0.711898375274643
30
0
41
1
10
96.1380639446303
20
-0.405533072958065
30
0
41
1
10
96.2105712110655
20
-0.0314395319809648
30
0
41
1
10
96.2250726643526
20
0.042736110008633
30
0
41
1
10
96.2540755709267
20
0.192461936152313
30
0
41
1
10
96.2685770242137
20
0.267761636900787
30
0
41
1
10
96.3120813840749
20
0.49483773782913
30
0
41
1
10
96.3410842906491
20
0.647794481371676
30
0
41
1
10
96.4280930103712
20
1.11019367390716
30
0
41
1
10
96.4860988235195
20
1.42321206756336
30
0
41
1
10
96.6021104498159
20
2.05119402321657
30
0
41
1
10
96.660116262964
20
2.36614074566228
30
0
41
1
10
96.7761278892605
20
2.9890966842452
30
0
41
1
10
96.8341337024087
20
3.29708042747265
30
0
41
1
10
96.950145328705
20
3.8965596102031
30
0
41
1
10
97.0081511418533
20
4.18802439941192
30
0
41
1
10
97.1241627681497
20
4.74510463430551
30
0
41
1
10
97.182168581298
20
5.01068984861774
30
0
41
1
10
97.2981802075943
20
5.50777613154412
30
0
41
1
10
97.3561860207425
20
5.73925355648123
30
0
41
1
10
97.472197647039
20
6.16184735625302
30
0
41
1
10
97.5302034601872
20
6.35295136849396
30
0
41
1
10
97.6462150864837
20
6.69103531899435
30
0
41
1
10
97.7042208996318
20
6.83801584642231
30
0
41
1
10
97.8202325259283
20
7.08678349544911
30
0
41
1
10
97.8782383390764
20
7.18858250816575
30
0
41
1
10
97.9942499653728
20
7.3484150135312
30
0
41
1
10
98.052255778521
20
7.40646770752107
30
0
41
1
10
98.1682674048175
20
7.48224930468643
30
0
41
1
10
98.2262732179657
20
7.5
30
0
41
1
10
98.2842790311139
20
7.5
30
0
0
SPLINE
5
ED
100
AcDbEntity
8
1
62
256
6
ByLayer
370
13
48
1
60
0
100
AcDbSpline
70
4
71
3
72
43
73
39
40
0
40
0
40
0
40
0
40
0.0625
40
0.0625
40
0.125
40
0.125
40
0.1875
40
0.1875
40
0.25
40
0.25
40
0.3125
40
0.3125
40
0.375
40
0.375
40
0.4375
40
0.4375
40
0.5
40
0.5
40
0.5625
40
0.5625
40
0.625
40
0.625
40
0.6328125
40
0.6328125
40
0.640625
40
0.65625
40
0.65625
40
0.6875
40
0.6875
40
0.75
40
0.75
40
0.8125
40
0.8125
40
0.875
40
0.875
40
0.9375
40
0.9375
40
1
40
1
40
1
40
1
41
1
10
100.487222800239
20
7.5
30
0
41
1
10
100.555618642797
20
7.5
30
0
41
1
10
100.624014485354
20
7.47529476364372
30
0
41
1
10
100.760806170469
20
7.36880828791868
30
0
41
1
10
100.829202013027
20
7.28697786667493
30
0
41
1
10
100.965993698142
20
7.06135917332853
30
0
41
1
10
101.0343895407
20
6.91753207672076
30
0
41
1
10
101.171181225815
20
6.56728982322952
30
0
41
1
10
101.239577068373
20
6.36086066557093
30
0
41
1
10
101.376368753488
20
5.88988227520957
30
0
41
1
10
101.444764596045
20
5.62535286382916
30
0
41
1
10
101.581556281161
20
5.04767872945712
30
0
41
1
10
101.649952123718
20
4.73458542115102
30
0
41
1
10
101.786743808833
20
4.07323541924998
30
0
41
1
10
101.855139651391
20
3.72504792922231
30
0
41
1
10
101.991931336506
20
3.00903677030439
30
0
41
1
10
102.060327179064
20
2.64128080190017
30
0
41
1
10
102.197118864179
20
1.90160592341243
30
0
41
1
10
102.265514706736
20
1.52973706565848
30
0
41
1
10
102.402306391852
20
0.795433398554081
30
0
41
1
10
102.470702234409
20
0.433023683341105
30
0
41
1
10
102.547647557286
20
0.0365675167065547
30
0
41
1
10
102.556197037606
20
-0.007225679538351
30
0
41
1
10
102.573295998245
20
-0.0951888597959396
30
0
41
1
10
102.598944439205
20
-0.227601726709054
30
0
41
1
10
102.624592880164
20
-0.361341516081836
30
0
41
1
10
102.675889762082
20
-0.630365383769742
30
0
41
1
10
102.710087683361
20
-0.811780029296131
30
0
41
1
10
102.812681447197
20
-1.36018578725918
30
0
41
1
10
102.881077289755
20
-1.73142163037062
30
0
41
1
10
103.01786897487
20
-2.47206030358268
30
0
41
1
10
103.086264817428
20
-2.84141667196567
30
0
41
1
10
103.223056502543
20
-3.563044740865
30
0
41
1
10
103.2914523451
20
-3.91525057347408
30
0
41
1
10
103.428244030215
20
-4.5869311823698
30
0
41
1
10
103.496639872773
20
-4.90633571788874
30
0
41
1
10
103.633431557888
20
-5.49848019167933
30
0
41
1
10
103.701827400446
20
-5.77116487013942
30
0
41
1
10
103.770223243004
20
-6.01538576034952
30
0
0
SPLINE
5
EE
100
AcDbEntity
8
1
62
256
6
ByLayer
370
13
48
1
60
0
100
AcDbSpline
70
4
71
3
72
42
73
38
40
0
40
0
40
0
40
0
40
0.0625000000000047
40
0.0625000000000047
40
0.0937500000000071
40
0.0937500000000071
40
0.109375000000008
40
0.109375000000008
40
0.125000000000008
40
0.125000000000008
40
0.187500000000007
40
0.187500000000007
40
0.250000000000007
40
0.250000000000007
40
0.312500000000006
40
0.312500000000006
40
0.375000000000006
40
0.375000000000006
40
0.437500000000005
40
0.437500000000005
40
0.500000000000005
40
0.500000000000005
40
0.562500000000004
40
0.562500000000004
40
0.625000000000004
40
0.625000000000004
40
0.687500000000003
40
0.687500000000003
40
0.750000000000002
40
0.750000000000002
40
0.812500000000002
40
0.812500000000002
40
0.875000000000001
40
0.875000000000001
40
0.937500000000001
40
0.937500000000001
40
1
40
1
40
1
40
1
41
1
10
95.5
20
-1.14719733780154
30
0
41
1
10
95.5476157665092
20
-0.891684298469301
30
0
41
1
10
95.5952315330184
20
-0.638476332594848
30
0
41
1
10
95.6666551827822
20
-0.264900538990759
30
0
41
1
10
95.6904630660368
20
-0.14140870828723
30
0
41
1
10
95.7261748909186
20
0.0419865176723704
30
0
41
1
10
95.738078832546
20
0.103191764854216
30
0
41
1
10
95.7618867158006
20
0.226396294912064
30
0
41
1
10
95.7737906574278
20
0.288286727753757
30
0
41
1
10
95.8333103655643
20
0.599055640235918
30
0
41
1
10
95.8809261320735
20
0.8519144409604
30
0
41
1
10
95.9761576650918
20
1.36245446386388
30
0
41
1
10
96.0237734316011
20
1.62013180089778
30
0
41
1
10
96.1190049646195
20
2.13592311058355
30
0
41
1
10
96.1666207311287
20
2.39403027636459
30
0
41
1
10
96.2618522641471
20
2.90573695292349
30
0
41
1
10
96.3094680306563
20
3.15932703110659
30
0
41
1
10
96.4046995636745
20
3.65674202782296
30
0
41
1
10
96.4523153301839
20
3.90055574159669
30
0
41
1
10
96.5475468632022
20
4.37316072524487
30
0
41
1
10
96.5951626297114
20
4.60194035158287
30
0
41
1
10
96.6903941627297
20
5.03956840388804
30
0
41
1
10
96.738009929239
20
5.24840632291875
30
0
41
1
10
96.8332414622573
20
5.64192921217381
30
0
41
1
10
96.8808572287665
20
5.82660628487815
30
0
41
1
10
96.9760887617848
20
6.16855427411767
30
0
41
1
10
97.023704528294
20
6.32582092963062
30
0
41
1
10
97.1189360613125
20
6.61084923434243
30
0
41
1
10
97.1665518278217
20
6.73861061645917
30
0
41
1
10
97.26178336084
20
6.96375250509851
30
0
41
1
10
97.3093991273491
20
7.0611363941639
30
0
41
1
10
97.4046306603676
20
7.22582171276633
30
0
41
1
10
97.4522464268767
20
7.29312928297574
30
0
41
1
10
97.5474779598951
20
7.39898793928518
30
0
41
1
10
97.5950937264043
20
7.43754675340372
30
0
41
1
10
97.6903252594227
20
7.48804871065349
30
0
41
1
10
97.737941025932
20
7.5
30
0
41
1
10
97.7855567924411
20
7.5
30
0
0
SPLINE
5
EF
100
AcDbEntity
8
1
62
256
6
ByLayer
370
13
48
1
60
0
100
AcDbSpline
70
4
71
3
72
42
73
38
40
0
40
0
40
0
40
0
40
0.0625
40
0.0625
40
0.125
40
0.125
40
0.1875
40
0.1875
40
0.25
40
0.25
40
0.3125
40
0.3125
40
0.375
40
0.375
40
0.4375
40
0.4375
40
0.5
40
0.5
40
0.53125
40
0.53125
40
0.546875
40
0.546875
40
0.5625
40
0.5625
40
0.625
40
0.625
40
0.6875
40
0.6875
40
0.75
40
0.75
40
0.8125
40
0.8125
40
0.875
40
0.875
40
0.9375
40
0.9375
40
1
40
1
40
1
40
1
41
1
10
99.9885005615663
20
7.5
30
0
41
1
10
100.067286450763
20
7.5
30
0
41
1
10
100.14607233996
20
7.46717604785755
30
0
41
1
10
100.303644118353
20
7.32443736487474
30
0
41
1
10
100.382430007549
20
7.21442460619377
30
0
41
1
10
100.540001785943
20
6.91112784654985
30
0
41
1
10
100.618787675139
20
6.71777796710867
30
0
41
1
10
100.776359453532
20
6.24968558358634
30
0
41
1
10
100.855145342729
20
5.97494501914559
30
0
41
1
10
101.012717121122
20
5.35509277806619
30
0
41
1
10
101.091503010319
20
5.01006211090655
30
0
41
1
10
101.249074788712
20
4.26855875781223
30
0
41
1
10
101.327860677909
20
3.87222057943296
30
0
41
1
10
101.485432456302
20
3.05157342662446
30
0
41
1
10
101.564218345499
20
2.62740300758668
30
0
41
1
10
101.721790123892
20
1.77480869984825
30
0
41
1
10
101.800576013088
20
1.34648313151016
30
0
41
1
10
101.918754846883
20
0.715997956463838
30
0
41
1
10
101.958147791481
20
0.507800517675236
30
0
41
1
10
102.017237208379
20
0.199958211395369
30
0
41
1
10
102.036933680678
20
0.0981159591468668
30
0
41
1
10
102.076326625276
20
-0.104003449471605
30
0
41
1
10
102.096023097575
20
-0.205908935929415
30
0
41
1
10
102.194505459071
20
-0.719122653683769
30
0
41
1
10
102.273291348268
20
-1.14170945448166
30
0
41
1
10
102.430863126661
20
-1.99340695015567
30
0
41
1
10
102.509649015858
20
-2.42244779346356
30
0
41
1
10
102.667220794251
20
-3.2647775059468
30
0
41
1
10
102.746006683448
20
-3.67794358549847
30
0
41
1
10
102.903578461841
20
-4.46443816064621
30
0
41
1
10
102.982364351037
20
-4.83762358181363
30
0
41
1
10
103.139936129431
20
-5.52240306305654
30
0
41
1
10
103.218722018627
20
-5.83388434093089
30
0
41
1
10
103.37629379702
20
-6.37987174640506
30
0
41
1
10
103.455079686217
20
-6.61433591146007
30
0
41
1
10
103.61265146461
20
-6.99972818883447
30
0
41
1
10
103.691437353807
20
-7.15069206841787
30
0
41
1
10
103.770223243004
20
-7.26106040148568
30
0
0
SPLINE
5
F0
100
AcDbEntity
8
1
62
256
6
ByLayer
370
13
48
1
60
0
100
AcDbSpline
70
4
71
3
72
22
73
18
40
0
40
0
40
0
40
0
40
0.125
40
0.125
40
0.25
40
0.25
40
0.375
40
0.375
40
0.5
40
0.5
40
0.625
40
0.625
40
0.75
40
0.75
40
0.875
40
0.875
40
1
40
1
40
1
40
1
41
1
10
95.5
20
1.48490257256376
30
0
41
1
10
95.5744514397403
20
1.88691185140931
30
0
41
1
10
95.6489028794807
20
2.29234229646713
30
0
41
1
10
95.7978057589613
20
3.09163687423887
30
0
41
1
10
95.8722571987017
20
3.48541226121554
30
0
41
1
10
96.0211600781823
20
4.24110146050174
30
0
41
1
10
96.0956115179227
20
4.60290733175168
30
0
41
1
10
96.2445143974035
20
5.27562049602881
30
0
41
1
10
96.3189658371438
20
5.58643401565411
30
0
41
1
10
96.4678687166245
20
6.14254509740323
30
0
41
1
10
96.5423201563649
20
6.38779395761389
30
0
41
1
10
96.6912230358456
20
6.80482268464021
30
0
41
1
10
96.7656744755859
20
6.9766108732756
30
0
41
1
10
96.9145773550665
20
7.24605834740993
30
0
41
1
10
96.9890287948068
20
7.34377157171954
30
0
41
1
10
97.1379316742876
20
7.47070515834372
30
0
41
1
10
97.2123831140279
20
7.5
30
0
41
1
10
97.2868345537682
20
7.5
30
0
0
SPLINE
5
F1
100
AcDbEntity
8
1
62
256
6
ByLayer
370
13
48
1
60
0
100
AcDbSpline
70
4
71
3
72
72
73
68
40
0
40
0
40
0
40
0
40
0.0625000000000032
40
0.0625000000000032
40
0.0937500000000048
40
0.0937500000000048
40
0.125000000000006
40
0.125000000000006
40
0.156250000000008
40
0.156250000000008
40
0.187500000000009
40
0.187500000000009
40
0.218750000000011
40
0.218750000000011
40
0.250000000000013
40
0.250000000000013
40
0.281250000000014
40
0.281250000000014
40
0.312500000000016
40
0.312500000000016
40
0.343750000000017
40
0.343750000000017
40
0.375000000000019
40
0.375000000000019
40
0.40625000000002
40
0.40625000000002
40
0.437500000000022
40
0.437500000000022
40
0.468750000000023
40
0.468750000000023
40
0.476562500000023
40
0.476562500000023
40
0.484375000000023
40
0.484375000000023
40
0.500000000000022
40
0.500000000000022
40
0.562500000000019
40
0.562500000000019
40
0.593750000000018
40
0.593750000000018
40
0.625000000000016
40
0.625000000000016
40
0.656250000000014
40
0.656250000000014
40
0.687500000000013
40
0.687500000000013
40
0.718750000000011
40
0.718750000000011
40
0.75000000000001
40
0.75000000000001
40
0.781250000000008
40
0.781250000000008
40
0.812500000000007
40
0.812500000000007
40
0.843750000000005
40
0.843750000000005
40
0.875000000000004
40
0.875000000000004
40
0.937500000000001
40
0.937500000000001
40
0.953125
40
0.953125
40
0.9609375
40
0.9609375
40
0.96875
40
0.96875
40
1
40
1
40
1
40
1
41
1
10
99.4897783228935
20
7.5
30
0
41
1
10
99.5789542587291
20
7.5
30
0
41
1
10
99.6681301945646
20
7.45788181854857
30
0
41
1
10
99.8018940983181
20
7.31939711711658
30
0
41
1
10
99.846482066236
20
7.26073355440471
30
0
41
1
10
99.9356580020716
20
7.11720471916837
30
0
41
1
10
99.9802459699894
20
7.03233473451351
30
0
41
1
10
100.069421905825
20
6.83594432033991
30
0
41
1
10
100.114009873743
20
6.72442087346479
30
0
41
1
10
100.203185809579
20
6.47515393206317
30
0
41
1
10
100.247773777496
20
6.33740974307406
30
0
41
1
10
100.336949713332
20
6.03706877066202
30
0
41
1
10
100.38153768125
20
5.87447396023975
30
0
41
1
10
100.470713617085
20
5.52671807511265
30
0
41
1
10
100.515301585003
20
5.34156158934795
30
0
41
1
10
100.604477520839
20
4.95178851317905
30
0
41
1
10
100.649065488757
20
4.7471786550939
30
0
41
1
10
100.738241424592
20
4.32225277214084
30
0
41
1
10
100.78282939251
20
4.10194480924042
30
0
41
1
10
100.872005328346
20
3.64979908163522
30
0
41
1
10
100.916593296264
20
3.41796971882752
30
0
41
1
10
101.005769232099
20
2.94712908899325
30
0
41
1
10
101.050357200017
20
2.7081255986507
30
0
41
1
10
101.139533135853
20
2.22720981398379
30
0
41
1
10
101.18412110377
20
1.98530390690976
30
0
41
1
10
101.273297039606
20
1.50256640411499
30
0
41
1
10
101.317885007524
20
1.26173934979886
30
0
41
1
10
101.407060943359
20
0.784687284735895
30
0
41
1
10
101.451648911277
20
0.548464842351763
30
0
41
1
10
101.507383871174
20
0.257916503900191
30
0
41
1
10
101.518530863154
20
0.200041867326462
30
0
41
1
10
101.540824847113
20
0.0848030223910428
30
0
41
1
10
101.551971839092
20
0.0275776173085376
30
0
41
1
10
101.585412815031
20
-0.144254732486615
30
0
41
1
10
101.60770679899
20
-0.259881893999875
30
0
41
1
10
101.719176718784
20
-0.842579092351457
30
0
41
1
10
101.80835265462
20
-1.32368502742025
30
0
41
1
10
101.942116558373
20
-2.04801909787642
30
0
41
1
10
101.986704526291
20
-2.28983669821633
30
0
41
1
10
102.075880462127
20
-2.77021524800307
30
0
41
1
10
102.120468430044
20
-3.00876966720335
30
0
41
1
10
102.20964436588
20
-3.47833585304912
30
0
41
1
10
102.254232333798
20
-3.70933975489771
30
0
41
1
10
102.343408269634
20
-4.15946294353685
30
0
41
1
10
102.387996237551
20
-4.37857381799745
30
0
41
1
10
102.477172173387
20
-4.80076051409648
30
0
41
1
10
102.521760141305
20
-5.00382835083312
30
0
41
1
10
102.61093607714
20
-5.39021992704767
30
0
41
1
10
102.655524045058
20
-5.57353709138226
30
0
41
1
10
102.744699980894
20
-5.9173818149369
30
0
41
1
10
102.789287948812
20
-6.07790499857651
30
0
41
1
10
102.878463884647
20
-6.37394685780345
30
0
41
1
10
102.923051852565
20
-6.50946379519959
30
0
41
1
10
103.012227788401
20
-6.7542018891196
30
0
41
1
10
103.056815756319
20
-6.86342395965201
30
0
41
1
10
103.145991692154
20
-7.05521669257723
30
0
41
1
10
103.190579660072
20
-7.13779054666065
30
0
41
1
10
103.324343563825
20
-7.34630996652839
30
0
41
1
10
103.413519499661
20
-7.43277360067631
30
0
41
1
10
103.524989419455
20
-7.4829578517423
30
0
41
1
10
103.547283403414
20
-7.49012196413562
30
0
41
1
10
103.580724379353
20
-7.49676264977407
30
0
41
1
10
103.591871371332
20
-7.49829214838979
30
0
41
1
10
103.614165355291
20
-7.50001893555094
30
0
41
1
10
103.625312347271
20
-7.50021913985987
30
0
41
1
10
103.681047307168
20
-7.49794541156007
30
0
41
1
10
103.725635275086
20
-7.48554581332186
30
0
41
1
10
103.770223243003
20
-7.46146731630569
30
0
0
SPLINE
5
F2
100
AcDbEntity
8
1
62
256
6
ByLayer
370
13
48
1
60
0
100
AcDbSpline
70
4
71
3
72
22
73
18
40
0
40
0
40
0
40
0
40
0.125
40
0.125
40
0.25
40
0.25
40
0.375
40
0.375
40
0.5
40
0.5
40
0.625
40
0.625
40
0.75
40
0.75
40
0.875
40
0.875
40
1
40
1
40
1
40
1
41
1
10
95.5
20
4.12451109503837
30
0
41
1
10
95.5536713464623
20
4.3911591237343
30
0
41
1
10
95.6073426929247
20
4.64829797137796
30
0
41
1
10
95.7146853858493
20
5.13659915818997
30
0
41
1
10
95.7683567323115
20
5.36774281412951
30
0
41
1
10
95.8756994252361
20
5.79821673685009
30
0
41
1
10
95.9293707716985
20
5.99753409482204
30
0
41
1
10
96.0367134646231
20
6.3601680302298
30
0
41
1
10
96.0903848110854
20
6.5234794973299
30
0
41
1
10
96.19772750401
20
6.81184032812041
30
0
41
1
10
96.2513988504724
20
6.93689260283938
30
0
41
1
10
96.358741543397
20
7.14843187758294
30
0
41
1
10
96.4124128898593
20
7.23492834522523
30
0
41
1
10
96.5197555827839
20
7.37081824633651
30
0
41
1
10
96.5734269292462
20
7.42022518797049
30
0
41
1
10
96.6807696221708
20
7.48480866013151
30
0
41
1
10
96.7344409686332
20
7.5
30
0
41
1
10
96.7881123150955
20
7.5
30
0
0
SPLINE
5
F3
100
AcDbEntity
8
1
62
256
6
ByLayer
370
13
48
1
60
0
100
AcDbSpline
70
4
71
3
72
78
73
74
40
0
40
0
40
0
40
0
40
0.0312500000000018
40
0.0312500000000018
40
0.0625000000000035
40
0.0625000000000035
40
0.0937500000000053
40
0.0937500000000053
40
0.125000000000007
40
0.125000000000007
40
0.156250000000009
40
0.156250000000009
40
0.187500000000011
40
0.187500000000011
40
0.218750000000012
40
0.218750000000012
40
0.250000000000014
40
0.250000000000014
40
0.281250000000016
40
0.281250000000016
40
0.312500000000018
40
0.312500000000018
40
0.34375000000002
40
0.34375000000002
40
0.375000000000021
40
0.375000000000021
40
0.406250000000023
40
0.406250000000023
40
0.421875000000024
40
0.421875000000024
40
0.429687500000024
40
0.429687500000024
40
0.437500000000024
40
0.437500000000024
40
0.468750000000023
40
0.468750000000023
40
0.500000000000023
40
0.500000000000023
40
0.531250000000022
40
0.531250000000022
40
0.562500000000021
40
0.562500000000021
40
0.59375000000002
40
0.59375000000002
40
0.62500000000002
40
0.62500000000002
40
0.656250000000019
40
0.656250000000019
40
0.687500000000018
40
0.687500000000018
40
0.718750000000017
40
0.718750000000017
40
0.750000000000016
40
0.750000000000016
40
0.781250000000016
40
0.781250000000016
40
0.812500000000015
40
0.812500000000015
40
0.843750000000014
40
0.843750000000014
40
0.859375000000014
40
0.859375000000014
40
0.867187500000014
40
0.867187500000014
40
0.875000000000013
40
0.875000000000013
40
0.90625000000001
40
0.90625000000001
40
0.937500000000007
40
0.937500000000007
40
0.968750000000003
40
0.968750000000003
40
1
40
1
40
1
40
1
41
1
10
98.9910560842208
20
7.5
30
0
41
1
10
99.0408390754581
20
7.5
30
0
41
1
10
99.0906220666954
20
7.4869340066779
30
0
41
1
10
99.19018804917
20
7.43160039474876
30
0
41
1
10
99.2399710404073
20
7.3893225999924
30
0
41
1
10
99.339537022882
20
7.27317147199531
30
0
41
1
10
99.3893200141193
20
7.19928860891787
30
0
41
1
10
99.4888859965939
20
7.0185293047484
30
0
41
1
10
99.5386689878313
20
6.91164558711503
30
0
41
1
10
99.6382349703058
20
6.66474091995173
30
0
41
1
10
99.6880179615432
20
6.52471651259927
30
0
41
1
10
99.7875839440179
20
6.21280807187446
30
0
41
1
10
99.8373669352552
20
6.04092550085392
30
0
41
1
10
99.9369329177299
20
5.66803315649742
30
0
41
1
10
99.9867159089672
20
5.46703002620808
30
0
41
1
10
100.086281891442
20
5.03996228124498
30
0
41
1
10
100.136064882679
20
4.81390873777224
30
0
41
1
10
100.235630865154
20
4.34186955350734
30
0
41
1
10
100.285413856391
20
4.09589777648756
30
0
41
1
10
100.384979838866
20
3.589834087127
30
0
41
1
10
100.434762830103
20
3.32975671703554
30
0
41
1
10
100.534328812578
20
2.8015418403734
30
0
41
1
10
100.584111803815
20
2.53341749261213
30
0
41
1
10
100.683677786289
20
1.99499344090631
30
0
41
1
10
100.733460777527
20
1.72470396482041
30
0
41
1
10
100.833026760002
20
1.18730303198751
30
0
41
1
10
100.882809751239
20
0.920198088335781
30
0
41
1
10
100.957484238095
20
0.525350603157591
30
0
41
1
10
100.982375733713
20
0.394696377722795
30
0
41
1
10
101.019712977141
20
0.200520862980028
30
0
41
1
10
101.032158724951
20
0.136096203484499
30
0
41
1
10
101.05705022057
20
0.0079029240800423
30
0
41
1
10
101.069495968379
20
-0.0558129025319261
30
0
41
1
10
101.131724707426
20
-0.377106384055708
30
0
41
1
10
101.181507698663
20
-0.639319095831269
30
0
41
1
10
101.281073681137
20
-1.17016652886411
30
0
41
1
10
101.330856672375
20
-1.43879734303059
30
0
41
1
10
101.430422654849
20
-1.97765455412076
30
0
41
1
10
101.480205646087
20
-2.2478732417236
30
0
41
1
10
101.579771628561
20
-2.78436141568943
30
0
41
1
10
101.629554619799
20
-3.05061963625471
30
0
41
1
10
101.729120602273
20
-3.57321006887477
30
0
41
1
10
101.778903593511
20
-3.82952849224583
30
0
41
1
10
101.878469575985
20
-4.32621113837743
30
0
41
1
10
101.928252567223
20
-4.5665607963827
30
0
41
1
10
102.027818549697
20
-5.02565903183532
30
0
41
1
10
102.077601540935
20
-5.24439440321825
30
0
41
1
10
102.177167523409
20
-5.65542353303726
30
0
41
1
10
102.226950514647
20
-5.8477074636171
30
0
41
1
10
102.326516497121
20
-6.20215252915875
30
0
41
1
10
102.376299488358
20
-6.36430860675469
30
0
41
1
10
102.475865470833
20
-6.65620402757853
30
0
41
1
10
102.52564846207
20
-6.78594351899918
30
0
41
1
10
102.625214444545
20
-7.01217341989656
30
0
41
1
10
102.674997435782
20
-7.10866862891896
30
0
41
1
10
102.774563418257
20
-7.26896197266626
30
0
41
1
10
102.824346409494
20
-7.33276826596875
30
0
41
1
10
102.923912391969
20
-7.42942021685079
30
0
41
1
10
102.973695383206
20
-7.46227577045221
30
0
41
1
10
103.048369870062
20
-7.49032134168226
30
0
41
1
10
103.073261365681
20
-7.49613636198291
30
0
41
1
10
103.110598609109
20
-7.49985007056031
30
0
41
1
10
103.123044356918
20
-7.50025585353907
30
0
41
1
10
103.147935852537
20
-7.49943839005627
30
0
41
1
10
103.160381600346
20
-7.49820786443783
30
0
41
1
10
103.222610339393
20
-7.4878200169538
30
0
41
1
10
103.27239333063
20
-7.46593289206831
30
0
41
1
10
103.371959313105
20
-7.392120010963
30
0
41
1
10
103.421742304342
20
-7.34018412036386
30
0
41
1
10
103.521308286817
20
-7.2041596176532
30
0
41
1
10
103.571091278054
20
-7.12006200121812
30
0
41
1
10
103.670657260529
20
-6.9186834849539
30
0
41
1
10
103.720440251766
20
-6.80139634665682
30
0
41
1
10
103.770223243003
20
-6.66766157898238
30
0
0
SPLINE
5
F4
100
AcDbEntity
8
1
62
256
6
ByLayer
370
13
48
1
60
0
100
AcDbSpline
70
4
71
3
72
14
73
10
40
0
40
0
40
0
40
0
40
0.25
40
0.25
40
0.5
40
0.5
40
0.75
40
0.75
40
1
40
1
40
1
40
1
41
1
10
95.5
20
6.23131152796634
30
0
41
1
10
95.5657825063685
20
6.44924631984077
30
0
41
1
10
95.6315650127371
20
6.63984136030143
30
0
41
1
10
95.7631300254742
20
6.96296834820555
30
0
41
1
10
95.8289125318427
20
7.09551470459991
30
0
41
1
10
95.9604775445798
20
7.30346764052098
30
0
41
1
10
96.0262600509485
20
7.37890730663176
30
0
41
1
10
96.1578250636856
20
7.47715318367162
30
0
41
1
10
96.2236075700541
20
7.5
30
0
41
1
10
96.2893900764227
20
7.5
30
0
0
SPLINE
5
F5
100
AcDbEntity
8
1
62
256
6
ByLayer
370
13
48
1
60
0
100
AcDbSpline
70
4
71
3
72
77
73
73
40
0
40
0
40
0
40
0
40
0.0312499999999982
40
0.0312499999999982
40
0.0624999999999964
40
0.0624999999999964
40
0.0937499999999947
40
0.0937499999999947
40
0.124999999999993
40
0.124999999999993
40
0.156249999999991
40
0.156249999999991
40
0.187499999999989
40
0.187499999999989
40
0.218749999999988
40
0.218749999999988
40
0.249999999999986
40
0.249999999999986
40
0.281249999999984
40
0.281249999999984
40
0.312499999999982
40
0.312499999999982
40
0.34374999999998
40
0.34374999999998
40
0.374999999999978
40
0.374999999999978
40
0.390624999999978
40
0.390624999999978
40
0.398437499999978
40
0.398437499999978
40
0.406249999999978
40
0.406249999999978
40
0.437499999999978
40
0.437499999999978
40
0.468749999999979
40
0.468749999999979
40
0.499999999999979
40
0.499999999999979
40
0.531249999999979
40
0.531249999999979
40
0.56249999999998
40
0.56249999999998
40
0.59374999999998
40
0.59374999999998
40
0.62499999999998
40
0.62499999999998
40
0.656249999999981
40
0.656249999999981
40
0.687499999999981
40
0.687499999999981
40
0.718749999999981
40
0.718749999999981
40
0.749999999999982
40
0.749999999999982
40
0.781249999999982
40
0.781249999999982
40
0.789062499999982
40
0.789062499999982
40
0.796874999999983
40
0.812499999999984
40
0.812499999999984
40
0.843749999999987
40
0.843749999999987
40
0.874999999999989
40
0.874999999999989
40
0.906249999999992
40
0.906249999999992
40
0.937499999999995
40
0.937499999999995
40
0.968749999999997
40
0.968749999999997
40
1
40
1
40
1
40
1
41
1
10
98.4923338455479
20
7.5
30
0
41
1
10
98.5473118601048
20
7.5
30
0
41
1
10
98.6022898746616
20
7.48405824801503
30
0
41
1
10
98.7122459037753
20
7.41619785970249
30
0
41
1
10
98.7672239183321
20
7.36426252948974
30
0
41
1
10
98.8771799474457
20
7.22137080422416
30
0
41
1
10
98.9321579620026
20
7.13039933089843
30
0
41
1
10
99.0421139911163
20
6.90795953220726
30
0
41
1
10
99.0970920056731
20
6.77648098892465
30
0
41
1
10
99.2070480347867
20
6.47351189352858
30
0
41
1
10
99.2620260493435
20
6.30201889688809
30
0
41
1
10
99.3719820784572
20
5.9216667975808
30
0
41
1
10
99.426960093014
20
5.71281458355881
30
0
41
1
10
99.5369161221277
20
5.26248862478229
30
0
41
1
10
99.5918941366845
20
5.02103057017516
30
0
41
1
10
99.7018501657982
20
4.51199321267444
30
0
41
1
10
99.756828180355
20
4.24443573505758
30
0
41
1
10
99.8667842094686
20
3.69088058758788
30
0
41
1
10
99.9217622240255
20
3.40490683079804
30
0
41
1
10
100.031718253139
20
2.82267836456941
30
0
41
1
10
100.086696267696
20
2.52644546473505
30
0
41
1
10
100.19665229681
20
1.93163446828487
30
0
41
1
10
100.251630311366
20
1.633072910968
30
0
41
1
10
100.36158634048
20
1.04073069512356
30
0
41
1
10
100.416564355037
20
0.74695980433637
30
0
41
1
10
100.499031376872
20
0.314327368468099
30
0
41
1
10
100.526520384151
20
0.171443562569323
30
0
41
1
10
100.567753895068
20
-0.0404354301564069
30
0
41
1
10
100.581498398707
20
-0.111059181740586
30
0
41
1
10
100.608987405986
20
-0.253438426624029
30
0
41
1
10
100.622731909625
20
-0.325009240335533
30
0
41
1
10
100.691454427821
20
-0.684576202319022
30
0
41
1
10
100.746432442378
20
-0.977763799969551
30
0
41
1
10
100.856388471491
20
-1.56940383973711
30
0
41
1
10
100.911366486048
20
-1.86784700857714
30
0
41
1
10
101.021322515162
20
-2.46296113953443
30
0
41
1
10
101.076300529719
20
-2.75961601652841
30
0
41
1
10
101.186256558832
20
-3.34326893229294
30
0
41
1
10
101.241234573389
20
-3.63024545003395
30
0
41
1
10
101.351190602503
20
-4.18638064850725
30
0
41
1
10
101.40616861706
20
-4.45551543369041
30
0
41
1
10
101.516124646173
20
-4.96822446327423
30
0
41
1
10
101.57110266073
20
-5.21177659025585
30
0
41
1
10
101.681058689844
20
-5.66670282669548
30
0
41
1
10
101.736036704401
20
-5.87806069793677
30
0
41
1
10
101.845992733514
20
-6.2636967710088
30
0
41
1
10
101.900970748071
20
-6.43796741203155
30
0
41
1
10
102.010926777185
20
-6.74660930336876
30
0
41
1
10
102.065904791742
20
-6.8809823625767
30
0
41
1
10
102.175860820855
20
-7.10917810819365
30
0
41
1
10
102.230838835412
20
-7.20301054441631
30
0
41
1
10
102.340794864526
20
-7.35146209164705
30
0
41
1
10
102.395772879083
20
-7.40609604358252
30
0
41
1
10
102.505728908196
20
-7.47909488200631
30
0
41
1
10
102.560706922753
20
-7.49747644700136
30
0
41
1
10
102.629429440949
20
-7.50032655331898
30
0
41
1
10
102.643173944588
20
-7.49990241981644
30
0
41
1
10
102.670662951867
20
-7.49702421242765
30
0
41
1
10
102.711896462785
20
-7.489650709931
30
0
41
1
10
102.753129973702
20
-7.47280272408926
30
0
41
1
10
102.835596995538
20
-7.42573360846217
30
0
41
1
10
102.890575010094
20
-7.37648121929931
30
0
41
1
10
103.000531039208
20
-7.23912596889386
30
0
41
1
10
103.055509053765
20
-7.15100780890756
30
0
41
1
10
103.165465082878
20
-6.93431870877029
30
0
41
1
10
103.220443097435
20
-6.80573709786739
30
0
41
1
10
103.330399126549
20
-6.50845673276768
30
0
41
1
10
103.385377141106
20
-6.33975490667811
30
0
41
1
10
103.495333170219
20
-5.96472462603873
30
0
41
1
10
103.550311184776
20
-5.75840238529256
30
0
41
1
10
103.66026721389
20
-5.31273436399286
30
0
41
1
10
103.715245228447
20
-5.07340371162343
30
0
41
1
10
103.770223243003
20
-4.82075722811555
30
0
0
SPLINE
5
F6
100
AcDbEntity
8
1
62
256
6
ByLayer
370
13
48
1
60
0
100
AcDbSpline
70
4
71
3
72
10
73
6
40
0
40
0
40
0
40
0
40
0.5
40
0.5
40
1
40
1
40
1
40
1
41
1
10
95.5
20
7.34047821325944
30
0
41
1
10
95.548444639625
20
7.39534590645508
30
0
41
1
10
95.59688927925
20
7.43530567807989
30
0
41
1
10
95.6937785585
20
7.48762828461426
30
0
41
1
10
95.742223198125
20
7.5
30
0
41
1
10
95.7906678377499
20
7.5
30
0
0
SPLINE
5
F7
100
AcDbEntity
8
1
62
256
6
ByLayer
370
13
48
1
60
0
100
AcDbSpline
70
4
71
3
72
78
73
74
40
0
40
0
40
0
40
0
40
0.031249999999999
40
0.031249999999999
40
0.0624999999999981
40
0.0624999999999981
40
0.0937499999999971
40
0.0937499999999971
40
0.124999999999996
40
0.124999999999996
40
0.156249999999995
40
0.156249999999995
40
0.187499999999994
40
0.187499999999994
40
0.218749999999993
40
0.218749999999993
40
0.249999999999992
40
0.249999999999992
40
0.281249999999991
40
0.281249999999991
40
0.31249999999999
40
0.31249999999999
40
0.343749999999989
40
0.343749999999989
40
0.351562499999989
40
0.351562499999989
40
0.359374999999989
40
0.359374999999989
40
0.374999999999989
40
0.374999999999989
40
0.406249999999989
40
0.406249999999989
40
0.437499999999989
40
0.437499999999989
40
0.468749999999989
40
0.468749999999989
40
0.499999999999989
40
0.499999999999989
40
0.531249999999989
40
0.531249999999989
40
0.562499999999989
40
0.562499999999989
40
0.593749999999989
40
0.593749999999989
40
0.624999999999989
40
0.624999999999989
40
0.656249999999989
40
0.656249999999989
40
0.687499999999989
40
0.687499999999989
40
0.703124999999989
40
0.703124999999989
40
0.710937499999989
40
0.710937499999989
40
0.71874999999999
40
0.71874999999999
40
0.749999999999991
40
0.749999999999991
40
0.781249999999992
40
0.781249999999992
40
0.812499999999993
40
0.812499999999993
40
0.843749999999994
40
0.843749999999994
40
0.874999999999995
40
0.874999999999995
40
0.906249999999996
40
0.906249999999996
40
0.937499999999998
40
0.937499999999998
40
0.968749999999999
40
0.968749999999999
40
1
40
1
40
1
40
1
41
1
10
97.9936116068751
20
7.5
30
0
41
1
10
98.0537846447514
20
7.5
30
0
41
1
10
98.1139576826279
20
7.48089428976263
30
0
41
1
10
98.2343037583806
20
7.39916010642361
30
0
41
1
10
98.2944767962568
20
7.33650549275006
30
0
41
1
10
98.4148228720095
20
7.16393082274701
30
0
41
1
10
98.4749959098858
20
7.05398818016087
30
0
41
1
10
98.5953419856385
20
6.78546523380152
30
0
41
1
10
98.6555150235149
20
6.62687198159938
30
0
41
1
10
98.7758610992674
20
6.26260267982454
30
0
41
1
10
98.8360341371439
20
6.0569282174622
30
0
41
1
10
98.9563802128965
20
5.60316553710271
30
0
41
1
10
99.0165532507729
20
5.35509496846592
30
0
41
1
10
99.1368993265256
20
4.82403650191736
30
0
41
1
10
99.1970723644018
20
4.54107934853334
30
0
41
1
10
99.3174184401545
20
3.94982973225319
30
0
41
1
10
99.3775914780309
20
3.64157442060386
30
0
41
1
10
99.4979375537836
20
3.01034907015565
30
0
41
1
10
99.5581105916599
20
2.68741458404111
30
0
41
1
10
99.6784566674125
20
2.03736852570643
30
0
41
1
10
99.7386297052889
20
1.71028436003181
30
0
41
1
10
99.8589757810417
20
1.06142629083271
30
0
41
1
10
99.919148818918
20
0.739668331010563
30
0
41
1
10
99.9943651162633
20
0.345650591548889
30
0
41
1
10
100.009408375732
20
0.267251341386128
30
0
41
1
10
100.039494894671
20
0.111363267744594
30
0
41
1
10
100.05453815414
20
0.0341394722046005
30
0
41
1
10
100.099667932547
20
-0.197924290566334
30
0
41
1
10
100.129754451485
20
-0.354577903536267
30
0
41
1
10
100.2200140083
20
-0.829162241459301
30
0
41
1
10
100.280187046176
20
-1.15177456347476
30
0
41
1
10
100.400533121929
20
-1.80152390347351
30
0
41
1
10
100.460706159805
20
-2.12864386576271
30
0
41
1
10
100.581052235558
20
-2.77781254180957
30
0
41
1
10
100.641225273434
20
-3.09983289347645
30
0
41
1
10
100.761571349187
20
-3.72822759234578
30
0
41
1
10
100.821744387063
20
-4.03456592098948
30
0
41
1
10
100.942090462816
20
-4.6210264883799
30
0
41
1
10
101.002263500692
20
-4.90111183348893
30
0
41
1
10
101.122609576445
20
-5.42562346023578
30
0
41
1
10
101.182782614321
20
-5.67001997863795
30
0
41
1
10
101.303128690074
20
-6.11586890253054
30
0
41
1
10
101.36330172795
20
-6.31730510038821
30
0
41
1
10
101.483647803703
20
-6.6728179028965
30
0
41
1
10
101.543820841579
20
-6.82689440508923
30
0
41
1
10
101.664166917332
20
-7.0863921099278
30
0
41
1
10
101.724339955208
20
-7.19182740203635
30
0
41
1
10
101.844686030961
20
-7.35564563119823
30
0
41
1
10
101.904859068837
20
-7.41405174261706
30
0
41
1
10
101.995118625652
20
-7.46931224440499
30
0
41
1
10
102.02520514459
20
-7.48235674387914
30
0
41
1
10
102.070334922997
20
-7.49434035444179
30
0
41
1
10
102.085378182466
20
-7.49707171315075
30
0
41
1
10
102.115464701404
20
-7.50009524576245
30
0
41
1
10
102.130507960873
20
-7.50039541111451
30
0
41
1
10
102.205724258219
20
-7.49592238183018
30
0
41
1
10
102.265897296095
20
-7.47296453407597
30
0
41
1
10
102.386243371848
20
-7.38309657380375
30
0
41
1
10
102.446416409724
20
-7.31616040632144
30
0
41
1
10
102.566762485477
20
-7.13478393230252
30
0
41
1
10
102.626935523353
20
-7.02032168202766
30
0
41
1
10
102.747281599106
20
-6.74277468801566
30
0
41
1
10
102.807454636982
20
-6.57967818114383
30
0
41
1
10
102.927800712735
20
-6.20670678564088
30
0
41
1
10
102.987973750611
20
-5.99683498313647
30
0
41
1
10
103.108319826364
20
-5.53526530504192
30
0
41
1
10
103.16849286424
20
-5.28358649417621
30
0
41
1
10
103.288838939993
20
-4.74613115501023
30
0
41
1
10
103.349011977869
20
-4.46038629254417
30
0
41
1
10
103.469358053622
20
-3.86452490390093
30
0
41
1
10
103.529531091498
20
-3.55444571487527
30
0
41
1
10
103.649877167251
20
-2.92057508475958
30
0
41
1
10
103.710050205127
20
-2.59681867224998
30
0
41
1
10
103.770223243004
20
-2.27144448064752
30
0
0
SPLINE
5
F8
100
AcDbEntity
8
1
62
256
6
ByLayer
370
13
48
1
60
0
100
AcDbSpline
70
4
71
3
72
83
73
79
40
0
40
0
40
0
40
0
40
0.03125
40
0.03125
40
0.0624999999999999
40
0.0624999999999999
40
0.0937499999999998
40
0.0937499999999998
40
0.125
40
0.125
40
0.15625
40
0.15625
40
0.1875
40
0.1875
40
0.21875
40
0.21875
40
0.25
40
0.25
40
0.28125
40
0.28125
40
0.3125
40
0.3125
40
0.328125
40
0.328125
40
0.33203125
40
0.33203125
40
0.3359375
40
0.34375
40
0.34375
40
0.375
40
0.375
40
0.40625
40
0.40625
40
0.4375
40
0.4375
40
0.46875
40
0.46875
40
0.5
40
0.5
40
0.53125
40
0.53125
40
0.5625
40
0.5625
40
0.59375
40
0.59375
40
0.625
40
0.625
40
0.65625
40
0.65625
40
0.6640625
40
0.6640625
40
0.671875
40
0.671875
40
0.6875
40
0.6875
40
0.71875
40
0.71875
40
0.75
40
0.75
40
0.78125
40
0.78125
40
0.8125
40
0.8125
40
0.84375
40
0.84375
40
0.875
40
0.875
40
0.90625
40
0.90625
40
0.9375
40
0.9375
40
0.96875
40
0.96875
40
0.984375
40
0.984375
40
0.9921875
40
0.9921875
40
1
40
1
40
1
40
1
41
1
10
97.4948893682023
20
7.5
30
0
41
1
10
97.5602574293982
20
7.5
30
0
41
1
10
97.625625490594
20
7.47744115318528
30
0
41
1
10
97.7563616129858
20
7.38047001585892
30
0
41
1
10
97.8217296741816
20
7.30601836498167
30
0
41
1
10
97.9524657965733
20
7.10079783795831
30
0
41
1
10
98.0178338577692
20
6.96999673682711
30
0
41
1
10
98.1485699801608
20
6.65107311274534
30
0
41
1
10
98.2139380413566
20
6.46293619506443
30
0
41
1
10
98.3446741637482
20
6.03253626134133
30
0
41
1
10
98.4100422249442
20
5.79028411299373
30
0
41
1
10
98.5407783473358
20
5.25912462816493
30
0
41
1
10
98.6061464085316
20
4.97025342327217
30
0
41
1
10
98.7368825309234
20
4.35688874567191
30
0
41
1
10
98.8022505921192
20
4.03244819694774
30
0
41
1
10
98.9329867145109
20
3.36116376283817
30
0
41
1
10
98.9983547757067
20
3.0143759148211
30
0
41
1
10
99.1290908980985
20
2.31211203459034
30
0
41
1
10
99.1944589592943
20
1.95668201222392
30
0
41
1
10
99.3251950816859
20
1.24976673469956
30
0
41
1
10
99.3905631428819
20
0.898309615686514
30
0
41
1
10
99.4886152346756
20
0.381893294370912
30
0
41
1
10
99.5212992652735
20
0.21152954540031
30
0
41
1
10
99.562154303521
20
0.0014443128023629
30
0
41
1
10
99.5703253111705
20
-0.0404229395159348
30
0
41
1
10
99.5866673264694
20
-0.124632706132104
30
0
41
1
10
99.6111803494179
20
-0.251369346082043
30
0
41
1
10
99.6356933723663
20
-0.379303656306462
30
0
41
1
10
99.717403448861
20
-0.808083411297673
30
0
41
1
10
99.782771510057
20
-1.15867293201859
30
0
41
1
10
99.9135076324486
20
-1.86484786677099
30
0
41
1
10
99.9788756936445
20
-2.22040682965871
30
0
41
1
10
100.109611816036
20
-2.92407874649811
30
0
41
1
10
100.174979877232
20
-3.27214702071782
30
0
41
1
10
100.305715999624
20
-3.94718002303301
30
0
41
1
10
100.37108406082
20
-4.27408911185591
30
0
41
1
10
100.501820183211
20
-4.89347035743111
30
0
41
1
10
100.567188244407
20
-5.18588874854012
30
0
41
1
10
100.697924366799
20
-5.72497396083031
30
0
41
1
10
100.763292427995
20
-5.97160275921124
30
0
41
1
10
100.894028550386
20
-6.41124155879726
30
0
41
1
10
100.959396611582
20
-6.60423838584245
30
0
41
1
10
101.090132733974
20
-6.93298966596512
30
0
41
1
10
101.15550079517
20
-7.0687565438144
30
0
41
1
10
101.286236917561
20
-7.28367376184502
30
0
41
1
10
101.351604978757
20
-7.36285519690108
30
0
41
1
10
101.482341101149
20
-7.46879145881164
30
0
41
1
10
101.547709162345
20
-7.49558544674306
30
0
41
1
10
101.62941923884
20
-7.50047250500256
30
0
41
1
10
101.645761254139
20
-7.50004132058663
30
0
41
1
10
101.678445284736
20
-7.49630983995277
30
0
41
1
10
101.694787300035
20
-7.49300036659065
30
0
41
1
10
101.743813345932
20
-7.47857414637636
30
0
41
1
10
101.77649737653
20
-7.46295567336165
30
0
41
1
10
101.874549468324
20
-7.39688707138779
30
0
41
1
10
101.93991752952
20
-7.32713129875106
30
0
41
1
10
102.070653651912
20
-7.13156564846085
30
0
41
1
10
102.136021713107
20
-7.00572249828963
30
0
41
1
10
102.266757835499
20
-6.69664257847435
30
0
41
1
10
102.332125896695
20
-6.51338950233355
30
0
41
1
10
102.462862019087
20
-6.09230865094724
30
0
41
1
10
102.528230080282
20
-5.85448943770396
30
0
41
1
10
102.658966202674
20
-5.33139520708488
30
0
41
1
10
102.72433426387
20
-5.04615436480944
30
0
41
1
10
102.855070386262
20
-4.43898908861169
30
0
41
1
10
102.920438447457
20
-4.11711663126695
30
0
41
1
10
103.051174569849
20
-3.44978348614268
30
0
41
1
10
103.116542631045
20
-3.10437913281581
30
0
41
1
10
103.247278753437
20
-2.4037210764775
30
0
41
1
10
103.312646814633
20
-2.04851465414291
30
0
41
1
10
103.443382937024
20
-1.34103145686794
30
0
41
1
10
103.50875099822
20
-0.988784495969384
30
0
41
1
10
103.606803090014
20
-0.470588435382268
30
0
41
1
10
103.639487120612
20
-0.299532700340848
30
0
41
1
10
103.688513166509
20
-0.04626710532429
30
0
41
1
10
103.704855181808
20
0.0372926531434246
30
0
41
1
10
103.737539212406
20
0.206057744673643
30
0
41
1
10
103.753881227704
20
0.290994103045989
30
0
41
1
10
103.770223243003
20
0.376420252877352
30
0
0
SPLINE
5
F9
100
AcDbEntity
8
1
62
256
6
ByLayer
370
13
48
1
60
0
100
AcDbSpline
70
4
71
3
72
84
73
80
40
0
40
0
40
0
40
0
40
0.0312500000000015
40
0.0312500000000015
40
0.0625000000000031
40
0.0625000000000031
40
0.0937500000000046
40
0.0937500000000046
40
0.125000000000006
40
0.125000000000006
40
0.156250000000008
40
0.156250000000008
40
0.187500000000009
40
0.187500000000009
40
0.218750000000011
40
0.218750000000011
40
0.250000000000012
40
0.250000000000012
40
0.281250000000014
40
0.281250000000014
40
0.296875000000015
40
0.296875000000015
40
0.304687500000015
40
0.304687500000015
40
0.312500000000015
40
0.312500000000015
40
0.343750000000017
40
0.343750000000017
40
0.375000000000018
40
0.375000000000018
40
0.40625000000002
40
0.40625000000002
40
0.437500000000021
40
0.437500000000021
40
0.468750000000023
40
0.468750000000023
40
0.500000000000025
40
0.500000000000025
40
0.531250000000026
40
0.531250000000026
40
0.562500000000028
40
0.562500000000028
40
0.593750000000029
40
0.593750000000029
40
0.60937500000003
40
0.60937500000003
40
0.61328125000003
40
0.61328125000003
40
0.61718750000003
40
0.625000000000029
40
0.625000000000029
40
0.656250000000027
40
0.656250000000027
40
0.687500000000025
40
0.687500000000025
40
0.718750000000022
40
0.718750000000022
40
0.75000000000002
40
0.75000000000002
40
0.781250000000017
40
0.781250000000017
40
0.812500000000015
40
0.812500000000015
40
0.843750000000012
40
0.843750000000012
40
0.87500000000001
40
0.87500000000001
40
0.906250000000007
40
0.906250000000007
40
0.914062500000007
40
0.914062500000007
40
0.917968750000006
40
0.917968750000006
40
0.921875000000005
40
0.937500000000004
40
0.937500000000004
40
0.968750000000002
40
0.968750000000002
40
1
40
1
40
1
40
1
41
1
10
96.9961671295296
20
7.5
30
0
41
1
10
97.0667302140449
20
7.5
30
0
41
1
10
97.1372932985603
20
7.47369772544269
30
0
41
1
10
97.278419467591
20
7.36011114380716
30
0
41
1
10
97.3489825521063
20
7.27276952445092
30
0
41
1
10
97.4901087211371
20
7.03192932732682
30
0
41
1
10
97.5606718056524
20
6.87838678585115
30
0
41
1
10
97.7017979746831
20
6.5048687436055
30
0
41
1
10
97.7723610591984
20
6.284880384026
30
0
41
1
10
97.9134872282291
20
5.78401169187893
30
0
41
1
10
97.9840503127446
20
5.50315964856247
30
0
41
1
10
98.1251764817753
20
4.89171676999362
30
0
41
1
10
98.1957395662905
20
4.56119062188296
30
0
41
1
10
98.3368657353212
20
3.86573600932797
30
0
41
1
10
98.4074288198366
20
3.50088978220756
30
0
41
1
10
98.5485549888675
20
2.75402769559147
30
0
41
1
10
98.6191180733827
20
2.37208766222184
30
0
41
1
10
98.7602442424134
20
1.60770405369354
30
0
41
1
10
98.8308073269287
20
1.22531191411372
30
0
41
1
10
98.9366519537018
20
0.661944087828374
30
0
41
1
10
98.9719334959594
20
0.475833651384761
30
0
41
1
10
99.024855809346
20
0.200255736268247
30
0
41
1
10
99.0424965804748
20
0.108992556456656
30
0
41
1
10
99.0777781227325
20
-0.072185636142251
30
0
41
1
10
99.0954188938613
20
-0.163109750961809
30
0
41
1
10
99.1836227495055
20
-0.621591881923024
30
0
41
1
10
99.2541858340208
20
-0.998235397651655
30
0
41
1
10
99.3953120030516
20
-1.75904067980861
30
0
41
1
10
99.4658750875669
20
-2.14316727741519
30
0
41
1
10
99.6070012565975
20
-2.90349069215193
30
0
41
1
10
99.677564341113
20
-3.27962318100268
30
0
41
1
10
99.8186905101437
20
-4.00677472529873
30
0
41
1
10
99.8892535946591
20
-4.35771214038215
30
0
41
1
10
100.03037976369
20
-5.01780219362058
30
0
41
1
10
100.100942848205
20
-5.32687782901581
30
0
41
1
10
100.242069017236
20
-5.88955641249765
30
0
41
1
10
100.312632101751
20
-6.14311002035873
30
0
41
1
10
100.453758270782
20
-6.58601949976918
30
0
41
1
10
100.524321355297
20
-6.77536666488126
30
0
41
1
10
100.665447524328
20
-7.08700803437029
30
0
41
1
10
100.736010608843
20
-7.2093315354841
30
0
41
1
10
100.877136777874
20
-7.38960657243587
30
0
41
1
10
100.947699862389
20
-7.44761061393643
30
0
41
1
10
101.053544489162
20
-7.49153174892976
30
0
41
1
10
101.08882603142
20
-7.49901909200963
30
0
41
1
10
101.132927959242
20
-7.50013221672216
30
0
41
1
10
101.141748344807
20
-7.49994549926367
30
0
41
1
10
101.159389115935
20
-7.49874170217089
30
0
41
1
10
101.185850272629
20
-7.49568763485712
30
0
41
1
10
101.212311429322
20
-7.48880695386623
30
0
41
1
10
101.300515284966
20
-7.45702443335529
30
0
41
1
10
101.371078369481
20
-7.4031653100345
30
0
41
1
10
101.512204538512
20
-7.23153536534346
30
0
41
1
10
101.582767623027
20
-7.11371113872127
30
0
41
1
10
101.723893792058
20
-6.81108975488496
30
0
41
1
10
101.794456876574
20
-6.62626117130924
30
0
41
1
10
101.935583045604
20
-6.19201290564178
30
0
41
1
10
102.00614613012
20
-5.94259909780021
30
0
41
1
10
102.14727229915
20
-5.38744032607207
30
0
41
1
10
102.217835383666
20
-5.08174219376204
30
0
41
1
10
102.358961552696
20
-4.42736141079803
30
0
41
1
10
102.429524637212
20
-4.07875455875561
30
0
41
1
10
102.570650806243
20
-3.35508944613554
30
0
41
1
10
102.641213890758
20
-2.9801132790198
30
0
41
1
10
102.782340059788
20
-2.22096769377083
30
0
41
1
10
102.852903144304
20
-1.83686429262141
30
0
41
1
10
102.994029313335
20
-1.07514493608613
30
0
41
1
10
103.06459239785
20
-0.697566241193528
30
0
41
1
10
103.152796253494
20
-0.237470325855611
30
0
41
1
10
103.170437024623
20
-0.146036125687232
30
0
41
1
10
103.196898181316
20
-0.0098807663927403
30
0
41
1
10
103.205718566881
20
0.0352943181247554
30
0
41
1
10
103.22335933801
20
0.126187926266368
30
0
41
1
10
103.267461265832
20
0.354240162887209
30
0
41
1
10
103.311563193654
20
0.586165830609588
30
0
41
1
10
103.417407820427
20
1.14813444518489
30
0
41
1
10
103.487970904942
20
1.53001018726246
30
0
41
1
10
103.629097073973
20
2.29441190532813
30
0
41
1
10
103.699660158488
20
2.6768884572798
30
0
41
1
10
103.770223243003
20
3.05144137694018
30
0
0
SPLINE
5
FA
100
AcDbEntity
8
1
62
256
6
ByLayer
370
13
48
1
60
0
100
AcDbSpline
70
4
71
3
72
8
73
4
40
0
40
0
40
0
40
0
40
1
40
1
40
1
40
1
41
1
10
103.770223243003
20
-7.46764358949952
30
0
41
1
10
104.680148828669
20
-4.97906229153242
30
0
41
1
10
105.590074414334
20
-2.48983848650201
30
0
41
1
10
106.5
20
1.99E-13
30
0
0
SPLINE
5
FB
100
AcDbEntity
8
1
62
256
6
ByLayer
370
13
48
1
60
0
100
AcDbSpline
70
4
71
3
72
8
73
4
40
0
40
0
40
0
40
0
40
1
40
1
40
1
40
1
41
1
10
103.770223243004
20
7.06131909839033
30
0
41
1
10
104.680148828669
20
4.70984581544857
30
0
41
1
10
105.590074414334
20
2.356064010018
30
0
41
1
10
106.5
20
2.84E-14
30
0
0
SPLINE
5
FC
100
AcDbEntity
8
1
62
256
6
ByLayer
370
13
48
1
60
0
100
AcDbSpline
70
4
71
3
72
8
73
4
40
0
40
0
40
0
40
0
40
1
40
1
40
1
40
1
41
1
10
103.770223243004
20
6.01719513966094
30
0
41
1
10
104.680148828669
20
4.00738970649815
30
0
41
1
10
105.590074414335
20
2.001650525305
30
0
41
1
10
106.5
20
-6.537E-13
30
0
0
SPLINE
5
FD
100
AcDbEntity
8
1
62
256
6
ByLayer
370
13
48
1
60
0
100
AcDbSpline
70
4
71
3
72
8
73
4
40
0
40
0
40
0
40
0
40
1
40
1
40
1
40
1
41
1
10
103.770223243003
20
5.90226862255557
30
0
41
1
10
104.680148828669
20
3.93905637679728
30
0
41
1
10
105.590074414334
20
1.97162616708334
30
0
41
1
10
106.5
20
8.53E-14
30
0
0
SPLINE
5
FE
100
AcDbEntity
8
1
62
256
6
ByLayer
370
13
48
1
60
0
100
AcDbSpline
70
4
71
3
72
8
73
4
40
0
40
0
40
0
40
0
40
1
40
1
40
1
40
1
41
1
10
103.770223243004
20
-0.432650733675075
30
0
41
1
10
104.680148828669
20
-0.281620745081966
30
0
41
1
10
105.590074414334
20
-0.137403304989561
30
0
41
1
10
106.5
20
-2.84E-14
30
0
0
SPLINE
5
FF
100
AcDbEntity
8
1
62
256
6
ByLayer
370
13
48
1
60
0
100
AcDbSpline
70
4
71
3
72
8
73
4
40
0
40
0
40
0
40
0
40
1
40
1
40
1
40
1
41
1
10
103.770223243003
20
-7.48283062983145
30
0
41
1
10
104.680148828669
20
-4.98809224441297
30
0
41
1
10
105.590074414334
20
-2.49380607510338
30
0
41
1
10
106.5
20
1.99E-13
30
0
0
SPLINE
5
100
100
AcDbEntity
8
1
62
256
6
ByLayer
370
13
48
1
60
0
100
AcDbSpline
70
4
71
3
72
8
73
4
40
0
40
0
40
0
40
0
40
1
40
1
40
1
40
1
41
1
10
103.770223243003
20
-4.6859911710043
30
0
41
1
10
104.680148828669
20
-3.12932254117496
30
0
41
1
10
105.590074414334
20
-1.56731965780759
30
0
41
1
10
106.5
20
-2.558E-13
30
0
0
SPLINE
5
101
100
AcDbEntity
8
1
62
256
6
ByLayer
370
13
48
1
60
0
100
AcDbSpline
70
4
71
3
72
8
73
4
40
0
40
0
40
0
40
0
40
1
40
1
40
1
40
1
41
1
10
103.770223243004
20
0.770248479026776
30
0
41
1
10
104.680148828669
20
0.52028734296718
30
0
41
1
10
105.590074414334
20
0.263536884920427
30
0
41
1
10
106.5
20
5.68E-14
30
0
0
SPLINE
5
102
100
AcDbEntity
8
1
62
256
6
ByLayer
370
13
48
1
60
0
100
AcDbSpline
70
4
71
3
72
8
73
4
40
0
40
0
40
0
40
0
40
1
40
1
40
1
40
1
41
1
10
103.770223243004
20
7.12286654591384
30
0
41
1
10
104.680148828669
20
4.74644086879033
30
0
41
1
10
105.590074414335
20
2.3721431765897
30
0
41
1
10
106.5
20
-7.958E-13
30
0
0
SPLINE
5
103
100
AcDbEntity
8
1
62
256
6
ByLayer
370
13
48
1
60
0
100
AcDbSpline
70
4
71
3
72
8
73
4
40
0
40
0
40
0
40
0
40
1
40
1
40
1
40
1
41
1
10
103.770223243004
20
-0.243511043970813
30
0
41
1
10
104.680148828669
20
-0.169161539829247
30
0
41
1
10
105.590074414334
20
-0.0879908809403105
30
0
41
1
10
106.499999999999
20
-5.68E-14
30
0
0
SPLINE
5
104
100
AcDbEntity
8
1
62
256
6
ByLayer
370
13
48
1
60
0
100
AcDbSpline
70
4
71
3
72
8
73
4
40
0
40
0
40
0
40
0
40
1
40
1
40
1
40
1
41
1
10
103.770223243003
20
-5.68733507838067
30
0
41
1
10
104.680148828669
20
-3.7871079160449
30
0
41
1
10
105.590074414334
20
-1.89132249874626
30
0
41
1
10
106.5
20
1.705E-13
30
0
0
SPLINE
5
105
100
AcDbEntity
8
1
62
256
6
ByLayer
370
13
48
1
60
0
100
AcDbSpline
70
4
71
3
72
8
73
4
40
0
40
0
40
0
40
0
40
1
40
1
40
1
40
1
41
1
10
103.770223243004
20
-3.68927064812687
30
0
41
1
10
104.680148828669
20
-2.46545546676677
30
0
41
1
10
105.590074414334
20
-1.23569399480337
30
0
41
1
10
106.5
20
-1.99E-13
30
0
0
SPLINE
5
106
100
AcDbEntity
8
1
62
256
6
ByLayer
370
13
48
1
60
0
100
AcDbSpline
70
4
71
3
72
8
73
4
40
0
40
0
40
0
40
0
40
1
40
1
40
1
40
1
41
1
10
103.770223243004
20
-2.59759947546033
30
0
41
1
10
104.680148828669
20
-1.73813503777373
30
0
41
1
10
105.590074414334
20
-0.872265311924309
30
0
41
1
10
106.499999999999
20
-5.684E-13
30
0
0
SPLINE
5
107
100
AcDbEntity
8
1
62
256
6
ByLayer
370
13
48
1
60
0
100
AcDbSpline
70
4
71
3
72
8
73
4
40
0
40
0
40
0
40
0
40
1
40
1
40
1
40
1
41
1
10
103.770223243004
20
2.13548503404428
30
0
41
1
10
104.680148828669
20
1.41711472915614
30
0
41
1
10
105.590074414334
20
0.705283740442212
30
0
41
1
10
106.5
20
1.137E-13
30
0
0
SPLINE
5
108
100
AcDbEntity
8
1
62
256
6
ByLayer
370
13
48
1
60
0
100
AcDbSpline
70
4
71
3
72
8
73
4
40
0
40
0
40
0
40
0
40
1
40
1
40
1
40
1
41
1
10
103.770223243003
20
5.08633863838469
30
0
41
1
10
104.680148828669
20
3.39590768904984
30
0
41
1
10
105.590074414334
20
1.70045515306782
30
0
41
1
10
106.5
20
-1.421E-13
30
0
0
SPLINE
5
109
100
AcDbEntity
8
1
62
256
6
ByLayer
370
13
48
1
60
0
100
AcDbSpline
70
4
71
3
72
8
73
4
40
0
40
0
40
0
40
0
40
1
40
1
40
1
40
1
41
1
10
103.770223243003
20
-6.39598124616177
30
0
41
1
10
104.680148828669
20
-4.26042348909886
30
0
41
1
10
105.590074414334
20
-2.12842180134064
30
0
41
1
10
106.5
20
1.705E-13
30
0
0
SPLINE
5
10A
100
AcDbEntity
8
1
62
256
6
ByLayer
370
13
48
1
60
0
100
AcDbSpline
70
4
71
3
72
8
73
4
40
0
40
0
40
0
40
0
40
1
40
1
40
1
40
1
41
1
10
103.770223243003
20
-6.94001423337482
30
0
41
1
10
104.680148828669
20
-4.62408866855162
30
0
41
1
10
105.590074414334
20
-2.31074197484995
30
0
41
1
10
106.5
20
1.99E-13
30
0
0
SPLINE
5
10B
100
AcDbEntity
8
1
62
256
6
ByLayer
370
13
48
1
60
0
100
AcDbSpline
70
4
71
3
72
8
73
4
40
0
40
0
40
0
40
0
40
1
40
1
40
1
40
1
41
1
10
103.770223243003
20
-7.26026202649703
30
0
41
1
10
104.680148828669
20
-4.84188635940166
30
0
41
1
10
105.590074414334
20
-2.42178999825612
30
0
41
1
10
106.5
20
1.99E-13
30
0
0
SPLINE
5
10C
100
AcDbEntity
8
1
62
256
6
ByLayer
370
13
48
1
60
0
100
AcDbSpline
70
4
71
3
72
8
73
4
40
0
40
0
40
0
40
0
40
1
40
1
40
1
40
1
41
1
10
103.770223243004
20
3.25769004242483
30
0
41
1
10
104.680148828669
20
2.16564631384085
30
0
41
1
10
105.590074414334
20
1.07974559479155
30
0
41
1
10
106.5
20
1.705E-13
30
0
0
SPLINE
5
10D
100
AcDbEntity
8
1
62
256
6
ByLayer
370
13
48
1
60
0
100
AcDbSpline
70
4
71
3
72
8
73
4
40
0
40
0
40
0
40
0
40
1
40
1
40
1
40
1
41
1
10
103.770223243003
20
4.13950170679067
30
0
41
1
10
104.680148828669
20
2.76535862533274
30
0
41
1
10
105.590074414334
20
1.38551957496355
30
0
41
1
10
106.5
20
-2.84E-14
30
0
0
SPLINE
5
10E
100
AcDbEntity
8
1
62
256
6
ByLayer
370
13
48
1
60
0
100
AcDbSpline
70
4
71
3
72
8
73
4
40
0
40
0
40
0
40
0
40
1
40
1
40
1
40
1
41
1
10
103.770223243004
20
3.08612654193794
30
0
41
1
10
104.680148828669
20
2.06363760828938
30
0
41
1
10
105.590074414334
20
1.03492492044919
30
0
41
1
10
106.5
20
5.68E-14
30
0
0
SPLINE
5
10F
100
AcDbEntity
8
1
62
256
6
ByLayer
370
13
48
1
60
0
100
AcDbSpline
70
4
71
3
72
8
73
4
40
0
40
0
40
0
40
0
40
1
40
1
40
1
40
1
41
1
10
103.770223243004
20
0.958319110367057
30
0
41
1
10
104.680148828669
20
0.632110904510341
30
0
41
1
10
105.590074414335
20
0.312670019280063
30
0
41
1
10
106.5
20
-1.137E-13
30
0
0
SPLINE
5
110
100
AcDbEntity
8
1
62
256
6
ByLayer
370
13
48
1
60
0
100
AcDbSpline
70
4
71
3
72
8
73
4
40
0
40
0
40
0
40
0
40
1
40
1
40
1
40
1
41
1
10
103.770223243003
20
-6.86602331399052
30
0
41
1
10
104.680148828669
20
-4.58009494093747
30
0
41
1
10
105.590074414334
20
-2.2914119722993
30
0
41
1
10
106.5
20
1.99E-13
30
0
0
SPLINE
5
111
100
AcDbEntity
8
1
62
256
6
ByLayer
370
13
48
1
60
0
100
AcDbSpline
70
4
71
3
72
8
73
4
40
0
40
0
40
0
40
0
40
1
40
1
40
1
40
1
41
1
10
103.770223243004
20
4.2960519783276
30
0
41
1
10
104.680148828669
20
2.85844072326069
30
0
41
1
10
105.590074414335
20
1.42641806863372
30
0
41
1
10
106.5
20
-4.832E-13
30
0
0
SPLINE
5
112
100
AcDbEntity
8
1
62
256
6
ByLayer
370
13
48
1
60
0
100
AcDbSpline
70
4
71
3
72
8
73
4
40
0
40
0
40
0
40
0
40
1
40
1
40
1
40
1
41
1
10
103.770223243004
20
5.22384655125344
30
0
41
1
10
104.680148828669
20
3.47766752814749
30
0
41
1
10
105.590074414334
20
1.7363788627423
30
0
41
1
10
106.5
20
2.842E-13
30
0
0
SPLINE
5
113
100
AcDbEntity
8
1
62
256
6
ByLayer
370
13
48
1
60
0
100
AcDbSpline
70
4
71
3
72
8
73
4
40
0
40
0
40
0
40
0
40
1
40
1
40
1
40
1
41
1
10
103.770223243004
20
-1.62441482721312
30
0
41
1
10
104.680148828669
20
-1.0762807683264
30
0
41
1
10
105.590074414334
20
-0.534807150094139
30
0
41
1
10
106.5
20
-2.84E-14
30
0
0
SPLINE
5
114
100
AcDbEntity
8
1
62
256
6
ByLayer
370
13
48
1
60
0
100
AcDbSpline
70
4
71
3
72
8
73
4
40
0
40
0
40
0
40
0
40
1
40
1
40
1
40
1
41
1
10
103.770223243004
20
-2.77437140428449
30
0
41
1
10
104.680148828669
20
-1.8432405852007
30
0
41
1
10
105.590074414334
20
-0.918446679360585
30
0
41
1
10
106.5
20
-1.421E-13
30
0
0
SPLINE
5
115
100
AcDbEntity
8
1
62
256
6
ByLayer
370
13
48
1
60
0
100
AcDbSpline
70
4
71
3
72
8
73
4
40
0
40
0
40
0
40
0
40
1
40
1
40
1
40
1
41
1
10
103.770223243004
20
6.6556793543443
30
0
41
1
10
104.680148828669
20
4.4339738142433
30
0
41
1
10
105.590074414334
20
2.21540576737394
30
0
41
1
10
106.5
20
3.695E-13
30
0
0
SPLINE
5
116
100
AcDbEntity
8
1
62
256
6
ByLayer
370
13
48
1
60
0
100
AcDbSpline
70
4
71
3
72
8
73
4
40
0
40
0
40
0
40
0
40
1
40
1
40
1
40
1
41
1
10
103.770223243003
20
-5.56210847741085
30
0
41
1
10
104.680148828669
20
-3.71265033369619
30
0
41
1
10
105.590074414334
20
-1.85860726103471
30
0
41
1
10
106.5
20
1.421E-13
30
0
0
SPLINE
5
117
100
AcDbEntity
8
1
62
256
6
ByLayer
370
13
48
1
60
0
100
AcDbSpline
70
4
71
3
72
8
73
4
40
0
40
0
40
0
40
0
40
1
40
1
40
1
40
1
41
1
10
103.770223243004
20
7.40673273140817
30
0
41
1
10
104.680148828669
20
4.93674891478005
30
0
41
1
10
105.590074414334
20
2.46782880688099
30
0
41
1
10
106.499999999999
20
1.6485E-12
30
0
0
SPLINE
5
118
100
AcDbEntity
8
1
62
256
6
ByLayer
370
13
48
1
60
0
100
AcDbSpline
70
4
71
3
72
8
73
4
40
0
40
0
40
0
40
0
40
1
40
1
40
1
40
1
41
1
10
103.770223243004
20
-1.43907396175675
30
0
41
1
10
104.680148828669
20
-0.966080278610775
30
0
41
1
10
105.590074414334
20
-0.486387162454832
30
0
41
1
10
106.5
20
-8.53E-14
30
0
0
SPLINE
5
119
100
AcDbEntity
8
1
62
256
6
ByLayer
370
13
48
1
60
0
100
AcDbSpline
70
4
71
3
72
8
73
4
40
0
40
0
40
0
40
0
40
1
40
1
40
1
40
1
41
1
10
103.770223243003
20
-6.29507396208862
30
0
41
1
10
104.680148828669
20
-4.20042575415059
30
0
41
1
10
105.590074414334
20
-2.10205994403782
30
0
41
1
10
106.5
20
1.705E-13
30
0
0
SPLINE
5
11A
100
AcDbEntity
8
1
62
256
6
ByLayer
370
13
48
1
60
0
100
AcDbSpline
70
4
71
3
72
8
73
4
40
0
40
0
40
0
40
0
40
1
40
1
40
1
40
1
41
1
10
103.770223243004
20
7.37460914216481
30
0
41
1
10
104.680148828669
20
4.91764878131829
30
0
41
1
10
105.590074414334
20
2.4594365735197
30
0
41
1
10
106.5
20
0
30
0
0
SPLINE
5
11B
100
AcDbEntity
8
1
62
256
6
ByLayer
370
13
48
1
60
0
100
AcDbSpline
70
4
71
3
72
8
73
4
40
0
40
0
40
0
40
0
40
1
40
1
40
1
40
1
41
1
10
103.770223243003
20
-3.85292406640394
30
0
41
1
10
104.680148828669
20
-2.56276097353319
30
0
41
1
10
105.590074414334
20
-1.27844817354622
30
0
41
1
10
106.5
20
1.137E-13
30
0
0
SPLINE
5
11C
100
AcDbEntity
8
1
62
256
6
ByLayer
370
13
48
1
60
0
100
AcDbSpline
70
4
71
3
72
8
73
4
40
0
40
0
40
0
40
0
40
1
40
1
40
1
40
1
41
1
10
103.770223243003
20
-7.30543227908399
30
0
41
1
10
104.680148828669
20
-4.86874381441251
30
0
41
1
10
105.590074414334
20
-2.43359065034943
30
0
41
1
10
106.5
20
1.99E-13
30
0
0
SPLINE
5
11D
100
AcDbEntity
8
1
62
256
6
ByLayer
370
13
48
1
60
0
100
AcDbSpline
70
4
71
3
72
8
73
4
40
0
40
0
40
0
40
0
40
1
40
1
40
1
40
1
41
1
10
103.770223243004
20
6.56629209338118
30
0
41
1
10
104.680148828669
20
4.38082568682827
30
0
41
1
10
105.590074414334
20
2.19205349662499
30
0
41
1
10
106.5
20
8.53E-14
30
0
0
SPLINE
5
11E
100
AcDbEntity
8
1
62
256
6
ByLayer
370
13
48
1
60
0
100
AcDbSpline
70
4
71
3
72
8
73
4
40
0
40
0
40
0
40
0
40
1
40
1
40
1
40
1
41
1
10
103.770223243003
20
-4.8323141355375
30
0
41
1
10
104.680148828669
20
-3.21632365832457
30
0
41
1
10
105.590074414334
20
-1.60554628482024
30
0
41
1
10
106.5
20
1.421E-13
30
0
0
SPLINE
5
11F
100
AcDbEntity
8
1
62
256
6
ByLayer
370
13
48
1
60
0
100
AcDbSpline
70
4
71
3
72
8
73
4
40
0
40
0
40
0
40
0
40
1
40
1
40
1
40
1
41
1
10
103.770223243004
20
1.95332382935624
30
0
41
1
10
104.680148828669
20
1.30880481102559
30
0
41
1
10
105.590074414334
20
0.657694433800884
30
0
41
1
10
106.5
20
2.84E-14
30
0
0
SPLINE
5
120
100
AcDbEntity
8
1
62
256
6
ByLayer
370
13
48
1
60
0
100
AcDbSpline
70
4
71
3
72
8
73
4
40
0
40
0
40
0
40
0
40
1
40
1
40
1
40
1
41
1
10
103.770223243004
20
7.49809908809399
30
0
41
1
10
104.680148828669
20
4.99888636563765
30
0
41
1
10
105.590074414334
20
2.49951069051403
30
0
41
1
10
106.5
20
0
30
0
0
LINE
5
7D
100
AcDbEntity
8
81
62
256
6
ByLayer
370
18
48
1
60
0
100
AcDbLine
10
106.5
20
0
30
0
11
111.5
21
0
31
0
39
0
210
0
220
0
230
1
0
LINE
5
7E
100
AcDbEntity
8
SK4
62
256
6
ByLayer
370
18
48
0.05
60
0
100
AcDbLine
10
-55
20
0
30
0
11
111.5
21
0
31
0
39
0
210
0
220
0
230
1
0
LINE
5
80
100
AcDbEntity
8
80
62
256
6
ByLayer
370
18
48
1
60
0
100
AcDbLine
10
0
20
0
30
0
11
-5
21
0
31
0
39
0
210
0
220
0
230
1
0
LINE
5
81
100
AcDbEntity
8
4
62
256
6
ByLayer
370
18
48
0.05
60
0
100
AcDbLine
10
-5
20
0
30
0
11
111.5
21
0
31
0
39
0
210
0
220
0
230
1
0
LINE
5
83
100
AcDbEntity
8
1
62
256
6
ByLayer
370
18
48
1
60
0
100
AcDbLine
10
0
20
10
30
0
11
0
21
-10
31
0
39
0
210
0
220
0
230
1
0
LINE
5
84
100
AcDbEntity
8
1
62
256
6
ByLayer
370
18
48
1
60
0
100
AcDbLine
10
103.770223
20
7.5
30
0
11
103.770223
21
7.26184
31
0
39
0
210
0
220
0
230
1
0
LINE
5
85
100
AcDbEntity
8
1
62
256
6
ByLayer
370
18
48
1
60
0
100
AcDbLine
10
103.770223
20
-7.5
30
0
11
103.770223
21
-1.068164
31
0
39
0
210
0
220
0
230
1
0
LINE
5
86
100
AcDbEntity
8
1
62
256
6
ByLayer
370
18
48
1
60
0
100
AcDbLine
10
10
20
-3.923496
30
0
11
10
21
6.896048
31
0
39
0
210
0
220
0
230
1
0
LINE
5
87
100
AcDbEntity
8
SK1
62
256
6
ByLayer
370
13
48
1
60
0
100
AcDbLine
10
-14.992177
20
-6.1943
30
0
11
-14.992177
21
6.1943
31
0
39
0
210
0
220
0
230
1
0
LINE
5
89
100
AcDbEntity
8
SK1
62
256
6
ByLayer
370
13
48
1
60
0
100
AcDbLine
10
-42.24218
20
4.745825
30
0
11
-42.24218
21
-4.745825
31
0
39
0
210
0
220
0
230
1
0
LINE
5
8A
100
AcDbEntity
8
SK1
62
256
6
ByLayer
370
13
48
1
60
0
100
AcDbLine
10
-13.845141
20
5.608199
30
0
11
-13.845141
21
-5.608199
31
0
39
0
210
0
220
0
230
1
0
LINE
5
8B
100
AcDbEntity
8
SK1
62
256
6
ByLayer
370
18
48
1
60
0
100
AcDbLine
10
0
20
10
30
0
11
0
21
-10
31
0
39
0
210
0
220
0
230
1
0
LINE
5
8C
100
AcDbEntity
8
SK1
62
256
6
ByLayer
370
13
48
1
60
0
100
AcDbLine
10
-43.356507
20
-3.65035
30
0
11
-43.356507
21
3.65035
31
0
39
0
210
0
220
0
230
1
0
LINE
5
8D
100
AcDbEntity
8
SK1
62
256
6
ByLayer
370
18
48
1
60
0
100
AcDbLine
10
-50
20
-9
30
0
11
-50
21
9
31
0
39
0
210
0
220
0
230
1
0
LINE
5
8E
100
AcDbEntity
8
SK1
62
256
6
ByLayer
370
18
48
1
60
0
100
AcDbLine
10
-49
20
-10
30
0
11
-49
21
10
31
0
39
0
210
0
220
0
230
1
0
LINE
5
8F
100
AcDbEntity
8
1
62
256
6
ByLayer
370
18
48
1
60
0
100
AcDbLine
10
34.138614
20
-7.2
30
0
11
68.146278
21
-7.2
31
0
39
0
210
0
220
0
230
1
0
LINE
5
90
100
AcDbEntity
8
1
62
256
6
ByLayer
370
18
48
1
60
0
100
AcDbLine
10
68.146278
20
7.2
30
0
11
34.138614
21
7.2
31
0
39
0
210
0
220
0
230
1
0
LINE
5
91
100
AcDbEntity
8
1
62
256
6
ByLayer
370
18
48
1
60
0
100
AcDbLine
10
106.5
20
0
30
0
11
103.770223
21
7.5
31
0
39
0
210
0
220
0
230
1
0
LINE
5
92
100
AcDbEntity
8
1
62
256
6
ByLayer
370
18
48
1
60
0
100
AcDbLine
10
103.770223
20
-7.5
30
0
11
106.5
21
0
31
0
39
0
210
0
220
0
230
1
0
LINE
5
93
100
AcDbEntity
8
1
62
256
6
ByLayer
370
18
48
1
60
0
100
AcDbLine
10
5.870798
20
8.356177
30
0
11
0
21
10
31
0
39
0
210
0
220
0
230
1
0
LINE
5
94
100
AcDbEntity
8
1
62
256
6
ByLayer
370
18
48
1
60
0
100
AcDbLine
10
0
20
-10
30
0
11
5.870798
21
-8.356177
31
0
39
0
210
0
220
0
230
1
0
LINE
5
95
100
AcDbEntity
8
1
62
256
6
ByLayer
370
18
48
1
60
0
100
AcDbLine
10
106.5
20
0
30
0
11
103.770223
21
7.5
31
0
39
0
210
0
220
0
230
1
0
LINE
5
96
100
AcDbEntity
8
1
62
256
6
ByLayer
370
18
48
1
60
0
100
AcDbLine
10
103.770223
20
-7.5
30
0
11
106.5
21
0
31
0
39
0
210
0
220
0
230
1
0
LINE
5
97
100
AcDbEntity
8
1
62
256
6
ByLayer
370
18
48
1
60
0
100
AcDbLine
10
95.5
20
-7.5
30
0
11
103.770223
21
-7.5
31
0
39
0
210
0
220
0
230
1
0
LINE
5
98
100
AcDbEntity
8
SK1
62
256
6
ByLayer
370
18
48
1
60
0
100
AcDbLine
10
-49
20
-10
30
0
11
0
21
-10
31
0
39
0
210
0
220
0
230
1
0
LINE
5
99
100
AcDbEntity
8
SK1
62
256
6
ByLayer
370
18
48
1
60
0
100
AcDbLine
10
0
20
10
30
0
11
-49
21
10
31
0
39
0
210
0
220
0
230
1
0
LINE
5
9A
100
AcDbEntity
8
SK1
62
256
6
ByLayer
370
18
48
1
60
0
100
AcDbLine
10
-50
20
-9
30
0
11
-49
21
-10
31
0
39
0
210
0
220
0
230
1
0
LINE
5
9B
100
AcDbEntity
8
SK1
62
256
6
ByLayer
370
18
48
1
60
0
100
AcDbLine
10
-49
20
10
30
0
11
-50
21
9
31
0
39
0
210
0
220
0
230
1
0
LINE
5
9C
100
AcDbEntity
8
1
62
256
6
ByLayer
370
18
48
1
60
0
100
AcDbLine
10
103.770223
20
7.5
30
0
11
103.770223
21
-7.5
31
0
39
0
210
0
220
0
230
1
0
LINE
5
9D
100
AcDbEntity
8
1
62
256
6
ByLayer
370
18
48
1
60
0
100
AcDbLine
10
103.770223
20
7.5
30
0
11
103.770223
21
-7.5
31
0
39
0
210
0
220
0
230
1
0
LINE
5
9E
100
AcDbEntity
8
1
62
256
6
ByLayer
370
18
48
1
60
0
100
AcDbLine
10
103.770223
20
7.5
30
0
11
103.770223
21
-7.5
31
0
39
0
210
0
220
0
230
1
0
LINE
5
9F
100
AcDbEntity
8
1
62
256
6
ByLayer
370
18
48
1
60
0
100
AcDbLine
10
95.5
20
7.5
30
0
11
95.5
21
-7.5
31
0
39
0
210
0
220
0
230
1
0
LINE
5
A0
100
AcDbEntity
8
1
62
256
6
ByLayer
370
18
48
1
60
0
100
AcDbLine
10
95.5
20
7.5
30
0
11
95.5
21
-7.5
31
0
39
0
210
0
220
0
230
1
0
LINE
5
A1
100
AcDbEntity
8
1
62
256
6
ByLayer
370
18
48
1
60
0
100
AcDbLine
10
103.770223
20
7.5
30
0
11
103.770223
21
-7.5
31
0
39
0
210
0
220
0
230
1
0
LINE
5
A2
100
AcDbEntity
8
1
62
256
6
ByLayer
370
18
48
1
60
0
100
AcDbLine
10
95.5
20
7.5
30
0
11
95.5
21
-7.5
31
0
39
0
210
0
220
0
230
1
0
LINE
5
A3
100
AcDbEntity
8
1
62
256
6
ByLayer
370
18
48
1
60
0
100
AcDbLine
10
103.770223
20
7.5
30
0
11
103.770223
21
-7.5
31
0
39
0
210
0
220
0
230
1
0
LINE
5
A4
100
AcDbEntity
8
SK2
62
256
6
ByLayer
370
13
48
1
60
0
100
AcDbLine
10
-56.5
20
-10
30
0
11
-56.5
21
39.024569
31
0
39
0
210
0
220
0
230
1
0
LINE
5
A6
100
AcDbEntity
8
SK2
62
256
6
ByLayer
370
13
48
1
60
0
100
AcDbLine
10
-51.5875
20
10
30
0
11
-58.5
21
10
31
0
39
0
210
0
220
0
230
1
0
LINE
5
A7
100
AcDbEntity
8
SK2
62
256
6
ByLayer
370
13
48
1
60
0
100
AcDbLine
10
-51.5875
20
-10
30
0
11
-58.5
21
-10
31
0
39
0
210
0
220
0
230
1
0
LINE
5
A8
100
AcDbEntity
8
1
62
256
6
ByLayer
370
18
48
1
60
1
100
AcDbLine
10
-56.5
20
10
30
0
11
-56.039216
21
6.500002
31
0
39
0
210
0
220
0
230
1
0
LINE
5
A9
100
AcDbEntity
8
1
62
256
6
ByLayer
370
18
48
1
60
1
100
AcDbLine
10
-56.039216
20
6.500002
30
0
11
-56.960784
21
6.499998
31
0
39
0
210
0
220
0
230
1
0
LINE
5
AA
100
AcDbEntity
8
1
62
256
6
ByLayer
370
18
48
1
60
1
100
AcDbLine
10
-56.960784
20
6.499998
30
0
11
-56.5
21
10
31
0
39
0
210
0
220
0
230
1
0
LINE
5
AB
100
AcDbEntity
8
1
62
256
6
ByLayer
370
18
48
1
60
1
100
AcDbLine
10
-56.5
20
-10
30
0
11
-56.960784
21
-6.500002
31
0
39
0
210
0
220
0
230
1
0
LINE
5
AC
100
AcDbEntity
8
1
62
256
6
ByLayer
370
18
48
1
60
1
100
AcDbLine
10
-56.960784
20
-6.500002
30
0
11
-56.039216
21
-6.499998
31
0
39
0
210
0
220
0
230
1
0
LINE
5
AD
100
AcDbEntity
8
1
62
256
6
ByLayer
370
18
48
1
60
1
100
AcDbLine
10
-56.039216
20
-6.499998
30
0
11
-56.5
21
-10
31
0
39
0
210
0
220
0
230
1
0
LINE
5
AE
100
AcDbEntity
8
2
62
256
6
ByLayer
370
13
48
1
60
0
100
AcDbLine
10
114
20
-7.5
30
0
11
114
21
35.774683
31
0
39
0
210
0
220
0
230
1
0
LINE
5
B0
100
AcDbEntity
8
2
62
256
6
ByLayer
370
13
48
1
60
0
100
AcDbLine
10
105.357723
20
7.5
30
0
11
116
21
7.5
31
0
39
0
210
0
220
0
230
1
0
LINE
5
B1
100
AcDbEntity
8
2
62
256
6
ByLayer
370
13
48
1
60
0
100
AcDbLine
10
105.357723
20
-7.5
30
0
11
116
21
-7.5
31
0
39
0
210
0
220
0
230
1
0
LINE
5
B2
100
AcDbEntity
8
1
62
256
6
ByLayer
370
18
48
1
60
1
100
AcDbLine
10
114
20
7.5
30
0
11
114.460784
21
4.000002
31
0
39
0
210
0
220
0
230
1
0
LINE
5
B3
100
AcDbEntity
8
1
62
256
6
ByLayer
370
18
48
1
60
1
100
AcDbLine
10
114.460784
20
4.000002
30
0
11
113.539216
21
3.999998
31
0
39
0
210
0
220
0
230
1
0
LINE
5
B4
100
AcDbEntity
8
1
62
256
6
ByLayer
370
18
48
1
60
1
100
AcDbLine
10
113.539216
20
3.999998
30
0
11
114
21
7.5
31
0
39
0
210
0
220
0
230
1
0
LINE
5
B5
100
AcDbEntity
8
1
62
256
6
ByLayer
370
18
48
1
60
1
100
AcDbLine
10
114
20
-7.5
30
0
11
113.539216
21
-4.000002
31
0
39
0
210
0
220
0
230
1
0
LINE
5
B6
100
AcDbEntity
8
1
62
256
6
ByLayer
370
18
48
1
60
1
100
AcDbLine
10
113.539216
20
-4.000002
30
0
11
114.460784
21
-3.999998
31
0
39
0
210
0
220
0
230
1
0
LINE
5
B7
100
AcDbEntity
8
1
62
256
6
ByLayer
370
18
48
1
60
1
100
AcDbLine
10
114.460784
20
-3.999998
30
0
11
114
21
-7.5
31
0
39
0
210
0
220
0
230
1
0
LINE
5
B8
100
AcDbEntity
8
SK2
62
256
6
ByLayer
370
13
48
1
60
0
100
AcDbLine
10
107.042957
20
-1.491762
30
0
11
113.682423
21
-19.733545
31
0
39
0
210
0
220
0
230
1
0
LINE
5
B9
100
AcDbEntity
8
SK2
62
256
6
ByLayer
370
13
48
1
60
0
100
AcDbLine
10
107.042957
20
1.491762
30
0
11
113.682423
21
19.733545
31
0
39
0
210
0
220
0
230
1
0
LINE
5
BA
100
AcDbEntity
8
1
62
256
6
ByLayer
370
18
48
1
60
1
100
AcDbLine
10
112.998383
20
-17.85416
30
0
11
116.051575
21
-16.082064
31
0
39
0
210
0
220
0
230
1
0
LINE
5
BB
100
AcDbEntity
8
1
62
256
6
ByLayer
370
18
48
1
60
1
100
AcDbLine
10
116.051575
20
-16.082064
30
0
11
116.406196
21
-16.93267
31
0
39
0
210
0
220
0
230
1
0
LINE
5
BC
100
AcDbEntity
8
1
62
256
6
ByLayer
370
18
48
1
60
1
100
AcDbLine
10
116.406196
20
-16.93267
30
0
11
112.998383
21
-17.85416
31
0
39
0
210
0
220
0
230
1
0
LINE
5
BD
100
AcDbEntity
8
1
62
256
6
ByLayer
370
18
48
1
60
1
100
AcDbLine
10
112.998383
20
17.85416
30
0
11
116.406193
21
16.932671
31
0
39
0
210
0
220
0
230
1
0
LINE
5
BE
100
AcDbEntity
8
1
62
256
6
ByLayer
370
18
48
1
60
1
100
AcDbLine
10
116.406193
20
16.932671
30
0
11
116.051579
21
16.082063
31
0
39
0
210
0
220
0
230
1
0
LINE
5
BF
100
AcDbEntity
8
1
62
256
6
ByLayer
370
18
48
1
60
1
100
AcDbLine
10
116.051579
20
16.082063
30
0
11
112.998383
21
17.85416
31
0
39
0
210
0
220
0
230
1
0
LINE
5
125
100
AcDbEntity
8
1
62
256
6
ByLayer
370
18
48
1
60
1
100
AcDbLine
10
-56.5
20
10
30
0
11
-56.039216
21
6.500002
31
0
39
0
210
0
220
0
230
1
0
LINE
5
126
100
AcDbEntity
8
1
62
256
6
ByLayer
370
18
48
1
60
1
100
AcDbLine
10
-56.039216
20
6.500002
30
0
11
-56.960784
21
6.499998
31
0
39
0
210
0
220
0
230
1
0
LINE
5
127
100
AcDbEntity
8
1
62
256
6
ByLayer
370
18
48
1
60
1
100
AcDbLine
10
-56.960784
20
6.499998
30
0
11
-56.5
21
10
31
0
39
0
210
0
220
0
230
1
0
LINE
5
129
100
AcDbEntity
8
1
62
256
6
ByLayer
370
18
48
1
60
1
100
AcDbLine
10
-56.5
20
-10
30
0
11
-56.960784
21
-6.500002
31
0
39
0
210
0
220
0
230
1
0
LINE
5
12A
100
AcDbEntity
8
1
62
256
6
ByLayer
370
18
48
1
60
1
100
AcDbLine
10
-56.960784
20
-6.500002
30
0
11
-56.039216
21
-6.499998
31
0
39
0
210
0
220
0
230
1
0
LINE
5
12B
100
AcDbEntity
8
1
62
256
6
ByLayer
370
18
48
1
60
1
100
AcDbLine
10
-56.039216
20
-6.499998
30
0
11
-56.5
21
-10
31
0
39
0
210
0
220
0
230
1
0
LINE
5
12F
100
AcDbEntity
8
1
62
256
6
ByLayer
370
18
48
1
60
1
100
AcDbLine
10
114
20
7.5
30
0
11
114.460784
21
4.000002
31
0
39
0
210
0
220
0
230
1
0
LINE
5
130
100
AcDbEntity
8
1
62
256
6
ByLayer
370
18
48
1
60
1
100
AcDbLine
10
114.460784
20
4.000002
30
0
11
113.539216
21
3.999998
31
0
39
0
210
0
220
0
230
1
0
LINE
5
131
100
AcDbEntity
8
1
62
256
6
ByLayer
370
18
48
1
60
1
100
AcDbLine
10
113.539216
20
3.999998
30
0
11
114
21
7.5
31
0
39
0
210
0
220
0
230
1
0
LINE
5
133
100
AcDbEntity
8
1
62
256
6
ByLayer
370
18
48
1
60
1
100
AcDbLine
10
114
20
-7.5
30
0
11
113.539216
21
-4.000002
31
0
39
0
210
0
220
0
230
1
0
LINE
5
134
100
AcDbEntity
8
1
62
256
6
ByLayer
370
18
48
1
60
1
100
AcDbLine
10
113.539216
20
-4.000002
30
0
11
114.460784
21
-3.999998
31
0
39
0
210
0
220
0
230
1
0
LINE
5
135
100
AcDbEntity
8
1
62
256
6
ByLayer
370
18
48
1
60
1
100
AcDbLine
10
114.460784
20
-3.999998
30
0
11
114
21
-7.5
31
0
39
0
210
0
220
0
230
1
0
LINE
5
138
100
AcDbEntity
8
1
62
256
6
ByLayer
370
18
48
1
60
1
100
AcDbLine
10
112.998383
20
-17.85416
30
0
11
116.051575
21
-16.082064
31
0
39
0
210
0
220
0
230
1
0
LINE
5
139
100
AcDbEntity
8
1
62
256
6
ByLayer
370
18
48
1
60
1
100
AcDbLine
10
116.051575
20
-16.082064
30
0
11
116.406196
21
-16.93267
31
0
39
0
210
0
220
0
230
1
0
LINE
5
13A
100
AcDbEntity
8
1
62
256
6
ByLayer
370
18
48
1
60
1
100
AcDbLine
10
116.406196
20
-16.93267
30
0
11
112.998383
21
-17.85416
31
0
39
0
210
0
220
0
230
1
0
LINE
5
13C
100
AcDbEntity
8
1
62
256
6
ByLayer
370
18
48
1
60
1
100
AcDbLine
10
112.998383
20
17.85416
30
0
11
116.406193
21
16.932671
31
0
39
0
210
0
220
0
230
1
0
LINE
5
13D
100
AcDbEntity
8
1
62
256
6
ByLayer
370
18
48
1
60
1
100
AcDbLine
10
116.406193
20
16.932671
30
0
11
116.051579
21
16.082063
31
0
39
0
210
0
220
0
230
1
0
LINE
5
13E
100
AcDbEntity
8
1
62
256
6
ByLayer
370
18
48
1
60
1
100
AcDbLine
10
116.051579
20
16.082063
30
0
11
112.998383
21
17.85416
31
0
39
0
210
0
220
0
230
1
0
MTEXT
5
121
100
AcDbEntity
8
SK2
62
256
6
ByLayer
370
18
48
1
60
0
100
AcDbMText
10
-57.841114
20
21.658438
30
0
210
0
220
0
230
1
1
%%c
40
3
41
0
44
1.084337
50
90
71
7
72
5
7
iso_b_vert
0
MTEXT
5
124
100
AcDbEntity
8
SK2
62
256
6
ByLayer
370
18
48
1
60
0
100
AcDbMText
10
-57.841114
20
27.635
30
0
210
0
220
0
230
1
1
\W0.7513;20.000
40
3
41
0
44
1.084337
50
90
71
7
72
5
7
iso_b_vert
0
MTEXT
5
12D
100
AcDbEntity
8
2
62
256
6
ByLayer
370
18
48
1
60
0
100
AcDbMText
10
112.658886
20
19.158438
30
0
210
0
220
0
230
1
1
%%c
40
3
41
0
44
1.084337
50
90
71
7
72
5
7
iso_b_vert
0
MTEXT
5
12E
100
AcDbEntity
8
2
62
256
6
ByLayer
370
18
48
1
60
0
100
AcDbMText
10
112.658886
20
25.135
30
0
210
0
220
0
230
1
1
\W0.7022;15.000
40
3
41
0
44
1.084337
50
90
71
7
72
5
7
iso_b_vert
0
MTEXT
5
137
100
AcDbEntity
8
SK2
62
256
6
ByLayer
370
18
48
1
60
0
100
AcDbMText
10
126.409114
20
3.734657
30
0
210
0
220
0
230
1
1
\W0.7071;140%%d
40
3
41
0
44
1.084337
50
270
71
7
72
5
7
iso_b_vert
0
MTEXT
5
140
100
AcDbEntity
8
SK6
62
256
6
ByLayer
370
18
48
1
60
0
100
AcDbMText
10
4.712746
20
-67.114886
30
0
210
0
220
0
230
1
1
\W0.7358;H85515.0
40
3
41
0
44
1.084337
50
0
71
7
72
5
7
iso_b_vert
0
HATCH
5
128
100
AcDbEntity
8
SK2
62
256
6
ByLayer
370
13
48
1
60
0
100
AcDbHatch
10
0
20
0
30
0
210
0
220
0
230
1
2
ANSI31
70
0
71
0
91
1
92
5
93
3
72
1
10
-56.5
20
10
11
-56.0392162584472
21
6.50000169255318
72
1
10
-56.0392162584472
20
6.50000169255318
11
-56.9607837415528
21
6.49999830744682
72
1
10
-56.9607837415528
20
6.49999830744682
11
-56.5
21
10
97
0
75
0
76
1
52
0
41
0.0062
77
0
78
1
53
45
43
0
44
0
45
-0.0139193969876572
46
0.0139193969876572
79
0
47
0
98
1
10
0
20
0
0
HATCH
5
12C
100
AcDbEntity
8
SK2
62
256
6
ByLayer
370
13
48
1
60
0
100
AcDbHatch
10
0
20
0
30
0
210
0
220
0
230
1
2
ANSI31
70
0
71
0
91
1
92
5
93
3
72
1
10
-56.5
20
-10
11
-56.9607837415528
21
-6.50000169255318
72
1
10
-56.9607837415528
20
-6.50000169255318
11
-56.0392162584472
21
-6.49999830744682
72
1
10
-56.0392162584472
20
-6.49999830744682
11
-56.5
21
-10
97
0
75
0
76
1
52
0
41
0.0062
77
0
78
1
53
45
43
0
44
0
45
-0.0139193969876572
46
0.0139193969876572
79
0
47
0
98
1
10
0
20
0
0
HATCH
5
132
100
AcDbEntity
8
2
62
256
6
ByLayer
370
13
48
1
60
0
100
AcDbHatch
10
0
20
0
30
0
210
0
220
0
230
1
2
ANSI31
70
0
71
0
91
1
92
5
93
3
72
1
10
114
20
7.5
11
114.460783741553
21
4.00000169255318
72
1
10
114.460783741553
20
4.00000169255318
11
113.539216258447
21
3.99999830744682
72
1
10
113.539216258447
20
3.99999830744682
11
114
21
7.5
97
0
75
0
76
1
52
0
41
0.0062
77
0
78
1
53
45
43
0
44
0
45
-0.0139193969876572
46
0.0139193969876572
79
0
47
0
98
1
10
0
20
0
0
HATCH
5
136
100
AcDbEntity
8
2
62
256
6
ByLayer
370
13
48
1
60
0
100
AcDbHatch
10
0
20
0
30
0
210
0
220
0
230
1
2
ANSI31
70
0
71
0
91
1
92
5
93
3
72
1
10
114
20
-7.5
11
113.539216258447
21
-4.00000169255318
72
1
10
113.539216258447
20
-4.00000169255318
11
114.460783741553
21
-3.99999830744682
72
1
10
114.460783741553
20
-3.99999830744682
11
114
21
-7.5
97
0
75
0
76
1
52
0
41
0.0062
77
0
78
1
53
45
43
0
44
0
45
-0.0139193969876572
46
0.0139193969876572
79
0
47
0
98
1
10
0
20
0
0
HATCH
5
13B
100
AcDbEntity
8
SK2
62
256
6
ByLayer
370
13
48
1
60
0
100
AcDbHatch
10
0
20
0
30
0
210
0
220
0
230
1
2
ANSI31
70
0
71
0
91
1
92
5
93
3
72
1
10
112.998382723188
20
-17.8541597949322
11
116.051575425693
21
-16.0820638240607
72
1
10
116.051575425693
20
-16.0820638240607
11
116.406195833975
21
-16.9326700737196
72
1
10
116.406195833975
20
-16.9326700737196
11
112.998382723188
21
-17.8541597949322
97
0
75
0
76
1
52
0
41
0.0062
77
0
78
1
53
45
43
0
44
0
45
-0.0139193969876572
46
0.0139193969876572
79
0
47
0
98
1
10
0
20
0
0
HATCH
5
13F
100
AcDbEntity
8
SK2
62
256
6
ByLayer
370
13
48
1
60
0
100
AcDbHatch
10
0
20
0
30
0
210
0
220
0
230
1
2
ANSI31
70
0
71
0
91
1
92
5
93
3
72
1
10
112.998382723188
20
17.8541597949322
11
116.406192709519
21
16.9326713763016
72
1
10
116.406192709519
20
16.9326713763016
11
116.051578550149
21
16.0820625214787
72
1
10
116.051578550149
20
16.0820625214787
11
112.998382723188
21
17.8541597949322
97
0
75
0
76
1
52
0
41
0.0062
77
0
78
1
53
45
43
0
44
0
45
-0.0139193969876572
46
0.0139193969876572
79
0
47
0
98
1
10
0
20
0
0
DIMENSION
5
143
100
AcDbEntity
8
SK2
62
256
6
ByLayer
370
18
48
1
60
0
100
AcDbDimension
2
_U0
10
106.5
20
-45.952229
30
0
11
28.25
21
-45.952229
31
0
70
32
71
1
72
1
41
1
210
0
220
0
230
1
3
Standard
100
AcDbAlignedDimension
13
-50
23
-10
33
0
14
106.5
24
0
34
0
50
0
100
AcDbRotatedDimension
1001
ACAD
1000
DSTYLE
1002
{
1070
   371
1070
    13
1070
   372
1070
    13
1070
     3
1000

1070
   170
1070
     0
1070
   144
1040
1.0
1070
   277
1070
     2
1070
   284
1070
     8
1070
   278
1070
    46
1070
   146
1040
1.166667
1070
   345
1005
16
1070
   347
1005
16
1070
   346
1005
16
1070
   344
1005
0
1070
   343
1005
0
1070
   172
1070
     1
1070
    76
1070
     0
1070
    75
1070
     0
1070
   282
1070
     0
1070
   281
1070
     0
1070
    71
1070
     0
1070
    74
1070
     0
1070
   279
1070
     0
1070
   173
1070
     1
1070
   340
1005
122
1070
   271
1070
     2
1070
   272
1070
     3
1070
    77
1070
     1
1070
    73
1070
     1
1070
   171
1070
     3
1070
   274
1070
     4
1070
   177
1070
     2
1070
   176
1070
     2
1070
   178
1070
     2
1070
    78
1070
     8
1070
    48
1040
-0.1
1070
    41
1040
3.5
1070
   147
1040
1.5
1070
    42
1040
1.5875
1070
    44
1040
2.0
1070
   140
1040
3.0
1002
}
1001
ACAD_DSTYLE_DIM_LINETYPE
1070
   380
1005
16
1001
ACAD_DSTYLE_DIM_EXT1_LINETYPE
1070
   381
1005
16
1001
ACAD_DSTYLE_DIM_EXT2_LINETYPE
1070
   382
1005
16
0
DIMENSION
5
15C
100
AcDbEntity
8
SK2
62
256
6
ByLayer
370
18
48
1
60
0
100
AcDbDimension
2
_U1
10
3
20
-35.952229
30
0
11
54.75
21
-35.952229
31
0
70
32
71
1
72
1
41
1
210
0
220
0
230
1
3
Standard
100
AcDbAlignedDimension
13
106.5
23
0
33
0
14
3
24
-7.5
34
0
50
0
100
AcDbRotatedDimension
1001
ACAD
1000
DSTYLE
1002
{
1070
   371
1070
    13
1070
   372
1070
    13
1070
     3
1000

1070
   170
1070
     0
1070
   144
1040
1.0
1070
   277
1070
     2
1070
   284
1070
     8
1070
   278
1070
    46
1070
   146
1040
1.166667
1070
   345
1005
16
1070
   347
1005
16
1070
   346
1005
16
1070
   344
1005
0
1070
   343
1005
0
1070
   172
1070
     1
1070
    76
1070
     0
1070
    75
1070
     0
1070
   282
1070
     0
1070
   281
1070
     0
1070
    71
1070
     0
1070
    74
1070
     0
1070
   279
1070
     0
1070
   173
1070
     1
1070
   340
1005
122
1070
   271
1070
     2
1070
   272
1070
     3
1070
    77
1070
     1
1070
    73
1070
     1
1070
   171
1070
     3
1070
   274
1070
     4
1070
   177
1070
     2
1070
   176
1070
     2
1070
   178
1070
     2
1070
    78
1070
     8
1070
    48
1040
-0.1
1070
    41
1040
3.5
1070
   147
1040
1.5
1070
    42
1040
1.5875
1070
    44
1040
2.0
1070
   140
1040
3.0
1002
}
1001
ACAD_DSTYLE_DIM_LINETYPE
1070
   380
1005
16
1001
ACAD_DSTYLE_DIM_EXT1_LINETYPE
1070
   381
1005
16
1001
ACAD_DSTYLE_DIM_EXT2_LINETYPE
1070
   382
1005
16
0
DIMENSION
5
174
100
AcDbEntity
8
SK2
62
256
6
ByLayer
370
18
48
1
60
0
100
AcDbDimension
2
_U2
10
0
20
-35.952229
30
0
11
-25
21
-35.952229
31
0
70
32
71
1
72
1
41
1
210
0
220
0
230
1
3
Standard
100
AcDbAlignedDimension
13
-50
23
-10
33
0
14
0
24
-10
34
0
50
0
100
AcDbRotatedDimension
1001
ACAD
1000
DSTYLE
1002
{
1070
   371
1070
    13
1070
   372
1070
    13
1070
     3
1000

1070
   170
1070
     0
1070
   144
1040
1.0
1070
   277
1070
     2
1070
   284
1070
     8
1070
   278
1070
    46
1070
   146
1040
1.166667
1070
   345
1005
16
1070
   347
1005
16
1070
   346
1005
16
1070
   344
1005
0
1070
   343
1005
0
1070
   172
1070
     1
1070
    76
1070
     0
1070
    75
1070
     0
1070
   282
1070
     0
1070
   281
1070
     0
1070
    71
1070
     0
1070
    74
1070
     0
1070
   279
1070
     0
1070
   173
1070
     1
1070
   340
1005
122
1070
   271
1070
     2
1070
   272
1070
     3
1070
    77
1070
     1
1070
    73
1070
     1
1070
   171
1070
     3
1070
   274
1070
     4
1070
   177
1070
     2
1070
   176
1070
     2
1070
   178
1070
     2
1070
    78
1070
     8
1070
    48
1040
-0.1
1070
    41
1040
3.5
1070
   147
1040
1.5
1070
    42
1040
1.5875
1070
    44
1040
2.0
1070
   140
1040
3.0
1002
}
1001
ACAD_DSTYLE_DIM_LINETYPE
1070
   380
1005
16
1001
ACAD_DSTYLE_DIM_EXT1_LINETYPE
1070
   381
1005
16
1001
ACAD_DSTYLE_DIM_EXT2_LINETYPE
1070
   382
1005
16
0
DIMENSION
5
18C
100
AcDbEntity
8
SK2
62
256
6
ByLayer
370
18
48
1
60
0
100
AcDbDimension
2
_U3
10
20
20
32.952229
30
0
11
63.25
21
32.952229
31
0
70
32
71
1
72
1
41
1
210
0
220
0
230
1
3
Standard
100
AcDbAlignedDimension
13
106.5
23
0
33
0
14
20
24
7.5
34
0
50
0
100
AcDbRotatedDimension
1001
ACAD
1000
DSTYLE
1002
{
1070
   371
1070
    13
1070
   372
1070
    13
1070
     3
1000

1070
   170
1070
     0
1070
   144
1040
1.0
1070
   277
1070
     2
1070
   284
1070
     8
1070
   278
1070
    46
1070
   146
1040
1.166667
1070
   345
1005
16
1070
   347
1005
16
1070
   346
1005
16
1070
   344
1005
0
1070
   343
1005
0
1070
   172
1070
     1
1070
    76
1070
     0
1070
    75
1070
     0
1070
   282
1070
     0
1070
   281
1070
     0
1070
    71
1070
     0
1070
    74
1070
     0
1070
   279
1070
     0
1070
   173
1070
     1
1070
   340
1005
122
1070
   271
1070
     2
1070
   272
1070
     3
1070
    77
1070
     1
1070
    73
1070
     1
1070
   171
1070
     3
1070
   274
1070
     4
1070
   177
1070
     2
1070
   176
1070
     2
1070
   178
1070
     2
1070
    78
1070
     8
1070
    48
1040
-0.1
1070
    41
1040
3.5
1070
   147
1040
1.5
1070
    42
1040
1.5875
1070
    44
1040
2.0
1070
   140
1040
3.0
1002
}
1001
ACAD_DSTYLE_DIM_LINETYPE
1070
   380
1005
16
1001
ACAD_DSTYLE_DIM_EXT1_LINETYPE
1070
   381
1005
16
1001
ACAD_DSTYLE_DIM_EXT2_LINETYPE
1070
   382
1005
16
0
ENDSEC
0
SECTION
2
OBJECTS
0
DICTIONARY
5
214
330
0
100
AcDbDictionary
280
0
281
1
3
ACAD_GROUP
350
215
3
ACAD_MLINESTYLE
350
216
0
DICTIONARY
5
215
330
0
100
AcDbDictionary
280
0
281
1
0
DICTIONARY
5
216
330
0
100
AcDbDictionary
280
0
281
1
3
Standard
350
18
0
MLINESTYLE
5
18
330
216
100
AcDbMlineStyle
2
Standard
70
0
3

62
256
51
90
52
90
71
2
49
-0.5
62
256
6
ByLayer
49
0.5
62
256
6
ByLayer
0
RASTERVARIABLES
5
202
330

100
AcDbRasterVariables
90
0
70
1
71
1
72
1
0
ENDSEC
0
EOF
