0
SECTION
2
HEADER
9
$ACADVER
1
AC1015
9
$DWGCODEPAGE
3
ANSI_1252
9
$HANDSEED
5
215
9
$ANGBASE
50
0
9
$ANGDIR
70
0
9
$ATTMODE
70
1
9
$AUNITS
70
0
9
$AUPREC
70
0
9
$CECOLOR
62
256
9
$CELTSCALE
40
1
9
$CELTYPE
6
ByLayer
9
$CELWEIGHT
370
18
9
$CLAYER
8
0
9
$CMLJUST
70
0
9
$CMLSCALE
40
1
9
$CMLSTYLE
2
Standard
9
$DIMSTYLE
2
Standard
9
$TEXTSIZE
40
0.2
9
$TEXTSTYLE
7
Standard
9
$LUNITS
70
2
9
$LUPREC
70
4
9
$EXTNAMES
290
1
9
$INSUNITS
70
4
9
$LTSCALE
40
1
9
$LWDISPLAY
290
1
9
$PDMODE
70
0
9
$PDSIZE
40
0
9
$PLINEGEN
70
0
0
ENDSEC
0
SECTION
2
CLASSES
0
CLASS
1
RASTERVARIABLES
2
AcDbRasterVariables
3
ISM
90
0
280
0
281
0
0
ENDSEC
0
SECTION
2
TABLES
0
TABLE
2
VPORT
5
20b
100
AcDbSymbolTable
0
VPORT
5
1
100
AcDbSymbolTableRecord
100
AcDbViewportTableRecord
2
*Active
70
0
10
0
20
0
11
1
21
1
12
-1
22
1
13
0
23
0
14
0.5
24
0.5
15
10
25
10
16
0
26
0
36
1
17
0
27
0
37
0
0
ENDTAB
0
TABLE
2
LTYPE
5
20c
100
AcDbSymbolTable
0
LTYPE
5
14
100
AcDbSymbolTableRecord
100
AcDbLinetypeTableRecord
70
0
2
ByBlock
3

72
65
73
0
40
0
0
LTYPE
5
15
100
AcDbSymbolTableRecord
100
AcDbLinetypeTableRecord
70
0
2
ByLayer
3

72
65
73
0
40
0
0
LTYPE
5
16
100
AcDbSymbolTableRecord
100
AcDbLinetypeTableRecord
70
0
2
Continuous
3
Solid line
72
65
73
0
40
0
0
LTYPE
5
6E
100
AcDbSymbolTableRecord
100
AcDbLinetypeTableRecord
70
0
2
CENTER
3
____ _ ____ _ ____ _ ____
72
65
73
4
40
47.5
49
22
74
0
49
-8.5
74
0
49
8.5
74
0
49
-8.5
74
0
0
LTYPE
5
6F
100
AcDbSymbolTableRecord
100
AcDbLinetypeTableRecord
70
0
2
DASHED
3
__ __ __ __ __ __ __ __ __
72
65
73
2
40
25.72
49
12.86
74
0
49
-12.86
74
0
0
ENDTAB
0
TABLE
2
LAYER
5
20d
100
AcDbSymbolTable
0
LAYER
5
10
100
AcDbSymbolTableRecord
100
AcDbLayerTableRecord
2
0
70
0
62
7
6
Continuous
290
1
370
-3
390
0
0
LAYER
5
71
100
AcDbSymbolTableRecord
100
AcDbLayerTableRecord
2
80
70
0
62
-6
6
Continuous
290
1
370
-3
390
0
0
LAYER
5
73
100
AcDbSymbolTableRecord
100
AcDbLayerTableRecord
2
81
70
0
62
-3
6
Continuous
290
1
370
-3
390
0
0
LAYER
5
75
100
AcDbSymbolTableRecord
100
AcDbLayerTableRecord
2
1
70
0
62
4
6
Continuous
290
1
370
-3
390
0
0
LAYER
5
80
100
AcDbSymbolTableRecord
100
AcDbLayerTableRecord
2
4
70
0
62
-2
6
CENTER
290
1
370
-3
390
0
0
LAYER
5
AF
100
AcDbSymbolTableRecord
100
AcDbLayerTableRecord
2
2
70
0
62
7
6
Continuous
290
1
370
-3
390
0
0
LAYER
5
13A
100
AcDbSymbolTableRecord
100
AcDbLayerTableRecord
2
Defpoints
70
0
62
7
6
Continuous
290
0
370
-3
390
0
0
LAYER
5
1f7
100
AcDbSymbolTableRecord
100
AcDbLayerTableRecord
2
SK4
70
0
62
2
6
CENTER
290
1
370
-3
390
0
0
LAYER
5
1f8
100
AcDbSymbolTableRecord
100
AcDbLayerTableRecord
2
SK1
70
0
62
4
6
Continuous
290
1
370
-3
390
0
0
LAYER
5
1f9
100
AcDbSymbolTableRecord
100
AcDbLayerTableRecord
2
SK2
70
0
62
7
6
Continuous
290
1
370
-3
390
0
0
LAYER
5
1fa
100
AcDbSymbolTableRecord
100
AcDbLayerTableRecord
2
SK6
70
0
62
5
6
Continuous
290
1
370
-3
390
0
0
ENDTAB
0
TABLE
2
STYLE
5
20e
100
AcDbSymbolTable
0
STYLE
5
11
100
AcDbSymbolTableRecord
100
AcDbTextStyleTableRecord
2
Standard
3
txt
70
0
71
0
40
0
41
1
42
0
50
0
0
STYLE
5
116
100
AcDbSymbolTableRecord
100
AcDbTextStyleTableRecord
2
iso_b_vert
3
simplex.shx
70
0
71
0
40
0
41
1
42
0
50
0
0
STYLE
5
117
100
AcDbSymbolTableRecord
100
AcDbTextStyleTableRecord
2
DWGDirectTextStyle
3
simplex
70
0
71
0
40
0
41
1
42
0
50
0
0
ENDTAB
0
TABLE
2
DIMSTYLE
5
20f
100
AcDbSymbolTable
100
AcDbDimStyleTable
0
DIMSTYLE
105
27
100
AcDbSymbolTableRecord
100
AcDbDimStyleTableRecord
2
Standard
70
0
3
<>
41
0.18
42
0.0625
44
0.18
140
0.18
147
0.09
73
0
74
0
77
1
271
2
275
0
278
52
280
0
340
11
0
ENDTAB
0
TABLE
2
VIEW
5
210
100
AcDbSymbolTable
0
ENDTAB
0
TABLE
2
UCS
5
211
100
AcDbSymbolTable
0
ENDTAB
0
TABLE
2
APPID
5
212
100
AcDbSymbolTable
0
APPID
5
12
100
AcDbSymbolTableRecord
100
AcDbRegAppTableRecord
2
ACAD
70
0
0
APPID
5
136
100
AcDbSymbolTableRecord
100
AcDbRegAppTableRecord
2
ACAD_DSTYLE_DIMBREAK
70
0
0
APPID
5
1B6
100
AcDbSymbolTableRecord
100
AcDbRegAppTableRecord
2
ACAD_DSTYLE_DIM_LINETYPE
70
0
0
APPID
5
1B7
100
AcDbSymbolTableRecord
100
AcDbRegAppTableRecord
2
ACAD_DSTYLE_DIM_EXT1_LINETYPE
70
0
0
APPID
5
1B8
100
AcDbSymbolTableRecord
100
AcDbRegAppTableRecord
2
ACAD_DSTYLE_DIM_EXT2_LINETYPE
70
0
0
APPID
5
1F3
100
AcDbSymbolTableRecord
100
AcDbRegAppTableRecord
2
ACAD_MLEADERVER
70
0
0
ENDTAB
0
TABLE
2
BLOCK_RECORD
5
213
100
AcDbSymbolTable
0
BLOCK_RECORD
5
1F
100
AcDbSymbolTableRecord
100
AcDbBlockTableRecord
2
*Model_Space
340
0
70
0
0
BLOCK_RECORD
5
1B
100
AcDbSymbolTableRecord
100
AcDbBlockTableRecord
2
*Paper_Space
340
0
70
0
0
BLOCK_RECORD
5
23
100
AcDbSymbolTableRecord
100
AcDbBlockTableRecord
2
*Paper_Space0
340
0
70
0
0
BLOCK_RECORD
5
13B
100
AcDbSymbolTableRecord
100
AcDbBlockTableRecord
2
*D1
340
0
70
0
0
BLOCK_RECORD
5
147
100
AcDbSymbolTableRecord
100
AcDbBlockTableRecord
2
_U0
340
0
70
0
0
BLOCK_RECORD
5
153
100
AcDbSymbolTableRecord
100
AcDbBlockTableRecord
2
*D3
340
0
70
0
0
BLOCK_RECORD
5
15F
100
AcDbSymbolTableRecord
100
AcDbBlockTableRecord
2
_U1
340
0
70
0
0
BLOCK_RECORD
5
16B
100
AcDbSymbolTableRecord
100
AcDbBlockTableRecord
2
*D5
340
0
70
0
0
BLOCK_RECORD
5
177
100
AcDbSymbolTableRecord
100
AcDbBlockTableRecord
2
_U2
340
0
70
0
0
BLOCK_RECORD
5
183
100
AcDbSymbolTableRecord
100
AcDbBlockTableRecord
2
*D7
340
0
70
0
0
BLOCK_RECORD
5
18F
100
AcDbSymbolTableRecord
100
AcDbBlockTableRecord
2
_U3
340
0
70
0
0
ENDTAB
0
ENDSEC
0
SECTION
2
BLOCKS
0
BLOCK
5
20
100
AcDbEntity
8
0
100
AcDbBlockBegin
2
*Model_Space
70
0
10
0
20
0
30
0
3
*Model_Space
0
ENDBLK
5
21
100
AcDbEntity
8
0
100
AcDbBlockEnd
0
BLOCK
5
1C
100
AcDbEntity
8
0
100
AcDbBlockBegin
2
*Paper_Space
70
0
10
0
20
0
30
0
3
*Paper_Space
0
ENDBLK
5
1D
100
AcDbEntity
8
0
100
AcDbBlockEnd
0
BLOCK
5
24
100
AcDbEntity
8
0
100
AcDbBlockBegin
2
*Paper_Space0
70
0
10
0
20
0
30
0
3
*Paper_Space0
0
ENDBLK
5
25
100
AcDbEntity
8
0
100
AcDbBlockEnd
0
BLOCK
5
13C
100
AcDbEntity
8
0
100
AcDbBlockBegin
2
*D1
70
1
10
0
20
0
30
0
3
*D1
0
LINE
5
13E
100
AcDbEntity
8
0
62
256
6
ByLayer
370
-2
48
1
60
0
100
AcDbLine
10
-48
20
-9.5875
30
0
11
-48
21
-47.952229
31
0
39
0
210
0
220
0
230
1
0
LINE
5
13F
100
AcDbEntity
8
0
62
256
6
ByLayer
370
-2
48
1
60
0
100
AcDbLine
10
82
20
-1.5875
30
0
11
82
21
-47.952229
31
0
39
0
210
0
220
0
230
1
0
LINE
5
140
100
AcDbEntity
8
0
62
256
6
ByLayer
370
-2
48
1
60
0
100
AcDbLine
10
-44.5
20
-45.952229
30
0
11
78.5
21
-45.952229
31
0
39
0
210
0
220
0
230
1
0
SOLID
5
141
100
AcDbEntity
8
0
62
256
6
ByLayer
370
-1
48
1
60
0
100
AcDbTrace
10
-44.5
20
-45.368896
30
0
11
-44.5
21
-46.535563
31
0
12
-48
22
-45.952229
32
0
13
-48
23
-45.952229
33
0
39
0
210
0
220
0
230
1
0
SOLID
5
142
100
AcDbEntity
8
0
62
256
6
ByLayer
370
-1
48
1
60
0
100
AcDbTrace
10
78.5
20
-46.535563
30
0
11
78.5
21
-45.368896
31
0
12
82
22
-45.952229
32
0
13
82
23
-45.952229
33
0
39
0
210
0
220
0
230
1
0
MTEXT
5
143
100
AcDbEntity
8
0
62
256
6
ByLayer
370
18
48
1
60
0
100
AcDbMText
10
17
20
-39.952229
30
0
210
0
220
0
230
1
1
\A1;130
40
3
41
0
44
1
50
0
71
5
72
5
7
iso_b_vert
0
POINT
5
144
100
AcDbEntity
8
Defpoints
62
0
6
ByLayer
370
-1
48
1
60
0
100
AcDbPoint
10
-48
20
-8
30
0
39
0
210
0
220
0
230
1
50
360
0
POINT
5
145
100
AcDbEntity
8
Defpoints
62
0
6
ByLayer
370
-1
48
1
60
0
100
AcDbPoint
10
82
20
0
30
0
39
0
210
0
220
0
230
1
50
360
0
POINT
5
146
100
AcDbEntity
8
Defpoints
62
0
6
ByLayer
370
-1
48
1
60
0
100
AcDbPoint
10
82
20
-45.952229
30
0
39
0
210
0
220
0
230
1
50
360
0
ENDBLK
5
13D
100
AcDbEntity
8
0
100
AcDbBlockEnd
0
BLOCK
5
14E
100
AcDbEntity
8
0
100
AcDbBlockBegin
2
_U0
70
0
10
0
20
0
30
0
3
_U0
0
MTEXT
5
148
100
AcDbEntity
8
SK2
62
256
6
ByLayer
370
18
48
1
60
0
100
AcDbMText
10
11.771658
20
-45.067115
30
0
210
0
220
0
230
1
1
\W0.7022;130.00
40
3
41
0
44
1.084337
50
0
71
7
72
5
7
iso_b_vert
0
LINE
5
149
100
AcDbEntity
8
SK2
62
256
6
ByLayer
370
13
48
1
60
0
100
AcDbLine
10
-48
20
-9.5875
30
0
11
-48
21
-47.952229
31
0
39
0
210
0
220
0
230
1
0
LINE
5
14A
100
AcDbEntity
8
SK2
62
256
6
ByLayer
370
13
48
1
60
0
100
AcDbLine
10
82
20
-1.5875
30
0
11
82
21
-47.952229
31
0
39
0
210
0
220
0
230
1
0
LINE
5
14B
100
AcDbEntity
8
SK2
62
256
6
ByLayer
370
13
48
1
60
0
100
AcDbLine
10
-48
20
-45.952229
30
0
11
82
21
-45.952229
31
0
39
0
210
0
220
0
230
1
0
SOLID
5
14C
100
AcDbEntity
8
SK2
62
256
6
ByLayer
370
18
48
1
60
0
100
AcDbTrace
10
-48
20
-45.952229
30
0
11
-44.500002
21
-45.491446
31
0
12
-44.499998
22
-46.413013
32
0
13
-44.499998
23
-46.413013
33
0
39
0
210
0
220
0
230
1
0
SOLID
5
14D
100
AcDbEntity
8
SK2
62
256
6
ByLayer
370
18
48
1
60
0
100
AcDbTrace
10
82
20
-45.952229
30
0
11
78.500002
21
-46.413013
31
0
12
78.499998
22
-45.491446
32
0
13
78.499998
23
-45.491446
33
0
39
0
210
0
220
0
230
1
0
ENDBLK
5
14F
100
AcDbEntity
8
0
100
AcDbBlockEnd
0
BLOCK
5
154
100
AcDbEntity
8
0
100
AcDbBlockBegin
2
*D3
70
1
10
0
20
0
30
0
3
*D3
0
LINE
5
156
100
AcDbEntity
8
0
62
256
6
ByLayer
370
-2
48
1
60
0
100
AcDbLine
10
82
20
-1.5875
30
0
11
82
21
-37.952229
31
0
39
0
210
0
220
0
230
1
0
LINE
5
157
100
AcDbEntity
8
0
62
256
6
ByLayer
370
-2
48
1
60
0
100
AcDbLine
10
3
20
-7.8375
30
0
11
3
21
-37.952229
31
0
39
0
210
0
220
0
230
1
0
LINE
5
158
100
AcDbEntity
8
0
62
256
6
ByLayer
370
-2
48
1
60
0
100
AcDbLine
10
78.5
20
-35.952229
30
0
11
6.5
21
-35.952229
31
0
39
0
210
0
220
0
230
1
0
SOLID
5
159
100
AcDbEntity
8
0
62
256
6
ByLayer
370
-1
48
1
60
0
100
AcDbTrace
10
78.5
20
-36.535563
30
0
11
78.5
21
-35.368896
31
0
12
82
22
-35.952229
32
0
13
82
23
-35.952229
33
0
39
0
210
0
220
0
230
1
0
SOLID
5
15A
100
AcDbEntity
8
0
62
256
6
ByLayer
370
-1
48
1
60
0
100
AcDbTrace
10
6.5
20
-35.368896
30
0
11
6.5
21
-36.535563
31
0
12
3
22
-35.952229
32
0
13
3
23
-35.952229
33
0
39
0
210
0
220
0
230
1
0
MTEXT
5
15B
100
AcDbEntity
8
0
62
256
6
ByLayer
370
18
48
1
60
0
100
AcDbMText
10
42.5
20
-29.952229
30
0
210
0
220
0
230
1
1
\A1;79
40
3
41
0
44
1
50
0
71
5
72
5
7
iso_b_vert
0
POINT
5
15C
100
AcDbEntity
8
Defpoints
62
0
6
ByLayer
370
-1
48
1
60
0
100
AcDbPoint
10
82
20
0
30
0
39
0
210
0
220
0
230
1
50
360
0
POINT
5
15D
100
AcDbEntity
8
Defpoints
62
0
6
ByLayer
370
-1
48
1
60
0
100
AcDbPoint
10
3
20
-6.25
30
0
39
0
210
0
220
0
230
1
50
360
0
POINT
5
15E
100
AcDbEntity
8
Defpoints
62
0
6
ByLayer
370
-1
48
1
60
0
100
AcDbPoint
10
3
20
-35.952229
30
0
39
0
210
0
220
0
230
1
50
360
0
ENDBLK
5
155
100
AcDbEntity
8
0
100
AcDbBlockEnd
0
BLOCK
5
166
100
AcDbEntity
8
0
100
AcDbBlockBegin
2
_U1
70
0
10
0
20
0
30
0
3
_U1
0
MTEXT
5
160
100
AcDbEntity
8
SK2
62
256
6
ByLayer
370
18
48
1
60
0
100
AcDbMText
10
38.01763
20
-35.067115
30
0
210
0
220
0
230
1
1
\W0.7468;79.00
40
3
41
0
44
1.084337
50
0
71
7
72
5
7
iso_b_vert
0
LINE
5
161
100
AcDbEntity
8
SK2
62
256
6
ByLayer
370
13
48
1
60
0
100
AcDbLine
10
82
20
-1.5875
30
0
11
82
21
-37.952229
31
0
39
0
210
0
220
0
230
1
0
LINE
5
162
100
AcDbEntity
8
SK2
62
256
6
ByLayer
370
13
48
1
60
0
100
AcDbLine
10
3
20
-7.8375
30
0
11
3
21
-37.952229
31
0
39
0
210
0
220
0
230
1
0
LINE
5
163
100
AcDbEntity
8
SK2
62
256
6
ByLayer
370
13
48
1
60
0
100
AcDbLine
10
82
20
-35.952229
30
0
11
3
21
-35.952229
31
0
39
0
210
0
220
0
230
1
0
SOLID
5
164
100
AcDbEntity
8
SK2
62
256
6
ByLayer
370
18
48
1
60
0
100
AcDbTrace
10
82
20
-35.952229
30
0
11
78.500002
21
-36.413013
31
0
12
78.499998
22
-35.491446
32
0
13
78.499998
23
-35.491446
33
0
39
0
210
0
220
0
230
1
0
SOLID
5
165
100
AcDbEntity
8
SK2
62
256
6
ByLayer
370
18
48
1
60
0
100
AcDbTrace
10
3
20
-35.952229
30
0
11
6.499998
21
-35.491446
31
0
12
6.500002
22
-36.413013
32
0
13
6.500002
23
-36.413013
33
0
39
0
210
0
220
0
230
1
0
ENDBLK
5
167
100
AcDbEntity
8
0
100
AcDbBlockEnd
0
BLOCK
5
16C
100
AcDbEntity
8
0
100
AcDbBlockBegin
2
*D5
70
1
10
0
20
0
30
0
3
*D5
0
LINE
5
16E
100
AcDbEntity
8
0
62
256
6
ByLayer
370
-2
48
1
60
0
100
AcDbLine
10
-48
20
-9.5875
30
0
11
-48
21
-37.952229
31
0
39
0
210
0
220
0
230
1
0
LINE
5
16F
100
AcDbEntity
8
0
62
256
6
ByLayer
370
-2
48
1
60
0
100
AcDbLine
10
0
20
-9.5875
30
0
11
0
21
-37.952229
31
0
39
0
210
0
220
0
230
1
0
LINE
5
170
100
AcDbEntity
8
0
62
256
6
ByLayer
370
-2
48
1
60
0
100
AcDbLine
10
-44.5
20
-35.952229
30
0
11
-3.5
21
-35.952229
31
0
39
0
210
0
220
0
230
1
0
SOLID
5
171
100
AcDbEntity
8
0
62
256
6
ByLayer
370
-1
48
1
60
0
100
AcDbTrace
10
-44.5
20
-35.368896
30
0
11
-44.5
21
-36.535563
31
0
12
-48
22
-35.952229
32
0
13
-48
23
-35.952229
33
0
39
0
210
0
220
0
230
1
0
SOLID
5
172
100
AcDbEntity
8
0
62
256
6
ByLayer
370
-1
48
1
60
0
100
AcDbTrace
10
-3.5
20
-36.535563
30
0
11
-3.5
21
-35.368896
31
0
12
0
22
-35.952229
32
0
13
0
23
-35.952229
33
0
39
0
210
0
220
0
230
1
0
MTEXT
5
173
100
AcDbEntity
8
0
62
256
6
ByLayer
370
18
48
1
60
0
100
AcDbMText
10
-24
20
-29.952229
30
0
210
0
220
0
230
1
1
\A1;48
40
3
41
0
44
1
50
0
71
5
72
5
7
iso_b_vert
0
POINT
5
174
100
AcDbEntity
8
Defpoints
62
0
6
ByLayer
370
-1
48
1
60
0
100
AcDbPoint
10
-48
20
-8
30
0
39
0
210
0
220
0
230
1
50
360
0
POINT
5
175
100
AcDbEntity
8
Defpoints
62
0
6
ByLayer
370
-1
48
1
60
0
100
AcDbPoint
10
0
20
-8
30
0
39
0
210
0
220
0
230
1
50
360
0
POINT
5
176
100
AcDbEntity
8
Defpoints
62
0
6
ByLayer
370
-1
48
1
60
0
100
AcDbPoint
10
0
20
-35.952229
30
0
39
0
210
0
220
0
230
1
50
360
0
ENDBLK
5
16D
100
AcDbEntity
8
0
100
AcDbBlockEnd
0
BLOCK
5
17E
100
AcDbEntity
8
0
100
AcDbBlockBegin
2
_U2
70
0
10
0
20
0
30
0
3
_U2
0
MTEXT
5
178
100
AcDbEntity
8
SK2
62
256
6
ByLayer
370
18
48
1
60
0
100
AcDbMText
10
-28.640313
20
-35.067115
30
0
210
0
220
0
230
1
1
\W0.7694;48.00
40
3
41
0
44
1.084337
50
0
71
7
72
5
7
iso_b_vert
0
LINE
5
179
100
AcDbEntity
8
SK2
62
256
6
ByLayer
370
13
48
1
60
0
100
AcDbLine
10
-48
20
-9.5875
30
0
11
-48
21
-37.952229
31
0
39
0
210
0
220
0
230
1
0
LINE
5
17A
100
AcDbEntity
8
SK2
62
256
6
ByLayer
370
13
48
1
60
0
100
AcDbLine
10
0
20
-9.5875
30
0
11
0
21
-37.952229
31
0
39
0
210
0
220
0
230
1
0
LINE
5
17B
100
AcDbEntity
8
SK2
62
256
6
ByLayer
370
13
48
1
60
0
100
AcDbLine
10
-48
20
-35.952229
30
0
11
0
21
-35.952229
31
0
39
0
210
0
220
0
230
1
0
SOLID
5
17C
100
AcDbEntity
8
SK2
62
256
6
ByLayer
370
18
48
1
60
0
100
AcDbTrace
10
-48
20
-35.952229
30
0
11
-44.500002
21
-35.491446
31
0
12
-44.499998
22
-36.413013
32
0
13
-44.499998
23
-36.413013
33
0
39
0
210
0
220
0
230
1
0
SOLID
5
17D
100
AcDbEntity
8
SK2
62
256
6
ByLayer
370
18
48
1
60
0
100
AcDbTrace
10
0
20
-35.952229
30
0
11
-3.499998
21
-36.413013
31
0
12
-3.500002
22
-35.491446
32
0
13
-3.500002
23
-35.491446
33
0
39
0
210
0
220
0
230
1
0
ENDBLK
5
17F
100
AcDbEntity
8
0
100
AcDbBlockEnd
0
BLOCK
5
184
100
AcDbEntity
8
0
100
AcDbBlockBegin
2
*D7
70
1
10
0
20
0
30
0
3
*D7
0
LINE
5
186
100
AcDbEntity
8
0
62
256
6
ByLayer
370
-2
48
1
60
0
100
AcDbLine
10
82
20
1.5875
30
0
11
82
21
34.952229
31
0
39
0
210
0
220
0
230
1
0
LINE
5
187
100
AcDbEntity
8
0
62
256
6
ByLayer
370
-2
48
1
60
0
100
AcDbLine
10
13
20
7.8375
30
0
11
13
21
34.952229
31
0
39
0
210
0
220
0
230
1
0
LINE
5
188
100
AcDbEntity
8
0
62
256
6
ByLayer
370
-2
48
1
60
0
100
AcDbLine
10
78.5
20
32.952229
30
0
11
16.5
21
32.952229
31
0
39
0
210
0
220
0
230
1
0
SOLID
5
189
100
AcDbEntity
8
0
62
256
6
ByLayer
370
-1
48
1
60
0
100
AcDbTrace
10
78.5
20
32.368896
30
0
11
78.5
21
33.535563
31
0
12
82
22
32.952229
32
0
13
82
23
32.952229
33
0
39
0
210
0
220
0
230
1
0
SOLID
5
18A
100
AcDbEntity
8
0
62
256
6
ByLayer
370
-1
48
1
60
0
100
AcDbTrace
10
16.5
20
33.535563
30
0
11
16.5
21
32.368896
31
0
12
13
22
32.952229
32
0
13
13
23
32.952229
33
0
39
0
210
0
220
0
230
1
0
MTEXT
5
18B
100
AcDbEntity
8
0
62
256
6
ByLayer
370
18
48
1
60
0
100
AcDbMText
10
47.5
20
38.952229
30
0
210
0
220
0
230
1
1
\A1;69
40
3
41
0
44
1
50
0
71
5
72
5
7
iso_b_vert
0
POINT
5
18C
100
AcDbEntity
8
Defpoints
62
0
6
ByLayer
370
-1
48
1
60
0
100
AcDbPoint
10
82
20
0
30
0
39
0
210
0
220
0
230
1
50
360
0
POINT
5
18D
100
AcDbEntity
8
Defpoints
62
0
6
ByLayer
370
-1
48
1
60
0
100
AcDbPoint
10
13
20
6.25
30
0
39
0
210
0
220
0
230
1
50
360
0
POINT
5
18E
100
AcDbEntity
8
Defpoints
62
0
6
ByLayer
370
-1
48
1
60
0
100
AcDbPoint
10
13
20
32.952229
30
0
39
0
210
0
220
0
230
1
50
360
0
ENDBLK
5
185
100
AcDbEntity
8
0
100
AcDbBlockEnd
0
BLOCK
5
196
100
AcDbEntity
8
0
100
AcDbBlockBegin
2
_U3
70
0
10
0
20
0
30
0
3
_U3
0
MTEXT
5
190
100
AcDbEntity
8
SK2
62
256
6
ByLayer
370
18
48
1
60
0
100
AcDbMText
10
43.01763
20
33.837344
30
0
210
0
220
0
230
1
1
\W0.7468;69.00
40
3
41
0
44
1.084337
50
0
71
7
72
5
7
iso_b_vert
0
LINE
5
191
100
AcDbEntity
8
SK2
62
256
6
ByLayer
370
13
48
1
60
0
100
AcDbLine
10
82
20
1.5875
30
0
11
82
21
34.952229
31
0
39
0
210
0
220
0
230
1
0
LINE
5
192
100
AcDbEntity
8
SK2
62
256
6
ByLayer
370
13
48
1
60
0
100
AcDbLine
10
13
20
7.8375
30
0
11
13
21
34.952229
31
0
39
0
210
0
220
0
230
1
0
LINE
5
193
100
AcDbEntity
8
SK2
62
256
6
ByLayer
370
13
48
1
60
0
100
AcDbLine
10
82
20
32.952229
30
0
11
13
21
32.952229
31
0
39
0
210
0
220
0
230
1
0
SOLID
5
194
100
AcDbEntity
8
SK2
62
256
6
ByLayer
370
18
48
1
60
0
100
AcDbTrace
10
82
20
32.952229
30
0
11
78.500002
21
32.491446
31
0
12
78.499998
22
33.413013
32
0
13
78.499998
23
33.413013
33
0
39
0
210
0
220
0
230
1
0
SOLID
5
195
100
AcDbEntity
8
SK2
62
256
6
ByLayer
370
18
48
1
60
0
100
AcDbTrace
10
13
20
32.952229
30
0
11
16.499998
21
33.413013
31
0
12
16.500002
22
32.491446
32
0
13
16.500002
23
32.491446
33
0
39
0
210
0
220
0
230
1
0
ENDBLK
5
197
100
AcDbEntity
8
0
100
AcDbBlockEnd
0
ENDSEC
0
SECTION
2
ENTITIES
0
ARC
5
C0
100
AcDbEntity
8
SK2
62
256
6
ByLayer
370
13
48
1
60
0
100
AcDbCircle
39
0
10
82
20
0
30
0
40
18.9999999999999
210
0
220
0
230
1
100
AcDbArc
50
290
51
70
0
ELLIPSE
5
C1
100
AcDbEntity
8
SK1
62
256
6
ByLayer
370
18
48
1
60
0
100
AcDbEllipse
10
153.54477
20
0
30
0
11
229.090026261202
21
-2.59581837845095E-13
31
0
210
0
220
0
230
1
40
0.034921
41
2.39723378988983
42
2.57876881051445
0
ELLIPSE
5
C2
100
AcDbEntity
8
SK1
62
256
6
ByLayer
370
18
48
1
60
0
100
AcDbEllipse
10
-20.57895
20
0
30
0
11
8.57894968019762
21
-9.72080522714331E-15
31
0
210
0
220
0
230
1
40
0.932515
41
-0.661405283579246
42
0.661405283579253
0
ELLIPSE
5
C3
100
AcDbEntity
8
SK1
62
256
6
ByLayer
370
18
48
1
60
0
100
AcDbEllipse
10
153.54477
20
0
30
0
11
229.090026264126
21
-2.59581837848408E-13
31
0
210
0
220
0
230
1
40
0.034921
41
-2.57876881051488
42
-2.39723378989224
0
ELLIPSE
5
C4
100
AcDbEntity
8
SK1
62
256
6
ByLayer
370
18
48
1
60
0
100
AcDbEllipse
10
-34.539879
20
0
30
0
11
-1.46952762458688E-15
21
-8.00000000000015
31
0
210
0
220
0
230
1
40
0.932515
41
-2.00016141679846
42
-1.14143123679134
0
POINT
5
70
100
AcDbEntity
8
80
62
256
6
ByLayer
370
18
48
1
60
0
100
AcDbPoint
10
0
20
0
30
0
39
0
210
0
220
0
230
1
50
360
0
POINT
5
72
100
AcDbEntity
8
81
62
256
6
ByLayer
370
18
48
1
60
0
100
AcDbPoint
10
82
20
0
30
0
39
0
210
0
220
0
230
1
50
360
0
POINT
5
74
100
AcDbEntity
8
1
62
256
6
ByLayer
370
18
48
1
60
1
100
AcDbPoint
10
-48
20
-8
30
0
39
0
210
0
220
0
230
1
50
360
0
POINT
5
76
100
AcDbEntity
8
1
62
256
6
ByLayer
370
18
48
1
60
1
100
AcDbPoint
10
82
20
0
30
0
39
0
210
0
220
0
230
1
50
360
0
POINT
5
77
100
AcDbEntity
8
1
62
256
6
ByLayer
370
18
48
1
60
1
100
AcDbPoint
10
82
20
0
30
0
39
0
210
0
220
0
230
1
50
360
0
POINT
5
78
100
AcDbEntity
8
1
62
256
6
ByLayer
370
18
48
1
60
1
100
AcDbPoint
10
3
20
-6.25
30
0
39
0
210
0
220
0
230
1
50
360
0
POINT
5
79
100
AcDbEntity
8
1
62
256
6
ByLayer
370
18
48
1
60
1
100
AcDbPoint
10
-48
20
-8
30
0
39
0
210
0
220
0
230
1
50
360
0
POINT
5
7A
100
AcDbEntity
8
1
62
256
6
ByLayer
370
18
48
1
60
1
100
AcDbPoint
10
0
20
-8
30
0
39
0
210
0
220
0
230
1
50
360
0
POINT
5
7B
100
AcDbEntity
8
1
62
256
6
ByLayer
370
18
48
1
60
1
100
AcDbPoint
10
82
20
0
30
0
39
0
210
0
220
0
230
1
50
360
0
POINT
5
7C
100
AcDbEntity
8
1
62
256
6
ByLayer
370
18
48
1
60
1
100
AcDbPoint
10
13
20
6.25
30
0
39
0
210
0
220
0
230
1
50
360
0
SPLINE
5
C5
100
AcDbEntity
8
1
62
256
6
ByLayer
370
18
48
1
60
0
100
AcDbSpline
70
4
71
3
72
20
73
16
40
0
40
0
40
0
40
0
40
0.124999999999997
40
0.124999999999997
40
0.249999999999994
40
0.249999999999994
40
0.499999999999992
40
0.499999999999992
40
0.624999999999993
40
0.624999999999993
40
0.687499999999994
40
0.687499999999994
40
0.749999999999994
40
0.749999999999994
40
1
40
1
40
1
40
1
41
1
10
10
20
-5.20578260999304
30
0
41
1
10
10.2241847971541
20
-5.20491879461412
30
0
41
1
10
10.4472213325274
20
-5.20788691322784
30
0
41
1
10
10.8911818893828
20
-5.22077595727944
30
0
41
1
10
11.1121051475348
20
-5.23069732270471
30
0
41
1
10
11.7719533361252
20
-5.26959362636774
30
0
41
1
10
12.2079468377308
20
-5.30777358128969
30
0
41
1
10
12.8571336000892
20
-5.37682381321068
30
0
41
1
10
13.0727305504459
20
-5.40178426506006
30
0
41
1
10
13.3950841092715
20
-5.44118437052356
30
0
41
1
10
13.5023618542217
20
-5.45464365147458
30
0
41
1
10
13.7165987955145
20
-5.48204998535621
30
0
41
1
10
13.8235970230717
20
-5.49600223539181
30
0
41
1
10
14.3568708999314
20
-5.56644009941215
30
0
41
1
10
14.7786985862886
20
-5.62493869759129
30
0
41
1
10
15.197734739833
20
-5.68102371247264
30
0
0
SPLINE
5
C6
100
AcDbEntity
8
1
62
256
6
ByLayer
370
18
48
1
60
0
100
AcDbSpline
70
4
71
3
72
14
73
10
40
0
40
0
40
0
40
0
40
0.25
40
0.25
40
0.5
40
0.5
40
0.75
40
0.75
40
1
40
1
40
1
40
1
41
1
10
12.4734475241983
20
3.55705921243435
30
0
41
1
10
12.2649191954922
20
3.61931285118442
30
0
41
1
10
12.0572585656435
20
3.68239403326592
30
0
41
1
10
11.6432029602059
20
3.80900016321854
30
0
41
1
10
11.4368066168882
20
3.87252348942309
30
0
41
1
10
11.0249271275439
20
3.99912454831943
30
0
41
1
10
10.8194430999741
20
4.06220222331396
30
0
41
1
10
10.4091909912784
20
4.18737657149768
30
0
41
1
10
10.2044226403106
20
4.24947471812843
30
0
41
1
10
9.99999999999994
20
4.31098071588349
30
0
0
SPLINE
5
C7
100
AcDbEntity
8
1
62
256
6
ByLayer
370
18
48
1
60
0
100
AcDbSpline
70
4
71
3
72
20
73
16
40
0
40
0
40
0
40
0
40
0.125000000000001
40
0.125000000000001
40
0.250000000000001
40
0.250000000000001
40
0.499999999999998
40
0.499999999999998
40
0.624999999999998
40
0.624999999999998
40
0.687499999999999
40
0.687499999999999
40
0.749999999999999
40
0.749999999999999
40
1
40
1
40
1
40
1
41
1
10
10
20
5.20578260999304
30
0
41
1
10
10.2241847971541
20
5.20491879461414
30
0
41
1
10
10.4472213325274
20
5.20788691322787
30
0
41
1
10
10.8911818893828
20
5.22077595727944
30
0
41
1
10
11.1121051475349
20
5.23069732270471
30
0
41
1
10
11.7719533361253
20
5.26959362636771
30
0
41
1
10
12.2079468377308
20
5.30777358128972
30
0
41
1
10
12.8571336000892
20
5.37682381321068
30
0
41
1
10
13.0727305504459
20
5.40178426506006
30
0
41
1
10
13.3950841092715
20
5.44118437052359
30
0
41
1
10
13.5023618542217
20
5.45464365147461
30
0
41
1
10
13.7165987955145
20
5.48204998535624
30
0
41
1
10
13.8235970230717
20
5.49600223539181
30
0
41
1
10
14.3568708999314
20
5.56644009941215
30
0
41
1
10
14.7786985862885
20
5.62493869759123
30
0
41
1
10
15.197734739833
20
5.68102371247258
30
0
0
SPLINE
5
C8
100
AcDbEntity
8
1
62
256
6
ByLayer
370
18
48
1
60
0
100
AcDbSpline
70
4
71
3
72
12
73
8
40
0
40
0
40
0
40
0
40
0.638952081939
40
0.638952081939
40
0.958428122908506
40
0.958428122908506
40
1
40
1
40
1
40
1
41
1
10
72.6
20
-6.16660531018573
30
0
41
1
10
73.1947588289486
20
-6.20168620279784
30
0
41
1
10
73.7891976290994
20
-6.22549535264608
30
0
41
1
10
74.6798976121957
20
-6.24464353875365
30
0
41
1
10
74.9766350247346
20
-6.24825410381175
30
0
41
1
10
75.3117579280854
20
-6.24915518108642
30
0
41
1
10
75.3503404757182
20
-6.24921115001044
30
0
41
1
10
75.3889199387277
20
-6.24921928161731
30
0
0
SPLINE
5
C9
100
AcDbEntity
8
1
62
256
6
ByLayer
370
18
48
1
60
0
100
AcDbSpline
70
4
71
3
72
142
73
138
40
0
40
0
40
0
40
0
40
0.0312499999999976
40
0.0312499999999976
40
0.0624999999999952
40
0.0624999999999952
40
0.0703124999999942
40
0.0703124999999942
40
0.0781249999999933
40
0.0781249999999933
40
0.0937499999999915
40
0.0937499999999915
40
0.124999999999988
40
0.124999999999988
40
0.132812499999986
40
0.132812499999986
40
0.140624999999985
40
0.140624999999985
40
0.156249999999981
40
0.156249999999981
40
0.187499999999975
40
0.187499999999975
40
0.195312499999973
40
0.195312499999973
40
0.203124999999971
40
0.203124999999971
40
0.218749999999968
40
0.218749999999968
40
0.249999999999963
40
0.249999999999963
40
0.257812499999962
40
0.257812499999962
40
0.265624999999961
40
0.265624999999961
40
0.281249999999959
40
0.281249999999959
40
0.312499999999955
40
0.312499999999955
40
0.320312499999954
40
0.320312499999954
40
0.328124999999953
40
0.328124999999953
40
0.335937499999952
40
0.335937499999952
40
0.343749999999951
40
0.343749999999951
40
0.374999999999947
40
0.374999999999947
40
0.390624999999946
40
0.390624999999946
40
0.398437499999945
40
0.398437499999945
40
0.406249999999945
40
0.406249999999945
40
0.414062499999944
40
0.414062499999944
40
0.421874999999944
40
0.421874999999944
40
0.437499999999943
40
0.437499999999943
40
0.453124999999942
40
0.453124999999942
40
0.468749999999941
40
0.468749999999941
40
0.499999999999939
40
0.499999999999939
40
0.515624999999939
40
0.515624999999939
40
0.523437499999938
40
0.523437499999938
40
0.531249999999938
40
0.531249999999938
40
0.546874999999937
40
0.546874999999937
40
0.554687499999937
40
0.554687499999937
40
0.562499999999937
40
0.562499999999937
40
0.578124999999937
40
0.578124999999937
40
0.585937499999938
40
0.585937499999938
40
0.593749999999938
40
0.593749999999938
40
0.624999999999942
40
0.624999999999942
40
0.640624999999944
40
0.640624999999944
40
0.656249999999946
40
0.656249999999946
40
0.664062499999947
40
0.664062499999947
40
0.671874999999948
40
0.671874999999948
40
0.68749999999995
40
0.68749999999995
40
0.718749999999952
40
0.718749999999952
40
0.726562499999953
40
0.726562499999953
40
0.734374999999954
40
0.734374999999954
40
0.749999999999956
40
0.749999999999956
40
0.781249999999961
40
0.781249999999961
40
0.796874999999963
40
0.796874999999963
40
0.812499999999965
40
0.812499999999965
40
0.828124999999968
40
0.828124999999968
40
0.84374999999997
40
0.84374999999997
40
0.851562499999972
40
0.851562499999972
40
0.859374999999973
40
0.859374999999973
40
0.874999999999976
40
0.874999999999976
40
0.906249999999981
40
0.906249999999981
40
0.914062499999983
40
0.914062499999983
40
0.921874999999984
40
0.921874999999984
40
0.929687499999986
40
0.929687499999986
40
0.937499999999987
40
0.937499999999987
40
0.968749999999993
40
0.968749999999993
40
0.984374999999996
40
0.984374999999996
40
0.992187499999998
40
0.992187499999998
40
1
40
1
40
1
40
1
41
1
10
15.1977347398331
20
5.68102371247264
30
0
41
1
10
15.7964408025131
20
5.75909683676372
30
0
41
1
10
16.3951008808664
20
5.82580618536073
30
0
41
1
10
17.5915869187911
20
5.93801008094368
30
0
41
1
10
18.1894123594714
20
5.98349538895121
30
0
41
1
10
18.9357777630171
20
6.0269997024746
30
0
41
1
10
19.085011111732
20
6.03502418149836
30
0
41
1
10
19.3835835641744
20
6.04964513746791
30
0
41
1
10
19.5329193189824
20
6.05624550344456
30
0
41
1
10
19.9810373925668
20
6.07395517386118
30
0
41
1
10
20.2799224172327
20
6.08297811940082
30
0
41
1
10
21.1768508299872
20
6.10181011406894
30
0
41
1
10
21.7751815030691
20
6.10342675170335
30
0
41
1
10
22.5231581483649
20
6.09143066585116
30
0
41
1
10
22.6727447252251
20
6.08832354388557
30
0
41
1
10
22.9720232178079
20
6.08070146441832
30
0
41
1
10
23.1217710576399
20
6.07619147195663
30
0
41
1
10
23.5709651037998
20
6.06061982457041
30
0
41
1
10
23.8703791228556
20
6.04750988988991
30
0
41
1
10
24.7682894930735
20
6.0000686011208
30
0
41
1
10
25.366490353276
20
5.95768263649026
30
0
41
1
10
26.1133045232778
20
5.89086234610875
30
0
41
1
10
26.2626161815857
20
5.87679935324968
30
0
41
1
10
26.5611588690844
20
5.8472774490298
30
0
41
1
10
26.7104029099575
20
5.8318270161819
30
0
41
1
10
27.1583078916272
20
5.78362974859357
30
0
41
1
10
27.4570797280543
20
5.74899716502156
30
0
41
1
10
28.3536493723591
20
5.6375031946709
30
0
41
1
10
28.9517436550178
20
5.55312515941282
30
0
41
1
10
29.6994218481732
20
5.43445440988958
30
0
41
1
10
29.8489606240712
20
5.41005691094338
30
0
41
1
10
30.1480361709997
20
5.35990773966151
30
0
41
1
10
30.2975624393222
20
5.33413979171641
30
0
41
1
10
30.7463457310513
20
5.25507674115519
30
0
41
1
10
31.046022746982
20
5.20014352707881
30
0
41
1
10
31.9445556573783
20
5.02883105277837
30
0
41
1
10
32.5431654178299
20
4.90592798926906
30
0
41
1
10
33.2905030449471
20
4.74076861854081
30
0
41
1
10
33.439923880628
20
4.70715674434081
30
0
41
1
10
33.7386624132807
20
4.63874668478874
30
0
41
1
10
33.8879711344966
20
4.60393145607455
30
0
41
1
10
34.1865263993361
20
4.53318038954365
30
0
41
1
10
34.3357931315429
20
4.49728197311313
30
0
41
1
10
34.6344339931898
20
4.42469606946611
30
0
41
1
10
34.7837913588673
20
4.38797746264771
30
0
41
1
10
35.5307014019405
20
4.20216215104966
30
0
41
1
10
36.1286089721045
20
4.0464087702691
30
0
41
1
10
37.0255505258728
20
3.80110958051768
30
0
41
1
10
37.3245419748592
20
3.71738456110435
30
0
41
1
10
37.7729927256902
20
3.58867406445464
30
0
41
1
10
37.9224687581815
20
3.54524439498095
30
0
41
1
10
38.2215859693672
20
3.45775263012254
30
0
41
1
10
38.3712341847954
20
3.41370905240007
30
0
41
1
10
38.6706850453543
20
3.3249788458516
30
0
41
1
10
38.8205188120626
20
3.28028066571548
30
0
41
1
10
39.1201482024243
20
3.19024701898854
30
0
41
1
10
39.2699315297802
20
3.14491804759717
30
0
41
1
10
39.7191741887277
20
3.00796581536775
30
0
41
1
10
40.0185282493391
20
2.91538339620618
30
0
41
1
10
40.6168679740346
20
2.72743989417867
30
0
41
1
10
40.9158520416216
20
2.63207468216646
30
0
41
1
10
41.5133673096198
20
2.43832136075406
30
0
41
1
10
41.8118382583503
20
2.33976806153291
30
0
41
1
10
42.7078896232312
20
2.04301533637141
30
0
41
1
10
43.3056818540769
20
1.84264782872219
30
0
41
1
10
44.2024295726698
20
1.53682350779951
30
0
41
1
10
44.5013579208108
20
1.43400590637162
30
0
41
1
10
44.9497086418221
20
1.27827670407953
30
0
41
1
10
45.0991499759897
20
1.22611078116566
30
0
41
1
10
45.3980203838527
20
1.12127621236959
30
0
41
1
10
45.5474575607028
20
1.06862963808308
30
0
41
1
10
45.9960477023603
20
0.910775397788512
30
0
41
1
10
46.2954387795001
20
0.805543159625785
30
0
41
1
10
46.7448889363283
20
0.647341741299215
30
0
41
1
10
46.8947623309419
20
0.594556984187363
30
0
41
1
10
47.1943623797413
20
0.488948052455527
30
0
41
1
10
47.3441220047593
20
0.436112985076676
30
0
41
1
10
47.7932650061334
20
0.277473155420438
30
0
41
1
10
48.0925108894812
20
0.171528715503513
30
0
41
1
10
48.5410393225965
20
0.0121490806079123
30
0
41
1
10
48.6904922108369
20
-0.0410541227464023
30
0
41
1
10
48.9892752247367
20
-0.147639626893522
30
0
41
1
10
49.138592878749
20
-0.201057320285543
30
0
41
1
10
49.8851643081113
20
-0.467763346084666
30
0
41
1
10
50.4828713711465
20
-0.678481900995166
30
0
41
1
10
51.3794976088884
20
-0.992372283447565
30
0
41
1
10
51.6783890035719
20
-1.09662201365799
30
0
41
1
10
52.276113640577
20
-1.30460722480103
30
0
41
1
10
52.5749310079386
20
-1.40838668457997
30
0
41
1
10
53.0231144086535
20
-1.56365592088847
30
0
41
1
10
53.172525219246
20
-1.61528034512364
30
0
41
1
10
53.4715343197594
20
-1.71783761437396
30
0
41
1
10
53.6211163298141
20
-1.76881575373125
30
0
41
1
10
54.0700569062691
20
-1.92095566970468
30
0
41
1
10
54.3696489957603
20
-2.02135507224753
30
0
41
1
10
55.2687765632377
20
-2.31967984577801
30
0
41
1
10
55.867402654923
20
-2.51432182698929
30
0
41
1
10
56.6142675063563
20
-2.75332357916105
30
0
41
1
10
56.7635625554067
20
-2.80092357253301
30
0
41
1
10
57.0621678947436
20
-2.89528484529555
30
0
41
1
10
57.2114931761873
20
-2.94200947941243
30
0
41
1
10
57.659515287562
20
-3.08088648586528
30
0
41
1
10
57.9582435095147
20
-3.1717809332655
30
0
41
1
10
58.8544059742713
20
-3.43985362287594
30
0
41
1
10
59.4518426661775
20
-3.61238741320261
30
0
41
1
10
60.3474815375776
20
-3.86292350984118
30
0
41
1
10
60.6458628464729
20
-3.94521268886689
30
0
41
1
10
61.2432975651084
20
-4.10514204320916
30
0
41
1
10
61.5422756607865
20
-4.18296073364033
30
0
41
1
10
62.1406038453392
20
-4.3346642202882
30
0
41
1
10
62.4399629041932
20
-4.40852949025538
30
0
41
1
10
63.0389943255266
20
-4.55243471455114
30
0
41
1
10
63.3387809241101
20
-4.62250522997894
30
0
41
1
10
63.787793312934
20
-4.72462933218631
30
0
41
1
10
63.9373795675657
20
-4.75818064171912
30
0
41
1
10
64.2363765900354
20
-4.82430256071623
30
0
41
1
10
64.3857898827165
20
-4.85686639551602
30
0
41
1
10
64.8340475857578
20
-4.95258910197944
30
0
41
1
10
65.1329052563479
20
-5.01380116913171
30
0
41
1
10
66.0292768185699
20
-5.19023505289542
30
0
41
1
10
66.6266303660587
20
-5.29822247214398
30
0
41
1
10
67.3726221571952
20
-5.42173008426556
30
0
41
1
10
67.5217852863857
20
-5.44585473624028
30
0
41
1
10
67.8200317595282
20
-5.49294982975084
30
0
41
1
10
67.9691025230367
20
-5.51593476483831
30
0
41
1
10
68.2672527361698
20
-5.56063018069801
30
0
41
1
10
68.4163576044057
20
-5.58231095041893
30
0
41
1
10
68.7146830947423
20
-5.6242884987484
30
0
41
1
10
68.8638925385755
20
-5.64459877415348
30
0
41
1
10
69.6101124858492
20
-5.74285232180344
30
0
41
1
10
70.2076480721905
20
-5.81094488264566
30
0
41
1
10
71.1043077223327
20
-5.89769980694743
30
0
41
1
10
71.4032444272701
20
-5.9240496076788
30
0
41
1
10
71.8517099362854
20
-5.95964118684779
30
0
41
1
10
72.0012225824653
20
-5.97083783329913
30
0
41
1
10
72.3004694492776
20
-5.99179489189376
30
0
41
1
10
72.4501916526947
20
-6.00156459895129
30
0
41
1
10
72.6
20
-6.01063864435702
30
0
0
SPLINE
5
CA
100
AcDbEntity
8
1
62
256
6
ByLayer
370
18
48
1
60
0
100
AcDbSpline
70
4
71
4
72
10
73
5
40
0
40
0
40
0
40
0
40
0
40
1
40
1
40
1
40
1
40
1
41
0.996969731705438
10
15.1977347398331
20
5.68102371247262
30
0
41
0.994785373087887
10
15.1198237109861
20
4.90990252412722
30
0
41
0.993971218673321
10
14.9773008669956
20
4.12559539077171
30
0
41
0.999760461721178
10
14.7757277773306
20
3.44252585813487
30
0
41
0.999993605826035
10
14.5598743858064
20
2.91710194262762
30
0
0
SPLINE
5
CB
100
AcDbEntity
8
1
62
256
6
ByLayer
370
18
48
1
60
0
100
AcDbSpline
70
4
71
3
72
135
73
131
40
0
40
0
40
0
40
0
40
0.0115812785514848
40
0.0115812785514848
40
0.0209059834708106
40
0.0209059834708106
40
0.0302306883901364
40
0.0302306883901364
40
0.0675295080674418
40
0.0675295080674418
40
0.0861789179060949
40
0.0861789179060949
40
0.095503622825421
40
0.095503622825421
40
0.104828327744747
40
0.104828327744747
40
0.114153032664073
40
0.114153032664073
40
0.1234777375834
40
0.1234777375834
40
0.142127147422052
40
0.142127147422052
40
0.160776557260704
40
0.160776557260704
40
0.17010126218003
40
0.17010126218003
40
0.179425967099356
40
0.179425967099356
40
0.21672478677666
40
0.21672478677666
40
0.235374196615311
40
0.235374196615311
40
0.244698901534637
40
0.244698901534637
40
0.254023606453964
40
0.254023606453964
40
0.272673016292615
40
0.272673016292615
40
0.281997721211941
40
0.281997721211941
40
0.291322426131267
40
0.309971835969918
40
0.309971835969918
40
0.319296540889244
40
0.319296540889244
40
0.32862124580857
40
0.32862124580857
40
0.365920065485873
40
0.365920065485873
40
0.384569475324523
40
0.384569475324523
40
0.393894180243849
40
0.393894180243849
40
0.403218885163174
40
0.403218885163174
40
0.421868295001825
40
0.421868295001825
40
0.440517704840476
40
0.440517704840476
40
0.459167114679127
40
0.459167114679127
40
0.468491819598452
40
0.468491819598452
40
0.477816524517777
40
0.477816524517777
40
0.515115344195078
40
0.515115344195078
40
0.533764754033729
40
0.533764754033729
40
0.543089458953054
40
0.543089458953054
40
0.552414163872379
40
0.552414163872379
40
0.57106357371103
40
0.57106357371103
40
0.589712983549681
40
0.589712983549681
40
0.608362393388332
40
0.608362393388332
40
0.617687098307657
40
0.617687098307657
40
0.627011803226983
40
0.627011803226983
40
0.645661213065635
40
0.645661213065635
40
0.664310622904286
40
0.664310622904286
40
0.682960032742938
40
0.682960032742938
40
0.692284737662264
40
0.692284737662264
40
0.701609442581589
40
0.701609442581589
40
0.720258852420239
40
0.720258852420239
40
0.738908262258889
40
0.738908262258889
40
0.757557672097539
40
0.757557672097539
40
0.766882377016864
40
0.766882377016864
40
0.77620708193619
40
0.77620708193619
40
0.785531786855515
40
0.785531786855515
40
0.794856491774841
40
0.813505901613491
40
0.813505901613491
40
0.832155311452142
40
0.832155311452142
40
0.841480016371468
40
0.841480016371468
40
0.850804721290793
40
0.850804721290793
40
0.860129426210119
40
0.860129426210119
40
0.869454131129444
40
0.869454131129444
40
0.888103540968096
40
0.888103540968096
40
0.906752950806747
40
0.906752950806747
40
0.925402360645399
40
0.925402360645399
40
0.934727065564725
40
0.934727065564725
40
0.94405177048405
40
0.9627011803227
40
0.9627011803227
40
1
40
1
40
1
40
1
41
1
10
62.8485025393824
20
-4.50333011962334
30
0
41
1
10
62.6540399025329
20
-4.54983110594929
30
0
41
1
10
62.459639172369
20
-4.59549248532326
30
0
41
1
10
62.1088401444115
20
-4.67641929888563
30
0
41
1
10
61.9524169381396
20
-4.71197484177151
30
0
41
1
10
61.6396611799579
20
-4.78200127345124
30
0
41
1
10
61.4833321221374
20
-4.81647687889912
30
0
41
1
10
60.7015778797006
20
-4.9855461806423
30
0
41
1
10
60.0757731547834
20
-5.11018904823649
30
0
41
1
10
59.1367207455198
20
-5.28189483546993
30
0
41
1
10
58.8236448493959
20
-5.3365778390008
30
0
41
1
10
58.3539845631781
20
-5.41479368926426
30
0
41
1
10
58.1974226565502
20
-5.44022924980234
30
0
41
1
10
57.8842840042709
20
-5.48981833267825
30
0
41
1
10
57.7277126468258
20
-5.51397722738338
30
0
41
1
10
57.4144295241496
20
-5.56084990957433
30
0
41
1
10
57.2577101208985
20
-5.58355598629763
30
0
41
1
10
56.9441218077816
20
-5.62752388394466
30
0
41
1
10
56.7872201366281
20
-5.6487903680142
30
0
41
1
10
56.3166825989013
20
-5.71039439951016
30
0
41
1
10
56.0031401040935
20
-5.74854872975615
30
0
41
1
10
55.3763868420242
20
-5.81910322188673
30
0
41
1
10
55.0631767758175
20
-5.85150454966751
30
0
41
1
10
54.5936552810322
20
-5.8958036365739
30
0
41
1
10
54.4371963997256
20
-5.909851599696
30
0
41
1
10
54.1243781979475
20
-5.93650190030732
30
0
41
1
10
53.9680256105744
20
-5.94910708199308
30
0
41
1
10
53.1862142146276
20
-6.00831437571514
30
0
41
1
10
52.5604379127642
20
-6.0434347561914
30
0
41
1
10
51.6215299073446
20
-6.07819059826838
30
0
41
1
10
51.3085190923885
20
-6.08677874799486
30
0
41
1
10
50.8389831181584
20
-6.09513231447727
30
0
41
1
10
50.6824671897794
20
-6.09716120776588
30
0
41
1
10
50.3694296478822
20
-6.09969402748075
30
0
41
1
10
50.2129159043483
20
-6.10019678428461
30
0
41
1
10
49.7432008613031
20
-6.099399139708
30
0
41
1
10
49.4297670302652
20
-6.09580298939213
30
0
41
1
10
48.9592127859817
20
-6.08586227948703
30
0
41
1
10
48.80229002156
20
-6.08178970408503
30
0
41
1
10
48.4886041491317
20
-6.07213931143429
30
0
41
1
10
48.018206427919
20
-6.05540253941763
30
0
41
1
10
47.5482215564963
20
-6.03190288543584
30
0
41
1
10
47.0785562605924
20
-6.00385600838581
30
0
41
1
10
46.9220538813065
20
-5.99374870010072
30
0
41
1
10
46.6091575540498
20
-5.97200573107895
30
0
41
1
10
46.4527722286272
20
-5.96036372832688
30
0
41
1
10
45.6708589969128
20
-5.89846993331435
30
0
41
1
10
45.0450839422285
20
-5.83742000570118
30
0
41
1
10
44.106273287767
20
-5.72871837041336
30
0
41
1
10
43.7933118989727
20
-5.68962120150911
30
0
41
1
10
43.3238764799639
20
-5.62659983006108
30
0
41
1
10
43.1673985944783
20
-5.60486326186347
30
0
41
1
10
42.8544462503011
20
-5.55991584748472
30
0
41
1
10
42.6979809213396
20
-5.53669302683474
30
0
41
1
10
42.2284483456266
20
-5.46496657654802
30
0
41
1
10
41.915161776612
20
-5.41451430302595
30
0
41
1
10
41.2880767360834
20
-5.30838842618923
30
0
41
1
10
40.9741513382371
20
-5.25268184853954
30
0
41
1
10
40.3468466726646
20
-5.1361782844688
30
0
41
1
10
40.0333947742512
20
-5.07537196253108
30
0
41
1
10
39.5635622401054
20
-4.98024689350171
30
0
41
1
10
39.4070085417523
20
-4.94788603560579
30
0
41
1
10
39.0940184210211
20
-4.881847069635
30
0
41
1
10
38.9375914043145
20
-4.84815197720573
30
0
41
1
10
38.1555316990583
20
-4.67674480428798
30
0
41
1
10
37.5297305241879
20
-4.53097945065042
30
0
41
1
10
36.5909703496925
20
-4.29933156741109
30
0
41
1
10
36.2780428152271
20
-4.21993845297339
30
0
41
1
10
35.8086843270721
20
-4.09746813697319
30
0
41
1
10
35.6522365965116
20
-4.05608146981828
30
0
41
1
10
35.3393536388527
20
-3.97216745927648
30
0
41
1
10
35.1829278349323
20
-3.92961891897312
30
0
41
1
10
34.7135507280461
20
-3.80050757068554
30
0
41
1
10
34.400397244377
20
-3.71270964211436
30
0
41
1
10
33.7736012548759
20
-3.53376294103947
30
0
41
1
10
33.4599375651274
20
-3.44257890593815
30
0
41
1
10
32.8323133159746
20
-3.25677172263929
30
0
41
1
10
32.5187371810646
20
-3.16226417680045
30
0
41
1
10
32.0487712601882
20
-3.01798293970882
30
0
41
1
10
31.8921821032949
20
-2.96946952510351
30
0
41
1
10
31.5791390763908
20
-2.87159281302976
30
0
41
1
10
31.4226944945769
20
-2.82220558877174
30
0
41
1
10
30.9534569395037
20
-2.67303671900115
30
0
41
1
10
30.6406510905617
20
-2.57252875551419
30
0
41
1
10
30.0150351652829
20
-2.36953289313962
30
0
41
1
10
29.7022395042442
20
-2.26700797775769
30
0
41
1
10
29.0767067015236
20
-2.05982667018236
30
0
41
1
10
28.7639689557519
20
-1.95517209207134
30
0
41
1
10
28.2949496225416
20
-1.79646578100153
30
0
41
1
10
28.1386242208781
20
-1.74327648303281
30
0
41
1
10
27.8260045850601
20
-1.63631301881077
30
0
41
1
10
27.6697192997319
20
-1.58251399769111
30
0
41
1
10
27.2008154047289
20
-1.42049451452661
30
0
41
1
10
26.8880310634353
20
-1.31197820570364
30
0
41
1
10
26.262031763198
20
-1.09415199099996
30
0
41
1
10
25.9488360561167
20
-0.984788780309373
30
0
41
1
10
25.3220870743385
20
-0.765068757286485
30
0
41
1
10
25.0085330950402
20
-0.654714195080317
30
0
41
1
10
24.5379735488582
20
-0.488307477777397
30
0
41
1
10
24.3811153682762
20
-0.432704489295446
30
0
41
1
10
24.0675846596705
20
-0.321290889700805
30
0
41
1
10
23.9108925900742
20
-0.265445756657044
30
0
41
1
10
23.5975815252771
20
-0.153689214433911
30
0
41
1
10
23.4409419345848
20
-0.0978364585157863
30
0
41
1
10
23.1276375065469
20
0.0136567098933824
30
0
41
1
10
22.6576690435515
20
0.180652098569084
30
0
41
1
10
22.1876959633848
20
0.347007473970734
30
0
41
1
10
21.561095067153
20
0.568345313470388
30
0
41
1
10
21.2478087099996
20
0.678777236151461
30
0
41
1
10
20.7779446403326
20
0.844191765744142
30
0
41
1
10
20.6213342302063
20
0.899291078580802
30
0
41
1
10
20.3081376580744
20
1.00941749170389
30
0
41
1
10
20.1515597020325
20
1.06446747886088
30
0
41
1
10
19.8383768000036
20
1.17435082539768
30
0
41
1
10
19.6817517222707
20
1.22912797743021
30
0
41
1
10
19.3683683928223
20
1.3381703395635
30
0
41
1
10
19.2116197386712
20
1.39246236580505
30
0
41
1
10
18.741214773767
20
1.55468548790091
30
0
41
1
10
18.4273134455738
20
1.66199155677373
30
0
41
1
10
17.7999575833637
20
1.87467713315854
30
0
41
1
10
17.4864194741365
20
1.98008334563056
30
0
41
1
10
16.8596821332855
20
2.1891737645233
30
0
41
1
10
16.5465076704705
20
2.2929219323141
30
0
41
1
10
16.0769323583382
20
2.44704600791465
30
0
41
1
10
15.9204091449257
20
2.49809479329898
30
0
41
1
10
15.6072919383387
20
2.59935240104832
30
0
41
1
10
15.1375410291083
20
2.75005962581778
30
0
41
1
10
14.6675958320933
20
2.89733308443917
30
0
41
1
10
13.7275066272487
20
3.18747238204753
30
0
41
1
10
13.1005046280058
20
3.37501575958936
30
0
41
1
10
12.4734475241984
20
3.5570592124343
30
0
0
SPLINE
5
CC
100
AcDbEntity
8
1
62
256
6
ByLayer
370
18
48
1
60
0
100
AcDbSpline
70
4
71
3
72
20
73
16
40
0
40
0
40
0
40
0
40
0.249999999999996
40
0.249999999999996
40
0.374999999999999
40
0.374999999999999
40
0.499999999999997
40
0.499999999999997
40
0.749999999999999
40
0.749999999999999
40
0.874999999999999
40
0.874999999999999
40
0.9375
40
0.9375
40
1
40
1
40
1
40
1
41
1
10
79.7251860358177
20
-0.89052001628616
30
0
41
1
10
79.1304949345855
20
-0.676160178800188
30
0
41
1
10
78.5361885262146
20
-0.461466242104365
30
0
41
1
10
77.645522267772
20
-0.138305927479109
30
0
41
1
10
77.3487720064379
20
-0.0303823757440398
30
0
41
1
10
76.7555865473004
20
0.185973462278298
30
0
41
1
10
76.459192806316
20
0.294519469744671
30
0
41
1
10
75.5695081068404
20
0.618217319054395
30
0
41
1
10
74.9759615205923
20
0.832120691776225
30
0
41
1
10
74.0852380354299
20
1.1507821262349
30
0
41
1
10
73.7882652136362
20
1.25664271919663
30
0
41
1
10
73.3427441422244
20
1.41498815157047
30
0
41
1
10
73.1942270179213
20
1.46769623713831
30
0
41
1
10
72.8971688311152
20
1.57295383587751
30
0
41
1
10
72.7486250720254
20
1.62549588247981
30
0
41
1
10
72.6
20
1.67776938511
30
0
0
SPLINE
5
CD
100
AcDbEntity
8
1
62
256
6
ByLayer
370
18
48
1
60
0
100
AcDbSpline
70
4
71
3
72
80
73
76
40
0
40
0
40
0
40
0
40
0.0624999999999959
40
0.0624999999999959
40
0.124999999999992
40
0.124999999999992
40
0.14062499999999
40
0.14062499999999
40
0.156249999999987
40
0.156249999999987
40
0.187499999999982
40
0.187499999999982
40
0.24999999999997
40
0.24999999999997
40
0.281249999999963
40
0.281249999999963
40
0.296874999999961
40
0.296874999999961
40
0.312499999999958
40
0.312499999999958
40
0.343749999999953
40
0.343749999999953
40
0.374999999999949
40
0.374999999999949
40
0.406249999999944
40
0.406249999999944
40
0.437499999999939
40
0.437499999999939
40
0.453124999999937
40
0.453124999999937
40
0.468749999999934
40
0.468749999999934
40
0.49999999999993
40
0.49999999999993
40
0.531249999999927
40
0.531249999999927
40
0.539062499999926
40
0.539062499999926
40
0.546874999999925
40
0.562499999999922
40
0.562499999999922
40
0.593749999999917
40
0.593749999999917
40
0.624999999999913
40
0.624999999999913
40
0.632812499999912
40
0.632812499999912
40
0.640624999999912
40
0.656249999999912
40
0.656249999999912
40
0.687499999999914
40
0.687499999999914
40
0.718749999999915
40
0.718749999999915
40
0.726562499999917
40
0.726562499999917
40
0.734374999999919
40
0.734374999999919
40
0.749999999999925
40
0.749999999999925
40
0.781249999999936
40
0.781249999999936
40
0.812499999999947
40
0.843749999999959
40
0.843749999999959
40
0.851562499999962
40
0.851562499999962
40
0.859374999999965
40
0.874999999999968
40
0.874999999999968
40
0.937499999999985
40
0.937499999999985
40
0.968749999999993
40
0.968749999999993
40
1
40
1
40
1
40
1
41
1
10
79.7251860358117
20
6.05153911872674
30
0
41
1
10
79.8032746415637
20
5.85786234805732
30
0
41
1
10
79.8816165112765
20
5.65842558635165
30
0
41
1
10
80.0392545795985
20
5.24961062450933
30
0
41
1
10
80.1185517291386
20
5.04022282416798
30
0
41
1
10
80.2183544014479
20
4.77272788620741
30
0
41
1
10
80.2383481393347
20
4.71893917251322
30
0
41
1
10
80.2784002810279
20
4.61078715254345
30
0
41
1
10
80.2984660740856
20
4.55640308159155
30
0
41
1
10
80.3583995501814
20
4.39336286366134
30
0
41
1
10
80.3981235403331
20
4.28450014028883
30
0
41
1
10
80.5165517078317
20
3.95740073483816
30
0
41
1
10
80.5945520081007
20
3.73866819724515
30
0
41
1
10
80.7093599433942
20
3.40932950169065
30
0
41
1
10
80.7472554295299
20
3.29933999440121
30
0
41
1
10
80.8033270016783
20
3.13396700201835
30
0
41
1
10
80.8218879014481
20
3.07877750312195
30
0
41
1
10
80.8587000859644
20
2.96825020833222
30
0
41
1
10
80.876961562668
20
2.91287990337108
30
0
41
1
10
80.9309275633979
20
2.74731450967281
30
0
41
1
10
80.9659073973329
20
2.63741552592174
30
0
41
1
10
81.0332325504963
20
2.41839234159536
30
0
41
1
10
81.0655822894063
20
2.30926885244909
30
0
41
1
10
81.1266641848079
20
2.09156898517091
30
0
41
1
10
81.1554014934388
20
1.98299306708375
30
0
41
1
10
81.2077779617429
20
1.76609345049911
30
0
41
1
10
81.2314194747309
20
1.65776884378579
30
0
41
1
10
81.2614762104886
20
1.49520042698032
30
0
41
1
10
81.2705933704607
20
1.44093063992284
30
0
41
1
10
81.2865564117349
20
1.3334011670141
30
0
41
1
10
81.293426322172
20
1.28002009840205
30
0
41
1
10
81.310365999754
20
1.12107157201848
30
0
41
1
10
81.3167296285503
20
1.01669324124413
30
0
41
1
10
81.318405803695
20
0.811478737459424
30
0
41
1
10
81.3137083605833
20
0.710644257614575
30
0
41
1
10
81.3009725133684
20
0.587143072837392
30
0
41
1
10
81.2980810391436
20
0.562537669807853
30
0
41
1
10
81.2916525804083
20
0.513743824687936
30
0
41
1
10
81.2810649278448
20
0.441329748197376
30
0
41
1
10
81.2678059662984
20
0.37121728114775
30
0
41
1
10
81.2381702790308
20
0.233987547148899
30
0
41
1
10
81.2142731868169
20
0.146489101773682
30
0
41
1
10
81.1603491247125
20
-0.0208388521421341
30
0
41
1
10
81.1303266992152
20
-0.100670609922048
30
0
41
1
10
81.089962740436
20
-0.19573740378064
30
0
41
1
10
81.0817382981566
20
-0.214532491209326
30
0
41
1
10
81.0650625928384
20
-0.251558690538388
30
0
41
1
10
81.0397367629978
20
-0.306192239659396
30
0
41
1
10
81.0135709056499
20
-0.358161505284528
30
0
41
1
10
80.9603220190754
20
-0.45865344939142
30
0
41
1
10
80.9236119681782
20
-0.521062185471038
30
0
41
1
10
80.8484813296692
20
-0.63701022555847
30
0
41
1
10
80.8100556820212
20
-0.690547889620802
30
0
41
1
10
80.7611852457141
20
-0.751933041719923
30
0
41
1
10
80.7513686186412
20
-0.763932576890682
30
0
41
1
10
80.7316539250205
20
-0.787374307139913
30
0
41
1
10
80.7217514543354
20
-0.798820689538786
30
0
41
1
10
80.6920571550968
20
-0.832176236765378
30
0
41
1
10
80.6722370192045
20
-0.853153425288781
30
0
41
1
10
80.6127357845758
20
-0.91238973351534
30
0
41
1
10
80.5730168131057
20
-0.946961201869129
30
0
41
1
10
80.4935479490414
20
-1.00651120155163
30
0
41
1
10
80.4140462565617
20
-1.05646629207587
30
0
41
1
10
80.3344561785781
20
-1.08725551877308
30
0
41
1
10
80.284643533454
20
-1.10037944164577
30
0
41
1
10
80.274674242287
20
-1.10269754317105
30
0
41
1
10
80.2548188060768
20
-1.10670002657477
30
0
41
1
10
80.2251263428921
20
-1.11176286475015
30
0
41
1
10
80.1956962403472
20
-1.1140342792504
30
0
41
1
10
80.098135979836
20
-1.115507261506
30
0
41
1
10
80.0218146682898
20
-1.09729333807195
30
0
41
1
10
79.9091158302946
20
-1.04134648601297
30
0
41
1
10
79.8718470855086
20
-1.01790256981892
30
0
41
1
10
79.7977702663831
20
-0.961212336215112
30
0
41
1
10
79.7612382026715
20
-0.928172299200668
30
0
41
1
10
79.7251860358117
20
-0.890520016283972
30
0
0
SPLINE
5
CE
100
AcDbEntity
8
1
62
256
6
ByLayer
370
18
48
1
60
0
100
AcDbSpline
70
4
71
3
72
18
73
14
40
0
40
0
40
0
40
0
40
0.075951572751668
40
0.075951572751668
40
0.178623620223705
40
0.178623620223705
40
0.589311810111861
40
0.589311810111861
40
0.79465590505593
40
0.79465590505593
40
0.897327952527965
40
0.897327952527965
40
1
40
1
40
1
40
1
41
1
10
75.3889201014238
20
6.24921928165165
30
0
41
1
10
75.4985803915385
20
6.24924239497554
30
0
41
1
10
75.6082157593413
20
6.24887900496958
30
0
41
1
10
75.8660623525392
20
6.24711247368995
30
0
41
1
10
76.0143005356526
20
6.24539105547944
30
0
41
1
10
76.7557233837161
20
6.23330586285056
30
0
41
1
10
77.3493994701605
20
6.21255173345352
30
0
41
1
10
78.2401694359859
20
6.16483176734829
30
0
41
1
10
78.5371367584049
20
6.14614850462016
30
0
41
1
10
78.9825960277113
20
6.11386129935991
30
0
41
1
10
79.1310802292044
20
6.10238543853939
30
0
41
1
10
79.428062133329
20
6.07799944110664
30
0
41
1
10
79.576571220946
20
6.06509451988819
30
0
41
1
10
79.7251860358177
20
6.0515391187262
30
0
0
SPLINE
5
CF
100
AcDbEntity
8
1
62
256
6
ByLayer
370
18
48
1
60
0
100
AcDbSpline
70
4
71
3
72
18
73
14
40
0
40
0
40
0
40
0
40
0.280190510291763
40
0.280190510291763
40
0.560381020583526
40
0.560381020583526
40
0.630428648156469
40
0.630428648156469
40
0.700476275729413
40
0.700476275729413
40
0.8405715308753
40
0.8405715308753
40
1
40
1
40
1
40
1
41
1
10
15.1977347398331
20
-5.68102371247264
30
0
41
1
10
15.7964408025131
20
-5.75909683676372
30
0
41
1
10
16.3951008808666
20
-5.82580618536076
30
0
41
1
10
17.5915869187914
20
-5.93801008094371
30
0
41
1
10
18.1894123594718
20
-5.98349538895124
30
0
41
1
10
18.9357777630175
20
-6.02699970247463
30
0
41
1
10
19.0850111117324
20
-6.03502418149839
30
0
41
1
10
19.3835835641748
20
-6.04964513746793
30
0
41
1
10
19.5329193189829
20
-6.05624550344456
30
0
41
1
10
19.9810373925672
20
-6.07395517386118
30
0
41
1
10
20.2799224172332
20
-6.08297811940085
30
0
41
1
10
20.9191335461484
20
-6.096399057349
30
0
41
1
10
21.2594910480708
20
-6.10000135461939
30
0
41
1
10
21.5999106815229
20
-6.10001159361985
30
0
0
SPLINE
5
D0
100
AcDbEntity
8
1
62
256
6
ByLayer
370
18
48
1
60
0
100
AcDbSpline
70
4
71
3
72
32
73
28
40
0
40
0
40
0
40
0
40
0.0807978486206354
40
0.0807978486206354
40
0.126757956189602
40
0.126757956189602
40
0.172718063758569
40
0.172718063758569
40
0.264638278896507
40
0.264638278896507
40
0.448478709172387
40
0.448478709172387
40
0.494438816741355
40
0.494438816741355
40
0.540398924310323
40
0.540398924310323
40
0.586359031879292
40
0.586359031879292
40
0.632319139448259
40
0.632319139448259
40
0.816159569724128
40
0.816159569724128
40
0.908079784862064
40
0.908079784862064
40
0.954039892431032
40
0.954039892431032
40
1
40
1
40
1
40
1
41
1
10
62.8482136480862
20
4.50651809385548
30
0
41
1
10
63.1115363006536
20
4.5693627073147
30
0
41
1
10
63.3750013235252
20
4.63074325606453
30
0
41
1
10
63.7877933129386
20
4.72462933218733
30
0
41
1
10
63.9373795675703
20
4.75818064172014
30
0
41
1
10
64.2363765900401
20
4.82430256071723
30
0
41
1
10
64.3857898827212
20
4.85686639551702
30
0
41
1
10
64.8340475857624
20
4.95258910198041
30
0
41
1
10
65.1329052563526
20
5.01380116913265
30
0
41
1
10
66.0292768185747
20
5.1902350528963
30
0
41
1
10
66.6266303660635
20
5.29822247214483
30
0
41
1
10
67.3726221572002
20
5.42173008426636
30
0
41
1
10
67.5217852863906
20
5.44585473624107
30
0
41
1
10
67.8200317595332
20
5.49294982975161
30
0
41
1
10
67.9691025230417
20
5.51593476483907
30
0
41
1
10
68.2672527361748
20
5.56063018069872
30
0
41
1
10
68.4163576044107
20
5.58231095041964
30
0
41
1
10
68.7146830947473
20
5.62428849874908
30
0
41
1
10
68.8638925385806
20
5.64459877415416
30
0
41
1
10
69.6101124858542
20
5.74285232180407
30
0
41
1
10
70.2076480721958
20
5.81094488264623
30
0
41
1
10
71.104307722338
20
5.89769980694791
30
0
41
1
10
71.4032444272754
20
5.92404960767925
30
0
41
1
10
71.8517099362907
20
5.95964118684822
30
0
41
1
10
72.0012225824707
20
5.97083783329953
30
0
41
1
10
72.300469449283
20
5.99179489189413
30
0
41
1
10
72.4501916526946
20
6.00156459895129
30
0
41
1
10
72.6
20
6.01063864435702
30
0
0
SPLINE
5
D1
100
AcDbEntity
8
1
62
256
6
ByLayer
370
18
48
1
60
0
100
AcDbSpline
70
4
71
3
72
62
73
58
40
0
40
0
40
0
40
0
40
0.0836295224095857
40
0.0836295224095857
40
0.125444283614379
40
0.125444283614379
40
0.146351664216776
40
0.146351664216776
40
0.167259044819173
40
0.167259044819173
40
0.250888567228764
40
0.250888567228764
40
0.292703328433559
40
0.292703328433559
40
0.313610709035957
40
0.313610709035957
40
0.334518089638356
40
0.334518089638356
40
0.355425470240754
40
0.355425470240754
40
0.376332850843152
40
0.376332850843152
40
0.418147612047948
40
0.418147612047948
40
0.459962373252743
40
0.459962373252743
40
0.480869753855141
40
0.480869753855141
40
0.50177713445754
40
0.50177713445754
40
0.58540665686713
40
0.58540665686713
40
0.627221418071926
40
0.627221418071926
40
0.648128798674325
40
0.648128798674325
40
0.669036179276724
40
0.669036179276724
40
0.689943559879123
40
0.689943559879123
40
0.710850940481522
40
0.710850940481522
40
0.752665701686319
40
0.752665701686319
40
0.794480462891117
40
0.794480462891117
40
0.815387843493515
40
0.815387843493515
40
0.836295224095913
40
0.836295224095913
40
0.919924746505505
40
0.919924746505505
40
0.961739507710301
40
0.961739507710301
40
0.982646888312699
40
0.982646888312699
40
1
40
1
40
1
40
1
41
1
10
72.6
20
1.58437716080755
30
0
41
1
10
71.9727693636478
20
1.8002957916647
30
0
41
1
10
71.345915023866
20
2.01133333487624
30
0
41
1
10
70.4064260663666
20
2.32139331163509
30
0
41
1
10
70.0933959483021
20
2.42366128494226
30
0
41
1
10
69.6240917110289
20
2.57552874263865
30
0
41
1
10
69.4676966950241
20
2.6258940084991
30
0
41
1
10
69.1549868908609
20
2.72610632650566
30
0
41
1
10
68.9986718263521
20
2.77595177698234
30
0
41
1
10
68.2169325252036
20
3.02295646321843
30
0
41
1
10
67.5910702341439
20
3.21362224479836
30
0
41
1
10
66.651826095867
20
3.48996958876427
30
0
41
1
10
66.3386693490026
20
3.58047164284324
30
0
41
1
10
65.8688608131478
20
3.7138724671187
30
0
41
1
10
65.7122450124875
20
3.7579453519192
30
0
41
1
10
65.3989890286193
20
3.845299191994
30
0
41
1
10
65.2423505153574
20
3.88858299244311
30
0
41
1
10
64.9289095782247
20
3.9740431982411
30
0
41
1
10
64.7720748195813
20
4.01622782398982
30
0
41
1
10
64.4584053090768
20
4.09946875201243
30
0
41
1
10
64.3016011835508
20
4.1405179514455
30
0
41
1
10
63.8312883416109
20
4.26198244071716
30
0
41
1
10
63.5178777368912
20
4.34071356853462
30
0
41
1
10
62.8913536242915
20
4.49378692120109
30
0
41
1
10
62.5782412744168
20
4.56813183311053
30
0
41
1
10
62.1088401444115
20
4.67641929888563
30
0
41
1
10
61.9524169381396
20
4.71197484177151
30
0
41
1
10
61.6396611799579
20
4.78200127345124
30
0
41
1
10
61.4833321221375
20
4.81647687889912
30
0
41
1
10
60.7015778797007
20
4.98554618064236
30
0
41
1
10
60.0757731547835
20
5.11018904823649
30
0
41
1
10
59.1367207455199
20
5.28189483546993
30
0
41
1
10
58.8236448493959
20
5.3365778390008
30
0
41
1
10
58.3539845631781
20
5.41479368926429
30
0
41
1
10
58.1974226565503
20
5.44022924980234
30
0
41
1
10
57.8842840042709
20
5.48981833267825
30
0
41
1
10
57.7277126468258
20
5.51397722738338
30
0
41
1
10
57.4144295241497
20
5.56084990957436
30
0
41
1
10
57.2577101208985
20
5.58355598629763
30
0
41
1
10
56.9441218077816
20
5.62752388394466
30
0
41
1
10
56.7872201366282
20
5.6487903680142
30
0
41
1
10
56.3166825989014
20
5.71039439951016
30
0
41
1
10
56.0031401040935
20
5.74854872975618
30
0
41
1
10
55.3763868420242
20
5.81910322188673
30
0
41
1
10
55.0631767758175
20
5.85150454966751
30
0
41
1
10
54.5936552810322
20
5.8958036365739
30
0
41
1
10
54.4371963997256
20
5.909851599696
30
0
41
1
10
54.1243781979475
20
5.93650190030735
30
0
41
1
10
53.9680256105744
20
5.94910708199308
30
0
41
1
10
53.1862142146276
20
6.00831437571514
30
0
41
1
10
52.5604379127643
20
6.0434347561914
30
0
41
1
10
51.6215299073446
20
6.07819059826838
30
0
41
1
10
51.3085190923886
20
6.08677874799486
30
0
41
1
10
50.8389831181584
20
6.09513231447727
30
0
41
1
10
50.6824671897793
20
6.09716120776588
30
0
41
1
10
50.3960379453437
20
6.09947873694409
30
0
41
1
10
50.2661309352371
20
6.10000377653799
30
0
41
1
10
50.1361913860903
20
6.09999988589615
30
0
0
SPLINE
5
D2
100
AcDbEntity
8
1
62
256
6
ByLayer
370
18
48
1
60
0
100
AcDbSpline
70
4
71
3
72
56
73
52
40
0
40
0
40
0
40
0
40
0.129542143716525
40
0.129542143716525
40
0.25908428743305
40
0.25908428743305
40
0.323855359291311
40
0.323855359291311
40
0.388626431149573
40
0.388626431149573
40
0.453397503007834
40
0.453397503007834
40
0.485783038936966
40
0.485783038936966
40
0.501975806901532
40
0.501975806901532
40
0.518168574866098
40
0.518168574866098
40
0.582939646724365
40
0.582939646724365
40
0.6153251826535
40
0.6153251826535
40
0.631517950618068
40
0.631517950618068
40
0.647710718582635
40
0.647710718582635
40
0.712481790440901
40
0.712481790440901
40
0.744867326370036
40
0.744867326370036
40
0.77725286229917
40
0.77725286229917
40
0.793445630263738
40
0.793445630263738
40
0.809638398228305
40
0.809638398228305
40
0.842023934157441
40
0.842023934157441
40
0.874409470086577
40
0.874409470086577
40
0.890602238051145
40
0.890602238051145
40
0.898698622033429
40
0.898698622033429
40
0.906795006015714
40
0.906795006015714
40
0.939180541944848
40
0.939180541944848
40
0.971566077873983
40
0.971566077873983
40
1
40
1
40
1
40
1
41
1
10
10
20
-5.20578260999304
30
0
41
1
10
9.62775517598433
20
-5.27199172504905
30
0
41
1
10
9.25859379786098
20
-5.34561711990912
30
0
41
1
10
8.52670410119629
20
-5.50785004679418
30
0
41
1
10
8.16397082648282
20
-5.59645045635151
30
0
41
1
10
7.6248673448203
20
-5.74016017461062
30
0
41
1
10
7.44599913026815
20
-5.78986015192677
30
0
41
1
10
7.08996938010461
20
-5.89273153291037
30
0
41
1
10
6.91280752161026
20
-5.94590295523648
30
0
41
1
10
6.56024785252018
20
-6.05556246223429
30
0
41
1
10
6.38484952237241
20
-6.11205073530897
30
0
41
1
10
6.12313998726174
20
-6.19912805404277
30
0
41
1
10
6.03613507580386
20
-6.22854435296517
30
0
41
1
10
5.90598657970557
20
-6.27323369970415
30
0
41
1
10
5.8626916581218
20
-6.28821484829871
30
0
41
1
10
5.77652399122832
20
-6.31825550517917
30
0
41
1
10
5.73361706285391
20
-6.33332672040009
30
0
41
1
10
5.5199839388028
20
-6.40891446275128
30
0
41
1
10
5.35195148661899
20
-6.47013164437251
30
0
41
1
10
5.10465725777584
20
-6.56257948637565
30
0
41
1
10
5.02302030721793
20
-6.59349803948751
30
0
41
1
10
4.90183670388123
20
-6.63995453017583
30
0
41
1
10
4.86165434548346
20
-6.65545302940555
30
0
41
1
10
4.78173021316726
20
-6.68646198213747
30
0
41
1
10
4.74195677791735
20
-6.70198488153054
30
0
41
1
10
4.54461047977938
20
-6.77944450042128
30
0
41
1
10
4.39232938548855
20
-6.84063081244045
30
0
41
1
10
4.17358551487678
20
-6.93015902814756
30
0
41
1
10
4.10229055185468
20
-6.95962337389662
30
0
41
1
10
3.96327006895029
20
-7.01755906930171
30
0
41
1
10
3.89554285952255
20
-7.04603126335169
30
0
41
1
10
3.79696775834754
20
-7.08777288181591
30
0
41
1
10
3.76461312459153
20
-7.10152509293769
30
0
41
1
10
3.70098495374594
20
-7.12866071456881
30
0
41
1
10
3.66965717154901
20
-7.14206753686543
30
0
41
1
10
3.57816735643411
20
-7.18133758819292
30
0
41
1
10
3.52030077370353
20
-7.20633439857806
30
0
41
1
10
3.4114832741252
20
-7.25352849221696
30
0
41
1
10
3.36052814417312
20
-7.27572777793148
30
0
41
1
10
3.28999256695178
20
-7.30650525442849
30
0
41
1
10
3.26746619326261
20
-7.31634296626231
30
0
41
1
10
3.23527474128608
20
-7.3304003142633
30
0
41
1
10
3.22480812316161
20
-7.33497063316091
30
0
41
1
10
3.20455869182186
20
-7.34380971078224
30
0
41
1
10
3.19475856239981
20
-7.34808603156463
30
0
41
1
10
3.14740629232466
20
-7.36873444390073
30
0
41
1
10
3.11478489993777
20
-7.38291250719954
30
0
41
1
10
3.06093020343496
20
-7.40606733495028
30
0
41
1
10
3.03969130129292
20
-7.41504658141565
30
0
41
1
10
3.01172829232434
20
-7.42637265297884
30
0
41
1
10
3.00386928419289
20
-7.42926417766668
30
0
41
1
10
3.00111683413181
20
-7.42978782300457
30
0
0
SPLINE
5
D3
100
AcDbEntity
8
1
62
256
6
ByLayer
370
18
48
1
60
0
100
AcDbSpline
70
4
71
3
72
56
73
52
40
0
40
0
40
0
40
0
40
0.133306711776236
40
0.133306711776236
40
0.266613423552472
40
0.266613423552472
40
0.333266779440589
40
0.333266779440589
40
0.399920135328706
40
0.399920135328706
40
0.466573491216823
40
0.466573491216823
40
0.499900169160882
40
0.499900169160882
40
0.516563508132912
40
0.516563508132912
40
0.533226847104942
40
0.533226847104942
40
0.599880202993055
40
0.599880202993055
40
0.633206880937112
40
0.633206880937112
40
0.649870219909141
40
0.649870219909141
40
0.66653355888117
40
0.66653355888117
40
0.733186914769291
40
0.733186914769291
40
0.766513592713351
40
0.766513592713351
40
0.79984027065741
40
0.79984027065741
40
0.816503609629439
40
0.816503609629439
40
0.833166948601468
40
0.833166948601468
40
0.866493626545526
40
0.866493626545526
40
0.899820304489584
40
0.899820304489584
40
0.916483643461612
40
0.916483643461612
40
0.924815312947626
40
0.924815312947626
40
0.933146982433641
40
0.933146982433641
40
0.966473660377699
40
0.966473660377699
40
0.999800338321756
40
0.999800338321756
40
1
40
1
40
1
40
1
41
1
10
10
20
5.20578260999304
30
0
41
1
10
9.62775517598436
20
5.27199172504905
30
0
41
1
10
9.25859379786101
20
5.34561711990912
30
0
41
1
10
8.52670410119626
20
5.50785004679415
30
0
41
1
10
8.1639708264828
20
5.59645045635151
30
0
41
1
10
7.6248673448203
20
5.74016017461062
30
0
41
1
10
7.44599913026815
20
5.78986015192677
30
0
41
1
10
7.08996938010461
20
5.89273153291037
30
0
41
1
10
6.91280752161029
20
5.94590295523648
30
0
41
1
10
6.56024785252021
20
6.05556246223426
30
0
41
1
10
6.38484952237241
20
6.11205073530897
30
0
41
1
10
6.12313998726174
20
6.19912805404277
30
0
41
1
10
6.03613507580388
20
6.22854435296517
30
0
41
1
10
5.9059865797056
20
6.27323369970415
30
0
41
1
10
5.86269165812178
20
6.28821484829871
30
0
41
1
10
5.77652399122829
20
6.31825550517917
30
0
41
1
10
5.73361706285391
20
6.33332672040009
30
0
41
1
10
5.5199839388028
20
6.40891446275126
30
0
41
1
10
5.35195148661899
20
6.47013164437249
30
0
41
1
10
5.10465725777584
20
6.56257948637565
30
0
41
1
10
5.02302030721796
20
6.59349803948751
30
0
41
1
10
4.90183670388126
20
6.63995453017583
30
0
41
1
10
4.86165434548349
20
6.65545302940558
30
0
41
1
10
4.78173021316726
20
6.6864619821375
30
0
41
1
10
4.74195677791738
20
6.70198488153054
30
0
41
1
10
4.54461047977938
20
6.77944450042128
30
0
41
1
10
4.39232938548855
20
6.84063081244051
30
0
41
1
10
4.17358551487681
20
6.93015902814759
30
0
41
1
10
4.10229055185468
20
6.95962337389662
30
0
41
1
10
3.96327006895032
20
7.01755906930174
30
0
41
1
10
3.89554285952255
20
7.04603126335169
30
0
41
1
10
3.79696775834759
20
7.08777288181591
30
0
41
1
10
3.76461312459156
20
7.10152509293772
30
0
41
1
10
3.70098495374597
20
7.12866071456881
30
0
41
1
10
3.66965717154903
20
7.14206753686545
30
0
41
1
10
3.57816735643411
20
7.18133758819295
30
0
41
1
10
3.52030077370353
20
7.20633439857806
30
0
41
1
10
3.4114832741252
20
7.25352849221696
30
0
41
1
10
3.36052814417314
20
7.27572777793151
30
0
41
1
10
3.28999256695181
20
7.30650525442852
30
0
41
1
10
3.26746619326258
20
7.31634296626231
30
0
41
1
10
3.2352747412861
20
7.3304003142633
30
0
41
1
10
3.22480812316161
20
7.33497063316093
30
0
41
1
10
3.20455869182189
20
7.34380971078227
30
0
41
1
10
3.19475856239981
20
7.34808603156463
30
0
41
1
10
3.14740629232466
20
7.36873444390071
30
0
41
1
10
3.11478489993775
20
7.38291250719954
30
0
41
1
10
3.06093020343496
20
7.40606733495028
30
0
41
1
10
3.03969130129292
20
7.41504658141565
30
0
41
1
10
3.02471217233116
20
7.42111369267559
30
0
41
1
10
3.02462320889043
20
7.42114971263814
30
0
41
1
10
3.0245344881948
20
7.42118562069652
30
0
0
SPLINE
5
D4
100
AcDbEntity
8
1
62
256
6
ByLayer
370
18
48
1
60
0
100
AcDbSpline
70
4
71
3
72
56
73
52
40
0
40
0
40
0
40
0
40
0.0245695241018165
40
0.0245695241018165
40
0.0321900746947702
40
0.0321900746947702
40
0.0398106252877241
40
0.0398106252877241
40
0.0550517264736318
40
0.0550517264736318
40
0.0855339288454479
40
0.0855339288454479
40
0.100775030031356
40
0.100775030031356
40
0.10839558062431
40
0.10839558062431
40
0.116016131217265
40
0.116016131217265
40
0.146498333589083
40
0.146498333589083
40
0.1769805359609
40
0.1769805359609
40
0.207462738332718
40
0.207462738332718
40
0.237944940704536
40
0.237944940704536
40
0.268427143076354
40
0.268427143076354
40
0.329391547819991
40
0.329391547819991
40
0.390355952563628
40
0.390355952563628
40
0.451320357307266
40
0.451320357307266
40
0.512284762050903
40
0.512284762050903
40
0.57324916679454
40
0.57324916679454
40
0.634213571538177
40
0.634213571538177
40
0.695177976281814
40
0.695177976281814
40
0.756142381025451
40
0.756142381025451
40
0.817106785769089
40
0.817106785769089
40
0.878071190512726
40
0.878071190512726
40
0.939035595256363
40
0.939035595256363
40
1
40
1
40
1
40
1
41
1
10
3.00012509659425
20
7.42943455964726
30
0
41
1
10
3.00096353966154
20
7.42835386622295
30
0
41
1
10
3.00609010228146
20
7.42528355681657
30
0
41
1
10
3.01841811960816
20
7.41865955994553
30
0
41
1
10
3.02174937586557
20
7.41690017608175
30
0
41
1
10
3.02924006771113
20
7.41299823366379
30
0
41
1
10
3.03340909706762
20
7.41085079742575
30
0
41
1
10
3.04708857604675
20
7.40387060555804
30
0
41
1
10
3.05774421704174
20
7.398513349377
30
0
41
1
10
3.09404385359562
20
7.38046674592257
30
0
41
1
10
3.12400911566044
20
7.36580741420011
30
0
41
1
10
3.176762930807
20
7.34031370179304
30
0
41
1
10
3.19565166983455
20
7.33123035108386
30
0
41
1
10
3.22585943064789
20
7.31677176262707
30
0
41
1
10
3.23625461637454
20
7.31180690697514
30
0
41
1
10
3.25753229798713
20
7.30166585432667
30
0
41
1
10
3.26842578394832
20
7.29648437132573
30
0
41
1
10
3.3241102094633
20
7.2700501305294
30
0
41
1
10
3.37253622371878
20
7.24722447851843
30
0
41
1
10
3.47599121321235
20
7.19879718583053
30
0
41
1
10
3.53102517473661
20
7.1731933035698
30
0
41
1
10
3.64686459043907
20
7.11963406901259
30
0
41
1
10
3.70767288459879
20
7.09167743956712
30
0
41
1
10
3.83442320851819
20
7.03373914556724
30
0
41
1
10
3.8996927989572
20
7.00406490901526
30
0
41
1
10
4.03330258776742
20
6.94363847359168
30
0
41
1
10
4.10167022389655
20
6.91287371137972
30
0
41
1
10
4.31082030467346
20
6.81921225837101
30
0
41
1
10
4.45562296306195
20
6.75496399598933
30
0
41
1
10
4.75352526364742
20
6.62385601026531
30
0
41
1
10
4.90668754169843
20
6.55696836599836
30
0
41
1
10
5.21943213230927
20
6.42122094404726
30
0
41
1
10
5.37756914322514
20
6.35298585313677
30
0
41
1
10
5.6965084497927
20
6.21587053300186
30
0
41
1
10
5.85731427148895
20
6.1469882986305
30
0
41
1
10
6.18094003148374
20
6.00852372669704
30
0
41
1
10
6.34376155242197
20
5.93894007857861
30
0
41
1
10
6.67089575722045
20
5.79893889358419
30
0
41
1
10
6.83520905014228
20
5.72852025742279
30
0
41
1
10
7.16490227896199
20
5.58667108022556
30
0
41
1
10
7.330282278862
20
5.51523943691839
30
0
41
1
10
7.66177416767982
20
5.37117432896102
30
0
41
1
10
7.82788581047956
20
5.29853967312317
30
0
41
1
10
8.16059956166009
20
5.15190087788642
30
0
41
1
10
8.32720128241155
20
5.07789545848706
30
0
41
1
10
8.66075723759741
20
4.92840686913101
30
0
41
1
10
8.82771109080716
20
4.85292240157577
30
0
41
1
10
9.16194893318666
20
4.70046584872034
30
0
41
1
10
9.32923268087617
20
4.62349257443597
30
0
41
1
10
9.66423335192928
20
4.46818477323342
30
0
41
1
10
9.83195027645507
20
4.38984931727833
30
0
41
1
10
10
20
4.31098071588355
30
0
0
SPLINE
5
D5
100
AcDbEntity
8
SK1
62
256
6
ByLayer
370
18
48
1
60
0
100
AcDbSpline
70
4
71
3
72
31
73
27
40
0
40
0
40
0
40
0
40
0.125000000000001
40
0.125000000000001
40
0.250000000000003
40
0.250000000000003
40
0.375000000000004
40
0.375000000000004
40
0.500000000000005
40
0.500000000000005
40
0.562500000000006
40
0.562500000000006
40
0.625000000000007
40
0.687500000000007
40
0.687500000000007
40
0.718750000000008
40
0.718750000000008
40
0.750000000000008
40
0.750000000000008
40
0.875000000000003
40
0.875000000000003
40
0.937500000000001
40
0.937500000000001
40
0.96875
40
0.96875
40
1
40
1
40
1
40
1
41
1
10
-41.322846649578
20
-3.33034885603652
30
0
41
1
10
-41.2982183123488
20
-3.38803258877206
30
0
41
1
10
-41.2717267680571
20
-3.44436940557552
30
0
41
1
10
-41.2144104214618
20
-3.55410223850021
30
0
41
1
10
-41.1835888583784
20
-3.60749982049498
30
0
41
1
10
-41.1168132306847
20
-3.71101722712197
30
0
41
1
10
-41.0808655609651
20
-3.76114016706765
30
0
41
1
10
-41.0027064087883
20
-3.85761356828161
30
0
41
1
10
-40.9605092263353
20
-3.90397104557275
30
0
41
1
10
-40.8912034928284
20
-3.97008360471079
30
0
41
1
10
-40.8672955191393
20
-3.99134752800094
30
0
41
1
10
-40.8179396702517
20
-4.0320451182069
30
0
41
1
10
-40.7669822244289
20
-4.07097190163014
30
0
41
1
10
-40.7125214515213
20
-4.10609739988001
30
0
41
1
10
-40.670214663531
20
-4.13088316998613
30
0
41
1
10
-40.655868463324
20
-4.13888495820467
30
0
41
1
10
-40.6266576666279
20
-4.15434007152678
30
0
41
1
10
-40.6118286726114
20
-4.16177231338193
30
0
41
1
10
-40.5371050103957
20
-4.19714033207811
30
0
41
1
10
-40.4749740708276
20
-4.22001118907693
30
0
41
1
10
-40.3778268407505
20
-4.24538536593542
30
0
41
1
10
-40.3447830766741
20
-4.25234770684881
30
0
41
1
10
-40.2941359057272
20
-4.26035999417425
30
0
41
1
10
-40.2770624559109
20
-4.2626233218524
30
0
41
1
10
-40.2428795071773
20
-4.26626974627274
30
0
41
1
10
-40.22572940542
20
-4.26766016692457
30
0
41
1
10
-40.2085199217113
20
-4.26861273885882
30
0
0
SPLINE
5
D6
100
AcDbEntity
8
SK1
62
256
6
ByLayer
370
18
48
1
60
0
100
AcDbSpline
70
4
71
3
72
28
73
24
40
0
40
0
40
0
40
0
40
0.125000000000001
40
0.125000000000001
40
0.187500000000002
40
0.187500000000002
40
0.250000000000004
40
0.250000000000004
40
0.375000000000006
40
0.375000000000006
40
0.437500000000007
40
0.437500000000007
40
0.500000000000008
40
0.500000000000008
40
0.625000000000008
40
0.625000000000008
40
0.687500000000007
40
0.687500000000007
40
0.750000000000006
40
0.750000000000006
40
0.875000000000003
40
0.875000000000003
40
1
40
1
40
1
40
1
41
1
10
-40.2085199217113
20
4.26861273885839
30
0
41
1
10
-40.2770078954797
20
4.26482182201573
30
0
41
1
10
-40.3435159701705
20
4.25421034005257
30
0
41
1
10
-40.4406186748427
20
4.22904991330012
30
0
41
1
10
-40.4725401749683
20
4.21911183367274
30
0
41
1
10
-40.5355147747093
20
4.19619029939315
30
0
41
1
10
-40.566119882014
20
4.18336793011164
30
0
41
1
10
-40.6552476470727
20
4.1412976123425
30
0
41
1
10
-40.7112423032074
20
4.10841569067671
30
0
41
1
10
-40.7908488886551
20
4.05271054233145
30
0
41
1
10
-40.8163780326975
20
4.03326066129199
30
0
41
1
10
-40.8655003190458
20
3.99289517941517
30
0
41
1
10
-40.8891220708721
20
3.97195852720529
30
0
41
1
10
-40.9574656057434
20
3.90707900711414
30
0
41
1
10
-40.9996786915665
20
3.86107582099058
30
0
41
1
10
-41.0588219892095
20
3.78847288665983
30
0
41
1
10
-41.0778365663648
20
3.76366951078927
30
0
41
1
10
-41.1145716668491
20
3.71292056409152
30
0
41
1
10
-41.1321793223817
20
3.68713127494576
30
0
41
1
10
-41.1829286385602
20
3.60864716973444
30
0
41
1
10
-41.2140187173667
20
3.55482217194611
30
0
41
1
10
-41.2716651020537
20
3.44451721966016
30
0
41
1
10
-41.2982170704349
20
3.38803549754442
30
0
41
1
10
-41.322846649578
20
3.33034885603652
30
0
0
SPLINE
5
D7
100
AcDbEntity
8
SK1
62
256
6
ByLayer
370
18
48
1
60
0
100
AcDbSpline
70
4
71
3
72
28
73
24
40
0
40
0
40
0
40
0
40
0.250000000000005
40
0.250000000000005
40
0.312500000000006
40
0.312500000000006
40
0.375000000000007
40
0.375000000000007
40
0.5
40
0.5
40
0.624999999999992
40
0.624999999999992
40
0.65624999999999
40
0.65624999999999
40
0.687499999999989
40
0.687499999999989
40
0.749999999999985
40
0.749999999999985
40
0.874999999999993
40
0.874999999999993
40
0.937499999999996
40
0.937499999999996
40
1
40
1
40
1
40
1
41
1
10
-13.8090444171455
20
4.91381127456395
30
0
41
1
10
-13.8730250304025
20
4.99046340860016
30
0
41
1
10
-13.9444892601168
20
5.06075108627354
30
0
41
1
10
-14.0453442110783
20
5.13975030164355
30
0
41
1
10
-14.0660970839937
20
5.15510348386371
30
0
41
1
10
-14.108849096648
20
5.18487572838717
30
0
41
1
10
-14.1308767716723
20
5.19931243837365
30
0
41
1
10
-14.1987969608565
20
5.24103142381006
30
0
41
1
10
-14.2458698834865
20
5.2663349057469
30
0
41
1
10
-14.3438356225248
20
5.3117780788902
30
0
41
1
10
-14.3947259977568
20
5.33192086270162
30
0
41
1
10
-14.4609718435402
20
5.35364247707062
30
0
41
1
10
-14.4743531694453
20
5.35781325453198
30
0
41
1
10
-14.5013886431665
20
5.36579875975136
30
0
41
1
10
-14.5150720561229
20
5.36962082906823
30
0
41
1
10
-14.5562656757263
20
5.38046558406404
30
0
41
1
10
-14.5839366053628
20
5.38687714356516
30
0
41
1
10
-14.6675758493674
20
5.40367498823224
30
0
41
1
10
-14.7241681343673
20
5.41163572791979
30
0
41
1
10
-14.8103509838265
20
5.4186001914598
30
0
41
1
10
-14.839294928931
20
5.42008953290443
30
0
41
1
10
-14.8976311188396
20
5.42134736085288
30
0
41
1
10
-14.9268902583505
20
5.42110969918963
30
0
41
1
10
-14.9560809879695
20
5.42000303685279
30
0
0
SPLINE
5
D8
100
AcDbEntity
8
SK1
62
256
6
ByLayer
370
18
48
1
60
0
100
AcDbSpline
70
4
71
3
72
29
73
25
40
0
40
0
40
0
40
0
40
0.125000000000023
40
0.125000000000023
40
0.250000000000046
40
0.250000000000046
40
0.312500000000058
40
0.312500000000058
40
0.375000000000069
40
0.375000000000069
40
0.500000000000078
40
0.500000000000078
40
0.562500000000082
40
0.562500000000082
40
0.593750000000078
40
0.593750000000078
40
0.625000000000073
40
0.750000000000046
40
0.750000000000046
40
0.875000000000019
40
0.875000000000019
40
0.937500000000009
40
0.937500000000009
40
1
40
1
40
1
40
1
41
1
10
-14.9560809879695
20
-5.42000303685279
30
0
41
1
10
-14.8976517734494
20
-5.42221817199751
30
0
41
1
10
-14.8398504554356
20
-5.42094359808488
30
0
41
1
10
-14.7254362798095
20
-5.41177794727187
30
0
41
1
10
-14.6688237697278
20
-5.40388482792244
30
0
41
1
10
-14.5847891358201
20
-5.38706822462967
30
0
41
1
10
-14.5568094402394
20
-5.38059638684285
30
0
41
1
10
-14.5019506989544
20
-5.36617855475819
30
0
41
1
10
-14.4750261228712
20
-5.35823183005425
30
0
41
1
10
-14.395685497739
20
-5.33227249172961
30
0
41
1
10
-14.3446977675387
20
-5.31214836042813
30
0
41
1
10
-14.2708592175646
20
-5.27794120061839
30
0
41
1
10
-14.2466881934933
20
-5.26586656540695
30
0
41
1
10
-14.2110774186189
20
-5.24675579357759
30
0
41
1
10
-14.1993109081088
20
-5.24021577958535
30
0
41
1
10
-14.1761490644524
20
-5.22689762154863
30
0
41
1
10
-14.1190707984856
20
-5.19295097150575
30
0
41
1
10
-14.0659423088902
20
-5.15585567198329
30
0
41
1
10
-13.9853722790436
20
-5.09280324282167
30
0
41
1
10
-13.9473081932622
20
-5.05942484453377
30
0
41
1
10
-13.8932201680201
20
-5.0067258138026
30
0
41
1
10
-13.8756933478446
20
-4.98872006168716
30
0
41
1
10
-13.8416025059636
20
-4.95184585609991
30
0
41
1
10
-13.8250535884703
20
-4.9329911023857
30
0
41
1
10
-13.8090444171455
20
-4.91381127456395
30
0
0
SPLINE
5
D9
100
AcDbEntity
8
1
62
256
6
ByLayer
370
13
48
1
60
0
100
AcDbSpline
70
4
71
3
72
84
73
80
40
0
40
0
40
0
40
0
40
0.0312500000000011
40
0.0312500000000011
40
0.0625000000000022
40
0.0625000000000022
40
0.0937500000000034
40
0.0937500000000034
40
0.125000000000004
40
0.125000000000004
40
0.156250000000006
40
0.156250000000006
40
0.187500000000007
40
0.187500000000007
40
0.218750000000008
40
0.218750000000008
40
0.250000000000009
40
0.250000000000009
40
0.28125000000001
40
0.28125000000001
40
0.289062500000011
40
0.289062500000011
40
0.292968750000011
40
0.292968750000011
40
0.296875000000011
40
0.312500000000012
40
0.312500000000012
40
0.343750000000013
40
0.343750000000013
40
0.375000000000014
40
0.375000000000014
40
0.406250000000015
40
0.406250000000015
40
0.437500000000016
40
0.437500000000016
40
0.468750000000017
40
0.468750000000017
40
0.500000000000018
40
0.500000000000018
40
0.531250000000019
40
0.531250000000019
40
0.562500000000021
40
0.562500000000021
40
0.578125000000021
40
0.578125000000021
40
0.585937500000021
40
0.585937500000021
40
0.593750000000021
40
0.593750000000021
40
0.62500000000002
40
0.62500000000002
40
0.656250000000019
40
0.656250000000019
40
0.687500000000018
40
0.687500000000018
40
0.718750000000017
40
0.718750000000017
40
0.750000000000016
40
0.750000000000016
40
0.781250000000015
40
0.781250000000015
40
0.812500000000014
40
0.812500000000014
40
0.843750000000013
40
0.843750000000013
40
0.859375000000013
40
0.859375000000013
40
0.867187500000012
40
0.871093750000012
40
0.871093750000012
40
0.875000000000012
40
0.875000000000012
40
0.906250000000009
40
0.906250000000009
40
0.937500000000006
40
0.937500000000006
40
0.968750000000003
40
0.968750000000003
40
1
40
1
40
1
40
1
41
1
10
73.6024866050242
20
6.25
30
0
41
1
10
73.6662647240952
20
6.25
30
0
41
1
10
73.7300428431662
20
6.22586619107895
30
0
41
1
10
73.8575990813081
20
6.12133277740759
30
0
41
1
10
73.921377200379
20
6.04087280990868
30
0
41
1
10
74.048933438521
20
5.81900017860852
30
0
41
1
10
74.1127115575919
20
5.67754350636454
30
0
41
1
10
74.2402677957338
20
5.33406278716279
30
0
41
1
10
74.3040459148048
20
5.13203123861371
30
0
41
1
10
74.4316021529467
20
4.67370398312477
30
0
41
1
10
74.4953802720177
20
4.41744670434997
30
0
41
1
10
74.6229365101595
20
3.86244548001685
30
0
41
1
10
74.6867146292306
20
3.56377675292654
30
0
41
1
10
74.8142708673724
20
2.93944556237435
30
0
41
1
10
74.8780489864433
20
2.61387061863749
30
0
41
1
10
75.0056052245853
20
1.95239023324746
30
0
41
1
10
75.0693833436563
20
1.61655770064957
30
0
41
1
10
75.1969395817982
20
0.949890158573055
30
0
41
1
10
75.2607177008692
20
0.619097000181199
30
0
41
1
10
75.3404403497079
20
0.216367371775874
30
0
41
1
10
75.3563848794756
20
0.136350635375123
30
0
41
1
10
75.3803016741272
20
0.0172340892727334
30
0
41
1
10
75.388273939011
20
-0.0222493433880686
30
0
41
1
10
75.4042184687787
20
-0.101685878236481
30
0
41
1
10
75.4440797931981
20
-0.301029498643146
30
0
41
1
10
75.4839411176175
20
-0.503926542677135
30
0
41
1
10
75.5796082962239
20
-0.995682580971589
30
0
41
1
10
75.6433864152949
20
-1.33002392690062
30
0
41
1
10
75.7709426534368
20
-1.99827604865817
30
0
41
1
10
75.8347207725078
20
-2.33213219159893
30
0
41
1
10
75.9622770106496
20
-2.98337162117329
30
0
41
1
10
76.0260551297206
20
-3.30067373150922
30
0
41
1
10
76.1536113678625
20
-3.90228108014548
30
0
41
1
10
76.2173894869335
20
-4.18650010047836
30
0
41
1
10
76.3449457250754
20
-4.70754158622094
30
0
41
1
10
76.4087238441463
20
-4.94430055487388
30
0
41
1
10
76.5362800822882
20
-5.36049892553342
30
0
41
1
10
76.6000582013592
20
-5.53991735888704
30
0
41
1
10
76.7276144395011
20
-5.83731748482424
30
0
41
1
10
76.7913925585721
20
-5.95532250798476
30
0
41
1
10
76.9189487967141
20
-6.13153730642409
30
0
41
1
10
76.982726915785
20
-6.18979987778653
30
0
41
1
10
77.0783940943915
20
-6.23698942586441
30
0
41
1
10
77.1102831539269
20
-6.24604859500906
30
0
41
1
10
77.1581167432302
20
-6.25041366152772
30
0
41
1
10
77.174061272998
20
-6.25035098815542
30
0
41
1
10
77.2059503325334
20
-6.24718141948151
30
0
41
1
10
77.2218948623011
20
-6.24405752648778
30
0
41
1
10
77.3016175111398
20
-6.2204065029996
30
0
41
1
10
77.3653956302107
20
-6.17566373548468
30
0
41
1
10
77.4929518683527
20
-6.02762701340797
30
0
41
1
10
77.5567299874237
20
-5.92427635900816
30
0
41
1
10
77.6842862255656
20
-5.65610123176373
30
0
41
1
10
77.7480643446365
20
-5.49124458215562
30
0
41
1
10
77.8756205827784
20
-5.10265635388109
30
0
41
1
10
77.9393987018494
20
-4.87893455817297
30
0
41
1
10
78.0669549399913
20
-4.38113016583745
30
0
41
1
10
78.1307330590622
20
-4.10710210033656
30
0
41
1
10
78.2582892972042
20
-3.5221420124081
30
0
41
1
10
78.3220674162751
20
-3.21129323998386
30
0
41
1
10
78.449623654417
20
-2.56894614720429
30
0
41
1
10
78.513401773488
20
-2.23753261069706
30
0
41
1
10
78.64095801163
20
-1.57047847467342
30
0
41
1
10
78.7047361307009
20
-1.23490009434067
30
0
41
1
10
78.8004033093074
20
-0.739088482630109
30
0
41
1
10
78.8322923688428
20
-0.575054855577577
30
0
41
1
10
78.880125958146
20
-0.33195440228684
30
0
41
1
10
78.9040427527976
20
-0.211138976535068
30
0
41
1
10
78.9279595474492
20
-0.0916059460135443
30
0
41
1
10
78.9439040772169
20
-0.0122204841532891
30
0
41
1
10
78.9518763421008
20
0.0272662424665384
30
0
41
1
10
79.0236267260557
20
0.384845125725803
30
0
41
1
10
79.0874048451267
20
0.712482762820713
30
0
41
1
10
79.2149610832686
20
1.37607766310373
30
0
41
1
10
79.2787392023396
20
1.71200126513097
30
0
41
1
10
79.4062954404815
20
2.37752512859035
30
0
41
1
10
79.4700735595524
20
2.70705898348666
30
0
41
1
10
79.5976297976943
20
3.34329004764263
30
0
41
1
10
79.6614079167653
20
3.64990101107463
30
0
41
1
10
79.7251860358363
20
3.93707935740994
30
0
0
SPLINE
5
DA
100
AcDbEntity
8
1
62
256
6
ByLayer
370
13
48
1
60
0
100
AcDbSpline
70
4
71
3
72
86
73
82
40
0
40
0
40
0
40
0
40
0.0312499999999998
40
0.0312499999999998
40
0.0624999999999995
40
0.0624999999999995
40
0.0937499999999993
40
0.0937499999999993
40
0.124999999999999
40
0.124999999999999
40
0.156249999999999
40
0.156249999999999
40
0.187499999999999
40
0.187499999999999
40
0.218749999999999
40
0.218749999999999
40
0.249999999999998
40
0.249999999999998
40
0.265624999999998
40
0.265624999999998
40
0.273437499999998
40
0.273437499999998
40
0.281249999999998
40
0.281249999999998
40
0.312499999999997
40
0.312499999999997
40
0.343749999999996
40
0.343749999999996
40
0.374999999999995
40
0.374999999999995
40
0.406249999999993
40
0.406249999999993
40
0.437499999999992
40
0.437499999999992
40
0.468749999999991
40
0.468749999999991
40
0.49999999999999
40
0.49999999999999
40
0.531249999999989
40
0.531249999999989
40
0.535156249999989
40
0.535156249999989
40
0.539062499999988
40
0.539062499999988
40
0.546874999999988
40
0.546874999999988
40
0.562499999999988
40
0.562499999999988
40
0.593749999999987
40
0.593749999999987
40
0.624999999999986
40
0.624999999999986
40
0.656249999999985
40
0.656249999999985
40
0.687499999999984
40
0.687499999999984
40
0.718749999999983
40
0.718749999999983
40
0.749999999999983
40
0.749999999999983
40
0.781249999999982
40
0.781249999999982
40
0.796874999999981
40
0.796874999999981
40
0.804687499999981
40
0.804687499999981
40
0.808593749999981
40
0.808593749999981
40
0.812499999999981
40
0.812499999999981
40
0.843749999999985
40
0.843749999999985
40
0.874999999999988
40
0.874999999999988
40
0.906249999999991
40
0.906249999999991
40
0.937499999999994
40
0.937499999999994
40
0.968749999999997
40
0.968749999999997
40
1
40
1
40
1
40
1
41
1
10
73.1012434806418
20
6.25
30
0
41
1
10
73.1702428822584
20
6.25
30
0
41
1
10
73.2392422838749
20
6.22173010777277
30
0
41
1
10
73.3772410871081
20
6.09866522289244
30
0
41
1
10
73.4462404887248
20
6.00378180664785
30
0
41
1
10
73.5842392919581
20
5.74222673912823
30
0
41
1
10
73.6532386935746
20
5.57549713037426
30
0
41
1
10
73.7912374968078
20
5.17221476057941
30
0
41
1
10
73.8602368984245
20
4.93566733771576
30
0
41
1
10
73.9982357016577
20
4.40284544650356
30
0
41
1
10
74.0672351032742
20
4.10664847263206
30
0
41
1
10
74.2052339065075
20
3.47151299346788
30
0
41
1
10
74.2742333081242
20
3.13269818974385
30
0
41
1
10
74.4122321113574
20
2.43305270732176
30
0
41
1
10
74.4812315129739
20
2.07234517128174
30
0
41
1
10
74.6192303162071
20
1.3494906395893
30
0
41
1
10
74.6882297178238
20
0.987426768576057
30
0
41
1
10
74.7917288202487
20
0.456151459217409
30
0
41
1
10
74.826228521057
20
0.280995675165059
30
0
41
1
10
74.8779780722694
20
0.0224199494072934
30
0
41
1
10
74.8952279226736
20
-0.0628594343736495
30
0
41
1
10
74.9297276234819
20
-0.235671695533938
30
0
41
1
10
74.9469774738861
20
-0.322753333468569
30
0
41
1
10
75.0332267259069
20
-0.76103414536226
30
0
41
1
10
75.1022261275235
20
-1.12104005562352
30
0
41
1
10
75.2402249307567
20
-1.84374487376834
30
0
41
1
10
75.3092243323733
20
-2.20637178656869
30
0
41
1
10
75.4472231356065
20
-2.9143194730417
30
0
41
1
10
75.5162225372231
20
-3.25952297976281
30
0
41
1
10
75.6542213404563
20
-3.91162984660843
30
0
41
1
10
75.7232207420729
20
-4.21840555000435
30
0
41
1
10
75.8612195453062
20
-4.77550003955338
30
0
41
1
10
75.9302189469228
20
-5.02572836351075
30
0
41
1
10
76.0682177501559
20
-5.45786286603072
30
0
41
1
10
76.1372171517725
20
-5.63974807835629
30
0
41
1
10
76.2752159550058
20
-5.93139079611177
30
0
41
1
10
76.3442153566224
20
-6.0411951752821
30
0
41
1
10
76.4822141598556
20
-6.19250175603142
30
0
41
1
10
76.5512135614723
20
-6.23408907935379
30
0
41
1
10
76.6288378882909
20
-6.2477120303692
30
0
41
1
10
76.637462813493
20
-6.24876758026477
30
0
41
1
10
76.6547126638972
20
-6.24998420157499
30
0
41
1
10
76.6633375890992
20
-6.2501467939187
30
0
41
1
10
76.6892123647054
20
-6.24931517422999
30
0
41
1
10
76.7064622151096
20
-6.24698797334744
30
0
41
1
10
76.758211766322
20
-6.2344281334353
30
0
41
1
10
76.7927114671303
20
-6.21860985181542
30
0
41
1
10
76.8962105695553
20
-6.14696450337061
30
0
41
1
10
76.9652099711718
20
-6.06676083469785
30
0
41
1
10
77.103208774405
20
-5.83513725265962
30
0
41
1
10
77.1722081760217
20
-5.68364984682529
30
0
41
1
10
77.3102069792549
20
-5.30976200874008
30
0
41
1
10
77.3792063808715
20
-5.08735172643858
30
0
41
1
10
77.5172051841047
20
-4.5800281340068
30
0
41
1
10
77.5862045857213
20
-4.29517814263289
30
0
41
1
10
77.7242033889546
20
-3.67871940150891
30
0
41
1
10
77.7932027905712
20
-3.34722820799718
30
0
41
1
10
77.9312015938044
20
-2.65774546626426
30
0
41
1
10
78.000200995421
20
-2.29988111297277
30
0
41
1
10
78.1381997986542
20
-1.57856875176179
30
0
41
1
10
78.2071992002709
20
-1.21521440427574
30
0
41
1
10
78.3106983026958
20
-0.67957810614439
30
0
41
1
10
78.3451980035041
20
-0.502567772228502
30
0
41
1
10
78.3969475547165
20
-0.240711332349775
30
0
41
1
10
78.4141974051207
20
-0.154033206050002
30
0
41
1
10
78.4400721807269
20
-0.0250736416449797
30
0
41
1
10
78.448697105929
20
0.0176361416450845
30
0
41
1
10
78.4659469563331
20
0.103568371764396
30
0
41
1
10
78.4745718815352
20
0.146711263332122
30
0
41
1
10
78.5521962083538
20
0.536481590663982
30
0
41
1
10
78.6211956099705
20
0.893707141052062
30
0
41
1
10
78.7591944132038
20
1.61463864226448
30
0
41
1
10
78.8281938148203
20
1.97828404934512
30
0
41
1
10
78.9661926180535
20
2.69268431329383
30
0
41
1
10
79.0351920196701
20
3.0433293816169
30
0
41
1
10
79.1731908229034
20
3.71064068879144
30
0
41
1
10
79.24219022452
20
4.02717754119581
30
0
41
1
10
79.3801890277531
20
4.6071952806879
30
0
41
1
10
79.4491884293698
20
4.87057424735411
30
0
41
1
10
79.587187232603
20
5.33086662890025
30
0
41
1
10
79.6561866342196
20
5.52774334909466
30
0
41
1
10
79.7251860358363
20
5.68861700654244
30
0
0
SPLINE
5
DB
100
AcDbEntity
8
1
62
256
6
ByLayer
370
13
48
1
60
0
100
AcDbSpline
70
4
71
3
72
70
73
66
40
0
40
0
40
0
40
0
40
0.0312499999999999
40
0.0312499999999999
40
0.0624999999999999
40
0.0624999999999999
40
0.0937499999999998
40
0.0937499999999998
40
0.125
40
0.125
40
0.15625
40
0.15625
40
0.1875
40
0.1875
40
0.21875
40
0.21875
40
0.25
40
0.25
40
0.28125
40
0.28125
40
0.3125
40
0.3125
40
0.34375
40
0.34375
40
0.375
40
0.375
40
0.40625
40
0.40625
40
0.437499999999999
40
0.437499999999999
40
0.468749999999999
40
0.468749999999999
40
0.499999999999999
40
0.499999999999999
40
0.531249999999999
40
0.531249999999999
40
0.562499999999999
40
0.562499999999999
40
0.593749999999999
40
0.593749999999999
40
0.624999999999999
40
0.624999999999999
40
0.656249999999999
40
0.656249999999999
40
0.687499999999999
40
0.687499999999999
40
0.71875
40
0.71875
40
0.75
40
0.75
40
0.78125
40
0.78125
40
0.8125
40
0.8125
40
0.84375
40
0.84375
40
0.875
40
0.875
40
0.90625
40
0.90625
40
0.9375
40
0.9375
40
0.96875
40
0.96875
40
1
40
1
40
1
40
1
41
1
10
72.6000003562593
20
6.25
30
0
41
1
10
72.6742210404216
20
6.25
30
0
41
1
10
72.7484417245838
20
6.21726033285515
30
0
41
1
10
72.8968830929083
20
6.07405679383257
30
0
41
1
10
72.9711037770705
20
5.96346741183493
30
0
41
1
10
73.1195451453951
20
5.65888644281975
30
0
41
1
10
73.1937658295574
20
5.46482299137895
30
0
41
1
10
73.3422071978819
20
4.99762110909506
30
0
41
1
10
73.4164278820442
20
4.72451464051247
30
0
41
1
10
73.5648692503686
20
4.11432049043589
30
0
41
1
10
73.6390899345309
20
3.77737017854648
30
0
41
1
10
73.7875313028554
20
3.06275227473125
30
0
41
1
10
73.8617519870177
20
2.68527022736109
30
0
41
1
10
74.0101933553422
20
1.91591433458265
30
0
41
1
10
74.0844140395045
20
1.52419643302673
30
0
41
1
10
74.232855407829
20
0.750342534671688
30
0
41
1
10
74.3070760919913
20
0.368285216182301
30
0
41
1
10
74.4555174603158
20
-0.368284332298828
30
0
41
1
10
74.5297381444781
20
-0.750341613390759
30
0
41
1
10
74.6781795128026
20
-1.52419549705829
30
0
41
1
10
74.7524001969649
20
-1.91591339981818
30
0
41
1
10
74.9008415652894
20
-2.68526931567135
30
0
41
1
10
74.9750622494516
20
-3.06275138496147
30
0
41
1
10
75.1235036177761
20
-3.77736935323315
30
0
41
1
10
75.1977243019384
20
-4.1143197076527
30
0
41
1
10
75.3461656702629
20
-4.72451395882956
30
0
41
1
10
75.4203863544252
20
-4.9976204859145
30
0
41
1
10
75.5688277227498
20
-5.46482249327482
30
0
41
1
10
75.643048406912
20
-5.6588860111975
30
0
41
1
10
75.7914897752364
20
-5.96346711246267
30
0
41
1
10
75.8657104593987
20
-6.07405656016149
30
0
41
1
10
76.0141518277232
20
-6.21726022283755
30
0
41
1
10
76.0883725118856
20
-6.24999994791659
30
0
41
1
10
76.2368138802101
20
-6.25000005208327
30
0
41
1
10
76.3110345643723
20
-6.21726044287257
30
0
41
1
10
76.4594759326968
20
-6.0740570275035
30
0
41
1
10
76.5336966168591
20
-5.96346771120702
30
0
41
1
10
76.6821379851837
20
-5.65888687444183
30
0
41
1
10
76.7563586693459
20
-5.46482348948291
30
0
41
1
10
76.9048000376704
20
-4.99762173227549
30
0
41
1
10
76.9790207218327
20
-4.72451532219526
30
0
41
1
10
77.1274620901572
20
-4.11432127321896
30
0
41
1
10
77.2016827743194
20
-3.77737100385971
30
0
41
1
10
77.3501241426439
20
-3.06275316450095
30
0
41
1
10
77.4243448268062
20
-2.68527113905077
30
0
41
1
10
77.5727861951308
20
-1.91591526934712
30
0
41
1
10
77.647006879293
20
-1.52419736899515
30
0
41
1
10
77.7954482476175
20
-0.750343455952674
30
0
41
1
10
77.8696689317798
20
-0.368286121639414
30
0
41
1
10
78.0181103001044
20
0.368283469988938
30
0
41
1
10
78.0923309842665
20
0.75034069210983
30
0
41
1
10
78.240772352591
20
1.52419456108987
30
0
41
1
10
78.3149930367533
20
1.91591246505368
30
0
41
1
10
78.4634344050779
20
2.68526840398158
30
0
41
1
10
78.5376550892401
20
3.06275049519166
30
0
41
1
10
78.6860964575646
20
3.77736852791975
30
0
41
1
10
78.7603171417269
20
4.11431892486939
30
0
41
1
10
78.9087585100514
20
4.72451327714649
30
0
41
1
10
78.9829791942136
20
4.99761986273379
30
0
41
1
10
79.1314205625382
20
5.46482199517055
30
0
41
1
10
79.2056412467005
20
5.6588855795751
30
0
41
1
10
79.3540826150249
20
5.96346681309026
30
0
41
1
10
79.4283032991872
20
6.07405632649028
30
0
41
1
10
79.5767446675117
20
6.21726011281984
30
0
41
1
10
79.650965351674
20
6.24999989583307
30
0
41
1
10
79.7251860358362
20
6.24999999999974
30
0
0
SPLINE
5
DC
100
AcDbEntity
8
1
62
256
6
ByLayer
370
13
48
1
60
0
100
AcDbSpline
70
4
71
3
72
86
73
82
40
0
40
0
40
0
40
0
40
0.0312499999999985
40
0.0312499999999985
40
0.062499999999997
40
0.062499999999997
40
0.0937499999999956
40
0.0937499999999956
40
0.124999999999994
40
0.124999999999994
40
0.156249999999993
40
0.156249999999993
40
0.187499999999991
40
0.187499999999991
40
0.191406249999991
40
0.191406249999991
40
0.195312499999991
40
0.195312499999991
40
0.203124999999991
40
0.203124999999991
40
0.218749999999991
40
0.218749999999991
40
0.249999999999992
40
0.249999999999992
40
0.281249999999992
40
0.281249999999992
40
0.312499999999992
40
0.312499999999992
40
0.343749999999993
40
0.343749999999993
40
0.374999999999993
40
0.374999999999993
40
0.406249999999994
40
0.406249999999994
40
0.437499999999994
40
0.437499999999994
40
0.453124999999994
40
0.453124999999994
40
0.460937499999995
40
0.460937499999995
40
0.464843749999995
40
0.464843749999995
40
0.468749999999995
40
0.468749999999995
40
0.499999999999995
40
0.499999999999995
40
0.531249999999996
40
0.531249999999996
40
0.562499999999996
40
0.562499999999996
40
0.593749999999996
40
0.593749999999996
40
0.624999999999997
40
0.624999999999997
40
0.656249999999997
40
0.656249999999997
40
0.687499999999997
40
0.687499999999997
40
0.718749999999998
40
0.718749999999998
40
0.726562499999998
40
0.726562499999998
40
0.734374999999998
40
0.734374999999998
40
0.749999999999998
40
0.749999999999998
40
0.781249999999999
40
0.781249999999999
40
0.812499999999999
40
0.812499999999999
40
0.843749999999999
40
0.843749999999999
40
0.874999999999999
40
0.874999999999999
40
0.906249999999999
40
0.906249999999999
40
0.9375
40
0.9375
40
0.96875
40
0.96875
40
1
40
1
40
1
40
1
41
1
10
72.6
20
5.68861866779429
30
0
41
1
10
72.6689994090387
20
5.52774523857431
30
0
41
1
10
72.7379988180774
20
5.33086873635142
30
0
41
1
10
72.8759976361547
20
4.87057674454815
30
0
41
1
10
72.9449970451934
20
4.6071979494252
30
0
41
1
10
73.0829958632708
20
4.02718048763356
30
0
41
1
10
73.1519952723095
20
3.71064374127829
30
0
41
1
10
73.2899940903868
20
3.04333257405622
30
0
41
1
10
73.3589934994254
20
2.69268753969649
30
0
41
1
10
73.4969923175028
20
1.97828727800584
30
0
41
1
10
73.5659917265415
20
1.6146418393958
30
0
41
1
10
73.7039905446189
20
0.893710225352891
30
0
41
1
10
73.7729899536575
20
0.536484593855022
30
0
41
1
10
73.8506142888261
20
0.146714158199046
30
0
41
1
10
73.8592392149559
20
0.103571254358315
30
0
41
1
10
73.8764890672156
20
0.0176389992556665
30
0
41
1
10
73.8851139933454
20
-0.0250707872303053
30
0
41
1
10
73.9109887717349
20
-0.154030342100185
30
0
41
1
10
73.9282386239946
20
-0.240708463220329
30
0
41
1
10
73.9799881807735
20
-0.502564891340285
30
0
41
1
10
74.0144878852929
20
-0.679575222466127
30
0
41
1
10
74.1179869988509
20
-1.21521152910253
30
0
41
1
10
74.1869864078897
20
-1.57856590499279
30
0
41
1
10
74.3249852259669
20
-2.29987837329685
30
0
41
1
10
74.3939846350056
20
-2.65774280535135
30
0
41
1
10
74.531983453083
20
-3.34722575147697
30
0
41
1
10
74.6009828621217
20
-3.67871707058657
30
0
41
1
10
74.738981680199
20
-4.2951760970478
30
0
41
1
10
74.8079810892376
20
-4.58002624801733
30
0
41
1
10
74.945979907315
20
-5.08735017443203
30
0
41
1
10
75.0149793163537
20
-5.30976063092973
30
0
41
1
10
75.1529781344311
20
-5.68364881155185
30
0
41
1
10
75.2219775434698
20
-5.83513638558034
30
0
41
1
10
75.3599763615471
20
-6.06676028161627
30
0
41
1
10
75.4289757705858
20
-6.14696409604389
30
0
41
1
10
75.5324748841438
20
-6.21860963931721
30
0
41
1
10
75.5669745886631
20
-6.23442798197246
30
0
41
1
10
75.6187241454422
20
-6.24698790722064
30
0
41
1
10
75.6359739977019
20
-6.24931513551576
30
0
41
1
10
75.6618487760913
20
-6.25014679475819
30
0
41
1
10
75.6704737022212
20
-6.24998421535273
30
0
41
1
10
75.6877235544809
20
-6.24876762027341
30
0
41
1
10
75.6963484806107
20
-6.24771208355961
30
0
41
1
10
75.7739728157792
20
-6.23408925170364
30
0
41
1
10
75.8429722248179
20
-6.19250203815511
30
0
41
1
10
75.9809710428952
20
-6.04119567438738
30
0
41
1
10
76.0499704519339
20
-5.93139140234581
30
0
41
1
10
76.1879692700113
20
-5.63974888382455
30
0
41
1
10
76.2569686790499
20
-5.45786376348912
30
0
41
1
10
76.3949674971273
20
-5.02572941835783
30
0
41
1
10
76.463966906166
20
-4.77550115969783
30
0
41
1
10
76.6019657242433
20
-4.21840676693708
30
0
41
1
10
76.670965133282
20
-3.91163109499902
30
0
41
1
10
76.8089639513594
20
-3.25952425660188
30
0
41
1
10
76.877963360398
20
-2.9143207469221
30
0
41
1
10
77.0159621784753
20
-2.20637302570128
30
0
41
1
10
77.084961587514
20
-1.84374608121226
30
0
41
1
10
77.2229604055914
20
-1.12104118035845
30
0
41
1
10
77.2919598146301
20
-0.761035219173436
30
0
41
1
10
77.3782090759285
20
-0.322754337920429
30
0
41
1
10
77.3954589281881
20
-0.2356726858267
30
0
41
1
10
77.4299586327075
20
-0.0628603959177099
30
0
41
1
10
77.4472084849672
20
0.0224189994951587
30
0
41
1
10
77.4989580417462
20
0.280994737935686
30
0
41
1
10
77.5334577462655
20
0.456150532420992
30
0
41
1
10
77.6369568598236
20
0.987425879076028
30
0
41
1
10
77.7059562688622
20
1.34948978305508
30
0
41
1
10
77.8439550869394
20
2.07234439495258
30
0
41
1
10
77.9129544959782
20
2.43305197822622
30
0
41
1
10
78.0509533140556
20
3.13269756417978
30
0
41
1
10
78.1199527230942
20
3.4715124241512
30
0
41
1
10
78.2579515411716
20
4.10664801715305
30
0
41
1
10
78.3269509502103
20
4.40284504853588
30
0
41
1
10
78.4649497682877
20
4.93566704791382
30
0
41
1
10
78.5339491773262
20
5.17221452136269
30
0
41
1
10
78.6719479954036
20
5.57549697917153
30
0
41
1
10
78.7409474044423
20
5.7422266253277
30
0
41
1
10
78.8789462225197
20
6.00378175163999
30
0
41
1
10
78.9479456315585
20
6.09866518929533
30
0
41
1
10
79.0859444496358
20
6.22173010165668
30
0
41
1
10
79.1549438586744
20
6.25
30
0
41
1
10
79.223943267713
20
6.25
30
0
0
SPLINE
5
DD
100
AcDbEntity
8
1
62
256
6
ByLayer
370
13
48
1
60
0
100
AcDbSpline
70
4
71
3
72
85
73
81
40
0
40
0
40
0
40
0
40
0.0312499999999979
40
0.0312499999999979
40
0.0624999999999958
40
0.0624999999999958
40
0.0937499999999937
40
0.0937499999999937
40
0.124999999999992
40
0.124999999999992
40
0.128906249999991
40
0.128906249999991
40
0.132812499999991
40
0.140624999999991
40
0.140624999999991
40
0.156249999999991
40
0.156249999999991
40
0.187499999999991
40
0.187499999999991
40
0.218749999999991
40
0.218749999999991
40
0.249999999999991
40
0.249999999999991
40
0.281249999999991
40
0.281249999999991
40
0.312499999999991
40
0.312499999999991
40
0.343749999999991
40
0.343749999999991
40
0.374999999999991
40
0.374999999999991
40
0.406249999999991
40
0.406249999999991
40
0.414062499999991
40
0.414062499999991
40
0.421874999999991
40
0.421874999999991
40
0.437499999999991
40
0.437499999999991
40
0.468749999999991
40
0.468749999999991
40
0.499999999999991
40
0.499999999999991
40
0.53124999999999
40
0.53124999999999
40
0.56249999999999
40
0.56249999999999
40
0.59374999999999
40
0.59374999999999
40
0.62499999999999
40
0.62499999999999
40
0.65624999999999
40
0.65624999999999
40
0.68749999999999
40
0.68749999999999
40
0.70312499999999
40
0.70312499999999
40
0.707031249999991
40
0.707031249999991
40
0.710937499999991
40
0.710937499999991
40
0.718749999999991
40
0.718749999999991
40
0.749999999999992
40
0.749999999999992
40
0.781249999999993
40
0.781249999999993
40
0.812499999999994
40
0.812499999999994
40
0.843749999999995
40
0.843749999999995
40
0.874999999999996
40
0.874999999999996
40
0.906249999999997
40
0.906249999999997
40
0.937499999999998
40
0.937499999999998
40
0.968749999999999
40
0.968749999999999
40
1
40
1
40
1
40
1
41
1
10
72.6
20
3.93708256571807
30
0
41
1
10
72.6637781264931
20
3.64990433004465
30
0
41
1
10
72.727556252986
20
3.34329344500011
30
0
41
1
10
72.8551125059721
20
2.70706247187553
30
0
41
1
10
72.9188906324651
20
2.37752862970385
30
0
41
1
10
73.0464468854512
20
1.71200473444449
30
0
41
1
10
73.1102250119442
20
1.37608108803192
30
0
41
1
10
73.2377812649303
20
0.712486056442771
30
0
41
1
10
73.3015593914234
20
0.384848332561688
30
0
41
1
10
73.373309783728
20
0.0272693370729655
30
0
41
1
10
73.3812820495395
20
-0.0122173971787163
30
0
41
1
10
73.3972265811628
20
-0.091602852535118
30
0
41
1
10
73.4211433785977
20
-0.211135874112784
30
0
41
1
10
73.4450601760326
20
-0.331951293438976
30
0
41
1
10
73.4928937709024
20
-0.575051737443317
30
0
41
1
10
73.5247828341489
20
-0.739085363065243
30
0
41
1
10
73.6204500238885
20
-1.23489698619696
30
0
41
1
10
73.6842281503814
20
-1.57047539527886
30
0
41
1
10
73.8117844033675
20
-2.23752963516404
30
0
41
1
10
73.8755625298605
20
-2.56894324684001
30
0
41
1
10
74.0031187828466
20
-3.21129053394495
30
0
41
1
10
74.0668969093396
20
-3.52213942551222
30
0
41
1
10
74.1944531623257
20
-4.10709978592362
30
0
41
1
10
74.2582312888187
20
-4.38112800467206
30
0
41
1
10
74.3857875418047
20
-4.87893272208947
30
0
41
1
10
74.4495656682978
20
-5.10265468949436
30
0
41
1
10
74.5771219212838
20
-5.4912432619364
30
0
41
1
10
74.6409000477768
20
-5.65610008389041
30
0
41
1
10
74.7684563007629
20
-5.92427554075005
30
0
41
1
10
74.8322344272559
20
-6.02762635235251
30
0
41
1
10
74.959790680242
20
-6.17566336288809
30
0
41
1
10
75.0235688067351
20
-6.22040626166012
30
0
41
1
10
75.1032914648513
20
-6.24405742993838
30
0
41
1
10
75.1192359964746
20
-6.24718135093983
30
0
41
1
10
75.1511250597211
20
-6.25035097370446
30
0
41
1
10
75.1670695913444
20
-6.25041367283455
30
0
41
1
10
75.2149031862141
20
-6.24604868516531
30
0
41
1
10
75.2467922494607
20
-6.23698956955116
30
0
41
1
10
75.3424594392002
20
-6.18980018350507
30
0
41
1
10
75.4062375656932
20
-6.13153772214349
30
0
41
1
10
75.5337938186793
20
-5.95532313810602
30
0
41
1
10
75.5975719451723
20
-5.8373182192785
30
0
41
1
10
75.7251281981583
20
-5.53991828568462
30
0
41
1
10
75.7889063246514
20
-5.36049994025535
30
0
41
1
10
75.9164625776374
20
-4.94430171969796
30
0
41
1
10
75.9802407041304
20
-4.70754281315345
30
0
41
1
10
76.1077969571165
20
-4.18650142022824
30
0
41
1
10
76.1715750836095
20
-3.90228243058385
30
0
41
1
10
76.2991313365956
20
-3.30067511150034
30
0
41
1
10
76.3629094630886
20
-2.98337300006509
30
0
41
1
10
76.4904657160747
20
-2.33213354103421
30
0
41
1
10
76.5542438425677
20
-1.99827736980816
30
0
41
1
10
76.6818000955537
20
-1.33002517205136
30
0
41
1
10
76.7455782220468
20
-0.99568377848189
30
0
41
1
10
76.8412454117864
20
-0.503927660739834
30
0
41
1
10
76.8731344750328
20
-0.341609997699123
30
0
41
1
10
76.912995804091
20
-0.141556123907179
30
0
41
1
10
76.9209680699026
20
-0.101686925475093
30
0
41
1
10
76.9369126015258
20
-0.0222503761147266
30
0
41
1
10
76.9448848673375
20
0.0172330614707334
30
0
41
1
10
76.9688016647723
20
0.136349613619103
30
0
41
1
10
76.9847461963956
20
0.216366354504771
30
0
41
1
10
77.064468854512
20
0.619096007633431
30
0
41
1
10
77.1282469810049
20
0.949889193252545
30
0
41
1
10
77.2558032339909
20
1.61655680399522
30
0
41
1
10
77.319581360484
20
1.95238937803953
30
0
41
1
10
77.44713761347
20
2.61386985729396
30
0
41
1
10
77.5109157399631
20
2.9394448534272
30
0
41
1
10
77.6384719929492
20
3.56377615407524
30
0
41
1
10
77.7022501194422
20
3.86244493881585
30
0
41
1
10
77.8298063724282
20
4.41744627674123
30
0
41
1
10
77.8935844989213
20
4.6737036113993
30
0
41
1
10
78.0211407519073
20
5.13203097029461
30
0
41
1
10
78.0849188784003
20
5.33406256632378
30
0
41
1
10
78.2124751313864
20
5.67754336745577
30
0
41
1
10
78.2762532578794
20
5.81900007413881
30
0
41
1
10
78.4038095108655
20
6.04087275945813
30
0
41
1
10
78.4675876373585
20
6.12133274655616
30
0
41
1
10
78.5951438903445
20
6.22586618543568
30
0
41
1
10
78.6589220168376
20
6.25
30
0
41
1
10
78.7227001433306
20
6.25
30
0
0
SPLINE
5
DE
100
AcDbEntity
8
1
62
256
6
ByLayer
370
13
48
1
60
0
100
AcDbSpline
70
4
71
3
72
82
73
78
40
0
40
0
40
0
40
0
40
0.0312500000000006
40
0.0312500000000006
40
0.0468750000000009
40
0.0468750000000009
40
0.0546875000000009
40
0.0546875000000009
40
0.0625000000000009
40
0.0625000000000009
40
0.0937500000000004
40
0.0937500000000004
40
0.125
40
0.125
40
0.156249999999999
40
0.156249999999999
40
0.187499999999999
40
0.187499999999999
40
0.218749999999998
40
0.218749999999998
40
0.249999999999998
40
0.249999999999998
40
0.281249999999997
40
0.281249999999997
40
0.312499999999996
40
0.312499999999996
40
0.343749999999996
40
0.343749999999996
40
0.359374999999995
40
0.359374999999995
40
0.367187499999995
40
0.367187499999995
40
0.374999999999995
40
0.374999999999995
40
0.406249999999995
40
0.406249999999995
40
0.437499999999996
40
0.437499999999996
40
0.468749999999996
40
0.468749999999996
40
0.499999999999997
40
0.499999999999997
40
0.531249999999997
40
0.531249999999997
40
0.562499999999998
40
0.562499999999998
40
0.593749999999998
40
0.593749999999998
40
0.624999999999999
40
0.624999999999999
40
0.656249999999999
40
0.656249999999999
40
0.671874999999999
40
0.671874999999999
40
0.679687499999999
40
0.679687499999999
40
0.687499999999999
40
0.687499999999999
40
0.71875
40
0.71875
40
0.75
40
0.75
40
0.78125
40
0.78125
40
0.8125
40
0.8125
40
0.84375
40
0.84375
40
0.875
40
0.875
40
0.90625
40
0.90625
40
0.9375
40
0.9375
40
0.96875
40
0.96875
40
1
40
1
40
1
40
1
41
1
10
72.6
20
1.42417824924607
30
0
41
1
10
72.6585568439473
20
1.11764149526945
30
0
41
1
10
72.7171136878948
20
0.812387562221772
30
0
41
1
10
72.8049489538158
20
0.363849258962972
30
0
41
1
10
72.8342273757895
20
0.215874620890048
30
0
41
1
10
72.87814500875
20
-0.0030363607615413
30
0
41
1
10
72.8927842197369
20
-0.0755282217130855
30
0
41
1
10
72.9220626417106
20
-0.222182981404927
30
0
41
1
10
72.9367018526974
20
-0.295996810341876
30
0
41
1
10
73.0098979076316
20
-0.667192024793593
30
0
41
1
10
73.068454751579
20
-0.971052108813126
30
0
41
1
10
73.1855684394737
20
-1.58308748543371
30
0
41
1
10
73.2441252834211
20
-1.89123560556823
30
0
41
1
10
73.3612389713159
20
-2.50012356521077
30
0
41
1
10
73.4197958152632
20
-2.8008172554658
30
0
41
1
10
73.536909503158
20
-3.38196681745671
30
0
41
1
10
73.5954663471055
20
-3.66236594196585
30
0
41
1
10
73.7125800350001
20
-4.19057433030139
30
0
41
1
10
73.7711368789475
20
-4.43833062418261
30
0
41
1
10
73.8882505668423
20
-4.89108394489492
30
0
41
1
10
73.9468074107897
20
-5.09604653389118
30
0
41
1
10
74.0639210986844
20
-5.45659079455655
30
0
41
1
10
74.1224779426318
20
-5.61216502618501
30
0
41
1
10
74.2395916305265
20
-5.87151103667949
30
0
41
1
10
74.2981484744739
20
-5.97530115187402
30
0
41
1
10
74.4152621623687
20
-6.1326801720358
30
0
41
1
10
74.4738190063161
20
-6.18630411924551
30
0
41
1
10
74.5616542722371
20
-6.23267642653965
30
0
41
1
10
74.5909326942108
20
-6.2424778628118
30
0
41
1
10
74.6348503271713
20
-6.24929117561933
30
0
41
1
10
74.6494895381582
20
-6.25024971828324
30
0
41
1
10
74.6787679601318
20
-6.24964090040962
30
0
41
1
10
74.6934071711187
20
-6.24806333874719
30
0
41
1
10
74.766603226053
20
-6.23354297463374
30
0
41
1
10
74.8251600700003
20
-6.20062471475228
30
0
41
1
10
74.942273757895
20
-6.08644284709089
30
0
41
1
10
75.0008306018424
20
-6.00514060899374
30
0
41
1
10
75.1179442897372
20
-5.79103467480491
30
0
41
1
10
75.1765011336846
20
-5.65820388216508
30
0
41
1
10
75.2936148215793
20
-5.34157953490165
30
0
41
1
10
75.3521716655267
20
-5.15778136563438
30
0
41
1
10
75.4692853534215
20
-4.74397083234896
30
0
41
1
10
75.5278421973688
20
-4.51398151478099
30
0
41
1
10
75.6449558852636
20
-4.01648245849944
30
0
41
1
10
75.703512729211
20
-3.74901911624789
30
0
41
1
10
75.8206264171057
20
-3.18814291543123
30
0
41
1
10
75.8791832610531
20
-2.8947870980617
30
0
41
1
10
75.9962969489479
20
-2.2949673379203
30
0
41
1
10
76.0548537928952
20
-1.98855568347074
30
0
41
1
10
76.1719674807899
20
-1.37503742397652
30
0
41
1
10
76.2305243247373
20
-1.06796687233089
30
0
41
1
10
76.3183595906584
20
-0.614805912755628
30
0
41
1
10
76.3476380126321
20
-0.464975738336563
30
0
41
1
10
76.3915556455926
20
-0.242880599391725
30
0
41
1
10
76.4061948565795
20
-0.169289271575877
30
0
41
1
10
76.4354732785532
20
-0.0231072787903486
30
0
41
1
10
76.45011248954
20
0.0492956651086445
30
0
41
1
10
76.5233085444743
20
0.415345765817335
30
0
41
1
10
76.5818653884216
20
0.716185426688952
30
0
41
1
10
76.6989790763164
20
1.3250980403916
30
0
41
1
10
76.7575359202638
20
1.63314957150087
30
0
41
1
10
76.8746496081585
20
2.24529656893711
30
0
41
1
10
76.9332064521059
20
2.54935068947333
30
0
41
1
10
77.0503201400006
20
3.14083890284044
30
0
41
1
10
77.108876983948
20
3.42821794889332
30
0
41
1
10
77.2259906718428
20
3.97369535862958
30
0
41
1
10
77.2845475157902
20
4.23173809232958
30
0
41
1
10
77.4016612036848
20
4.70760172733435
30
0
41
1
10
77.4602180476323
20
4.9253817736404
30
0
41
1
10
77.577331735527
20
5.31300398758913
30
0
41
1
10
77.6358885794744
20
5.48283085390483
30
0
41
1
10
77.7530022673691
20
5.77093238666978
30
0
41
1
10
77.8115591113165
20
5.88921883081915
30
0
41
1
10
77.9286727992113
20
6.07477612860995
30
0
41
1
10
77.9872296431587
20
6.14207852203367
30
0
41
1
10
78.1043433310535
20
6.22967058861957
30
0
41
1
10
78.1629001750008
20
6.25
30
0
41
1
10
78.2214570189481
20
6.25
30
0
0
SPLINE
5
DF
100
AcDbEntity
8
1
62
256
6
ByLayer
370
13
48
1
60
0
100
AcDbSpline
70
4
71
3
72
78
73
74
40
0
40
0
40
0
40
0
40
0.0312500000000001
40
0.0312500000000001
40
0.0625000000000002
40
0.0625000000000002
40
0.0937500000000003
40
0.0937500000000003
40
0.125000000000001
40
0.125000000000001
40
0.156250000000001
40
0.156250000000001
40
0.187500000000001
40
0.187500000000001
40
0.218750000000001
40
0.218750000000001
40
0.250000000000001
40
0.250000000000001
40
0.281250000000001
40
0.281250000000001
40
0.296875000000001
40
0.296875000000001
40
0.304687500000001
40
0.304687500000001
40
0.312500000000001
40
0.312500000000001
40
0.343750000000001
40
0.343750000000001
40
0.375
40
0.375
40
0.40625
40
0.40625
40
0.437499999999999
40
0.437499999999999
40
0.468749999999999
40
0.468749999999999
40
0.499999999999998
40
0.499999999999998
40
0.531249999999998
40
0.531249999999998
40
0.562499999999997
40
0.562499999999997
40
0.593749999999996
40
0.593749999999996
40
0.624999999999996
40
0.624999999999996
40
0.640624999999995
40
0.640624999999995
40
0.648437499999995
40
0.648437499999995
40
0.656249999999995
40
0.656249999999995
40
0.687499999999996
40
0.687499999999996
40
0.718749999999996
40
0.718749999999996
40
0.749999999999997
40
0.749999999999997
40
0.781249999999997
40
0.781249999999997
40
0.812499999999997
40
0.812499999999997
40
0.843749999999998
40
0.843749999999998
40
0.874999999999998
40
0.874999999999998
40
0.906249999999999
40
0.906249999999999
40
0.937499999999999
40
0.937499999999999
40
0.96875
40
0.96875
40
1
40
1
40
1
40
1
41
1
10
72.6
20
-1.14255329376996
30
0
41
1
10
72.6533355614017
20
-1.42063188003607
30
0
41
1
10
72.7066711228035
20
-1.70111363841255
30
0
41
1
10
72.8133422456069
20
-2.25832576021065
30
0
41
1
10
72.8666778070086
20
-2.53502967278123
30
0
41
1
10
72.9733489298121
20
-3.07512169536557
30
0
41
1
10
73.0266844912138
20
-3.33847546447498
30
0
41
1
10
73.1333556140173
20
-3.84225533250722
30
0
41
1
10
73.186691175419
20
-4.08264595255156
30
0
41
1
10
73.2933622982224
20
-4.53191632488918
30
0
41
1
10
73.3466978596242
20
-4.74076757846655
30
0
41
1
10
73.4533689824276
20
-5.1203957880046
30
0
41
1
10
73.5067045438293
20
-5.29115771836786
30
0
41
1
10
73.6133756666328
20
-5.59073867212487
30
0
41
1
10
73.6667112280346
20
-5.71955856723497
30
0
41
1
10
73.773382350838
20
-5.93429882755234
30
0
41
1
10
73.8267179122397
20
-6.02023376316214
30
0
41
1
10
73.9333890350431
20
-6.15091534321181
30
0
41
1
10
73.9867245964449
20
-6.19568489092691
30
0
41
1
10
74.0667279385475
20
-6.23479371555013
30
0
41
1
10
74.0933957192483
20
-6.24316971255786
30
0
41
1
10
74.1333973902996
20
-6.24919650656128
30
0
41
1
10
74.14673128065
20
-6.25011677186978
30
0
41
1
10
74.1733990613509
20
-6.24985967257518
30
0
41
1
10
74.1867329517013
20
-6.24867783773794
30
0
41
1
10
74.2534024034534
20
-6.23729957686615
30
0
41
1
10
74.3067379648552
20
-6.21064485286121
30
0
41
1
10
74.4134090876587
20
-6.11776207624004
30
0
41
1
10
74.4667446490603
20
-6.05150936427611
30
0
41
1
10
74.5734157718638
20
-5.87664372348843
30
0
41
1
10
74.6267513332656
20
-5.76801154019864
30
0
41
1
10
74.733422456069
20
-5.50801321651434
30
0
41
1
10
74.7867580174708
20
-5.35663925471692
30
0
41
1
10
74.8934291402742
20
-5.01362551006338
30
0
41
1
10
74.946764701676
20
-4.82199329655722
30
0
41
1
10
75.0534358244794
20
-4.40378893491925
30
0
41
1
10
75.1067713858811
20
-4.1772395604502
30
0
41
1
10
75.2134425086845
20
-3.6969239668322
30
0
41
1
10
75.2667780700863
20
-3.44319093359161
30
0
41
1
10
75.3734491928897
20
-2.91776631915982
30
0
41
1
10
75.4267847542915
20
-2.64611060136363
30
0
41
1
10
75.5334558770949
20
-2.09456687459095
30
0
41
1
10
75.5867914384966
20
-1.81470967537769
30
0
41
1
10
75.6934625613001
20
-1.25592853939679
30
0
41
1
10
75.7467981227019
20
-0.977025237947828
30
0
41
1
10
75.8268014648044
20
-0.565232640482833
30
0
41
1
10
75.8534692455053
20
-0.429049737333969
30
0
41
1
10
75.8934709165566
20
-0.227004072532509
30
0
41
1
10
75.906804806907
20
-0.16002606440793
30
0
41
1
10
75.9334725876079
20
-0.0269012739423431
30
0
41
1
10
75.9468064779583
20
0.0390571703298406
30
0
41
1
10
76.0134759297105
20
0.372122108900129
30
0
41
1
10
76.0668114911122
20
0.645254051013495
30
0
41
1
10
76.1734826139157
20
1.19838129422772
30
0
41
1
10
76.2268181753174
20
1.47836455908987
30
0
41
1
10
76.3334892981208
20
2.03698496157477
30
0
41
1
10
76.3868248595225
20
2.31559847147875
30
0
41
1
10
76.493495982326
20
2.86209396438096
30
0
41
1
10
76.5468315437277
20
3.12994315694988
30
0
41
1
10
76.6535026665312
20
3.64520817210416
30
0
41
1
10
76.7068382279328
20
3.89258803269203
30
0
41
1
10
76.8135093507363
20
4.35795374952409
30
0
41
1
10
76.866844912138
20
4.57590850145399
30
0
41
1
10
76.9735160349416
20
4.97524246834533
30
0
41
1
10
77.0268515963432
20
5.15660265201245
30
0
41
1
10
77.1335227191467
20
5.47812278046666
30
0
41
1
10
77.1868582805484
20
5.61827941619768
30
0
41
1
10
77.2935294033519
20
5.85566950046817
30
0
41
1
10
77.3468649647536
20
5.95291431870305
30
0
41
1
10
77.453536087557
20
6.10553030426374
30
0
41
1
10
77.5068716489588
20
6.16092277366647
30
0
41
1
10
77.6135427717622
20
6.23314508498197
30
0
41
1
10
77.6668783331639
20
6.25
30
0
41
1
10
77.7202138945657
20
6.25
30
0
0
SPLINE
5
E0
100
AcDbEntity
8
1
62
256
6
ByLayer
370
13
48
1
60
0
100
AcDbSpline
70
4
71
3
72
78
73
74
40
0
40
0
40
0
40
0
40
0.0312500000000013
40
0.0312500000000013
40
0.0625000000000026
40
0.0625000000000026
40
0.093750000000004
40
0.093750000000004
40
0.125000000000005
40
0.125000000000005
40
0.156250000000007
40
0.156250000000007
40
0.187500000000008
40
0.187500000000008
40
0.218750000000009
40
0.218750000000009
40
0.226562500000009
40
0.226562500000009
40
0.23437500000001
40
0.23437500000001
40
0.250000000000009
40
0.250000000000009
40
0.281250000000009
40
0.281250000000009
40
0.312500000000008
40
0.312500000000008
40
0.343750000000007
40
0.343750000000007
40
0.375000000000007
40
0.375000000000007
40
0.406250000000006
40
0.406250000000006
40
0.437500000000005
40
0.437500000000005
40
0.468750000000005
40
0.468750000000005
40
0.500000000000004
40
0.500000000000004
40
0.531250000000003
40
0.531250000000003
40
0.562500000000002
40
0.562500000000002
40
0.593750000000002
40
0.593750000000002
40
0.609375000000001
40
0.609375000000001
40
0.617187500000001
40
0.617187500000001
40
0.625000000000001
40
0.625000000000001
40
0.656250000000001
40
0.656250000000001
40
0.687500000000001
40
0.687500000000001
40
0.718750000000001
40
0.718750000000001
40
0.750000000000001
40
0.750000000000001
40
0.781250000000001
40
0.781250000000001
40
0.812500000000001
40
0.812500000000001
40
0.843750000000001
40
0.843750000000001
40
0.875
40
0.875
40
0.90625
40
0.90625
40
0.9375
40
0.9375
40
0.96875
40
0.96875
40
1
40
1
40
1
40
1
41
1
10
72.6
20
-3.68998202215502
30
0
41
1
10
72.6481142788561
20
-3.91440328814153
30
0
41
1
10
72.6962285577121
20
-4.12898106668374
30
0
41
1
10
72.7924571154243
20
-4.53229522161755
30
0
41
1
10
72.8405713942803
20
-4.72101476247829
30
0
41
1
10
72.9367999519925
20
-5.06777487110867
30
0
41
1
10
72.9849142308486
20
-5.22580586623684
30
0
41
1
10
73.0811427885608
20
-5.50811704061519
30
0
41
1
10
73.1292570674169
20
-5.63239624150685
30
0
41
1
10
73.225485625129
20
-5.84605915359202
30
0
41
1
10
73.273599903985
20
-5.93544973203367
30
0
41
1
10
73.3698284616971
20
-6.08002479223202
30
0
41
1
10
73.4179427405533
20
-6.13522164195552
30
0
41
1
10
73.5141712982655
20
-6.21363395656226
30
0
41
1
10
73.5622855771215
20
-6.23686427933691
30
0
41
1
10
73.6224284256916
20
-6.2480011758044
30
0
41
1
10
73.6344569954056
20
-6.24933559233995
30
0
41
1
10
73.6585141348336
20
-6.25027765843157
30
0
41
1
10
73.6705427045477
20
-6.24989410917723
30
0
41
1
10
73.7066284136897
20
-6.24612277044582
30
0
41
1
10
73.7306855531177
20
-6.24009957740421
30
0
41
1
10
73.8028569714019
20
-6.21082295817399
30
0
41
1
10
73.8509712502579
20
-6.17632827353481
30
0
41
1
10
73.94719980797
20
-6.07442616615137
30
0
41
1
10
73.9953140868261
20
-6.00700444028232
30
0
41
1
10
74.0915426445383
20
-5.83752936173769
30
0
41
1
10
74.1396569233944
20
-5.73546530258068
30
0
41
1
10
74.2358854811066
20
-5.49664352892086
30
0
41
1
10
74.2839997599626
20
-5.35988158985978
30
0
41
1
10
74.3802283176748
20
-5.05349355785896
30
0
41
1
10
74.4283425965309
20
-4.88387158173265
30
0
41
1
10
74.524571154243
20
-4.51549186481711
30
0
41
1
10
74.5726854330991
20
-4.31674659549907
30
0
41
1
10
74.6689139908112
20
-3.89549673755835
30
0
41
1
10
74.7170282696673
20
-3.67301091490282
30
0
41
1
10
74.8132568273795
20
-3.21082600182777
30
0
41
1
10
74.8613711062355
20
-2.97114839796521
30
0
41
1
10
74.9575996639477
20
-2.48167692069637
30
0
41
1
10
75.0057139428038
20
-2.23190329258767
30
0
41
1
10
75.101942500516
20
-1.7292465562079
30
0
41
1
10
75.1500567793719
20
-1.47637927488518
30
0
41
1
10
75.2462853370841
20
-0.973899557980758
30
0
41
1
10
75.2943996159402
20
-0.724296864216399
30
0
41
1
10
75.3665710342243
20
-0.356334008066312
30
0
41
1
10
75.3906281736524
20
-0.234744324294297
30
0
41
1
10
75.4267138827944
20
-0.0543702119873615
30
0
41
1
10
75.4387424525085
20
0.0051858554707565
30
0
41
1
10
75.4627995919366
20
0.125063970570068
30
0
41
1
10
75.4748281616505
20
0.185346168752318
30
0
41
1
10
75.5349710102206
20
0.488310042398837
30
0
41
1
10
75.5830852890767
20
0.735697765531626
30
0
41
1
10
75.6793138467888
20
1.23556752923892
30
0
41
1
10
75.7274281256449
20
1.48804184933132
30
0
41
1
10
75.8236566833571
20
1.99202822507459
30
0
41
1
10
75.8717709622131
20
2.24352629131616
30
0
41
1
10
75.9679995199253
20
2.73871509219717
30
0
41
1
10
76.0161137987814
20
2.98238670750598
30
0
41
1
10
76.1123423564935
20
3.45479177573623
30
0
41
1
10
76.1604566353495
20
3.68350372393348
30
0
41
1
10
76.2566851930617
20
4.11919435636696
30
0
41
1
10
76.3047994719178
20
4.32615297619179
30
0
41
1
10
76.4010280296299
20
4.71251660469676
30
0
41
1
10
76.449142308486
20
4.89190682286375
30
0
41
1
10
76.5453708661982
20
5.2188251831613
30
0
41
1
10
76.5934851450542
20
5.36634644705282
30
0
41
1
10
76.6897137027664
20
5.62706396066253
30
0
41
1
10
76.7378279816225
20
5.74026190423083
30
0
41
1
10
76.8340565393347
20
5.93179365723643
30
0
41
1
10
76.8821708181907
20
6.0101363927472
30
0
41
1
10
76.9783993759028
20
6.13317625352681
30
0
41
1
10
77.026513654759
20
6.17788687075429
30
0
41
1
10
77.1227422124711
20
6.2362912241307
30
0
41
1
10
77.1708564913271
20
6.25
30
0
41
1
10
77.2189707701832
20
6.25
30
0
0
SPLINE
5
E1
100
AcDbEntity
8
1
62
256
6
ByLayer
370
13
48
1
60
0
100
AcDbSpline
70
4
71
3
72
77
73
73
40
0
40
0
40
0
40
0
40
0.0312500000000017
40
0.0312500000000017
40
0.0625000000000033
40
0.0625000000000033
40
0.093750000000005
40
0.093750000000005
40
0.125000000000007
40
0.125000000000007
40
0.132812500000007
40
0.132812500000007
40
0.140625000000007
40
0.140625000000007
40
0.156250000000007
40
0.156250000000007
40
0.187500000000006
40
0.187500000000006
40
0.218750000000006
40
0.218750000000006
40
0.250000000000005
40
0.250000000000005
40
0.281250000000004
40
0.281250000000004
40
0.312500000000004
40
0.312500000000004
40
0.343750000000003
40
0.343750000000003
40
0.375000000000003
40
0.375000000000003
40
0.406250000000002
40
0.406250000000002
40
0.437500000000001
40
0.437500000000001
40
0.468750000000001
40
0.468750000000001
40
0.5
40
0.5
40
0.531249999999999
40
0.531249999999999
40
0.562499999999999
40
0.562499999999999
40
0.570312499999999
40
0.570312499999999
40
0.578124999999999
40
0.593749999999999
40
0.593749999999999
40
0.624999999999999
40
0.624999999999999
40
0.656249999999999
40
0.656249999999999
40
0.687499999999999
40
0.687499999999999
40
0.718749999999999
40
0.718749999999999
40
0.749999999999999
40
0.749999999999999
40
0.781249999999999
40
0.781249999999999
40
0.812499999999999
40
0.812499999999999
40
0.84375
40
0.84375
40
0.875
40
0.875
40
0.90625
40
0.90625
40
0.9375
40
0.9375
40
0.96875
40
0.96875
40
1
40
1
40
1
40
1
41
1
10
72.6
20
-5.55573357037508
30
0
41
1
10
72.6428929963104
20
-5.66723917158251
30
0
41
1
10
72.6857859926208
20
-5.76503755478345
30
0
41
1
10
72.7715719852417
20
-5.9329671889673
30
0
41
1
10
72.8144649815521
20
-6.0031036346434
30
0
41
1
10
72.900250974173
20
-6.11656185760711
30
0
41
1
10
72.9431439704834
20
-6.15989113781652
30
0
41
1
10
73.0289299631042
20
-6.22149379530501
30
0
41
1
10
73.0718229594147
20
-6.23977561993885
30
0
41
1
10
73.1254392048027
20
-6.24848078892092
30
0
41
1
10
73.1361624538803
20
-6.24951572604951
30
0
41
1
10
73.1576089520355
20
-6.25021548802806
30
0
41
1
10
73.1683322011132
20
-6.24988643233078
30
0
41
1
10
73.200501948346
20
-6.24681940926934
30
0
41
1
10
73.2219484465011
20
-6.24199227422497
30
0
41
1
10
73.2862879409668
20
-6.21867756337284
30
0
41
1
10
73.3291809372773
20
-6.19133627950094
30
0
41
1
10
73.4149669298981
20
-6.1108694884918
30
0
41
1
10
73.4578599262085
20
-6.05773573095266
30
0
41
1
10
73.5436459188294
20
-5.92423243964993
30
0
41
1
10
73.5865389151398
20
-5.84385610175843
30
0
41
1
10
73.6723249077606
20
-5.65540034589031
30
0
41
1
10
73.7152179040711
20
-5.54731692209663
30
0
41
1
10
73.8010038966919
20
-5.3041312679112
30
0
41
1
10
73.8438968930024
20
-5.16902890806517
30
0
41
1
10
73.9296828856232
20
-4.87370701307893
30
0
41
1
10
73.9725758819336
20
-4.71349168793174
30
0
41
1
10
74.0583618745545
20
-4.37100270558645
30
0
41
1
10
74.1012548708649
20
-4.18873723626302
30
0
41
1
10
74.1870408634857
20
-3.80617580494669
30
0
41
1
10
74.2299338597962
20
-3.60589084887613
30
0
41
1
10
74.315719852417
20
-3.19199417444492
30
0
41
1
10
74.3586128487274
20
-2.97839459680591
30
0
41
1
10
74.4443988413483
20
-2.54289423020387
30
0
41
1
10
74.4872918376587
20
-2.3210049368939
30
0
41
1
10
74.5730778302795
20
-1.87391115155617
30
0
41
1
10
74.61597082659
20
-1.64871605327983
30
0
41
1
10
74.7017568192108
20
-1.1996385802455
30
0
41
1
10
74.7446498155212
20
-0.975762634962308
30
0
41
1
10
74.8304358081421
20
-0.533353211801597
30
0
41
1
10
74.8733288044525
20
-0.31482299363293
30
0
41
1
10
74.9269450498405
20
-0.0470530178093043
30
0
41
1
10
74.9376682989181
20
0.0060481500231333
30
0
41
1
10
74.9591147970734
20
0.112878724584164
30
0
41
1
10
74.9912845443062
20
0.273944193700032
30
0
41
1
10
75.023454291539
20
0.437267536097181
30
0
41
1
10
75.0877937860046
20
0.766319537753077
30
0
41
1
10
75.130686782315
20
0.988917032250583
30
0
41
1
10
75.2164727749358
20
1.43677459057622
30
0
41
1
10
75.2593657712463
20
1.6620292275114
30
0
41
1
10
75.3451517638671
20
2.11074569736039
30
0
41
1
10
75.3880447601776
20
2.33419900639859
30
0
41
1
10
75.4738307527984
20
2.77441302395428
30
0
41
1
10
75.5167237491088
20
2.99116276462135
30
0
41
1
10
75.6025097417297
20
3.41292101701578
30
0
41
1
10
75.6454027380401
20
3.61791740671038
30
0
41
1
10
75.731188730661
20
4.01132343849528
30
0
41
1
10
75.7740817269714
20
4.19972152321867
30
0
41
1
10
75.8598677195922
20
4.55565068259472
30
0
41
1
10
75.9027607159027
20
4.72317252712315
30
0
41
1
10
75.9885467085235
20
5.03395270442437
30
0
41
1
10
76.0314397048339
20
5.1772054981312
30
0
41
1
10
76.1172256974548
20
5.43716110504766
30
0
41
1
10
76.1601186937652
20
5.55386269793652
30
0
41
1
10
76.245904686386
20
5.75964250071095
30
0
41
1
10
76.2887976826966
20
5.84872359207714
30
0
41
1
10
76.3745836753174
20
5.99937551821594
30
0
41
1
10
76.4174766716278
20
6.06095241814194
30
0
41
1
10
76.5032626642486
20
6.15775730698587
30
0
41
1
10
76.546155660559
20
6.19299323969818
30
0
41
1
10
76.6319416531799
20
6.23911034485417
30
0
41
1
10
76.6748346494903
20
6.25
30
0
41
1
10
76.7177276458008
20
6.25
30
0
0
SPLINE
5
E2
100
AcDbEntity
8
1
62
256
6
ByLayer
370
13
48
1
60
0
100
AcDbSpline
70
4
71
3
72
46
73
42
40
0
40
0
40
0
40
0
40
0.0156250000000001
40
0.0156250000000001
40
0.0312500000000001
40
0.0312500000000001
40
0.0625000000000007
40
0.0625000000000007
40
0.125000000000002
40
0.125000000000002
40
0.187500000000003
40
0.187500000000003
40
0.250000000000004
40
0.250000000000004
40
0.312500000000005
40
0.312500000000005
40
0.375000000000006
40
0.375000000000006
40
0.437500000000007
40
0.437500000000007
40
0.500000000000008
40
0.500000000000008
40
0.515625000000008
40
0.515625000000008
40
0.531250000000008
40
0.531250000000008
40
0.562500000000008
40
0.562500000000008
40
0.625000000000007
40
0.625000000000007
40
0.687500000000005
40
0.687500000000005
40
0.750000000000004
40
0.750000000000004
40
0.812500000000003
40
0.812500000000003
40
0.875000000000002
40
0.875000000000002
40
0.937500000000001
40
0.937500000000001
40
1
40
1
40
1
40
1
41
1
10
72.6
20
-6.24417927657572
30
0
41
1
10
72.6188358568824
20
-6.24828259567605
30
0
41
1
10
72.6376717137648
20
-6.25018087892988
30
0
41
1
10
72.6753434275295
20
-6.24979213692959
30
0
41
1
10
72.6941792844119
20
-6.24749525333223
30
0
41
1
10
72.7506868550591
20
-6.23395753132965
30
0
41
1
10
72.7883585688239
20
-6.21605891207074
30
0
41
1
10
72.9013737101182
20
-6.13334526491496
30
0
41
1
10
72.9767171376478
20
-6.03923694673583
30
0
41
1
10
73.1274039927068
20
-5.76551925131599
30
0
41
1
10
73.2027474202363
20
-5.58581475463916
30
0
41
1
10
73.3534342752955
20
-5.14311667389012
30
0
41
1
10
73.428777702825
20
-4.88013327614658
30
0
41
1
10
73.5794645578841
20
-4.2846356589742
30
0
41
1
10
73.6548079854136
20
-3.95225182878113
30
0
41
1
10
73.8054948404728
20
-3.24113972185623
30
0
41
1
10
73.8808382680023
20
-2.86260865960875
30
0
41
1
10
74.0315251230614
20
-2.08663902695497
30
0
41
1
10
74.106868550591
20
-1.68937785106641
30
0
41
1
10
74.2575554056501
20
-0.901682334244356
30
0
41
1
10
74.3328988331796
20
-0.51134518997722
30
0
41
1
10
74.4270781175915
20
-0.0400199269481618
30
0
41
1
10
74.4459139744739
20
0.0530425523290035
30
0
41
1
10
74.4835856882386
20
0.241722307094648
30
0
41
1
10
74.5024215451211
20
0.336868645601413
30
0
41
1
10
74.5589291157683
20
0.624331056774224
30
0
41
1
10
74.596600829533
20
0.818684349165125
30
0
41
1
10
74.7096159708273
20
1.40619610544996
30
0
41
1
10
74.7849593983569
20
1.80396110164773
30
0
41
1
10
74.935646253416
20
2.5873999213656
30
0
41
1
10
75.0109896809456
20
2.97291193641792
30
0
41
1
10
75.1616765360046
20
3.70437871089689
30
0
41
1
10
75.2370199635342
20
4.05013319536556
30
0
41
1
10
75.3877068185933
20
4.67724668988743
30
0
41
1
10
75.4630502461228
20
4.95845231609488
30
0
41
1
10
75.613737101182
20
5.4399030722488
30
0
41
1
10
75.6890805287114
20
5.64010810701478
30
0
41
1
10
75.8397673837706
20
5.9543742055541
30
0
41
1
10
75.9151108113001
20
6.06850989678281
30
0
41
1
10
76.0657976663592
20
6.21625538259872
30
0
41
1
10
76.1411410938888
20
6.25
30
0
41
1
10
76.2164845214183
20
6.25
30
0
0
SPLINE
5
E3
100
AcDbEntity
8
1
62
256
6
ByLayer
370
13
48
1
60
0
100
AcDbSpline
70
4
71
3
72
42
73
38
40
0
40
0
40
0
40
0
40
0.0625000000000007
40
0.0625000000000007
40
0.125000000000001
40
0.125000000000001
40
0.187500000000002
40
0.187500000000002
40
0.250000000000002
40
0.250000000000002
40
0.312500000000003
40
0.312500000000003
40
0.375000000000003
40
0.375000000000003
40
0.406250000000004
40
0.406250000000004
40
0.421875000000004
40
0.421875000000004
40
0.437500000000004
40
0.437500000000004
40
0.500000000000004
40
0.500000000000004
40
0.562500000000003
40
0.562500000000003
40
0.625000000000003
40
0.625000000000003
40
0.687500000000002
40
0.687500000000002
40
0.750000000000002
40
0.750000000000002
40
0.812500000000001
40
0.812500000000001
40
0.875000000000001
40
0.875000000000001
40
0.9375
40
0.9375
40
1
40
1
40
1
40
1
41
1
10
72.6
20
-5.80700646714439
30
0
41
1
10
72.6649008624382
20
-5.67318078652306
30
0
41
1
10
72.7298017248765
20
-5.50749246190225
30
0
41
1
10
72.859603449753
20
-5.11499113939081
30
0
41
1
10
72.9245043121912
20
-4.88818757514338
30
0
41
1
10
73.0543060370677
20
-4.38233197848601
30
0
41
1
10
73.119206899506
20
-4.10333911500106
30
0
41
1
10
73.2490086243824
20
-3.50729385711523
30
0
41
1
10
73.3139094868206
20
-3.19033243149207
30
0
41
1
10
73.4437112116972
20
-2.53551140931066
30
0
41
1
10
73.5086120741354
20
-2.1977438953798
30
0
41
1
10
73.638413799012
20
-1.51857586811522
30
0
41
1
10
73.7033146614501
20
-1.17724168937255
30
0
41
1
10
73.8006659551075
20
-0.673690619288578
30
0
41
1
10
73.8331163863267
20
-0.507223931401285
30
0
41
1
10
73.8817920331554
20
-0.260727970253953
30
0
41
1
10
73.8980172487649
20
-0.179094712409267
30
0
41
1
10
73.930467679984
20
-0.0170564740317047
30
0
41
1
10
73.9466928955936
20
0.0631847435366524
30
0
41
1
10
74.0278189736414
20
0.469434499747706
30
0
41
1
10
74.0927198360796
20
0.804176975890442
30
0
41
1
10
74.2225215609561
20
1.48093146909844
30
0
41
1
10
74.2874224233944
20
1.82290307820583
30
0
41
1
10
74.4172241482709
20
2.49837852542896
30
0
41
1
10
74.4821250107092
20
2.83180636951863
30
0
41
1
10
74.6119267355857
20
3.47270597606237
30
0
41
1
10
74.6768275980239
20
3.78008269230398
30
0
41
1
10
74.8066293229004
20
4.35228750628377
30
0
41
1
10
74.8715301853386
20
4.61703116825097
30
0
41
1
10
75.0013319102151
20
5.09108715493534
30
0
41
1
10
75.0662327726534
20
5.30035416670526
30
0
41
1
10
75.1960344975299
20
5.65633044534746
30
0
41
1
10
75.2609353599681
20
5.80304533327666
30
0
41
1
10
75.3907370848445
20
6.03316734383526
30
0
41
1
10
75.4556379472829
20
6.11662138818025
30
0
41
1
10
75.5854396721594
20
6.22500485815073
30
0
41
1
10
75.6503405345976
20
6.25
30
0
41
1
10
75.7152413970358
20
6.25
30
0
0
SPLINE
5
E4
100
AcDbEntity
8
1
62
256
6
ByLayer
370
13
48
1
60
0
100
AcDbSpline
70
4
71
3
72
14
73
10
40
0
40
0
40
0
40
0
40
0.25
40
0.25
40
0.5
40
0.5
40
0.75
40
0.75
40
1
40
1
40
1
40
1
41
1
10
79.1161609732313
20
6.25
30
0
41
1
10
79.1669130617817
20
6.25
30
0
41
1
10
79.2176651503321
20
6.23474273598458
30
0
41
1
10
79.319169327433
20
6.16955017259232
30
0
41
1
10
79.3699214159833
20
6.11959526732031
30
0
41
1
10
79.4714255930842
20
5.98203289920593
30
0
41
1
10
79.5221776816346
20
5.89440829826484
30
0
41
1
10
79.6236818587354
20
5.68032453608078
30
0
41
1
10
79.6744339472858
20
5.55385508198344
30
0
41
1
10
79.7251860358363
20
5.40848786626646
30
0
0
SPLINE
5
E5
100
AcDbEntity
8
1
62
256
6
ByLayer
370
13
48
1
60
0
100
AcDbSpline
70
4
71
3
72
42
73
38
40
0
40
0
40
0
40
0
40
0.0624999999999984
40
0.0624999999999984
40
0.124999999999997
40
0.124999999999997
40
0.187499999999995
40
0.187499999999995
40
0.249999999999994
40
0.249999999999994
40
0.312499999999992
40
0.312499999999992
40
0.328124999999992
40
0.328124999999992
40
0.343749999999992
40
0.343749999999992
40
0.374999999999992
40
0.374999999999992
40
0.437499999999993
40
0.437499999999993
40
0.499999999999993
40
0.499999999999993
40
0.562499999999994
40
0.562499999999994
40
0.624999999999995
40
0.624999999999995
40
0.687499999999996
40
0.687499999999996
40
0.749999999999997
40
0.749999999999997
40
0.812499999999998
40
0.812499999999998
40
0.874999999999998
40
0.874999999999998
40
0.937499999999999
40
0.937499999999999
40
1
40
1
40
1
40
1
41
1
10
72.6
20
-4.17497646885644
30
0
41
1
10
72.6544582973469
20
-3.9395550852463
30
0
41
1
10
72.7089165946938
20
-3.68850469236955
30
0
41
1
10
72.8178331893878
20
-3.16452129509813
30
0
41
1
10
72.8722914867348
20
-2.89162812997117
30
0
41
1
10
72.9812080814286
20
-2.33428557798581
30
0
41
1
10
73.0356663787756
20
-2.04987278287348
30
0
41
1
10
73.1445829734695
20
-1.47951888875667
30
0
41
1
10
73.1990412708164
20
-1.19360410804802
30
0
41
1
10
73.3079578655103
20
-0.629008182426077
30
0
41
1
10
73.3624161628572
20
-0.350340234529995
30
0
41
1
10
73.4304890345409
20
-0.0108364925879698
30
0
41
1
10
73.4441036088776
20
0.0565376417232528
30
0
41
1
10
73.4713327575511
20
0.192727107096914
30
0
41
1
10
73.4849473318879
20
0.261248075991915
30
0
41
1
10
73.5257910548981
20
0.467943804974169
30
0
41
1
10
73.5530202035716
20
0.607255284819558
30
0
41
1
10
73.634707649592
20
1.02842273603793
30
0
41
1
10
73.6891659469389
20
1.31356466709511
30
0
41
1
10
73.7980825416328
20
1.88418879924092
30
0
41
1
10
73.8525408389797
20
2.16964713975207
30
0
41
1
10
73.9614574336736
20
2.73107833214792
30
0
41
1
10
74.0159157310206
20
3.00701615084972
30
0
41
1
10
74.1248323257145
20
3.53905868557274
30
0
41
1
10
74.1792906230614
20
3.79512349239241
30
0
41
1
10
74.2882072177553
20
4.27770305079844
30
0
41
1
10
74.3426655151022
20
4.50418212559106
30
0
41
1
10
74.4515821097962
20
4.91967442287879
30
0
41
1
10
74.5060404071431
20
5.10866484623918
30
0
41
1
10
74.614957001837
20
5.44397357898239
30
0
41
1
10
74.6694152991839
20
5.59028671858738
30
0
41
1
10
74.7783318938777
20
5.83817714986873
30
0
41
1
10
74.8327901912247
20
5.93976614402874
30
0
41
1
10
74.9417067859187
20
6.09918097293596
30
0
41
1
10
74.9961650832656
20
6.15703010629619
30
0
41
1
10
75.1050816779595
20
6.2324257234371
30
0
41
1
10
75.1595399753064
20
6.25
30
0
41
1
10
75.2139982726534
20
6.25
30
0
0
SPLINE
5
E6
100
AcDbEntity
8
1
62
256
6
ByLayer
370
13
48
1
60
0
100
AcDbSpline
70
4
71
3
72
22
73
18
40
0
40
0
40
0
40
0
40
0.125
40
0.125
40
0.25
40
0.25
40
0.375
40
0.375
40
0.5
40
0.5
40
0.625
40
0.625
40
0.75
40
0.75
40
0.875
40
0.875
40
1
40
1
40
1
40
1
41
1
10
78.6149178488488
20
6.25
30
0
41
1
10
78.6611790233067
20
6.25
30
0
41
1
10
78.7074401977644
20
6.23732914088058
30
0
41
1
10
78.79996254668
20
6.18345980000254
30
0
41
1
10
78.8462237211379
20
6.14224894946105
30
0
41
1
10
78.9387460700535
20
6.02890102981073
30
0
41
1
10
78.9850072445113
20
5.95675268065813
30
0
41
1
10
79.0775295934269
20
5.78030433155965
30
0
41
1
10
79.1237907678848
20
5.67599643036539
30
0
41
1
10
79.2163131168004
20
5.43547348880253
30
0
41
1
10
79.2625742912581
20
5.29925602848456
30
0
41
1
10
79.3550966401738
20
4.99679089727033
30
0
41
1
10
79.4013578146316
20
4.83054750999511
30
0
41
1
10
79.4938801635472
20
4.4715154846385
30
0
41
1
10
79.540141338005
20
4.27873764392956
30
0
41
1
10
79.6326636869206
20
3.87150122484573
30
0
41
1
10
79.6789248613784
20
3.65705826192976
30
0
41
1
10
79.7251860358363
20
3.43469489977142
30
0
0
SPLINE
5
E7
100
AcDbEntity
8
1
62
256
6
ByLayer
370
13
48
1
60
0
100
AcDbSpline
70
4
71
3
72
40
73
36
40
0
40
0
40
0
40
0
40
0.0624999999999995
40
0.0624999999999995
40
0.124999999999999
40
0.124999999999999
40
0.156249999999999
40
0.156249999999999
40
0.187499999999998
40
0.187499999999998
40
0.249999999999998
40
0.249999999999998
40
0.312499999999999
40
0.312499999999999
40
0.374999999999999
40
0.374999999999999
40
0.437499999999999
40
0.437499999999999
40
0.499999999999999
40
0.499999999999999
40
0.562499999999999
40
0.562499999999999
40
0.624999999999999
40
0.624999999999999
40
0.687499999999999
40
0.687499999999999
40
0.749999999999999
40
0.749999999999999
40
0.8125
40
0.8125
40
0.875
40
0.875
40
0.9375
40
0.9375
40
1
40
1
40
1
40
1
41
1
10
72.6
20
-1.70646317918781
30
0
41
1
10
72.6440157322556
20
-1.47589925433681
30
0
41
1
10
72.6880314645113
20
-1.24504776500464
30
0
41
1
10
72.7760629290226
20
-0.7873944267632
30
0
41
1
10
72.8200786612782
20
-0.560597687652006
30
0
41
1
10
72.8861022596617
20
-0.226341040166659
30
0
41
1
10
72.9081101257895
20
-0.115905401176207
30
0
41
1
10
72.9521258580452
20
0.102597824250125
30
0
41
1
10
72.974133724173
20
0.212851386925934
30
0
41
1
10
73.0401573225564
20
0.546867949222616
30
0
41
1
10
73.084173054812
20
0.773539460077217
30
0
41
1
10
73.1722045193234
20
1.23102895615898
30
0
41
1
10
73.216220251579
20
1.46184190688018
30
0
41
1
10
73.3042517160903
20
1.92299330946486
30
0
41
1
10
73.348267448346
20
2.15332303551526
30
0
41
1
10
73.4362989128572
20
2.60831655644154
30
0
41
1
10
73.4803146451129
20
2.83296848755691
30
0
41
1
10
73.5683461096241
20
3.27115633931499
30
0
41
1
10
73.6123618418798
20
3.48467861638483
30
0
41
1
10
73.7003933063911
20
3.89528708963894
30
0
41
1
10
73.7444090386468
20
4.09235983329094
30
0
41
1
10
73.832440503158
20
4.46529372120875
30
0
41
1
10
73.8764562354137
20
4.64114374566347
30
0
41
1
10
73.9644876999249
20
4.96777805468849
30
0
41
1
10
74.0085034321806
20
5.11855530724156
30
0
41
1
10
74.0965348966919
20
5.3923897903199
30
0
41
1
10
74.1405506289475
20
5.51544498265574
30
0
41
1
10
74.2285820934588
20
5.73251954099905
30
0
41
1
10
74.2725978257145
20
5.82654173232342
30
0
41
1
10
74.3606292902258
20
5.98555967547634
30
0
41
1
10
74.4046450224815
20
6.05056209121744
30
0
41
1
10
74.4926764869927
20
6.1527280374842
30
0
41
1
10
74.5366922192484
20
6.18990053050902
30
0
41
1
10
74.6247236837596
20
6.23853168631564
30
0
41
1
10
74.6687394160152
20
6.25
30
0
41
1
10
74.7127551482709
20
6.25
30
0
0
SPLINE
5
E8
100
AcDbEntity
8
1
62
256
6
ByLayer
370
13
48
1
60
0
100
AcDbSpline
70
4
71
3
72
22
73
18
40
0
40
0
40
0
40
0
40
0.125
40
0.125
40
0.25
40
0.25
40
0.375
40
0.375
40
0.5
40
0.5
40
0.625
40
0.625
40
0.75
40
0.75
40
0.875
40
0.875
40
1
40
1
40
1
40
1
41
1
10
78.1136747244664
20
6.25
30
0
41
1
10
78.1808210291068
20
6.25
30
0
41
1
10
78.2479673337472
20
6.22323614438673
30
0
41
1
10
78.382259943028
20
6.10693143439408
30
0
41
1
10
78.4494062476685
20
6.01731306471328
30
0
41
1
10
78.5836988569493
20
5.77022609950143
30
0
41
1
10
78.6508451615897
20
5.61270459006801
30
0
41
1
10
78.7851377708705
20
5.2311349284391
30
0
41
1
10
78.8522840755109
20
5.00708627830318
30
0
41
1
10
78.9865766847918
20
4.50108185076471
30
0
41
1
10
79.0537229894321
20
4.2191875651784
30
0
41
1
10
79.188015598713
20
3.6125033078047
30
0
41
1
10
79.2551619033534
20
3.28781820090174
30
0
41
1
10
79.3894545126343
20
2.61436194061071
30
0
41
1
10
79.4566008172746
20
2.26570121290718
30
0
41
1
10
79.5908934265554
20
1.56351786956259
30
0
41
1
10
79.6580397311959
20
1.21007607664782
30
0
41
1
10
79.7251860358363
20
0.862526929017065
30
0
0
SPLINE
5
E9
100
AcDbEntity
8
1
62
256
6
ByLayer
370
13
48
1
60
0
100
AcDbSpline
70
4
71
3
72
22
73
18
40
0
40
0
40
0
40
0
40
0.125
40
0.125
40
0.25
40
0.25
40
0.375
40
0.375
40
0.5
40
0.5
40
0.625
40
0.625
40
0.75
40
0.75
40
0.875
40
0.875
40
1
40
1
40
1
40
1
41
1
10
72.6
20
0.862523241022387
30
0
41
1
10
72.6671463343287
20
1.21007250175299
30
0
41
1
10
72.7342926686574
20
1.5635144390059
30
0
41
1
10
72.8685853373148
20
2.26569812368794
30
0
41
1
10
72.9357316716434
20
2.61435904834065
30
0
41
1
10
73.0700243403007
20
3.28781573341871
30
0
41
1
10
73.1371706746295
20
3.61250106795498
30
0
41
1
10
73.2714633432869
20
4.21918578140873
30
0
41
1
10
73.3386096776155
20
4.50108029515417
30
0
41
1
10
73.4729023462729
20
5.00708514919685
30
0
41
1
10
73.5400486806016
20
5.23113399744142
30
0
41
1
10
73.674341349259
20
5.61270400268981
30
0
41
1
10
73.7414876835877
20
5.77022565755303
30
0
41
1
10
73.875780352245
20
6.01731285117475
30
0
41
1
10
73.9429266865737
20
6.10693130391599
30
0
41
1
10
74.0772193552311
20
6.22323612059486
30
0
41
1
10
74.1443656895598
20
6.25
30
0
41
1
10
74.2115120238885
20
6.25
30
0
0
SPLINE
5
EA
100
AcDbEntity
8
1
62
256
6
ByLayer
370
13
48
1
60
0
100
AcDbSpline
70
4
71
3
72
40
73
36
40
0
40
0
40
0
40
0
40
0.0624999999999995
40
0.0624999999999995
40
0.124999999999999
40
0.124999999999999
40
0.187499999999999
40
0.187499999999999
40
0.249999999999998
40
0.249999999999998
40
0.312499999999998
40
0.312499999999998
40
0.374999999999997
40
0.374999999999997
40
0.437499999999997
40
0.437499999999997
40
0.499999999999996
40
0.499999999999996
40
0.562499999999996
40
0.562499999999996
40
0.624999999999995
40
0.624999999999995
40
0.687499999999995
40
0.687499999999995
40
0.749999999999994
40
0.749999999999994
40
0.812499999999994
40
0.812499999999994
40
0.843749999999994
40
0.843749999999994
40
0.874999999999995
40
0.874999999999995
40
0.937499999999997
40
0.937499999999997
40
1
40
1
40
1
40
1
41
1
10
77.6124316000839
20
6.25
30
0
41
1
10
77.6564473174954
20
6.25
30
0
41
1
10
77.7004630349069
20
6.23853169406596
30
0
41
1
10
77.7884944697299
20
6.18990057196072
30
0
41
1
10
77.8325101871415
20
6.15272810490316
30
0
41
1
10
77.9205416219645
20
6.0505622305289
30
0
41
1
10
77.964557339376
20
5.98555986072705
30
0
41
1
10
78.052588774199
20
5.82654202972634
30
0
41
1
10
78.0966044916105
20
5.73251990462291
30
0
41
1
10
78.1846359264335
20
5.51544549752253
30
0
41
1
10
78.2286516438451
20
5.39239039020737
30
0
41
1
10
78.316683078668
20
5.11855609259831
30
0
41
1
10
78.3606987960796
20
4.96777894048179
30
0
41
1
10
78.4487302309026
20
4.64114484268097
30
0
41
1
10
78.492745948314
20
4.46529492899256
30
0
41
1
10
78.580777383137
20
4.09236126668785
30
0
41
1
10
78.6247931005487
20
3.89528863785605
30
0
41
1
10
78.7128245353716
20
3.48468039159465
30
0
41
1
10
78.756840252783
20
3.27115822667122
30
0
41
1
10
78.8448716876061
20
2.83297059018415
30
0
41
1
10
78.8888874050176
20
2.60831876217301
30
0
41
1
10
78.9769188398406
20
2.15332543312832
30
0
41
1
10
79.0209345572521
20
1.92299579584395
30
0
41
1
10
79.1089659920751
20
1.46184455271208
30
0
41
1
10
79.1529817094867
20
1.2310316726761
30
0
41
1
10
79.2410131443096
20
0.773542297877242
30
0
41
1
10
79.2850288617212
20
0.546870837626869
30
0
41
1
10
79.3510524378385
20
0.212854335910634
30
0
41
1
10
79.3730602965442
20
0.102600750304077
30
0
41
1
10
79.4170760139558
20
-0.115902358391224
30
0
41
1
10
79.4390838726615
20
-0.226337939918892
30
0
41
1
10
79.5051074487787
20
-0.560594419099232
30
0
41
1
10
79.5491231661902
20
-0.787391051433076
30
0
41
1
10
79.6371546010132
20
-1.24504419495236
30
0
41
1
10
79.6811703184247
20
-1.47589559636714
30
0
41
1
10
79.7251860358362
20
-1.70645944686132
30
0
0
SPLINE
5
EB
100
AcDbEntity
8
1
62
256
6
ByLayer
370
13
48
1
60
0
100
AcDbSpline
70
4
71
3
72
22
73
18
40
0
40
0
40
0
40
0
40
0.125
40
0.125
40
0.25
40
0.25
40
0.375
40
0.375
40
0.5
40
0.5
40
0.625
40
0.625
40
0.75
40
0.75
40
0.875
40
0.875
40
1
40
1
40
1
40
1
41
1
10
72.6
20
3.43469147491115
30
0
41
1
10
72.6462612041461
20
3.6570550608115
30
0
41
1
10
72.6925224082921
20
3.87149825307984
30
0
41
1
10
72.7850448165843
20
4.27873512744006
30
0
41
1
10
72.8313060207304
20
4.47151319400712
30
0
41
1
10
72.9238284290225
20
4.83054565324369
30
0
41
1
10
72.9700896331686
20
4.99678924848348
30
0
41
1
10
73.0626120414608
20
5.29925476564927
30
0
41
1
10
73.1088732456069
20
5.43547240391837
30
0
41
1
10
73.2013956538991
20
5.67599566297136
30
0
41
1
10
73.2476568580452
20
5.78030370369612
30
0
41
1
10
73.3401792663373
20
5.95675228939405
30
0
41
1
10
73.3864404704834
20
6.02890073563211
30
0
41
1
10
73.4789628787756
20
6.1422488071909
30
0
41
1
10
73.5252240829216
20
6.18345971258861
30
0
41
1
10
73.6177464912138
20
6.23732912458195
30
0
41
1
10
73.6640076953599
20
6.25
30
0
41
1
10
73.710268899506
20
6.25
30
0
0
SPLINE
5
EC
100
AcDbEntity
8
1
62
256
6
ByLayer
370
13
48
1
60
0
100
AcDbSpline
70
4
71
3
72
42
73
38
40
0
40
0
40
0
40
0
40
0.0625
40
0.0625
40
0.125
40
0.125
40
0.1875
40
0.1875
40
0.25
40
0.25
40
0.3125
40
0.3125
40
0.375
40
0.375
40
0.4375
40
0.4375
40
0.5
40
0.5
40
0.5625
40
0.5625
40
0.625
40
0.625
40
0.65625
40
0.65625
40
0.671875000000001
40
0.671875000000001
40
0.687500000000001
40
0.687500000000001
40
0.750000000000001
40
0.750000000000001
40
0.812500000000001
40
0.812500000000001
40
0.875
40
0.875
40
0.9375
40
0.9375
40
1
40
1
40
1
40
1
41
1
10
77.1111884757015
20
6.25
30
0
41
1
10
77.1656467582043
20
6.25
30
0
41
1
10
77.2201050407072
20
6.2324257330485
30
0
41
1
10
77.3290216057127
20
6.15703015833836
30
0
41
1
10
77.3834798882154
20
6.09918105783495
30
0
41
1
10
77.492396453221
20
5.93976631984762
30
0
41
1
10
77.5468547357239
20
5.8381773837778
30
0
41
1
10
77.6557713007295
20
5.59028709280366
30
0
41
1
10
77.7102295832324
20
5.44397403541936
30
0
41
1
10
77.819146148238
20
5.10866548657572
30
0
41
1
10
77.8736044307408
20
4.91967516486733
30
0
41
1
10
77.9825209957464
20
4.50418308241359
30
0
41
1
10
78.0369792782492
20
4.27770412075
30
0
41
1
10
78.1458958432548
20
3.79512479017143
30
0
41
1
10
78.2003541257576
20
3.53906009798717
30
0
41
1
10
78.3092706907632
20
3.0070177839207
30
0
41
1
10
78.3637289732661
20
2.73108007118697
30
0
41
1
10
78.4726455382716
20
2.16964907352474
30
0
41
1
10
78.5271038207745
20
1.88419082175045
30
0
41
1
10
78.6360203857801
20
1.31356684415533
30
0
41
1
10
78.6904786682829
20
1.02842497891118
30
0
41
1
10
78.7721660920372
20
0.607257607413345
30
0
41
1
10
78.7993952332886
20
0.467946151000603
30
0
41
1
10
78.8402389451657
20
0.261250452444386
30
0
41
1
10
78.8538535157913
20
0.192729492905642
30
0
41
1
10
78.8810826570427
20
0.0565400446865567
30
0
41
1
10
78.8946972276684
20
-0.0108340784719303
30
0
41
1
10
78.962770080797
20
-0.350337675547024
30
0
41
1
10
79.0172283632998
20
-0.629005512444223
30
0
41
1
10
79.1261449283054
20
-1.19360123775735
30
0
41
1
10
79.1806032108082
20
-1.47951592921706
30
0
41
1
10
79.2895197758138
20
-2.04986967924054
30
0
41
1
10
79.3439780583166
20
-2.33428241958839
30
0
41
1
10
79.4528946233222
20
-2.89162490775519
30
0
41
1
10
79.5073529058251
20
-3.16451806390583
30
0
41
1
10
79.6162694708307
20
-3.68850149637359
30
0
41
1
10
79.6707277533335
20
-3.93955193347176
30
0
41
1
10
79.7251860358363
20
-4.1749733886617
30
0
0
SPLINE
5
ED
100
AcDbEntity
8
1
62
256
6
ByLayer
370
13
48
1
60
0
100
AcDbSpline
70
4
71
3
72
14
73
10
40
0
40
0
40
0
40
0
40
0.25
40
0.25
40
0.5
40
0.5
40
0.75
40
0.75
40
1
40
1
40
1
40
1
41
1
10
72.6
20
5.40848582542617
30
0
41
1
10
72.6507521479269
20
5.55385338716786
30
0
41
1
10
72.7015042958539
20
5.68032314806683
30
0
41
1
10
72.8030085917078
20
5.89440743210417
30
0
41
1
10
72.8537607396348
20
5.98203224812542
30
0
41
1
10
72.9552650354887
20
6.11959495276759
30
0
41
1
10
73.0060171834157
20
6.16954997957609
30
0
41
1
10
73.1075214792696
20
6.23474270018784
30
0
41
1
10
73.1582736271966
20
6.25
30
0
41
1
10
73.2090257751236
20
6.25
30
0
0
SPLINE
5
EE
100
AcDbEntity
8
1
62
256
6
ByLayer
370
13
48
1
60
0
100
AcDbSpline
70
4
71
3
72
42
73
38
40
0
40
0
40
0
40
0
40
0.0624999999999988
40
0.0624999999999988
40
0.124999999999998
40
0.124999999999998
40
0.187499999999997
40
0.187499999999997
40
0.249999999999995
40
0.249999999999995
40
0.312499999999994
40
0.312499999999994
40
0.374999999999993
40
0.374999999999993
40
0.437499999999992
40
0.437499999999992
40
0.49999999999999
40
0.49999999999999
40
0.562499999999989
40
0.562499999999989
40
0.578124999999989
40
0.578124999999989
40
0.593749999999989
40
0.593749999999989
40
0.62499999999999
40
0.62499999999999
40
0.687499999999991
40
0.687499999999991
40
0.749999999999993
40
0.749999999999993
40
0.812499999999995
40
0.812499999999995
40
0.874999999999997
40
0.874999999999997
40
0.937499999999998
40
0.937499999999998
40
1
40
1
40
1
40
1
41
1
10
76.609945351319
20
6.25
30
0
41
1
10
76.6748461989131
20
6.25
30
0
41
1
10
76.7397470465072
20
6.22500486964015
30
0
41
1
10
76.8695487416954
20
6.1166214510593
30
0
41
1
10
76.9344495892896
20
6.03316744668766
30
0
41
1
10
77.0642512844778
20
5.80304554622552
30
0
41
1
10
77.1291521320719
20
5.65633072845841
30
0
41
1
10
77.2589538272601
20
5.30035461636487
30
0
41
1
10
77.3238546748542
20
5.09108770095386
30
0
41
1
10
77.4536563700424
20
4.61703192334636
30
0
41
1
10
77.5185572176365
20
4.35228837400101
30
0
41
1
10
77.6483589128247
20
3.78008378770846
30
0
41
1
10
77.7132597604189
20
3.47270718640595
30
0
41
1
10
77.8430614556071
20
2.83180779773508
30
0
41
1
10
77.9079623032012
20
2.49838005647862
30
0
41
1
10
78.0377639983894
20
1.82290479154835
30
0
41
1
10
78.1026648459835
20
1.48093326186245
30
0
41
1
10
78.2324665411717
20
0.804178898024389
30
0
41
1
10
78.2973673887658
20
0.469436471853356
30
0
41
1
10
78.3784934482585
20
0.0631867592834112
30
0
41
1
10
78.394718660157
20
-0.0170544460369797
30
0
41
1
10
78.4271690839541
20
-0.179092626587078
30
0
41
1
10
78.4433942958526
20
-0.26072585589705
30
0
41
1
10
78.4920699315482
20
-0.507221732954889
30
0
41
1
10
78.5245203553453
20
-0.673688366797847
30
0
41
1
10
78.6218716267364
20
-1.17723928401665
30
0
41
1
10
78.6867724743305
20
-1.51857337323295
30
0
41
1
10
78.8165741695187
20
-2.19774126406057
30
0
41
1
10
78.8814750171128
20
-2.53550873124303
30
0
41
1
10
79.0112767123011
20
-3.19032971781095
30
0
41
1
10
79.0761775598952
20
-3.50729115471296
30
0
41
1
10
79.2059792550834
20
-4.10333650062668
30
0
41
1
10
79.2708801026774
20
-4.38232944091274
30
0
41
1
10
79.4006817978657
20
-4.88818525334085
30
0
41
1
10
79.4655826454598
20
-5.11498895648404
30
0
41
1
10
79.5953843406481
20
-5.50749060502301
30
0
41
1
10
79.6602851882421
20
-5.67317911660976
30
0
41
1
10
79.7251860358363
20
-5.80700499792866
30
0
0
SPLINE
5
EF
100
AcDbEntity
8
1
62
256
6
ByLayer
370
13
48
1
60
0
100
AcDbSpline
70
4
71
3
72
8
73
4
40
0
40
0
40
0
40
0
40
1
40
1
40
1
40
1
41
1
10
72.6
20
6.22632916305858
30
0
41
1
10
72.635927550247
20
6.24236401355711
30
0
41
1
10
72.6718551004941
20
6.25
30
0
41
1
10
72.7077826507411
20
6.25
30
0
0
SPLINE
5
F0
100
AcDbEntity
8
1
62
256
6
ByLayer
370
13
48
1
60
0
100
AcDbSpline
70
4
71
3
72
46
73
42
40
0
40
0
40
0
40
0
40
0.0624999999999981
40
0.0624999999999981
40
0.124999999999996
40
0.124999999999996
40
0.187499999999994
40
0.187499999999994
40
0.249999999999993
40
0.249999999999993
40
0.312499999999991
40
0.312499999999991
40
0.374999999999989
40
0.374999999999989
40
0.437499999999987
40
0.437499999999987
40
0.468749999999986
40
0.468749999999986
40
0.484374999999986
40
0.484374999999986
40
0.499999999999985
40
0.499999999999985
40
0.562499999999987
40
0.562499999999987
40
0.624999999999989
40
0.624999999999989
40
0.68749999999999
40
0.68749999999999
40
0.749999999999992
40
0.749999999999992
40
0.812499999999993
40
0.812499999999993
40
0.874999999999995
40
0.874999999999995
40
0.937499999999997
40
0.937499999999997
40
0.968749999999998
40
0.968749999999998
40
0.984374999999999
40
0.984374999999999
40
1
40
1
40
1
40
1
41
1
10
76.1087022269365
20
6.25
30
0
41
1
10
76.1840456396219
20
6.25
30
0
41
1
10
76.2593890523074
20
6.21625539598824
30
0
41
1
10
76.4100758776782
20
6.06850997071956
30
0
41
1
10
76.4854192903636
20
5.95437432677497
30
0
41
1
10
76.6361061157344
20
5.64010835729349
30
0
41
1
10
76.7114495284198
20
5.43990340433689
30
0
41
1
10
76.8621363537907
20
4.9584528377041
30
0
41
1
10
76.9374797664761
20
4.67724731909442
30
0
41
1
10
77.0881665918469
20
4.05013404880279
30
0
41
1
10
77.1635100045323
20
3.70437968074705
30
0
41
1
10
77.3141968299031
20
2.97291312826781
30
0
41
1
10
77.3895402425885
20
2.58740121860478
30
0
41
1
10
77.5402270679593
20
1.80396258275997
30
0
41
1
10
77.6155704806447
20
1.40619766497235
30
0
41
1
10
77.7285855996728
20
0.818686000182822
30
0
41
1
10
77.7662573060155
20
0.624332734006686
30
0
41
1
10
77.8227648655296
20
0.336870355594016
30
0
41
1
10
77.841600718701
20
0.241724026917524
30
0
41
1
10
77.8792724250437
20
0.0530442896532577
30
0
41
1
10
77.898108278215
20
-0.0400181728276152
30
0
41
1
10
77.9922875440718
20
-0.511343291866467
30
0
41
1
10
78.0676309567572
20
-0.901680328182039
30
0
41
1
10
78.218317782128
20
-1.68937566695797
30
0
41
1
10
78.2936611948135
20
-2.08663677301098
30
0
41
1
10
78.4443480201842
20
-2.86260632711407
30
0
41
1
10
78.5196914328698
20
-3.24113738093499
30
0
41
1
10
78.6703782582406
20
-3.95224954630032
30
0
41
1
10
78.7457216709259
20
-4.28463344350121
30
0
41
1
10
78.8964084962968
20
-4.8801312679276
30
0
41
1
10
78.9717519089821
20
-5.14311480579926
30
0
41
1
10
79.1224387343529
20
-5.58581322113943
30
0
41
1
10
79.1977821470383
20
-5.76551791197187
30
0
41
1
10
79.3484689724091
20
-6.03923602111166
30
0
41
1
10
79.4238123850946
20
-6.13334455854661
30
0
41
1
10
79.5368275041227
20
-6.21605853192369
30
0
41
1
10
79.5744992104654
20
-6.23395725951019
30
0
41
1
10
79.6310067699795
20
-6.24749514119108
30
0
41
1
10
79.6498426231508
20
-6.24979207754993
30
0
41
1
10
79.6875143294935
20
-6.25018092383212
30
0
41
1
10
79.7063501826649
20
-6.24828269448147
30
0
41
1
10
79.7251860358363
20
-6.24417943179409
30
0
0
SPLINE
5
F1
100
AcDbEntity
8
1
62
256
6
ByLayer
370
13
48
1
60
0
100
AcDbSpline
70
4
71
3
72
78
73
74
40
0
40
0
40
0
40
0
40
0.0312500000000004
40
0.0312500000000004
40
0.0625000000000008
40
0.0625000000000008
40
0.0937500000000011
40
0.0937500000000011
40
0.125000000000002
40
0.125000000000002
40
0.156250000000002
40
0.156250000000002
40
0.187500000000002
40
0.187500000000002
40
0.218750000000003
40
0.218750000000003
40
0.250000000000003
40
0.250000000000003
40
0.281250000000004
40
0.281250000000004
40
0.312500000000004
40
0.312500000000004
40
0.343750000000005
40
0.343750000000005
40
0.375000000000005
40
0.375000000000005
40
0.406250000000005
40
0.406250000000005
40
0.421875000000005
40
0.421875000000005
40
0.429687500000005
40
0.429687500000005
40
0.437500000000006
40
0.437500000000006
40
0.468750000000006
40
0.468750000000006
40
0.500000000000006
40
0.500000000000006
40
0.531250000000006
40
0.531250000000006
40
0.562500000000006
40
0.562500000000006
40
0.593750000000006
40
0.593750000000006
40
0.625000000000006
40
0.625000000000006
40
0.656250000000006
40
0.656250000000006
40
0.687500000000006
40
0.687500000000006
40
0.718750000000006
40
0.718750000000006
40
0.750000000000006
40
0.750000000000006
40
0.781250000000006
40
0.781250000000006
40
0.812500000000006
40
0.812500000000006
40
0.843750000000006
40
0.843750000000006
40
0.859375000000006
40
0.859375000000006
40
0.867187500000006
40
0.867187500000006
40
0.875000000000006
40
0.875000000000006
40
0.906250000000004
40
0.906250000000004
40
0.937500000000003
40
0.937500000000003
40
0.968750000000001
40
0.968750000000001
40
1
40
1
40
1
40
1
41
1
10
75.6074591025541
20
6.25
30
0
41
1
10
75.6503520914424
20
6.25
30
0
41
1
10
75.6932450803308
20
6.23911034862971
30
0
41
1
10
75.7790310581075
20
6.19299325986253
30
0
41
1
10
75.8219240469958
20
6.15775733977088
30
0
41
1
10
75.9077100247725
20
6.0609524858618
30
0
41
1
10
75.950603013661
20
5.99937560825651
30
0
41
1
10
76.0363889914376
20
5.84872373665155
30
0
41
1
10
76.079281980326
20
5.75964267750243
30
0
41
1
10
76.1650679581027
20
5.55386294843487
30
0
41
1
10
76.2079609469911
20
5.43716139703574
30
0
41
1
10
76.2937469247678
20
5.1772058808715
30
0
41
1
10
76.3366399136561
20
5.03395313642233
30
0
41
1
10
76.4224258914329
20
4.72317306310072
30
0
41
1
10
76.4653188803212
20
4.55565127328515
30
0
41
1
10
76.5511048580979
20
4.19972222589416
30
0
41
1
10
76.5939978469862
20
4.01132419843117
30
0
41
1
10
76.6797838247629
20
3.61791828054408
30
0
41
1
10
76.7226768136513
20
3.41292194747487
30
0
41
1
10
76.808462791428
20
2.9911638046145
30
0
41
1
10
76.8513557803164
20
2.77441411684617
30
0
41
1
10
76.937141758093
20
2.33420019870397
30
0
41
1
10
76.9800347469815
20
2.11074693617434
30
0
41
1
10
77.0658207247581
20
1.66203055096528
30
0
41
1
10
77.1087137136465
20
1.43677595215956
30
0
41
1
10
77.1944996914233
20
0.988918460518164
30
0
41
1
10
77.2373926803116
20
0.766320994577427
30
0
41
1
10
77.3017321636441
20
0.437269028271743
30
0
41
1
10
77.3231786580884
20
0.328386810548835
30
0
41
1
10
77.3553483997546
20
0.166568985755674
30
0
41
1
10
77.3660716469767
20
0.112880245608039
30
0
41
1
10
77.3875181414209
20
0.0060496791275853
30
0
41
1
10
77.3982413886429
20
-0.0470514754374847
30
0
41
1
10
77.4518576247534
20
-0.314821378996612
30
0
41
1
10
77.4947506136418
20
-0.533351541349077
30
0
41
1
10
77.5805365914184
20
-0.975760860524105
30
0
41
1
10
77.6234295803068
20
-1.19963675764856
30
0
41
1
10
77.7092155580835
20
-1.64871414594333
30
0
41
1
10
77.7521085469718
20
-1.87390920765321
30
0
41
1
10
77.8378945247485
20
-2.32100293524826
30
0
41
1
10
77.880787513637
20
-2.54289220739793
30
0
41
1
10
77.9665734914137
20
-2.97839255030075
30
0
41
1
10
78.009466480302
20
-3.19199212541528
30
0
41
1
10
78.0952524580787
20
-3.60588881560105
30
0
41
1
10
78.138145446967
20
-3.80617378996038
30
0
41
1
10
78.2239314247438
20
-4.18873527941537
30
0
41
1
10
78.2668244136321
20
-4.3710007885912
30
0
41
1
10
78.3526103914088
20
-4.71348987134377
30
0
41
1
10
78.3955033802972
20
-4.87370525704014
30
0
41
1
10
78.4812893580739
20
-5.1690272913994
30
0
41
1
10
78.5241823469623
20
-5.30412973005647
30
0
41
1
10
78.609968324739
20
-5.54731555642471
30
0
41
1
10
78.6528613136273
20
-5.65539907357319
30
0
41
1
10
78.738647291404
20
-5.84385502616934
30
0
41
1
10
78.7815402802924
20
-5.92423146741638
30
0
41
1
10
78.8673262580691
20
-6.0577349706106
30
0
41
1
10
78.9102192469575
20
-6.11086883667056
30
0
41
1
10
78.9960052247342
20
-6.19133584527052
30
0
41
1
10
79.0388982136225
20
-6.21867723820185
30
0
41
1
10
79.1032376969551
20
-6.24199211003068
30
0
41
1
10
79.1246841913992
20
-6.24681929830419
30
0
41
1
10
79.1568539330655
20
-6.2498864002454
30
0
41
1
10
79.1675771802876
20
-6.2502154818138
30
0
41
1
10
79.1890236747319
20
-6.24951577258344
30
0
41
1
10
79.1997469219539
20
-6.24848086247715
30
0
41
1
10
79.2533631580644
20
-6.23977583183171
30
0
41
1
10
79.2962561469527
20
-6.22149412824984
30
0
41
1
10
79.3820421247294
20
-6.15989173224884
30
0
41
1
10
79.4249351136178
20
-6.11656259248073
30
0
41
1
10
79.5107210913944
20
-6.0031046666883
30
0
41
1
10
79.5536140802828
20
-5.93296837774025
30
0
41
1
10
79.6394000580595
20
-5.76503906840338
30
0
41
1
10
79.682293046948
20
-5.66724085330995
30
0
41
1
10
79.7251860358363
20
-5.55573542265324
30
0
0
SPLINE
5
F2
100
AcDbEntity
8
1
62
256
6
ByLayer
370
13
48
1
60
0
100
AcDbSpline
70
4
71
3
72
78
73
74
40
0
40
0
40
0
40
0
40
0.0312500000000009
40
0.0312500000000009
40
0.0625000000000018
40
0.0625000000000018
40
0.0937500000000027
40
0.0937500000000027
40
0.125000000000004
40
0.125000000000004
40
0.156250000000005
40
0.156250000000005
40
0.187500000000005
40
0.187500000000005
40
0.218750000000006
40
0.218750000000006
40
0.250000000000007
40
0.250000000000007
40
0.281250000000008
40
0.281250000000008
40
0.312500000000009
40
0.312500000000009
40
0.34375000000001
40
0.34375000000001
40
0.375000000000011
40
0.375000000000011
40
0.382812500000011
40
0.382812500000011
40
0.390625000000011
40
0.390625000000011
40
0.40625000000001
40
0.40625000000001
40
0.43750000000001
40
0.43750000000001
40
0.468750000000009
40
0.468750000000009
40
0.500000000000009
40
0.500000000000009
40
0.531250000000008
40
0.531250000000008
40
0.562500000000008
40
0.562500000000008
40
0.593750000000007
40
0.593750000000007
40
0.625000000000007
40
0.625000000000007
40
0.656250000000006
40
0.656250000000006
40
0.687500000000006
40
0.687500000000006
40
0.718750000000005
40
0.718750000000005
40
0.750000000000005
40
0.750000000000005
40
0.765625000000005
40
0.765625000000005
40
0.773437500000005
40
0.773437500000005
40
0.781250000000005
40
0.781250000000005
40
0.812500000000004
40
0.812500000000004
40
0.843750000000003
40
0.843750000000003
40
0.875000000000003
40
0.875000000000003
40
0.906250000000002
40
0.906250000000002
40
0.937500000000001
40
0.937500000000001
40
0.968750000000001
40
0.968750000000001
40
1
40
1
40
1
40
1
41
1
10
75.1062159781716
20
6.25
30
0
41
1
10
75.1543302496057
20
6.25
30
0
41
1
10
75.2024445210396
20
6.23629122837022
30
0
41
1
10
75.2986730639076
20
6.17788689354296
30
0
41
1
10
75.3467873353416
20
6.1331762906367
30
0
41
1
10
75.4430158782097
20
6.01013646951748
30
0
41
1
10
75.4911301496437
20
5.93179375935532
30
0
41
1
10
75.5873586925117
20
5.74026206802168
30
0
41
1
10
75.6354729639457
20
5.62706416078075
30
0
41
1
10
75.7317015068137
20
5.36634672955137
30
0
41
1
10
75.7798157782477
20
5.21882551170901
30
0
41
1
10
75.8760443211157
20
4.8919072507683
30
0
41
1
10
75.9241585925498
20
4.71251708589705
30
0
41
1
10
76.0203871354178
20
4.32615356779382
30
0
41
1
10
76.0685014068517
20
4.11919500505724
30
0
41
1
10
76.1647299497197
20
3.6835044866379
30
0
41
1
10
76.2128442211537
20
3.4547925953473
30
0
41
1
10
76.3090727640217
20
2.98238763684236
30
0
41
1
10
76.3571870354558
20
2.73871607433637
30
0
41
1
10
76.4534155783238
20
2.24352737163704
30
0
41
1
10
76.5015298497578
20
1.99202935076516
30
0
41
1
10
76.5977583926258
20
1.48804305597631
30
0
41
1
10
76.6458726640599
20
1.23556877146706
30
0
41
1
10
76.7421012069278
20
0.735699067916812
30
0
41
1
10
76.7902154783619
20
0.488311369362663
30
0
41
1
10
76.8503583176544
20
0.185347519469815
30
0
41
1
10
76.8623868855128
20
0.125065325692191
30
0
41
1
10
76.8864440212298
20
0.0051872187165998
30
0
41
1
10
76.8984725890883
20
-0.0543688352003358
30
0
41
1
10
76.9345582926638
20
-0.234742904214414
30
0
41
1
10
76.9586154283808
20
-0.356332559697819
30
0
41
1
10
77.0307868355318
20
-0.724295333545314
30
0
41
1
10
77.0789011069659
20
-0.973897975850775
30
0
41
1
10
77.1751296498339
20
-1.47637760150687
30
0
41
1
10
77.223243921268
20
-1.72924484306139
30
0
41
1
10
77.319472464136
20
-2.23190151646068
30
0
41
1
10
77.3675867355699
20
-2.48167512138204
30
0
41
1
10
77.4638152784379
20
-2.97114657301714
30
0
41
1
10
77.511929549872
20
-3.21082417445635
30
0
41
1
10
77.6081580927399
20
-3.67300910616461
30
0
41
1
10
77.656272364174
20
-3.89549494989137
30
0
41
1
10
77.752500907042
20
-4.31674487415623
30
0
41
1
10
77.800615178476
20
-4.51549018872862
30
0
41
1
10
77.8968437213439
20
-4.88387001874133
30
0
41
1
10
77.944957992778
20
-5.05349206269764
30
0
41
1
10
78.041186535646
20
-5.35988024923037
30
0
41
1
10
78.08930080708
20
-5.4966422749697
30
0
41
1
10
78.185529349948
20
-5.7354642355825
30
0
41
1
10
78.233643621382
20
-5.83752839498621
30
0
41
1
10
78.32987216425
20
-6.00700368158903
30
0
41
1
10
78.3779864356841
20
-6.074425515244
30
0
41
1
10
78.4742149785521
20
-6.17632783980687
30
0
41
1
10
78.5223292499861
20
-6.21082263382127
30
0
41
1
10
78.5945006571371
20
-6.2400994144142
30
0
41
1
10
78.6185577928541
20
-6.24612266080089
30
0
41
1
10
78.6546434964297
20
-6.24989407847954
30
0
41
1
10
78.6666720642882
20
-6.25027765357106
30
0
41
1
10
78.6907292000051
20
-6.24933564035999
30
0
41
1
10
78.7027577678635
20
-6.24800125099185
30
0
41
1
10
78.762900607156
20
-6.23686449397445
30
0
41
1
10
78.8110148785901
20
-6.21363429441186
30
0
41
1
10
78.9072434214581
20
-6.13522224757821
30
0
41
1
10
78.9553576928921
20
-6.08002554242319
30
0
41
1
10
79.0515862357602
20
-5.93545078830505
30
0
41
1
10
79.0997005071941
20
-5.84606037136791
30
0
41
1
10
79.1959290500622
20
-5.63239779232396
30
0
41
1
10
79.2440433214962
20
-5.50811876294458
30
0
41
1
10
79.3402718643642
20
-5.22580793267602
30
0
41
1
10
79.3883861357982
20
-5.06777711010631
30
0
41
1
10
79.4846146786662
20
-4.721017337662
30
0
41
1
10
79.5327289501003
20
-4.53229796038315
30
0
41
1
10
79.6289574929683
20
-4.12898411390265
30
0
41
1
10
79.6770717644023
20
-3.91440648019056
30
0
41
1
10
79.7251860358363
20
-3.68998534558193
30
0
0
SPLINE
5
F3
100
AcDbEntity
8
1
62
256
6
ByLayer
370
13
48
1
60
0
100
AcDbSpline
70
4
71
3
72
78
73
74
40
0
40
0
40
0
40
0
40
0.0312499999999991
40
0.0312499999999991
40
0.0624999999999981
40
0.0624999999999981
40
0.0937499999999971
40
0.0937499999999971
40
0.124999999999996
40
0.124999999999996
40
0.156249999999995
40
0.156249999999995
40
0.187499999999994
40
0.187499999999994
40
0.218749999999993
40
0.218749999999993
40
0.249999999999992
40
0.249999999999992
40
0.281249999999991
40
0.281249999999991
40
0.31249999999999
40
0.31249999999999
40
0.343749999999989
40
0.343749999999989
40
0.351562499999989
40
0.351562499999989
40
0.359374999999989
40
0.359374999999989
40
0.374999999999989
40
0.374999999999989
40
0.406249999999989
40
0.406249999999989
40
0.437499999999989
40
0.437499999999989
40
0.468749999999989
40
0.468749999999989
40
0.499999999999989
40
0.499999999999989
40
0.531249999999989
40
0.531249999999989
40
0.562499999999989
40
0.562499999999989
40
0.593749999999989
40
0.593749999999989
40
0.624999999999989
40
0.624999999999989
40
0.656249999999989
40
0.656249999999989
40
0.687499999999989
40
0.687499999999989
40
0.695312499999989
40
0.695312499999989
40
0.703124999999989
40
0.703124999999989
40
0.718749999999989
40
0.718749999999989
40
0.749999999999991
40
0.749999999999991
40
0.781249999999992
40
0.781249999999992
40
0.812499999999993
40
0.812499999999993
40
0.843749999999994
40
0.843749999999994
40
0.874999999999995
40
0.874999999999995
40
0.906249999999996
40
0.906249999999996
40
0.937499999999998
40
0.937499999999998
40
0.968749999999999
40
0.968749999999999
40
1
40
1
40
1
40
1
41
1
10
74.6049728537892
20
6.25
30
0
41
1
10
74.6583084077688
20
6.25
30
0
41
1
10
74.7116439617485
20
6.23314508968727
30
0
41
1
10
74.8183150697077
20
6.16092279911211
30
0
41
1
10
74.8716506236875
20
6.10553034576174
30
0
41
1
10
74.9783217316468
20
5.95291440463146
30
0
41
1
10
75.0316572856264
20
5.85566961478747
30
0
41
1
10
75.1383283935857
20
5.61827959919086
30
0
41
1
10
75.1916639475654
20
5.47812300374531
30
0
41
1
10
75.2983350555247
20
5.15660296563883
30
0
41
1
10
75.3516706095044
20
4.9752428320227
30
0
41
1
10
75.4583417174637
20
4.57590897133414
30
0
41
1
10
75.5116772714434
20
4.35795427553259
30
0
41
1
10
75.6183483794026
20
3.89258867235176
30
0
41
1
10
75.6716839333823
20
3.64520886925783
30
0
41
1
10
75.7783550413416
20
3.12994396556411
30
0
41
1
10
75.8316905953213
20
2.86209482693624
30
0
41
1
10
75.9383617032805
20
2.31559943410437
30
0
41
1
10
75.9916972572602
20
2.03698597031439
30
0
41
1
10
76.0983683652196
20
1.47836564923531
30
0
41
1
10
76.1517039191992
20
1.19838241966235
30
0
41
1
10
76.2583750271585
20
0.645255234740887
30
0
41
1
10
76.3117105811381
20
0.372123315638788
30
0
41
1
10
76.3783800236127
20
0.0390583981504165
30
0
41
1
10
76.3917139121077
20
-0.026900037943534
30
0
41
1
10
76.4183816890975
20
-0.160024799481079
30
0
41
1
10
76.4317155775924
20
-0.227002793296407
30
0
41
1
10
76.4717172430771
20
-0.429048415761656
30
0
41
1
10
76.498385020067
20
-0.565231291473509
30
0
41
1
10
76.5783883510364
20
-0.977023810062491
30
0
41
1
10
76.6317239050161
20
-1.25592706350574
30
0
41
1
10
76.7383950129754
20
-1.81470811867356
30
0
41
1
10
76.7917305669551
20
-2.09456528511467
30
0
41
1
10
76.8984016749144
20
-2.64610896726813
30
0
41
1
10
76.9517372288941
20
-2.91776467325465
30
0
41
1
10
77.0584083368534
20
-3.44318928923045
30
0
41
1
10
77.1117438908331
20
-3.69692233585258
30
0
41
1
10
77.2184149987924
20
-4.17723798312167
30
0
41
1
10
77.271750552772
20
-4.40378739786809
30
0
41
1
10
77.3784216607313
20
-4.82199186558776
30
0
41
1
10
77.431757214711
20
-5.01362414488204
30
0
41
1
10
77.5384283226703
20
-5.35663804231024
30
0
41
1
10
77.59176387665
20
-5.50801209105913
30
0
41
1
10
77.6984349846093
20
-5.76801060334512
30
0
41
1
10
77.7517705385889
20
-5.87664288824286
30
0
41
1
10
77.8584416465482
20
-6.05150873948384
30
0
41
1
10
77.9117772005279
20
-6.11776156025601
30
0
41
1
10
78.0184483084872
20
-6.21064455454535
30
0
41
1
10
78.0717838624669
20
-6.23729938738637
30
0
41
1
10
78.1384533049414
20
-6.24867778060448
30
0
41
1
10
78.1517871934363
20
-6.24985964172981
30
0
41
1
10
78.1784549704262
20
-6.2501167931616
30
0
41
1
10
78.1917888589211
20
-6.24919655448903
30
0
41
1
10
78.2317905244058
20
-6.24316984314342
30
0
41
1
10
78.2584583013956
20
-6.23479390445755
30
0
41
1
10
78.3384616323652
20
-6.19568526414838
30
0
41
1
10
78.3917971863448
20
-6.15091585188213
30
0
41
1
10
78.4984682943041
20
-6.02023456383807
30
0
41
1
10
78.5518038482837
20
-5.93429978478349
30
0
41
1
10
78.6584749562431
20
-5.71955985121369
30
0
41
1
10
78.7118105102228
20
-5.5907401262665
30
0
41
1
10
78.8184816181821
20
-5.29115951597268
30
0
41
1
10
78.8718171721617
20
-5.12039775885424
30
0
41
1
10
78.9784882801212
20
-4.74076988670697
30
0
41
1
10
79.0318238341007
20
-4.531918797207
30
0
41
1
10
79.13849494206
20
-4.08264873187488
30
0
41
1
10
79.1918304960397
20
-3.84225825469704
30
0
41
1
10
79.2985016039991
20
-3.33847864141779
30
0
41
1
10
79.3518371579787
20
-3.07512498415846
30
0
41
1
10
79.458508265938
20
-2.53503314821768
30
0
41
1
10
79.5118438199175
20
-2.25832931043749
30
0
41
1
10
79.6185149278769
20
-1.70111729945287
30
0
41
1
10
79.6718504818566
20
-1.4206355771253
30
0
41
1
10
79.7251860358363
20
-1.14255700866792
30
0
0
SPLINE
5
F4
100
AcDbEntity
8
1
62
256
6
ByLayer
370
13
48
1
60
0
100
AcDbSpline
70
4
71
3
72
82
73
78
40
0
40
0
40
0
40
0
40
0.0312499999999997
40
0.0312499999999997
40
0.0624999999999993
40
0.0624999999999993
40
0.093749999999999
40
0.093749999999999
40
0.124999999999999
40
0.124999999999999
40
0.156249999999998
40
0.156249999999998
40
0.187499999999998
40
0.187499999999998
40
0.218749999999998
40
0.218749999999998
40
0.249999999999997
40
0.249999999999997
40
0.281249999999997
40
0.281249999999997
40
0.312499999999997
40
0.312499999999997
40
0.320312499999996
40
0.320312499999996
40
0.328124999999996
40
0.328124999999996
40
0.343749999999996
40
0.343749999999996
40
0.374999999999996
40
0.374999999999996
40
0.406249999999995
40
0.406249999999995
40
0.437499999999995
40
0.437499999999995
40
0.468749999999994
40
0.468749999999994
40
0.499999999999994
40
0.499999999999994
40
0.531249999999994
40
0.531249999999994
40
0.562499999999993
40
0.562499999999993
40
0.593749999999993
40
0.593749999999993
40
0.624999999999993
40
0.624999999999993
40
0.632812499999993
40
0.632812499999993
40
0.640624999999993
40
0.640624999999993
40
0.656249999999993
40
0.656249999999993
40
0.687499999999994
40
0.687499999999994
40
0.718749999999994
40
0.718749999999994
40
0.749999999999995
40
0.749999999999995
40
0.781249999999996
40
0.781249999999996
40
0.812499999999997
40
0.812499999999997
40
0.843749999999998
40
0.843749999999998
40
0.874999999999998
40
0.874999999999998
40
0.906249999999999
40
0.906249999999999
40
0.9375
40
0.9375
40
0.9453125
40
0.9453125
40
0.953125
40
0.953125
40
0.96875
40
0.96875
40
1
40
1
40
1
40
1
41
1
10
74.1037297294067
20
6.25
30
0
41
1
10
74.1622865659321
20
6.25
30
0
41
1
10
74.2208434024573
20
6.22967059379266
30
0
41
1
10
74.3379570755079
20
6.14207855016741
30
0
41
1
10
74.3965139120332
20
6.07477617455598
30
0
41
1
10
74.5136275850838
20
5.88921892598921
30
0
41
1
10
74.5721844216091
20
5.77093251326787
30
0
41
1
10
74.6892980946597
20
5.48283105595806
30
0
41
1
10
74.7478549311851
20
5.31300423366756
30
0
41
1
10
74.8649686042357
20
4.9253821171344
30
0
41
1
10
74.923525440761
20
4.70760212419489
30
0
41
1
10
75.0406391138117
20
4.23173860020336
30
0
41
1
10
75.0991959503369
20
3.97369592411073
30
0
41
1
10
75.2163096233876
20
3.42821862791692
30
0
41
1
10
75.2748664599128
20
3.14083963775852
30
0
41
1
10
75.3919801329635
20
2.54935152894657
30
0
41
1
10
75.4505369694888
20
2.24529745704345
30
0
41
1
10
75.5676506425394
20
1.63315054554286
30
0
41
1
10
75.6262074790646
20
1.32509905172841
30
0
41
1
10
75.7433211521153
20
0.716186499200177
30
0
41
1
10
75.8018779886406
20
0.415346862217888
30
0
41
1
10
75.8750740342972
20
0.049296782911938
30
0
41
1
10
75.8897132434286
20
-0.023106153745033
30
0
41
1
10
75.9189916616912
20
-0.169288117610961
30
0
41
1
10
75.9336308708225
20
-0.242879431137624
30
0
41
1
10
75.9775484982165
20
-0.464974527879917
30
0
41
1
10
76.0068269164792
20
-0.614804675049044
30
0
41
1
10
76.0946621712672
20
-1.06796555683195
30
0
41
1
10
76.1532190077924
20
-1.37503606189574
30
0
41
1
10
76.2703326808431
20
-1.98855424607197
30
0
41
1
10
76.3288895173683
20
-2.29496587183792
30
0
41
1
10
76.446003190419
20
-2.89478559908949
30
0
41
1
10
76.5045600269443
20
-3.18814141230484
30
0
41
1
10
76.6216736999949
20
-3.74901763355416
30
0
41
1
10
76.6802305365202
20
-4.01648100042345
30
0
41
1
10
76.7973442095708
20
-4.51398013525065
30
0
41
1
10
76.8559010460962
20
-4.74396950674145
30
0
41
1
10
76.9730147191468
20
-5.15778017362189
30
0
41
1
10
77.0315715556721
20
-5.34157842252077
30
0
41
1
10
77.1486852287227
20
-5.65820294780949
30
0
41
1
10
77.207242065248
20
-5.79103383878311
30
0
41
1
10
77.3243557382986
20
-6.00513997956892
30
0
41
1
10
77.3829125748239
20
-6.08644232587235
30
0
41
1
10
77.5000262478745
20
-6.20062441103582
30
0
41
1
10
77.5585830843999
20
-6.23354278017536
30
0
41
1
10
77.6317791300565
20
-6.24806327693409
30
0
41
1
10
77.6464183391878
20
-6.24964086493404
30
0
41
1
10
77.6756967574505
20
-6.25024973500629
30
0
41
1
10
77.6903359665818
20
-6.24929121883642
30
0
41
1
10
77.7342535939758
20
-6.24247798881848
30
0
41
1
10
77.7635320122384
20
-6.23267661127198
30
0
41
1
10
77.8513672670264
20
-6.18630449036721
30
0
41
1
10
77.9099241035517
20
-6.13268068117841
30
0
41
1
10
78.0270377766023
20
-5.97530195928243
30
0
41
1
10
78.0855946131276
20
-5.8715120043247
30
0
41
1
10
78.2027082861782
20
-5.61216632671037
30
0
41
1
10
78.2612651227035
20
-5.45659226767211
30
0
41
1
10
78.3783787957541
20
-5.09604835109613
30
0
41
1
10
78.4369356322794
20
-4.89108593350915
30
0
41
1
10
78.55404930533
20
-4.43833293954677
30
0
41
1
10
78.6126061418553
20
-4.19057680090759
30
0
41
1
10
78.7297198149059
20
-3.66236869348282
30
0
41
1
10
78.7882766514313
20
-3.3819696945705
30
0
41
1
10
78.9053903244819
20
-2.80082034485946
30
0
41
1
10
78.9639471610072
20
-2.50012674126558
30
0
41
1
10
79.0810608340578
20
-1.89123891233334
30
0
41
1
10
79.1396176705831
20
-1.58309083627577
30
0
41
1
10
79.2567313436338
20
-0.971055507028012
30
0
41
1
10
79.3152881801591
20
-0.667195426362639
30
0
41
1
10
79.3884842258157
20
-0.296000194352928
30
0
41
1
10
79.4031234349471
20
-0.222186360824281
30
0
41
1
10
79.4324018532097
20
-0.0755315899062623
30
0
41
1
10
79.4470410623411
20
-0.0030397209661146
30
0
41
1
10
79.4909586897351
20
0.215871185925891
30
0
41
1
10
79.5202371079977
20
0.363845777144064
30
0
41
1
10
79.6080723627855
20
0.812383951361852
30
0
41
1
10
79.6666291993109
20
1.11763781379028
30
0
41
1
10
79.7251860358363
20
1.4241745193126
30
0
0
SPLINE
5
F5
100
AcDbEntity
8
1
62
256
6
ByLayer
370
13
48
1
60
0
100
AcDbSpline
70
4
71
3
72
8
73
4
40
0
40
0
40
0
40
0
40
1
40
1
40
1
40
1
41
1
10
79.7251860358363
20
3.92089161345766
30
0
41
1
10
80.4834573572242
20
2.61761835943813
30
0
41
1
10
81.241728678612
20
1.3106511034797
30
0
41
1
10
82
20
2.84E-14
30
0
0
SPLINE
5
F6
100
AcDbEntity
8
1
62
256
6
ByLayer
370
13
48
1
60
0
100
AcDbSpline
70
4
71
3
72
8
73
4
40
0
40
0
40
0
40
0
40
1
40
1
40
1
40
1
41
1
10
79.7251860358363
20
2.91676634931585
30
0
41
1
10
80.4834573572242
20
1.94870236209744
30
0
41
1
10
81.241728678612
20
0.976444393108267
30
0
41
1
10
82
20
2.84E-14
30
0
0
SPLINE
5
F7
100
AcDbEntity
8
1
62
256
6
ByLayer
370
13
48
1
60
0
100
AcDbSpline
70
4
71
3
72
8
73
4
40
0
40
0
40
0
40
0
40
1
40
1
40
1
40
1
41
1
10
79.7251860358364
20
-3.24293885757464
30
0
41
1
10
80.4834573572242
20
-2.16601055422279
30
0
41
1
10
81.241728678612
20
-1.08502813462332
30
0
41
1
10
81.9999999999999
20
-1.705E-13
30
0
0
SPLINE
5
F8
100
AcDbEntity
8
1
62
256
6
ByLayer
370
13
48
1
60
0
100
AcDbSpline
70
4
71
3
72
8
73
4
40
0
40
0
40
0
40
0
40
1
40
1
40
1
40
1
41
1
10
79.7251860358361
20
-5.43768957980618
30
0
41
1
10
80.4834573572241
20
-3.62278997158361
30
0
41
1
10
81.2417286786122
20
-1.81022209052532
30
0
41
1
10
82.0000000000001
20
2.558E-13
30
0
0
SPLINE
5
F9
100
AcDbEntity
8
1
62
256
6
ByLayer
370
13
48
1
60
0
100
AcDbSpline
70
4
71
3
72
8
73
4
40
0
40
0
40
0
40
0
40
1
40
1
40
1
40
1
41
1
10
79.7251860358361
20
-3.88147517721768
30
0
41
1
10
80.4834573572241
20
-2.5839356217304
30
0
41
1
10
81.2417286786122
20
-1.29010721823374
30
0
41
1
10
82.0000000000001
20
1.705E-13
30
0
0
SPLINE
5
FA
100
AcDbEntity
8
1
62
256
6
ByLayer
370
13
48
1
60
0
100
AcDbSpline
70
4
71
3
72
8
73
4
40
0
40
0
40
0
40
0
40
1
40
1
40
1
40
1
41
1
10
79.7251860358364
20
-2.16029735206024
30
0
41
1
10
80.4834573572242
20
-1.44464532730606
30
0
41
1
10
81.241728678612
20
-0.7245443429413
30
0
41
1
10
81.9999999999999
20
-1.137E-13
30
0
0
SPLINE
5
FB
100
AcDbEntity
8
1
62
256
6
ByLayer
370
13
48
1
60
0
100
AcDbSpline
70
4
71
3
72
8
73
4
40
0
40
0
40
0
40
0
40
1
40
1
40
1
40
1
41
1
10
79.7251860358364
20
4.49509103719055
30
0
41
1
10
80.4834573572242
20
2.99343462163708
30
0
41
1
10
81.241728678612
20
1.49506706856505
30
0
41
1
10
81.9999999999999
20
2.558E-13
30
0
0
SPLINE
5
FC
100
AcDbEntity
8
1
62
256
6
ByLayer
370
13
48
1
60
0
100
AcDbSpline
70
4
71
3
72
8
73
4
40
0
40
0
40
0
40
0
40
1
40
1
40
1
40
1
41
1
10
79.7251860358364
20
5.79734794545215
30
0
41
1
10
80.4834573572242
20
3.86312789924
30
0
41
1
10
81.241728678612
20
1.9306735856201
30
0
41
1
10
81.9999999999999
20
3.126E-13
30
0
0
SPLINE
5
FD
100
AcDbEntity
8
1
62
256
6
ByLayer
370
13
48
1
60
0
100
AcDbSpline
70
4
71
3
72
8
73
4
40
0
40
0
40
0
40
0
40
1
40
1
40
1
40
1
41
1
10
79.7251860358363
20
5.94274806813556
30
0
41
1
10
80.4834573572242
20
3.96329969624551
30
0
41
1
10
81.241728678612
20
1.9823785468692
30
0
41
1
10
82
20
2.84E-14
30
0
0
SPLINE
5
FE
100
AcDbEntity
8
1
62
256
6
ByLayer
370
13
48
1
60
0
100
AcDbSpline
70
4
71
3
72
8
73
4
40
0
40
0
40
0
40
0
40
1
40
1
40
1
40
1
41
1
10
79.7251860358361
20
-4.74736164908296
30
0
41
1
10
80.4834573572241
20
-3.16182531550078
30
0
41
1
10
81.2417286786122
20
-1.5793673407091
30
0
41
1
10
82.0000000000001
20
1.99E-13
30
0
0
SPLINE
5
FF
100
AcDbEntity
8
1
62
256
6
ByLayer
370
13
48
1
60
0
100
AcDbSpline
70
4
71
3
72
8
73
4
40
0
40
0
40
0
40
0
40
1
40
1
40
1
40
1
41
1
10
79.7251860358361
20
-5.63466097664087
30
0
41
1
10
80.4834573572241
20
-3.75849122420635
30
0
41
1
10
81.2417286786122
20
-1.8802660372057
30
0
41
1
10
82.0000000000001
20
2.558E-13
30
0
0
SPLINE
5
100
100
AcDbEntity
8
1
62
256
6
ByLayer
370
13
48
1
60
0
100
AcDbSpline
70
4
71
3
72
8
73
4
40
0
40
0
40
0
40
0
40
1
40
1
40
1
40
1
41
1
10
79.7251860358363
20
4.78002139115537
30
0
41
1
10
80.4834573572242
20
3.18973421926694
30
0
41
1
10
81.2417286786122
20
1.59638963032484
30
0
41
1
10
82.0000000000001
20
-8.53E-14
30
0
0
SPLINE
5
101
100
AcDbEntity
8
1
62
256
6
ByLayer
370
13
48
1
60
0
100
AcDbSpline
70
4
71
3
72
8
73
4
40
0
40
0
40
0
40
0
40
1
40
1
40
1
40
1
41
1
10
79.7251860358364
20
5.24316624672798
30
0
41
1
10
80.4834573572242
20
3.49286473679072
30
0
41
1
10
81.241728678612
20
1.74513813473737
30
0
41
1
10
81.9999999999999
20
2.842E-13
30
0
0
SPLINE
5
102
100
AcDbEntity
8
1
62
256
6
ByLayer
370
13
48
1
60
0
100
AcDbSpline
70
4
71
3
72
8
73
4
40
0
40
0
40
0
40
0
40
1
40
1
40
1
40
1
41
1
10
79.7251860358361
20
-4.2056557276957
30
0
41
1
10
80.4834573572241
20
-2.80727620560572
30
0
41
1
10
81.2417286786122
20
-1.40538733279556
30
0
41
1
10
82.0000000000001
20
1.99E-13
30
0
0
SPLINE
5
103
100
AcDbEntity
8
1
62
256
6
ByLayer
370
13
48
1
60
0
100
AcDbSpline
70
4
71
3
72
8
73
4
40
0
40
0
40
0
40
0
40
1
40
1
40
1
40
1
41
1
10
79.7251860358363
20
5.46238486283104
30
0
41
1
10
80.4834573572242
20
3.64389296363706
30
0
41
1
10
81.241728678612
20
1.82309329627043
30
0
41
1
10
82
20
2.84E-14
30
0
0
SPLINE
5
104
100
AcDbEntity
8
1
62
256
6
ByLayer
370
13
48
1
60
0
100
AcDbSpline
70
4
71
3
72
8
73
4
40
0
40
0
40
0
40
0
40
1
40
1
40
1
40
1
41
1
10
79.7251860358361
20
-2.87205084791466
30
0
41
1
10
80.4834573572241
20
-1.91049138594545
30
0
41
1
10
81.241728678612
20
-0.953138629900678
30
0
41
1
10
82
20
-2.84E-14
30
0
0
SPLINE
5
105
100
AcDbEntity
8
1
62
256
6
ByLayer
370
13
48
1
60
0
100
AcDbSpline
70
4
71
3
72
8
73
4
40
0
40
0
40
0
40
0
40
1
40
1
40
1
40
1
41
1
10
79.7251860358361
20
-5.01284646800437
30
0
41
1
10
80.483457357224
20
-3.34472812808642
30
0
41
1
10
81.2417286786119
20
-1.67377497958398
30
0
41
1
10
81.9999999999999
20
-2.842E-13
30
0
0
SPLINE
5
106
100
AcDbEntity
8
1
62
256
6
ByLayer
370
13
48
1
60
0
100
AcDbSpline
70
4
71
3
72
8
73
4
40
0
40
0
40
0
40
0
40
1
40
1
40
1
40
1
41
1
10
79.7251860358364
20
3.58078631258294
30
0
41
1
10
80.4834573572242
20
2.38330659593342
30
0
41
1
10
81.241728678612
20
1.18970807346119
30
0
41
1
10
81.9999999999999
20
1.99E-13
30
0
0
SPLINE
5
107
100
AcDbEntity
8
1
62
256
6
ByLayer
370
13
48
1
60
0
100
AcDbSpline
70
4
71
3
72
8
73
4
40
0
40
0
40
0
40
0
40
1
40
1
40
1
40
1
41
1
10
79.7251860358363
20
-1.75641740832751
30
0
41
1
10
80.4834573572242
20
-1.16639673307114
30
0
41
1
10
81.241728678612
20
-0.580922752706755
30
0
41
1
10
82
20
0
30
0
0
SPLINE
5
108
100
AcDbEntity
8
1
62
256
6
ByLayer
370
13
48
1
60
0
100
AcDbSpline
70
4
71
3
72
8
73
4
40
0
40
0
40
0
40
0
40
1
40
1
40
1
40
1
41
1
10
79.7251860358363
20
6.20334706368828
30
0
41
1
10
80.4834573572242
20
4.13614268161641
30
0
41
1
10
81.241728678612
20
2.06835497639955
30
0
41
1
10
82
20
0
30
0
0
SPLINE
5
109
100
AcDbEntity
8
1
62
256
6
ByLayer
370
13
48
1
60
0
100
AcDbSpline
70
4
71
3
72
8
73
4
40
0
40
0
40
0
40
0
40
1
40
1
40
1
40
1
41
1
10
79.7251860358364
20
2.5340632748898
30
0
41
1
10
80.4834573572242
20
1.68504333638739
30
0
41
1
10
81.241728678612
20
0.840353396292073
30
0
41
1
10
81.9999999999999
20
1.421E-13
30
0
0
SPLINE
5
10A
100
AcDbEntity
8
1
62
256
6
ByLayer
370
13
48
1
60
0
100
AcDbSpline
70
4
71
3
72
8
73
4
40
0
40
0
40
0
40
0
40
1
40
1
40
1
40
1
41
1
10
79.7251860358361
20
-6.04810440803274
30
0
41
1
10
80.4834573572241
20
-4.03326443815803
30
0
41
1
10
81.2417286786122
20
-2.01722441818524
30
0
41
1
10
82.0000000000001
20
2.558E-13
30
0
0
SPLINE
5
10B
100
AcDbEntity
8
1
62
256
6
ByLayer
370
13
48
1
60
0
100
AcDbSpline
70
4
71
3
72
8
73
4
40
0
40
0
40
0
40
0
40
1
40
1
40
1
40
1
41
1
10
79.7251860358361
20
-6.23788752764827
30
0
41
1
10
80.4834573572242
20
-4.15888659239616
30
0
41
1
10
81.2417286786123
20
-2.07958536964662
30
0
41
1
10
82.0000000000003
20
9.095E-13
30
0
0
SPLINE
5
10C
100
AcDbEntity
8
1
62
256
6
ByLayer
370
13
48
1
60
0
100
AcDbSpline
70
4
71
3
72
8
73
4
40
0
40
0
40
0
40
0
40
1
40
1
40
1
40
1
41
1
10
79.7251860358363
20
-0.575831243282551
30
0
41
1
10
80.4834573572241
20
-0.379168456936867
30
0
41
1
10
81.241728678612
20
-0.18722421661306
30
0
41
1
10
81.9999999999999
20
-2.84E-14
30
0
0
SPLINE
5
10D
100
AcDbEntity
8
1
62
256
6
ByLayer
370
13
48
1
60
0
100
AcDbSpline
70
4
71
3
72
8
73
4
40
0
40
0
40
0
40
0
40
1
40
1
40
1
40
1
41
1
10
79.7251860358363
20
0.626049295456113
30
0
41
1
10
80.4834573572242
20
0.422081557178899
30
0
41
1
10
81.2417286786122
20
0.213397914682531
30
0
41
1
10
82.0000000000001
20
-2.84E-14
30
0
0
SPLINE
5
10E
100
AcDbEntity
8
1
62
256
6
ByLayer
370
13
48
1
60
0
100
AcDbSpline
70
4
71
3
72
8
73
4
40
0
40
0
40
0
40
0
40
1
40
1
40
1
40
1
41
1
10
79.7251860358364
20
1.39362998620129
30
0
41
1
10
80.4834573572242
20
0.924466781212317
30
0
41
1
10
81.241728678612
20
0.459922254509138
30
0
41
1
10
81.9999999999999
20
8.53E-14
30
0
0
SPLINE
5
10F
100
AcDbEntity
8
1
62
256
6
ByLayer
370
13
48
1
60
0
100
AcDbSpline
70
4
71
3
72
8
73
4
40
0
40
0
40
0
40
0
40
1
40
1
40
1
40
1
41
1
10
79.7251860358364
20
0.201659935548037
30
0
41
1
10
80.4834573572242
20
0.12970322882893
30
0
41
1
10
81.241728678612
20
0.06248308047401
30
0
41
1
10
81.9999999999999
20
0
30
0
0
SPLINE
5
110
100
AcDbEntity
8
1
62
256
6
ByLayer
370
13
48
1
60
0
100
AcDbSpline
70
4
71
3
72
8
73
4
40
0
40
0
40
0
40
0
40
1
40
1
40
1
40
1
41
1
10
79.7251860358363
20
1.80477838521796
30
0
41
1
10
80.4834573572242
20
1.20772289685641
30
0
41
1
10
81.241728678612
20
0.606128541316423
30
0
41
1
10
82
20
0
30
0
0
SPLINE
5
111
100
AcDbEntity
8
1
62
256
6
ByLayer
370
13
48
1
60
0
100
AcDbSpline
70
4
71
3
72
8
73
4
40
0
40
0
40
0
40
0
40
1
40
1
40
1
40
1
41
1
10
79.7251860358361
20
-5.92693048148485
30
0
41
1
10
80.4834573572241
20
-3.94978300947341
30
0
41
1
10
81.2417286786122
20
-1.97413440518554
30
0
41
1
10
82.0000000000001
20
2.558E-13
30
0
0
SPLINE
5
112
100
AcDbEntity
8
1
62
256
6
ByLayer
370
13
48
1
60
0
100
AcDbSpline
70
4
71
3
72
8
73
4
40
0
40
0
40
0
40
0
40
1
40
1
40
1
40
1
41
1
10
79.7251860358361
20
-6.19699211145564
30
0
41
1
10
80.483457357224
20
-4.13071215035549
30
0
41
1
10
81.2417286786119
20
-2.06504276906026
30
0
41
1
10
81.9999999999999
20
-3.411E-13
30
0
0
SPLINE
5
113
100
AcDbEntity
8
1
62
256
6
ByLayer
370
13
48
1
60
0
100
AcDbSpline
70
4
71
3
72
8
73
4
40
0
40
0
40
0
40
0
40
1
40
1
40
1
40
1
41
1
10
79.7251860358364
20
6.13714236487706
30
0
41
1
10
80.4834573572242
20
4.09053169087082
30
0
41
1
10
81.241728678612
20
2.04481227696198
30
0
41
1
10
81.9999999999999
20
3.411E-13
30
0
0
SPLINE
5
114
100
AcDbEntity
8
1
62
256
6
ByLayer
370
13
48
1
60
0
100
AcDbSpline
70
4
71
3
72
8
73
4
40
0
40
0
40
0
40
0
40
1
40
1
40
1
40
1
41
1
10
79.7251860358364
20
-0.997767546560539
30
0
41
1
10
80.4834573572242
20
-0.669856779210818
30
0
41
1
10
81.241728678612
20
-0.337266732451724
30
0
41
1
10
81.9999999999999
20
-5.68E-14
30
0
0
LINE
5
7D
100
AcDbEntity
8
81
62
256
6
ByLayer
370
18
48
1
60
0
100
AcDbLine
10
82
20
0
30
0
11
87
21
0
31
0
39
0
210
0
220
0
230
1
0
LINE
5
7E
100
AcDbEntity
8
80
62
256
6
ByLayer
370
18
48
1
60
0
100
AcDbLine
10
0
20
0
30
0
11
-5
21
0
31
0
39
0
210
0
220
0
230
1
0
LINE
5
7F
100
AcDbEntity
8
4
62
256
6
ByLayer
370
18
48
0.05
60
0
100
AcDbLine
10
-5
20
0
30
0
11
87
21
0
31
0
39
0
210
0
220
0
230
1
0
LINE
5
81
100
AcDbEntity
8
SK4
62
256
6
ByLayer
370
18
48
0.05
60
0
100
AcDbLine
10
-53
20
0
30
0
11
87
21
0
31
0
39
0
210
0
220
0
230
1
0
LINE
5
83
100
AcDbEntity
8
1
62
256
6
ByLayer
370
18
48
1
60
0
100
AcDbLine
10
0
20
8
30
0
11
0
21
-8
31
0
39
0
210
0
220
0
230
1
0
LINE
5
84
100
AcDbEntity
8
1
62
256
6
ByLayer
370
18
48
1
60
0
100
AcDbLine
10
79.725186
20
6.25
30
0
11
79.725186
21
6.051539
31
0
39
0
210
0
220
0
230
1
0
LINE
5
85
100
AcDbEntity
8
1
62
256
6
ByLayer
370
18
48
1
60
0
100
AcDbLine
10
79.725186
20
-6.25
30
0
11
79.725186
21
-0.89052
31
0
39
0
210
0
220
0
230
1
0
LINE
5
86
100
AcDbEntity
8
1
62
256
6
ByLayer
370
18
48
1
60
0
100
AcDbLine
10
10
20
-5.205783
30
0
11
10
21
4.310981
31
0
39
0
210
0
220
0
230
1
0
LINE
5
87
100
AcDbEntity
8
SK1
62
256
6
ByLayer
370
13
48
1
60
0
100
AcDbLine
10
-14.956081
20
-5.420003
30
0
11
-14.956081
21
5.420003
31
0
39
0
210
0
220
0
230
1
0
LINE
5
89
100
AcDbEntity
8
SK1
62
256
6
ByLayer
370
13
48
1
60
0
100
AcDbLine
10
-40.20852
20
4.268613
30
0
11
-40.20852
21
-4.268613
31
0
39
0
210
0
220
0
230
1
0
LINE
5
8A
100
AcDbEntity
8
SK1
62
256
6
ByLayer
370
13
48
1
60
0
100
AcDbLine
10
-13.809044
20
4.913811
30
0
11
-13.809044
21
-4.913811
31
0
39
0
210
0
220
0
230
1
0
LINE
5
8B
100
AcDbEntity
8
SK1
62
256
6
ByLayer
370
18
48
1
60
0
100
AcDbLine
10
0
20
8
30
0
11
0
21
-8
31
0
39
0
210
0
220
0
230
1
0
LINE
5
8C
100
AcDbEntity
8
SK1
62
256
6
ByLayer
370
13
48
1
60
0
100
AcDbLine
10
-41.322847
20
-3.330349
30
0
11
-41.322847
21
3.330349
31
0
39
0
210
0
220
0
230
1
0
LINE
5
8D
100
AcDbEntity
8
SK1
62
256
6
ByLayer
370
18
48
1
60
0
100
AcDbLine
10
-48
20
-7
30
0
11
-48
21
7
31
0
39
0
210
0
220
0
230
1
0
LINE
5
8E
100
AcDbEntity
8
SK1
62
256
6
ByLayer
370
18
48
1
60
0
100
AcDbLine
10
-47
20
-8
30
0
11
-47
21
8
31
0
39
0
210
0
220
0
230
1
0
LINE
5
8F
100
AcDbEntity
8
1
62
256
6
ByLayer
370
18
48
1
60
0
100
AcDbLine
10
21.599251
20
-6.1
30
0
11
50.13686
21
-6.1
31
0
39
0
210
0
220
0
230
1
0
LINE
5
90
100
AcDbEntity
8
1
62
256
6
ByLayer
370
18
48
1
60
0
100
AcDbLine
10
50.13686
20
6.1
30
0
11
21.599251
21
6.1
31
0
39
0
210
0
220
0
230
1
0
LINE
5
91
100
AcDbEntity
8
1
62
256
6
ByLayer
370
18
48
1
60
0
100
AcDbLine
10
82
20
0
30
0
11
79.725186
21
6.25
31
0
39
0
210
0
220
0
230
1
0
LINE
5
92
100
AcDbEntity
8
1
62
256
6
ByLayer
370
18
48
1
60
0
100
AcDbLine
10
79.725186
20
-6.25
30
0
11
82
21
0
31
0
39
0
210
0
220
0
230
1
0
LINE
5
93
100
AcDbEntity
8
1
62
256
6
ByLayer
370
18
48
1
60
0
100
AcDbLine
10
3.006965
20
7.428677
30
0
11
0
21
8
31
0
39
0
210
0
220
0
230
1
0
LINE
5
94
100
AcDbEntity
8
1
62
256
6
ByLayer
370
18
48
1
60
0
100
AcDbLine
10
0
20
-8
30
0
11
3.006965
21
-7.428677
31
0
39
0
210
0
220
0
230
1
0
LINE
5
95
100
AcDbEntity
8
1
62
256
6
ByLayer
370
18
48
1
60
0
100
AcDbLine
10
72.6
20
-6.25
30
0
11
79.725186
21
-6.25
31
0
39
0
210
0
220
0
230
1
0
LINE
5
96
100
AcDbEntity
8
1
62
256
6
ByLayer
370
18
48
1
60
0
100
AcDbLine
10
82
20
0
30
0
11
79.725186
21
6.25
31
0
39
0
210
0
220
0
230
1
0
LINE
5
97
100
AcDbEntity
8
1
62
256
6
ByLayer
370
18
48
1
60
0
100
AcDbLine
10
79.725186
20
-6.25
30
0
11
82
21
0
31
0
39
0
210
0
220
0
230
1
0
LINE
5
98
100
AcDbEntity
8
SK1
62
256
6
ByLayer
370
18
48
1
60
0
100
AcDbLine
10
-47
20
-8
30
0
11
0
21
-8
31
0
39
0
210
0
220
0
230
1
0
LINE
5
99
100
AcDbEntity
8
SK1
62
256
6
ByLayer
370
18
48
1
60
0
100
AcDbLine
10
0
20
8
30
0
11
-47
21
8
31
0
39
0
210
0
220
0
230
1
0
LINE
5
9A
100
AcDbEntity
8
SK1
62
256
6
ByLayer
370
18
48
1
60
0
100
AcDbLine
10
-48
20
-7
30
0
11
-47
21
-8
31
0
39
0
210
0
220
0
230
1
0
LINE
5
9B
100
AcDbEntity
8
SK1
62
256
6
ByLayer
370
18
48
1
60
0
100
AcDbLine
10
-47
20
8
30
0
11
-48
21
7
31
0
39
0
210
0
220
0
230
1
0
LINE
5
9C
100
AcDbEntity
8
1
62
256
6
ByLayer
370
18
48
1
60
0
100
AcDbLine
10
79.725186
20
6.25
30
0
11
79.725186
21
-6.25
31
0
39
0
210
0
220
0
230
1
0
LINE
5
9D
100
AcDbEntity
8
1
62
256
6
ByLayer
370
18
48
1
60
0
100
AcDbLine
10
79.725186
20
6.25
30
0
11
79.725186
21
-6.25
31
0
39
0
210
0
220
0
230
1
0
LINE
5
9E
100
AcDbEntity
8
1
62
256
6
ByLayer
370
18
48
1
60
0
100
AcDbLine
10
79.725186
20
6.25
30
0
11
79.725186
21
-6.25
31
0
39
0
210
0
220
0
230
1
0
LINE
5
9F
100
AcDbEntity
8
1
62
256
6
ByLayer
370
18
48
1
60
0
100
AcDbLine
10
72.6
20
6.25
30
0
11
72.6
21
-6.25
31
0
39
0
210
0
220
0
230
1
0
LINE
5
A0
100
AcDbEntity
8
1
62
256
6
ByLayer
370
18
48
1
60
0
100
AcDbLine
10
72.6
20
6.25
30
0
11
72.6
21
-6.25
31
0
39
0
210
0
220
0
230
1
0
LINE
5
A1
100
AcDbEntity
8
1
62
256
6
ByLayer
370
18
48
1
60
0
100
AcDbLine
10
79.725186
20
6.25
30
0
11
79.725186
21
-6.25
31
0
39
0
210
0
220
0
230
1
0
LINE
5
A2
100
AcDbEntity
8
1
62
256
6
ByLayer
370
18
48
1
60
0
100
AcDbLine
10
72.6
20
6.25
30
0
11
72.6
21
-6.25
31
0
39
0
210
0
220
0
230
1
0
LINE
5
A3
100
AcDbEntity
8
1
62
256
6
ByLayer
370
18
48
1
60
0
100
AcDbLine
10
79.725186
20
6.25
30
0
11
79.725186
21
-6.25
31
0
39
0
210
0
220
0
230
1
0
LINE
5
A4
100
AcDbEntity
8
SK2
62
256
6
ByLayer
370
13
48
1
60
0
100
AcDbLine
10
-54.5
20
-8
30
0
11
-54.5
21
36.274683
31
0
39
0
210
0
220
0
230
1
0
LINE
5
A6
100
AcDbEntity
8
SK2
62
256
6
ByLayer
370
13
48
1
60
0
100
AcDbLine
10
-49.5875
20
8
30
0
11
-56.5
21
8
31
0
39
0
210
0
220
0
230
1
0
LINE
5
A7
100
AcDbEntity
8
SK2
62
256
6
ByLayer
370
13
48
1
60
0
100
AcDbLine
10
-49.5875
20
-8
30
0
11
-56.5
21
-8
31
0
39
0
210
0
220
0
230
1
0
LINE
5
A8
100
AcDbEntity
8
1
62
256
6
ByLayer
370
18
48
1
60
1
100
AcDbLine
10
-54.5
20
8
30
0
11
-54.039216
21
4.500002
31
0
39
0
210
0
220
0
230
1
0
LINE
5
A9
100
AcDbEntity
8
1
62
256
6
ByLayer
370
18
48
1
60
1
100
AcDbLine
10
-54.039216
20
4.500002
30
0
11
-54.960784
21
4.499998
31
0
39
0
210
0
220
0
230
1
0
LINE
5
AA
100
AcDbEntity
8
1
62
256
6
ByLayer
370
18
48
1
60
1
100
AcDbLine
10
-54.960784
20
4.499998
30
0
11
-54.5
21
8
31
0
39
0
210
0
220
0
230
1
0
LINE
5
AB
100
AcDbEntity
8
1
62
256
6
ByLayer
370
18
48
1
60
1
100
AcDbLine
10
-54.5
20
-8
30
0
11
-54.960784
21
-4.500002
31
0
39
0
210
0
220
0
230
1
0
LINE
5
AC
100
AcDbEntity
8
1
62
256
6
ByLayer
370
18
48
1
60
1
100
AcDbLine
10
-54.960784
20
-4.500002
30
0
11
-54.039216
21
-4.499998
31
0
39
0
210
0
220
0
230
1
0
LINE
5
AD
100
AcDbEntity
8
1
62
256
6
ByLayer
370
18
48
1
60
1
100
AcDbLine
10
-54.039216
20
-4.499998
30
0
11
-54.5
21
-8
31
0
39
0
210
0
220
0
230
1
0
LINE
5
AE
100
AcDbEntity
8
2
62
256
6
ByLayer
370
13
48
1
60
0
100
AcDbLine
10
89.5
20
-6.25
30
0
11
89.5
21
34.524683
31
0
39
0
210
0
220
0
230
1
0
LINE
5
B0
100
AcDbEntity
8
2
62
256
6
ByLayer
370
13
48
1
60
0
100
AcDbLine
10
81.312686
20
6.25
30
0
11
91.5
21
6.25
31
0
39
0
210
0
220
0
230
1
0
LINE
5
B1
100
AcDbEntity
8
2
62
256
6
ByLayer
370
13
48
1
60
0
100
AcDbLine
10
81.312686
20
-6.25
30
0
11
91.5
21
-6.25
31
0
39
0
210
0
220
0
230
1
0
LINE
5
B2
100
AcDbEntity
8
1
62
256
6
ByLayer
370
18
48
1
60
1
100
AcDbLine
10
89.5
20
6.25
30
0
11
89.960784
21
2.750002
31
0
39
0
210
0
220
0
230
1
0
LINE
5
B3
100
AcDbEntity
8
1
62
256
6
ByLayer
370
18
48
1
60
1
100
AcDbLine
10
89.960784
20
2.750002
30
0
11
89.039216
21
2.749998
31
0
39
0
210
0
220
0
230
1
0
LINE
5
B4
100
AcDbEntity
8
1
62
256
6
ByLayer
370
18
48
1
60
1
100
AcDbLine
10
89.039216
20
2.749998
30
0
11
89.5
21
6.25
31
0
39
0
210
0
220
0
230
1
0
LINE
5
B5
100
AcDbEntity
8
1
62
256
6
ByLayer
370
18
48
1
60
1
100
AcDbLine
10
89.5
20
-6.25
30
0
11
89.039216
21
-2.750002
31
0
39
0
210
0
220
0
230
1
0
LINE
5
B6
100
AcDbEntity
8
1
62
256
6
ByLayer
370
18
48
1
60
1
100
AcDbLine
10
89.039216
20
-2.750002
30
0
11
89.960784
21
-2.749998
31
0
39
0
210
0
220
0
230
1
0
LINE
5
B7
100
AcDbEntity
8
1
62
256
6
ByLayer
370
18
48
1
60
1
100
AcDbLine
10
89.960784
20
-2.749998
30
0
11
89.5
21
-6.25
31
0
39
0
210
0
220
0
230
1
0
LINE
5
B8
100
AcDbEntity
8
SK2
62
256
6
ByLayer
370
13
48
1
60
0
100
AcDbLine
10
82.542957
20
-1.491762
30
0
11
89.182423
21
-19.733545
31
0
39
0
210
0
220
0
230
1
0
LINE
5
B9
100
AcDbEntity
8
SK2
62
256
6
ByLayer
370
13
48
1
60
0
100
AcDbLine
10
82.542957
20
1.491762
30
0
11
89.182423
21
19.733545
31
0
39
0
210
0
220
0
230
1
0
LINE
5
BA
100
AcDbEntity
8
1
62
256
6
ByLayer
370
18
48
1
60
1
100
AcDbLine
10
88.498383
20
-17.85416
30
0
11
91.551575
21
-16.082064
31
0
39
0
210
0
220
0
230
1
0
LINE
5
BB
100
AcDbEntity
8
1
62
256
6
ByLayer
370
18
48
1
60
1
100
AcDbLine
10
91.551575
20
-16.082064
30
0
11
91.906196
21
-16.93267
31
0
39
0
210
0
220
0
230
1
0
LINE
5
BC
100
AcDbEntity
8
1
62
256
6
ByLayer
370
18
48
1
60
1
100
AcDbLine
10
91.906196
20
-16.93267
30
0
11
88.498383
21
-17.85416
31
0
39
0
210
0
220
0
230
1
0
LINE
5
BD
100
AcDbEntity
8
1
62
256
6
ByLayer
370
18
48
1
60
1
100
AcDbLine
10
88.498383
20
17.85416
30
0
11
91.906193
21
16.932671
31
0
39
0
210
0
220
0
230
1
0
LINE
5
BE
100
AcDbEntity
8
1
62
256
6
ByLayer
370
18
48
1
60
1
100
AcDbLine
10
91.906193
20
16.932671
30
0
11
91.551579
21
16.082063
31
0
39
0
210
0
220
0
230
1
0
LINE
5
BF
100
AcDbEntity
8
1
62
256
6
ByLayer
370
18
48
1
60
1
100
AcDbLine
10
91.551579
20
16.082063
30
0
11
88.498383
21
17.85416
31
0
39
0
210
0
220
0
230
1
0
LINE
5
119
100
AcDbEntity
8
1
62
256
6
ByLayer
370
18
48
1
60
1
100
AcDbLine
10
-54.5
20
8
30
0
11
-54.039216
21
4.500002
31
0
39
0
210
0
220
0
230
1
0
LINE
5
11A
100
AcDbEntity
8
1
62
256
6
ByLayer
370
18
48
1
60
1
100
AcDbLine
10
-54.039216
20
4.500002
30
0
11
-54.960784
21
4.499998
31
0
39
0
210
0
220
0
230
1
0
LINE
5
11B
100
AcDbEntity
8
1
62
256
6
ByLayer
370
18
48
1
60
1
100
AcDbLine
10
-54.960784
20
4.499998
30
0
11
-54.5
21
8
31
0
39
0
210
0
220
0
230
1
0
LINE
5
11D
100
AcDbEntity
8
1
62
256
6
ByLayer
370
18
48
1
60
1
100
AcDbLine
10
-54.5
20
-8
30
0
11
-54.960784
21
-4.500002
31
0
39
0
210
0
220
0
230
1
0
LINE
5
11E
100
AcDbEntity
8
1
62
256
6
ByLayer
370
18
48
1
60
1
100
AcDbLine
10
-54.960784
20
-4.500002
30
0
11
-54.039216
21
-4.499998
31
0
39
0
210
0
220
0
230
1
0
LINE
5
11F
100
AcDbEntity
8
1
62
256
6
ByLayer
370
18
48
1
60
1
100
AcDbLine
10
-54.039216
20
-4.499998
30
0
11
-54.5
21
-8
31
0
39
0
210
0
220
0
230
1
0
LINE
5
123
100
AcDbEntity
8
1
62
256
6
ByLayer
370
18
48
1
60
1
100
AcDbLine
10
89.5
20
6.25
30
0
11
89.960784
21
2.750002
31
0
39
0
210
0
220
0
230
1
0
LINE
5
124
100
AcDbEntity
8
1
62
256
6
ByLayer
370
18
48
1
60
1
100
AcDbLine
10
89.960784
20
2.750002
30
0
11
89.039216
21
2.749998
31
0
39
0
210
0
220
0
230
1
0
LINE
5
125
100
AcDbEntity
8
1
62
256
6
ByLayer
370
18
48
1
60
1
100
AcDbLine
10
89.039216
20
2.749998
30
0
11
89.5
21
6.25
31
0
39
0
210
0
220
0
230
1
0
LINE
5
127
100
AcDbEntity
8
1
62
256
6
ByLayer
370
18
48
1
60
1
100
AcDbLine
10
89.5
20
-6.25
30
0
11
89.039216
21
-2.750002
31
0
39
0
210
0
220
0
230
1
0
LINE
5
128
100
AcDbEntity
8
1
62
256
6
ByLayer
370
18
48
1
60
1
100
AcDbLine
10
89.039216
20
-2.750002
30
0
11
89.960784
21
-2.749998
31
0
39
0
210
0
220
0
230
1
0
LINE
5
129
100
AcDbEntity
8
1
62
256
6
ByLayer
370
18
48
1
60
1
100
AcDbLine
10
89.960784
20
-2.749998
30
0
11
89.5
21
-6.25
31
0
39
0
210
0
220
0
230
1
0
LINE
5
12C
100
AcDbEntity
8
1
62
256
6
ByLayer
370
18
48
1
60
1
100
AcDbLine
10
88.498383
20
-17.85416
30
0
11
91.551575
21
-16.082064
31
0
39
0
210
0
220
0
230
1
0
LINE
5
12D
100
AcDbEntity
8
1
62
256
6
ByLayer
370
18
48
1
60
1
100
AcDbLine
10
91.551575
20
-16.082064
30
0
11
91.906196
21
-16.93267
31
0
39
0
210
0
220
0
230
1
0
LINE
5
12E
100
AcDbEntity
8
1
62
256
6
ByLayer
370
18
48
1
60
1
100
AcDbLine
10
91.906196
20
-16.93267
30
0
11
88.498383
21
-17.85416
31
0
39
0
210
0
220
0
230
1
0
LINE
5
130
100
AcDbEntity
8
1
62
256
6
ByLayer
370
18
48
1
60
1
100
AcDbLine
10
88.498383
20
17.85416
30
0
11
91.906193
21
16.932671
31
0
39
0
210
0
220
0
230
1
0
LINE
5
131
100
AcDbEntity
8
1
62
256
6
ByLayer
370
18
48
1
60
1
100
AcDbLine
10
91.906193
20
16.932671
30
0
11
91.551579
21
16.082063
31
0
39
0
210
0
220
0
230
1
0
LINE
5
132
100
AcDbEntity
8
1
62
256
6
ByLayer
370
18
48
1
60
1
100
AcDbLine
10
91.551579
20
16.082063
30
0
11
88.498383
21
17.85416
31
0
39
0
210
0
220
0
230
1
0
MTEXT
5
115
100
AcDbEntity
8
SK2
62
256
6
ByLayer
370
18
48
1
60
0
100
AcDbMText
10
-55.841114
20
19.658438
30
0
210
0
220
0
230
1
1
%%c
40
3
41
0
44
1.084337
50
90
71
7
72
5
7
iso_b_vert
0
MTEXT
5
118
100
AcDbEntity
8
SK2
62
256
6
ByLayer
370
18
48
1
60
0
100
AcDbMText
10
-55.841114
20
25.635
30
0
210
0
220
0
230
1
1
\W0.7022;16.000
40
3
41
0
44
1.084337
50
90
71
7
72
5
7
iso_b_vert
0
MTEXT
5
121
100
AcDbEntity
8
2
62
256
6
ByLayer
370
18
48
1
60
0
100
AcDbMText
10
88.158886
20
17.908438
30
0
210
0
220
0
230
1
1
%%c
40
3
41
0
44
1.084337
50
90
71
7
72
5
7
iso_b_vert
0
MTEXT
5
122
100
AcDbEntity
8
2
62
256
6
ByLayer
370
18
48
1
60
0
100
AcDbMText
10
88.158886
20
23.885
30
0
210
0
220
0
230
1
1
\W0.7022;12.500
40
3
41
0
44
1.084337
50
90
71
7
72
5
7
iso_b_vert
0
MTEXT
5
12B
100
AcDbEntity
8
SK2
62
256
6
ByLayer
370
18
48
1
60
0
100
AcDbMText
10
101.909114
20
3.734657
30
0
210
0
220
0
230
1
1
\W0.7071;140%%d
40
3
41
0
44
1.084337
50
270
71
7
72
5
7
iso_b_vert
0
MTEXT
5
134
100
AcDbEntity
8
SK6
62
256
6
ByLayer
370
18
48
1
60
0
100
AcDbMText
10
-6.537254
20
-67.114886
30
0
210
0
220
0
230
1
1
\W0.7358;H85512.5
40
3
41
0
44
1.084337
50
0
71
7
72
5
7
iso_b_vert
0
HATCH
5
11C
100
AcDbEntity
8
SK2
62
256
6
ByLayer
370
13
48
1
60
0
100
AcDbHatch
10
0
20
0
30
0
210
0
220
0
230
1
2
ANSI31
70
0
71
0
91
1
92
5
93
3
72
1
10
-54.5
20
8
11
-54.0392162584472
21
4.50000169255318
72
1
10
-54.0392162584472
20
4.50000169255318
11
-54.9607837415528
21
4.49999830744682
72
1
10
-54.9607837415528
20
4.49999830744682
11
-54.5
21
8
97
0
75
0
76
1
52
0
41
0.0062
77
0
78
1
53
45
43
0
44
0
45
-0.0139193969876572
46
0.0139193969876572
79
0
47
0
98
1
10
0
20
0
0
HATCH
5
120
100
AcDbEntity
8
SK2
62
256
6
ByLayer
370
13
48
1
60
0
100
AcDbHatch
10
0
20
0
30
0
210
0
220
0
230
1
2
ANSI31
70
0
71
0
91
1
92
5
93
3
72
1
10
-54.5
20
-8
11
-54.9607837415528
21
-4.50000169255318
72
1
10
-54.9607837415528
20
-4.50000169255318
11
-54.0392162584472
21
-4.49999830744682
72
1
10
-54.0392162584472
20
-4.49999830744682
11
-54.5
21
-8
97
0
75
0
76
1
52
0
41
0.0062
77
0
78
1
53
45
43
0
44
0
45
-0.0139193969876572
46
0.0139193969876572
79
0
47
0
98
1
10
0
20
0
0
HATCH
5
126
100
AcDbEntity
8
2
62
256
6
ByLayer
370
13
48
1
60
0
100
AcDbHatch
10
0
20
0
30
0
210
0
220
0
230
1
2
ANSI31
70
0
71
0
91
1
92
5
93
3
72
1
10
89.5
20
6.25
11
89.9607837415528
21
2.75000169255318
72
1
10
89.9607837415528
20
2.75000169255318
11
89.0392162584472
21
2.74999830744682
72
1
10
89.0392162584472
20
2.74999830744682
11
89.5
21
6.25
97
0
75
0
76
1
52
0
41
0.0062
77
0
78
1
53
45
43
0
44
0
45
-0.0139193969876572
46
0.0139193969876572
79
0
47
0
98
1
10
0
20
0
0
HATCH
5
12A
100
AcDbEntity
8
2
62
256
6
ByLayer
370
13
48
1
60
0
100
AcDbHatch
10
0
20
0
30
0
210
0
220
0
230
1
2
ANSI31
70
0
71
0
91
1
92
5
93
3
72
1
10
89.5
20
-6.25
11
89.0392162584472
21
-2.75000169255318
72
1
10
89.0392162584472
20
-2.75000169255318
11
89.9607837415528
21
-2.74999830744682
72
1
10
89.9607837415528
20
-2.74999830744682
11
89.5
21
-6.25
97
0
75
0
76
1
52
0
41
0.0062
77
0
78
1
53
45
43
0
44
0
45
-0.0139193969876572
46
0.0139193969876572
79
0
47
0
98
1
10
0
20
0
0
HATCH
5
12F
100
AcDbEntity
8
SK2
62
256
6
ByLayer
370
13
48
1
60
0
100
AcDbHatch
10
0
20
0
30
0
210
0
220
0
230
1
2
ANSI31
70
0
71
0
91
1
92
5
93
3
72
1
10
88.4983827231877
20
-17.8541597949322
11
91.5515754256929
21
-16.0820638240608
72
1
10
91.5515754256929
20
-16.0820638240608
11
91.906195833975
21
-16.9326700737196
72
1
10
91.906195833975
20
-16.9326700737196
11
88.4983827231877
21
-17.8541597949322
97
0
75
0
76
1
52
0
41
0.0062
77
0
78
1
53
45
43
0
44
0
45
-0.0139193969876572
46
0.0139193969876572
79
0
47
0
98
1
10
0
20
0
0
HATCH
5
133
100
AcDbEntity
8
SK2
62
256
6
ByLayer
370
13
48
1
60
0
100
AcDbHatch
10
0
20
0
30
0
210
0
220
0
230
1
2
ANSI31
70
0
71
0
91
1
92
5
93
3
72
1
10
88.4983827231877
20
17.8541597949322
11
91.906192709519
21
16.9326713763016
72
1
10
91.906192709519
20
16.9326713763016
11
91.5515785501489
21
16.0820625214788
72
1
10
91.5515785501489
20
16.0820625214788
11
88.4983827231877
21
17.8541597949322
97
0
75
0
76
1
52
0
41
0.0062
77
0
78
1
53
45
43
0
44
0
45
-0.0139193969876572
46
0.0139193969876572
79
0
47
0
98
1
10
0
20
0
0
DIMENSION
5
137
100
AcDbEntity
8
SK2
62
256
6
ByLayer
370
18
48
1
60
0
100
AcDbDimension
2
_U0
10
82
20
-45.952229
30
0
11
17
21
-45.952229
31
0
70
32
71
1
72
1
41
1
210
0
220
0
230
1
3
Standard
100
AcDbAlignedDimension
13
-48
23
-8
33
0
14
82
24
0
34
0
50
0
100
AcDbRotatedDimension
1001
ACAD
1000
DSTYLE
1002
{
1070
   371
1070
    13
1070
   372
1070
    13
1070
     3
1000

1070
   170
1070
     0
1070
   144
1040
1.0
1070
   277
1070
     2
1070
   284
1070
     8
1070
   278
1070
    46
1070
   146
1040
1.166667
1070
   345
1005
16
1070
   347
1005
16
1070
   346
1005
16
1070
   344
1005
0
1070
   343
1005
0
1070
   172
1070
     1
1070
    76
1070
     0
1070
    75
1070
     0
1070
   282
1070
     0
1070
   281
1070
     0
1070
    71
1070
     0
1070
    74
1070
     0
1070
   279
1070
     0
1070
   173
1070
     1
1070
   340
1005
116
1070
   271
1070
     2
1070
   272
1070
     3
1070
    77
1070
     1
1070
    73
1070
     1
1070
   171
1070
     3
1070
   274
1070
     4
1070
   177
1070
     2
1070
   176
1070
     2
1070
   178
1070
     2
1070
    78
1070
     8
1070
    48
1040
-0.1
1070
    41
1040
3.5
1070
   147
1040
1.5
1070
    42
1040
1.5875
1070
    44
1040
2.0
1070
   140
1040
3.0
1002
}
1001
ACAD_DSTYLE_DIM_LINETYPE
1070
   380
1005
16
1001
ACAD_DSTYLE_DIM_EXT1_LINETYPE
1070
   381
1005
16
1001
ACAD_DSTYLE_DIM_EXT2_LINETYPE
1070
   382
1005
16
0
DIMENSION
5
150
100
AcDbEntity
8
SK2
62
256
6
ByLayer
370
18
48
1
60
0
100
AcDbDimension
2
_U1
10
3
20
-35.952229
30
0
11
42.5
21
-35.952229
31
0
70
32
71
1
72
1
41
1
210
0
220
0
230
1
3
Standard
100
AcDbAlignedDimension
13
82
23
0
33
0
14
3
24
-6.25
34
0
50
0
100
AcDbRotatedDimension
1001
ACAD
1000
DSTYLE
1002
{
1070
   371
1070
    13
1070
   372
1070
    13
1070
     3
1000

1070
   170
1070
     0
1070
   144
1040
1.0
1070
   277
1070
     2
1070
   284
1070
     8
1070
   278
1070
    46
1070
   146
1040
1.166667
1070
   345
1005
16
1070
   347
1005
16
1070
   346
1005
16
1070
   344
1005
0
1070
   343
1005
0
1070
   172
1070
     1
1070
    76
1070
     0
1070
    75
1070
     0
1070
   282
1070
     0
1070
   281
1070
     0
1070
    71
1070
     0
1070
    74
1070
     0
1070
   279
1070
     0
1070
   173
1070
     1
1070
   340
1005
116
1070
   271
1070
     2
1070
   272
1070
     3
1070
    77
1070
     1
1070
    73
1070
     1
1070
   171
1070
     3
1070
   274
1070
     4
1070
   177
1070
     2
1070
   176
1070
     2
1070
   178
1070
     2
1070
    78
1070
     8
1070
    48
1040
-0.1
1070
    41
1040
3.5
1070
   147
1040
1.5
1070
    42
1040
1.5875
1070
    44
1040
2.0
1070
   140
1040
3.0
1002
}
1001
ACAD_DSTYLE_DIM_LINETYPE
1070
   380
1005
16
1001
ACAD_DSTYLE_DIM_EXT1_LINETYPE
1070
   381
1005
16
1001
ACAD_DSTYLE_DIM_EXT2_LINETYPE
1070
   382
1005
16
0
DIMENSION
5
168
100
AcDbEntity
8
SK2
62
256
6
ByLayer
370
18
48
1
60
0
100
AcDbDimension
2
_U2
10
0
20
-35.952229
30
0
11
-24
21
-35.952229
31
0
70
32
71
1
72
1
41
1
210
0
220
0
230
1
3
Standard
100
AcDbAlignedDimension
13
-48
23
-8
33
0
14
0
24
-8
34
0
50
0
100
AcDbRotatedDimension
1001
ACAD
1000
DSTYLE
1002
{
1070
   371
1070
    13
1070
   372
1070
    13
1070
     3
1000

1070
   170
1070
     0
1070
   144
1040
1.0
1070
   277
1070
     2
1070
   284
1070
     8
1070
   278
1070
    46
1070
   146
1040
1.166667
1070
   345
1005
16
1070
   347
1005
16
1070
   346
1005
16
1070
   344
1005
0
1070
   343
1005
0
1070
   172
1070
     1
1070
    76
1070
     0
1070
    75
1070
     0
1070
   282
1070
     0
1070
   281
1070
     0
1070
    71
1070
     0
1070
    74
1070
     0
1070
   279
1070
     0
1070
   173
1070
     1
1070
   340
1005
116
1070
   271
1070
     2
1070
   272
1070
     3
1070
    77
1070
     1
1070
    73
1070
     1
1070
   171
1070
     3
1070
   274
1070
     4
1070
   177
1070
     2
1070
   176
1070
     2
1070
   178
1070
     2
1070
    78
1070
     8
1070
    48
1040
-0.1
1070
    41
1040
3.5
1070
   147
1040
1.5
1070
    42
1040
1.5875
1070
    44
1040
2.0
1070
   140
1040
3.0
1002
}
1001
ACAD_DSTYLE_DIM_LINETYPE
1070
   380
1005
16
1001
ACAD_DSTYLE_DIM_EXT1_LINETYPE
1070
   381
1005
16
1001
ACAD_DSTYLE_DIM_EXT2_LINETYPE
1070
   382
1005
16
0
DIMENSION
5
180
100
AcDbEntity
8
SK2
62
256
6
ByLayer
370
18
48
1
60
0
100
AcDbDimension
2
_U3
10
13
20
32.952229
30
0
11
47.5
21
32.952229
31
0
70
32
71
1
72
1
41
1
210
0
220
0
230
1
3
Standard
100
AcDbAlignedDimension
13
82
23
0
33
0
14
13
24
6.25
34
0
50
0
100
AcDbRotatedDimension
1001
ACAD
1000
DSTYLE
1002
{
1070
   371
1070
    13
1070
   372
1070
    13
1070
     3
1000

1070
   170
1070
     0
1070
   144
1040
1.0
1070
   277
1070
     2
1070
   284
1070
     8
1070
   278
1070
    46
1070
   146
1040
1.166667
1070
   345
1005
16
1070
   347
1005
16
1070
   346
1005
16
1070
   344
1005
0
1070
   343
1005
0
1070
   172
1070
     1
1070
    76
1070
     0
1070
    75
1070
     0
1070
   282
1070
     0
1070
   281
1070
     0
1070
    71
1070
     0
1070
    74
1070
     0
1070
   279
1070
     0
1070
   173
1070
     1
1070
   340
1005
116
1070
   271
1070
     2
1070
   272
1070
     3
1070
    77
1070
     1
1070
    73
1070
     1
1070
   171
1070
     3
1070
   274
1070
     4
1070
   177
1070
     2
1070
   176
1070
     2
1070
   178
1070
     2
1070
    78
1070
     8
1070
    48
1040
-0.1
1070
    41
1040
3.5
1070
   147
1040
1.5
1070
    42
1040
1.5875
1070
    44
1040
2.0
1070
   140
1040
3.0
1002
}
1001
ACAD_DSTYLE_DIM_LINETYPE
1070
   380
1005
16
1001
ACAD_DSTYLE_DIM_EXT1_LINETYPE
1070
   381
1005
16
1001
ACAD_DSTYLE_DIM_EXT2_LINETYPE
1070
   382
1005
16
0
ENDSEC
0
SECTION
2
OBJECTS
0
DICTIONARY
5
208
330
0
100
AcDbDictionary
280
0
281
1
3
ACAD_GROUP
350
209
3
ACAD_MLINESTYLE
350
20a
0
DICTIONARY
5
209
330
0
100
AcDbDictionary
280
0
281
1
0
DICTIONARY
5
20a
330
0
100
AcDbDictionary
280
0
281
1
3
Standard
350
18
0
MLINESTYLE
5
18
330
20a
100
AcDbMlineStyle
2
Standard
70
0
3

62
256
51
90
52
90
71
2
49
-0.5
62
256
6
ByLayer
49
0.5
62
256
6
ByLayer
0
RASTERVARIABLES
5
1f6
330

100
AcDbRasterVariables
90
0
70
1
71
1
72
1
0
ENDSEC
0
EOF
