0
SECTION
2
HEADER
9
$ACADVER
1
AC1015
9
$DWGCODEPAGE
3
ANSI_1252
9
$HANDSEED
5
210
9
$ANGBASE
50
0
9
$ANGDIR
70
0
9
$ATTMODE
70
1
9
$AUNITS
70
0
9
$AUPREC
70
0
9
$CECOLOR
62
256
9
$CELTSCALE
40
1
9
$CELTYPE
6
ByLayer
9
$CELWEIGHT
370
18
9
$CLAYER
8
0
9
$CMLJUST
70
0
9
$CMLSCALE
40
1
9
$CMLSTYLE
2
Standard
9
$DIMSTYLE
2
Standard
9
$TEXTSIZE
40
0.2
9
$TEXTSTYLE
7
Standard
9
$LUNITS
70
2
9
$LUPREC
70
4
9
$EXTNAMES
290
1
9
$INSUNITS
70
4
9
$LTSCALE
40
1
9
$LWDISPLAY
290
1
9
$PDMODE
70
0
9
$PDSIZE
40
0
9
$PLINEGEN
70
0
0
ENDSEC
0
SECTION
2
CLASSES
0
CLASS
1
RASTERVARIABLES
2
AcDbRasterVariables
3
ISM
90
0
280
0
281
0
0
ENDSEC
0
SECTION
2
TABLES
0
TABLE
2
VPORT
5
206
100
AcDbSymbolTable
0
VPORT
5
1
100
AcDbSymbolTableRecord
100
AcDbViewportTableRecord
2
*Active
70
0
10
0
20
0
11
1
21
1
12
-1
22
1
13
0
23
0
14
0.5
24
0.5
15
10
25
10
16
0
26
0
36
1
17
0
27
0
37
0
0
ENDTAB
0
TABLE
2
LTYPE
5
207
100
AcDbSymbolTable
0
LTYPE
5
14
100
AcDbSymbolTableRecord
100
AcDbLinetypeTableRecord
70
0
2
ByBlock
3

72
65
73
0
40
0
0
LTYPE
5
15
100
AcDbSymbolTableRecord
100
AcDbLinetypeTableRecord
70
0
2
ByLayer
3

72
65
73
0
40
0
0
LTYPE
5
16
100
AcDbSymbolTableRecord
100
AcDbLinetypeTableRecord
70
0
2
Continuous
3
Solid line
72
65
73
0
40
0
0
LTYPE
5
6E
100
AcDbSymbolTableRecord
100
AcDbLinetypeTableRecord
70
0
2
CENTER
3
____ _ ____ _ ____ _ ____
72
65
73
4
40
47.5
49
22
74
0
49
-8.5
74
0
49
8.5
74
0
49
-8.5
74
0
0
LTYPE
5
6F
100
AcDbSymbolTableRecord
100
AcDbLinetypeTableRecord
70
0
2
DASHED
3
__ __ __ __ __ __ __ __ __
72
65
73
2
40
25.72
49
12.86
74
0
49
-12.86
74
0
0
ENDTAB
0
TABLE
2
LAYER
5
208
100
AcDbSymbolTable
0
LAYER
5
10
100
AcDbSymbolTableRecord
100
AcDbLayerTableRecord
2
0
70
0
62
7
6
Continuous
290
1
370
-3
390
0
0
LAYER
5
71
100
AcDbSymbolTableRecord
100
AcDbLayerTableRecord
2
81
70
0
62
-3
6
Continuous
290
1
370
-3
390
0
0
LAYER
5
73
100
AcDbSymbolTableRecord
100
AcDbLayerTableRecord
2
80
70
0
62
-6
6
Continuous
290
1
370
-3
390
0
0
LAYER
5
75
100
AcDbSymbolTableRecord
100
AcDbLayerTableRecord
2
1
70
0
62
4
6
Continuous
290
1
370
-3
390
0
0
LAYER
5
7F
100
AcDbSymbolTableRecord
100
AcDbLayerTableRecord
2
4
70
0
62
-2
6
CENTER
290
1
370
-3
390
0
0
LAYER
5
AF
100
AcDbSymbolTableRecord
100
AcDbLayerTableRecord
2
2
70
0
62
7
6
Continuous
290
1
370
-3
390
0
0
LAYER
5
135
100
AcDbSymbolTableRecord
100
AcDbLayerTableRecord
2
Defpoints
70
0
62
7
6
Continuous
290
0
370
-3
390
0
0
LAYER
5
1f2
100
AcDbSymbolTableRecord
100
AcDbLayerTableRecord
2
SK4
70
0
62
2
6
CENTER
290
1
370
-3
390
0
0
LAYER
5
1f3
100
AcDbSymbolTableRecord
100
AcDbLayerTableRecord
2
SK1
70
0
62
4
6
Continuous
290
1
370
-3
390
0
0
LAYER
5
1f4
100
AcDbSymbolTableRecord
100
AcDbLayerTableRecord
2
SK2
70
0
62
7
6
Continuous
290
1
370
-3
390
0
0
LAYER
5
1f5
100
AcDbSymbolTableRecord
100
AcDbLayerTableRecord
2
SK6
70
0
62
5
6
Continuous
290
1
370
-3
390
0
0
ENDTAB
0
TABLE
2
STYLE
5
209
100
AcDbSymbolTable
0
STYLE
5
11
100
AcDbSymbolTableRecord
100
AcDbTextStyleTableRecord
2
Standard
3
txt
70
0
71
0
40
0
41
1
42
0
50
0
0
STYLE
5
111
100
AcDbSymbolTableRecord
100
AcDbTextStyleTableRecord
2
iso_b_vert
3
simplex.shx
70
0
71
0
40
0
41
1
42
0
50
0
0
STYLE
5
112
100
AcDbSymbolTableRecord
100
AcDbTextStyleTableRecord
2
DWGDirectTextStyle
3
simplex
70
0
71
0
40
0
41
1
42
0
50
0
0
ENDTAB
0
TABLE
2
DIMSTYLE
5
20a
100
AcDbSymbolTable
100
AcDbDimStyleTable
0
DIMSTYLE
105
27
100
AcDbSymbolTableRecord
100
AcDbDimStyleTableRecord
2
Standard
70
0
3
<>
41
0.18
42
0.0625
44
0.18
140
0.18
147
0.09
73
0
74
0
77
1
271
2
275
0
278
52
280
0
340
11
0
ENDTAB
0
TABLE
2
VIEW
5
20b
100
AcDbSymbolTable
0
ENDTAB
0
TABLE
2
UCS
5
20c
100
AcDbSymbolTable
0
ENDTAB
0
TABLE
2
APPID
5
20d
100
AcDbSymbolTable
0
APPID
5
12
100
AcDbSymbolTableRecord
100
AcDbRegAppTableRecord
2
ACAD
70
0
0
APPID
5
131
100
AcDbSymbolTableRecord
100
AcDbRegAppTableRecord
2
ACAD_DSTYLE_DIMBREAK
70
0
0
APPID
5
1B1
100
AcDbSymbolTableRecord
100
AcDbRegAppTableRecord
2
ACAD_DSTYLE_DIM_LINETYPE
70
0
0
APPID
5
1B2
100
AcDbSymbolTableRecord
100
AcDbRegAppTableRecord
2
ACAD_DSTYLE_DIM_EXT1_LINETYPE
70
0
0
APPID
5
1B3
100
AcDbSymbolTableRecord
100
AcDbRegAppTableRecord
2
ACAD_DSTYLE_DIM_EXT2_LINETYPE
70
0
0
APPID
5
1EE
100
AcDbSymbolTableRecord
100
AcDbRegAppTableRecord
2
ACAD_MLEADERVER
70
0
0
ENDTAB
0
TABLE
2
BLOCK_RECORD
5
20e
100
AcDbSymbolTable
0
BLOCK_RECORD
5
1F
100
AcDbSymbolTableRecord
100
AcDbBlockTableRecord
2
*Model_Space
340
0
70
0
0
BLOCK_RECORD
5
1B
100
AcDbSymbolTableRecord
100
AcDbBlockTableRecord
2
*Paper_Space
340
0
70
0
0
BLOCK_RECORD
5
23
100
AcDbSymbolTableRecord
100
AcDbBlockTableRecord
2
*Paper_Space0
340
0
70
0
0
BLOCK_RECORD
5
136
100
AcDbSymbolTableRecord
100
AcDbBlockTableRecord
2
*D1
340
0
70
0
0
BLOCK_RECORD
5
142
100
AcDbSymbolTableRecord
100
AcDbBlockTableRecord
2
_U0
340
0
70
0
0
BLOCK_RECORD
5
14E
100
AcDbSymbolTableRecord
100
AcDbBlockTableRecord
2
*D3
340
0
70
0
0
BLOCK_RECORD
5
15A
100
AcDbSymbolTableRecord
100
AcDbBlockTableRecord
2
_U1
340
0
70
0
0
BLOCK_RECORD
5
166
100
AcDbSymbolTableRecord
100
AcDbBlockTableRecord
2
*D5
340
0
70
0
0
BLOCK_RECORD
5
172
100
AcDbSymbolTableRecord
100
AcDbBlockTableRecord
2
_U2
340
0
70
0
0
BLOCK_RECORD
5
17E
100
AcDbSymbolTableRecord
100
AcDbBlockTableRecord
2
*D7
340
0
70
0
0
BLOCK_RECORD
5
18A
100
AcDbSymbolTableRecord
100
AcDbBlockTableRecord
2
_U3
340
0
70
0
0
ENDTAB
0
ENDSEC
0
SECTION
2
BLOCKS
0
BLOCK
5
20
100
AcDbEntity
8
0
100
AcDbBlockBegin
2
*Model_Space
70
0
10
0
20
0
30
0
3
*Model_Space
0
ENDBLK
5
21
100
AcDbEntity
8
0
100
AcDbBlockEnd
0
BLOCK
5
1C
100
AcDbEntity
8
0
100
AcDbBlockBegin
2
*Paper_Space
70
0
10
0
20
0
30
0
3
*Paper_Space
0
ENDBLK
5
1D
100
AcDbEntity
8
0
100
AcDbBlockEnd
0
BLOCK
5
24
100
AcDbEntity
8
0
100
AcDbBlockBegin
2
*Paper_Space0
70
0
10
0
20
0
30
0
3
*Paper_Space0
0
ENDBLK
5
25
100
AcDbEntity
8
0
100
AcDbBlockEnd
0
BLOCK
5
137
100
AcDbEntity
8
0
100
AcDbBlockBegin
2
*D1
70
1
10
0
20
0
30
0
3
*D1
0
LINE
5
139
100
AcDbEntity
8
0
62
256
6
ByLayer
370
-2
48
1
60
0
100
AcDbLine
10
-48
20
-9.525
30
0
11
-48
21
-47.952229
31
0
39
0
210
0
220
0
230
1
0
LINE
5
13A
100
AcDbEntity
8
0
62
256
6
ByLayer
370
-2
48
1
60
0
100
AcDbLine
10
82
20
-1.5875
30
0
11
82
21
-47.952229
31
0
39
0
210
0
220
0
230
1
0
LINE
5
13B
100
AcDbEntity
8
0
62
256
6
ByLayer
370
-2
48
1
60
0
100
AcDbLine
10
-44.5
20
-45.952229
30
0
11
78.5
21
-45.952229
31
0
39
0
210
0
220
0
230
1
0
SOLID
5
13C
100
AcDbEntity
8
0
62
256
6
ByLayer
370
-1
48
1
60
0
100
AcDbTrace
10
-44.5
20
-45.368896
30
0
11
-44.5
21
-46.535563
31
0
12
-48
22
-45.952229
32
0
13
-48
23
-45.952229
33
0
39
0
210
0
220
0
230
1
0
SOLID
5
13D
100
AcDbEntity
8
0
62
256
6
ByLayer
370
-1
48
1
60
0
100
AcDbTrace
10
78.5
20
-46.535563
30
0
11
78.5
21
-45.368896
31
0
12
82
22
-45.952229
32
0
13
82
23
-45.952229
33
0
39
0
210
0
220
0
230
1
0
MTEXT
5
13E
100
AcDbEntity
8
0
62
256
6
ByLayer
370
18
48
1
60
0
100
AcDbMText
10
17
20
-39.952229
30
0
210
0
220
0
230
1
1
\A1;130
40
3
41
0
44
1
50
0
71
5
72
5
7
iso_b_vert
0
POINT
5
13F
100
AcDbEntity
8
Defpoints
62
0
6
ByLayer
370
-1
48
1
60
0
100
AcDbPoint
10
-48
20
-7.9375
30
0
39
0
210
0
220
0
230
1
50
360
0
POINT
5
140
100
AcDbEntity
8
Defpoints
62
0
6
ByLayer
370
-1
48
1
60
0
100
AcDbPoint
10
82
20
0
30
0
39
0
210
0
220
0
230
1
50
360
0
POINT
5
141
100
AcDbEntity
8
Defpoints
62
0
6
ByLayer
370
-1
48
1
60
0
100
AcDbPoint
10
82
20
-45.952229
30
0
39
0
210
0
220
0
230
1
50
360
0
ENDBLK
5
138
100
AcDbEntity
8
0
100
AcDbBlockEnd
0
BLOCK
5
149
100
AcDbEntity
8
0
100
AcDbBlockBegin
2
_U0
70
0
10
0
20
0
30
0
3
_U0
0
MTEXT
5
143
100
AcDbEntity
8
SK2
62
256
6
ByLayer
370
18
48
1
60
0
100
AcDbMText
10
11.771658
20
-45.067115
30
0
210
0
220
0
230
1
1
\W0.7022;130.00
40
3
41
0
44
1.084337
50
0
71
7
72
5
7
iso_b_vert
0
LINE
5
144
100
AcDbEntity
8
SK2
62
256
6
ByLayer
370
13
48
1
60
0
100
AcDbLine
10
-48
20
-9.525
30
0
11
-48
21
-47.952229
31
0
39
0
210
0
220
0
230
1
0
LINE
5
145
100
AcDbEntity
8
SK2
62
256
6
ByLayer
370
13
48
1
60
0
100
AcDbLine
10
82
20
-1.5875
30
0
11
82
21
-47.952229
31
0
39
0
210
0
220
0
230
1
0
LINE
5
146
100
AcDbEntity
8
SK2
62
256
6
ByLayer
370
13
48
1
60
0
100
AcDbLine
10
-48
20
-45.952229
30
0
11
82
21
-45.952229
31
0
39
0
210
0
220
0
230
1
0
SOLID
5
147
100
AcDbEntity
8
SK2
62
256
6
ByLayer
370
18
48
1
60
0
100
AcDbTrace
10
-48
20
-45.952229
30
0
11
-44.500002
21
-45.491446
31
0
12
-44.499998
22
-46.413013
32
0
13
-44.499998
23
-46.413013
33
0
39
0
210
0
220
0
230
1
0
SOLID
5
148
100
AcDbEntity
8
SK2
62
256
6
ByLayer
370
18
48
1
60
0
100
AcDbTrace
10
82
20
-45.952229
30
0
11
78.500002
21
-46.413013
31
0
12
78.499998
22
-45.491446
32
0
13
78.499998
23
-45.491446
33
0
39
0
210
0
220
0
230
1
0
ENDBLK
5
14A
100
AcDbEntity
8
0
100
AcDbBlockEnd
0
BLOCK
5
14F
100
AcDbEntity
8
0
100
AcDbBlockBegin
2
*D3
70
1
10
0
20
0
30
0
3
*D3
0
LINE
5
151
100
AcDbEntity
8
0
62
256
6
ByLayer
370
-2
48
1
60
0
100
AcDbLine
10
82
20
-1.5875
30
0
11
82
21
-37.952229
31
0
39
0
210
0
220
0
230
1
0
LINE
5
152
100
AcDbEntity
8
0
62
256
6
ByLayer
370
-2
48
1
60
0
100
AcDbLine
10
3
20
-7.9375
30
0
11
3
21
-37.952229
31
0
39
0
210
0
220
0
230
1
0
LINE
5
153
100
AcDbEntity
8
0
62
256
6
ByLayer
370
-2
48
1
60
0
100
AcDbLine
10
78.5
20
-35.952229
30
0
11
6.5
21
-35.952229
31
0
39
0
210
0
220
0
230
1
0
SOLID
5
154
100
AcDbEntity
8
0
62
256
6
ByLayer
370
-1
48
1
60
0
100
AcDbTrace
10
78.5
20
-36.535563
30
0
11
78.5
21
-35.368896
31
0
12
82
22
-35.952229
32
0
13
82
23
-35.952229
33
0
39
0
210
0
220
0
230
1
0
SOLID
5
155
100
AcDbEntity
8
0
62
256
6
ByLayer
370
-1
48
1
60
0
100
AcDbTrace
10
6.5
20
-35.368896
30
0
11
6.5
21
-36.535563
31
0
12
3
22
-35.952229
32
0
13
3
23
-35.952229
33
0
39
0
210
0
220
0
230
1
0
MTEXT
5
156
100
AcDbEntity
8
0
62
256
6
ByLayer
370
18
48
1
60
0
100
AcDbMText
10
42.5
20
-29.952229
30
0
210
0
220
0
230
1
1
\A1;79
40
3
41
0
44
1
50
0
71
5
72
5
7
iso_b_vert
0
POINT
5
157
100
AcDbEntity
8
Defpoints
62
0
6
ByLayer
370
-1
48
1
60
0
100
AcDbPoint
10
82
20
0
30
0
39
0
210
0
220
0
230
1
50
360
0
POINT
5
158
100
AcDbEntity
8
Defpoints
62
0
6
ByLayer
370
-1
48
1
60
0
100
AcDbPoint
10
3
20
-6.35
30
0
39
0
210
0
220
0
230
1
50
360
0
POINT
5
159
100
AcDbEntity
8
Defpoints
62
0
6
ByLayer
370
-1
48
1
60
0
100
AcDbPoint
10
3
20
-35.952229
30
0
39
0
210
0
220
0
230
1
50
360
0
ENDBLK
5
150
100
AcDbEntity
8
0
100
AcDbBlockEnd
0
BLOCK
5
161
100
AcDbEntity
8
0
100
AcDbBlockBegin
2
_U1
70
0
10
0
20
0
30
0
3
_U1
0
MTEXT
5
15B
100
AcDbEntity
8
SK2
62
256
6
ByLayer
370
18
48
1
60
0
100
AcDbMText
10
38.01763
20
-35.067115
30
0
210
0
220
0
230
1
1
\W0.7468;79.00
40
3
41
0
44
1.084337
50
0
71
7
72
5
7
iso_b_vert
0
LINE
5
15C
100
AcDbEntity
8
SK2
62
256
6
ByLayer
370
13
48
1
60
0
100
AcDbLine
10
82
20
-1.5875
30
0
11
82
21
-37.952229
31
0
39
0
210
0
220
0
230
1
0
LINE
5
15D
100
AcDbEntity
8
SK2
62
256
6
ByLayer
370
13
48
1
60
0
100
AcDbLine
10
3
20
-7.9375
30
0
11
3
21
-37.952229
31
0
39
0
210
0
220
0
230
1
0
LINE
5
15E
100
AcDbEntity
8
SK2
62
256
6
ByLayer
370
13
48
1
60
0
100
AcDbLine
10
82
20
-35.952229
30
0
11
3
21
-35.952229
31
0
39
0
210
0
220
0
230
1
0
SOLID
5
15F
100
AcDbEntity
8
SK2
62
256
6
ByLayer
370
18
48
1
60
0
100
AcDbTrace
10
82
20
-35.952229
30
0
11
78.500002
21
-36.413013
31
0
12
78.499998
22
-35.491446
32
0
13
78.499998
23
-35.491446
33
0
39
0
210
0
220
0
230
1
0
SOLID
5
160
100
AcDbEntity
8
SK2
62
256
6
ByLayer
370
18
48
1
60
0
100
AcDbTrace
10
3
20
-35.952229
30
0
11
6.499998
21
-35.491446
31
0
12
6.500002
22
-36.413013
32
0
13
6.500002
23
-36.413013
33
0
39
0
210
0
220
0
230
1
0
ENDBLK
5
162
100
AcDbEntity
8
0
100
AcDbBlockEnd
0
BLOCK
5
167
100
AcDbEntity
8
0
100
AcDbBlockBegin
2
*D5
70
1
10
0
20
0
30
0
3
*D5
0
LINE
5
169
100
AcDbEntity
8
0
62
256
6
ByLayer
370
-2
48
1
60
0
100
AcDbLine
10
-48
20
-9.525
30
0
11
-48
21
-37.952229
31
0
39
0
210
0
220
0
230
1
0
LINE
5
16A
100
AcDbEntity
8
0
62
256
6
ByLayer
370
-2
48
1
60
0
100
AcDbLine
10
0
20
-9.525
30
0
11
0
21
-37.952229
31
0
39
0
210
0
220
0
230
1
0
LINE
5
16B
100
AcDbEntity
8
0
62
256
6
ByLayer
370
-2
48
1
60
0
100
AcDbLine
10
-44.5
20
-35.952229
30
0
11
-3.5
21
-35.952229
31
0
39
0
210
0
220
0
230
1
0
SOLID
5
16C
100
AcDbEntity
8
0
62
256
6
ByLayer
370
-1
48
1
60
0
100
AcDbTrace
10
-44.5
20
-35.368896
30
0
11
-44.5
21
-36.535563
31
0
12
-48
22
-35.952229
32
0
13
-48
23
-35.952229
33
0
39
0
210
0
220
0
230
1
0
SOLID
5
16D
100
AcDbEntity
8
0
62
256
6
ByLayer
370
-1
48
1
60
0
100
AcDbTrace
10
-3.5
20
-36.535563
30
0
11
-3.5
21
-35.368896
31
0
12
0
22
-35.952229
32
0
13
0
23
-35.952229
33
0
39
0
210
0
220
0
230
1
0
MTEXT
5
16E
100
AcDbEntity
8
0
62
256
6
ByLayer
370
18
48
1
60
0
100
AcDbMText
10
-24
20
-29.952229
30
0
210
0
220
0
230
1
1
\A1;48
40
3
41
0
44
1
50
0
71
5
72
5
7
iso_b_vert
0
POINT
5
16F
100
AcDbEntity
8
Defpoints
62
0
6
ByLayer
370
-1
48
1
60
0
100
AcDbPoint
10
-48
20
-7.9375
30
0
39
0
210
0
220
0
230
1
50
360
0
POINT
5
170
100
AcDbEntity
8
Defpoints
62
0
6
ByLayer
370
-1
48
1
60
0
100
AcDbPoint
10
0
20
-7.9375
30
0
39
0
210
0
220
0
230
1
50
360
0
POINT
5
171
100
AcDbEntity
8
Defpoints
62
0
6
ByLayer
370
-1
48
1
60
0
100
AcDbPoint
10
0
20
-35.952229
30
0
39
0
210
0
220
0
230
1
50
360
0
ENDBLK
5
168
100
AcDbEntity
8
0
100
AcDbBlockEnd
0
BLOCK
5
179
100
AcDbEntity
8
0
100
AcDbBlockBegin
2
_U2
70
0
10
0
20
0
30
0
3
_U2
0
MTEXT
5
173
100
AcDbEntity
8
SK2
62
256
6
ByLayer
370
18
48
1
60
0
100
AcDbMText
10
-28.640313
20
-35.067115
30
0
210
0
220
0
230
1
1
\W0.7694;48.00
40
3
41
0
44
1.084337
50
0
71
7
72
5
7
iso_b_vert
0
LINE
5
174
100
AcDbEntity
8
SK2
62
256
6
ByLayer
370
13
48
1
60
0
100
AcDbLine
10
-48
20
-9.525
30
0
11
-48
21
-37.952229
31
0
39
0
210
0
220
0
230
1
0
LINE
5
175
100
AcDbEntity
8
SK2
62
256
6
ByLayer
370
13
48
1
60
0
100
AcDbLine
10
0
20
-9.525
30
0
11
0
21
-37.952229
31
0
39
0
210
0
220
0
230
1
0
LINE
5
176
100
AcDbEntity
8
SK2
62
256
6
ByLayer
370
13
48
1
60
0
100
AcDbLine
10
-48
20
-35.952229
30
0
11
0
21
-35.952229
31
0
39
0
210
0
220
0
230
1
0
SOLID
5
177
100
AcDbEntity
8
SK2
62
256
6
ByLayer
370
18
48
1
60
0
100
AcDbTrace
10
-48
20
-35.952229
30
0
11
-44.500002
21
-35.491446
31
0
12
-44.499998
22
-36.413013
32
0
13
-44.499998
23
-36.413013
33
0
39
0
210
0
220
0
230
1
0
SOLID
5
178
100
AcDbEntity
8
SK2
62
256
6
ByLayer
370
18
48
1
60
0
100
AcDbTrace
10
0
20
-35.952229
30
0
11
-3.499998
21
-36.413013
31
0
12
-3.500002
22
-35.491446
32
0
13
-3.500002
23
-35.491446
33
0
39
0
210
0
220
0
230
1
0
ENDBLK
5
17A
100
AcDbEntity
8
0
100
AcDbBlockEnd
0
BLOCK
5
17F
100
AcDbEntity
8
0
100
AcDbBlockBegin
2
*D7
70
1
10
0
20
0
30
0
3
*D7
0
LINE
5
181
100
AcDbEntity
8
0
62
256
6
ByLayer
370
-2
48
1
60
0
100
AcDbLine
10
82
20
1.5875
30
0
11
82
21
34.952229
31
0
39
0
210
0
220
0
230
1
0
LINE
5
182
100
AcDbEntity
8
0
62
256
6
ByLayer
370
-2
48
1
60
0
100
AcDbLine
10
13
20
7.9375
30
0
11
13
21
34.952229
31
0
39
0
210
0
220
0
230
1
0
LINE
5
183
100
AcDbEntity
8
0
62
256
6
ByLayer
370
-2
48
1
60
0
100
AcDbLine
10
78.5
20
32.952229
30
0
11
16.5
21
32.952229
31
0
39
0
210
0
220
0
230
1
0
SOLID
5
184
100
AcDbEntity
8
0
62
256
6
ByLayer
370
-1
48
1
60
0
100
AcDbTrace
10
78.5
20
32.368896
30
0
11
78.5
21
33.535563
31
0
12
82
22
32.952229
32
0
13
82
23
32.952229
33
0
39
0
210
0
220
0
230
1
0
SOLID
5
185
100
AcDbEntity
8
0
62
256
6
ByLayer
370
-1
48
1
60
0
100
AcDbTrace
10
16.5
20
33.535563
30
0
11
16.5
21
32.368896
31
0
12
13
22
32.952229
32
0
13
13
23
32.952229
33
0
39
0
210
0
220
0
230
1
0
MTEXT
5
186
100
AcDbEntity
8
0
62
256
6
ByLayer
370
18
48
1
60
0
100
AcDbMText
10
47.5
20
38.952229
30
0
210
0
220
0
230
1
1
\A1;69
40
3
41
0
44
1
50
0
71
5
72
5
7
iso_b_vert
0
POINT
5
187
100
AcDbEntity
8
Defpoints
62
0
6
ByLayer
370
-1
48
1
60
0
100
AcDbPoint
10
82
20
0
30
0
39
0
210
0
220
0
230
1
50
360
0
POINT
5
188
100
AcDbEntity
8
Defpoints
62
0
6
ByLayer
370
-1
48
1
60
0
100
AcDbPoint
10
13
20
6.35
30
0
39
0
210
0
220
0
230
1
50
360
0
POINT
5
189
100
AcDbEntity
8
Defpoints
62
0
6
ByLayer
370
-1
48
1
60
0
100
AcDbPoint
10
13
20
32.952229
30
0
39
0
210
0
220
0
230
1
50
360
0
ENDBLK
5
180
100
AcDbEntity
8
0
100
AcDbBlockEnd
0
BLOCK
5
191
100
AcDbEntity
8
0
100
AcDbBlockBegin
2
_U3
70
0
10
0
20
0
30
0
3
_U3
0
MTEXT
5
18B
100
AcDbEntity
8
SK2
62
256
6
ByLayer
370
18
48
1
60
0
100
AcDbMText
10
43.01763
20
33.837344
30
0
210
0
220
0
230
1
1
\W0.7468;69.00
40
3
41
0
44
1.084337
50
0
71
7
72
5
7
iso_b_vert
0
LINE
5
18C
100
AcDbEntity
8
SK2
62
256
6
ByLayer
370
13
48
1
60
0
100
AcDbLine
10
82
20
1.5875
30
0
11
82
21
34.952229
31
0
39
0
210
0
220
0
230
1
0
LINE
5
18D
100
AcDbEntity
8
SK2
62
256
6
ByLayer
370
13
48
1
60
0
100
AcDbLine
10
13
20
7.9375
30
0
11
13
21
34.952229
31
0
39
0
210
0
220
0
230
1
0
LINE
5
18E
100
AcDbEntity
8
SK2
62
256
6
ByLayer
370
13
48
1
60
0
100
AcDbLine
10
82
20
32.952229
30
0
11
13
21
32.952229
31
0
39
0
210
0
220
0
230
1
0
SOLID
5
18F
100
AcDbEntity
8
SK2
62
256
6
ByLayer
370
18
48
1
60
0
100
AcDbTrace
10
82
20
32.952229
30
0
11
78.500002
21
32.491446
31
0
12
78.499998
22
33.413013
32
0
13
78.499998
23
33.413013
33
0
39
0
210
0
220
0
230
1
0
SOLID
5
190
100
AcDbEntity
8
SK2
62
256
6
ByLayer
370
18
48
1
60
0
100
AcDbTrace
10
13
20
32.952229
30
0
11
16.499998
21
33.413013
31
0
12
16.500002
22
32.491446
32
0
13
16.500002
23
32.491446
33
0
39
0
210
0
220
0
230
1
0
ENDBLK
5
192
100
AcDbEntity
8
0
100
AcDbBlockEnd
0
ENDSEC
0
SECTION
2
ENTITIES
0
ARC
5
C0
100
AcDbEntity
8
SK2
62
256
6
ByLayer
370
13
48
1
60
0
100
AcDbCircle
39
0
10
82
20
0
30
0
40
18.9999999999999
210
0
220
0
230
1
100
AcDbArc
50
290
51
70
0
ELLIPSE
5
C1
100
AcDbEntity
8
SK1
62
256
6
ByLayer
370
18
48
1
60
0
100
AcDbEllipse
10
-15.511927
20
0
30
0
11
8.51192663582145
21
-9.64486143630667E-15
31
0
210
0
220
0
230
1
40
0.932515
41
-0.661655103696894
42
0.661655103696897
0
ELLIPSE
5
C2
100
AcDbEntity
8
SK1
62
256
6
ByLayer
370
18
48
1
60
0
100
AcDbEllipse
10
-33.598162
20
0
30
0
11
-1.45804694001977E-15
21
-7.93749999999999
31
0
210
0
220
0
230
1
40
0.932515
41
-2.23245143049182
42
-0.909141223097976
0
POINT
5
70
100
AcDbEntity
8
81
62
256
6
ByLayer
370
18
48
1
60
0
100
AcDbPoint
10
82
20
0
30
0
39
0
210
0
220
0
230
1
50
360
0
POINT
5
72
100
AcDbEntity
8
80
62
256
6
ByLayer
370
18
48
1
60
0
100
AcDbPoint
10
0
20
0
30
0
39
0
210
0
220
0
230
1
50
360
0
POINT
5
74
100
AcDbEntity
8
1
62
256
6
ByLayer
370
18
48
1
60
1
100
AcDbPoint
10
-48
20
-7.9375
30
0
39
0
210
0
220
0
230
1
50
360
0
POINT
5
76
100
AcDbEntity
8
1
62
256
6
ByLayer
370
18
48
1
60
1
100
AcDbPoint
10
82
20
0
30
0
39
0
210
0
220
0
230
1
50
360
0
POINT
5
77
100
AcDbEntity
8
1
62
256
6
ByLayer
370
18
48
1
60
1
100
AcDbPoint
10
82
20
0
30
0
39
0
210
0
220
0
230
1
50
360
0
POINT
5
78
100
AcDbEntity
8
1
62
256
6
ByLayer
370
18
48
1
60
1
100
AcDbPoint
10
3
20
-6.35
30
0
39
0
210
0
220
0
230
1
50
360
0
POINT
5
79
100
AcDbEntity
8
1
62
256
6
ByLayer
370
18
48
1
60
1
100
AcDbPoint
10
-48
20
-7.9375
30
0
39
0
210
0
220
0
230
1
50
360
0
POINT
5
7A
100
AcDbEntity
8
1
62
256
6
ByLayer
370
18
48
1
60
1
100
AcDbPoint
10
0
20
-7.9375
30
0
39
0
210
0
220
0
230
1
50
360
0
POINT
5
7B
100
AcDbEntity
8
1
62
256
6
ByLayer
370
18
48
1
60
1
100
AcDbPoint
10
82
20
0
30
0
39
0
210
0
220
0
230
1
50
360
0
POINT
5
7C
100
AcDbEntity
8
1
62
256
6
ByLayer
370
18
48
1
60
1
100
AcDbPoint
10
13
20
6.35
30
0
39
0
210
0
220
0
230
1
50
360
0
SPLINE
5
C3
100
AcDbEntity
8
1
62
256
6
ByLayer
370
18
48
1
60
0
100
AcDbSpline
70
4
71
3
72
20
73
16
40
0
40
0
40
0
40
0
40
0.125000000000002
40
0.125000000000002
40
0.250000000000005
40
0.250000000000005
40
0.500000000000009
40
0.500000000000009
40
0.625000000000012
40
0.625000000000012
40
0.687500000000011
40
0.687500000000011
40
0.75000000000001
40
0.75000000000001
40
1
40
1
40
1
40
1
41
1
10
10
20
-5.3862216241767
30
0
41
1
10
10.2222114251282
20
-5.3852027923964
30
0
41
1
10
10.4433243997831
20
-5.38753603883515
30
0
41
1
10
10.8835277310711
20
-5.39829047013058
30
0
41
1
10
11.10261739618
20
-5.40671174111094
30
0
41
1
10
11.7570856097361
20
-5.43994928544825
30
0
41
1
10
12.1896552559243
20
-5.47280554129887
30
0
41
1
10
12.8338744591161
20
-5.53217897900336
30
0
41
1
10
13.0478432086131
20
-5.55363352157386
30
0
41
1
10
13.3677824074918
20
-5.58744641607623
30
0
41
1
10
13.4742599917103
20
-5.5989886470131
30
0
41
1
10
13.6869032672541
20
-5.62246753327869
30
0
41
1
10
13.7931170378513
20
-5.63440959934093
30
0
41
1
10
14.322854962566
20
-5.69466529201188
30
0
41
1
10
14.741906272931
20
-5.74446652412828
30
0
41
1
10
15.1580512156267
20
-5.79171202982747
30
0
0
SPLINE
5
C4
100
AcDbEntity
8
1
62
256
6
ByLayer
370
18
48
1
60
0
100
AcDbSpline
70
4
71
3
72
14
73
10
40
0
40
0
40
0
40
0
40
0.25
40
0.25
40
0.5
40
0.5
40
0.75
40
0.75
40
1
40
1
40
1
40
1
41
1
10
12.412195945349
20
3.2233278112877
30
0
41
1
10
12.2086563169825
20
3.28582997347522
30
0
41
1
10
12.0059860586858
20
3.34940179845367
30
0
41
1
10
11.6019681435355
20
3.47755818320911
30
0
41
1
10
11.4006193575618
20
3.54214113704273
30
0
41
1
10
10.9989241841185
20
3.67146361677004
30
0
41
1
10
10.7985770062415
20
3.73620271986528
30
0
41
1
10
10.3986928915446
20
3.86528825704227
30
0
41
1
10
10.199155618896
20
3.92963551298755
30
0
41
1
10
10
20
3.99366222052808
30
0
0
SPLINE
5
C5
100
AcDbEntity
8
1
62
256
6
ByLayer
370
18
48
1
60
0
100
AcDbSpline
70
4
71
3
72
20
73
16
40
0
40
0
40
0
40
0
40
0.125000000000001
40
0.125000000000001
40
0.250000000000001
40
0.250000000000001
40
0.500000000000002
40
0.500000000000002
40
0.625000000000002
40
0.625000000000002
40
0.687500000000001
40
0.687500000000001
40
0.749999999999999
40
0.749999999999999
40
1
40
1
40
1
40
1
41
1
10
10
20
5.3862216241767
30
0
41
1
10
10.2222114251282
20
5.3852027923964
30
0
41
1
10
10.4433243997831
20
5.38753603883518
30
0
41
1
10
10.8835277310711
20
5.39829047013058
30
0
41
1
10
11.10261739618
20
5.40671174111091
30
0
41
1
10
11.7570856097361
20
5.43994928544825
30
0
41
1
10
12.1896552559244
20
5.4728055412989
30
0
41
1
10
12.8338744591161
20
5.53217897900339
30
0
41
1
10
13.0478432086131
20
5.55363352157386
30
0
41
1
10
13.3677824074918
20
5.58744641607623
30
0
41
1
10
13.4742599917103
20
5.59898864701307
30
0
41
1
10
13.6869032672541
20
5.62246753327869
30
0
41
1
10
13.7931170378513
20
5.63440959934098
30
0
41
1
10
14.322854962566
20
5.69466529201191
30
0
41
1
10
14.741906272931
20
5.74446652412823
30
0
41
1
10
15.1580512156267
20
5.79171202982741
30
0
0
SPLINE
5
C6
100
AcDbEntity
8
1
62
256
6
ByLayer
370
18
48
1
60
0
100
AcDbSpline
70
4
71
3
72
12
73
8
40
0
40
0
40
0
40
0
40
0.660911260706546
40
0.660911260706546
40
0.991366891059812
40
0.991366891059812
40
1
40
1
40
1
40
1
41
1
10
72.6
20
-6.27395118058189
30
0
41
1
10
73.1915971279724
20
-6.30703961777616
30
0
41
1
10
73.7829580589312
20
-6.32909878796548
30
0
41
1
10
74.6691572120811
20
-6.34604129778842
30
0
41
1
10
74.9644156383442
20
-6.34898649807525
30
0
41
1
10
75.2672025179131
20
-6.3492015032331
30
0
41
1
10
75.2749112491624
20
-6.34920510666214
30
0
41
1
10
75.2826198414332
20
-6.34920683867946
30
0
0
SPLINE
5
C7
100
AcDbEntity
8
1
62
256
6
ByLayer
370
18
48
1
60
0
100
AcDbSpline
70
4
71
3
72
150
73
146
40
0
40
0
40
0
40
0
40
0.0312500000000021
40
0.0312500000000021
40
0.0625000000000043
40
0.0625000000000043
40
0.0703125000000047
40
0.0703125000000047
40
0.078125000000005
40
0.078125000000005
40
0.0937500000000058
40
0.0937500000000058
40
0.125000000000007
40
0.125000000000007
40
0.132812500000006
40
0.132812500000006
40
0.140625000000006
40
0.140625000000006
40
0.156250000000006
40
0.156250000000006
40
0.187500000000006
40
0.187500000000006
40
0.195312500000005
40
0.195312500000005
40
0.203125000000005
40
0.203125000000005
40
0.218750000000005
40
0.218750000000005
40
0.250000000000004
40
0.250000000000004
40
0.257812500000004
40
0.257812500000004
40
0.265625000000003
40
0.265625000000003
40
0.273437500000002
40
0.273437500000002
40
0.281250000000002
40
0.281250000000002
40
0.312499999999999
40
0.312499999999999
40
0.328124999999999
40
0.328124999999999
40
0.335937499999998
40
0.335937499999998
40
0.343749999999998
40
0.343749999999998
40
0.374999999999998
40
0.374999999999998
40
0.390624999999998
40
0.390624999999998
40
0.398437499999998
40
0.398437499999998
40
0.406249999999998
40
0.406249999999998
40
0.414062499999998
40
0.414062499999998
40
0.421874999999998
40
0.421874999999998
40
0.437499999999998
40
0.437499999999998
40
0.453124999999998
40
0.453124999999998
40
0.460937499999998
40
0.460937499999998
40
0.468749999999998
40
0.468749999999998
40
0.484374999999997
40
0.484374999999997
40
0.499999999999997
40
0.499999999999997
40
0.515624999999996
40
0.515624999999996
40
0.523437499999996
40
0.523437499999996
40
0.531249999999996
40
0.531249999999996
40
0.546874999999995
40
0.546874999999995
40
0.554687499999995
40
0.554687499999995
40
0.562499999999995
40
0.562499999999995
40
0.578124999999994
40
0.578124999999994
40
0.585937499999994
40
0.585937499999994
40
0.593749999999993
40
0.593749999999993
40
0.601562499999993
40
0.601562499999993
40
0.609374999999992
40
0.609374999999992
40
0.624999999999992
40
0.624999999999992
40
0.656249999999991
40
0.656249999999991
40
0.664062499999991
40
0.664062499999991
40
0.671874999999991
40
0.671874999999991
40
0.687499999999991
40
0.687499999999991
40
0.695312499999991
40
0.695312499999991
40
0.70312499999999
40
0.70312499999999
40
0.718749999999989
40
0.718749999999989
40
0.726562499999989
40
0.726562499999989
40
0.734374999999989
40
0.734374999999989
40
0.749999999999988
40
0.749999999999988
40
0.781249999999988
40
0.781249999999988
40
0.789062499999988
40
0.789062499999988
40
0.796874999999988
40
0.796874999999988
40
0.812499999999989
40
0.812499999999989
40
0.84374999999999
40
0.84374999999999
40
0.851562499999991
40
0.851562499999991
40
0.859374999999991
40
0.859374999999991
40
0.874999999999993
40
0.874999999999993
40
0.906249999999995
40
0.906249999999995
40
0.921874999999997
40
0.921874999999997
40
0.929687499999997
40
0.929687499999997
40
0.937499999999998
40
0.937499999999998
40
0.968749999999999
40
0.968749999999999
40
0.984375
40
0.984375
40
0.9921875
40
0.9921875
40
1
40
1
40
1
40
1
41
1
10
15.1580512156267
20
5.79171202982747
30
0
41
1
10
15.7571084774337
20
5.85797078667295
30
0
41
1
10
16.3561220425284
20
5.91313109585482
30
0
41
1
10
17.5533417786108
20
6.00262250059114
30
0
41
1
10
18.1515483986678
20
6.03694464211733
30
0
41
1
10
18.8984113445369
20
6.06669358829154
30
0
41
1
10
19.0477436921496
20
6.07197844539814
30
0
41
1
10
19.3465049564684
20
6.08116998331602
30
0
41
1
10
19.4959325509001
20
6.08507948545406
30
0
41
1
10
19.9443202332673
20
6.09478198093038
30
0
41
1
10
20.243377492059
20
6.09855281629694
30
0
41
1
10
21.1408018371987
20
6.10186636853445
30
0
41
1
10
21.7394359245766
20
6.09345473132711
30
0
41
1
10
22.4877652150265
20
6.06928659242905
30
0
41
1
10
22.637421490587
20
6.06376200146178
30
0
41
1
10
22.9368239385964
20
6.05135158740762
30
0
41
1
10
23.0866134990091
20
6.04447384540853
30
0
41
1
10
23.5361395881003
20
6.02188465396625
30
0
41
1
10
23.8357732961707
20
6.00421494444416
30
0
41
1
10
24.7343398477193
20
5.94342069943838
30
0
41
1
10
25.3329735723137
20
5.89256990363762
30
0
41
1
10
26.0803340560051
20
5.81568330342512
30
0
41
1
10
26.2297566879335
20
5.79963377932148
30
0
41
1
10
26.5285136472694
20
5.76618600943092
30
0
41
1
10
26.6778578997297
20
5.74879503127309
30
0
41
1
10
27.126044127082
20
5.69487546908718
30
0
41
1
10
27.4249915381714
20
5.65656573867244
30
0
41
1
10
28.3220565067592
20
5.53442330081714
30
0
41
1
10
28.9204361452225
20
5.44345639566012
30
0
41
1
10
29.6684246148888
20
5.31717521505783
30
0
41
1
10
29.8180230384456
20
5.29128703655556
30
0
41
1
10
30.1172128875142
20
5.23821954640232
30
0
41
1
10
30.2667926112268
20
5.21102121420833
30
0
41
1
10
30.5660598239246
20
5.15549521275392
30
0
41
1
10
30.7157693042025
20
5.12720301390402
30
0
41
1
10
31.0153566755018
20
5.06960128053601
30
0
41
1
10
31.1652579187393
20
5.04027613251665
30
0
41
1
10
31.9147136570579
20
4.89106425060584
30
0
41
1
10
32.5138435791907
20
4.7635528663796
30
0
41
1
10
33.4114112487212
20
4.55926246780993
30
0
41
1
10
33.7103944071929
20
4.4889511432647
30
0
41
1
10
34.1585795499984
20
4.38014984909989
30
0
41
1
10
34.3079491745148
20
4.34337125931057
30
0
41
1
10
34.60678571241
20
4.26909794745052
30
0
41
1
10
34.7562371056591
20
4.23157291361812
30
0
41
1
10
35.5036009576513
20
4.04191007887502
30
0
41
1
10
36.1018116870963
20
3.88364832693341
30
0
41
1
10
36.9991261407446
20
3.63543341717474
30
0
41
1
10
37.2982285808775
20
3.5508789657712
30
0
41
1
10
37.7468245953112
20
3.4211397863111
30
0
41
1
10
37.8963388876059
20
3.37738744093428
30
0
41
1
10
38.1954933844464
20
3.28925795020643
30
0
41
1
10
38.3451494921571
20
3.24492122130792
30
0
41
1
10
38.6446087861402
20
3.15568843540819
30
0
41
1
10
38.7944094214887
20
3.11078608990721
30
0
41
1
10
39.0941317572386
20
3.02036265656716
30
0
41
1
10
39.2440855738364
20
2.97483424008828
30
0
41
1
10
39.6938122178753
20
2.83738827716897
30
0
41
1
10
39.9934797243862
20
2.74460765373536
30
0
41
1
10
40.5924326590966
20
2.55653540002862
30
0
41
1
10
40.8917163704476
20
2.46123921313924
30
0
41
1
10
41.3402918296416
20
2.31622768229514
30
0
41
1
10
41.4897493290594
20
2.26752059021621
30
0
41
1
10
41.788593101046
20
2.16953551532322
30
0
41
1
10
41.93799984538
20
2.12031263094639
30
0
41
1
10
42.38634561495
20
1.97242221477043
30
0
41
1
10
42.6853420492094
20
1.87335051891384
30
0
41
1
10
43.2833896941321
20
1.67388182643833
30
0
41
1
10
43.5824493517331
20
1.57350767850684
30
0
41
1
10
44.1805639004862
20
1.37126871054406
30
0
41
1
10
44.4796164040911
20
1.2693972508516
30
0
41
1
10
44.9281270604705
20
1.11527466124681
30
0
41
1
10
45.0776193688679
20
1.06368132829152
30
0
41
1
10
45.3765733508879
20
0.960028526224988
30
0
41
1
10
45.5260344242349
20
0.907966699379244
30
0
41
1
10
45.9746306371425
20
0.751824175244735
30
0
41
1
10
46.273999489871
20
0.647850264052039
30
0
41
1
10
46.7233758018649
20
0.491701637422864
30
0
41
1
10
46.8732235028892
20
0.439625579569707
30
0
41
1
10
47.1730208444427
20
0.335394028690786
30
0
41
1
10
47.3229946460707
20
0.283230436404608
30
0
41
1
10
47.7727016683753
20
0.126704637901156
30
0
41
1
10
48.0723124238917
20
0.0222702642292916
30
0
41
1
10
48.5213724028972
20
-0.134694140167397
30
0
41
1
10
48.6709998105708
20
-0.187067299870449
30
0
41
1
10
48.9701264047463
20
-0.291943244958844
30
0
41
1
10
49.1196140083867
20
-0.344479528746461
30
0
41
1
10
49.4185321692948
20
-0.44947280229735
30
0
41
1
10
49.5679865930693
20
-0.501860659309187
30
0
41
1
10
49.86695930709
20
-0.606210185147546
30
0
41
1
10
50.0164649966571
20
-0.658208424840751
30
0
41
1
10
50.4650056202925
20
-0.813776456097997
30
0
41
1
10
50.7640628174593
20
-0.916923622674545
30
0
41
1
10
51.661215233536
20
-1.2249946137899
30
0
41
1
10
52.2592791710581
20
-1.42859025079738
30
0
41
1
10
53.0064365613141
20
-1.68184494383553
30
0
41
1
10
53.1558567120241
20
-1.73240548834502
30
0
41
1
10
53.4548506634427
20
-1.83285528907516
30
0
41
1
10
53.6044176609409
20
-1.8827639017374
30
0
41
1
10
54.0532922630384
20
-2.0316460214664
30
0
41
1
10
54.352765964592
20
-2.12979701916049
30
0
41
1
10
54.8022433799277
20
-2.27556350059538
30
0
41
1
10
54.9521145209737
20
-2.32390649947186
30
0
41
1
10
55.2519380916281
20
-2.42012607469465
30
0
41
1
10
55.4018986091063
20
-2.46800592335515
30
0
41
1
10
55.8515003690759
20
-2.61086711496913
30
0
41
1
10
56.1509877071767
20
-2.70511358437872
30
0
41
1
10
56.5997878765074
20
-2.84511570880594
30
0
41
1
10
56.7493039656499
20
-2.89158536173034
30
0
41
1
10
57.0482926840264
20
-2.98380358709733
30
0
41
1
10
57.197788843261
20
-3.02949267852273
30
0
41
1
10
57.6463335905834
20
-3.16518796028325
30
0
41
1
10
57.9453984866305
20
-3.25392623673622
30
0
41
1
10
58.8425167661446
20
-3.51548814227581
30
0
41
1
10
59.4405258855894
20
-3.68360611537327
30
0
41
1
10
60.1875336608977
20
-3.88678794972981
30
0
41
1
10
60.3369058448451
20
-3.92708302957496
30
0
41
1
10
60.6356130665321
20
-4.00693319741262
30
0
41
1
10
60.7849608470389
20
-4.04645921715777
30
0
41
1
10
61.2332294261387
20
-4.16331924605009
30
0
41
1
10
61.5323160814449
20
-4.23907115459008
30
0
41
1
10
62.4300556336813
20
-4.46045407466065
30
0
41
1
10
63.029262407296
20
-4.6001644643608
30
0
41
1
10
63.7786315641424
20
-4.76558052730056
30
0
41
1
10
63.9284253436666
20
-4.79817841987162
30
0
41
1
10
64.2278431205059
20
-4.86241026817669
30
0
41
1
10
64.3774567268083
20
-4.89406117707796
30
0
41
1
10
64.8262352558991
20
-4.98721696389265
30
0
41
1
10
65.12543083187
20
-5.04677446543047
30
0
41
1
10
66.0228648025672
20
-5.21829694577849
30
0
41
1
10
66.6209421691583
20
-5.32316163300425
30
0
41
1
10
67.5172596883993
20
-5.46694372919606
30
0
41
1
10
67.815876643028
20
-5.51263505929859
30
0
41
1
10
68.2636136726395
20
-5.57768988803875
30
0
41
1
10
68.4128548412342
20
-5.59876089071017
30
0
41
1
10
68.7114628386602
20
-5.63952951316583
30
0
41
1
10
68.8608136098546
20
-5.65924698947629
30
0
41
1
10
69.6077422366952
20
-5.75459695121157
30
0
41
1
10
70.2058254638229
20
-5.82058569369153
30
0
41
1
10
71.103285007616
20
-5.9045703466046
30
0
41
1
10
71.402492007421
20
-5.93005672273139
30
0
41
1
10
71.8513318525735
20
-5.9644777982133
30
0
41
1
10
72.0009447017002
20
-5.97531743826104
30
0
41
1
10
72.3003353632087
20
-5.99562331231215
30
0
41
1
10
72.4501250702937
20
-6.0050849180781
30
0
41
1
10
72.5999999999999
20
-6.01386722651606
30
0
0
SPLINE
5
C8
100
AcDbEntity
8
1
62
256
6
ByLayer
370
18
48
1
60
0
100
AcDbSpline
70
4
71
4
72
13
73
8
40
0
40
0
40
0
40
0
40
0
40
0.843316870701381
40
0.843316870701381
40
0.843316870701381
40
1
40
1
40
1
40
1
40
1
41
0.996687399872188
10
15.1580512156267
20
5.79171202982744
30
0
41
0.994697811226446
10
15.0740094440833
20
5.02326597860954
30
0
41
0.994342167339714
10
14.9272509058157
20
4.23867289704846
30
0
41
1
10
14.7246186918475
20
3.54538527230341
30
0
41
1
10
14.4690178825404
20
2.90060944762084
30
0
41
0.999804695165064
10
14.4275119910882
20
2.802159793689
30
0
41
0.999488939306757
10
14.3846808076139
20
2.70694671813411
30
0
41
0.999108460261574
10
14.340679025497
20
2.61552628231768
30
0
0
SPLINE
5
C9
100
AcDbEntity
8
1
62
256
6
ByLayer
370
18
48
1
60
0
100
AcDbSpline
70
4
71
3
72
132
73
128
40
0
40
0
40
0
40
0
40
0.0058523380399308
40
0.0058523380399308
40
0.0152310895678543
40
0.0152310895678543
40
0.0246098410957778
40
0.0246098410957778
40
0.0621248472074741
40
0.0621248472074741
40
0.0808823502633222
40
0.0808823502633222
40
0.0902611017912463
40
0.0902611017912463
40
0.0996398533191703
40
0.0996398533191703
40
0.118397356375019
40
0.118397356375019
40
0.137154859430868
40
0.137154859430868
40
0.155912362486717
40
0.155912362486717
40
0.165291114014641
40
0.165291114014641
40
0.174669865542566
40
0.174669865542566
40
0.212184871654266
40
0.212184871654266
40
0.230942374710115
40
0.230942374710115
40
0.240321126238041
40
0.240321126238041
40
0.249699877765966
40
0.249699877765966
40
0.268457380821815
40
0.268457380821815
40
0.27783613234974
40
0.27783613234974
40
0.287214883877666
40
0.287214883877666
40
0.305972386933516
40
0.305972386933516
40
0.315351138461441
40
0.315351138461441
40
0.324729889989366
40
0.324729889989366
40
0.362244896101066
40
0.362244896101066
40
0.381002399156915
40
0.381002399156915
40
0.390381150684839
40
0.390381150684839
40
0.399759902212763
40
0.399759902212763
40
0.437274908324462
40
0.437274908324462
40
0.446653659852387
40
0.446653659852387
40
0.456032411380312
40
0.456032411380312
40
0.465411162908237
40
0.465411162908237
40
0.474789914436162
40
0.474789914436162
40
0.512304920547864
40
0.512304920547864
40
0.531062423603715
40
0.531062423603715
40
0.54044117513164
40
0.54044117513164
40
0.549819926659566
40
0.549819926659566
40
0.587334932771267
40
0.587334932771267
40
0.596713684299192
40
0.596713684299192
40
0.606092435827118
40
0.606092435827118
40
0.615471187355043
40
0.615471187355043
40
0.624849938882969
40
0.624849938882969
40
0.662364944994668
40
0.662364944994668
40
0.681122448050518
40
0.681122448050518
40
0.690501199578444
40
0.690501199578444
40
0.699879951106369
40
0.699879951106369
40
0.718637454162221
40
0.718637454162221
40
0.737394957218072
40
0.737394957218072
40
0.756152460273923
40
0.756152460273923
40
0.765531211801849
40
0.765531211801849
40
0.774909963329775
40
0.774909963329775
40
0.793667466385627
40
0.793667466385627
40
0.812424969441479
40
0.812424969441479
40
0.831182472497331
40
0.831182472497331
40
0.840561224025258
40
0.840561224025258
40
0.849939975553184
40
0.849939975553184
40
0.859318727081111
40
0.859318727081111
40
0.868697478609037
40
0.878076230136964
40
0.878076230136964
40
0.88745498166489
40
0.88745498166489
40
0.906212484720742
40
0.906212484720742
40
0.924969987776595
40
0.924969987776595
40
0.93434873930452
40
0.93434873930452
40
0.943727490832446
40
0.962484993888297
40
0.962484993888297
40
1
40
1
40
1
40
1
41
1
10
62.5483977196025
20
-4.47866622305173
30
0
41
1
10
62.4506261853843
20
-4.50186204076914
30
0
41
1
10
62.3528718633384
20
-4.52485868926843
30
0
41
1
10
62.0985066170177
20
-4.58419306439481
30
0
41
1
10
61.9419246972902
20
-4.620220916769
30
0
41
1
10
61.6288467632298
20
-4.69123626965978
30
0
41
1
10
61.4723456930989
20
-4.72621301317108
30
0
41
1
10
60.6896983837764
20
-4.89784231585051
30
0
41
1
10
60.0632707284338
20
-5.02505396953555
30
0
41
1
10
59.1234022718578
20
-5.20134386255265
30
0
41
1
10
58.8100756210307
20
-5.25767951728926
30
0
41
1
10
58.340065353796
20
-5.3385558696225
30
0
41
1
10
58.1833919034594
20
-5.36490954512178
30
0
41
1
10
57.870034772556
20
-5.41639043981309
30
0
41
1
10
57.7133484859807
20
-5.44151267757672
30
0
41
1
10
57.2430634711409
20
-5.51475466838122
30
0
41
1
10
56.9292618611525
20
-5.56078819918719
30
0
41
1
10
56.3011550307338
20
-5.64738004456726
30
0
41
1
10
55.987161896119
20
-5.68789149540882
30
0
41
1
10
55.3596333858318
20
-5.76337564115005
30
0
41
1
10
55.0460505522065
20
-5.79835695589026
30
0
41
1
10
54.5759868492319
20
-5.84669621050733
30
0
41
1
10
54.4193503160542
20
-5.86211945640778
30
0
41
1
10
54.1061803604092
20
-5.89157598234257
30
0
41
1
10
53.9496465617929
20
-5.90560720797112
30
0
41
1
10
53.1668923168728
20
-5.97203184560945
30
0
41
1
10
52.5404680447755
20
-6.01334349649088
30
0
41
1
10
51.6007387469041
20
-6.05799464244367
30
0
41
1
10
51.2874799911552
20
-6.06998318146077
30
0
41
1
10
50.8176061076332
20
-6.08359307067263
30
0
41
1
10
50.6609831194702
20
-6.08740000598667
30
0
41
1
10
50.3477421084779
20
-6.09354156729938
30
0
41
1
10
50.1911262972159
20
-6.09587477810547
30
0
41
1
10
49.7210915986004
20
-6.10063363971742
30
0
41
1
10
49.4074783885673
20
-6.10082787346894
30
0
41
1
10
48.9367139860605
20
-6.09670090002703
30
0
41
1
10
48.7797346679726
20
-6.09458819983803
30
0
41
1
10
48.4656644578738
20
-6.0888897983605
30
0
41
1
10
48.3086084707583
20
-6.08530444169668
30
0
41
1
10
47.8376785615914
20
-6.07234829644938
30
0
41
1
10
47.5239281315669
20
-6.06077807206071
30
0
41
1
10
47.0536465989134
20
-6.03898914300132
30
0
41
1
10
46.8969427592733
20
-6.03098680832647
30
0
41
1
10
46.5836510642726
20
-6.01349256277442
30
0
41
1
10
46.4270676755233
20
-6.00399691064194
30
0
41
1
10
45.6441380799248
20
-5.95293799808869
30
0
41
1
10
45.0176633029209
20
-5.90075521237398
30
0
41
1
10
44.0779917833757
20
-5.80563929065605
30
0
41
1
10
43.7647738376906
20
-5.77111894127685
30
0
41
1
10
43.2949952947465
20
-5.71504361920219
30
0
41
1
10
43.1384098364235
20
-5.695636023747
30
0
41
1
10
42.8252556754459
20
-5.65537501141753
30
0
41
1
10
42.6686934688754
20
-5.63451311385714
30
0
41
1
10
41.8856476911905
20
-5.5268751455659
30
0
41
1
10
41.2582879365044
20
-5.43038083512602
30
0
41
1
10
40.4731344681114
20
-5.29670224264956
30
0
41
1
10
40.3160728807652
20
-5.26931370182214
30
0
41
1
10
40.0021344690102
20
-5.21326160596078
30
0
41
1
10
39.8452249323166
20
-5.18459201696763
30
0
41
1
10
39.5315314348178
20
-5.12595214859758
30
0
41
1
10
39.3747470197036
20
-5.09598254513648
30
0
41
1
10
39.0613054789769
20
-5.0347328656095
30
0
41
1
10
38.9046560544824
20
-5.00343910066425
30
0
41
1
10
38.1214756715472
20
-4.84410110326345
30
0
41
1
10
37.4949017982833
20
-4.70791265323507
30
0
41
1
10
36.555206841745
20
-4.49044916620102
30
0
41
1
10
36.2420027313477
20
-4.41575827067288
30
0
41
1
10
35.7722786636188
20
-4.30031286635705
30
0
41
1
10
35.6157171345979
20
-4.26126341913752
30
0
41
1
10
35.3026224305575
20
-4.18201631694399
30
0
41
1
10
35.1460977830141
20
-4.14179981948192
30
0
41
1
10
34.3633195961652
20
-3.93830792959804
30
0
41
1
10
33.7362812033933
20
-3.76854042715064
30
0
41
1
10
32.9516290543648
20
-3.54739362241455
30
0
41
1
10
32.7946561283204
20
-3.5027148412548
30
0
41
1
10
32.4806311831335
20
-3.41244007472218
30
0
41
1
10
32.3235813204563
20
-3.36684394245157
30
0
41
1
10
32.0096931465623
20
-3.27479528406974
30
0
41
1
10
31.8528189955843
20
-3.2283336972819
30
0
41
1
10
31.539213162358
20
-3.13452650937506
30
0
41
1
10
31.3824902803964
20
-3.08715834889739
30
0
41
1
10
30.5990330634833
20
-2.84860410616255
30
0
41
1
10
29.9723878453771
20
-2.6532713701975
30
0
41
1
10
29.0327489019323
20
-2.35329723326561
30
0
41
1
10
28.71959331401
20
-2.25213378587824
30
0
41
1
10
28.249987445885
20
-2.09851030036509
30
0
41
1
10
28.0934730980431
20
-2.04699000720987
30
0
41
1
10
27.7804883858451
20
-1.94331495791704
30
0
41
1
10
27.6240268140612
20
-1.89113580016988
30
0
41
1
10
27.1546031527948
20
-1.73392916229378
30
0
41
1
10
26.8415004705371
20
-1.62851454056155
30
0
41
1
10
26.2149564598497
20
-1.41657998954224
30
0
41
1
10
25.9015281326598
20
-1.31002411158153
30
0
41
1
10
25.2743923800936
20
-1.09564529809828
30
0
41
1
10
24.960684372977
20
-0.98782424140046
30
0
41
1
10
24.4899507505139
20
-0.825018702482794
30
0
41
1
10
24.3330107232989
20
-0.770571572848354
30
0
41
1
10
24.0190742536901
20
-0.661311605743521
30
0
41
1
10
23.8621599195475
20
-0.606499805091772
30
0
41
1
10
23.3915511703325
20
-0.441884517407829
30
0
41
1
10
23.0778423281738
20
-0.332207395107417
30
0
41
1
10
22.450420088664
20
-0.113169078254799
30
0
41
1
10
22.1367243170405
20
-0.0037569702793121
30
0
41
1
10
21.50939627922
20
0.21494939459464
30
0
41
1
10
21.1957632624668
20
0.32424152306919
30
0
41
1
10
20.725401711653
20
0.48820579983132
30
0
41
1
10
20.5686291301779
20
0.542864696210927
30
0
41
1
10
20.2551151569201
20
0.652195885289501
30
0
41
1
10
20.0983818163082
20
0.706891171332956
30
0
41
1
10
19.784893338321
20
0.816143022773218
30
0
41
1
10
19.6281188360932
20
0.87064425681956
30
0
41
1
10
19.3144539624445
20
0.979239810629764
30
0
41
1
10
19.0006899817864
20
1.08747637085906
30
0
41
1
10
18.6867422542284
20
1.19503706929476
30
0
41
1
10
18.3727067286906
20
1.30227165098071
30
0
41
1
10
18.2156300777995
20
1.35573093759649
30
0
41
1
10
17.744572134712
20
1.5155372843798
30
0
41
1
10
17.4306722820914
20
1.62134132900604
30
0
41
1
10
16.8032053558014
20
1.83162916001117
30
0
41
1
10
16.4896623962494
20
1.936177818022
30
0
41
1
10
16.0195276180729
20
2.09179606509008
30
0
41
1
10
15.8628178695827
20
2.14339170035464
30
0
41
1
10
15.5493350748783
20
2.24585222760317
30
0
41
1
10
15.0790442785772
20
2.39852356702804
30
0
41
1
10
14.60858221376
20
2.54823323462813
30
0
41
1
10
13.6674888842634
20
2.84387552906819
30
0
41
1
10
13.0398572449174
20
3.03592404089253
30
0
41
1
10
12.4121959453491
20
3.22332781128765
30
0
0
SPLINE
5
CA
100
AcDbEntity
8
1
62
256
6
ByLayer
370
18
48
1
60
0
100
AcDbSpline
70
4
71
3
72
22
73
18
40
0
40
0
40
0
40
0
40
0.249999999999999
40
0.249999999999999
40
0.374999999999998
40
0.374999999999998
40
0.437499999999998
40
0.437499999999998
40
0.499999999999997
40
0.499999999999997
40
0.750000000000001
40
0.750000000000001
40
0.875000000000003
40
0.875000000000003
40
0.937500000000002
40
0.937500000000002
40
1
40
1
40
1
40
1
41
1
10
79.6887890123888
20
-0.905102727920081
30
0
41
1
10
79.0971147527652
20
-0.692015053889577
30
0
41
1
10
78.505842215616
20
-0.478477660977291
30
0
41
1
10
77.6197636416479
20
-0.156852853947271
30
0
41
1
10
77.3245493608217
20
-0.0494062023055051
30
0
41
1
10
76.8819680896546
20
0.112180210150967
30
0
41
1
10
76.7344862742316
20
0.166126188743135
30
0
41
1
10
76.439497377818
20
0.273864967848453
30
0
41
1
10
76.2919786204437
20
0.327625543415962
30
0
41
1
10
75.5542582306445
20
0.595872157003839
30
0
41
1
10
74.9637081204931
20
0.808778417293212
30
0
41
1
10
74.0775499419478
20
1.12623588743782
30
0
41
1
10
73.7821126662628
20
1.23174935632642
30
0
41
1
10
73.3389100399033
20
1.38964032769977
30
0
41
1
10
73.1911719991098
20
1.44221820825808
30
0
41
1
10
72.8956573650684
20
1.54718384522846
30
0
41
1
10
72.7478705432509
20
1.599543594317
30
0
41
1
10
72.6
20
1.65163237542066
30
0
0
SPLINE
5
CB
100
AcDbEntity
8
1
62
256
6
ByLayer
370
18
48
1
60
0
100
AcDbSpline
70
4
71
3
72
80
73
76
40
0
40
0
40
0
40
0
40
0.062500000000012
40
0.062500000000012
40
0.125000000000024
40
0.125000000000024
40
0.140625000000028
40
0.140625000000028
40
0.156250000000031
40
0.156250000000031
40
0.187500000000039
40
0.187500000000039
40
0.250000000000051
40
0.250000000000051
40
0.281250000000057
40
0.281250000000057
40
0.296875000000059
40
0.296875000000059
40
0.312500000000061
40
0.312500000000061
40
0.343750000000066
40
0.343750000000066
40
0.375000000000072
40
0.375000000000072
40
0.406250000000078
40
0.406250000000078
40
0.437500000000084
40
0.437500000000084
40
0.453125000000087
40
0.453125000000087
40
0.46875000000009
40
0.46875000000009
40
0.500000000000095
40
0.500000000000095
40
0.531250000000101
40
0.531250000000101
40
0.539062500000102
40
0.539062500000102
40
0.546875000000104
40
0.562500000000106
40
0.562500000000106
40
0.593750000000111
40
0.593750000000111
40
0.625000000000116
40
0.625000000000116
40
0.632812500000116
40
0.632812500000116
40
0.640625000000116
40
0.656250000000114
40
0.656250000000114
40
0.687500000000108
40
0.687500000000108
40
0.718750000000102
40
0.718750000000102
40
0.7265625000001
40
0.7265625000001
40
0.734375000000098
40
0.734375000000098
40
0.750000000000091
40
0.750000000000091
40
0.781250000000078
40
0.781250000000078
40
0.812500000000065
40
0.843750000000051
40
0.843750000000051
40
0.851562500000048
40
0.851562500000048
40
0.859375000000045
40
0.875000000000038
40
0.875000000000038
40
0.937500000000019
40
0.937500000000019
40
0.96875000000001
40
0.96875000000001
40
1
40
1
40
1
40
1
41
1
10
79.6887890123842
20
6.14837870196601
30
0
41
1
10
79.7681315117028
20
5.95157509977437
30
0
41
1
10
79.8477310324847
20
5.74891801630596
30
0
41
1
10
80.0078963885727
20
5.33352247929872
30
0
41
1
10
80.0884634108166
20
5.1207713632765
30
0
41
1
10
80.1898619657334
20
4.84898866349644
30
0
41
1
10
80.2101752956737
20
4.79433817403634
30
0
41
1
10
80.2508674198247
20
4.68445417191651
30
0
41
1
10
80.2712537050331
20
4.6291996038895
30
0
41
1
10
80.3321444993013
20
4.46354965842178
30
0
41
1
10
80.3725029426009
20
4.35294474167446
30
0
41
1
10
80.492822369574
20
4.02061152984416
30
0
41
1
10
80.5720679854979
20
3.79838038390639
30
0
41
1
10
80.6887085781469
20
3.46377586587877
30
0
41
1
10
80.7272089437374
20
3.35202805521695
30
0
41
1
10
80.7841755210059
20
3.18401190279332
30
0
41
1
10
80.8030326848902
20
3.12794039199417
30
0
41
1
10
80.8404324480796
20
3.01564686342323
30
0
41
1
10
80.8589858186744
20
2.95939056907861
30
0
41
1
10
80.9138152153633
20
2.79117367385524
30
0
41
1
10
80.9493550005986
20
2.67951400365615
30
0
41
1
10
81.017758447757
20
2.45698079266199
30
0
41
1
10
81.0506266022102
20
2.34610797511175
30
0
41
1
10
81.1126878699711
20
2.12491741613371
30
0
41
1
10
81.1418862215215
20
2.01460014317897
30
0
41
1
10
81.195103382614
20
1.79422128383763
30
0
41
1
10
81.2191245617701
20
1.68415878912634
30
0
41
1
10
81.2496642693982
20
1.51898180007333
30
0
41
1
10
81.2589277264173
20
1.46384260591509
30
0
41
1
10
81.275147006388
20
1.35459091459103
30
0
41
1
10
81.2821272979907
20
1.30035463698721
30
0
41
1
10
81.2993393480604
20
1.1388589581301
30
0
41
1
10
81.3058056168372
20
1.03280707297134
30
0
41
1
10
81.3075089847837
20
0.824300748282013
30
0
41
1
10
81.3027359173437
20
0.721848027868845
30
0
41
1
10
81.28979440451
20
0.596363981857991
30
0
41
1
10
81.2868560890043
20
0.571362541139649
30
0
41
1
10
81.2803243046059
20
0.521789121343204
30
0
41
1
10
81.2695665218974
20
0.448218021053776
30
0
41
1
10
81.256094606592
20
0.376985092521466
30
0
41
1
10
81.2259829883185
20
0.237562002584468
30
0
41
1
10
81.2017021833898
20
0.14866465251265
30
0
41
1
10
81.1469121426368
20
-0.0213394150146087
30
0
41
1
10
81.1164075255439
20
-0.102448419633106
30
0
41
1
10
81.075395089504
20
-0.199036839133726
30
0
41
1
10
81.0670382689777
20
-0.218133302025507
30
0
41
1
10
81.0500958688779
20
-0.255749523018267
30
0
41
1
10
81.0243649928061
20
-0.311253844136473
30
0
41
1
10
80.9977805968932
20
-0.364051926834037
30
0
41
1
10
80.9436798288438
20
-0.466147202331371
30
0
41
1
10
80.9063823084759
20
-0.529552574839386
30
0
41
1
10
80.8300487906163
20
-0.647353933457538
30
0
41
1
10
80.7910076541963
20
-0.701748254299844
30
0
41
1
10
80.741353996015
20
-0.764116679455356
30
0
41
1
10
80.7313800216868
20
-0.776308481429282
30
0
41
1
10
80.7113492840564
20
-0.800125927400586
30
0
41
1
10
80.701288828502
20
-0.811754909033851
30
0
41
1
10
80.6711212683417
20
-0.845642260362865
30
0
41
1
10
80.6509851133507
20
-0.866954301151225
30
0
41
1
10
80.5905347727802
20
-0.927137305945536
30
0
41
1
10
80.55018171244
20
-0.962262876491565
30
0
41
1
10
80.4694431073707
20
-1.02277023928889
30
0
41
1
10
80.3886695085514
20
-1.07353184398272
30
0
41
1
10
80.3078051209814
20
-1.10482493291633
30
0
41
1
10
80.2571938964769
20
-1.1181667483514
30
0
41
1
10
80.2470656821446
20
-1.12052333606954
30
0
41
1
10
80.2268939049897
20
-1.12459282979876
30
0
41
1
10
80.1967282422332
20
-1.12974143123304
30
0
41
1
10
80.1668287345532
20
-1.13205477635844
30
0
41
1
10
80.0677115913353
20
-1.13357148918638
30
0
41
1
10
79.9901697423235
20
-1.1150871500426
30
0
41
1
10
79.8756653680076
20
-1.0582788242495
30
0
41
1
10
79.8377989896419
20
-1.03447140003527
30
0
41
1
10
79.7625332375223
20
-0.976897182390047
30
0
41
1
10
79.7254184570837
20
-0.943343600456672
30
0
41
1
10
79.6887890123842
20
-0.905102727918432
30
0
0
SPLINE
5
CC
100
AcDbEntity
8
1
62
256
6
ByLayer
370
18
48
1
60
0
100
AcDbSpline
70
4
71
3
72
20
73
16
40
0
40
0
40
0
40
0
40
0.0952727243409209
40
0.0952727243409209
40
0.195797977191932
40
0.195797977191932
40
0.396848482893953
40
0.396848482893953
40
0.597898988595974
40
0.597898988595974
40
0.798949494297995
40
0.798949494297995
40
0.899474747148998
40
0.899474747148998
40
1
40
1
40
1
40
1
41
1
10
75.2826203304325
20
6.34920683878929
30
0
41
1
10
75.4224452002897
20
6.34923825412702
30
0
41
1
10
75.5622243438431
20
6.3486539426838
30
0
41
1
10
75.8494321495958
20
6.34617707625503
30
0
41
1
10
75.9968739618255
20
6.34421402763235
30
0
41
1
10
76.4393771294336
20
6.3362894623977
30
0
41
1
10
76.7345465143998
20
6.32829489021631
30
0
41
1
10
77.3250620427574
20
6.30693656511292
30
0
41
1
10
77.6204172882816
20
6.29357329564149
30
0
41
1
10
78.2112518956664
20
6.261458355949
30
0
41
1
10
78.5067284923915
20
6.24270584342207
30
0
41
1
10
78.9499727625535
20
6.2104508768854
30
0
41
1
10
79.0977259575757
20
6.19901091761193
30
0
41
1
10
79.3932347807315
20
6.17473343820978
30
0
41
1
10
79.5409796595758
20
6.1618872098899
30
0
41
1
10
79.6887890123888
20
6.14837870196556
30
0
0
SPLINE
5
CD
100
AcDbEntity
8
1
62
256
6
ByLayer
370
18
48
1
60
0
100
AcDbSpline
70
4
71
3
72
18
73
14
40
0
40
0
40
0
40
0
40
0.322113087794287
40
0.322113087794287
40
0.644226175588573
40
0.644226175588573
40
0.724754447537145
40
0.724754447537145
40
0.805282719485717
40
0.805282719485717
40
0.96633926338286
40
0.96633926338286
40
1
40
1
40
1
40
1
41
1
10
15.1580512156267
20
-5.79171202982747
30
0
41
1
10
15.7571084774338
20
-5.85797078667295
30
0
41
1
10
16.3561220425284
20
-5.91313109585479
30
0
41
1
10
17.5533417786108
20
-6.00262250059114
30
0
41
1
10
18.1515483986679
20
-6.03694464211733
30
0
41
1
10
18.8984113445369
20
-6.06669358829154
30
0
41
1
10
19.0477436921496
20
-6.07197844539814
30
0
41
1
10
19.3465049564684
20
-6.08116998331602
30
0
41
1
10
19.4959325509001
20
-6.08507948545406
30
0
41
1
10
19.9443202332673
20
-6.09478198093038
30
0
41
1
10
20.243377492059
20
-6.09855281629694
30
0
41
1
10
20.6050393525968
20
-6.09988817729277
30
0
41
1
10
20.6675635998257
20
-6.10000304104091
30
0
41
1
10
20.7300913148487
20
-6.10000158009379
30
0
0
SPLINE
5
CE
100
AcDbEntity
8
1
62
256
6
ByLayer
370
18
48
1
60
0
100
AcDbSpline
70
4
71
3
72
30
73
26
40
0
40
0
40
0
40
0
40
0.107222557672599
40
0.107222557672599
40
0.151861429788971
40
0.151861429788971
40
0.196500301905343
40
0.196500301905343
40
0.285778046138083
40
0.285778046138083
40
0.464333534603563
40
0.464333534603563
40
0.5536112788363
40
0.5536112788363
40
0.598250150952669
40
0.598250150952669
40
0.642889023069038
40
0.642889023069038
40
0.821444511534521
40
0.821444511534521
40
0.91072225576726
40
0.91072225576726
40
0.955361127883631
40
0.955361127883631
40
1
40
1
40
1
40
1
41
1
10
62.5491712620672
20
4.48601027003031
30
0
41
1
10
62.908867987031
20
4.57090523905234
30
0
41
1
10
63.268760833978
20
4.65303144782285
30
0
41
1
10
63.7786315641424
20
4.76558052730056
30
0
41
1
10
63.9284253436666
20
4.79817841987162
30
0
41
1
10
64.227843120506
20
4.86241026817669
30
0
41
1
10
64.3774567268083
20
4.89406117707796
30
0
41
1
10
64.826235255899
20
4.98721696389268
30
0
41
1
10
65.12543083187
20
5.04677446543047
30
0
41
1
10
66.0228648025671
20
5.21829694577849
30
0
41
1
10
66.6209421691584
20
5.32316163300425
30
0
41
1
10
67.5172596883993
20
5.46694372919606
30
0
41
1
10
67.815876643028
20
5.51263505929859
30
0
41
1
10
68.2636136726395
20
5.57768988803875
30
0
41
1
10
68.4128548412342
20
5.59876089071017
30
0
41
1
10
68.7114628386602
20
5.63952951316583
30
0
41
1
10
68.8608136098546
20
5.65924698947629
30
0
41
1
10
69.6077422366952
20
5.75459695121157
30
0
41
1
10
70.2058254638229
20
5.8205856936915
30
0
41
1
10
71.1032850076161
20
5.9045703466046
30
0
41
1
10
71.402492007421
20
5.93005672273139
30
0
41
1
10
71.8513318525735
20
5.9644777982133
30
0
41
1
10
72.0009447017002
20
5.97531743826101
30
0
41
1
10
72.3003353632087
20
5.99562331231215
30
0
41
1
10
72.4501250702936
20
6.0050849180781
30
0
41
1
10
72.6
20
6.01386722651606
30
0
0
SPLINE
5
CF
100
AcDbEntity
8
1
62
256
6
ByLayer
370
18
48
1
60
0
100
AcDbSpline
70
4
71
3
72
60
73
56
40
0
40
0
40
0
40
0
40
0.0815095582249002
40
0.0815095582249002
40
0.12226433733735
40
0.12226433733735
40
0.142641726893576
40
0.142641726893576
40
0.163019116449802
40
0.163019116449802
40
0.244528674674705
40
0.244528674674705
40
0.285283453787157
40
0.285283453787157
40
0.305660843343382
40
0.305660843343382
40
0.326038232899607
40
0.326038232899607
40
0.366793012012056
40
0.366793012012056
40
0.407547791124504
40
0.407547791124504
40
0.448302570236952
40
0.448302570236952
40
0.468679959793178
40
0.468679959793178
40
0.489057349349402
40
0.489057349349402
40
0.570566907574308
40
0.570566907574308
40
0.61132168668676
40
0.61132168668676
40
0.631699076242987
40
0.631699076242987
40
0.652076465799214
40
0.652076465799214
40
0.69283124491167
40
0.69283124491167
40
0.733586024024126
40
0.733586024024126
40
0.774340803136582
40
0.774340803136582
40
0.79471819269281
40
0.79471819269281
40
0.815095582249037
40
0.815095582249037
40
0.896605140473954
40
0.896605140473954
40
0.937359919586412
40
0.937359919586412
40
0.957737309142642
40
0.957737309142642
40
0.978114698698872
40
0.978114698698872
40
1
40
1
40
1
40
1
41
1
10
72.6
20
1.50062603908086
30
0
41
1
10
71.9721195220803
20
1.71395841762626
30
0
41
1
10
71.3446409274703
20
1.92283611029046
30
0
41
1
10
70.4042395124783
20
2.23023068581898
30
0
41
1
10
70.0909110765974
20
2.33171134278564
30
0
41
1
10
69.6211607649578
20
2.48253099012433
30
0
41
1
10
69.4646203781359
20
2.53257725962038
30
0
41
1
10
69.1516046586011
20
2.63215534852509
30
0
41
1
10
68.9951198221033
20
2.68166171413941
30
0
41
1
10
68.2125113391266
20
2.92700978331698
30
0
41
1
10
67.5860259299347
20
3.11682708584993
30
0
41
1
10
66.6459365077504
20
3.39255735057097
30
0
41
1
10
66.3325146785376
20
3.48296764146795
30
0
41
1
10
65.8623266748683
20
3.61638766941377
30
0
41
1
10
65.7055897031698
20
3.66049841811906
30
0
41
1
10
65.392086205931
20
3.74795460857666
30
0
41
1
10
65.2353124743475
20
3.79128257633417
30
0
41
1
10
64.7647357444503
20
3.91963017015414
30
0
41
1
10
64.4506016462307
20
4.00314091127154
30
0
41
1
10
63.8228000549936
20
4.16587799958634
30
0
41
1
10
63.5090398765606
20
4.24512563946161
30
0
41
1
10
62.8818354158458
20
4.39947695945017
30
0
41
1
10
62.5683932456701
20
4.47458520760378
30
0
41
1
10
62.0985066170176
20
4.58419306439484
30
0
41
1
10
61.9419246972902
20
4.620220916769
30
0
41
1
10
61.6288467632298
20
4.69123626965978
30
0
41
1
10
61.472345693099
20
4.72621301317108
30
0
41
1
10
60.6896983837765
20
4.89784231585054
30
0
41
1
10
60.0632707284338
20
5.02505396953555
30
0
41
1
10
59.1234022718578
20
5.20134386255265
30
0
41
1
10
58.8100756210307
20
5.25767951728929
30
0
41
1
10
58.3400653537961
20
5.3385558696225
30
0
41
1
10
58.1833919034594
20
5.36490954512181
30
0
41
1
10
57.870034772556
20
5.41639043981309
30
0
41
1
10
57.7133484859806
20
5.44151267757672
30
0
41
1
10
57.2430634711409
20
5.51475466838122
30
0
41
1
10
56.9292618611525
20
5.56078819918719
30
0
41
1
10
56.3011550307338
20
5.64738004456729
30
0
41
1
10
55.9871618961191
20
5.68789149540882
30
0
41
1
10
55.3596333858318
20
5.76337564115005
30
0
41
1
10
55.0460505522065
20
5.79835695589026
30
0
41
1
10
54.5759868492319
20
5.84669621050733
30
0
41
1
10
54.4193503160542
20
5.86211945640778
30
0
41
1
10
54.1061803604092
20
5.89157598234257
30
0
41
1
10
53.9496465617929
20
5.90560720797112
30
0
41
1
10
53.1668923168728
20
5.97203184560945
30
0
41
1
10
52.5404680447756
20
6.01334349649088
30
0
41
1
10
51.6007387469041
20
6.05799464244367
30
0
41
1
10
51.2874799911551
20
6.06998318146077
30
0
41
1
10
50.8176061076332
20
6.08359307067263
30
0
41
1
10
50.6609831194701
20
6.08740000598667
30
0
41
1
10
50.3477421084779
20
6.09354156729938
30
0
41
1
10
50.1911262972159
20
6.09587477810547
30
0
41
1
10
49.8661757582045
20
6.09916473659246
30
0
41
1
10
49.6978294150732
20
6.10000954794245
30
0
41
1
10
49.5294132189948
20
6.10000057721439
30
0
0
SPLINE
5
D0
100
AcDbEntity
8
1
62
256
6
ByLayer
370
18
48
1
60
0
100
AcDbSpline
70
4
71
3
72
50
73
46
40
0
40
0
40
0
40
0
40
0.136976890647517
40
0.136976890647517
40
0.273953781295034
40
0.273953781295034
40
0.342442226618793
40
0.342442226618793
40
0.410930671942551
40
0.410930671942551
40
0.47941911726631
40
0.47941911726631
40
0.51366333992819
40
0.51366333992819
40
0.530785451259131
40
0.530785451259131
40
0.547907562590071
40
0.547907562590071
40
0.616396007913834
40
0.616396007913834
40
0.684884453237597
40
0.684884453237597
40
0.753372898561361
40
0.753372898561361
40
0.787617121223242
40
0.787617121223242
40
0.821861343885124
40
0.821861343885124
40
0.838983455216064
40
0.838983455216064
40
0.856105566547004
40
0.856105566547004
40
0.890349789208884
40
0.890349789208884
40
0.924594011870764
40
0.924594011870764
40
0.941716123201704
40
0.941716123201704
40
0.950277178867173
40
0.950277178867173
40
0.958838234532643
40
0.958838234532643
40
0.993082457194521
40
0.993082457194521
40
1
40
1
40
1
40
1
41
1
10
10
20
-5.3862216241767
30
0
41
1
10
9.62712580980002
20
-5.45195384585736
30
0
41
1
10
9.25738779792491
20
-5.52434991112671
30
0
41
1
10
8.5244504871865
20
-5.68243301775672
30
0
41
1
10
8.16124613912891
20
-5.7681152229512
30
0
41
1
10
7.62152473581062
20
-5.90595695721294
30
0
41
1
10
7.44246543280843
20
-5.95345142728092
30
0
41
1
10
7.08608640382445
20
-6.05135697632221
30
0
41
1
10
6.9087663405785
20
-6.10176831817785
30
0
41
1
10
6.55592766794402
20
-6.20527847210931
30
0
41
1
10
6.38040851298177
20
-6.25837789592663
30
0
41
1
10
6.11855065905439
20
-6.33982289809254
30
0
41
1
10
6.03150181211151
20
-6.36726999151654
30
0
41
1
10
5.90129648313192
20
-6.40885515127314
30
0
41
1
10
5.85793001539972
20
-6.42279446223961
30
0
41
1
10
5.77162173794852
20
-6.4507075328128
30
0
41
1
10
5.72864801699768
20
-6.46469137875749
30
0
41
1
10
5.51469886850884
20
-6.53472013082677
30
0
41
1
10
5.34647077350286
20
-6.59110127284305
30
0
41
1
10
5.01648114330214
20
-6.70377707350096
30
0
41
1
10
4.85469057258851
20
-6.76008466568996
30
0
41
1
10
4.53864650261175
20
-6.87151516509812
30
0
41
1
10
4.38631268012458
20
-6.92596120365707
30
0
41
1
10
4.16764213082459
20
-7.0044951689579
30
0
41
1
10
4.0963970796715
20
-7.03014680069478
30
0
41
1
10
3.95753063587756
20
-7.08012443218354
30
0
41
1
10
3.88990755331332
20
-7.10445143706323
30
0
41
1
10
3.79153228224479
20
-7.13968941523254
30
0
41
1
10
3.75925153747392
20
-7.15122599542468
30
0
41
1
10
3.69578625959241
20
-7.17382713521789
30
0
41
1
10
3.66453868505781
20
-7.18491384162778
30
0
41
1
10
3.57326959895374
20
-7.21712823258633
30
0
41
1
10
3.51558739066061
20
-7.23725981965788
30
0
41
1
10
3.40720866559528
20
-7.27436633965121
30
0
41
1
10
3.35650804211804
20
-7.29134342824469
30
0
41
1
10
3.28640073354745
20
-7.31398532713871
30
0
41
1
10
3.26402483010975
20
-7.321060692815
30
0
41
1
10
3.23206934462638
20
-7.33089327670905
30
0
41
1
10
3.22167422191333
20
-7.33404392772417
30
0
41
1
10
3.20156446934308
20
-7.34003557961219
30
0
41
1
10
3.19183623251442
20
-7.34288088289432
30
0
41
1
10
3.14485237480957
20
-7.35633766395227
30
0
41
1
10
3.11255485779347
20
-7.36464550265006
30
0
41
1
10
3.08058784717534
20
-7.37136443150962
30
0
41
1
10
3.07544805242037
20
-7.37238278077575
30
0
41
1
10
3.07054595452914
20
-7.37328742541675
30
0
0
SPLINE
5
D1
100
AcDbEntity
8
1
62
256
6
ByLayer
370
18
48
1
60
0
100
AcDbSpline
70
4
71
3
72
48
73
44
40
0
40
0
40
0
40
0
40
0.138811792559033
40
0.138811792559033
40
0.277623585118065
40
0.277623585118065
40
0.347029481397581
40
0.347029481397581
40
0.416435377677098
40
0.416435377677098
40
0.485841273956614
40
0.485841273956614
40
0.520544222096373
40
0.520544222096373
40
0.537895696166253
40
0.537895696166253
40
0.555247170236133
40
0.555247170236133
40
0.624653066515654
40
0.624653066515654
40
0.694058962795175
40
0.694058962795175
40
0.763464859074696
40
0.763464859074696
40
0.798167807214456
40
0.798167807214456
40
0.832870755354217
40
0.832870755354217
40
0.850222229424096
40
0.850222229424096
40
0.867573703493975
40
0.867573703493975
40
0.902276651633734
40
0.902276651633734
40
0.936979599773493
40
0.936979599773493
40
0.954331073843372
40
0.954331073843372
40
0.963006810878312
40
0.963006810878312
40
0.971682547913251
40
0.971682547913251
40
1
40
1
40
1
40
1
41
1
10
10
20
5.3862216241767
30
0
41
1
10
9.62712580979999
20
5.45195384585736
30
0
41
1
10
9.25738779792491
20
5.52434991112673
30
0
41
1
10
8.5244504871865
20
5.68243301775672
30
0
41
1
10
8.16124613912893
20
5.76811522295125
30
0
41
1
10
7.62152473581062
20
5.90595695721299
30
0
41
1
10
7.44246543280846
20
5.9534514272809
30
0
41
1
10
7.08608640382448
20
6.05135697632221
30
0
41
1
10
6.9087663405785
20
6.10176831817785
30
0
41
1
10
6.55592766794399
20
6.20527847210934
30
0
41
1
10
6.3804085129818
20
6.25837789592666
30
0
41
1
10
6.11855065905439
20
6.33982289809256
30
0
41
1
10
6.03150181211149
20
6.36726999151654
30
0
41
1
10
5.90129648313194
20
6.40885515127314
30
0
41
1
10
5.85793001539975
20
6.42279446223961
30
0
41
1
10
5.77162173794852
20
6.4507075328128
30
0
41
1
10
5.72864801699771
20
6.46469137875749
30
0
41
1
10
5.51469886850887
20
6.53472013082677
30
0
41
1
10
5.34647077350286
20
6.59110127284305
30
0
41
1
10
5.01648114330214
20
6.70377707350099
30
0
41
1
10
4.85469057258851
20
6.76008466568999
30
0
41
1
10
4.53864650261173
20
6.87151516509812
30
0
41
1
10
4.38631268012455
20
6.9259612036571
30
0
41
1
10
4.16764213082459
20
7.00449516895793
30
0
41
1
10
4.0963970796715
20
7.03014680069478
30
0
41
1
10
3.95753063587756
20
7.08012443218354
30
0
41
1
10
3.88990755331332
20
7.10445143706323
30
0
41
1
10
3.79153228224476
20
7.13968941523254
30
0
41
1
10
3.75925153747389
20
7.15122599542468
30
0
41
1
10
3.69578625959244
20
7.17382713521792
30
0
41
1
10
3.66453868505778
20
7.1849138416278
30
0
41
1
10
3.57326959895371
20
7.21712823258633
30
0
41
1
10
3.51558739066061
20
7.23725981965791
30
0
41
1
10
3.40720866559525
20
7.27436633965124
30
0
41
1
10
3.35650804211804
20
7.29134342824469
30
0
41
1
10
3.28640073354742
20
7.31398532713871
30
0
41
1
10
3.26402483010978
20
7.32106069281494
30
0
41
1
10
3.23206934462638
20
7.33089327670899
30
0
41
1
10
3.22167422191333
20
7.33404392772417
30
0
41
1
10
3.20156446934308
20
7.34003557961219
30
0
41
1
10
3.19183623251442
20
7.34288088289435
30
0
41
1
10
3.15176856502421
20
7.35435677813277
30
0
41
1
10
3.12461972222175
20
7.36150493642876
30
0
41
1
10
3.10121745413295
20
7.36687518206327
30
0
0
SPLINE
5
D2
100
AcDbEntity
8
1
62
256
6
ByLayer
370
18
48
1
60
0
100
AcDbSpline
70
4
71
3
72
68
73
64
40
0
40
0
40
0
40
0
40
0.0229323704817602
40
0.0229323704817602
40
0.0301166912870404
40
0.0301166912870404
40
0.0373010120923205
40
0.0516696537028807
40
0.0516696537028807
40
0.0804069369240011
40
0.0804069369240011
40
0.0875912577292813
40
0.0875912577292813
40
0.0947755785345613
40
0.0947755785345613
40
0.109144220145122
40
0.109144220145122
40
0.137881503366242
40
0.137881503366242
40
0.152250144976803
40
0.152250144976803
40
0.159434465782083
40
0.159434465782083
40
0.166618786587364
40
0.166618786587364
40
0.195356069808486
40
0.195356069808486
40
0.224093353029608
40
0.224093353029608
40
0.25283063625073
40
0.25283063625073
40
0.267199277861292
40
0.267199277861292
40
0.281567919471853
40
0.281567919471853
40
0.310305202692977
40
0.310305202692977
40
0.367779769135223
40
0.367779769135223
40
0.425254335577471
40
0.425254335577471
40
0.439622977188034
40
0.439622977188034
40
0.453991618798596
40
0.482728902019722
40
0.482728902019722
40
0.540203468461975
40
0.540203468461975
40
0.597678034904228
40
0.597678034904228
40
0.655152601346481
40
0.655152601346481
40
0.712627167788734
40
0.712627167788734
40
0.770101734230987
40
0.770101734230987
40
0.827576300673241
40
0.827576300673241
40
0.885050867115494
40
0.885050867115494
40
0.942525433557747
40
0.942525433557747
40
1
40
1
40
1
40
1
41
1
10
3.07054644740566
20
7.37328733445992
30
0
41
1
10
3.05118124283061
20
7.37686105321939
30
0
41
1
10
3.03552541145388
20
7.37866035715314
30
0
41
1
10
3.02025701915159
20
7.37845926127576
30
0
41
1
10
3.01702424729032
20
7.37821854430763
30
0
41
1
10
3.01140965444591
20
7.37735447761148
30
0
41
1
10
3.00424623579661
20
7.37548428735593
30
0
41
1
10
3.00082523427548
20
7.37190287332805
30
0
41
1
10
2.99891462523058
20
7.3624789747478
30
0
41
1
10
3.00420688663829
20
7.35318444651838
30
0
41
1
10
3.01898139584856
20
7.33782516640358
30
0
41
1
10
3.02234498186962
20
7.33456603130241
30
0
41
1
10
3.0298911690661
20
7.32767291603588
30
0
41
1
10
3.03407952792878
20
7.32403417404348
30
0
41
1
10
3.04783892396099
20
7.31258645953699
30
0
41
1
10
3.05853485470624
20
7.30430156498494
30
0
41
1
10
3.09491383844724
20
7.27761622905251
30
0
41
1
10
3.12487662721327
20
7.25738965868726
30
0
41
1
10
3.1775338685996
20
7.22380852968865
30
0
41
1
10
3.19637494255258
20
7.21207337012055
30
0
41
1
10
3.22648678408524
20
7.19370068773975
30
0
41
1
10
3.23684854597081
20
7.18743855479073
30
0
41
1
10
3.25809046698018
20
7.17471552458744
30
0
41
1
10
3.26896383317538
20
7.16825848191542
30
0
41
1
10
3.32453659011321
20
7.13552008276949
30
0
41
1
10
3.37283787533784
20
7.10788578063813
30
0
41
1
10
3.47597534318211
20
7.0502382059002
30
0
41
1
10
3.53081649751911
20
7.02022299240272
30
0
41
1
10
3.64620445368274
20
6.95818553153651
30
0
41
1
10
3.706754084951
20
6.92616217796473
30
0
41
1
10
3.80138104052068
20
6.87683625351957
30
0
41
1
10
3.8335351254764
20
6.86019113745556
30
0
41
1
10
3.89857173148891
20
6.82674091657614
30
0
41
1
10
3.93151115168053
20
6.80990606986629
30
0
41
1
10
4.03149500592235
20
6.75910679049033
30
0
41
1
10
4.0997018131167
20
6.72484895363655
30
0
41
1
10
4.30833638727461
20
6.62111828035924
30
0
41
1
10
4.45275124238344
20
6.55070074983036
30
0
41
1
10
4.74980570890204
20
6.40808034217807
30
0
41
1
10
4.90246100852588
20
6.33587160072477
30
0
41
1
10
5.09737854889062
20
6.24473505416182
30
0
41
1
10
5.13658841319295
20
6.22645399027718
30
0
41
1
10
5.21516404589255
20
6.18991553546473
30
0
41
1
10
5.33333926673302
20
6.13510679207997
30
0
41
1
10
5.452385585879
20
6.08028975399216
30
0
41
1
10
5.69149051491715
20
5.97062331717962
30
0
41
1
10
5.85223880293824
20
5.89747089181117
30
0
41
1
10
6.17577492108157
20
5.75091790753646
30
0
41
1
10
6.33856434603462
20
5.67751643739638
30
0
41
1
10
6.66567098053565
20
5.53025490080034
30
0
41
1
10
6.82998881220192
20
5.45639393095718
30
0
41
1
10
7.1597419920129
20
5.30798642384104
30
0
41
1
10
7.32517742612555
20
5.23343888627758
30
0
41
1
10
7.6568478674713
20
5.0834429951426
30
0
41
1
10
7.82308266444676
20
5.00799351996582
30
0
41
1
10
8.156128926739
20
4.85602202488622
30
0
41
1
10
8.32294005572055
20
4.77949880217705
30
0
41
1
10
8.6570199514731
20
4.62528668513599
30
0
41
1
10
8.82428840057187
20
4.54759660354469
30
0
41
1
10
9.1592781425112
20
4.39107252186793
30
0
41
1
10
9.32699926116956
20
4.31223748676311
30
0
41
1
10
9.66301162693699
20
4.15359402441402
30
0
41
1
10
9.83130293366165
20
4.07378485939634
30
0
41
1
10
10
20
3.99366222052811
30
0
0
SPLINE
5
D3
100
AcDbEntity
8
1
62
256
6
ByLayer
370
13
48
1
60
0
100
AcDbSpline
70
4
71
3
72
76
73
72
40
0
40
0
40
0
40
0
40
0.0312500000000001
40
0.0312500000000001
40
0.0625000000000002
40
0.0625000000000002
40
0.0937500000000003
40
0.0937500000000003
40
0.125
40
0.125
40
0.15625
40
0.15625
40
0.1875
40
0.1875
40
0.21875
40
0.21875
40
0.25
40
0.25
40
0.28125
40
0.28125
40
0.3125
40
0.3125
40
0.34375
40
0.34375
40
0.375
40
0.375
40
0.40625
40
0.40625
40
0.421875
40
0.421875
40
0.4296875
40
0.4296875
40
0.4375
40
0.4375
40
0.46875
40
0.46875
40
0.5
40
0.5
40
0.53125
40
0.53125
40
0.5625
40
0.5625
40
0.59375
40
0.59375
40
0.625
40
0.625
40
0.65625
40
0.65625
40
0.6875
40
0.6875
40
0.71875
40
0.71875
40
0.75
40
0.75
40
0.78125
40
0.78125
40
0.8125
40
0.8125
40
0.84375
40
0.84375
40
0.859375
40
0.859375
40
0.875
40
0.875
40
0.90625
40
0.90625
40
0.9375
40
0.9375
40
0.96875
40
0.96875
40
1
40
1
40
1
40
1
41
1
10
75.5978632883141
20
6.34999999999999
30
0
41
1
10
75.6404770979401
20
6.34999999999999
30
0
41
1
10
75.6830909075661
20
6.33896729856218
30
0
41
1
10
75.7683185268181
20
6.29224769535804
30
0
41
1
10
75.8109323364441
20
6.2565522356112
30
0
41
1
10
75.896159955696
20
6.1584870330897
30
0
41
1
10
75.9387737653221
20
6.09610927252169
30
0
41
1
10
76.024001384574
20
5.94349737604313
30
0
41
1
10
76.0666151942
20
5.85325711009313
30
0
41
1
10
76.151842813452
20
5.64479369968461
30
0
41
1
10
76.194456623078
20
5.52656762684722
30
0
41
1
10
76.27968424233
20
5.26320248428431
30
0
41
1
10
76.322298051956
20
5.11806461480523
30
0
41
1
10
76.407525671208
20
4.8031711234018
30
0
41
1
10
76.450139480834
20
4.6334210543979
30
0
41
1
10
76.535367100086
20
4.27272254546688
30
0
41
1
10
76.5779809097119
20
4.08178338671698
30
0
41
1
10
76.6632085289639
20
3.68302445126369
30
0
41
1
10
76.70582233859
20
3.47521631777192
30
0
41
1
10
76.7910499578419
20
3.04761578110327
30
0
41
1
10
76.833663767468
20
2.82783561188256
30
0
41
1
10
76.9188913867199
20
2.38140070698486
30
0
41
1
10
76.9615051963459
20
2.15475706338543
30
0
41
1
10
77.0467328155979
20
1.69956186843936
30
0
41
1
10
77.0893466252239
20
1.47101896161462
30
0
41
1
10
77.1745742444759
20
1.01654825429236
30
0
41
1
10
77.2171880541019
20
0.790625983393312
30
0
41
1
10
77.2811087685409
20
0.456602497279761
30
0
41
1
10
77.3024156733539
20
0.346065680496764
30
0
41
1
10
77.3343760305734
20
0.181774751778363
30
0
41
1
10
77.3450294829798
20
0.127263105976113
30
0
41
1
10
77.3663363877929
20
0.0187904311223122
30
0
41
1
10
77.3769898401994
20
-0.0350610225623029
30
0
41
1
10
77.4302571022318
20
-0.30651753616749
30
0
41
1
10
77.4728709118579
20
-0.528082356010032
30
0
41
1
10
77.5580985311099
20
-0.976709397148738
30
0
41
1
10
77.6007123407359
20
-1.203768395342
30
0
41
1
10
77.6859399599878
20
-1.65932845816616
30
0
41
1
10
77.7285537696138
20
-1.8878231084056
30
0
41
1
10
77.8137813888658
20
-2.34159003257346
30
0
41
1
10
77.8563951984918
20
-2.5668528934325
30
0
41
1
10
77.9416228177438
20
-3.00912147597418
30
0
41
1
10
77.9842366273699
20
-3.22611563757937
30
0
41
1
10
78.0694642466219
20
-3.64676032074792
30
0
41
1
10
78.1120780562478
20
-3.85039858831686
30
0
41
1
10
78.1973056754998
20
-4.23955661774372
30
0
41
1
10
78.2399194851258
20
-4.42506521884698
30
0
41
1
10
78.3251471043778
20
-4.77385901072543
30
0
41
1
10
78.3677609140038
20
-4.93713583651848
30
0
41
1
10
78.4529885332558
20
-5.23833035127979
30
0
41
1
10
78.4956023428817
20
-5.37624365859358
30
0
41
1
10
78.5808299621337
20
-5.62473974493665
30
0
41
1
10
78.6234437717598
20
-5.73532251604607
30
0
41
1
10
78.7086713910118
20
-5.92841701346967
30
0
41
1
10
78.7512852006377
20
-6.01093266427537
30
0
41
1
10
78.8365128198898
20
-6.14832208398059
30
0
41
1
10
78.8791266295157
20
-6.20320264076673
30
0
41
1
10
78.9643542487677
20
-6.28675541965362
30
0
41
1
10
79.0069680583937
20
-6.31543593627134
30
0
41
1
10
79.0708887728327
20
-6.34045519033532
30
0
41
1
10
79.0921956776456
20
-6.34579991669958
30
0
41
1
10
79.1348094872717
20
-6.35082493570286
30
0
41
1
10
79.1561163920846
20
-6.35055297576196
30
0
41
1
10
79.2200371065237
20
-6.34130686035462
30
0
41
1
10
79.2626509161497
20
-6.32372982317378
30
0
41
1
10
79.3478785354017
20
-6.2632966026103
30
0
41
1
10
79.3904923450277
20
-6.22043188554304
30
0
41
1
10
79.4757199642797
20
-6.10760924168704
30
0
41
1
10
79.5183337739056
20
-6.03764367743403
30
0
41
1
10
79.6035613931576
20
-5.86970842682075
30
0
41
1
10
79.6461752027836
20
-5.77173336983694
30
0
41
1
10
79.6887890124096
20
-5.65985262637986
30
0
0
SPLINE
5
D4
100
AcDbEntity
8
1
62
256
6
ByLayer
370
13
48
1
60
0
100
AcDbSpline
70
4
71
3
72
78
73
74
40
0
40
0
40
0
40
0
40
0.0312500000000009
40
0.0312500000000009
40
0.0625000000000017
40
0.0625000000000017
40
0.0937500000000026
40
0.0937500000000026
40
0.125000000000003
40
0.125000000000003
40
0.156250000000004
40
0.156250000000004
40
0.187500000000005
40
0.187500000000005
40
0.218750000000006
40
0.218750000000006
40
0.250000000000007
40
0.250000000000007
40
0.281250000000008
40
0.281250000000008
40
0.312500000000008
40
0.312500000000008
40
0.343750000000009
40
0.343750000000009
40
0.37500000000001
40
0.37500000000001
40
0.38281250000001
40
0.38281250000001
40
0.39062500000001
40
0.39062500000001
40
0.406250000000011
40
0.406250000000011
40
0.437500000000011
40
0.437500000000011
40
0.468750000000011
40
0.468750000000011
40
0.500000000000011
40
0.500000000000011
40
0.531250000000012
40
0.531250000000012
40
0.562500000000012
40
0.562500000000012
40
0.593750000000012
40
0.593750000000012
40
0.625000000000012
40
0.625000000000012
40
0.656250000000012
40
0.656250000000012
40
0.687500000000013
40
0.687500000000013
40
0.718750000000013
40
0.718750000000013
40
0.750000000000013
40
0.750000000000013
40
0.765625000000013
40
0.765625000000013
40
0.773437500000013
40
0.773437500000013
40
0.781250000000013
40
0.781250000000013
40
0.812500000000011
40
0.812500000000011
40
0.843750000000009
40
0.843750000000009
40
0.875000000000007
40
0.875000000000007
40
0.906250000000005
40
0.906250000000005
40
0.937500000000004
40
0.937500000000004
40
0.968750000000002
40
0.968750000000002
40
1
40
1
40
1
40
1
41
1
10
75.0982194660016
20
6.34999999999999
30
0
41
1
10
75.1460378987767
20
6.34999999999999
30
0
41
1
10
75.1938563315518
20
6.33610107399974
30
0
41
1
10
75.289493197102
20
6.27688996237444
30
0
41
1
10
75.337311629877
20
6.23156257572435
30
0
41
1
10
75.4329484954272
20
6.10682713643766
30
0
41
1
10
75.4807669282023
20
6.02740544078756
30
0
41
1
10
75.5764037937524
20
5.83323379731604
30
0
41
1
10
75.6242222265275
20
5.71847480851042
30
0
41
1
10
75.7198590920777
20
5.45415304820799
30
0
41
1
10
75.7676775248528
20
5.30458852994801
30
0
41
1
10
75.8633143904029
20
4.97312367817122
30
0
41
1
10
75.911132823178
20
4.79123025106872
30
0
41
1
10
76.0067696887282
20
4.39944519011499
30
0
41
1
10
76.0545881215033
20
4.18956846158187
30
0
41
1
10
76.1502249870534
20
3.74769222073221
30
0
41
1
10
76.1980434198285
20
3.51571296214823
30
0
41
1
10
76.2936802853787
20
3.03650553419661
30
0
41
1
10
76.3414987181538
20
2.78929910473843
30
0
41
1
10
76.4371355837039
20
2.2868641243108
30
0
41
1
10
76.484954016479
20
2.03165493545572
30
0
41
1
10
76.5805908820292
20
1.52016316353496
30
0
41
1
10
76.6284093148043
20
1.26389478277207
30
0
41
1
10
76.7240461803545
20
0.756442384387412
30
0
41
1
10
76.7718646131295
20
0.505266243126641
30
0
41
1
10
76.8316376540984
20
0.197619182795364
30
0
41
1
10
76.8435922622921
20
0.136402933045019
30
0
41
1
10
76.8675014786796
20
0.0146629736442208
30
0
41
1
10
76.8794560868735
20
-0.0457584110744165
30
0
41
1
10
76.9153199114548
20
-0.228720113631596
30
0
41
1
10
76.9392291278423
20
-0.352060224978146
30
0
41
1
10
77.010956777005
20
-0.725343031713379
30
0
41
1
10
77.05877520978
20
-0.978584431163284
30
0
41
1
10
77.1544120753302
20
-1.48847404510562
30
0
41
1
10
77.2022305081053
20
-1.74511250776084
30
0
41
1
10
77.2978673736555
20
-2.2553761018828
30
0
41
1
10
77.3456858064305
20
-2.50898532484268
30
0
41
1
10
77.4413226719807
20
-3.00610937969717
30
0
41
1
10
77.4891411047558
20
-3.24960380130039
30
0
41
1
10
77.5847779703061
20
-3.71930917989866
30
0
41
1
10
77.6325964030811
20
-3.94549840816725
30
0
41
1
10
77.7282332686312
20
-4.37394205305259
30
0
41
1
10
77.7760517014062
20
-4.57617741423357
30
0
41
1
10
77.8716885669566
20
-4.95122725432654
30
0
41
1
10
77.9195069997315
20
-5.12402897492208
30
0
41
1
10
78.0151438652817
20
-5.43638107045962
30
0
41
1
10
78.0629622980569
20
-5.57592710059291
30
0
41
1
10
78.1585991636069
20
-5.81985587581866
30
0
41
1
10
78.2064175963821
20
-5.9242427202438
30
0
41
1
10
78.3020544619322
20
-6.09786149185678
30
0
41
1
10
78.3498728947073
20
-6.16710412034192
30
0
41
1
10
78.4455097602574
20
-6.27213251095603
30
0
41
1
10
78.4933281930326
20
-6.30793267849128
30
0
41
1
10
78.5650558421952
20
-6.33878978795374
30
0
41
1
10
78.5889650585827
20
-6.34527704391166
30
0
41
1
10
78.624828883164
20
-6.34965295869793
30
0
41
1
10
78.6367834913578
20
-6.35022096041618
30
0
41
1
10
78.6606927077454
20
-6.34962707408121
30
0
41
1
10
78.672647315939
20
-6.34845794052583
30
0
41
1
10
78.7324203569079
20
-6.33810091083507
30
0
41
1
10
78.780238789683
20
-6.31534561028207
30
0
41
1
10
78.8758756552332
20
-6.23751939706571
30
0
41
1
10
78.9236940880082
20
-6.18243344067784
30
0
41
1
10
79.0193309535585
20
-6.03765047474295
30
0
41
1
10
79.0671493863335
20
-5.94794085105042
30
0
41
1
10
79.1627862518838
20
-5.73315162322916
30
0
41
1
10
79.2106046846588
20
-5.60806487588223
30
0
41
1
10
79.3062415502089
20
-5.32360704438167
30
0
41
1
10
79.354059982984
20
-5.16423668727279
30
0
41
1
10
79.4496968485342
20
-4.81424628644473
30
0
41
1
10
79.4975152813093
20
-4.62363565465949
30
0
41
1
10
79.5931521468594
20
-4.21599751822725
30
0
41
1
10
79.6409705796345
20
-3.9989868333956
30
0
41
1
10
79.6887890124096
20
-3.77188294851453
30
0
0
SPLINE
5
D5
100
AcDbEntity
8
1
62
256
6
ByLayer
370
13
48
1
60
0
100
AcDbSpline
70
4
71
3
72
78
73
74
40
0
40
0
40
0
40
0
40
0.0312499999999988
40
0.0312499999999988
40
0.0624999999999975
40
0.0624999999999975
40
0.0937499999999963
40
0.0937499999999963
40
0.124999999999995
40
0.124999999999995
40
0.156249999999994
40
0.156249999999994
40
0.187499999999993
40
0.187499999999993
40
0.218749999999991
40
0.218749999999991
40
0.24999999999999
40
0.24999999999999
40
0.281249999999989
40
0.281249999999989
40
0.312499999999988
40
0.312499999999988
40
0.343749999999987
40
0.343749999999987
40
0.351562499999986
40
0.351562499999986
40
0.359374999999986
40
0.359374999999986
40
0.374999999999986
40
0.374999999999986
40
0.406249999999986
40
0.406249999999986
40
0.437499999999986
40
0.437499999999986
40
0.468749999999986
40
0.468749999999986
40
0.499999999999986
40
0.499999999999986
40
0.531249999999986
40
0.531249999999986
40
0.562499999999986
40
0.562499999999986
40
0.593749999999987
40
0.593749999999987
40
0.624999999999987
40
0.624999999999987
40
0.656249999999987
40
0.656249999999987
40
0.687499999999987
40
0.687499999999987
40
0.695312499999988
40
0.695312499999988
40
0.703124999999988
40
0.703124999999988
40
0.718749999999989
40
0.718749999999989
40
0.74999999999999
40
0.74999999999999
40
0.781249999999991
40
0.781249999999991
40
0.812499999999992
40
0.812499999999992
40
0.843749999999994
40
0.843749999999994
40
0.874999999999995
40
0.874999999999995
40
0.906249999999996
40
0.906249999999996
40
0.937499999999997
40
0.937499999999997
40
0.968749999999999
40
0.968749999999999
40
1
40
1
40
1
40
1
41
1
10
74.5985756436892
20
6.34999999999999
30
0
41
1
10
74.6515986996134
20
6.34999999999999
30
0
41
1
10
74.7046217555375
20
6.33290132882109
30
0
41
1
10
74.8106678673859
20
6.25963772070833
30
0
41
1
10
74.8636909233101
20
6.20344740448331
30
0
41
1
10
74.9697370351584
20
6.0486343323669
30
0
41
1
10
75.0227600910825
20
5.949990004162
30
0
41
1
10
75.1288062029309
20
5.7091800164643
30
0
41
1
10
75.1818292588551
20
5.56700281931501
30
0
41
1
10
75.2878753707034
20
5.24083614474975
30
0
41
1
10
75.3408984266276
20
5.0568499677934
30
0
41
1
10
75.4469445384759
20
4.65171185155361
30
0
41
1
10
75.4999675944001
20
4.43057911944047
30
0
41
1
10
75.6060137062485
20
3.95839388714603
30
0
41
1
10
75.6590367621726
20
3.70737282968588
30
0
41
1
10
75.7650828740209
20
3.18447797245463
30
0
41
1
10
75.8181059299451
20
2.91264056903805
30
0
41
1
10
75.9241520417934
20
2.35795292601469
30
0
41
1
10
75.9771750977176
20
2.07513591718063
30
0
41
1
10
76.083221209566
20
1.50802664330288
30
0
41
1
10
76.1362442654902
20
1.22375836935851
30
0
41
1
10
76.2422903773385
20
0.662102866706277
30
0
41
1
10
76.2953134332627
20
0.3847279092968
30
0
41
1
10
76.3615922531679
20
0.0464504696497841
30
0
41
1
10
76.374848017149
20
-0.0205211832506791
30
0
41
1
10
76.4013595451111
20
-0.155616480178935
30
0
41
1
10
76.4146153090921
20
-0.223587240523642
30
0
41
1
10
76.4543826010352
20
-0.428632193919015
30
0
41
1
10
76.4808941289973
20
-0.566842715501735
30
0
41
1
10
76.5604287128836
20
-0.984788939676292
30
0
41
1
10
76.6134517688076
20
-1.26788980600125
30
0
41
1
10
76.719497880656
20
-1.83516523146849
30
0
41
1
10
76.7725209365802
20
-2.11931901842937
30
0
41
1
10
76.8785670484285
20
-2.67944032105254
30
0
41
1
10
76.9315901043527
20
-2.95537673958171
30
0
41
1
10
77.0376362162011
20
-3.48921509923954
30
0
41
1
10
77.0906592721253
20
-3.74708075696969
30
0
41
1
10
77.1967053839736
20
-4.23537531598242
30
0
41
1
10
77.2497284398978
20
-4.46577054424145
30
0
41
1
10
77.3557745517462
20
-4.89124903947391
30
0
41
1
10
77.4087976076703
20
-5.08630908025728
30
0
41
1
10
77.5148437195185
20
-5.43565146375897
30
0
41
1
10
77.5678667754428
20
-5.5899259236009
30
0
41
1
10
77.6739128872912
20
-5.85512251264851
30
0
41
1
10
77.7269359432154
20
-5.96605235561177
30
0
41
1
10
77.8329820550637
20
-6.14487512124515
30
0
41
1
10
77.8860051109879
20
-6.21278740175703
30
0
41
1
10
77.9920512228362
20
-6.30835593079092
30
0
41
1
10
78.0450742787604
20
-6.33603710123364
30
0
41
1
10
78.1113530986655
20
-6.3483271484717
30
0
41
1
10
78.1246088626466
20
-6.34967284876569
30
0
41
1
10
78.1511203906086
20
-6.35022156883224
30
0
41
1
10
78.1643761545897
20
-6.34943279476946
30
0
41
1
10
78.2041434465329
20
-6.34376422559876
30
0
41
1
10
78.2306549744949
20
-6.33557504139793
30
0
41
1
10
78.3101895583812
20
-6.29685450666685
30
0
41
1
10
78.3632126143053
20
-6.25211398890238
30
0
41
1
10
78.4692587261537
20
-6.12094876175587
30
0
41
1
10
78.5222817820779
20
-6.0345007756631
30
0
41
1
10
78.6283278939262
20
-5.8181240906541
30
0
41
1
10
78.6813509498504
20
-5.6881804277792
30
0
41
1
10
78.7873970616987
20
-5.38569879273368
30
0
41
1
10
78.8404201176229
20
-5.21315963056009
30
0
41
1
10
78.9464662294712
20
-4.82931786114739
30
0
41
1
10
78.9994892853954
20
-4.6180301425936
30
0
41
1
10
79.1055353972438
20
-4.16326589419458
30
0
41
1
10
79.1585584531679
20
-3.91981797895616
30
0
41
1
10
79.2646045650163
20
-3.40938535920475
30
0
41
1
10
79.3176276209405
20
-3.14243649900496
30
0
41
1
10
79.4236737327889
20
-2.59473623562187
30
0
41
1
10
79.476696788713
20
-2.31401970371385
30
0
41
1
10
79.5827429005612
20
-1.74850787204659
30
0
41
1
10
79.6357659564855
20
-1.46373958673249
30
0
41
1
10
79.6887890124096
20
-1.18131230417359
30
0
0
SPLINE
5
D6
100
AcDbEntity
8
1
62
256
6
ByLayer
370
13
48
1
60
0
100
AcDbSpline
70
4
71
3
72
82
73
78
40
0
40
0
40
0
40
0
40
0.03125
40
0.03125
40
0.0624999999999999
40
0.0624999999999999
40
0.0937499999999999
40
0.0937499999999999
40
0.125
40
0.125
40
0.15625
40
0.15625
40
0.1875
40
0.1875
40
0.21875
40
0.21875
40
0.25
40
0.25
40
0.28125
40
0.28125
40
0.3125
40
0.3125
40
0.3203125
40
0.3203125
40
0.328125
40
0.328125
40
0.34375
40
0.34375
40
0.375
40
0.375
40
0.40625
40
0.40625
40
0.4375
40
0.4375
40
0.46875
40
0.46875
40
0.5
40
0.5
40
0.53125
40
0.53125
40
0.5625
40
0.5625
40
0.59375
40
0.59375
40
0.625
40
0.625
40
0.6328125
40
0.6328125
40
0.640625
40
0.640625
40
0.65625
40
0.65625
40
0.6875
40
0.6875
40
0.71875
40
0.71875
40
0.75
40
0.75
40
0.78125
40
0.78125
40
0.8125
40
0.8125
40
0.84375
40
0.84375
40
0.875
40
0.875
40
0.90625
40
0.90625
40
0.9375
40
0.9375
40
0.9453125
40
0.9453125
40
0.953125
40
0.953125
40
0.96875
40
0.96875
40
1
40
1
40
1
40
1
41
1
10
74.0989318213768
20
6.34999999999999
30
0
41
1
10
74.15715950045
20
6.34999999999999
30
0
41
1
10
74.2153871795232
20
6.32936669673887
30
0
41
1
10
74.3318425376698
20
6.24046804403366
30
0
41
1
10
74.390070216743
20
6.17216242276328
30
0
41
1
10
74.5065255748896
20
5.98383963097604
30
0
41
1
10
74.5647532539629
20
5.86379048313802
30
0
41
1
10
74.6812086121093
20
5.57139115961078
30
0
41
1
10
74.7394362911826
20
5.39902900965538
30
0
41
1
10
74.8558916493291
20
5.00560745400924
30
0
41
1
10
74.9141193284024
20
4.78456349594356
30
0
41
1
10
75.0305746865489
20
4.30154489977306
30
0
41
1
10
75.0888023656222
20
4.03961160786804
30
0
41
1
10
75.2052577237687
20
3.48587593760277
30
0
41
1
10
75.2634854028419
20
3.19412991159345
30
0
41
1
10
75.3799407609883
20
2.59361019864014
30
0
41
1
10
75.4381684400618
20
2.28489232514517
30
0
41
1
10
75.5546237982082
20
1.66330640311133
30
0
41
1
10
75.6128514772815
20
1.3504803297765
30
0
41
1
10
75.7293068354281
20
0.732078248378144
30
0
41
1
10
75.7875345145013
20
0.426524044817825
30
0
41
1
10
75.8603191133428
20
0.0547057944643825
30
0
41
1
10
75.8748760331113
20
-0.0188270305050082
30
0
41
1
10
75.9039898726479
20
-0.167228358947796
30
0
41
1
10
75.9185467924161
20
-0.241938062692299
30
0
41
1
10
75.962217551721
20
-0.467412209490561
30
0
41
1
10
75.9913313912577
20
-0.619526972128682
30
0
41
1
10
76.0786729098676
20
-1.07961674695343
30
0
41
1
10
76.1369005889408
20
-1.39140769763239
30
0
41
1
10
76.2533559470874
20
-2.01443044743934
30
0
41
1
10
76.3115836261607
20
-2.32562583323914
30
0
41
1
10
76.4280389843071
20
-2.93490607714341
30
0
41
1
10
76.4862666633804
20
-3.23293802556469
30
0
41
1
10
76.6027220215269
20
-3.8028718597547
30
0
41
1
10
76.6609497006002
20
-4.07471592012567
30
0
41
1
10
76.7774050587466
20
-4.58049872344046
30
0
41
1
10
76.8356327378199
20
-4.81439030740049
30
0
41
1
10
76.9520880959665
20
-5.23537319044291
30
0
41
1
10
77.0103157750398
20
-5.42244090727274
30
0
41
1
10
77.1267711331863
20
-5.74486648386201
30
0
41
1
10
77.1849988122596
20
-5.88022878494084
30
0
41
1
10
77.301454170406
20
-6.09861405571647
30
0
41
1
10
77.3596818494792
20
-6.18166431998805
30
0
41
1
10
77.4761372076258
20
-6.29857214928143
30
0
41
1
10
77.534364886699
20
-6.33246880656827
30
0
41
1
10
77.6071494855406
20
-6.34776998168687
30
0
41
1
10
77.6217064053089
20
-6.34948169410012
30
0
41
1
10
77.6508202448456
20
-6.35031611138407
30
0
41
1
10
77.6653771646139
20
-6.34945148243855
30
0
41
1
10
77.7090479239188
20
-6.3428709267699
30
0
41
1
10
77.7381617634554
20
-6.33315511606463
30
0
41
1
10
77.8255032820653
20
-6.28681042815737
30
0
41
1
10
77.8837309611386
20
-6.23289845330206
30
0
41
1
10
78.0001863192851
20
-6.07423330080204
30
0
41
1
10
78.0584139983584
20
-5.96944448788699
30
0
41
1
10
78.1748693565049
20
-5.7073243926246
30
0
41
1
10
78.2330970355782
20
-5.549974262294
30
0
41
1
10
78.3495523937247
20
-5.18508373783425
30
0
41
1
10
78.4077800727979
20
-4.97755053196138
30
0
41
1
10
78.5242354309445
20
-4.51890471361915
30
0
41
1
10
78.5824631100177
20
-4.267826682513
30
0
41
1
10
78.6989184681642
20
-3.73232979711719
30
0
41
1
10
78.7571461472374
20
-3.44796446221952
30
0
41
1
10
78.873601505384
20
-2.85839623263507
30
0
41
1
10
78.9318291844572
20
-2.55325090102605
30
0
41
1
10
79.0482845426038
20
-1.93516357233176
30
0
41
1
10
79.106512221677
20
-1.62226857681179
30
0
41
1
10
79.2229675798235
20
-1.00063895897591
30
0
41
1
10
79.2811952588968
20
-0.691932184189142
30
0
41
1
10
79.3539798577384
20
-0.314726648117642
30
0
41
1
10
79.3685367775067
20
-0.239713087342523
30
0
41
1
10
79.3976506170433
20
-0.0906659725325483
30
0
41
1
10
79.4122075368117
20
-0.0169688832538668
30
0
41
1
10
79.4558782961166
20
0.205135055386279
30
0
41
1
10
79.4849921356532
20
0.355283156481534
30
0
41
1
10
79.5723336542631
20
0.810463129030808
30
0
41
1
10
79.6305613333363
20
1.12030794062932
30
0
41
1
10
79.6887890124096
20
1.43154747947634
30
0
0
SPLINE
5
D7
100
AcDbEntity
8
1
62
256
6
ByLayer
370
13
48
1
60
0
100
AcDbSpline
70
4
71
3
72
84
73
80
40
0
40
0
40
0
40
0
40
0.031250000000001
40
0.031250000000001
40
0.062500000000002
40
0.062500000000002
40
0.093750000000003
40
0.093750000000003
40
0.125000000000004
40
0.125000000000004
40
0.156250000000005
40
0.156250000000005
40
0.187500000000006
40
0.187500000000006
40
0.218750000000007
40
0.218750000000007
40
0.250000000000008
40
0.250000000000008
40
0.281250000000009
40
0.281250000000009
40
0.289062500000009
40
0.289062500000009
40
0.292968750000009
40
0.292968750000009
40
0.296875000000009
40
0.312500000000008
40
0.312500000000008
40
0.343750000000008
40
0.343750000000008
40
0.375000000000007
40
0.375000000000007
40
0.406250000000007
40
0.406250000000007
40
0.437500000000006
40
0.437500000000006
40
0.468750000000006
40
0.468750000000006
40
0.500000000000005
40
0.500000000000005
40
0.531250000000005
40
0.531250000000005
40
0.562500000000004
40
0.562500000000004
40
0.578125000000004
40
0.578125000000004
40
0.585937500000003
40
0.585937500000003
40
0.593750000000003
40
0.593750000000003
40
0.625000000000003
40
0.625000000000003
40
0.656250000000003
40
0.656250000000003
40
0.687500000000002
40
0.687500000000002
40
0.718750000000002
40
0.718750000000002
40
0.750000000000002
40
0.750000000000002
40
0.781250000000002
40
0.781250000000002
40
0.812500000000001
40
0.812500000000001
40
0.843750000000001
40
0.843750000000001
40
0.859375000000001
40
0.859375000000001
40
0.867187500000001
40
0.871093750000001
40
0.871093750000001
40
0.875000000000001
40
0.875000000000001
40
0.906250000000001
40
0.906250000000001
40
0.937500000000001
40
0.937500000000001
40
0.96875
40
0.96875
40
1
40
1
40
1
40
1
41
1
10
73.5992879990643
20
6.34999999999999
30
0
41
1
10
73.6627203012867
20
6.34999999999999
30
0
41
1
10
73.726152603509
20
6.32549559572348
30
0
41
1
10
73.8530172079537
20
6.21935908791329
30
0
41
1
10
73.9164495101761
20
6.137665750102
30
0
41
1
10
74.0433141146207
20
5.91239196264806
30
0
41
1
10
74.1067464168431
20
5.76876685286007
30
0
41
1
10
74.2336110212878
20
5.42001613954164
30
0
41
1
10
74.2970433235101
20
5.21488288390466
30
0
41
1
10
74.4239079279548
20
4.74950726458934
30
0
41
1
10
74.4873402301772
20
4.48930382551154
30
0
41
1
10
74.6142048346219
20
3.92573553881135
30
0
41
1
10
74.6776371368442
20
3.62244695142678
30
0
41
1
10
74.8045017412889
20
2.98842982028279
30
0
41
1
10
74.8679340435112
20
2.65779006102929
30
0
41
1
10
74.9947986479559
20
1.98598466631776
30
0
41
1
10
75.0582309501783
20
1.64489304680066
30
0
41
1
10
75.185095554623
20
0.96774810770691
30
0
41
1
10
75.2485278568453
20
0.631737329384549
30
0
41
1
10
75.3278182346232
20
0.222632215632103
30
0
41
1
10
75.3436763101789
20
0.141347582626622
30
0
41
1
10
75.3674634235122
20
0.0203418513649751
30
0
41
1
10
75.3753924612899
20
-0.0197602675050632
30
0
41
1
10
75.3912505368456
20
-0.100427798382981
30
0
41
1
10
75.4308957257346
20
-0.302861557730182
30
0
41
1
10
75.4705409146235
20
-0.508909143467065
30
0
41
1
10
75.565689367957
20
-1.00831431809883
30
0
41
1
10
75.6291216701794
20
-1.34787380131533
30
0
41
1
10
75.7559862746241
20
-2.02660838267681
30
0
41
1
10
75.8194185768464
20
-2.36572817619577
30
0
41
1
10
75.9462831812912
20
-3.02730599832907
30
0
41
1
10
76.0097154835134
20
-3.34968174990902
30
0
41
1
10
76.1365800879582
20
-3.96099588388591
30
0
41
1
10
76.2000123901805
20
-4.24984676917077
30
0
41
1
10
76.3268769946252
20
-4.77948026779325
30
0
41
1
10
76.3903092968475
20
-5.02019831235828
30
0
41
1
10
76.5171739012923
20
-5.44346907929142
30
0
41
1
10
76.5806062035147
20
-5.62600030674997
30
0
41
1
10
76.7074708079593
20
-5.92868854403872
30
0
41
1
10
76.7709031101817
20
-6.04886902113168
30
0
41
1
10
76.8977677146264
20
-6.22849388221067
30
0
41
1
10
76.9612000168487
20
-6.28799171971909
30
0
41
1
10
77.0563484701822
20
-6.33638276812749
30
0
41
1
10
77.0880646212935
20
-6.3457343922293
30
0
41
1
10
77.1356388479602
20
-6.35038658859747
30
0
41
1
10
77.1514969235158
20
-6.35039385397303
30
0
41
1
10
77.1832130746269
20
-6.34732247525034
30
0
41
1
10
77.1990711501825
20
-6.34422570272557
30
0
41
1
10
77.2783615279604
20
-6.32059486874817
30
0
41
1
10
77.3417938301828
20
-6.27549760167688
30
0
41
1
10
77.4686584346275
20
-6.12588659880561
30
0
41
1
10
77.5320907368498
20
-6.02131525899651
30
0
41
1
10
77.6589553412945
20
-5.74975720211242
30
0
41
1
10
77.7223876435169
20
-5.58273761069205
30
0
41
1
10
77.8492522479615
20
-5.18888022166342
30
0
41
1
10
77.9126845501839
20
-4.96205202021386
30
0
41
1
10
78.0395491546286
20
-4.45717877463252
30
0
41
1
10
78.102981456851
20
-4.17918875516423
30
0
41
1
10
78.2298460612956
20
-3.58562074115076
30
0
41
1
10
78.293278363518
20
-3.27012707357025
30
0
41
1
10
78.4201429679627
20
-2.61803876744
30
0
41
1
10
78.483575270185
20
-2.28153023087114
30
0
41
1
10
78.6104398746297
20
-1.6040904212611
30
0
41
1
10
78.6738721768521
20
-1.26322251742977
30
0
41
1
10
78.7690206301857
20
-0.759510123972916
30
0
41
1
10
78.8007367812968
20
-0.592848255480902
30
0
41
1
10
78.8483110079636
20
-0.345832950560435
30
0
41
1
10
78.8720981212967
20
-0.223066941159288
30
0
41
1
10
78.8958852346303
20
-0.101596900300478
30
0
41
1
10
78.9117433101859
20
-0.0209234570207855
30
0
41
1
10
78.9196723479636
20
0.019178705447132
30
0
41
1
10
78.9910336879639
20
0.382169285703697
30
0
41
1
10
79.0544659901861
20
0.714809595013236
30
0
41
1
10
79.1813305946309
20
1.38865918011331
30
0
41
1
10
79.2447628968532
20
1.7298346264889
30
0
41
1
10
79.3716275012979
20
2.40591778177335
30
0
41
1
10
79.4350598035203
20
2.74075840547886
30
0
41
1
10
79.561924407965
20
3.38741822363784
30
0
41
1
10
79.6253567101872
20
3.69915001587512
30
0
41
1
10
79.6887890124096
20
3.99122722045908
30
0
0
SPLINE
5
D8
100
AcDbEntity
8
1
62
256
6
ByLayer
370
13
48
1
60
0
100
AcDbSpline
70
4
71
3
72
86
73
82
40
0
40
0
40
0
40
0
40
0.0312500000000016
40
0.0312500000000016
40
0.0625000000000031
40
0.0625000000000031
40
0.0937500000000047
40
0.0937500000000047
40
0.125000000000006
40
0.125000000000006
40
0.156250000000008
40
0.156250000000008
40
0.187500000000009
40
0.187500000000009
40
0.218750000000011
40
0.218750000000011
40
0.250000000000012
40
0.250000000000012
40
0.265625000000013
40
0.265625000000013
40
0.273437500000013
40
0.273437500000013
40
0.281250000000014
40
0.281250000000014
40
0.312500000000016
40
0.312500000000016
40
0.343750000000017
40
0.343750000000017
40
0.375000000000019
40
0.375000000000019
40
0.406250000000021
40
0.406250000000021
40
0.437500000000023
40
0.437500000000023
40
0.468750000000025
40
0.468750000000025
40
0.500000000000026
40
0.500000000000026
40
0.531250000000028
40
0.531250000000028
40
0.535156250000028
40
0.535156250000028
40
0.539062500000028
40
0.539062500000028
40
0.546875000000028
40
0.546875000000028
40
0.562500000000028
40
0.562500000000028
40
0.593750000000028
40
0.593750000000028
40
0.625000000000028
40
0.625000000000028
40
0.656250000000028
40
0.656250000000028
40
0.687500000000028
40
0.687500000000028
40
0.718750000000028
40
0.718750000000028
40
0.750000000000028
40
0.750000000000028
40
0.781250000000029
40
0.781250000000029
40
0.796875000000028
40
0.796875000000028
40
0.804687500000028
40
0.804687500000028
40
0.808593750000028
40
0.808593750000028
40
0.812500000000027
40
0.812500000000027
40
0.843750000000023
40
0.843750000000023
40
0.875000000000018
40
0.875000000000018
40
0.906250000000014
40
0.906250000000014
40
0.937500000000009
40
0.937500000000009
40
0.968750000000005
40
0.968750000000005
40
1
40
1
40
1
40
1
41
1
10
73.0996441767518
20
6.34999999999999
30
0
41
1
10
73.1682811021233
20
6.34999999999999
30
0
41
1
10
73.2369180274948
20
6.32128621431036
30
0
41
1
10
73.3741918782376
20
6.19629014546322
30
0
41
1
10
73.442828803609
20
6.09991808717407
30
0
41
1
10
73.5801026543519
20
5.83425912383225
30
0
41
1
10
73.6487395797233
20
5.66491336190057
30
0
41
1
10
73.7860134304662
20
5.25529971270711
30
0
41
1
10
73.8546503558376
20
5.01503721234482
30
0
41
1
10
73.9919242065805
20
4.47383917234853
30
0
41
1
10
74.0605611319519
20
4.17298227179097
30
0
41
1
10
74.1978349826949
20
3.52784144663801
30
0
41
1
10
74.2664719080663
20
3.18368309411576
30
0
41
1
10
74.4037457588092
20
2.47298591745053
30
0
41
1
10
74.4723826841806
20
2.10657213667224
30
0
41
1
10
74.6096565349234
20
1.37226244105742
30
0
41
1
10
74.6782934602949
20
1.00445097297248
30
0
41
1
10
74.781248848352
20
0.464726656597378
30
0
41
1
10
74.8155673110378
20
0.286782758914626
30
0
41
1
10
74.8670450050664
20
0.0240873031657145
30
0
41
1
10
74.8842042364092
20
-0.0625406370782855
30
0
41
1
10
74.9185226990949
20
-0.238078287814204
30
0
41
1
10
74.9356819304377
20
-0.326533724857882
30
0
41
1
10
75.021478087152
20
-0.771731471385067
30
0
41
1
10
75.0901150125235
20
-1.13742731154241
30
0
41
1
10
75.2273888632664
20
-1.87158143005428
30
0
41
1
10
75.2960257886378
20
-2.23996669427882
30
0
41
1
10
75.4332996393807
20
-2.95919361304612
30
0
41
1
10
75.5019365647521
20
-3.30991626267476
30
0
41
1
10
75.639210415495
20
-3.9724959476047
30
0
41
1
10
75.7078473408664
20
-4.28422335362148
30
0
41
1
10
75.8451211916093
20
-4.85036460148322
30
0
41
1
10
75.9137581169807
20
-5.1046864883366
30
0
41
1
10
76.0510319677235
20
-5.54395188414034
30
0
41
1
10
76.119668893095
20
-5.72887395215366
30
0
41
1
10
76.2569427438379
20
-6.02545736892387
30
0
41
1
10
76.3255796692093
20
-6.13716618254207
30
0
41
1
10
76.4628535199521
20
-6.29119256892173
30
0
41
1
10
76.5314904453236
20
-6.33359651646484
30
0
41
1
10
76.6087069863664
20
-6.34760160058283
30
0
41
1
10
76.6172866020379
20
-6.34869219993459
30
0
41
1
10
76.6344458333807
20
-6.3499644259995
30
0
41
1
10
76.6430254490522
20
-6.35014744595574
30
0
41
1
10
76.6687642960665
20
-6.34935698706744
30
0
41
1
10
76.6859235274094
20
-6.34703029942358
30
0
41
1
10
76.7374012214379
20
-6.33438701568824
30
0
41
1
10
76.7717196841236
20
-6.31839969361701
30
0
41
1
10
76.8746750721808
20
-6.24587632690495
30
0
41
1
10
76.9433119975522
20
-6.16459013544034
30
0
41
1
10
77.0805858482951
20
-5.92969304931142
30
0
41
1
10
77.1492227736665
20
-5.77601351543038
30
0
41
1
10
77.2864966244094
20
-5.39661532088977
30
0
41
1
10
77.3551335497809
20
-5.17088645086522
30
0
41
1
10
77.4924074005237
20
-4.65590583010754
30
0
41
1
10
77.5610443258952
20
-4.36671814804598
30
0
41
1
10
77.6983181766381
20
-3.74078928975686
30
0
41
1
10
77.7669551020095
20
-3.40416735252725
30
0
41
1
10
77.9042289527523
20
-2.70393466722163
30
0
41
1
10
77.9728658781237
20
-2.34045310508216
30
0
41
1
10
78.1101397288666
20
-1.6077475150114
30
0
41
1
10
78.1787766542381
20
-1.23861874795369
30
0
41
1
10
78.2817320422952
20
-0.694424154777437
30
0
41
1
10
78.316050504981
20
-0.514577866491891
30
0
41
1
10
78.3675281990095
20
-0.248515602461424
30
0
41
1
10
78.3846874303524
20
-0.160443515922651
30
0
41
1
10
78.4104262773665
20
-0.0294074996197367
30
0
41
1
10
78.4190058930381
20
0.0139822349468943
30
0
41
1
10
78.436165124381
20
0.101254946012631
30
0
41
1
10
78.4447447400523
20
0.145071207292545
30
0
41
1
10
78.5219612810952
20
0.540928545656413
30
0
41
1
10
78.5905982064667
20
0.903757863683268
30
0
41
1
10
78.7278720572095
20
1.63606856846002
30
0
41
1
10
78.796508982581
20
2.00548870624712
30
0
41
1
10
78.9337828333238
20
2.73132212071329
30
0
41
1
10
79.0024197586953
20
3.08762409466553
30
0
41
1
10
79.1396936094382
20
3.76580476433079
30
0
41
1
10
79.2083305348095
20
4.0875520863363
30
0
41
1
10
79.3456043855524
20
4.67723227498306
30
0
41
1
10
79.4142413109239
20
4.94506144207568
30
0
41
1
10
79.5515151616668
20
5.41325511749957
30
0
41
1
10
79.6201520870382
20
5.61358203006819
30
0
41
1
10
79.6887890124096
20
5.77734400256298
30
0
0
SPLINE
5
D9
100
AcDbEntity
8
1
62
256
6
ByLayer
370
13
48
1
60
0
100
AcDbSpline
70
4
71
3
72
70
73
66
40
0
40
0
40
0
40
0
40
0.0312500000000001
40
0.0312500000000001
40
0.0625000000000002
40
0.0625000000000002
40
0.0937500000000003
40
0.0937500000000003
40
0.125
40
0.125
40
0.15625
40
0.15625
40
0.187500000000001
40
0.187500000000001
40
0.218750000000001
40
0.218750000000001
40
0.250000000000001
40
0.250000000000001
40
0.281250000000001
40
0.281250000000001
40
0.312500000000001
40
0.312500000000001
40
0.343750000000001
40
0.343750000000001
40
0.375000000000001
40
0.375000000000001
40
0.406250000000001
40
0.406250000000001
40
0.437500000000001
40
0.437500000000001
40
0.468750000000001
40
0.468750000000001
40
0.500000000000001
40
0.500000000000001
40
0.531250000000002
40
0.531250000000002
40
0.562500000000002
40
0.562500000000002
40
0.593750000000002
40
0.593750000000002
40
0.625000000000002
40
0.625000000000002
40
0.656250000000002
40
0.656250000000002
40
0.687500000000001
40
0.687500000000001
40
0.718750000000001
40
0.718750000000001
40
0.750000000000001
40
0.750000000000001
40
0.781250000000001
40
0.781250000000001
40
0.812500000000001
40
0.812500000000001
40
0.843750000000001
40
0.843750000000001
40
0.875000000000001
40
0.875000000000001
40
0.90625
40
0.90625
40
0.9375
40
0.9375
40
0.96875
40
0.96875
40
1
40
1
40
1
40
1
41
1
10
72.6000003544394
20
6.34999999999999
30
0
41
1
10
72.67384190296
20
6.34999999999999
30
0
41
1
10
72.7476834514805
20
6.31673649818083
30
0
41
1
10
72.8953665485215
20
6.17124170253391
30
0
41
1
10
72.969208097042
20
6.05888289042429
30
0
41
1
10
73.1168911940831
20
5.74942862590487
30
0
41
1
10
73.1907327426036
20
5.552260159241
30
0
41
1
10
73.3384158396447
20
5.07758304684057
30
0
41
1
10
73.4122573881652
20
4.80010687476067
30
0
41
1
10
73.5599404852062
20
4.18014961828285
30
0
41
1
10
73.6337820337268
20
3.83780810140323
30
0
41
1
10
73.7814651307679
20
3.11175631112695
30
0
41
1
10
73.8553066792883
20
2.72823455099885
30
0
41
1
10
74.0029897763293
20
1.94656896393599
30
0
41
1
10
74.07683132485
20
1.54858357595515
30
0
41
1
10
74.2245144218911
20
0.762348015226451
30
0
41
1
10
74.2983559704115
20
0.374177779641201
30
0
41
1
10
74.4460390674525
20
-0.374176881615625
30
0
41
1
10
74.5198806159731
20
-0.762347079205
30
0
41
1
10
74.6675637130141
20
-1.54858262501122
30
0
41
1
10
74.7414052615346
20
-1.94656801421527
30
0
41
1
10
74.8890883585757
20
-2.72823362472209
30
0
41
1
10
74.9629299070962
20
-3.11175540712085
30
0
41
1
10
75.1106130041371
20
-3.83780726288489
30
0
41
1
10
75.1844545526577
20
-4.18014882297513
30
0
41
1
10
75.3321376496988
20
-4.80010618217082
30
0
41
1
10
75.4059791982193
20
-5.07758241368913
30
0
41
1
10
75.5536622952603
20
-5.55225965316723
30
0
41
1
10
75.6275038437809
20
-5.74942818737665
30
0
41
1
10
75.7751869408219
20
-6.05888258626209
30
0
41
1
10
75.8490284893425
20
-6.17124146512407
30
0
41
1
10
75.9967115863835
20
-6.31673638640297
30
0
41
1
10
76.070553134904
20
-6.34999994708326
30
0
41
1
10
76.218236231945
20
-6.35000005291661
30
0
41
1
10
76.2920777804655
20
-6.31673660995853
30
0
41
1
10
76.4397608775066
20
-6.17124193994354
30
0
41
1
10
76.5136024260272
20
-6.05888319458631
30
0
41
1
10
76.6612855230682
20
-5.74942906443292
30
0
41
1
10
76.7351270715887
20
-5.55226066531463
30
0
41
1
10
76.8828101686297
20
-5.0775836799919
30
0
41
1
10
76.9566517171502
20
-4.80010756735038
30
0
41
1
10
77.1043348141914
20
-4.18015041359047
30
0
41
1
10
77.1781763627118
20
-3.83780893992147
30
0
41
1
10
77.325859459753
20
-3.11175721513297
30
0
41
1
10
77.3997010082734
20
-2.72823547727557
30
0
41
1
10
77.5473841053145
20
-1.94656991365667
30
0
41
1
10
77.621225653835
20
-1.54858452689908
30
0
41
1
10
77.7689087508761
20
-0.76234895124793
30
0
41
1
10
77.8427502993965
20
-0.374178699585656
30
0
41
1
10
77.9904333964377
20
0.374176005508758
30
0
41
1
10
78.0642749449582
20
0.762346143183578
30
0
41
1
10
78.2119580419992
20
1.54858167406729
30
0
41
1
10
78.2857995905198
20
1.94656706449453
30
0
41
1
10
78.4334826875609
20
2.72823269844528
30
0
41
1
10
78.5073242360813
20
3.11175450311472
30
0
41
1
10
78.6550073331222
20
3.83780642436648
30
0
41
1
10
78.7288488816429
20
4.18014802766731
30
0
41
1
10
78.8765319786839
20
4.80010548958083
30
0
41
1
10
78.9503735272044
20
5.07758178053751
30
0
41
1
10
79.0980566242455
20
5.55225914709328
30
0
41
1
10
79.171898172766
20
5.74942774884829
30
0
41
1
10
79.3195812698069
20
6.05888228209972
30
0
41
1
10
79.3934228183275
20
6.17124122771412
30
0
41
1
10
79.5411059153686
20
6.31673627462496
30
0
41
1
10
79.6149474638891
20
6.34999989416642
30
0
41
1
10
79.6887890124096
20
6.34999999999974
30
0
0
SPLINE
5
DA
100
AcDbEntity
8
1
62
256
6
ByLayer
370
13
48
1
60
0
100
AcDbSpline
70
4
71
3
72
86
73
82
40
0
40
0
40
0
40
0
40
0.0312500000000008
40
0.0312500000000008
40
0.0625000000000016
40
0.0625000000000016
40
0.0937500000000024
40
0.0937500000000024
40
0.125000000000003
40
0.125000000000003
40
0.156250000000004
40
0.156250000000004
40
0.187500000000005
40
0.187500000000005
40
0.191406250000005
40
0.191406250000005
40
0.195312500000005
40
0.195312500000005
40
0.203125000000005
40
0.203125000000005
40
0.218750000000006
40
0.218750000000006
40
0.250000000000006
40
0.250000000000006
40
0.281250000000006
40
0.281250000000006
40
0.312500000000007
40
0.312500000000007
40
0.343750000000007
40
0.343750000000007
40
0.375000000000008
40
0.375000000000008
40
0.406250000000008
40
0.406250000000008
40
0.437500000000008
40
0.437500000000008
40
0.453125000000008
40
0.453125000000008
40
0.460937500000008
40
0.460937500000008
40
0.464843750000008
40
0.464843750000008
40
0.468750000000008
40
0.468750000000008
40
0.500000000000008
40
0.500000000000008
40
0.531250000000007
40
0.531250000000007
40
0.562500000000007
40
0.562500000000007
40
0.593750000000006
40
0.593750000000006
40
0.625000000000006
40
0.625000000000006
40
0.656250000000005
40
0.656250000000005
40
0.687500000000005
40
0.687500000000005
40
0.718750000000004
40
0.718750000000004
40
0.726562500000004
40
0.726562500000004
40
0.734375000000004
40
0.734375000000004
40
0.750000000000003
40
0.750000000000003
40
0.781250000000003
40
0.781250000000003
40
0.812500000000002
40
0.812500000000002
40
0.843750000000002
40
0.843750000000002
40
0.875000000000002
40
0.875000000000002
40
0.906250000000001
40
0.906250000000001
40
0.937500000000001
40
0.937500000000001
40
0.96875
40
0.96875
40
1
40
1
40
1
40
1
41
1
10
72.6
20
5.7773456938875
30
0
41
1
10
72.6686369327556
20
5.61358395317563
30
0
41
1
10
72.7372738655112
20
5.41325726190649
30
0
41
1
10
72.8745477310223
20
4.94506398203961
30
0
41
1
10
72.943184663778
20
4.67723498897323
30
0
41
1
10
73.0804585292891
20
4.08755508189648
30
0
41
1
10
73.1490954620447
20
3.76580786732569
30
0
41
1
10
73.2863693275559
20
3.08762733924175
30
0
41
1
10
73.3550062603115
20
2.73132539949759
30
0
41
1
10
73.4922801258227
20
2.00549198678863
30
0
41
1
10
73.5609170585782
20
1.63607181672955
30
0
41
1
10
73.6981909240894
20
0.903760996922898
30
0
41
1
10
73.7668278568451
20
0.540931596332314
30
0
41
1
10
73.8440444061951
20
0.145074147779809
30
0
41
1
10
73.8526240227895
20
0.10125787401654
30
0
41
1
10
73.8697832559784
20
0.0139851375409137
30
0
41
1
10
73.8783628725729
20
-0.0294045988026994
30
0
41
1
10
73.9041017223561
20
-0.160440605471791
30
0
41
1
10
73.9212609555451
20
-0.248512686785119
30
0
41
1
10
73.9727386551118
20
-0.514574938982975
30
0
41
1
10
74.0070571214896
20
-0.694421224514116
30
0
41
1
10
74.110012520623
20
-1.23861582658111
30
0
41
1
10
74.1786494533786
20
-1.60774462267582
30
0
41
1
10
74.3159233188898
20
-2.34045032190642
30
0
41
1
10
74.3845602516453
20
-2.70393196424377
30
0
41
1
10
74.5218341171565
20
-3.40416485752641
30
0
41
1
10
74.5904710499121
20
-3.74078692250248
30
0
41
1
10
74.7277449154233
20
-4.3667160709123
30
0
41
1
10
74.7963818481789
20
-4.65590391520183
30
0
41
1
10
74.9336557136901
20
-5.1708848753762
30
0
41
1
10
75.0022926464457
20
-5.3966139223954
30
0
41
1
10
75.1395665119569
20
-5.77601246491975
30
0
41
1
10
75.2082034447124
20
-5.92969216964124
30
0
41
1
10
75.3454773102235
20
-6.16458957466861
30
0
41
1
10
75.4141142429792
20
-6.24587591414203
30
0
41
1
10
75.5170696421126
20
-6.31839947867536
30
0
41
1
10
75.5513881084903
20
-6.33438686271577
30
0
41
1
10
75.602865808057
20
-6.3470302330883
30
0
41
1
10
75.6200250412459
20
-6.3493569485619
30
0
41
1
10
75.6457638910293
20
-6.35014744760483
30
0
41
1
10
75.6543435076237
20
-6.34996444079792
30
0
41
1
10
75.6715027408127
20
-6.34869224138902
30
0
41
1
10
75.6800823574071
20
-6.34760165543247
30
0
41
1
10
75.7572989067571
20
-6.3335966924015
30
0
41
1
10
75.8259358395127
20
-6.29119285639575
30
0
41
1
10
75.9632097050239
20
-6.13716669045601
30
0
41
1
10
76.0318466377794
20
-6.02545798565998
30
0
41
1
10
76.1691205032906
20
-5.72887477124476
30
0
41
1
10
76.2377574360463
20
-5.54395279664709
30
0
41
1
10
76.3750313015574
20
-5.10468756064088
30
0
41
1
10
76.4436682343131
20
-4.85036574006685
30
0
41
1
10
76.5809420998242
20
-4.28422459041366
30
0
41
1
10
76.6495790325798
20
-3.97249721629271
30
0
41
1
10
76.786852898091
20
-3.30991756014581
30
0
41
1
10
76.8554898308466
20
-2.95919490745604
30
0
41
1
10
76.9927636963577
20
-2.23996795329236
30
0
41
1
10
77.0614006291133
20
-1.87158265683456
30
0
41
1
10
77.1986744946245
20
-1.13742845423357
30
0
41
1
10
77.2673114273802
20
-0.771732562318334
30
0
41
1
10
77.3531075933246
20
-0.326534745306759
30
0
41
1
10
77.3702668265134
20
-0.23807929387479
30
0
41
1
10
77.4045852928913
20
-0.0625416139257595
30
0
41
1
10
77.4217445260801
20
0.0240863379737846
30
0
41
1
10
77.4732222256469
20
0.28678180662331
30
0
41
1
10
77.5075406920247
20
0.464725714915744
30
0
41
1
10
77.610496091158
20
1.00445006921228
30
0
41
1
10
77.6791330239137
20
1.37226157080795
30
0
41
1
10
77.8164068894249
20
2.10657134794019
30
0
41
1
10
77.8850438221804
20
2.47298517671933
30
0
41
1
10
78.0223176876916
20
3.18368245858824
30
0
41
1
10
78.0909546204472
20
3.52784086826196
30
0
41
1
10
78.2282284859584
20
4.17298180907579
30
0
41
1
10
78.2968654187139
20
4.47383876806262
30
0
41
1
10
78.4341392842252
20
5.01503691794727
30
0
41
1
10
78.5027762169807
20
5.25529946969843
30
0
41
1
10
78.6400500824919
20
5.66491320830264
30
0
41
1
10
78.7086870152474
20
5.8342590082292
30
0
41
1
10
78.8459608807587
20
6.09991803129503
30
0
41
1
10
78.9145978135143
20
6.19629011133398
30
0
41
1
10
79.0518716790254
20
6.32128620809729
30
0
41
1
10
79.1205086117811
20
6.34999999999999
30
0
41
1
10
79.1891455445366
20
6.34999999999999
30
0
0
SPLINE
5
DB
100
AcDbEntity
8
1
62
256
6
ByLayer
370
13
48
1
60
0
100
AcDbSpline
70
4
71
3
72
85
73
81
40
0
40
0
40
0
40
0
40
0.031249999999998
40
0.031249999999998
40
0.062499999999996
40
0.062499999999996
40
0.093749999999994
40
0.093749999999994
40
0.124999999999992
40
0.124999999999992
40
0.128906249999992
40
0.128906249999992
40
0.132812499999992
40
0.140624999999992
40
0.140624999999992
40
0.156249999999992
40
0.156249999999992
40
0.187499999999993
40
0.187499999999993
40
0.218749999999993
40
0.218749999999993
40
0.249999999999994
40
0.249999999999994
40
0.281249999999994
40
0.281249999999994
40
0.312499999999994
40
0.312499999999994
40
0.343749999999995
40
0.343749999999995
40
0.374999999999995
40
0.374999999999995
40
0.406249999999996
40
0.406249999999996
40
0.414062499999996
40
0.414062499999996
40
0.421874999999996
40
0.421874999999996
40
0.437499999999996
40
0.437499999999996
40
0.468749999999995
40
0.468749999999995
40
0.499999999999994
40
0.499999999999994
40
0.531249999999993
40
0.531249999999993
40
0.562499999999992
40
0.562499999999992
40
0.593749999999992
40
0.593749999999992
40
0.624999999999991
40
0.624999999999991
40
0.65624999999999
40
0.65624999999999
40
0.687499999999989
40
0.687499999999989
40
0.703124999999989
40
0.703124999999989
40
0.707031249999989
40
0.707031249999989
40
0.710937499999989
40
0.710937499999989
40
0.718749999999989
40
0.718749999999989
40
0.74999999999999
40
0.74999999999999
40
0.781249999999992
40
0.781249999999992
40
0.812499999999993
40
0.812499999999993
40
0.843749999999994
40
0.843749999999994
40
0.874999999999995
40
0.874999999999995
40
0.906249999999996
40
0.906249999999996
40
0.937499999999998
40
0.937499999999998
40
0.968749999999999
40
0.968749999999999
40
1
40
1
40
1
40
1
41
1
10
72.6
20
3.99123048452648
30
0
41
1
10
72.6634323096065
20
3.69915339172144
30
0
41
1
10
72.726864619213
20
3.38742167845007
30
0
41
1
10
72.853729238426
20
2.7407619514897
30
0
41
1
10
72.9171615480325
20
2.40592134009972
30
0
41
1
10
73.0440261672455
20
1.72983815141865
30
0
41
1
10
73.107458476852
20
1.38866265947254
30
0
41
1
10
73.234323096065
20
0.714812940181218
30
0
41
1
10
73.2977554056716
20
0.382172542387309
30
0
41
1
10
73.3691167539789
20
0.0191818478440098
30
0
41
1
10
73.3770457926797
20
-0.0209203189310756
30
0
41
1
10
73.3929038700812
20
-0.101593755680369
30
0
41
1
10
73.4166909861838
20
-0.223063787570169
30
0
41
1
10
73.4404781022861
20
-0.345829790565801
30
0
41
1
10
73.488052334491
20
-0.592845086302873
30
0
41
1
10
73.5197684892943
20
-0.759506953517018
30
0
41
1
10
73.614916953704
20
-1.26321935912119
30
0
41
1
10
73.6783492633106
20
-1.60408729254661
30
0
41
1
10
73.8052138825236
20
-2.28152720844494
30
0
41
1
10
73.8686461921301
20
-2.61803582176469
30
0
41
1
10
73.9955108113431
20
-3.27012432602447
30
0
41
1
10
74.0589431209496
20
-3.58561811496918
30
0
41
1
10
74.1858077401625
20
-4.17918640634224
30
0
41
1
10
74.249240049769
20
-4.45717658171171
30
0
41
1
10
74.376104668982
20
-4.96205015784486
30
0
41
1
10
74.4395369785886
20
-5.18887853380534
30
0
41
1
10
74.5664015978015
20
-5.5827362725187
30
0
41
1
10
74.6298339074081
20
-5.7497560389865
30
0
41
1
10
74.7566985266211
20
-6.02131443056047
30
0
41
1
10
74.8201308362276
20
-6.1258859299449
30
0
41
1
10
74.9469954554406
20
-6.27549722556347
30
0
41
1
10
75.010427765047
20
-6.32059462580804
30
0
41
1
10
75.0897181520552
20
-6.34422560666079
30
0
41
1
10
75.1055762294568
20
-6.34732240759499
30
0
41
1
10
75.13729238426
20
-6.35039384118133
30
0
41
1
10
75.1531504616617
20
-6.35038660195772
30
0
41
1
10
75.2007246938666
20
-6.34573448573451
30
0
41
1
10
75.2324408486699
20
-6.3363829160368
30
0
41
1
10
75.3275893130796
20
-6.28799203228525
30
0
41
1
10
75.3910216226861
20
-6.22849430653406
30
0
41
1
10
75.5178862418991
20
-6.04886966322434
30
0
41
1
10
75.5813185515057
20
-5.92868929207432
30
0
41
1
10
75.7081831707186
20
-5.62600125003891
30
0
41
1
10
75.7716154803251
20
-5.44347011180352
30
0
41
1
10
75.8984800995381
20
-5.02019949712863
30
0
41
1
10
75.9619124091446
20
-4.77948151552846
30
0
41
1
10
76.0887770283576
20
-4.24984811093012
30
0
41
1
10
76.1522093379641
20
-3.96099725668395
30
0
41
1
10
76.2790739571772
20
-3.34968315247107
30
0
41
1
10
76.3425062667836
20
-3.02730739965355
30
0
41
1
10
76.4693708859966
20
-2.36572954738534
30
0
41
1
10
76.5328031956032
20
-2.02660972504213
30
0
41
1
10
76.6596678148162
20
-1.34787506632952
30
0
41
1
10
76.7231001244227
20
-1.0083155346608
30
0
41
1
10
76.8182485888324
20
-0.508910279258998
30
0
41
1
10
76.8499647436356
20
-0.344072182397639
30
0
41
1
10
76.8896099371397
20
-0.140916095535147
30
0
41
1
10
76.8975389758406
20
-0.100428862189403
30
0
41
1
10
76.9133970532421
20
-0.0197613165630912
30
0
41
1
10
76.921326091943
20
0.020340806927436
30
0
41
1
10
76.9451132080455
20
0.141346544347954
30
0
41
1
10
76.960971285447
20
0.222631181920832
30
0
41
1
10
77.0402616724551
20
0.631736320845249
30
0
41
1
10
77.1036939820616
20
0.96774712687116
30
0
41
1
10
77.2305586012747
20
1.6448921358016
30
0
41
1
10
77.2939909108812
20
1.98598379745934
30
0
41
1
10
77.4208555300942
20
2.65778928758533
30
0
41
1
10
77.4842878397006
20
2.98842910009071
30
0
41
1
10
77.6111524589136
20
3.62244634311188
30
0
41
1
10
77.6745847685202
20
3.92573498907183
30
0
41
1
10
77.8014493877331
20
4.48930339117618
30
0
41
1
10
77.8648816973397
20
4.74950688702319
30
0
41
1
10
77.9917463165527
20
5.21488261137822
30
0
41
1
10
78.0551786261592
20
5.42001591524206
30
0
41
1
10
78.1820432453722
20
5.76876671177698
30
0
41
1
10
78.2454755549787
20
5.91239185654334
30
0
41
1
10
78.3723401741917
20
6.13766569886198
30
0
41
1
10
78.4357724837982
20
6.21935905657895
30
0
41
1
10
78.5626371030112
20
6.32549558999176
30
0
41
1
10
78.6260694126177
20
6.34999999999999
30
0
41
1
10
78.6895017222242
20
6.34999999999999
30
0
0
SPLINE
5
DC
100
AcDbEntity
8
1
62
256
6
ByLayer
370
13
48
1
60
0
100
AcDbSpline
70
4
71
3
72
82
73
78
40
0
40
0
40
0
40
0
40
0.0312499999999999
40
0.0312499999999999
40
0.0468749999999999
40
0.0468749999999999
40
0.0546874999999999
40
0.0546874999999999
40
0.0624999999999999
40
0.0624999999999999
40
0.0937499999999998
40
0.0937499999999998
40
0.125
40
0.125
40
0.15625
40
0.15625
40
0.1875
40
0.1875
40
0.21875
40
0.21875
40
0.25
40
0.25
40
0.28125
40
0.28125
40
0.312499999999999
40
0.312499999999999
40
0.343749999999999
40
0.343749999999999
40
0.359375
40
0.359375
40
0.3671875
40
0.3671875
40
0.375
40
0.375
40
0.40625
40
0.40625
40
0.4375
40
0.4375
40
0.46875
40
0.46875
40
0.499999999999999
40
0.499999999999999
40
0.531249999999999
40
0.531249999999999
40
0.562499999999999
40
0.562499999999999
40
0.593749999999999
40
0.593749999999999
40
0.624999999999999
40
0.624999999999999
40
0.656249999999999
40
0.656249999999999
40
0.671874999999999
40
0.671874999999999
40
0.679687499999999
40
0.679687499999999
40
0.687499999999999
40
0.687499999999999
40
0.718749999999999
40
0.718749999999999
40
0.749999999999999
40
0.749999999999999
40
0.781249999999999
40
0.781249999999999
40
0.812499999999999
40
0.812499999999999
40
0.843749999999999
40
0.843749999999999
40
0.874999999999999
40
0.874999999999999
40
0.90625
40
0.90625
40
0.9375
40
0.9375
40
0.96875
40
0.96875
40
1
40
1
40
1
40
1
41
1
10
72.6
20
1.43155126858736
30
0
41
1
10
72.6582276864574
20
1.12031167977153
30
0
41
1
10
72.7164553729148
20
0.810466795804274
30
0
41
1
10
72.8037969026009
20
0.355286691403194
30
0
41
1
10
72.8329107458296
20
0.205138542484974
30
0
41
1
10
72.8765815106727
20
-0.0169654723960377
30
0
41
1
10
72.8911384322871
20
-0.0906625474946736
30
0
41
1
10
72.9202522755157
20
-0.239709651158222
30
0
41
1
10
72.9348091971301
20
-0.314723207401158
30
0
41
1
10
73.0075938052019
20
-0.691928726313563
30
0
41
1
10
73.0658214916593
20
-1.00063550510086
30
0
41
1
10
73.1822768645741
20
-1.62226517229539
30
0
41
1
10
73.2405045510316
20
-1.93516021323231
30
0
41
1
10
73.3569599239464
20
-2.55324767596403
30
0
41
1
10
73.4151876104037
20
-2.85839309622122
30
0
41
1
10
73.5316429833186
20
-3.44796154256915
30
0
41
1
10
73.5898706697761
20
-3.73232700555917
30
0
41
1
10
73.7063260426909
20
-4.26782417715648
30
0
41
1
10
73.7645537291482
20
-4.51890236629828
30
0
41
1
10
73.8810091020631
20
-4.97754851703618
30
0
41
1
10
73.9392367885205
20
-5.18508189716897
30
0
41
1
10
74.0556921614353
20
-5.54997277125389
30
0
41
1
10
74.1139198478928
20
-5.70732307685887
30
0
41
1
10
74.2303752208076
20
-5.96944351003523
30
0
41
1
10
74.288602907265
20
-6.07423248553656
30
0
41
1
10
74.4050582801798
20
-6.23289794057018
30
0
41
1
10
74.4632859666372
20
-6.28681005536509
30
0
41
1
10
74.5506274963234
20
-6.33315493219572
30
0
41
1
10
74.579741339552
20
-6.34287080241447
30
0
41
1
10
74.6234121043951
20
-6.34945144197033
30
0
41
1
10
74.6379690260095
20
-6.3503160977034
30
0
41
1
10
74.6670828692381
20
-6.34948173349346
30
0
41
1
10
74.6816397908526
20
-6.34777004785724
30
0
41
1
10
74.7544243989243
20
-6.33246900758587
30
0
41
1
10
74.8126520853817
20
-6.29857246133415
30
0
41
1
10
74.9291074582965
20
-6.18166485299881
30
0
41
1
10
74.987335144754
20
-6.09861469861173
30
0
41
1
10
75.1037905176688
20
-5.88022963755171
30
0
41
1
10
75.1620182041262
20
-5.74486743624621
30
0
41
1
10
75.278473577041
20
-5.42244204019957
30
0
41
1
10
75.3367012634985
20
-5.23537440407841
30
0
41
1
10
75.4531566364134
20
-4.81439165634188
30
0
41
1
10
75.5113843228707
20
-4.58050012693812
30
0
41
1
10
75.6278396957855
20
-4.07471740297032
30
0
41
1
10
75.6860673822429
20
-3.80287336738533
30
0
41
1
10
75.8025227551578
20
-3.23293955353742
30
0
41
1
10
75.8607504416152
20
-2.93490760070395
30
0
41
1
10
75.9772058145301
20
-2.32562732305246
30
0
41
1
10
76.0354335009875
20
-2.01443190797048
30
0
41
1
10
76.1518888739022
20
-1.3914090814165
30
0
41
1
10
76.2101165603597
20
-1.07961808332595
30
0
41
1
10
76.2974580900458
20
-0.619528229372975
30
0
41
1
10
76.3265719332745
20
-0.467413439024369
30
0
41
1
10
76.3702426981176
20
-0.241939249319131
30
0
41
1
10
76.3847996197319
20
-0.167229531048321
30
0
41
1
10
76.4139134629606
20
-0.0188281732085898
30
0
41
1
10
76.4284703845749
20
0.0547046584448481
30
0
41
1
10
76.5012549926467
20
0.426522930631165
30
0
41
1
10
76.5594826791041
20
0.732077158531496
30
0
41
1
10
76.675938052019
20
1.35047930220793
30
0
41
1
10
76.7341657384765
20
1.66330541349066
30
0
41
1
10
76.8506211113913
20
2.28489142292872
30
0
41
1
10
76.9088487978486
20
2.59360934587213
30
0
41
1
10
77.0253041707635
20
3.19412916510581
30
0
41
1
10
77.0835318572209
20
3.48587524791898
30
0
41
1
10
77.1999872301357
20
4.03961103355391
30
0
41
1
10
77.2582149165931
20
4.3015443839835
30
0
41
1
10
77.3746702895079
20
4.78456309292153
30
0
41
1
10
77.4328979759653
20
5.00560710519036
30
0
41
1
10
77.5493533488803
20
5.39902875977219
30
0
41
1
10
77.6075810353377
20
5.571390954436
30
0
41
1
10
77.7240364082525
20
5.86379035458666
30
0
41
1
10
77.7822640947098
20
5.98383953433773
30
0
41
1
10
77.8987194676247
20
6.17216237610842
30
0
41
1
10
77.9569471540821
20
6.24046801546567
30
0
41
1
10
78.0734025269969
20
6.32936669148577
30
0
41
1
10
78.1316302134543
20
6.34999999999999
30
0
41
1
10
78.1898578999118
20
6.34999999999999
30
0
0
SPLINE
5
DD
100
AcDbEntity
8
1
62
256
6
ByLayer
370
13
48
1
60
0
100
AcDbSpline
70
4
71
3
72
78
73
74
40
0
40
0
40
0
40
0
40
0.0312499999999999
40
0.0312499999999999
40
0.0624999999999997
40
0.0624999999999997
40
0.0937499999999995
40
0.0937499999999995
40
0.124999999999999
40
0.124999999999999
40
0.156249999999999
40
0.156249999999999
40
0.187499999999999
40
0.187499999999999
40
0.218749999999999
40
0.218749999999999
40
0.249999999999999
40
0.249999999999999
40
0.281249999999999
40
0.281249999999999
40
0.296874999999999
40
0.296874999999999
40
0.304687499999999
40
0.304687499999999
40
0.312499999999998
40
0.312499999999998
40
0.343749999999999
40
0.343749999999999
40
0.374999999999999
40
0.374999999999999
40
0.406249999999999
40
0.406249999999999
40
0.4375
40
0.4375
40
0.46875
40
0.46875
40
0.500000000000001
40
0.500000000000001
40
0.531250000000001
40
0.531250000000001
40
0.562500000000001
40
0.562500000000001
40
0.593750000000002
40
0.593750000000002
40
0.625000000000002
40
0.625000000000002
40
0.640625000000003
40
0.640625000000003
40
0.648437500000003
40
0.648437500000003
40
0.656250000000003
40
0.656250000000003
40
0.687500000000002
40
0.687500000000002
40
0.718750000000002
40
0.718750000000002
40
0.750000000000002
40
0.750000000000002
40
0.781250000000002
40
0.781250000000002
40
0.812500000000001
40
0.812500000000001
40
0.843750000000001
40
0.843750000000001
40
0.875000000000001
40
0.875000000000001
40
0.906250000000001
40
0.906250000000001
40
0.9375
40
0.9375
40
0.96875
40
0.96875
40
1
40
1
40
1
40
1
41
1
10
72.6
20
-1.18130852833065
30
0
41
1
10
72.6530230633084
20
-1.4637358298726
30
0
41
1
10
72.7060461266166
20
-1.74850415273571
30
0
41
1
10
72.8120922532333
20
-2.31401609881601
30
0
41
1
10
72.8651153165416
20
-2.59473270761365
30
0
41
1
10
72.9711614431583
20
-3.14243316231324
30
0
41
1
10
73.0241845064666
20
-3.40938213693607
30
0
41
1
10
73.1302306330833
20
-3.91981501687843
30
0
41
1
10
73.1832536963916
20
-4.16326307784718
30
0
41
1
10
73.2892998230082
20
-4.61802763906175
30
0
41
1
10
73.3423228863165
20
-4.82931552463796
30
0
41
1
10
73.4483690129332
20
-5.21315763721336
30
0
41
1
10
73.5013920762415
20
-5.38569697545779
30
0
41
1
10
73.6074382028581
20
-5.68817895934009
30
0
41
1
10
73.6604612661665
20
-5.81812279492505
30
0
41
1
10
73.7665073927832
20
-6.034499811394
30
0
41
1
10
73.8195304560915
20
-6.12094795620737
30
0
41
1
10
73.9255765827082
20
-6.25211347926322
30
0
41
1
10
73.9785996460164
20
-6.29685413421541
30
0
41
1
10
74.0581342409789
20
-6.33557485555119
30
0
41
1
10
74.0846457726332
20
-6.34376409878485
30
0
41
1
10
74.1244130701144
20
-6.34943275160359
30
0
41
1
10
74.1376688359414
20
-6.35022155251789
30
0
41
1
10
74.1641803675956
20
-6.34967288548225
30
0
41
1
10
74.1774361334227
20
-6.34832721192404
30
0
41
1
10
74.2437149625581
20
-6.336037299271
30
0
41
1
10
74.2967380258664
20
-6.30835623945669
30
0
41
1
10
74.4027841524831
20
-6.21278793156793
30
0
41
1
10
74.4558072157914
20
-6.14487576154838
30
0
41
1
10
74.5618533424081
20
-5.9660532095123
30
0
41
1
10
74.6148764057164
20
-5.85512346961633
30
0
41
1
10
74.7209225323331
20
-5.58992707176179
30
0
41
1
10
74.7739455956414
20
-5.43565270000283
30
0
41
1
10
74.879991722258
20
-5.0863104711398
30
0
41
1
10
74.9330147855663
20
-4.89125049687684
30
0
41
1
10
75.039060912183
20
-4.46577210876407
30
0
41
1
10
75.0920839754913
20
-4.23537692108826
30
0
41
1
10
75.1981301021079
20
-3.74708241593129
30
0
41
1
10
75.2511531654163
20
-3.48921677148189
30
0
41
1
10
75.357199292033
20
-2.95537841281842
30
0
41
1
10
75.4102223553414
20
-2.67944198203125
30
0
41
1
10
75.516268481958
20
-2.11932063362815
30
0
41
1
10
75.5692915452663
20
-1.83516681318318
30
0
41
1
10
75.6753376718829
20
-1.26789130530739
30
0
41
1
10
75.7283607351912
20
-0.984790390093536
30
0
41
1
10
75.8078953301538
20
-0.566844085654679
30
0
41
1
10
75.8344068618079
20
-0.428633536161527
30
0
41
1
10
75.8741741592891
20
-0.223588539710931
30
0
41
1
10
75.8874299251162
20
-0.155617764815901
30
0
41
1
10
75.9139414567704
20
-0.0205224384754104
30
0
41
1
10
75.9271972225974
20
0.0464492216477765
30
0
41
1
10
75.9934760517329
20
0.384726682842512
30
0
41
1
10
76.0464991150412
20
0.662101663732074
30
0
41
1
10
76.1525452416578
20
1.22375722579619
30
0
41
1
10
76.2055683049662
20
1.5080255356801
30
0
41
1
10
76.3116144315828
20
2.07513489241373
30
0
41
1
10
76.3646374948912
20
2.3579519481614
30
0
41
1
10
76.4706836215078
20
2.91263969295082
30
0
41
1
10
76.5237066848161
20
3.18447715120433
30
0
41
1
10
76.6297528114328
20
3.70737212171699
30
0
41
1
10
76.6827758747411
20
3.95839323759563
30
0
41
1
10
76.7888220013577
20
4.43057858534718
30
0
41
1
10
76.8418450646661
20
4.65171137446967
30
0
41
1
10
76.9478911912828
20
5.05684959856544
30
0
41
1
10
77.0009142545911
20
5.24083582634481
30
0
41
1
10
77.1069603812077
20
5.56700259264414
30
0
41
1
10
77.1599834445161
20
5.70917983069327
30
0
41
1
10
77.2660295711327
20
5.94998988810951
30
0
41
1
10
77.319052634441
20
6.04863424513573
30
0
41
1
10
77.4250987610577
20
6.20344736235597
30
0
41
1
10
77.478121824366
20
6.25963769487649
30
0
41
1
10
77.5841679509826
20
6.3329013240442
30
0
41
1
10
77.637191014291
20
6.34999999999999
30
0
41
1
10
77.6902140775993
20
6.34999999999999
30
0
0
SPLINE
5
DE
100
AcDbEntity
8
1
62
256
6
ByLayer
370
13
48
1
60
0
100
AcDbSpline
70
4
71
3
72
78
73
74
40
0
40
0
40
0
40
0
40
0.0312500000000002
40
0.0312500000000002
40
0.0625000000000005
40
0.0625000000000005
40
0.0937500000000007
40
0.0937500000000007
40
0.125000000000001
40
0.125000000000001
40
0.156250000000001
40
0.156250000000001
40
0.187500000000001
40
0.187500000000001
40
0.218750000000002
40
0.218750000000002
40
0.226562500000002
40
0.226562500000002
40
0.234375000000002
40
0.234375000000002
40
0.250000000000002
40
0.250000000000002
40
0.281250000000002
40
0.281250000000002
40
0.312500000000003
40
0.312500000000003
40
0.343750000000003
40
0.343750000000003
40
0.375000000000003
40
0.375000000000003
40
0.406250000000003
40
0.406250000000003
40
0.437500000000004
40
0.437500000000004
40
0.468750000000004
40
0.468750000000004
40
0.500000000000004
40
0.500000000000004
40
0.531250000000004
40
0.531250000000004
40
0.562500000000004
40
0.562500000000004
40
0.593750000000005
40
0.593750000000005
40
0.609375000000005
40
0.609375000000005
40
0.617187500000005
40
0.617187500000005
40
0.625000000000005
40
0.625000000000005
40
0.656250000000005
40
0.656250000000005
40
0.687500000000004
40
0.687500000000004
40
0.718750000000004
40
0.718750000000004
40
0.750000000000003
40
0.750000000000003
40
0.781250000000003
40
0.781250000000003
40
0.812500000000003
40
0.812500000000003
40
0.843750000000002
40
0.843750000000002
40
0.875000000000002
40
0.875000000000002
40
0.906250000000001
40
0.906250000000001
40
0.937500000000001
40
0.937500000000001
40
0.968750000000001
40
0.968750000000001
40
1
40
1
40
1
40
1
41
1
10
72.6
20
-3.77187958183822
30
0
41
1
10
72.6478184401592
20
-3.99898360110362
30
0
41
1
10
72.6956368803185
20
-4.21599443385276
30
0
41
1
10
72.791273760637
20
-4.62363288489053
30
0
41
1
10
72.8390922007962
20
-4.81424368332168
30
0
41
1
10
72.9347290811147
20
-5.1642344262757
30
0
41
1
10
72.9825475212739
20
-5.32360495881844
30
0
41
1
10
73.0781844015924
20
-5.6080631398664
30
0
41
1
10
73.1260028417516
20
-5.73315006128777
30
0
41
1
10
73.2216397220701
20
-5.9479396268863
30
0
41
1
10
73.2694581622293
20
-6.03764941425743
30
0
41
1
10
73.3650950425478
20
-6.18243269020527
30
0
41
1
10
73.412913482707
20
-6.23751879292061
30
0
41
1
10
73.5085503630255
20
-6.3153452770234
30
0
41
1
10
73.5563688031848
20
-6.33810070214324
30
0
41
1
10
73.6161418533839
20
-6.34845787274753
30
0
41
1
10
73.6280964634236
20
-6.34962703375152
30
0
41
1
10
73.6520056835033
20
-6.35022097350728
30
0
41
1
10
73.6639602935431
20
-6.34965299814559
30
0
41
1
10
73.6998241236624
20
-6.34527716367967
30
0
41
1
10
73.7237333437421
20
-6.33878996197973
30
0
41
1
10
73.795461003981
20
-6.30793301659398
30
0
41
1
10
73.8432794441403
20
-6.2721329602104
30
0
41
1
10
73.9389163244587
20
-6.16710479016666
30
0
41
1
10
73.986734764618
20
-6.09786227108145
30
0
41
1
10
74.0823716449364
20
-5.92424371049964
30
0
41
1
10
74.1301900850956
20
-5.81985696767967
30
0
41
1
10
74.2258269654141
20
-5.57592838179264
30
0
41
1
10
74.2736454055733
20
-5.43638243936448
30
0
41
1
10
74.3692822858918
20
-5.12403050003371
30
0
41
1
10
74.417100726051
20
-4.95122884791598
30
0
41
1
10
74.5127376063695
20
-4.57617912182417
30
0
41
1
10
74.5605560465289
20
-4.37394380615376
30
0
41
1
10
74.6561929268473
20
-3.94550022773578
30
0
41
1
10
74.7040113670064
20
-3.71931102042561
30
0
41
1
10
74.799648247325
20
-3.24960565991657
30
0
41
1
10
74.8474666874842
20
-3.00611123545914
30
0
41
1
10
74.9431035678027
20
-2.50898715385986
30
0
41
1
10
74.990922007962
20
-2.25537790703282
30
0
41
1
10
75.0865588882804
20
-1.74511424839716
30
0
41
1
10
75.1343773284397
20
-1.48847574512072
30
0
41
1
10
75.2300142087581
20
-0.978586038123353
30
0
41
1
10
75.2778326489174
20
-0.725344586261144
30
0
41
1
10
75.3495603091562
20
-0.352061695765201
30
0
41
1
10
75.3734695292359
20
-0.228721555639282
30
0
41
1
10
75.4093333593553
20
-0.0457598090509919
30
0
41
1
10
75.4212879693951
20
0.0146615877429213
30
0
41
1
10
75.4451971894747
20
0.13640155546878
30
0
41
1
10
75.4571517995145
20
0.197617809729763
30
0
41
1
10
75.5169248497135
20
0.505264894371265
30
0
41
1
10
75.5647432898728
20
0.756441060741196
30
0
41
1
10
75.6603801701913
20
1.26389352050049
30
0
41
1
10
75.7081986103505
20
1.52016193753357
30
0
41
1
10
75.803835490669
20
2.03165379190983
30
0
41
1
10
75.8516539308282
20
2.28686302694851
30
0
41
1
10
75.9472908111467
20
2.78929810726913
30
0
41
1
10
75.995109251306
20
3.03650459042731
30
0
41
1
10
76.0907461316244
20
3.51571212992852
30
0
41
1
10
76.1385645717837
20
3.74769144634607
30
0
41
1
10
76.2342014521021
20
4.18956780303648
30
0
41
1
10
76.2820198922614
20
4.39944458955739
30
0
41
1
10
76.3776567725798
20
4.79122976263136
30
0
41
1
10
76.4254752127391
20
4.97312324384831
30
0
41
1
10
76.5211120930576
20
5.30458819649542
30
0
41
1
10
76.5689305332168
20
5.45415276149919
30
0
41
1
10
76.6645674135352
20
5.71847460541821
30
0
41
1
10
76.7123858536945
20
5.83323363109284
30
0
41
1
10
76.8080227340129
20
6.02740533715368
30
0
41
1
10
76.8558411741722
20
6.10682705852824
30
0
41
1
10
76.9514780544906
20
6.23156253806337
30
0
41
1
10
76.9992964946499
20
6.27688993924696
30
0
41
1
10
77.0949333749684
20
6.33610106969692
30
0
41
1
10
77.1427518151276
20
6.34999999999999
30
0
41
1
10
77.1905702552868
20
6.34999999999999
30
0
0
SPLINE
5
DF
100
AcDbEntity
8
1
62
256
6
ByLayer
370
13
48
1
60
0
100
AcDbSpline
70
4
71
3
72
75
73
71
40
0
40
0
40
0
40
0
40
0.03125
40
0.03125
40
0.0624999999999999
40
0.0624999999999999
40
0.0937499999999999
40
0.0937499999999999
40
0.125
40
0.125
40
0.140625
40
0.140625
40
0.15625
40
0.15625
40
0.1875
40
0.1875
40
0.21875
40
0.21875
40
0.25
40
0.25
40
0.28125
40
0.28125
40
0.3125
40
0.3125
40
0.34375
40
0.34375
40
0.375
40
0.375
40
0.40625
40
0.40625
40
0.4375
40
0.4375
40
0.46875
40
0.46875
40
0.5
40
0.5
40
0.53125
40
0.53125
40
0.5625
40
0.5625
40
0.5703125
40
0.5703125
40
0.578125
40
0.59375
40
0.59375
40
0.625
40
0.625
40
0.65625
40
0.65625
40
0.6875
40
0.6875
40
0.71875
40
0.71875
40
0.75
40
0.75
40
0.78125
40
0.78125
40
0.8125
40
0.8125
40
0.84375
40
0.84375
40
0.875
40
0.875
40
0.90625
40
0.90625
40
0.9375
40
0.9375
40
0.96875
40
0.96875
40
1
40
1
40
1
40
1
41
1
10
72.6
20
-5.65985076524723
30
0
41
1
10
72.6426138170101
20
-5.77173168175798
30
0
41
1
10
72.6852276340203
20
-5.86970690915359
30
0
41
1
10
72.7704552680406
20
-6.03764248880296
30
0
41
1
10
72.8130690850508
20
-6.10760821166909
30
0
41
1
10
72.8982967190711
20
-6.22043115605899
30
0
41
1
10
72.9409105360812
20
-6.26329601504543
30
0
41
1
10
73.0261381701015
20
-6.32372949967996
30
0
41
1
10
73.0687519871117
20
-6.34130665901875
30
0
41
1
10
73.1326727126269
20
-6.35055294184602
30
0
41
1
10
73.153979621132
20
-6.35082495401065
30
0
41
1
10
73.1965934381421
20
-6.34580004206219
30
0
41
1
10
73.2179003466471
20
-6.34045536986162
30
0
41
1
10
73.2818210721624
20
-6.31543627954409
30
0
41
1
10
73.3244348891726
20
-6.28675587378712
30
0
41
1
10
73.4096625231929
20
-6.20320331592288
30
0
41
1
10
73.452276340203
20
-6.1483228692878
30
0
41
1
10
73.5375039742233
20
-6.01093366448777
30
0
41
1
10
73.5801177912334
20
-5.92841811842078
30
0
41
1
10
73.6653454252538
20
-5.73532382018249
30
0
41
1
10
73.7079592422639
20
-5.62474114350175
30
0
41
1
10
73.7931868762842
20
-5.37624523113962
30
0
41
1
10
73.8358006932943
20
-5.23833200336102
30
0
41
1
10
73.9210283273147
20
-4.93713762905711
30
0
41
1
10
73.9636421443248
20
-4.77386086417351
30
0
41
1
10
74.0488697783451
20
-4.42506717307188
30
0
41
1
10
74.0914835953553
20
-4.23955861183043
30
0
41
1
10
74.1767112293755
20
-3.85040064024642
30
0
41
1
10
74.2193250463857
20
-3.64676239066119
30
0
41
1
10
74.3045526804061
20
-3.22611772237556
30
0
41
1
10
74.3471664974162
20
-3.00912355767957
30
0
41
1
10
74.4323941314364
20
-2.56685495010621
30
0
41
1
10
74.4750079484466
20
-2.34159206732102
30
0
41
1
10
74.5602355824669
20
-1.88782508374189
30
0
41
1
10
74.6028493994771
20
-1.65933039603337
30
0
41
1
10
74.6880770334973
20
-1.20377024658578
30
0
41
1
10
74.7306908505075
20
-0.976711199252577
30
0
41
1
10
74.8159184845278
20
-0.528084052136677
30
0
41
1
10
74.858532301538
20
-0.306519175467713
30
0
41
1
10
74.9117995728007
20
-0.0350625883418445
30
0
41
1
10
74.9224530270532
20
0.0187888762802686
30
0
41
1
10
74.9437599355583
20
0.127261559440029
30
0
41
1
10
74.9757202983159
20
0.290795738957911
30
0
41
1
10
75.0076806610734
20
0.456600980339402
30
0
41
1
10
75.0716013865887
20
0.790624502645329
30
0
41
1
10
75.1142152035989
20
1.01654680273486
30
0
41
1
10
75.1994428376192
20
1.47101757813442
30
0
41
1
10
75.2420566546293
20
1.69956052384796
30
0
41
1
10
75.3272842886496
20
2.15475580504941
30
0
41
1
10
75.3698981056598
20
2.38139949601344
30
0
41
1
10
75.4551257396802
20
2.82783450209601
30
0
41
1
10
75.4977395566903
20
3.04761472513064
30
0
41
1
10
75.5829671907105
20
3.47521537318045
30
0
41
1
10
75.6255810077207
20
3.68302356422936
30
0
41
1
10
75.7108086417409
20
4.08178261541678
30
0
41
1
10
75.7534224587512
20
4.27272183233154
30
0
41
1
10
75.8386500927714
20
4.63342045498851
30
0
41
1
10
75.8812639097816
20
4.80317057954161
30
0
41
1
10
75.9664915438019
20
5.11806417649538
30
0
41
1
10
76.009105360812
20
5.26320209596636
30
0
41
1
10
76.0943329948324
20
5.52656733062327
30
0
41
1
10
76.1369468118424
20
5.6447934455579
30
0
41
1
10
76.2221744458628
20
5.85325693074734
30
0
41
1
10
76.2647882628729
20
5.94349722938091
30
0
41
1
10
76.3500158968932
20
6.0961091811815
30
0
41
1
10
76.3926297139034
20
6.1584869643919
30
0
41
1
10
76.4778573479236
20
6.25655220235208
30
0
41
1
10
76.5204711649339
20
6.29224767490172
30
0
41
1
10
76.6056987989541
20
6.33896729473167
30
0
41
1
10
76.6483126159643
20
6.34999999999999
30
0
41
1
10
76.6909264329744
20
6.34999999999999
30
0
0
SPLINE
5
E0
100
AcDbEntity
8
1
62
256
6
ByLayer
370
13
48
1
60
0
100
AcDbSpline
70
4
71
3
72
48
73
44
40
0
40
0
40
0
40
0
40
0.0078125000000001
40
0.0078125000000001
40
0.0156250000000002
40
0.0156250000000002
40
0.03125
40
0.03125
40
0.0625
40
0.0625
40
0.125
40
0.125
40
0.187499999999999
40
0.187499999999999
40
0.249999999999999
40
0.249999999999999
40
0.312499999999998
40
0.312499999999998
40
0.374999999999998
40
0.374999999999998
40
0.437499999999998
40
0.437499999999998
40
0.499999999999997
40
0.499999999999997
40
0.515624999999997
40
0.515624999999997
40
0.531249999999997
40
0.531249999999997
40
0.562499999999997
40
0.562499999999997
40
0.624999999999997
40
0.624999999999997
40
0.687499999999998
40
0.687499999999998
40
0.749999999999998
40
0.749999999999998
40
0.812499999999999
40
0.812499999999999
40
0.874999999999999
40
0.874999999999999
40
0.9375
40
0.9375
40
1
40
1
40
1
40
1
41
1
10
72.6
20
-6.34548687116802
30
0
41
1
10
72.6093522984652
20
-6.34730066372353
30
0
41
1
10
72.6187045969305
20
-6.34855981203307
30
0
41
1
10
72.6374091938611
20
-6.34999734578892
30
0
41
1
10
72.6467614923263
20
-6.35017787760765
30
0
41
1
10
72.6748183877221
20
-6.34912641418239
30
0
41
1
10
72.6935229846526
20
-6.34628339133587
30
0
41
1
10
72.7496367754443
20
-6.33098774705192
30
0
41
1
10
72.7870459693053
20
-6.31175750906155
30
0
41
1
10
72.8992735508885
20
-6.2245740871868
30
0
41
1
10
72.9740919386106
20
-6.12684713197217
30
0
41
1
10
73.1237287140548
20
-5.84476682757085
30
0
41
1
10
73.198547101777
20
-5.66031981203562
30
0
41
1
10
73.3481838772212
20
-5.20732460495213
30
0
41
1
10
73.4230022649434
20
-4.93878970448822
30
0
41
1
10
73.5726390403876
20
-4.33178111191995
30
0
41
1
10
73.6474574281098
20
-3.9934410016385
30
0
41
1
10
73.797094203554
20
-3.27040224969161
30
0
41
1
10
73.8719125912762
20
-2.88590260175391
30
0
41
1
10
74.0215493667204
20
-2.09828583753364
30
0
41
1
10
74.0963677544426
20
-1.69534617604654
30
0
41
1
10
74.2460045298868
20
-0.896770593098097
30
0
41
1
10
74.3208229176089
20
-0.501230942448842
30
0
41
1
10
74.4143459022615
20
-0.0237543040180412
30
0
41
1
10
74.4330504991921
20
0.0706531738815102
30
0
41
1
10
74.4704596930532
20
0.262181831948993
30
0
41
1
10
74.4891642899837
20
0.358755120173328
30
0
41
1
10
74.5452780807753
20
0.650499255331283
30
0
41
1
10
74.5826872746363
20
0.847708268040208
30
0
41
1
10
74.6949148562195
20
1.44373469124238
30
0
41
1
10
74.7697332439416
20
1.84710593573538
30
0
41
1
10
74.9193700193859
20
2.64130383465005
30
0
41
1
10
74.994188407108
20
3.03196680630668
30
0
41
1
10
75.1438251825523
20
3.77299533225252
30
0
41
1
10
75.2186435702745
20
4.12315930821879
30
0
41
1
10
75.3682803457187
20
4.75814497673326
30
0
41
1
10
75.4430987334408
20
5.04281293870906
30
0
41
1
10
75.592735508885
20
5.53014070472997
30
0
41
1
10
75.6675538966072
20
5.73276086361048
30
0
41
1
10
75.8171906720514
20
6.05081192568727
30
0
41
1
10
75.8920090597736
20
6.16631830556997
30
0
41
1
10
76.0416458352178
20
6.31584446044178
30
0
41
1
10
76.1164642229399
20
6.34999999999999
30
0
41
1
10
76.191282610662
20
6.34999999999999
30
0
0
SPLINE
5
E1
100
AcDbEntity
8
1
62
256
6
ByLayer
370
13
48
1
60
0
100
AcDbSpline
70
4
71
3
72
44
73
40
40
0
40
0
40
0
40
0
40
0.0624999999999989
40
0.0624999999999989
40
0.124999999999998
40
0.124999999999998
40
0.187499999999997
40
0.187499999999997
40
0.249999999999996
40
0.249999999999996
40
0.312499999999994
40
0.312499999999994
40
0.374999999999993
40
0.374999999999993
40
0.406249999999993
40
0.406249999999993
40
0.421874999999993
40
0.421874999999993
40
0.429687499999993
40
0.429687499999993
40
0.437499999999993
40
0.437499999999993
40
0.499999999999993
40
0.499999999999993
40
0.562499999999994
40
0.562499999999994
40
0.624999999999995
40
0.624999999999995
40
0.687499999999996
40
0.687499999999996
40
0.749999999999997
40
0.749999999999997
40
0.812499999999997
40
0.812499999999997
40
0.874999999999998
40
0.874999999999998
40
0.937499999999999
40
0.937499999999999
40
1
40
1
40
1
40
1
41
1
10
72.6
20
-5.88357509694683
30
0
41
1
10
72.664409141424
20
-5.74540239659461
30
0
41
1
10
72.7288182828479
20
-5.57501082936716
30
0
41
1
10
72.8576365656958
20
-5.17265603271258
30
0
41
1
10
72.9220457071198
20
-4.94070419555243
30
0
41
1
10
73.0508639899676
20
-4.42440045696182
30
0
41
1
10
73.1152731313916
20
-4.1401094586227
30
0
41
1
10
73.2440914142395
20
-3.53358031824084
30
0
41
1
10
73.3085005556634
20
-3.21143400863662
30
0
41
1
10
73.4373188385113
20
-2.54654712425901
30
0
41
1
10
73.5017279799353
20
-2.20389851824498
30
0
41
1
10
73.6305462627831
20
-1.51538016911559
30
0
41
1
10
73.6949554042071
20
-1.16957604595032
30
0
41
1
10
73.791569116343
20
-0.659657876895182
30
0
41
1
10
73.823773687055
20
-0.491124662449892
30
0
41
1
10
73.872080543123
20
-0.241613048261485
30
0
41
1
10
73.888182828479
20
-0.158988576451264
30
0
41
1
10
73.9123362565128
20
-0.035993980454009
30
0
41
1
10
73.920387399191
20
0.0047402662927425
30
0
41
1
10
73.9364896845469
20
0.0865754099715161
30
0
41
1
10
73.944540827225
20
0.127652339573785
30
0
41
1
10
74.0170011113269
20
0.498690143467542
30
0
41
1
10
74.0814102527509
20
0.838234229186668
30
0
41
1
10
74.2102285355987
20
1.52438471539608
30
0
41
1
10
74.2746376770227
20
1.87094981182454
30
0
41
1
10
74.4034559598705
20
2.55521949315394
30
0
41
1
10
74.4678651012946
20
2.89284729295034
30
0
41
1
10
74.5966833841425
20
3.54159826153659
30
0
41
1
10
74.6610925255664
20
3.85262596947302
30
0
41
1
10
74.7899108084143
20
4.43147712207912
30
0
41
1
10
74.8543199498382
20
4.69921616453021
30
0
41
1
10
74.9831382326861
20
5.17855463461621
30
0
41
1
10
75.04754737411
20
5.39010907535953
30
0
41
1
10
75.176365656958
20
5.74994761319851
30
0
41
1
10
75.2407747983819
20
5.89823772146104
30
0
41
1
10
75.3695930812298
20
6.13082997643497
30
0
41
1
10
75.4340022226538
20
6.2151793671047
30
0
41
1
10
75.5628205055016
20
6.32473139607876
30
0
41
1
10
75.6272296469256
20
6.34999999999999
30
0
41
1
10
75.6916387883496
20
6.34999999999999
30
0
0
SPLINE
5
E2
100
AcDbEntity
8
1
62
256
6
ByLayer
370
13
48
1
60
0
100
AcDbSpline
70
4
71
3
72
14
73
10
40
0
40
0
40
0
40
0
40
0.25
40
0.25
40
0.5
40
0.5
40
0.75
40
0.75
40
1
40
1
40
1
40
1
41
1
10
79.0953700445011
20
6.34999999999999
30
0
41
1
10
79.1448216251601
20
6.34999999999999
30
0
41
1
10
79.1942732058192
20
6.33513300056038
30
0
41
1
10
79.2931763671373
20
6.27168148675804
30
0
41
1
10
79.3426279477964
20
6.22307901007463
30
0
41
1
10
79.4415311091144
20
6.0892738849864
30
0
41
1
10
79.4909826897734
20
6.0040553670608
30
0
41
1
10
79.5898858510916
20
5.795791140956
30
0
41
1
10
79.6393374317506
20
5.67273550449946
30
0
41
1
10
79.6887890124096
20
5.53118159321076
30
0
0
SPLINE
5
E3
100
AcDbEntity
8
1
62
256
6
ByLayer
370
13
48
1
60
0
100
AcDbSpline
70
4
71
3
72
42
73
38
40
0
40
0
40
0
40
0
40
0.0624999999999996
40
0.0624999999999996
40
0.124999999999999
40
0.124999999999999
40
0.187499999999999
40
0.187499999999999
40
0.249999999999999
40
0.249999999999999
40
0.312499999999998
40
0.312499999999998
40
0.328124999999998
40
0.328124999999998
40
0.343749999999998
40
0.343749999999998
40
0.374999999999998
40
0.374999999999998
40
0.437499999999998
40
0.437499999999998
40
0.499999999999998
40
0.499999999999998
40
0.562499999999999
40
0.562499999999999
40
0.624999999999999
40
0.624999999999999
40
0.687499999999999
40
0.687499999999999
40
0.749999999999999
40
0.749999999999999
40
0.812499999999999
40
0.812499999999999
40
0.875
40
0.875
40
0.9375
40
0.9375
40
1
40
1
40
1
40
1
41
1
10
72.6
20
-4.20345348143826
30
0
41
1
10
72.6539998951258
20
-3.96339577582097
30
0
41
1
10
72.7079997902516
20
-3.7077978864329
30
0
41
1
10
72.8159995805031
20
-3.17502694258729
30
0
41
1
10
72.8699994756288
20
-2.89789375135806
30
0
41
1
10
72.9779992658804
20
-2.3324511178127
30
0
41
1
10
73.0319991610062
20
-2.04417788998325
30
0
41
1
10
73.1399989512578
20
-1.4665031598872
30
0
41
1
10
73.1939988463835
20
-1.17712741600198
30
0
41
1
10
73.3019986366351
20
-0.60599213505418
30
0
41
1
10
73.3559985317608
20
-0.324245261971725
30
0
41
1
10
73.423498400668
20
0.0188916717050631
30
0
41
1
10
73.4369983744495
20
0.0872624972145388
30
0
41
1
10
73.4639983220123
20
0.225415545160189
30
0
41
1
10
73.4774982957938
20
0.29491547579957
30
0
41
1
10
73.5179982171381
20
0.504537026505773
30
0
41
1
10
73.544998164701
20
0.645784296323768
30
0
41
1
10
73.6259980073897
20
1.07269428462507
30
0
41
1
10
73.6799979025154
20
1.3615777097807
30
0
41
1
10
73.7879976927671
20
1.93940728244326
30
0
41
1
10
73.8419975878928
20
2.22832920243585
30
0
41
1
10
73.9499973781443
20
2.79632335828791
30
0
41
1
10
74.0039972732701
20
3.07536035759682
30
0
41
1
10
74.1119970635217
20
3.61317738222257
30
0
41
1
10
74.1659969586475
20
3.87191751625863
30
0
41
1
10
74.273996748899
20
4.35939407907952
30
0
41
1
10
74.3279966440247
20
4.58809503651315
30
0
41
1
10
74.4359964342763
20
5.0075739957656
30
0
41
1
10
74.489996329402
20
5.19832948345035
30
0
41
1
10
74.5979961196536
20
5.53672629554131
30
0
41
1
10
74.6519960147793
20
5.68436269599596
30
0
41
1
10
74.7599958050309
20
5.93448276554042
30
0
41
1
10
74.8139957001567
20
6.03697827689973
30
0
41
1
10
74.9219954904082
20
6.19781855889613
30
0
41
1
10
74.975995385534
20
6.25618666583748
30
0
41
1
10
75.0839951757856
20
6.33226349816417
30
0
41
1
10
75.1379950709114
20
6.34999999999999
30
0
41
1
10
75.1919949660371
20
6.34999999999999
30
0
0
SPLINE
5
E4
100
AcDbEntity
8
1
62
256
6
ByLayer
370
13
48
1
60
0
100
AcDbSpline
70
4
71
3
72
22
73
18
40
0
40
0
40
0
40
0
40
0.125
40
0.125
40
0.25
40
0.25
40
0.375
40
0.375
40
0.5
40
0.5
40
0.625
40
0.625
40
0.75
40
0.75
40
0.875
40
0.875
40
1
40
1
40
1
40
1
41
1
10
78.5957262221887
20
6.34999999999999
30
0
41
1
10
78.6412705051146
20
6.34999999999999
30
0
41
1
10
78.6868147880405
20
6.3373944191982
30
0
41
1
10
78.7779033538922
20
6.28383215303398
30
0
41
1
10
78.823447636818
20
6.2428635414125
30
0
41
1
10
78.9145362026698
20
6.13019877085017
30
0
41
1
10
78.9600804855957
20
6.05849169113213
30
0
41
1
10
79.0511690514474
20
5.88310957234791
30
0
41
1
10
79.0967133343734
20
5.77942677853551
30
0
41
1
10
79.1878019002251
20
5.54027754365839
30
0
41
1
10
79.2333461831509
20
5.40480851601851
30
0
41
1
10
79.3244347490026
20
5.10385829151514
30
0
41
1
10
79.3699790319286
20
4.93838087840322
30
0
41
1
10
79.4610675977802
20
4.58075816055427
30
0
41
1
10
79.5066118807061
20
4.38862290722511
30
0
41
1
10
79.5977004465578
20
3.98239223933803
30
0
41
1
10
79.6432447294839
20
3.76831162379341
30
0
41
1
10
79.6887890124097
20
3.54609654528267
30
0
0
SPLINE
5
E5
100
AcDbEntity
8
1
62
256
6
ByLayer
370
13
48
1
60
0
100
AcDbSpline
70
4
71
3
72
42
73
38
40
0
40
0
40
0
40
0
40
0.0625
40
0.0625
40
0.125
40
0.125
40
0.140625
40
0.140625
40
0.15625
40
0.15625
40
0.187499999999999
40
0.187499999999999
40
0.25
40
0.25
40
0.3125
40
0.3125
40
0.375
40
0.375
40
0.4375
40
0.4375
40
0.5
40
0.5
40
0.5625
40
0.5625
40
0.625
40
0.625
40
0.6875
40
0.6875
40
0.75
40
0.75
40
0.8125
40
0.8125
40
0.875
40
0.875
40
0.9375
40
0.9375
40
1
40
1
40
1
40
1
41
1
10
72.6
20
-1.68234666741236
30
0
41
1
10
72.6435906488276
20
-1.44913160021736
30
0
41
1
10
72.6871812976552
20
-1.21580870210124
30
0
41
1
10
72.7743625953104
20
-0.753533023357846
30
0
41
1
10
72.817953244138
20
-0.524585064371337
30
0
41
1
10
72.8724415551725
20
-0.243519139805983
30
0
41
1
10
72.8833392173794
20
-0.187559841977759
30
0
41
1
10
72.9051345417932
20
-0.0762001733478428
30
0
41
1
10
72.9160322040001
20
-0.0209702561861889
30
0
41
1
10
72.9487251906208
20
0.145062956362153
30
0
41
1
10
72.9705205150346
20
0.256928043864235
30
0
41
1
10
73.0359064882759
20
0.59544185050558
30
0
41
1
10
73.0794971371035
20
0.825034923994338
30
0
41
1
10
73.1666784347588
20
1.28815842447395
30
0
41
1
10
73.2102690835864
20
1.52168365015001
30
0
41
1
10
73.2974503812416
20
1.98800449129871
30
0
41
1
10
73.3410410300692
20
2.22079126529354
30
0
41
1
10
73.4282223277244
20
2.6804124541664
30
0
41
1
10
73.4718129765519
20
2.90723497193335
30
0
41
1
10
73.5589942742071
20
3.34946326982671
30
0
41
1
10
73.6025849230347
20
3.56485546753086
30
0
41
1
10
73.68976622069
20
3.97890537948405
30
0
41
1
10
73.7333568695175
20
4.17754978258677
30
0
41
1
10
73.8205381671727
20
4.55334441525079
30
0
41
1
10
73.8641288160003
20
4.73048370870404
30
0
41
1
10
73.9513101136555
20
5.05943827221987
30
0
41
1
10
73.9949007624831
20
5.21124668786163
30
0
41
1
10
74.0820820601383
20
5.48691235738028
30
0
41
1
10
74.1256727089659
20
5.61076770318786
30
0
41
1
10
74.2128540066211
20
5.82923666381697
30
0
41
1
10
74.2564446554487
20
5.92385316567001
30
0
41
1
10
74.3436259531039
20
6.08387421564666
30
0
41
1
10
74.3872166019315
20
6.14928542390609
30
0
41
1
10
74.4743978995867
20
6.25209814959214
30
0
41
1
10
74.5179885484143
20
6.28950858061788
30
0
41
1
10
74.6051698460695
20
6.33845471405098
30
0
41
1
10
74.6487604948971
20
6.34999999999999
30
0
41
1
10
74.6923511437247
20
6.34999999999999
30
0
0
SPLINE
5
E6
100
AcDbEntity
8
1
62
256
6
ByLayer
370
13
48
1
60
0
100
AcDbSpline
70
4
71
3
72
22
73
18
40
0
40
0
40
0
40
0
40
0.125
40
0.125
40
0.25
40
0.25
40
0.375
40
0.375
40
0.5
40
0.5
40
0.625
40
0.625
40
0.75
40
0.75
40
0.875
40
0.875
40
1
40
1
40
1
40
1
41
1
10
78.0960823998763
20
6.34999999999999
30
0
41
1
10
78.1624451753985
20
6.34999999999999
30
0
41
1
10
78.2288079509207
20
6.32316723378139
30
0
41
1
10
78.3615335019651
20
6.2066124555765
30
0
41
1
10
78.4278962774874
20
6.11681417352878
30
0
41
1
10
78.5606218285318
20
5.86922273539369
30
0
41
1
10
78.6269846040541
20
5.71137703329637
30
0
41
1
10
78.7597101550986
20
5.32889373723364
30
0
41
1
10
78.8260729306207
20
5.10425445092341
30
0
41
1
10
78.9587984816651
20
4.59660507692121
30
0
41
1
10
79.0251612571874
20
4.31365395117675
30
0
41
1
10
79.1578868082319
20
3.70417397354339
30
0
41
1
10
79.224249583754
20
3.37774735816456
30
0
41
1
10
79.3569751347986
20
2.6999705496543
30
0
41
1
10
79.4233379103208
20
2.34872944996582
30
0
41
1
10
79.5560634613652
20
1.64051953557828
30
0
41
1
10
79.6224262368875
20
1.28363203334069
30
0
41
1
10
79.6887890124096
20
0.932260485372041
30
0
0
SPLINE
5
E7
100
AcDbEntity
8
1
62
256
6
ByLayer
370
13
48
1
60
0
100
AcDbSpline
70
4
71
3
72
22
73
18
40
0
40
0
40
0
40
0
40
0.125
40
0.125
40
0.25
40
0.25
40
0.375
40
0.375
40
0.5
40
0.5
40
0.625
40
0.625
40
0.75
40
0.75
40
0.875
40
0.875
40
1
40
1
40
1
40
1
41
1
10
72.6
20
0.932256732065213
30
0
41
1
10
72.6663628050588
20
1.28362839823208
30
0
41
1
10
72.7327256101177
20
1.64051605008268
30
0
41
1
10
72.8654512202353
20
2.34872631607755
30
0
41
1
10
72.9318140252943
20
2.69996761770355
30
0
41
1
10
73.0645396354119
20
3.37774486016932
30
0
41
1
10
73.1309024404707
20
3.70417170735846
30
0
41
1
10
73.2636280505884
20
4.31365214836791
30
0
41
1
10
73.3299908556473
20
4.59660350539289
30
0
41
1
10
73.462716465765
20
5.10425331112754
30
0
41
1
10
73.5290792708238
20
5.32889279765871
30
0
41
1
10
73.6618048809415
20
5.7113764407564
30
0
41
1
10
73.7281676860003
20
5.86922228959094
30
0
41
1
10
73.860893296118
20
6.11681395814617
30
0
41
1
10
73.9272561011769
20
6.20661232395801
30
0
41
1
10
74.0599817112945
20
6.3231672097719
30
0
41
1
10
74.1263445163534
20
6.34999999999999
30
0
41
1
10
74.1927073214122
20
6.34999999999999
30
0
0
SPLINE
5
E8
100
AcDbEntity
8
1
62
256
6
ByLayer
370
13
48
1
60
0
100
AcDbSpline
70
4
71
3
72
42
73
38
40
0
40
0
40
0
40
0
40
0.0625000000000008
40
0.0625000000000008
40
0.125000000000001
40
0.125000000000001
40
0.187500000000002
40
0.187500000000002
40
0.250000000000003
40
0.250000000000003
40
0.312500000000004
40
0.312500000000004
40
0.375000000000005
40
0.375000000000005
40
0.437500000000005
40
0.437500000000005
40
0.500000000000006
40
0.500000000000006
40
0.562500000000007
40
0.562500000000007
40
0.625000000000008
40
0.625000000000008
40
0.687500000000009
40
0.687500000000009
40
0.75000000000001
40
0.75000000000001
40
0.81250000000001
40
0.81250000000001
40
0.843750000000011
40
0.843750000000011
40
0.85937500000001
40
0.85937500000001
40
0.87500000000001
40
0.87500000000001
40
0.937500000000005
40
0.937500000000005
40
1
40
1
40
1
40
1
41
1
10
77.5964385775638
20
6.34999999999999
30
0
41
1
10
77.6400292116232
20
6.34999999999999
30
0
41
1
10
77.6836198456824
20
6.33845472188901
30
0
41
1
10
77.770801113801
20
6.28950862252802
30
0
41
1
10
77.8143917478602
20
6.2520982177526
30
0
41
1
10
77.9015730159788
20
6.14928556474047
30
0
41
1
10
77.9451636500381
20
6.08387440291875
30
0
41
1
10
78.0323449181568
20
5.92385346632736
30
0
41
1
10
78.075935552216
20
5.82923703142998
30
0
41
1
10
78.1631168203346
20
5.61076822376995
30
0
41
1
10
78.2067074543938
20
5.48691296397465
30
0
41
1
10
78.2938887225124
20
5.21124748218082
30
0
41
1
10
78.3374793565716
20
5.05943916823978
30
0
41
1
10
78.4246606246903
20
4.73048481875293
30
0
41
1
10
78.4682512587495
20
4.55334563760681
30
0
41
1
10
78.5554325268682
20
4.17755123389753
30
0
41
1
10
78.5990231609275
20
3.97890694741611
30
0
41
1
10
78.686204429046
20
3.56485726627508
30
0
41
1
10
78.7297950631053
20
3.34946518273571
30
0
41
1
10
78.8169763312239
20
2.90723710429637
30
0
41
1
10
78.8605669652832
20
2.68041469179806
30
0
41
1
10
78.9477482334017
20
2.22079369918762
30
0
41
1
10
78.991338867461
20
1.98800701617489
30
0
41
1
10
79.0785201355796
20
1.52168633885614
30
0
41
1
10
79.1221107696389
20
1.288161186026
30
0
41
1
10
79.2092920377575
20
0.825037810990011
30
0
41
1
10
79.2528826718167
20
0.59544479010512
30
0
41
1
10
79.3182686229056
20
0.256931046854333
30
0
41
1
10
79.3400639399353
20
0.145065977908985
30
0
41
1
10
79.3727569154798
20
-0.0209672106051357
30
0
41
1
10
79.3836545739946
20
-0.0761970900502149
30
0
41
1
10
79.4054498910243
20
-0.187556700132802
30
0
41
1
10
79.4163475495391
20
-0.243515968958547
30
0
41
1
10
79.4708358421132
20
-0.524581750158291
30
0
41
1
10
79.5144264761725
20
-0.753529599693564
30
0
41
1
10
79.6016077442911
20
-1.21580507800715
30
0
41
1
10
79.6451983783504
20
-1.44912788517138
30
0
41
1
10
79.6887890124096
20
-1.68234287482744
30
0
0
SPLINE
5
E9
100
AcDbEntity
8
1
62
256
6
ByLayer
370
13
48
1
60
0
100
AcDbSpline
70
4
71
3
72
22
73
18
40
0
40
0
40
0
40
0
40
0.125
40
0.125
40
0.25
40
0.25
40
0.375
40
0.375
40
0.5
40
0.5
40
0.625
40
0.625
40
0.75
40
0.75
40
0.875
40
0.875
40
1
40
1
40
1
40
1
41
1
10
72.6
20
3.54609308659153
30
0
41
1
10
72.6455443124625
20
3.76830839332044
30
0
41
1
10
72.691088624925
20
3.98238924212001
30
0
41
1
10
72.7821772498499
20
4.3886203719735
30
0
41
1
10
72.8277215623124
20
4.58075585394997
30
0
41
1
10
72.9188101872374
20
4.93837901031341
30
0
41
1
10
72.9643544996999
20
5.10385663323771
30
0
41
1
10
73.0554431246249
20
5.40480724668743
30
0
41
1
10
73.1009874370873
20
5.54027645342774
30
0
41
1
10
73.1920760620123
20
5.77942600763353
30
0
41
1
10
73.2376203744749
20
5.88310894166708
30
0
41
1
10
73.3287089993999
20
6.05849129815493
30
0
41
1
10
73.3742533118624
20
6.13019847537223
30
0
41
1
10
73.4653419367874
20
6.24286339849456
30
0
41
1
10
73.5108862492498
20
6.2838320652094
30
0
41
1
10
73.6019748741749
20
6.33739440281332
30
0
41
1
10
73.6475191866373
20
6.34999999999999
30
0
41
1
10
73.6930634990998
20
6.34999999999999
30
0
0
SPLINE
5
EA
100
AcDbEntity
8
1
62
256
6
ByLayer
370
13
48
1
60
0
100
AcDbSpline
70
4
71
3
72
42
73
38
40
0
40
0
40
0
40
0
40
0.0625
40
0.0625
40
0.125
40
0.125
40
0.1875
40
0.1875
40
0.25
40
0.25
40
0.3125
40
0.3125
40
0.375
40
0.375
40
0.4375
40
0.4375
40
0.5
40
0.5
40
0.5625
40
0.5625
40
0.625
40
0.625
40
0.65625
40
0.65625
40
0.671875
40
0.671875
40
0.6875
40
0.6875
40
0.75
40
0.75
40
0.8125
40
0.8125
40
0.875
40
0.875
40
0.9375
40
0.9375
40
1
40
1
40
1
40
1
41
1
10
77.0967947552514
20
6.34999999999999
30
0
41
1
10
77.1507946356089
20
6.34999999999999
30
0
41
1
10
77.2047945159663
20
6.33226350789641
30
0
41
1
10
77.3127942766812
20
6.25618671852348
30
0
41
1
10
77.3667941570387
20
6.19781864484119
30
0
41
1
10
77.4747939177536
20
6.03697845488173
30
0
41
1
10
77.5287937981111
20
5.93448300232765
30
0
41
1
10
77.6367935588261
20
5.68436307485163
30
0
41
1
10
77.6907934391834
20
5.53672675766421
30
0
41
1
10
77.7987931998983
20
5.19833013189589
30
0
41
1
10
77.8527930802559
20
5.00757474724
30
0
41
1
10
77.9607928409708
20
4.58809600587395
30
0
41
1
10
78.0147927213283
20
4.35939516324518
30
0
41
1
10
78.1227924820432
20
3.87191883183243
30
0
41
1
10
78.1767923624006
20
3.61317881433646
30
0
41
1
10
78.2847921231156
20
3.0753620142965
30
0
41
1
10
78.338792003473
20
2.79632512297957
30
0
41
1
10
78.4467917641879
20
2.22833116589078
30
0
41
1
10
78.5007916445454
20
1.93940933664004
30
0
41
1
10
78.6087914052603
20
1.3615799223754
30
0
41
1
10
78.6627912856178
20
1.07269656487424
30
0
41
1
10
78.743791106154
20
0.645786658838972
30
0
41
1
10
78.7707910463328
20
0.504539413266258
30
0
41
1
10
78.8112909566009
20
0.294917894141975
30
0
41
1
10
78.8247909266902
20
0.225417973233647
30
0
41
1
10
78.851790866869
20
0.0872649431699983
30
0
41
1
10
78.8652908369583
20
0.018894119652515
30
0
41
1
10
78.9327906874052
20
-0.324242666387448
30
0
41
1
10
78.9867905677626
20
-0.605989426112245
30
0
41
1
10
79.0947903284776
20
-1.17712450179795
30
0
41
1
10
79.148790208835
20
-1.46650015383878
30
0
41
1
10
79.2567899695499
20
-2.04417473453995
30
0
41
1
10
79.3107898499074
20
-2.33244790489851
30
0
41
1
10
79.4187896106223
20
-2.89789046932299
30
0
41
1
10
79.4727894909798
20
-3.17502364898098
30
0
41
1
10
79.5807892516947
20
-3.70779462325331
30
0
41
1
10
79.6347891320522
20
-3.96339255469027
30
0
41
1
10
79.6887890124096
20
-4.20345033010091
30
0
0
SPLINE
5
EB
100
AcDbEntity
8
1
62
256
6
ByLayer
370
13
48
1
60
0
100
AcDbSpline
70
4
71
3
72
14
73
10
40
0
40
0
40
0
40
0
40
0.25
40
0.25
40
0.5
40
0.5
40
0.75
40
0.75
40
1
40
1
40
1
40
1
41
1
10
72.6
20
5.53117956406143
30
0
41
1
10
72.6494516397323
20
5.67273382035288
30
0
41
1
10
72.6989032794646
20
5.79578976203862
30
0
41
1
10
72.7978065589292
20
6.00405450690604
30
0
41
1
10
72.8472581986614
20
6.08927323839603
30
0
41
1
10
72.946161478126
20
6.22307869762901
30
0
41
1
10
72.9956131178583
20
6.27168129497753
30
0
41
1
10
73.0945163973228
20
6.33513296494942
30
0
41
1
10
73.1439680370551
20
6.34999999999999
30
0
41
1
10
73.1934196767874
20
6.34999999999999
30
0
0
SPLINE
5
EC
100
AcDbEntity
8
1
62
256
6
ByLayer
370
13
48
1
60
0
100
AcDbSpline
70
4
71
3
72
44
73
40
40
0
40
0
40
0
40
0
40
0.0625000000000042
40
0.0625000000000042
40
0.125000000000008
40
0.125000000000008
40
0.187500000000013
40
0.187500000000013
40
0.250000000000017
40
0.250000000000017
40
0.312500000000021
40
0.312500000000021
40
0.375000000000025
40
0.375000000000025
40
0.437500000000029
40
0.437500000000029
40
0.500000000000034
40
0.500000000000034
40
0.562500000000038
40
0.562500000000038
40
0.570312500000038
40
0.570312500000038
40
0.578125000000038
40
0.578125000000038
40
0.593750000000037
40
0.593750000000037
40
0.625000000000034
40
0.625000000000034
40
0.687500000000029
40
0.687500000000029
40
0.750000000000023
40
0.750000000000023
40
0.812500000000017
40
0.812500000000017
40
0.875000000000012
40
0.875000000000012
40
0.937500000000006
40
0.937500000000006
40
1
40
1
40
1
40
1
41
1
10
76.597150932939
20
6.34999999999999
30
0
41
1
10
76.6615600595945
20
6.34999999999999
30
0
41
1
10
76.7259691862503
20
6.32473140772242
30
0
41
1
10
76.8547874395615
20
6.21517943081827
30
0
41
1
10
76.9191965662171
20
6.13083008064837
30
0
41
1
10
77.0480148195284
20
5.89823793723275
30
0
41
1
10
77.1124239461841
20
5.74994790006809
30
0
41
1
10
77.2412421994954
20
5.39010953105318
30
0
41
1
10
77.305651326151
20
5.17855518800877
30
0
41
1
10
77.4344695794622
20
4.6992169300222
30
0
41
1
10
77.4988787061179
20
4.43147800187543
30
0
41
1
10
77.6276969594291
20
3.85262708053989
30
0
41
1
10
77.6921060860848
20
3.54159948944263
30
0
41
1
10
77.8209243393961
20
2.89284874257089
30
0
41
1
10
77.8853334660517
20
2.55522104754797
30
0
41
1
10
78.014151719363
20
1.87095155223673
30
0
41
1
10
78.0785608460187
20
1.5243865370133
30
0
41
1
10
78.20737909933
20
0.838236183412363
30
0
41
1
10
78.2717882259856
20
0.49869214911908
30
0
41
1
10
78.3442484934732
20
0.127654385889826
30
0
41
1
10
78.3522996343052
20
0.0865774605701688
30
0
41
1
10
78.3684019159691
20
0.0047423249887686
30
0
41
1
10
78.376453056801
20
-0.0359919082800388
30
0
41
1
10
78.4006064792969
20
-0.158986460108167
30
0
41
1
10
78.4167087609608
20
-0.241610902844997
30
0
41
1
10
78.4650156059524
20
-0.491122431311481
30
0
41
1
10
78.4972201692803
20
-0.659655590601943
30
0
41
1
10
78.5938338592638
20
-1.16957360341823
30
0
41
1
10
78.6582429859194
20
-1.51537763474818
30
0
41
1
10
78.7870612392307
20
-2.20389584291186
30
0
41
1
10
78.8514703658863
20
-2.54654439995821
30
0
41
1
10
78.9802886191976
20
-3.21143124469106
30
0
41
1
10
79.0446977458533
20
-3.53357756376465
30
0
41
1
10
79.1735159991645
20
-4.14010678934901
30
0
41
1
10
79.2379251258201
20
-4.4243978634774
30
0
41
1
10
79.3667433791314
20
-4.94070181695815
30
0
41
1
10
79.431152505787
20
-5.17265379314898
30
0
41
1
10
79.5599707590983
20
-5.5750089174291
30
0
41
1
10
79.624379885754
20
-5.74540067308664
30
0
41
1
10
79.6887890124096
20
-5.88357357623423
30
0
0
SPLINE
5
ED
100
AcDbEntity
8
1
62
256
6
ByLayer
370
13
48
1
60
0
100
AcDbSpline
70
4
71
3
72
8
73
4
40
0
40
0
40
0
40
0
40
1
40
1
40
1
40
1
41
1
10
72.5999999999999
20
6.33168225511827
30
0
41
1
10
72.6312586181583
20
6.34406843804905
30
0
41
1
10
72.6625172363166
20
6.34999999999999
30
0
41
1
10
72.693775854475
20
6.34999999999999
30
0
0
SPLINE
5
EE
100
AcDbEntity
8
1
62
256
6
ByLayer
370
13
48
1
60
0
100
AcDbSpline
70
4
71
3
72
48
73
44
40
0
40
0
40
0
40
0
40
0.0625000000000002
40
0.0625000000000002
40
0.125
40
0.125
40
0.187500000000001
40
0.187500000000001
40
0.250000000000001
40
0.250000000000001
40
0.312500000000001
40
0.312500000000001
40
0.375000000000001
40
0.375000000000001
40
0.4375
40
0.4375
40
0.46875
40
0.46875
40
0.484375
40
0.484375
40
0.499999999999999
40
0.499999999999999
40
0.562499999999999
40
0.562499999999999
40
0.624999999999999
40
0.624999999999999
40
0.687499999999999
40
0.687499999999999
40
0.749999999999999
40
0.749999999999999
40
0.812499999999999
40
0.812499999999999
40
0.874999999999999
40
0.874999999999999
40
0.937499999999999
40
0.937499999999999
40
0.968749999999999
40
0.968749999999999
40
0.984375
40
0.984375
40
0.9921875
40
0.9921875
40
1
40
1
40
1
40
1
41
1
10
76.0975071106265
20
6.34999999999999
30
0
41
1
10
76.1723254835804
20
6.34999999999999
30
0
41
1
10
76.2471438565341
20
6.31584447401934
30
0
41
1
10
76.3967806024418
20
6.16631838053678
30
0
41
1
10
76.4715989753956
20
6.05081204859334
30
0
41
1
10
76.6212357213033
20
5.73276111738261
30
0
41
1
10
76.696054094257
20
5.5301410414653
30
0
41
1
10
76.8456908401647
20
5.04281346771094
30
0
41
1
10
76.9205092131185
20
4.75814561492433
30
0
41
1
10
77.0701459590261
20
4.12316017409617
30
0
41
1
10
77.1449643319799
20
3.77299631640597
30
0
41
1
10
77.2946010778875
20
3.03196801621385
30
0
41
1
10
77.3694194508413
20
2.6413051518349
30
0
41
1
10
77.519056196749
20
1.84710744033401
30
0
41
1
10
77.5938745697028
20
1.44373627590133
30
0
41
1
10
77.7061021291335
20
0.847709946338256
30
0
41
1
10
77.7435113156105
20
0.650500960504161
30
0
41
1
10
77.7996250953258
20
0.358756859002852
30
0
41
1
10
77.8183296885642
20
0.262183580892042
30
0
41
1
10
77.8557388750411
20
0.0706549408601518
30
0
41
1
10
77.8744434682796
20
-0.0237525237607485
30
0
41
1
10
77.9679664344719
20
-0.501229015619685
30
0
41
1
10
78.0427848074257
20
-0.896768556189699
30
0
41
1
10
78.1924215533332
20
-1.69534395694885
30
0
41
1
10
78.2672399262871
20
-2.09828354658546
30
0
41
1
10
78.4168766721947
20
-2.88590022870053
30
0
41
1
10
78.4916950451486
20
-3.27039986667566
30
0
41
1
10
78.6413317910562
20
-3.99343867490254
30
0
41
1
10
78.71615016401
20
-4.33177885157332
30
0
41
1
10
78.8657869099177
20
-4.93878765143307
30
0
41
1
10
78.9406052828715
20
-5.20732269268589
30
0
41
1
10
79.0902420287791
20
-5.66031823706962
30
0
41
1
10
79.1650604017329
20
-5.84476544880863
30
0
41
1
10
79.3146971476405
20
-6.12684617219398
30
0
41
1
10
79.3895155205944
20
-6.22457334987541
30
0
41
1
10
79.5017430800251
20
-6.31175710330939
30
0
41
1
10
79.539152266502
20
-6.33098745149209
30
0
41
1
10
79.5952660462174
20
-6.34628325832975
30
0
41
1
10
79.6139706394558
20
-6.34912633490916
30
0
41
1
10
79.6420275293135
20
-6.35017787801638
30
0
41
1
10
79.6513798259327
20
-6.34999737260992
30
0
41
1
10
79.6700844191711
20
-6.34855989331993
30
0
41
1
10
79.6794367157904
20
-6.34730077281998
30
0
41
1
10
79.6887890124096
20
-6.34548700864752
30
0
0
SPLINE
5
EF
100
AcDbEntity
8
1
62
256
6
ByLayer
370
13
48
1
60
0
100
AcDbSpline
70
4
71
3
72
8
73
4
40
0
40
0
40
0
40
0
40
1
40
1
40
1
40
1
41
1
10
79.6887890124098
20
5.35831161096976
30
0
41
1
10
80.4591926749396
20
3.56958259690103
30
0
41
1
10
81.2295963374695
20
1.78347395850531
30
0
41
1
10
81.9999999999994
20
1.3358E-12
30
0
0
SPLINE
5
F0
100
AcDbEntity
8
1
62
256
6
ByLayer
370
13
48
1
60
0
100
AcDbSpline
70
4
71
3
72
8
73
4
40
0
40
0
40
0
40
0
40
1
40
1
40
1
40
1
41
1
10
79.6887890124095
20
-6.31114443038345
30
0
41
1
10
80.4591926749396
20
-4.20796997809984
30
0
41
1
10
81.2295963374697
20
-2.10424954879085
30
0
41
1
10
81.9999999999999
20
-3.411E-13
30
0
0
SPLINE
5
F1
100
AcDbEntity
8
1
62
256
6
ByLayer
370
13
48
1
60
0
100
AcDbSpline
70
4
71
3
72
8
73
4
40
0
40
0
40
0
40
0
40
1
40
1
40
1
40
1
41
1
10
79.6887890124095
20
-5.69542740074954
30
0
41
1
10
80.4591926749397
20
-3.79478834230883
30
0
41
1
10
81.22959633747
20
-1.89630747344657
30
0
41
1
10
82.0000000000001
20
2.558E-13
30
0
0
SPLINE
5
F2
100
AcDbEntity
8
1
62
256
6
ByLayer
370
13
48
1
60
0
100
AcDbSpline
70
4
71
3
72
8
73
4
40
0
40
0
40
0
40
0
40
1
40
1
40
1
40
1
41
1
10
79.6887890124098
20
-2.01350117520093
30
0
41
1
10
80.4591926749398
20
-1.34697373257597
30
0
41
1
10
81.2295963374698
20
-0.675804877460649
30
0
41
1
10
81.9999999999999
20
-1.137E-13
30
0
0
SPLINE
5
F3
100
AcDbEntity
8
1
62
256
6
ByLayer
370
13
48
1
60
0
100
AcDbSpline
70
4
71
3
72
8
73
4
40
0
40
0
40
0
40
0
40
1
40
1
40
1
40
1
41
1
10
79.6887890124096
20
5.2473078231603
30
0
41
1
10
80.4591926749397
20
3.50096023113835
30
0
41
1
10
81.2295963374699
20
1.75185294938018
30
0
41
1
10
82
20
2.84E-14
30
0
0
SPLINE
5
F4
100
AcDbEntity
8
1
62
256
6
ByLayer
370
13
48
1
60
0
100
AcDbSpline
70
4
71
3
72
8
73
4
40
0
40
0
40
0
40
0
40
1
40
1
40
1
40
1
41
1
10
79.6887890124098
20
2.67969467491622
30
0
41
1
10
80.4591926749398
20
1.78202799054952
30
0
41
1
10
81.2295963374698
20
0.888794050507926
30
0
41
1
10
81.9999999999999
20
1.421E-13
30
0
0
SPLINE
5
F5
100
AcDbEntity
8
1
62
256
6
ByLayer
370
13
48
1
60
0
100
AcDbSpline
70
4
71
3
72
8
73
4
40
0
40
0
40
0
40
0
40
1
40
1
40
1
40
1
41
1
10
79.6887890124096
20
4.4794133474872
30
0
41
1
10
80.4591926749397
20
2.9897430110976
30
0
41
1
10
81.2295963374699
20
1.49660123757243
30
0
41
1
10
82
20
2.84E-14
30
0
0
SPLINE
5
F6
100
AcDbEntity
8
1
62
256
6
ByLayer
370
13
48
1
60
0
100
AcDbSpline
70
4
71
3
72
8
73
4
40
0
40
0
40
0
40
0
40
1
40
1
40
1
40
1
41
1
10
79.6887890124095
20
-5.60330779977079
30
0
41
1
10
80.4591926749396
20
-3.73784015092758
30
0
41
1
10
81.2295963374697
20
-1.87006589376253
30
0
41
1
10
81.9999999999999
20
-3.126E-13
30
0
0
SPLINE
5
F7
100
AcDbEntity
8
1
62
256
6
ByLayer
370
13
48
1
60
0
100
AcDbSpline
70
4
71
3
72
8
73
4
40
0
40
0
40
0
40
0
40
1
40
1
40
1
40
1
41
1
10
79.6887890124098
20
-0.842564666037816
30
0
41
1
10
80.4591926749398
20
-0.566558584712084
30
0
41
1
10
81.2295963374698
20
-0.285702941595616
30
0
41
1
10
81.9999999999999
20
-5.68E-14
30
0
0
SPLINE
5
F8
100
AcDbEntity
8
1
62
256
6
ByLayer
370
13
48
1
60
0
100
AcDbSpline
70
4
71
3
72
8
73
4
40
0
40
0
40
0
40
0
40
1
40
1
40
1
40
1
41
1
10
79.6887890124095
20
-4.25161196119623
30
0
41
1
10
80.4591926749397
20
-2.83077428983546
30
0
41
1
10
81.22959633747
20
-1.41356652087009
30
0
41
1
10
82.0000000000001
20
1.705E-13
30
0
0
SPLINE
5
F9
100
AcDbEntity
8
1
62
256
6
ByLayer
370
13
48
1
60
0
100
AcDbSpline
70
4
71
3
72
8
73
4
40
0
40
0
40
0
40
0
40
1
40
1
40
1
40
1
41
1
10
79.6887890124098
20
0.358562364447067
30
0
41
1
10
80.4591926749398
20
0.234157318359365
30
0
41
1
10
81.2295963374698
20
0.114636215336986
30
0
41
1
10
81.9999999999999
20
2.84E-14
30
0
0
SPLINE
5
FA
100
AcDbEntity
8
1
62
256
6
ByLayer
370
13
48
1
60
0
100
AcDbSpline
70
4
71
3
72
8
73
4
40
0
40
0
40
0
40
0
40
1
40
1
40
1
40
1
41
1
10
79.6887890124098
20
4.62019544914477
30
0
41
1
10
80.4591926749399
20
3.07677428330322
30
0
41
1
10
81.2295963374701
20
1.53670502329763
30
0
41
1
10
82.0000000000003
20
-6.537E-13
30
0
0
SPLINE
5
FB
100
AcDbEntity
8
1
62
256
6
ByLayer
370
13
48
1
60
0
100
AcDbSpline
70
4
71
3
72
8
73
4
40
0
40
0
40
0
40
0
40
1
40
1
40
1
40
1
41
1
10
79.6887890124095
20
-4.93993768293092
30
0
41
1
10
80.4591926749398
20
-3.29636564282291
30
0
41
1
10
81.2295963374701
20
-1.64971534783663
30
0
41
1
10
82.0000000000003
20
7.105E-13
30
0
0
SPLINE
5
FC
100
AcDbEntity
8
1
62
256
6
ByLayer
370
13
48
1
60
0
100
AcDbSpline
70
4
71
3
72
8
73
4
40
0
40
0
40
0
40
0
40
1
40
1
40
1
40
1
41
1
10
79.6887890124096
20
6.34724163202759
30
0
41
1
10
80.4591926749397
20
4.23163859939655
30
0
41
1
10
81.22959633747
20
2.11588573775538
30
0
41
1
10
82
20
0
30
0
0
SPLINE
5
FD
100
AcDbEntity
8
1
62
256
6
ByLayer
370
13
48
1
60
0
100
AcDbSpline
70
4
71
3
72
8
73
4
40
0
40
0
40
0
40
0
40
1
40
1
40
1
40
1
41
1
10
79.6887890124095
20
-4.09956121873725
30
0
41
1
10
80.4591926749396
20
-2.73677676173904
30
0
41
1
10
81.2295963374697
20
-1.37025270240051
30
0
41
1
10
81.9999999999999
20
-2.274E-13
30
0
0
SPLINE
5
FE
100
AcDbEntity
8
1
62
256
6
ByLayer
370
13
48
1
60
0
100
AcDbSpline
70
4
71
3
72
8
73
4
40
0
40
0
40
0
40
0
40
1
40
1
40
1
40
1
41
1
10
79.6887890124095
20
-6.33024795689815
30
0
41
1
10
80.4591926749398
20
-4.2197797479254
30
0
41
1
10
81.2295963374701
20
-2.10969146026122
30
0
41
1
10
82.0000000000003
20
8.811E-13
30
0
0
SPLINE
5
FF
100
AcDbEntity
8
1
62
256
6
ByLayer
370
13
48
1
60
0
100
AcDbSpline
70
4
71
3
72
8
73
4
40
0
40
0
40
0
40
0
40
1
40
1
40
1
40
1
41
1
10
79.6887890124096
20
6.19825906350428
30
0
41
1
10
80.4591926749397
20
4.13323577801023
30
0
41
1
10
81.22959633747
20
2.06714390436198
30
0
41
1
10
82
20
0
30
0
0
SPLINE
5
100
100
AcDbEntity
8
1
62
256
6
ByLayer
370
13
48
1
60
0
100
AcDbSpline
70
4
71
3
72
8
73
4
40
0
40
0
40
0
40
0
40
1
40
1
40
1
40
1
41
1
10
79.6887890124095
20
-3.28663143780224
30
0
41
1
10
80.4591926749397
20
-2.1869018048136
30
0
41
1
10
81.22959633747
20
-1.09135506990955
30
0
41
1
10
82.0000000000001
20
1.421E-13
30
0
0
SPLINE
5
101
100
AcDbEntity
8
1
62
256
6
ByLayer
370
13
48
1
60
0
100
AcDbSpline
70
4
71
3
72
8
73
4
40
0
40
0
40
0
40
0
40
1
40
1
40
1
40
1
41
1
10
79.6887890124096
20
0.156887501670582
30
0
41
1
10
80.4591926749397
20
0.109482237701229
30
0
41
1
10
81.2295963374699
20
0.057186259782867
30
0
41
1
10
82
20
0
30
0
0
SPLINE
5
102
100
AcDbEntity
8
1
62
256
6
ByLayer
370
13
48
1
60
0
100
AcDbSpline
70
4
71
3
72
8
73
4
40
0
40
0
40
0
40
0
40
1
40
1
40
1
40
1
41
1
10
79.6887890124098
20
6.23898338796775
30
0
41
1
10
80.4591926749399
20
4.15841149087433
30
0
41
1
10
81.2295963374701
20
2.07874480790576
30
0
41
1
10
82.0000000000003
20
-8.811E-13
30
0
0
SPLINE
5
103
100
AcDbEntity
8
1
62
256
6
ByLayer
370
13
48
1
60
0
100
AcDbSpline
70
4
71
3
72
8
73
4
40
0
40
0
40
0
40
0
40
1
40
1
40
1
40
1
41
1
10
79.6887890124096
20
5.82718235792845
30
0
41
1
10
80.4591926749397
20
3.88673210702302
30
0
41
1
10
81.2295963374698
20
1.94433279814561
30
0
41
1
10
81.9999999999999
20
1.137E-13
30
0
0
SPLINE
5
104
100
AcDbEntity
8
1
62
256
6
ByLayer
370
13
48
1
60
0
100
AcDbSpline
70
4
71
3
72
8
73
4
40
0
40
0
40
0
40
0
40
1
40
1
40
1
40
1
41
1
10
79.6887890124096
20
2.49537558603089
30
0
41
1
10
80.4591926749397
20
1.66808222181442
30
0
41
1
10
81.2295963374699
20
0.836288134210434
30
0
41
1
10
82
20
2.84E-14
30
0
0
SPLINE
5
105
100
AcDbEntity
8
1
62
256
6
ByLayer
370
13
48
1
60
0
100
AcDbSpline
70
4
71
3
72
8
73
4
40
0
40
0
40
0
40
0
40
1
40
1
40
1
40
1
41
1
10
79.6887890124096
20
-2.20388533450748
30
0
41
1
10
80.4591926749398
20
-1.46466891823661
30
0
41
1
10
81.22959633747
20
-0.730038515405226
30
0
41
1
10
82.0000000000001
20
8.53E-14
30
0
0
SPLINE
5
106
100
AcDbEntity
8
1
62
256
6
ByLayer
370
13
48
1
60
0
100
AcDbSpline
70
4
71
3
72
8
73
4
40
0
40
0
40
0
40
0
40
1
40
1
40
1
40
1
41
1
10
79.6887890124095
20
-6.06590189262076
30
0
41
1
10
80.4591926749396
20
-4.04538150550366
30
0
41
1
10
81.2295963374697
20
-2.02340880631021
30
0
41
1
10
81.9999999999999
20
-3.411E-13
30
0
0
SPLINE
5
107
100
AcDbEntity
8
1
62
256
6
ByLayer
370
13
48
1
60
0
100
AcDbSpline
70
4
71
3
72
8
73
4
40
0
40
0
40
0
40
0
40
1
40
1
40
1
40
1
41
1
10
79.6887890124098
20
3.71652984661736
30
0
41
1
10
80.4591926749398
20
2.47371992765579
30
0
41
1
10
81.2295963374698
20
1.2348733402207
30
0
41
1
10
81.9999999999999
20
1.99E-13
30
0
0
SPLINE
5
108
100
AcDbEntity
8
1
62
256
6
ByLayer
370
13
48
1
60
0
100
AcDbSpline
70
4
71
3
72
8
73
4
40
0
40
0
40
0
40
0
40
1
40
1
40
1
40
1
41
1
10
79.6887890124096
20
-1.04217028097776
30
0
41
1
10
80.4591926749397
20
-0.689954459635942
30
0
41
1
10
81.2295963374699
20
-0.342563442447187
30
0
41
1
10
82
20
0
30
0
0
SPLINE
5
109
100
AcDbEntity
8
1
62
256
6
ByLayer
370
13
48
1
60
0
100
AcDbSpline
70
4
71
3
72
8
73
4
40
0
40
0
40
0
40
0
40
1
40
1
40
1
40
1
41
1
10
79.6887890124095
20
-5.06425001553086
30
0
41
1
10
80.4591926749397
20
-3.37321532989026
30
0
41
1
10
81.22959633747
20
-1.68512748539524
30
0
41
1
10
82.0000000000001
20
2.274E-13
30
0
0
SPLINE
5
10A
100
AcDbEntity
8
1
62
256
6
ByLayer
370
13
48
1
60
0
100
AcDbSpline
70
4
71
3
72
8
73
4
40
0
40
0
40
0
40
0
40
1
40
1
40
1
40
1
41
1
10
79.6887890124098
20
5.90443037786437
30
0
41
1
10
80.4591926749396
20
3.93448671056504
30
0
41
1
10
81.2295963374695
20
1.9663379962702
30
0
41
1
10
81.9999999999994
20
1.4779E-12
30
0
0
SPLINE
5
10B
100
AcDbEntity
8
1
62
256
6
ByLayer
370
13
48
1
60
0
100
AcDbSpline
70
4
71
3
72
8
73
4
40
0
40
0
40
0
40
0
40
1
40
1
40
1
40
1
41
1
10
79.6887890124096
20
1.35032373898807
30
0
41
1
10
80.4591926749397
20
0.904996000734457
30
0
41
1
10
81.2295963374699
20
0.454886881313399
30
0
41
1
10
82
20
0
30
0
0
SPLINE
5
10C
100
AcDbEntity
8
1
62
256
6
ByLayer
370
13
48
1
60
0
100
AcDbSpline
70
4
71
3
72
8
73
4
40
0
40
0
40
0
40
0
40
1
40
1
40
1
40
1
41
1
10
79.6887890124095
20
-6.12252796040241
30
0
41
1
10
80.4591926749397
20
-4.08038765089429
30
0
41
1
10
81.22959633747
20
-2.03953954780369
30
0
41
1
10
82.0000000000001
20
2.558E-13
30
0
0
SPLINE
5
10D
100
AcDbEntity
8
1
62
256
6
ByLayer
370
13
48
1
60
0
100
AcDbSpline
70
4
71
3
72
8
73
4
40
0
40
0
40
0
40
0
40
1
40
1
40
1
40
1
41
1
10
79.6887890124096
20
3.55101389263871
30
0
41
1
10
80.4591926749397
20
2.37139822713041
30
0
41
1
10
81.2295963374699
20
1.18772376456869
30
0
41
1
10
82
20
2.84E-14
30
0
0
SPLINE
5
10E
100
AcDbEntity
8
1
62
256
6
ByLayer
370
13
48
1
60
0
100
AcDbSpline
70
4
71
3
72
8
73
4
40
0
40
0
40
0
40
0
40
1
40
1
40
1
40
1
41
1
10
79.6887890124098
20
1.54684149714396
30
0
41
1
10
80.4591926749398
20
1.02648296748649
30
0
41
1
10
81.2295963374698
20
0.510867762203674
30
0
41
1
10
81.9999999999999
20
8.53E-14
30
0
0
SPLINE
5
10F
100
AcDbEntity
8
1
62
256
6
ByLayer
370
13
48
1
60
0
100
AcDbSpline
70
4
71
3
72
8
73
4
40
0
40
0
40
0
40
0
40
1
40
1
40
1
40
1
41
1
10
79.6887890124098
20
-3.11229052152706
30
0
41
1
10
80.4591926749398
20
-2.07912452657794
30
0
41
1
10
81.2295963374698
20
-1.04169157812211
30
0
41
1
10
81.9999999999999
20
-1.705E-13
30
0
0
LINE
5
7D
100
AcDbEntity
8
81
62
256
6
ByLayer
370
18
48
1
60
0
100
AcDbLine
10
82
20
0
30
0
11
87
21
0
31
0
39
0
210
0
220
0
230
1
0
LINE
5
7E
100
AcDbEntity
8
4
62
256
6
ByLayer
370
18
48
0.05
60
0
100
AcDbLine
10
-5
20
0
30
0
11
87
21
0
31
0
39
0
210
0
220
0
230
1
0
LINE
5
80
100
AcDbEntity
8
80
62
256
6
ByLayer
370
18
48
1
60
0
100
AcDbLine
10
0
20
0
30
0
11
-5
21
0
31
0
39
0
210
0
220
0
230
1
0
LINE
5
81
100
AcDbEntity
8
SK4
62
256
6
ByLayer
370
18
48
0.05
60
0
100
AcDbLine
10
-53
20
0
30
0
11
87
21
0
31
0
39
0
210
0
220
0
230
1
0
LINE
5
83
100
AcDbEntity
8
1
62
256
6
ByLayer
370
18
48
1
60
0
100
AcDbLine
10
20.729364
20
-6.1
30
0
11
49.529728
21
-6.1
31
0
39
0
210
0
220
0
230
1
0
LINE
5
84
100
AcDbEntity
8
1
62
256
6
ByLayer
370
18
48
1
60
0
100
AcDbLine
10
49.529728
20
6.1
30
0
11
20.729364
21
6.1
31
0
39
0
210
0
220
0
230
1
0
LINE
5
85
100
AcDbEntity
8
1
62
256
6
ByLayer
370
18
48
1
60
0
100
AcDbLine
10
82
20
0
30
0
11
79.688789
21
6.35
31
0
39
0
210
0
220
0
230
1
0
LINE
5
86
100
AcDbEntity
8
1
62
256
6
ByLayer
370
18
48
1
60
0
100
AcDbLine
10
79.688789
20
-6.35
30
0
11
82
21
0
31
0
39
0
210
0
220
0
230
1
0
LINE
5
87
100
AcDbEntity
8
1
62
256
6
ByLayer
370
18
48
1
60
0
100
AcDbLine
10
3.076719
20
7.372153
30
0
11
0
21
7.9375
31
0
39
0
210
0
220
0
230
1
0
LINE
5
88
100
AcDbEntity
8
1
62
256
6
ByLayer
370
18
48
1
60
0
100
AcDbLine
10
0
20
-7.9375
30
0
11
3.076719
21
-7.372153
31
0
39
0
210
0
220
0
230
1
0
LINE
5
89
100
AcDbEntity
8
1
62
256
6
ByLayer
370
18
48
1
60
0
100
AcDbLine
10
72.6
20
-6.35
30
0
11
79.688789
21
-6.35
31
0
39
0
210
0
220
0
230
1
0
LINE
5
8A
100
AcDbEntity
8
1
62
256
6
ByLayer
370
18
48
1
60
0
100
AcDbLine
10
82
20
0
30
0
11
79.688789
21
6.35
31
0
39
0
210
0
220
0
230
1
0
LINE
5
8B
100
AcDbEntity
8
1
62
256
6
ByLayer
370
18
48
1
60
0
100
AcDbLine
10
79.688789
20
-6.35
30
0
11
82
21
0
31
0
39
0
210
0
220
0
230
1
0
LINE
5
8C
100
AcDbEntity
8
SK1
62
256
6
ByLayer
370
18
48
1
60
0
100
AcDbLine
10
-48
20
-6.9375
30
0
11
-47
21
-7.9375
31
0
39
0
210
0
220
0
230
1
0
LINE
5
8E
100
AcDbEntity
8
SK1
62
256
6
ByLayer
370
18
48
1
60
0
100
AcDbLine
10
-47
20
7.9375
30
0
11
-48
21
6.9375
31
0
39
0
210
0
220
0
230
1
0
LINE
5
8F
100
AcDbEntity
8
SK1
62
256
6
ByLayer
370
18
48
1
60
0
100
AcDbLine
10
-47
20
-7.9375
30
0
11
0
21
-7.9375
31
0
39
0
210
0
220
0
230
1
0
LINE
5
90
100
AcDbEntity
8
SK1
62
256
6
ByLayer
370
18
48
1
60
0
100
AcDbLine
10
0
20
7.9375
30
0
11
-47
21
7.9375
31
0
39
0
210
0
220
0
230
1
0
LINE
5
91
100
AcDbEntity
8
1
62
256
6
ByLayer
370
18
48
1
60
0
100
AcDbLine
10
0
20
7.9375
30
0
11
0
21
-7.9375
31
0
39
0
210
0
220
0
230
1
0
LINE
5
92
100
AcDbEntity
8
1
62
256
6
ByLayer
370
18
48
1
60
0
100
AcDbLine
10
79.688789
20
6.35
30
0
11
79.688789
21
6.148379
31
0
39
0
210
0
220
0
230
1
0
LINE
5
93
100
AcDbEntity
8
1
62
256
6
ByLayer
370
18
48
1
60
0
100
AcDbLine
10
79.688789
20
-6.35
30
0
11
79.688789
21
-0.905103
31
0
39
0
210
0
220
0
230
1
0
LINE
5
94
100
AcDbEntity
8
1
62
256
6
ByLayer
370
18
48
1
60
0
100
AcDbLine
10
10
20
-5.386222
30
0
11
10
21
3.993662
31
0
39
0
210
0
220
0
230
1
0
LINE
5
95
100
AcDbEntity
8
SK1
62
256
6
ByLayer
370
18
48
1
60
0
100
AcDbLine
10
-8.796218
20
-4.876987
30
0
11
-8.796218
21
4.876987
31
0
39
0
210
0
220
0
230
1
0
LINE
5
96
100
AcDbEntity
8
SK1
62
256
6
ByLayer
370
18
48
1
60
0
100
AcDbLine
10
-48
20
-6.9375
30
0
11
-48
21
6.9375
31
0
39
0
210
0
220
0
230
1
0
LINE
5
97
100
AcDbEntity
8
SK1
62
256
6
ByLayer
370
18
48
1
60
0
100
AcDbLine
10
0
20
7.9375
30
0
11
0
21
-7.9375
31
0
39
0
210
0
220
0
230
1
0
LINE
5
98
100
AcDbEntity
8
SK1
62
256
6
ByLayer
370
18
48
1
60
0
100
AcDbLine
10
-47
20
-7.9375
30
0
11
-47
21
7.9375
31
0
39
0
210
0
220
0
230
1
0
LINE
5
99
100
AcDbEntity
8
SK1
62
256
6
ByLayer
370
18
48
1
60
0
100
AcDbLine
10
-8.796218
20
-4.876987
30
0
11
-39.438037
21
-4.876987
31
0
39
0
210
0
220
0
230
1
0
LINE
5
9A
100
AcDbEntity
8
SK1
62
256
6
ByLayer
370
18
48
1
60
0
100
AcDbLine
10
-39.438037
20
4.876987
30
0
11
-8.796218
21
4.876987
31
0
39
0
210
0
220
0
230
1
0
LINE
5
9B
100
AcDbEntity
8
SK1
62
256
6
ByLayer
370
18
48
1
60
0
100
AcDbLine
10
-39.438037
20
-4.876987
30
0
11
-39.438037
21
4.876987
31
0
39
0
210
0
220
0
230
1
0
LINE
5
9C
100
AcDbEntity
8
1
62
256
6
ByLayer
370
18
48
1
60
0
100
AcDbLine
10
79.688789
20
6.35
30
0
11
79.688789
21
-6.35
31
0
39
0
210
0
220
0
230
1
0
LINE
5
9D
100
AcDbEntity
8
1
62
256
6
ByLayer
370
18
48
1
60
0
100
AcDbLine
10
79.688789
20
6.35
30
0
11
79.688789
21
-6.35
31
0
39
0
210
0
220
0
230
1
0
LINE
5
9E
100
AcDbEntity
8
1
62
256
6
ByLayer
370
18
48
1
60
0
100
AcDbLine
10
79.688789
20
6.35
30
0
11
79.688789
21
-6.35
31
0
39
0
210
0
220
0
230
1
0
LINE
5
9F
100
AcDbEntity
8
1
62
256
6
ByLayer
370
18
48
1
60
0
100
AcDbLine
10
72.6
20
6.35
30
0
11
72.6
21
-6.35
31
0
39
0
210
0
220
0
230
1
0
LINE
5
A0
100
AcDbEntity
8
1
62
256
6
ByLayer
370
18
48
1
60
0
100
AcDbLine
10
72.6
20
6.35
30
0
11
72.6
21
-6.35
31
0
39
0
210
0
220
0
230
1
0
LINE
5
A1
100
AcDbEntity
8
1
62
256
6
ByLayer
370
18
48
1
60
0
100
AcDbLine
10
79.688789
20
6.35
30
0
11
79.688789
21
-6.35
31
0
39
0
210
0
220
0
230
1
0
LINE
5
A2
100
AcDbEntity
8
1
62
256
6
ByLayer
370
18
48
1
60
0
100
AcDbLine
10
72.6
20
6.35
30
0
11
72.6
21
-6.35
31
0
39
0
210
0
220
0
230
1
0
LINE
5
A3
100
AcDbEntity
8
1
62
256
6
ByLayer
370
18
48
1
60
0
100
AcDbLine
10
79.688789
20
6.35
30
0
11
79.688789
21
-6.35
31
0
39
0
210
0
220
0
230
1
0
LINE
5
A4
100
AcDbEntity
8
SK2
62
256
6
ByLayer
370
13
48
1
60
0
100
AcDbLine
10
-54.5
20
-7.9375
30
0
11
-54.5
21
36.212183
31
0
39
0
210
0
220
0
230
1
0
LINE
5
A6
100
AcDbEntity
8
SK2
62
256
6
ByLayer
370
13
48
1
60
0
100
AcDbLine
10
-49.5875
20
7.9375
30
0
11
-56.5
21
7.9375
31
0
39
0
210
0
220
0
230
1
0
LINE
5
A7
100
AcDbEntity
8
SK2
62
256
6
ByLayer
370
13
48
1
60
0
100
AcDbLine
10
-49.5875
20
-7.9375
30
0
11
-56.5
21
-7.9375
31
0
39
0
210
0
220
0
230
1
0
LINE
5
A8
100
AcDbEntity
8
1
62
256
6
ByLayer
370
18
48
1
60
1
100
AcDbLine
10
-54.5
20
7.9375
30
0
11
-54.039216
21
4.437502
31
0
39
0
210
0
220
0
230
1
0
LINE
5
A9
100
AcDbEntity
8
1
62
256
6
ByLayer
370
18
48
1
60
1
100
AcDbLine
10
-54.039216
20
4.437502
30
0
11
-54.960784
21
4.437498
31
0
39
0
210
0
220
0
230
1
0
LINE
5
AA
100
AcDbEntity
8
1
62
256
6
ByLayer
370
18
48
1
60
1
100
AcDbLine
10
-54.960784
20
4.437498
30
0
11
-54.5
21
7.9375
31
0
39
0
210
0
220
0
230
1
0
LINE
5
AB
100
AcDbEntity
8
1
62
256
6
ByLayer
370
18
48
1
60
1
100
AcDbLine
10
-54.5
20
-7.9375
30
0
11
-54.960784
21
-4.437502
31
0
39
0
210
0
220
0
230
1
0
LINE
5
AC
100
AcDbEntity
8
1
62
256
6
ByLayer
370
18
48
1
60
1
100
AcDbLine
10
-54.960784
20
-4.437502
30
0
11
-54.039216
21
-4.437498
31
0
39
0
210
0
220
0
230
1
0
LINE
5
AD
100
AcDbEntity
8
1
62
256
6
ByLayer
370
18
48
1
60
1
100
AcDbLine
10
-54.039216
20
-4.437498
30
0
11
-54.5
21
-7.9375
31
0
39
0
210
0
220
0
230
1
0
LINE
5
AE
100
AcDbEntity
8
2
62
256
6
ByLayer
370
13
48
1
60
0
100
AcDbLine
10
89.5
20
-6.35
30
0
11
89.5
21
34.624683
31
0
39
0
210
0
220
0
230
1
0
LINE
5
B0
100
AcDbEntity
8
2
62
256
6
ByLayer
370
13
48
1
60
0
100
AcDbLine
10
81.276289
20
6.35
30
0
11
91.5
21
6.35
31
0
39
0
210
0
220
0
230
1
0
LINE
5
B1
100
AcDbEntity
8
2
62
256
6
ByLayer
370
13
48
1
60
0
100
AcDbLine
10
81.276289
20
-6.35
30
0
11
91.5
21
-6.35
31
0
39
0
210
0
220
0
230
1
0
LINE
5
B2
100
AcDbEntity
8
1
62
256
6
ByLayer
370
18
48
1
60
1
100
AcDbLine
10
89.5
20
6.35
30
0
11
89.960784
21
2.850002
31
0
39
0
210
0
220
0
230
1
0
LINE
5
B3
100
AcDbEntity
8
1
62
256
6
ByLayer
370
18
48
1
60
1
100
AcDbLine
10
89.960784
20
2.850002
30
0
11
89.039216
21
2.849998
31
0
39
0
210
0
220
0
230
1
0
LINE
5
B4
100
AcDbEntity
8
1
62
256
6
ByLayer
370
18
48
1
60
1
100
AcDbLine
10
89.039216
20
2.849998
30
0
11
89.5
21
6.35
31
0
39
0
210
0
220
0
230
1
0
LINE
5
B5
100
AcDbEntity
8
1
62
256
6
ByLayer
370
18
48
1
60
1
100
AcDbLine
10
89.5
20
-6.35
30
0
11
89.039216
21
-2.850002
31
0
39
0
210
0
220
0
230
1
0
LINE
5
B6
100
AcDbEntity
8
1
62
256
6
ByLayer
370
18
48
1
60
1
100
AcDbLine
10
89.039216
20
-2.850002
30
0
11
89.960784
21
-2.849998
31
0
39
0
210
0
220
0
230
1
0
LINE
5
B7
100
AcDbEntity
8
1
62
256
6
ByLayer
370
18
48
1
60
1
100
AcDbLine
10
89.960784
20
-2.849998
30
0
11
89.5
21
-6.35
31
0
39
0
210
0
220
0
230
1
0
LINE
5
B8
100
AcDbEntity
8
SK2
62
256
6
ByLayer
370
13
48
1
60
0
100
AcDbLine
10
82.542957
20
-1.491762
30
0
11
89.182423
21
-19.733545
31
0
39
0
210
0
220
0
230
1
0
LINE
5
B9
100
AcDbEntity
8
SK2
62
256
6
ByLayer
370
13
48
1
60
0
100
AcDbLine
10
82.542957
20
1.491762
30
0
11
89.182423
21
19.733545
31
0
39
0
210
0
220
0
230
1
0
LINE
5
BA
100
AcDbEntity
8
1
62
256
6
ByLayer
370
18
48
1
60
1
100
AcDbLine
10
88.498383
20
-17.85416
30
0
11
91.551575
21
-16.082064
31
0
39
0
210
0
220
0
230
1
0
LINE
5
BB
100
AcDbEntity
8
1
62
256
6
ByLayer
370
18
48
1
60
1
100
AcDbLine
10
91.551575
20
-16.082064
30
0
11
91.906196
21
-16.93267
31
0
39
0
210
0
220
0
230
1
0
LINE
5
BC
100
AcDbEntity
8
1
62
256
6
ByLayer
370
18
48
1
60
1
100
AcDbLine
10
91.906196
20
-16.93267
30
0
11
88.498383
21
-17.85416
31
0
39
0
210
0
220
0
230
1
0
LINE
5
BD
100
AcDbEntity
8
1
62
256
6
ByLayer
370
18
48
1
60
1
100
AcDbLine
10
88.498383
20
17.85416
30
0
11
91.906193
21
16.932671
31
0
39
0
210
0
220
0
230
1
0
LINE
5
BE
100
AcDbEntity
8
1
62
256
6
ByLayer
370
18
48
1
60
1
100
AcDbLine
10
91.906193
20
16.932671
30
0
11
91.551579
21
16.082063
31
0
39
0
210
0
220
0
230
1
0
LINE
5
BF
100
AcDbEntity
8
1
62
256
6
ByLayer
370
18
48
1
60
1
100
AcDbLine
10
91.551579
20
16.082063
30
0
11
88.498383
21
17.85416
31
0
39
0
210
0
220
0
230
1
0
LINE
5
114
100
AcDbEntity
8
1
62
256
6
ByLayer
370
18
48
1
60
1
100
AcDbLine
10
-54.5
20
7.9375
30
0
11
-54.039216
21
4.437502
31
0
39
0
210
0
220
0
230
1
0
LINE
5
115
100
AcDbEntity
8
1
62
256
6
ByLayer
370
18
48
1
60
1
100
AcDbLine
10
-54.039216
20
4.437502
30
0
11
-54.960784
21
4.437498
31
0
39
0
210
0
220
0
230
1
0
LINE
5
116
100
AcDbEntity
8
1
62
256
6
ByLayer
370
18
48
1
60
1
100
AcDbLine
10
-54.960784
20
4.437498
30
0
11
-54.5
21
7.9375
31
0
39
0
210
0
220
0
230
1
0
LINE
5
118
100
AcDbEntity
8
1
62
256
6
ByLayer
370
18
48
1
60
1
100
AcDbLine
10
-54.5
20
-7.9375
30
0
11
-54.960784
21
-4.437502
31
0
39
0
210
0
220
0
230
1
0
LINE
5
119
100
AcDbEntity
8
1
62
256
6
ByLayer
370
18
48
1
60
1
100
AcDbLine
10
-54.960784
20
-4.437502
30
0
11
-54.039216
21
-4.437498
31
0
39
0
210
0
220
0
230
1
0
LINE
5
11A
100
AcDbEntity
8
1
62
256
6
ByLayer
370
18
48
1
60
1
100
AcDbLine
10
-54.039216
20
-4.437498
30
0
11
-54.5
21
-7.9375
31
0
39
0
210
0
220
0
230
1
0
LINE
5
11E
100
AcDbEntity
8
1
62
256
6
ByLayer
370
18
48
1
60
1
100
AcDbLine
10
89.5
20
6.35
30
0
11
89.960784
21
2.850002
31
0
39
0
210
0
220
0
230
1
0
LINE
5
11F
100
AcDbEntity
8
1
62
256
6
ByLayer
370
18
48
1
60
1
100
AcDbLine
10
89.960784
20
2.850002
30
0
11
89.039216
21
2.849998
31
0
39
0
210
0
220
0
230
1
0
LINE
5
120
100
AcDbEntity
8
1
62
256
6
ByLayer
370
18
48
1
60
1
100
AcDbLine
10
89.039216
20
2.849998
30
0
11
89.5
21
6.35
31
0
39
0
210
0
220
0
230
1
0
LINE
5
122
100
AcDbEntity
8
1
62
256
6
ByLayer
370
18
48
1
60
1
100
AcDbLine
10
89.5
20
-6.35
30
0
11
89.039216
21
-2.850002
31
0
39
0
210
0
220
0
230
1
0
LINE
5
123
100
AcDbEntity
8
1
62
256
6
ByLayer
370
18
48
1
60
1
100
AcDbLine
10
89.039216
20
-2.850002
30
0
11
89.960784
21
-2.849998
31
0
39
0
210
0
220
0
230
1
0
LINE
5
124
100
AcDbEntity
8
1
62
256
6
ByLayer
370
18
48
1
60
1
100
AcDbLine
10
89.960784
20
-2.849998
30
0
11
89.5
21
-6.35
31
0
39
0
210
0
220
0
230
1
0
LINE
5
127
100
AcDbEntity
8
1
62
256
6
ByLayer
370
18
48
1
60
1
100
AcDbLine
10
88.498383
20
-17.85416
30
0
11
91.551575
21
-16.082064
31
0
39
0
210
0
220
0
230
1
0
LINE
5
128
100
AcDbEntity
8
1
62
256
6
ByLayer
370
18
48
1
60
1
100
AcDbLine
10
91.551575
20
-16.082064
30
0
11
91.906196
21
-16.93267
31
0
39
0
210
0
220
0
230
1
0
LINE
5
129
100
AcDbEntity
8
1
62
256
6
ByLayer
370
18
48
1
60
1
100
AcDbLine
10
91.906196
20
-16.93267
30
0
11
88.498383
21
-17.85416
31
0
39
0
210
0
220
0
230
1
0
LINE
5
12B
100
AcDbEntity
8
1
62
256
6
ByLayer
370
18
48
1
60
1
100
AcDbLine
10
88.498383
20
17.85416
30
0
11
91.906193
21
16.932671
31
0
39
0
210
0
220
0
230
1
0
LINE
5
12C
100
AcDbEntity
8
1
62
256
6
ByLayer
370
18
48
1
60
1
100
AcDbLine
10
91.906193
20
16.932671
30
0
11
91.551579
21
16.082063
31
0
39
0
210
0
220
0
230
1
0
LINE
5
12D
100
AcDbEntity
8
1
62
256
6
ByLayer
370
18
48
1
60
1
100
AcDbLine
10
91.551579
20
16.082063
30
0
11
88.498383
21
17.85416
31
0
39
0
210
0
220
0
230
1
0
MTEXT
5
110
100
AcDbEntity
8
SK2
62
256
6
ByLayer
370
18
48
1
60
0
100
AcDbMText
10
-55.841114
20
19.595938
30
0
210
0
220
0
230
1
1
%%c
40
3
41
0
44
1.084337
50
90
71
7
72
5
7
iso_b_vert
0
MTEXT
5
113
100
AcDbEntity
8
SK2
62
256
6
ByLayer
370
18
48
1
60
0
100
AcDbMText
10
-55.841114
20
25.5725
30
0
210
0
220
0
230
1
1
\W0.7022;15.875
40
3
41
0
44
1.084337
50
90
71
7
72
5
7
iso_b_vert
0
MTEXT
5
11C
100
AcDbEntity
8
2
62
256
6
ByLayer
370
18
48
1
60
0
100
AcDbMText
10
88.158886
20
18.008438
30
0
210
0
220
0
230
1
1
%%c
40
3
41
0
44
1.084337
50
90
71
7
72
5
7
iso_b_vert
0
MTEXT
5
11D
100
AcDbEntity
8
2
62
256
6
ByLayer
370
18
48
1
60
0
100
AcDbMText
10
88.158886
20
23.985
30
0
210
0
220
0
230
1
1
\W0.7022;12.700
40
3
41
0
44
1.084337
50
90
71
7
72
5
7
iso_b_vert
0
MTEXT
5
126
100
AcDbEntity
8
SK2
62
256
6
ByLayer
370
18
48
1
60
0
100
AcDbMText
10
101.909114
20
3.734657
30
0
210
0
220
0
230
1
1
\W0.7071;140%%d
40
3
41
0
44
1.084337
50
270
71
7
72
5
7
iso_b_vert
0
MTEXT
5
12F
100
AcDbEntity
8
SK6
62
256
6
ByLayer
370
18
48
1
60
0
100
AcDbMText
10
-5.992969
20
-67.114886
30
0
210
0
220
0
230
1
1
\W0.7494;H8551/2
40
3
41
0
44
1.084337
50
0
71
7
72
5
7
iso_b_vert
0
HATCH
5
117
100
AcDbEntity
8
SK2
62
256
6
ByLayer
370
13
48
1
60
0
100
AcDbHatch
10
0
20
0
30
0
210
0
220
0
230
1
2
ANSI31
70
0
71
0
91
1
92
5
93
3
72
1
10
-54.5
20
7.9375
11
-54.0392162584472
21
4.43750169255318
72
1
10
-54.0392162584472
20
4.43750169255318
11
-54.9607837415528
21
4.43749830744682
72
1
10
-54.9607837415528
20
4.43749830744682
11
-54.5
21
7.9375
97
0
75
0
76
1
52
0
41
0.0062
77
0
78
1
53
45
43
0
44
0
45
-0.0139193969876572
46
0.0139193969876572
79
0
47
0
98
1
10
0
20
0
0
HATCH
5
11B
100
AcDbEntity
8
SK2
62
256
6
ByLayer
370
13
48
1
60
0
100
AcDbHatch
10
0
20
0
30
0
210
0
220
0
230
1
2
ANSI31
70
0
71
0
91
1
92
5
93
3
72
1
10
-54.5
20
-7.9375
11
-54.9607837415528
21
-4.43750169255318
72
1
10
-54.9607837415528
20
-4.43750169255318
11
-54.0392162584472
21
-4.43749830744682
72
1
10
-54.0392162584472
20
-4.43749830744682
11
-54.5
21
-7.9375
97
0
75
0
76
1
52
0
41
0.0062
77
0
78
1
53
45
43
0
44
0
45
-0.0139193969876572
46
0.0139193969876572
79
0
47
0
98
1
10
0
20
0
0
HATCH
5
121
100
AcDbEntity
8
2
62
256
6
ByLayer
370
13
48
1
60
0
100
AcDbHatch
10
0
20
0
30
0
210
0
220
0
230
1
2
ANSI31
70
0
71
0
91
1
92
5
93
3
72
1
10
89.5
20
6.35000000000002
11
89.9607837415528
21
2.85000169255321
72
1
10
89.9607837415528
20
2.85000169255321
11
89.0392162584472
21
2.84999830744684
72
1
10
89.0392162584472
20
2.84999830744684
11
89.5
21
6.35000000000002
97
0
75
0
76
1
52
0
41
0.0062
77
0
78
1
53
45
43
0
44
0
45
-0.0139193969876572
46
0.0139193969876572
79
0
47
0
98
1
10
0
20
0
0
HATCH
5
125
100
AcDbEntity
8
2
62
256
6
ByLayer
370
13
48
1
60
0
100
AcDbHatch
10
0
20
0
30
0
210
0
220
0
230
1
2
ANSI31
70
0
71
0
91
1
92
5
93
3
72
1
10
89.5
20
-6.34999999999999
11
89.0392162584472
21
-2.85000169255318
72
1
10
89.0392162584472
20
-2.85000169255318
11
89.9607837415528
21
-2.84999830744681
72
1
10
89.9607837415528
20
-2.84999830744681
11
89.5
21
-6.34999999999999
97
0
75
0
76
1
52
0
41
0.0062
77
0
78
1
53
45
43
0
44
0
45
-0.0139193969876572
46
0.0139193969876572
79
0
47
0
98
1
10
0
20
0
0
HATCH
5
12A
100
AcDbEntity
8
SK2
62
256
6
ByLayer
370
13
48
1
60
0
100
AcDbHatch
10
0
20
0
30
0
210
0
220
0
230
1
2
ANSI31
70
0
71
0
91
1
92
5
93
3
72
1
10
88.4983827231877
20
-17.8541597949322
11
91.5515754256929
21
-16.0820638240608
72
1
10
91.5515754256929
20
-16.0820638240608
11
91.906195833975
21
-16.9326700737196
72
1
10
91.906195833975
20
-16.9326700737196
11
88.4983827231877
21
-17.8541597949322
97
0
75
0
76
1
52
0
41
0.0062
77
0
78
1
53
45
43
0
44
0
45
-0.0139193969876572
46
0.0139193969876572
79
0
47
0
98
1
10
0
20
0
0
HATCH
5
12E
100
AcDbEntity
8
SK2
62
256
6
ByLayer
370
13
48
1
60
0
100
AcDbHatch
10
0
20
0
30
0
210
0
220
0
230
1
2
ANSI31
70
0
71
0
91
1
92
5
93
3
72
1
10
88.4983827231877
20
17.8541597949322
11
91.906192709519
21
16.9326713763016
72
1
10
91.906192709519
20
16.9326713763016
11
91.5515785501489
21
16.0820625214788
72
1
10
91.5515785501489
20
16.0820625214788
11
88.4983827231877
21
17.8541597949322
97
0
75
0
76
1
52
0
41
0.0062
77
0
78
1
53
45
43
0
44
0
45
-0.0139193969876572
46
0.0139193969876572
79
0
47
0
98
1
10
0
20
0
0
DIMENSION
5
132
100
AcDbEntity
8
SK2
62
256
6
ByLayer
370
18
48
1
60
0
100
AcDbDimension
2
_U0
10
82
20
-45.952229
30
0
11
17
21
-45.952229
31
0
70
32
71
1
72
1
41
1
210
0
220
0
230
1
3
Standard
100
AcDbAlignedDimension
13
-48
23
-7.9375
33
0
14
82
24
0
34
0
50
0
100
AcDbRotatedDimension
1001
ACAD
1000
DSTYLE
1002
{
1070
   371
1070
    13
1070
   372
1070
    13
1070
     3
1000

1070
   170
1070
     0
1070
   144
1040
1.0
1070
   277
1070
     2
1070
   284
1070
     8
1070
   278
1070
    46
1070
   146
1040
1.166667
1070
   345
1005
16
1070
   347
1005
16
1070
   346
1005
16
1070
   344
1005
0
1070
   343
1005
0
1070
   172
1070
     1
1070
    76
1070
     0
1070
    75
1070
     0
1070
   282
1070
     0
1070
   281
1070
     0
1070
    71
1070
     0
1070
    74
1070
     0
1070
   279
1070
     0
1070
   173
1070
     1
1070
   340
1005
111
1070
   271
1070
     2
1070
   272
1070
     3
1070
    77
1070
     1
1070
    73
1070
     1
1070
   171
1070
     3
1070
   274
1070
     4
1070
   177
1070
     2
1070
   176
1070
     2
1070
   178
1070
     2
1070
    78
1070
     8
1070
    48
1040
-0.1
1070
    41
1040
3.5
1070
   147
1040
1.5
1070
    42
1040
1.5875
1070
    44
1040
2.0
1070
   140
1040
3.0
1002
}
1001
ACAD_DSTYLE_DIM_LINETYPE
1070
   380
1005
16
1001
ACAD_DSTYLE_DIM_EXT1_LINETYPE
1070
   381
1005
16
1001
ACAD_DSTYLE_DIM_EXT2_LINETYPE
1070
   382
1005
16
0
DIMENSION
5
14B
100
AcDbEntity
8
SK2
62
256
6
ByLayer
370
18
48
1
60
0
100
AcDbDimension
2
_U1
10
3
20
-35.952229
30
0
11
42.5
21
-35.952229
31
0
70
32
71
1
72
1
41
1
210
0
220
0
230
1
3
Standard
100
AcDbAlignedDimension
13
82
23
0
33
0
14
3
24
-6.35
34
0
50
0
100
AcDbRotatedDimension
1001
ACAD
1000
DSTYLE
1002
{
1070
   371
1070
    13
1070
   372
1070
    13
1070
     3
1000

1070
   170
1070
     0
1070
   144
1040
1.0
1070
   277
1070
     2
1070
   284
1070
     8
1070
   278
1070
    46
1070
   146
1040
1.166667
1070
   345
1005
16
1070
   347
1005
16
1070
   346
1005
16
1070
   344
1005
0
1070
   343
1005
0
1070
   172
1070
     1
1070
    76
1070
     0
1070
    75
1070
     0
1070
   282
1070
     0
1070
   281
1070
     0
1070
    71
1070
     0
1070
    74
1070
     0
1070
   279
1070
     0
1070
   173
1070
     1
1070
   340
1005
111
1070
   271
1070
     2
1070
   272
1070
     3
1070
    77
1070
     1
1070
    73
1070
     1
1070
   171
1070
     3
1070
   274
1070
     4
1070
   177
1070
     2
1070
   176
1070
     2
1070
   178
1070
     2
1070
    78
1070
     8
1070
    48
1040
-0.1
1070
    41
1040
3.5
1070
   147
1040
1.5
1070
    42
1040
1.5875
1070
    44
1040
2.0
1070
   140
1040
3.0
1002
}
1001
ACAD_DSTYLE_DIM_LINETYPE
1070
   380
1005
16
1001
ACAD_DSTYLE_DIM_EXT1_LINETYPE
1070
   381
1005
16
1001
ACAD_DSTYLE_DIM_EXT2_LINETYPE
1070
   382
1005
16
0
DIMENSION
5
163
100
AcDbEntity
8
SK2
62
256
6
ByLayer
370
18
48
1
60
0
100
AcDbDimension
2
_U2
10
0
20
-35.952229
30
0
11
-24
21
-35.952229
31
0
70
32
71
1
72
1
41
1
210
0
220
0
230
1
3
Standard
100
AcDbAlignedDimension
13
-48
23
-7.9375
33
0
14
0
24
-7.9375
34
0
50
0
100
AcDbRotatedDimension
1001
ACAD
1000
DSTYLE
1002
{
1070
   371
1070
    13
1070
   372
1070
    13
1070
     3
1000

1070
   170
1070
     0
1070
   144
1040
1.0
1070
   277
1070
     2
1070
   284
1070
     8
1070
   278
1070
    46
1070
   146
1040
1.166667
1070
   345
1005
16
1070
   347
1005
16
1070
   346
1005
16
1070
   344
1005
0
1070
   343
1005
0
1070
   172
1070
     1
1070
    76
1070
     0
1070
    75
1070
     0
1070
   282
1070
     0
1070
   281
1070
     0
1070
    71
1070
     0
1070
    74
1070
     0
1070
   279
1070
     0
1070
   173
1070
     1
1070
   340
1005
111
1070
   271
1070
     2
1070
   272
1070
     3
1070
    77
1070
     1
1070
    73
1070
     1
1070
   171
1070
     3
1070
   274
1070
     4
1070
   177
1070
     2
1070
   176
1070
     2
1070
   178
1070
     2
1070
    78
1070
     8
1070
    48
1040
-0.1
1070
    41
1040
3.5
1070
   147
1040
1.5
1070
    42
1040
1.5875
1070
    44
1040
2.0
1070
   140
1040
3.0
1002
}
1001
ACAD_DSTYLE_DIM_LINETYPE
1070
   380
1005
16
1001
ACAD_DSTYLE_DIM_EXT1_LINETYPE
1070
   381
1005
16
1001
ACAD_DSTYLE_DIM_EXT2_LINETYPE
1070
   382
1005
16
0
DIMENSION
5
17B
100
AcDbEntity
8
SK2
62
256
6
ByLayer
370
18
48
1
60
0
100
AcDbDimension
2
_U3
10
13
20
32.952229
30
0
11
47.5
21
32.952229
31
0
70
32
71
1
72
1
41
1
210
0
220
0
230
1
3
Standard
100
AcDbAlignedDimension
13
82
23
0
33
0
14
13
24
6.35
34
0
50
0
100
AcDbRotatedDimension
1001
ACAD
1000
DSTYLE
1002
{
1070
   371
1070
    13
1070
   372
1070
    13
1070
     3
1000

1070
   170
1070
     0
1070
   144
1040
1.0
1070
   277
1070
     2
1070
   284
1070
     8
1070
   278
1070
    46
1070
   146
1040
1.166667
1070
   345
1005
16
1070
   347
1005
16
1070
   346
1005
16
1070
   344
1005
0
1070
   343
1005
0
1070
   172
1070
     1
1070
    76
1070
     0
1070
    75
1070
     0
1070
   282
1070
     0
1070
   281
1070
     0
1070
    71
1070
     0
1070
    74
1070
     0
1070
   279
1070
     0
1070
   173
1070
     1
1070
   340
1005
111
1070
   271
1070
     2
1070
   272
1070
     3
1070
    77
1070
     1
1070
    73
1070
     1
1070
   171
1070
     3
1070
   274
1070
     4
1070
   177
1070
     2
1070
   176
1070
     2
1070
   178
1070
     2
1070
    78
1070
     8
1070
    48
1040
-0.1
1070
    41
1040
3.5
1070
   147
1040
1.5
1070
    42
1040
1.5875
1070
    44
1040
2.0
1070
   140
1040
3.0
1002
}
1001
ACAD_DSTYLE_DIM_LINETYPE
1070
   380
1005
16
1001
ACAD_DSTYLE_DIM_EXT1_LINETYPE
1070
   381
1005
16
1001
ACAD_DSTYLE_DIM_EXT2_LINETYPE
1070
   382
1005
16
0
ENDSEC
0
SECTION
2
OBJECTS
0
DICTIONARY
5
203
330
0
100
AcDbDictionary
280
0
281
1
3
ACAD_GROUP
350
204
3
ACAD_MLINESTYLE
350
205
0
DICTIONARY
5
204
330
0
100
AcDbDictionary
280
0
281
1
0
DICTIONARY
5
205
330
0
100
AcDbDictionary
280
0
281
1
3
Standard
350
18
0
MLINESTYLE
5
18
330
205
100
AcDbMlineStyle
2
Standard
70
0
3

62
256
51
90
52
90
71
2
49
-0.5
62
256
6
ByLayer
49
0.5
62
256
6
ByLayer
0
RASTERVARIABLES
5
1f1
330

100
AcDbRasterVariables
90
0
70
1
71
1
72
1
0
ENDSEC
0
EOF
