0
SECTION
2
HEADER
9
$ACADVER
1
AC1015
9
$DWGCODEPAGE
3
ANSI_1252
9
$HANDSEED
5
22e
9
$ANGBASE
50
0
9
$ANGDIR
70
0
9
$ATTMODE
70
1
9
$AUNITS
70
0
9
$AUPREC
70
0
9
$CECOLOR
62
256
9
$CELTSCALE
40
1
9
$CELTYPE
6
ByLayer
9
$CELWEIGHT
370
18
9
$CLAYER
8
0
9
$CMLJUST
70
0
9
$CMLSCALE
40
1
9
$CMLSTYLE
2
Standard
9
$DIMSTYLE
2
Standard
9
$TEXTSIZE
40
0.2
9
$TEXTSTYLE
7
Standard
9
$LUNITS
70
2
9
$LUPREC
70
4
9
$EXTNAMES
290
1
9
$INSUNITS
70
4
9
$LTSCALE
40
1
9
$LWDISPLAY
290
1
9
$PDMODE
70
0
9
$PDSIZE
40
0
9
$PLINEGEN
70
0
0
ENDSEC
0
SECTION
2
CLASSES
0
CLASS
1
RASTERVARIABLES
2
AcDbRasterVariables
3
ISM
90
0
280
0
281
0
0
ENDSEC
0
SECTION
2
TABLES
0
TABLE
2
VPORT
5
224
100
AcDbSymbolTable
0
VPORT
5
1
100
AcDbSymbolTableRecord
100
AcDbViewportTableRecord
2
*Active
70
0
10
0
20
0
11
1
21
1
12
-1
22
1
13
0
23
0
14
0.5
24
0.5
15
10
25
10
16
0
26
0
36
1
17
0
27
0
37
0
0
ENDTAB
0
TABLE
2
LTYPE
5
225
100
AcDbSymbolTable
0
LTYPE
5
14
100
AcDbSymbolTableRecord
100
AcDbLinetypeTableRecord
70
0
2
ByBlock
3

72
65
73
0
40
0
0
LTYPE
5
15
100
AcDbSymbolTableRecord
100
AcDbLinetypeTableRecord
70
0
2
ByLayer
3

72
65
73
0
40
0
0
LTYPE
5
16
100
AcDbSymbolTableRecord
100
AcDbLinetypeTableRecord
70
0
2
Continuous
3
Solid line
72
65
73
0
40
0
0
LTYPE
5
6E
100
AcDbSymbolTableRecord
100
AcDbLinetypeTableRecord
70
0
2
CENTER
3
____ _ ____ _ ____ _ ____
72
65
73
4
40
47.5
49
22
74
0
49
-8.5
74
0
49
8.5
74
0
49
-8.5
74
0
0
LTYPE
5
6F
100
AcDbSymbolTableRecord
100
AcDbLinetypeTableRecord
70
0
2
DASHED
3
__ __ __ __ __ __ __ __ __
72
65
73
2
40
25.72
49
12.86
74
0
49
-12.86
74
0
0
ENDTAB
0
TABLE
2
LAYER
5
226
100
AcDbSymbolTable
0
LAYER
5
10
100
AcDbSymbolTableRecord
100
AcDbLayerTableRecord
2
0
70
0
62
7
6
Continuous
290
1
370
-3
390
0
0
LAYER
5
71
100
AcDbSymbolTableRecord
100
AcDbLayerTableRecord
2
80
70
0
62
-6
6
Continuous
290
1
370
-3
390
0
0
LAYER
5
73
100
AcDbSymbolTableRecord
100
AcDbLayerTableRecord
2
81
70
0
62
-3
6
Continuous
290
1
370
-3
390
0
0
LAYER
5
75
100
AcDbSymbolTableRecord
100
AcDbLayerTableRecord
2
1
70
0
62
4
6
Continuous
290
1
370
-3
390
0
0
LAYER
5
7F
100
AcDbSymbolTableRecord
100
AcDbLayerTableRecord
2
4
70
0
62
-2
6
CENTER
290
1
370
-3
390
0
0
LAYER
5
B0
100
AcDbSymbolTableRecord
100
AcDbLayerTableRecord
2
2
70
0
62
7
6
Continuous
290
1
370
-3
390
0
0
LAYER
5
153
100
AcDbSymbolTableRecord
100
AcDbLayerTableRecord
2
Defpoints
70
0
62
7
6
Continuous
290
0
370
-3
390
0
0
LAYER
5
210
100
AcDbSymbolTableRecord
100
AcDbLayerTableRecord
2
SK4
70
0
62
2
6
CENTER
290
1
370
-3
390
0
0
LAYER
5
211
100
AcDbSymbolTableRecord
100
AcDbLayerTableRecord
2
SK1
70
0
62
4
6
Continuous
290
1
370
-3
390
0
0
LAYER
5
212
100
AcDbSymbolTableRecord
100
AcDbLayerTableRecord
2
SK2
70
0
62
7
6
Continuous
290
1
370
-3
390
0
0
LAYER
5
213
100
AcDbSymbolTableRecord
100
AcDbLayerTableRecord
2
SK6
70
0
62
5
6
Continuous
290
1
370
-3
390
0
0
ENDTAB
0
TABLE
2
STYLE
5
227
100
AcDbSymbolTable
0
STYLE
5
11
100
AcDbSymbolTableRecord
100
AcDbTextStyleTableRecord
2
Standard
3
txt
70
0
71
0
40
0
41
1
42
0
50
0
0
STYLE
5
12F
100
AcDbSymbolTableRecord
100
AcDbTextStyleTableRecord
2
iso_b_vert
3
simplex.shx
70
0
71
0
40
0
41
1
42
0
50
0
0
STYLE
5
130
100
AcDbSymbolTableRecord
100
AcDbTextStyleTableRecord
2
DWGDirectTextStyle
3
simplex
70
0
71
0
40
0
41
1
42
0
50
0
0
ENDTAB
0
TABLE
2
DIMSTYLE
5
228
100
AcDbSymbolTable
100
AcDbDimStyleTable
0
DIMSTYLE
105
27
100
AcDbSymbolTableRecord
100
AcDbDimStyleTableRecord
2
Standard
70
0
3
<>
41
0.18
42
0.0625
44
0.18
140
0.18
147
0.09
73
0
74
0
77
1
271
2
275
0
278
52
280
0
340
11
0
ENDTAB
0
TABLE
2
VIEW
5
229
100
AcDbSymbolTable
0
ENDTAB
0
TABLE
2
UCS
5
22a
100
AcDbSymbolTable
0
ENDTAB
0
TABLE
2
APPID
5
22b
100
AcDbSymbolTable
0
APPID
5
12
100
AcDbSymbolTableRecord
100
AcDbRegAppTableRecord
2
ACAD
70
0
0
APPID
5
14F
100
AcDbSymbolTableRecord
100
AcDbRegAppTableRecord
2
ACAD_DSTYLE_DIMBREAK
70
0
0
APPID
5
1CF
100
AcDbSymbolTableRecord
100
AcDbRegAppTableRecord
2
ACAD_DSTYLE_DIM_LINETYPE
70
0
0
APPID
5
1D0
100
AcDbSymbolTableRecord
100
AcDbRegAppTableRecord
2
ACAD_DSTYLE_DIM_EXT1_LINETYPE
70
0
0
APPID
5
1D1
100
AcDbSymbolTableRecord
100
AcDbRegAppTableRecord
2
ACAD_DSTYLE_DIM_EXT2_LINETYPE
70
0
0
APPID
5
20C
100
AcDbSymbolTableRecord
100
AcDbRegAppTableRecord
2
ACAD_MLEADERVER
70
0
0
ENDTAB
0
TABLE
2
BLOCK_RECORD
5
22c
100
AcDbSymbolTable
0
BLOCK_RECORD
5
1F
100
AcDbSymbolTableRecord
100
AcDbBlockTableRecord
2
*Model_Space
340
0
70
0
0
BLOCK_RECORD
5
1B
100
AcDbSymbolTableRecord
100
AcDbBlockTableRecord
2
*Paper_Space
340
0
70
0
0
BLOCK_RECORD
5
23
100
AcDbSymbolTableRecord
100
AcDbBlockTableRecord
2
*Paper_Space0
340
0
70
0
0
BLOCK_RECORD
5
154
100
AcDbSymbolTableRecord
100
AcDbBlockTableRecord
2
*D1
340
0
70
0
0
BLOCK_RECORD
5
160
100
AcDbSymbolTableRecord
100
AcDbBlockTableRecord
2
_U0
340
0
70
0
0
BLOCK_RECORD
5
16C
100
AcDbSymbolTableRecord
100
AcDbBlockTableRecord
2
*D3
340
0
70
0
0
BLOCK_RECORD
5
178
100
AcDbSymbolTableRecord
100
AcDbBlockTableRecord
2
_U1
340
0
70
0
0
BLOCK_RECORD
5
184
100
AcDbSymbolTableRecord
100
AcDbBlockTableRecord
2
*D5
340
0
70
0
0
BLOCK_RECORD
5
190
100
AcDbSymbolTableRecord
100
AcDbBlockTableRecord
2
_U2
340
0
70
0
0
BLOCK_RECORD
5
19C
100
AcDbSymbolTableRecord
100
AcDbBlockTableRecord
2
*D7
340
0
70
0
0
BLOCK_RECORD
5
1A8
100
AcDbSymbolTableRecord
100
AcDbBlockTableRecord
2
_U3
340
0
70
0
0
ENDTAB
0
ENDSEC
0
SECTION
2
BLOCKS
0
BLOCK
5
20
100
AcDbEntity
8
0
100
AcDbBlockBegin
2
*Model_Space
70
0
10
0
20
0
30
0
3
*Model_Space
0
ENDBLK
5
21
100
AcDbEntity
8
0
100
AcDbBlockEnd
0
BLOCK
5
1C
100
AcDbEntity
8
0
100
AcDbBlockBegin
2
*Paper_Space
70
0
10
0
20
0
30
0
3
*Paper_Space
0
ENDBLK
5
1D
100
AcDbEntity
8
0
100
AcDbBlockEnd
0
BLOCK
5
24
100
AcDbEntity
8
0
100
AcDbBlockBegin
2
*Paper_Space0
70
0
10
0
20
0
30
0
3
*Paper_Space0
0
ENDBLK
5
25
100
AcDbEntity
8
0
100
AcDbBlockEnd
0
BLOCK
5
155
100
AcDbEntity
8
0
100
AcDbBlockBegin
2
*D1
70
1
10
0
20
0
30
0
3
*D1
0
LINE
5
157
100
AcDbEntity
8
0
62
256
6
ByLayer
370
-2
48
1
60
0
100
AcDbLine
10
-56
20
-14.2875
30
0
11
-56
21
-47.952229
31
0
39
0
210
0
220
0
230
1
0
LINE
5
158
100
AcDbEntity
8
0
62
256
6
ByLayer
370
-2
48
1
60
0
100
AcDbLine
10
100.5
20
-1.5875
30
0
11
100.5
21
-47.952229
31
0
39
0
210
0
220
0
230
1
0
LINE
5
159
100
AcDbEntity
8
0
62
256
6
ByLayer
370
-2
48
1
60
0
100
AcDbLine
10
-52.5
20
-45.952229
30
0
11
97
21
-45.952229
31
0
39
0
210
0
220
0
230
1
0
SOLID
5
15A
100
AcDbEntity
8
0
62
256
6
ByLayer
370
-1
48
1
60
0
100
AcDbTrace
10
-52.5
20
-45.368896
30
0
11
-52.5
21
-46.535563
31
0
12
-56
22
-45.952229
32
0
13
-56
23
-45.952229
33
0
39
0
210
0
220
0
230
1
0
SOLID
5
15B
100
AcDbEntity
8
0
62
256
6
ByLayer
370
-1
48
1
60
0
100
AcDbTrace
10
97
20
-46.535563
30
0
11
97
21
-45.368896
31
0
12
100.5
22
-45.952229
32
0
13
100.5
23
-45.952229
33
0
39
0
210
0
220
0
230
1
0
MTEXT
5
15C
100
AcDbEntity
8
0
62
256
6
ByLayer
370
18
48
1
60
0
100
AcDbMText
10
22.25
20
-39.952229
30
0
210
0
220
0
230
1
1
\A1;156.5
40
3
41
0
44
1
50
0
71
5
72
5
7
iso_b_vert
0
POINT
5
15D
100
AcDbEntity
8
Defpoints
62
0
6
ByLayer
370
-1
48
1
60
0
100
AcDbPoint
10
-56
20
-12.7
30
0
39
0
210
0
220
0
230
1
50
360
0
POINT
5
15E
100
AcDbEntity
8
Defpoints
62
0
6
ByLayer
370
-1
48
1
60
0
100
AcDbPoint
10
100.5
20
0
30
0
39
0
210
0
220
0
230
1
50
360
0
POINT
5
15F
100
AcDbEntity
8
Defpoints
62
0
6
ByLayer
370
-1
48
1
60
0
100
AcDbPoint
10
100.5
20
-45.952229
30
0
39
0
210
0
220
0
230
1
50
360
0
ENDBLK
5
156
100
AcDbEntity
8
0
100
AcDbBlockEnd
0
BLOCK
5
167
100
AcDbEntity
8
0
100
AcDbBlockBegin
2
_U0
70
0
10
0
20
0
30
0
3
_U0
0
MTEXT
5
161
100
AcDbEntity
8
SK2
62
256
6
ByLayer
370
18
48
1
60
0
100
AcDbMText
10
17.021658
20
-45.067115
30
0
210
0
220
0
230
1
1
\W0.7022;156.50
40
3
41
0
44
1.084337
50
0
71
7
72
5
7
iso_b_vert
0
LINE
5
162
100
AcDbEntity
8
SK2
62
256
6
ByLayer
370
13
48
1
60
0
100
AcDbLine
10
-56
20
-14.2875
30
0
11
-56
21
-47.952229
31
0
39
0
210
0
220
0
230
1
0
LINE
5
163
100
AcDbEntity
8
SK2
62
256
6
ByLayer
370
13
48
1
60
0
100
AcDbLine
10
100.5
20
-1.5875
30
0
11
100.5
21
-47.952229
31
0
39
0
210
0
220
0
230
1
0
LINE
5
164
100
AcDbEntity
8
SK2
62
256
6
ByLayer
370
13
48
1
60
0
100
AcDbLine
10
-56
20
-45.952229
30
0
11
100.5
21
-45.952229
31
0
39
0
210
0
220
0
230
1
0
SOLID
5
165
100
AcDbEntity
8
SK2
62
256
6
ByLayer
370
18
48
1
60
0
100
AcDbTrace
10
-56
20
-45.952229
30
0
11
-52.500002
21
-45.491446
31
0
12
-52.499998
22
-46.413013
32
0
13
-52.499998
23
-46.413013
33
0
39
0
210
0
220
0
230
1
0
SOLID
5
166
100
AcDbEntity
8
SK2
62
256
6
ByLayer
370
18
48
1
60
0
100
AcDbTrace
10
100.5
20
-45.952229
30
0
11
97.000002
21
-46.413013
31
0
12
96.999998
22
-45.491446
32
0
13
96.999998
23
-45.491446
33
0
39
0
210
0
220
0
230
1
0
ENDBLK
5
168
100
AcDbEntity
8
0
100
AcDbBlockEnd
0
BLOCK
5
16D
100
AcDbEntity
8
0
100
AcDbBlockBegin
2
*D3
70
1
10
0
20
0
30
0
3
*D3
0
LINE
5
16F
100
AcDbEntity
8
0
62
256
6
ByLayer
370
-2
48
1
60
0
100
AcDbLine
10
100.5
20
-1.5875
30
0
11
100.5
21
-37.952229
31
0
39
0
210
0
220
0
230
1
0
LINE
5
170
100
AcDbEntity
8
0
62
256
6
ByLayer
370
-2
48
1
60
0
100
AcDbLine
10
3
20
-11.708
30
0
11
3
21
-37.952229
31
0
39
0
210
0
220
0
230
1
0
LINE
5
171
100
AcDbEntity
8
0
62
256
6
ByLayer
370
-2
48
1
60
0
100
AcDbLine
10
97
20
-35.952229
30
0
11
6.5
21
-35.952229
31
0
39
0
210
0
220
0
230
1
0
SOLID
5
172
100
AcDbEntity
8
0
62
256
6
ByLayer
370
-1
48
1
60
0
100
AcDbTrace
10
97
20
-36.535563
30
0
11
97
21
-35.368896
31
0
12
100.5
22
-35.952229
32
0
13
100.5
23
-35.952229
33
0
39
0
210
0
220
0
230
1
0
SOLID
5
173
100
AcDbEntity
8
0
62
256
6
ByLayer
370
-1
48
1
60
0
100
AcDbTrace
10
6.5
20
-35.368896
30
0
11
6.5
21
-36.535563
31
0
12
3
22
-35.952229
32
0
13
3
23
-35.952229
33
0
39
0
210
0
220
0
230
1
0
MTEXT
5
174
100
AcDbEntity
8
0
62
256
6
ByLayer
370
18
48
1
60
0
100
AcDbMText
10
51.75
20
-29.952229
30
0
210
0
220
0
230
1
1
\A1;97.5
40
3
41
0
44
1
50
0
71
5
72
5
7
iso_b_vert
0
POINT
5
175
100
AcDbEntity
8
Defpoints
62
0
6
ByLayer
370
-1
48
1
60
0
100
AcDbPoint
10
100.5
20
0
30
0
39
0
210
0
220
0
230
1
50
360
0
POINT
5
176
100
AcDbEntity
8
Defpoints
62
0
6
ByLayer
370
-1
48
1
60
0
100
AcDbPoint
10
3
20
-10.1205
30
0
39
0
210
0
220
0
230
1
50
360
0
POINT
5
177
100
AcDbEntity
8
Defpoints
62
0
6
ByLayer
370
-1
48
1
60
0
100
AcDbPoint
10
3
20
-35.952229
30
0
39
0
210
0
220
0
230
1
50
360
0
ENDBLK
5
16E
100
AcDbEntity
8
0
100
AcDbBlockEnd
0
BLOCK
5
17F
100
AcDbEntity
8
0
100
AcDbBlockBegin
2
_U1
70
0
10
0
20
0
30
0
3
_U1
0
MTEXT
5
179
100
AcDbEntity
8
SK2
62
256
6
ByLayer
370
18
48
1
60
0
100
AcDbMText
10
47.26763
20
-35.067115
30
0
210
0
220
0
230
1
1
\W0.7468;97.50
40
3
41
0
44
1.084337
50
0
71
7
72
5
7
iso_b_vert
0
LINE
5
17A
100
AcDbEntity
8
SK2
62
256
6
ByLayer
370
13
48
1
60
0
100
AcDbLine
10
100.5
20
-1.5875
30
0
11
100.5
21
-37.952229
31
0
39
0
210
0
220
0
230
1
0
LINE
5
17B
100
AcDbEntity
8
SK2
62
256
6
ByLayer
370
13
48
1
60
0
100
AcDbLine
10
3
20
-11.708
30
0
11
3
21
-37.952229
31
0
39
0
210
0
220
0
230
1
0
LINE
5
17C
100
AcDbEntity
8
SK2
62
256
6
ByLayer
370
13
48
1
60
0
100
AcDbLine
10
100.5
20
-35.952229
30
0
11
3
21
-35.952229
31
0
39
0
210
0
220
0
230
1
0
SOLID
5
17D
100
AcDbEntity
8
SK2
62
256
6
ByLayer
370
18
48
1
60
0
100
AcDbTrace
10
100.5
20
-35.952229
30
0
11
97.000002
21
-36.413013
31
0
12
96.999998
22
-35.491446
32
0
13
96.999998
23
-35.491446
33
0
39
0
210
0
220
0
230
1
0
SOLID
5
17E
100
AcDbEntity
8
SK2
62
256
6
ByLayer
370
18
48
1
60
0
100
AcDbTrace
10
3
20
-35.952229
30
0
11
6.499998
21
-35.491446
31
0
12
6.500002
22
-36.413013
32
0
13
6.500002
23
-36.413013
33
0
39
0
210
0
220
0
230
1
0
ENDBLK
5
180
100
AcDbEntity
8
0
100
AcDbBlockEnd
0
BLOCK
5
185
100
AcDbEntity
8
0
100
AcDbBlockBegin
2
*D5
70
1
10
0
20
0
30
0
3
*D5
0
LINE
5
187
100
AcDbEntity
8
0
62
256
6
ByLayer
370
-2
48
1
60
0
100
AcDbLine
10
-56
20
-14.2875
30
0
11
-56
21
-37.952229
31
0
39
0
210
0
220
0
230
1
0
LINE
5
188
100
AcDbEntity
8
0
62
256
6
ByLayer
370
-2
48
1
60
0
100
AcDbLine
10
0
20
-14.2875
30
0
11
0
21
-37.952229
31
0
39
0
210
0
220
0
230
1
0
LINE
5
189
100
AcDbEntity
8
0
62
256
6
ByLayer
370
-2
48
1
60
0
100
AcDbLine
10
-52.5
20
-35.952229
30
0
11
-3.5
21
-35.952229
31
0
39
0
210
0
220
0
230
1
0
SOLID
5
18A
100
AcDbEntity
8
0
62
256
6
ByLayer
370
-1
48
1
60
0
100
AcDbTrace
10
-52.5
20
-35.368896
30
0
11
-52.5
21
-36.535563
31
0
12
-56
22
-35.952229
32
0
13
-56
23
-35.952229
33
0
39
0
210
0
220
0
230
1
0
SOLID
5
18B
100
AcDbEntity
8
0
62
256
6
ByLayer
370
-1
48
1
60
0
100
AcDbTrace
10
-3.5
20
-36.535563
30
0
11
-3.5
21
-35.368896
31
0
12
0
22
-35.952229
32
0
13
0
23
-35.952229
33
0
39
0
210
0
220
0
230
1
0
MTEXT
5
18C
100
AcDbEntity
8
0
62
256
6
ByLayer
370
18
48
1
60
0
100
AcDbMText
10
-28
20
-29.952229
30
0
210
0
220
0
230
1
1
\A1;56
40
3
41
0
44
1
50
0
71
5
72
5
7
iso_b_vert
0
POINT
5
18D
100
AcDbEntity
8
Defpoints
62
0
6
ByLayer
370
-1
48
1
60
0
100
AcDbPoint
10
-56
20
-12.7
30
0
39
0
210
0
220
0
230
1
50
360
0
POINT
5
18E
100
AcDbEntity
8
Defpoints
62
0
6
ByLayer
370
-1
48
1
60
0
100
AcDbPoint
10
0
20
-12.7
30
0
39
0
210
0
220
0
230
1
50
360
0
POINT
5
18F
100
AcDbEntity
8
Defpoints
62
0
6
ByLayer
370
-1
48
1
60
0
100
AcDbPoint
10
0
20
-35.952229
30
0
39
0
210
0
220
0
230
1
50
360
0
ENDBLK
5
186
100
AcDbEntity
8
0
100
AcDbBlockEnd
0
BLOCK
5
197
100
AcDbEntity
8
0
100
AcDbBlockBegin
2
_U2
70
0
10
0
20
0
30
0
3
_U2
0
MTEXT
5
191
100
AcDbEntity
8
SK2
62
256
6
ByLayer
370
18
48
1
60
0
100
AcDbMText
10
-32.48237
20
-35.067115
30
0
210
0
220
0
230
1
1
\W0.7468;56.00
40
3
41
0
44
1.084337
50
0
71
7
72
5
7
iso_b_vert
0
LINE
5
192
100
AcDbEntity
8
SK2
62
256
6
ByLayer
370
13
48
1
60
0
100
AcDbLine
10
-56
20
-14.2875
30
0
11
-56
21
-37.952229
31
0
39
0
210
0
220
0
230
1
0
LINE
5
193
100
AcDbEntity
8
SK2
62
256
6
ByLayer
370
13
48
1
60
0
100
AcDbLine
10
0
20
-14.2875
30
0
11
0
21
-37.952229
31
0
39
0
210
0
220
0
230
1
0
LINE
5
194
100
AcDbEntity
8
SK2
62
256
6
ByLayer
370
13
48
1
60
0
100
AcDbLine
10
-56
20
-35.952229
30
0
11
0
21
-35.952229
31
0
39
0
210
0
220
0
230
1
0
SOLID
5
195
100
AcDbEntity
8
SK2
62
256
6
ByLayer
370
18
48
1
60
0
100
AcDbTrace
10
-56
20
-35.952229
30
0
11
-52.500002
21
-35.491446
31
0
12
-52.499998
22
-36.413013
32
0
13
-52.499998
23
-36.413013
33
0
39
0
210
0
220
0
230
1
0
SOLID
5
196
100
AcDbEntity
8
SK2
62
256
6
ByLayer
370
18
48
1
60
0
100
AcDbTrace
10
0
20
-35.952229
30
0
11
-3.499998
21
-36.413013
31
0
12
-3.500002
22
-35.491446
32
0
13
-3.500002
23
-35.491446
33
0
39
0
210
0
220
0
230
1
0
ENDBLK
5
198
100
AcDbEntity
8
0
100
AcDbBlockEnd
0
BLOCK
5
19D
100
AcDbEntity
8
0
100
AcDbBlockBegin
2
*D7
70
1
10
0
20
0
30
0
3
*D7
0
LINE
5
19F
100
AcDbEntity
8
0
62
256
6
ByLayer
370
-2
48
1
60
0
100
AcDbLine
10
100.5
20
1.5875
30
0
11
100.5
21
34.952229
31
0
39
0
210
0
220
0
230
1
0
LINE
5
1A0
100
AcDbEntity
8
0
62
256
6
ByLayer
370
-2
48
1
60
0
100
AcDbLine
10
27
20
11.708
30
0
11
27
21
34.952229
31
0
39
0
210
0
220
0
230
1
0
LINE
5
1A1
100
AcDbEntity
8
0
62
256
6
ByLayer
370
-2
48
1
60
0
100
AcDbLine
10
97
20
32.952229
30
0
11
30.5
21
32.952229
31
0
39
0
210
0
220
0
230
1
0
SOLID
5
1A2
100
AcDbEntity
8
0
62
256
6
ByLayer
370
-1
48
1
60
0
100
AcDbTrace
10
97
20
32.368896
30
0
11
97
21
33.535563
31
0
12
100.5
22
32.952229
32
0
13
100.5
23
32.952229
33
0
39
0
210
0
220
0
230
1
0
SOLID
5
1A3
100
AcDbEntity
8
0
62
256
6
ByLayer
370
-1
48
1
60
0
100
AcDbTrace
10
30.5
20
33.535563
30
0
11
30.5
21
32.368896
31
0
12
27
22
32.952229
32
0
13
27
23
32.952229
33
0
39
0
210
0
220
0
230
1
0
MTEXT
5
1A4
100
AcDbEntity
8
0
62
256
6
ByLayer
370
18
48
1
60
0
100
AcDbMText
10
63.75
20
38.952229
30
0
210
0
220
0
230
1
1
\A1;73.5
40
3
41
0
44
1
50
0
71
5
72
5
7
iso_b_vert
0
POINT
5
1A5
100
AcDbEntity
8
Defpoints
62
0
6
ByLayer
370
-1
48
1
60
0
100
AcDbPoint
10
100.5
20
0
30
0
39
0
210
0
220
0
230
1
50
360
0
POINT
5
1A6
100
AcDbEntity
8
Defpoints
62
0
6
ByLayer
370
-1
48
1
60
0
100
AcDbPoint
10
27
20
10.1205
30
0
39
0
210
0
220
0
230
1
50
360
0
POINT
5
1A7
100
AcDbEntity
8
Defpoints
62
0
6
ByLayer
370
-1
48
1
60
0
100
AcDbPoint
10
27
20
32.952229
30
0
39
0
210
0
220
0
230
1
50
360
0
ENDBLK
5
19E
100
AcDbEntity
8
0
100
AcDbBlockEnd
0
BLOCK
5
1AF
100
AcDbEntity
8
0
100
AcDbBlockBegin
2
_U3
70
0
10
0
20
0
30
0
3
_U3
0
MTEXT
5
1A9
100
AcDbEntity
8
SK2
62
256
6
ByLayer
370
18
48
1
60
0
100
AcDbMText
10
59.26763
20
33.837344
30
0
210
0
220
0
230
1
1
\W0.7468;73.50
40
3
41
0
44
1.084337
50
0
71
7
72
5
7
iso_b_vert
0
LINE
5
1AA
100
AcDbEntity
8
SK2
62
256
6
ByLayer
370
13
48
1
60
0
100
AcDbLine
10
100.5
20
1.5875
30
0
11
100.5
21
34.952229
31
0
39
0
210
0
220
0
230
1
0
LINE
5
1AB
100
AcDbEntity
8
SK2
62
256
6
ByLayer
370
13
48
1
60
0
100
AcDbLine
10
27
20
11.708
30
0
11
27
21
34.952229
31
0
39
0
210
0
220
0
230
1
0
LINE
5
1AC
100
AcDbEntity
8
SK2
62
256
6
ByLayer
370
13
48
1
60
0
100
AcDbLine
10
100.5
20
32.952229
30
0
11
27
21
32.952229
31
0
39
0
210
0
220
0
230
1
0
SOLID
5
1AD
100
AcDbEntity
8
SK2
62
256
6
ByLayer
370
18
48
1
60
0
100
AcDbTrace
10
100.5
20
32.952229
30
0
11
97.000002
21
32.491446
31
0
12
96.999998
22
33.413013
32
0
13
96.999998
23
33.413013
33
0
39
0
210
0
220
0
230
1
0
SOLID
5
1AE
100
AcDbEntity
8
SK2
62
256
6
ByLayer
370
18
48
1
60
0
100
AcDbTrace
10
27
20
32.952229
30
0
11
30.499998
21
33.413013
31
0
12
30.500002
22
32.491446
32
0
13
30.500002
23
32.491446
33
0
39
0
210
0
220
0
230
1
0
ENDBLK
5
1B0
100
AcDbEntity
8
0
100
AcDbBlockEnd
0
ENDSEC
0
SECTION
2
ENTITIES
0
ARC
5
C1
100
AcDbEntity
8
SK2
62
256
6
ByLayer
370
13
48
1
60
0
100
AcDbCircle
39
0
10
100.5
20
0
30
0
40
19
210
0
220
0
230
1
100
AcDbArc
50
290
51
70
0
ELLIPSE
5
C2
100
AcDbEntity
8
SK1
62
256
6
ByLayer
370
18
48
1
60
0
100
AcDbEllipse
10
-20.619083
20
0
30
0
11
13.6190826173124
21
-1.54317782980885E-14
31
0
210
0
220
0
230
1
40
0.932515
41
-0.624896586633934
42
0.624896586633934
0
ELLIPSE
5
C3
100
AcDbEntity
8
SK1
62
256
6
ByLayer
370
18
48
1
60
0
100
AcDbEllipse
10
-37.157058
20
0
30
0
11
-2.33287510403163E-15
21
-12.7
31
0
210
0
220
0
230
1
40
0.932515
41
-2.1956929134288
42
-0.945899740160989
0
POINT
5
70
100
AcDbEntity
8
80
62
256
6
ByLayer
370
18
48
1
60
0
100
AcDbPoint
10
0
20
0
30
0
39
0
210
0
220
0
230
1
50
360
0
POINT
5
72
100
AcDbEntity
8
81
62
256
6
ByLayer
370
18
48
1
60
0
100
AcDbPoint
10
100.5
20
0
30
0
39
0
210
0
220
0
230
1
50
360
0
POINT
5
74
100
AcDbEntity
8
1
62
256
6
ByLayer
370
18
48
1
60
1
100
AcDbPoint
10
-56
20
-12.7
30
0
39
0
210
0
220
0
230
1
50
360
0
POINT
5
76
100
AcDbEntity
8
1
62
256
6
ByLayer
370
18
48
1
60
1
100
AcDbPoint
10
100.5
20
0
30
0
39
0
210
0
220
0
230
1
50
360
0
POINT
5
77
100
AcDbEntity
8
1
62
256
6
ByLayer
370
18
48
1
60
1
100
AcDbPoint
10
100.5
20
0
30
0
39
0
210
0
220
0
230
1
50
360
0
POINT
5
78
100
AcDbEntity
8
1
62
256
6
ByLayer
370
18
48
1
60
1
100
AcDbPoint
10
3
20
-10.1205
30
0
39
0
210
0
220
0
230
1
50
360
0
POINT
5
79
100
AcDbEntity
8
1
62
256
6
ByLayer
370
18
48
1
60
1
100
AcDbPoint
10
-56
20
-12.7
30
0
39
0
210
0
220
0
230
1
50
360
0
POINT
5
7A
100
AcDbEntity
8
1
62
256
6
ByLayer
370
18
48
1
60
1
100
AcDbPoint
10
0
20
-12.7
30
0
39
0
210
0
220
0
230
1
50
360
0
POINT
5
7B
100
AcDbEntity
8
1
62
256
6
ByLayer
370
18
48
1
60
1
100
AcDbPoint
10
100.5
20
0
30
0
39
0
210
0
220
0
230
1
50
360
0
POINT
5
7C
100
AcDbEntity
8
1
62
256
6
ByLayer
370
18
48
1
60
1
100
AcDbPoint
10
27
20
10.1205
30
0
39
0
210
0
220
0
230
1
50
360
0
SPLINE
5
C4
100
AcDbEntity
8
1
62
256
6
ByLayer
370
18
48
1
60
0
100
AcDbSpline
70
4
71
3
72
10
73
6
40
0
40
0
40
0
40
0
40
0.767312531063655
40
0.767312531063655
40
1
40
1
40
1
40
1
41
1
10
86.4
20
-10.0434118634501
30
0
41
1
10
87.2692694899007
20
-10.0820551797254
30
0
41
1
10
88.138086013372
20
-10.1058627404504
30
0
41
1
10
89.2692898702396
20
-10.1177690429506
30
0
41
1
10
89.5324225657311
20
-10.1191854444784
30
0
41
1
10
89.7954732386261
20
-10.1192364862291
30
0
0
SPLINE
5
C5
100
AcDbEntity
8
1
62
256
6
ByLayer
370
18
48
1
60
0
100
AcDbSpline
70
4
71
3
72
122
73
118
40
0
40
0
40
0
40
0
40
0.0312500000000037
40
0.0312500000000037
40
0.0625000000000074
40
0.0625000000000074
40
0.0703125000000085
40
0.0703125000000085
40
0.0781250000000095
40
0.0781250000000095
40
0.0937500000000111
40
0.0937500000000111
40
0.125000000000014
40
0.125000000000014
40
0.140625000000016
40
0.140625000000016
40
0.148437500000016
40
0.148437500000016
40
0.156250000000017
40
0.156250000000017
40
0.171875000000019
40
0.171875000000019
40
0.187500000000021
40
0.187500000000021
40
0.218750000000024
40
0.218750000000024
40
0.234375000000026
40
0.234375000000026
40
0.250000000000027
40
0.250000000000027
40
0.28125000000003
40
0.28125000000003
40
0.296875000000032
40
0.296875000000032
40
0.304687500000032
40
0.304687500000032
40
0.312500000000033
40
0.312500000000033
40
0.343750000000035
40
0.343750000000035
40
0.375000000000037
40
0.375000000000037
40
0.382812500000037
40
0.382812500000037
40
0.390625000000037
40
0.390625000000037
40
0.406250000000038
40
0.406250000000038
40
0.437500000000041
40
0.437500000000041
40
0.453125000000042
40
0.453125000000042
40
0.460937500000043
40
0.460937500000043
40
0.468750000000044
40
0.468750000000044
40
0.500000000000047
40
0.500000000000047
40
0.515625000000049
40
0.515625000000049
40
0.523437500000049
40
0.523437500000049
40
0.53125000000005
40
0.53125000000005
40
0.562500000000051
40
0.562500000000051
40
0.593750000000052
40
0.593750000000052
40
0.601562500000052
40
0.601562500000052
40
0.609375000000053
40
0.609375000000053
40
0.625000000000053
40
0.625000000000053
40
0.656250000000052
40
0.656250000000052
40
0.671875000000051
40
0.671875000000051
40
0.687500000000051
40
0.687500000000051
40
0.718750000000049
40
0.718750000000049
40
0.750000000000048
40
0.750000000000048
40
0.757812500000048
40
0.757812500000048
40
0.765625000000047
40
0.765625000000047
40
0.781250000000046
40
0.781250000000046
40
0.81250000000004
40
0.81250000000004
40
0.828125000000038
40
0.828125000000038
40
0.835937500000037
40
0.835937500000037
40
0.843750000000035
40
0.843750000000035
40
0.875000000000029
40
0.875000000000029
40
0.890625000000027
40
0.890625000000027
40
0.906250000000024
40
0.906250000000024
40
0.914062500000022
40
0.914062500000022
40
0.92187500000002
40
0.92187500000002
40
0.937500000000016
40
0.937500000000016
40
0.968750000000006
40
0.968750000000006
40
0.976562500000004
40
0.976562500000004
40
0.984375000000003
40
0.984375000000003
40
1
40
1
40
1
40
1
41
1
10
18.276411048973
20
8.24851394069657
30
0
41
1
10
18.9862297995524
20
8.1174664214692
30
0
41
1
10
19.695918476975
20
7.97926517045642
30
0
41
1
10
21.1145714843247
20
7.68816221363201
30
0
41
1
10
21.8235392869451
20
7.53526445491005
30
0
41
1
10
22.7090256381816
20
7.33440709653078
30
0
41
1
10
22.886086743695
20
7.29374763013297
30
0
41
1
10
23.2401300542062
20
7.2114345276124
30
0
41
1
10
23.4171078015367
20
7.16977159795962
30
0
41
1
10
23.9480638436942
20
7.04356104969403
30
0
41
1
10
24.3021369012854
20
6.95793683876201
30
0
41
1
10
25.3645803856712
20
6.69652072187472
30
0
41
1
10
26.0731307100745
20
6.51610941116726
30
0
41
1
10
27.1360373871192
20
6.2356764268842
30
0
41
1
10
27.4903514980791
20
6.14055542829419
30
0
41
1
10
28.0218010983962
20
5.99529285148878
30
0
41
1
10
28.1989452525711
20
5.94643664364176
30
0
41
1
10
28.5532302880565
20
5.84786531496431
30
0
41
1
10
28.7303758970635
20
5.7981604006001
30
0
41
1
10
29.2620008617982
20
5.6482071517639
30
0
41
1
10
29.6166673674502
20
5.54712321467233
30
0
41
1
10
30.3263807078563
20
5.34247770713529
30
0
41
1
10
30.6814304457951
20
5.23892225778329
30
0
41
1
10
31.7470894173704
20
4.92439410030786
30
0
41
1
10
32.4572637208645
20
4.70985071448371
30
0
41
1
10
33.5216636521836
20
4.37985831713618
30
0
41
1
10
33.8762700936127
20
4.26834266621003
30
0
41
1
10
34.5858075955512
20
4.04410665029158
30
0
41
1
10
34.9406999242626
20
3.93129215254603
30
0
41
1
10
36.0055854451027
20
3.59036864360976
30
0
41
1
10
36.7158126533475
20
3.35985465477157
30
0
41
1
10
37.7812934074923
20
3.00836600353301
30
0
41
1
10
38.136318445986
20
2.89029689963044
30
0
41
1
10
38.6685878187445
20
2.7117199953604
30
0
41
1
10
38.8459620091555
20
2.65193273375183
30
0
41
1
10
39.2007136987146
20
2.53211417193924
30
0
41
1
10
39.3781051890039
20
2.4721218162
30
0
41
1
10
40.2651926730254
20
2.17189397641457
30
0
41
1
10
40.9751531210821
20
1.9305177568088
30
0
41
1
10
42.3951597037922
20
1.44403392263391
30
0
41
1
10
43.1052057284758
20
1.19892517124313
30
0
41
1
10
43.9925836387497
20
0.889487728130121
30
0
41
1
10
44.1700170825863
20
0.827484213210198
30
0
41
1
10
44.5249154883678
20
0.703592664575183
30
0
41
1
10
44.702382346318
20
0.641707644689774
30
0
41
1
10
45.2348130705614
20
0.456168993402429
30
0
41
1
10
45.5898021068187
20
0.332617430130313
30
0
41
1
10
46.6547648108017
20
-0.0379319858564315
30
0
41
1
10
47.3647543907414
20
-0.284766550516622
30
0
41
1
10
48.4294304327
20
-0.655666609537917
30
0
41
1
10
48.7842480327341
20
-0.779473918490709
30
0
41
1
10
49.3164387788816
20
-0.965227135386954
30
0
41
1
10
49.4938494574924
20
-1.02709540830884
30
0
41
1
10
49.8487914724783
20
-1.15046614996618
30
0
41
1
10
50.0263130749341
20
-1.21200035454564
30
0
41
1
10
50.9141174024599
20
-1.51902054384021
30
0
41
1
10
51.6243289954876
20
-1.76240822720212
30
0
41
1
10
52.6892889790108
20
-2.12505444019851
30
0
41
1
10
53.0442149351699
20
-2.24553251024685
30
0
41
1
10
53.5764713011938
20
-2.42575273923092
30
0
41
1
10
53.7538679960583
20
-2.48574324722799
30
0
41
1
10
54.1086106748133
20
-2.60557452006876
30
0
41
1
10
54.2859507320272
20
-2.6654314852606
30
0
41
1
10
55.1727434974317
20
-2.96373179161256
30
0
41
1
10
55.8828342332946
20
-3.1982763611023
30
0
41
1
10
57.3037256390537
20
-3.66067530305708
30
0
41
1
10
58.0138947310143
20
-3.88828649819993
30
0
41
1
10
58.9009774999519
20
-4.16901270952778
30
0
41
1
10
59.0783609913932
20
-4.22497195134863
30
0
41
1
10
59.4330664354244
20
-4.3365025812268
30
0
41
1
10
59.6103927401476
20
-4.39206225569191
30
0
41
1
10
60.142472506977
20
-4.55766325503976
30
0
41
1
10
60.4973352236964
20
-4.66660842999582
30
0
41
1
10
61.5621716989905
20
-4.98957710011163
30
0
41
1
10
62.2724287222292
20
-5.19971011945884
30
0
41
1
10
63.3379636950053
20
-5.50786511693775
30
0
41
1
10
63.6930076157905
20
-5.60936472575813
30
0
41
1
10
64.4027712814514
20
-5.81002704031806
30
0
41
1
10
64.7574307799371
20
-5.90932094051655
30
0
41
1
10
65.8218033218728
20
-6.20165857739798
30
0
41
1
10
66.531742487689
20
-6.38959121740106
30
0
41
1
10
67.9517726335114
20
-6.75295013684493
30
0
41
1
10
68.6619131347871
20
-6.92833454631088
30
0
41
1
10
69.5493672987695
20
-7.14008360823661
30
0
41
1
10
69.7268021093676
20
-7.18206000873982
30
0
41
1
10
70.0816576141871
20
-7.26507262871698
30
0
41
1
10
70.2590925158216
20
-7.30608204575785
30
0
41
1
10
70.7914581130979
20
-7.42755713038028
30
0
41
1
10
71.1464224977675
20
-7.50652345086263
30
0
41
1
10
72.2113390985617
20
-7.7376866297154
30
0
41
1
10
72.9213410605788
20
-7.88411606489476
30
0
41
1
10
73.9861068756355
20
-8.09274738343404
30
0
41
1
10
74.3409851324284
20
-8.1604576406819
30
0
41
1
10
74.873213512609
20
-8.25926943679983
30
0
41
1
10
75.0506139156325
20
-8.29173781228417
30
0
41
1
10
75.4055155961345
20
-8.35555852250926
30
0
41
1
10
75.5830303917933
20
-8.38690882641549
30
0
41
1
10
76.4707214250677
20
-8.54090675610823
30
0
41
1
10
77.1806670530276
20
-8.65527811858152
30
0
41
1
10
78.2449489248992
20
-8.81420888732768
30
0
41
1
10
78.5996039443934
20
-8.86507536976094
30
0
41
1
10
79.3086467246947
20
-8.96262768567166
30
0
41
1
10
79.6630140744147
20
-9.00933437958113
30
0
41
1
10
80.1943962254444
20
-9.07618153943713
30
0
41
1
10
80.371513544658
20
-9.09790906510602
30
0
41
1
10
80.7258268392716
20
-9.14016106365168
30
0
41
1
10
80.9030121387816
20
-9.16069702915922
30
0
41
1
10
81.434631220756
20
-9.22056913521308
30
0
41
1
10
81.7891233053878
20
-9.25817515059993
30
0
41
1
10
82.852747591079
20
-9.36419113983001
30
0
41
1
10
83.5620404918976
20
-9.42580959786125
30
0
41
1
10
84.4486460002651
20
-9.49158662719429
30
0
41
1
10
84.6259666227926
20
-9.50417801463689
30
0
41
1
10
84.9806007387833
20
-9.52822755222158
30
0
41
1
10
85.1579075537661
20
-9.53968858112475
30
0
41
1
10
85.689937243829
20
-9.57229721337342
30
0
41
1
10
86.0448557824025
20
-9.59163038863545
30
0
41
1
10
86.4
20
-9.60858864360756
30
0
0
SPLINE
5
C6
100
AcDbEntity
8
1
62
256
6
ByLayer
370
18
48
1
60
0
100
AcDbSpline
70
4
71
3
72
101
73
97
40
0
40
0
40
0
40
0
40
0.0009175326619642
40
0.0213069707709062
40
0.0213069707709062
40
0.0416964088798483
40
0.0416964088798483
40
0.0620858469887903
40
0.0620858469887903
40
0.0824752850977322
40
0.0824752850977322
40
0.102864723206674
40
0.102864723206674
40
0.143643599424558
40
0.143643599424558
40
0.164033037533499
40
0.164033037533499
40
0.17422775658797
40
0.17422775658797
40
0.184422475642441
40
0.184422475642441
40
0.225201351860323
40
0.225201351860323
40
0.245590789969264
40
0.245590789969264
40
0.255785509023734
40
0.255785509023734
40
0.265980228078205
40
0.265980228078205
40
0.286369666187146
40
0.286369666187146
40
0.306759104296087
40
0.306759104296087
40
0.347537980513969
40
0.347537980513969
40
0.357732699568439
40
0.357732699568439
40
0.36792741862291
40
0.36792741862291
40
0.388316856731849
40
0.388316856731849
40
0.429095732949729
40
0.429095732949729
40
0.439290452004199
40
0.439290452004199
40
0.449485171058668
40
0.449485171058668
40
0.469874609167608
40
0.469874609167608
40
0.490264047276547
40
0.490264047276547
40
0.510653485385487
40
0.510653485385487
40
0.531042923494427
40
0.531042923494427
40
0.541237642548896
40
0.541237642548896
40
0.551432361603366
40
0.551432361603366
40
0.592211237821244
40
0.592211237821244
40
0.612600675930182
40
0.612600675930182
40
0.622795394984651
40
0.622795394984651
40
0.63299011403912
40
0.63299011403912
40
0.673768990256996
40
0.673768990256996
40
0.714547866474871
40
0.714547866474871
40
0.72474258552934
40
0.72474258552934
40
0.734937304583809
40
0.734937304583809
40
0.755326742692747
40
0.755326742692747
40
0.796105618910623
40
0.796105618910623
40
0.806300337965092
40
0.806300337965092
40
0.816495057019561
40
0.816495057019561
40
0.836884495128499
40
0.836884495128499
40
0.857273933237437
40
0.857273933237437
40
0.877663371346374
40
0.877663371346374
40
0.898052809455312
40
0.898052809455312
40
0.91844224756425
40
0.91844224756425
40
0.959221123782125
40
0.959221123782125
40
1
40
1
40
1
40
1
41
1
10
69.459723758635
20
-7.12734498740409
30
0
41
1
10
69.4427348483988
20
-7.13136550359104
30
0
41
1
10
69.0482134863304
20
-7.22463191495456
30
0
41
1
10
68.653591245346
20
-7.31562220967419
30
0
41
1
10
67.8981728712954
20
-7.48565959436786
30
0
41
1
10
67.5203472741212
20
-7.56863171142115
30
0
41
1
10
66.764721072926
20
-7.73048010853154
30
0
41
1
10
66.3870345022865
20
-7.8093362921515
30
0
41
1
10
65.6319426065766
20
-7.96293123526908
30
0
41
1
10
65.2545857219491
20
-8.03774164863881
30
0
41
1
10
64.4997037910298
20
-8.18249567502929
30
0
41
1
10
64.1221978327685
20
-8.25247900289284
30
0
41
1
10
62.9895307423981
20
-8.45537609490651
30
0
41
1
10
62.2342110213975
20
-8.58124048668583
30
0
41
1
10
61.1011013984261
20
-8.75614338843235
30
0
41
1
10
60.7233359793221
20
-8.81214348924158
30
0
41
1
10
60.1569948844594
20
-8.89255670406334
30
0
41
1
10
59.9682446171362
20
-8.91875257186797
30
0
41
1
10
59.590714370978
20
-8.96982866152882
30
0
41
1
10
59.4019420941147
20
-8.99471833957853
30
0
41
1
10
58.4580543820775
20
-9.11595294194541
30
0
41
1
10
57.7028613459019
20
-9.20268084956464
30
0
41
1
10
56.5701025229331
20
-9.3176112850476
30
0
41
1
10
56.1925239541271
20
-9.35339218854355
30
0
41
1
10
55.626189691133
20
-9.40325717642313
30
0
41
1
10
55.4374193009327
20
-9.41924550167857
30
0
41
1
10
55.0598799672108
20
-9.449938193376
30
0
41
1
10
54.8711069988752
20
-9.46463908599904
30
0
41
1
10
54.3046329890831
20
-9.5067144557932
30
0
41
1
10
53.926891441962
20
-9.53207312666825
30
0
41
1
10
53.1715411718832
20
-9.57745762226153
30
0
41
1
10
52.7938878439766
20
-9.59748620546057
30
0
41
1
10
51.661029256765
20
-9.6496257437534
30
0
41
1
10
50.90593742888
20
-9.67381415080337
30
0
41
1
10
49.9623804246555
20
-9.69069123108511
30
0
41
1
10
49.7736794326668
20
-9.69339550023867
30
0
41
1
10
49.3961993696908
20
-9.69745080849597
30
0
41
1
10
49.207422402698
20
-9.69880303658164
30
0
41
1
10
48.640986550243
20
-9.70084377279377
30
0
41
1
10
48.2631670515663
20
-9.69951680640165
30
0
41
1
10
47.1297569357681
20
-9.68751814987587
30
0
41
1
10
46.3744004995261
20
-9.6688563423958
30
0
41
1
10
45.4306800921701
20
-9.63210308540809
30
0
41
1
10
45.2419599669193
20
-9.62407941251894
30
0
41
1
10
44.8645673408775
20
-9.60667893482002
30
0
41
1
10
44.6758940885576
20
-9.59730148950095
30
0
41
1
10
44.1097998821529
20
-9.56719577762195
30
0
41
1
10
43.7322917980591
20
-9.54450483343243
30
0
41
1
10
42.9770837593774
20
-9.49391447233396
30
0
41
1
10
42.5993833200647
20
-9.46601516684075
30
0
41
1
10
41.8438137235823
20
-9.40500614214108
30
0
41
1
10
41.4659197738181
20
-9.37189364944007
30
0
41
1
10
40.7104982207865
20
-9.30046193038038
30
0
41
1
10
40.3329117600146
20
-9.26213675303651
30
0
41
1
10
39.7667351725527
20
-9.2006892020398
30
0
41
1
10
39.5780447063136
20
-9.17954452075051
30
0
41
1
10
39.2006438705722
20
-9.13601258605286
30
0
41
1
10
39.0119258480421
20
-9.11363340948321
30
0
41
1
10
38.068247732295
20
-8.99868958592216
30
0
41
1
10
37.3130370889283
20
-8.89699063224458
30
0
41
1
10
36.1799734099308
20
-8.72975100931464
30
0
41
1
10
35.8022454229037
20
-8.67155014468474
30
0
41
1
10
35.2356183537855
20
-8.58050820937035
30
0
41
1
10
35.0467718215625
20
-8.54954326681022
30
0
41
1
10
34.6691764681154
20
-8.48637489672524
30
0
41
1
10
34.4804255633027
20
-8.45416460940453
30
0
41
1
10
33.53669512984
20
-8.29027308596446
30
0
41
1
10
32.7815744367396
20
-8.15040696071759
30
0
41
1
10
31.2712237478566
20
-7.85318108799856
30
0
41
1
10
30.5160006764597
20
-7.69581273388874
30
0
41
1
10
29.5720654867202
20
-7.48775693061754
30
0
41
1
10
29.3832878151515
20
-7.44556799918863
30
0
41
1
10
29.005676082151
20
-7.36016897905202
30
0
41
1
10
28.8168305788178
20
-7.31698197324238
30
0
41
1
10
28.2503351305546
20
-7.18606671222662
30
0
41
1
10
27.872676634196
20
-7.09694386450397
30
0
41
1
10
26.7397572474904
20
-6.82400347940734
30
0
41
1
10
25.9845432115681
20
-6.63464676016892
30
0
41
1
10
25.040767137779
20
-6.38834136965221
30
0
41
1
10
24.8520239563606
20
-6.33859879362228
30
0
41
1
10
24.4745642616285
20
-6.23814022172894
30
0
41
1
10
24.2858535824705
20
-6.18741100563796
30
0
41
1
10
23.719681647279
20
-6.03393330748455
30
0
41
1
10
23.3421054511121
20
-5.93006357437045
30
0
41
1
10
22.5866399862225
20
-5.71938140517506
30
0
41
1
10
22.2087845013045
20
-5.61254188959808
30
0
41
1
10
21.4534106992021
20
-5.39598660176918
30
0
41
1
10
21.0758177583517
20
-5.28625144511932
30
0
41
1
10
20.3208516767354
20
-5.06378838359996
30
0
41
1
10
19.9434805952457
20
-4.95105538492965
30
0
41
1
10
19.1889881439966
20
-4.72250460631722
30
0
41
1
10
18.8118992299789
20
-4.60660055330777
30
0
41
1
10
17.6802736812185
20
-4.25610295041153
30
0
41
1
10
16.9255490184409
20
-4.01831751396645
30
0
41
1
10
15.4156798216813
20
-3.53408030022936
30
0
41
1
10
14.6605285264888
20
-3.2876484847863
30
0
41
1
10
13.9053014105228
20
-3.03642773742564
30
0
0
SPLINE
5
C7
100
AcDbEntity
8
1
62
256
6
ByLayer
370
18
48
1
60
0
100
AcDbSpline
70
4
71
3
72
20
73
16
40
0
40
0
40
0
40
0
40
0.125000000000001
40
0.125000000000001
40
0.250000000000002
40
0.250000000000002
40
0.500000000000004
40
0.500000000000004
40
0.562500000000006
40
0.562500000000006
40
0.625000000000008
40
0.625000000000008
40
0.750000000000005
40
0.750000000000005
40
1
40
1
40
1
40
1
41
1
10
96.8164392441128
20
-1.44402679632887
30
0
41
1
10
96.381918771371
20
-1.28724902701234
30
0
41
1
10
95.9477896095326
20
-1.12955089238235
30
0
41
1
10
95.0794819469548
20
-0.8146271473409
30
0
41
1
10
94.6453778688834
20
-0.65719384280365
30
0
41
1
10
93.3432863114622
20
-0.184776408711201
30
0
41
1
10
92.4755070466788
20
0.130292475598253
30
0
41
1
10
91.3914333677753
20
0.525102126262141
30
0
41
1
10
91.1746614680279
20
0.604141029337711
30
0
41
1
10
90.7410952832566
20
0.762074177228214
30
0
41
1
10
90.5242790336957
20
0.840907864820707
30
0
41
1
10
89.8736867905853
20
1.07688963028136
30
0
41
1
10
89.4397906247725
20
1.23358285518407
30
0
41
1
10
88.1376728161472
20
1.7019875435337
30
0
41
1
10
87.2690135053496
20
2.01200286311041
30
0
41
1
10
86.4000000000001
20
2.32037554988682
30
0
0
SPLINE
5
C8
100
AcDbEntity
8
1
62
256
6
ByLayer
370
18
48
1
60
0
100
AcDbSpline
70
4
71
3
72
90
73
86
40
0
40
0
40
0
40
0
40
0.0312499999999955
40
0.0312499999999955
40
0.062499999999991
40
0.062499999999991
40
0.124999999999982
40
0.124999999999982
40
0.14062499999998
40
0.14062499999998
40
0.148437499999979
40
0.148437499999979
40
0.156249999999979
40
0.187499999999978
40
0.187499999999978
40
0.218749999999977
40
0.218749999999977
40
0.249999999999977
40
0.249999999999977
40
0.281249999999976
40
0.281249999999976
40
0.296874999999975
40
0.296874999999975
40
0.312499999999974
40
0.312499999999974
40
0.343749999999971
40
0.343749999999971
40
0.374999999999969
40
0.374999999999969
40
0.406249999999967
40
0.406249999999967
40
0.437499999999965
40
0.437499999999965
40
0.445312499999965
40
0.445312499999965
40
0.453124999999964
40
0.468749999999964
40
0.468749999999964
40
0.499999999999963
40
0.499999999999963
40
0.531249999999962
40
0.531249999999962
40
0.539062499999962
40
0.539062499999962
40
0.546874999999962
40
0.562499999999961
40
0.562499999999961
40
0.593749999999959
40
0.593749999999959
40
0.624999999999956
40
0.624999999999956
40
0.632812499999956
40
0.632812499999956
40
0.640624999999957
40
0.656249999999957
40
0.656249999999957
40
0.687499999999958
40
0.687499999999958
40
0.718749999999959
40
0.718749999999959
40
0.72656249999996
40
0.72656249999996
40
0.73437499999996
40
0.73437499999996
40
0.749999999999962
40
0.749999999999962
40
0.781249999999965
40
0.781249999999965
40
0.812499999999967
40
0.812499999999967
40
0.84374999999997
40
0.84374999999997
40
0.851562499999972
40
0.851562499999972
40
0.859374999999974
40
0.874999999999975
40
0.874999999999975
40
0.906249999999981
40
0.937499999999987
40
0.968749999999992
40
0.968749999999992
40
0.976562499999994
40
0.976562499999994
40
0.984374999999995
40
1
40
1
40
1
40
1
41
1
10
96.8164392441089
20
9.79913065348501
30
0
41
1
10
96.8796522622754
20
9.64238566666603
30
0
41
1
10
96.9429645606485
20
9.48328952077875
30
0
41
1
10
97.0698949710248
20
9.1607664599386
30
0
41
1
10
97.1335129703327
20
8.99733872486814
30
0
41
1
10
97.3249384475431
20
8.50096159449771
30
0
41
1
10
97.4533347564354
20
8.16195306323672
30
0
41
1
10
97.6149416569436
20
7.72883120556932
30
0
41
1
10
97.6473172229639
20
7.64173595858259
30
0
41
1
10
97.6959597734462
20
7.51039252166171
30
0
41
1
10
97.7121983718055
20
7.4664641029988
30
0
41
1
10
97.7446436579919
20
7.37853046002885
30
0
41
1
10
97.825637752144
20
7.1586091702203
30
0
41
1
10
97.9060442482845
20
6.93825887160045
30
0
41
1
10
98.0338899385205
20
6.58514552185037
30
0
41
1
10
98.0974112217002
20
6.40831266876475
30
0
41
1
10
98.2235047036716
20
6.05405324925911
30
0
41
1
10
98.2860783456816
20
5.87662718753359
30
0
41
1
10
98.4100073925666
20
5.52109224789709
30
0
41
1
10
98.4713652923858
20
5.34298426534713
30
0
41
1
10
98.5621500890808
20
5.07519190686909
30
0
41
1
10
98.5922013621737
20
4.98582210495786
30
0
41
1
10
98.6518015358864
20
4.80684200862265
30
0
41
1
10
98.6813636952168
20
4.71718882194267
30
0
41
1
10
98.7687189761409
20
4.44912607368121
30
0
41
1
10
98.825337307294
20
4.27119507061934
30
0
41
1
10
98.9343012609341
20
3.9165932901613
30
0
41
1
10
98.9866535539865
20
3.73992401982903
30
0
41
1
10
99.0854963852221
20
3.38747404933531
30
0
41
1
10
99.1319961484509
20
3.21169316884604
30
0
41
1
10
99.2167522290894
20
2.86053480279031
30
0
41
1
10
99.2550127214586
20
2.68515566716221
30
0
41
1
10
99.295560355296
20
2.46581961261452
30
0
41
1
10
99.3033082378303
20
2.42191760734073
30
0
41
1
10
99.317986865543
20
2.33422014388657
30
0
41
1
10
99.3387308782144
20
2.20313370271495
30
0
41
1
10
99.355429739382
20
2.07344491540573
30
0
41
1
10
99.3828898400976
20
1.81600441649903
30
0
41
1
10
99.3932212773828
20
1.6469514131895
30
0
41
1
10
99.39599985575
20
1.31460015211519
30
0
41
1
10
99.3884307811342
20
1.1513046770709
30
0
41
1
10
99.367860133917
20
0.951315960448596
30
0
41
1
10
99.3631906821555
20
0.911486246719164
30
0
41
1
10
99.3527966448088
20
0.83242759293725
30
0
41
1
10
99.3356742509262
20
0.715101138815186
30
0
41
1
10
99.3142232383941
20
0.60151272932049
30
0
41
1
10
99.2662701140422
20
0.379199110832502
30
0
41
1
10
99.227594252039
20
0.237465299095675
30
0
41
1
10
99.1403168814398
20
-0.0335596362407955
30
0
41
1
10
99.0917227300727
20
-0.162854453652415
30
0
41
1
10
99.0263911737627
20
-0.316816269593744
30
0
41
1
10
99.0130825907267
20
-0.347247932014454
30
0
41
1
10
98.9860795563998
20
-0.407238761613655
30
0
41
1
10
98.94506942091
20
-0.495755718634598
30
0
41
1
10
98.9026996490827
20
-0.579951566534135
30
0
41
1
10
98.8164765080497
20
-0.74275535227784
30
0
41
1
10
98.757035919803
20
-0.843856201946892
30
0
41
1
10
98.6353916317308
20
-1.03168729824694
30
0
41
1
10
98.5731797035715
20
-1.11841484109317
30
0
41
1
10
98.4940624018155
20
-1.21785822399639
30
0
41
1
10
98.4781703155163
20
-1.23729754575032
30
0
41
1
10
98.4462548087604
20
-1.27527379913005
30
0
41
1
10
98.4302189814783
20
-1.29382373577329
30
0
41
1
10
98.3821254434754
20
-1.34788838666458
30
0
41
1
10
98.3500252476602
20
-1.38188987027826
30
0
41
1
10
98.2536613796743
20
-1.47790754199528
30
0
41
1
10
98.1893392097275
20
-1.53394931016899
30
0
41
1
10
98.0606525661026
20
-1.63049809953566
30
0
41
1
10
97.9962860844665
20
-1.67100351110224
30
0
41
1
10
97.8674909989402
20
-1.7365017559834
30
0
41
1
10
97.8030614770005
20
-1.76149459911059
30
0
41
1
10
97.7224184774531
20
-1.78283332341059
30
0
41
1
10
97.7062725648181
20
-1.786606468922
30
0
41
1
10
97.6741109963515
20
-1.7931268624736
30
0
41
1
10
97.6260163917898
20
-1.80138310713414
30
0
41
1
10
97.5783492477491
20
-1.80511729120653
30
0
41
1
10
97.4835430702549
20
-1.80665892949673
30
0
41
1
10
97.3585427361519
20
-1.79293064943323
30
0
41
1
10
97.1746067686569
20
-1.72584299659334
30
0
41
1
10
97.0539269721758
20
-1.65006351310487
30
0
41
1
10
96.9789738823256
20
-1.59278318745081
30
0
41
1
10
96.9640162652789
20
-1.58083690855318
30
0
41
1
10
96.9342253071064
20
-1.55601497872311
30
0
41
1
10
96.8896981464216
20
-1.51736726048534
30
0
41
1
10
96.8456299567621
20
-1.47448893661036
30
0
41
1
10
96.8164392441089
20
-1.44402679632751
30
0
0
SPLINE
5
C9
100
AcDbEntity
8
1
62
256
6
ByLayer
370
18
48
1
60
0
100
AcDbSpline
70
4
71
3
72
22
73
18
40
0
40
0
40
0
40
0
40
0.0729582503777186
40
0.0729582503777186
40
0.165662425339942
40
0.165662425339942
40
0.258366600302166
40
0.258366600302166
40
0.629183300151073
40
0.629183300151073
40
0.721887475113305
40
0.721887475113305
40
0.814591650075536
40
0.814591650075536
40
0.907295825037768
40
0.907295825037768
40
1
40
1
40
1
40
1
41
1
10
89.7954729749889
20
10.1192364861779
30
0
41
1
10
89.9661416584757
20
10.1192696029307
30
0
41
1
10
90.1367758146832
20
10.1187279736988
30
0
41
1
10
90.5241487256683
20
10.1161860635101
30
0
41
1
10
90.7408967542925
20
10.1138300900618
30
0
41
1
10
91.1745160443903
20
10.1072773074946
30
0
41
1
10
91.3913667854369
20
10.1030802937472
30
0
41
1
10
92.4757528872344
20
10.0775178027801
30
0
41
1
10
93.3436768881139
20
10.0424763421492
30
0
41
1
10
94.4286246863121
20
9.98026402992585
30
0
41
1
10
94.6456158771091
20
9.96689700727333
30
0
41
1
10
95.0795895413924
20
9.93829387337314
30
0
41
1
10
95.2965619570049
20
9.92305185590976
30
0
41
1
10
95.7305423836823
20
9.89070512272974
30
0
41
1
10
95.947577105185
20
9.87361480030364
30
0
41
1
10
96.3818743067671
20
9.83769514626255
30
0
41
1
10
96.5991170492866
20
9.8188551095183
30
0
41
1
10
96.8164392441126
20
9.79913065348467
30
0
0
SPLINE
5
CA
100
AcDbEntity
8
1
62
256
6
ByLayer
370
18
48
1
60
0
100
AcDbSpline
70
4
71
3
72
40
73
36
40
0
40
0
40
0
40
0
40
0.0262595856800024
40
0.0262595856800024
40
0.0576705667871001
40
0.0576705667871001
40
0.120492529001291
40
0.120492529001291
40
0.246136453429676
40
0.246136453429676
40
0.30895841564387
40
0.30895841564387
40
0.340369396750968
40
0.340369396750968
40
0.371780377858067
40
0.371780377858067
40
0.497424302286461
40
0.497424302286461
40
0.56024626450066
40
0.56024626450066
40
0.62306822671486
40
0.62306822671486
40
0.654479207821958
40
0.654479207821958
40
0.685890188929055
40
0.685890188929055
40
0.748712151143246
40
0.748712151143246
40
0.874356075571623
40
0.874356075571623
40
0.905767056678716
40
0.905767056678716
40
0.937178037785809
40
0.937178037785809
40
1
40
1
40
1
40
1
41
1
10
69.4591975585741
20
7.11853932516556
30
0
41
1
10
69.6075656649605
20
7.15383920944231
30
0
41
1
10
69.7559002298397
20
7.18886703634396
30
0
41
1
10
70.0816576141871
20
7.26507262871698
30
0
41
1
10
70.2590925158216
20
7.30608204575782
30
0
41
1
10
70.791458113098
20
7.42755713038028
30
0
41
1
10
71.1464224977675
20
7.5065234508626
30
0
41
1
10
72.2113390985616
20
7.7376866297154
30
0
41
1
10
72.9213410605788
20
7.88411606489473
30
0
41
1
10
73.9861068756354
20
8.09274738343402
30
0
41
1
10
74.3409851324282
20
8.16045764068187
30
0
41
1
10
74.8732135126089
20
8.2592694367998
30
0
41
1
10
75.0506139156324
20
8.29173781228414
30
0
41
1
10
75.4055155961344
20
8.35555852250923
30
0
41
1
10
75.5830303917932
20
8.38690882641549
30
0
41
1
10
76.4707214250677
20
8.5409067561082
30
0
41
1
10
77.1806670530275
20
8.65527811858149
30
0
41
1
10
78.2449489248991
20
8.81420888732768
30
0
41
1
10
78.5996039443934
20
8.86507536976094
30
0
41
1
10
79.3086467246945
20
8.96262768567163
30
0
41
1
10
79.6630140744146
20
9.00933437958111
30
0
41
1
10
80.1943962254443
20
9.0761815394371
30
0
41
1
10
80.3715135446579
20
9.09790906510602
30
0
41
1
10
80.7258268392715
20
9.14016106365168
30
0
41
1
10
80.9030121387815
20
9.16069702915919
30
0
41
1
10
81.4346312207559
20
9.22056913521308
30
0
41
1
10
81.7891233053876
20
9.2581751505999
30
0
41
1
10
82.8527475910789
20
9.36419113983001
30
0
41
1
10
83.5620404918976
20
9.42580959786125
30
0
41
1
10
84.4486460002651
20
9.49158662719427
30
0
41
1
10
84.6259666227926
20
9.50417801463689
30
0
41
1
10
84.9806007387832
20
9.52822755222155
30
0
41
1
10
85.1579075537659
20
9.53968858112472
30
0
41
1
10
85.6899372438289
20
9.57229721337342
30
0
41
1
10
86.0448557824025
20
9.59163038863545
30
0
41
1
10
86.4000000000001
20
9.60858864360753
30
0
0
SPLINE
5
CB
100
AcDbEntity
8
1
62
256
6
ByLayer
370
18
48
1
60
0
100
AcDbSpline
70
4
71
3
72
73
73
69
40
0
40
0
40
0
40
0
40
0.0300715707239601
40
0.0300715707239601
40
0.0601431414479202
40
0.0601431414479202
40
0.120286282895842
40
0.120286282895842
40
0.135322068257823
40
0.135322068257823
40
0.150357853619804
40
0.150357853619804
40
0.180429424343768
40
0.180429424343768
40
0.240572565791695
40
0.240572565791695
40
0.270644136515659
40
0.270644136515659
40
0.300715707239622
40
0.300715707239622
40
0.330787277963587
40
0.330787277963587
40
0.360858848687551
40
0.360858848687551
40
0.390930419411515
40
0.390930419411515
40
0.421001990135479
40
0.421001990135479
40
0.436037775497462
40
0.436037775497462
40
0.451073560859445
40
0.481145131583411
40
0.481145131583411
40
0.511216702307378
40
0.511216702307378
40
0.541288273031344
40
0.541288273031344
40
0.571359843755311
40
0.571359843755311
40
0.601431414479278
40
0.601431414479278
40
0.661574555927211
40
0.661574555927211
40
0.691646126651178
40
0.691646126651178
40
0.706681912013161
40
0.706681912013161
40
0.721717697375145
40
0.721717697375145
40
0.781860838823082
40
0.781860838823082
40
0.81193240954705
40
0.81193240954705
40
0.826968194909035
40
0.826968194909035
40
0.842003980271019
40
0.842003980271019
40
0.872075550994988
40
0.872075550994988
40
0.902147121718957
40
0.902147121718957
40
0.962290263166895
40
0.962290263166895
40
0.977326048528879
40
0.977326048528879
40
0.992361833890863
40
0.992361833890863
40
1
40
1
40
1
40
1
41
1
10
86.4
20
2.07883290538661
30
0
41
1
10
86.0223148755284
20
2.20781062007279
30
0
41
1
10
85.6448203151574
20
2.33644205403243
30
0
41
1
10
84.8896873952531
20
2.5915471243936
30
0
41
1
10
84.512103299418
20
2.71817540750297
30
0
41
1
10
83.3793393415701
20
3.09542236539107
30
0
41
1
10
82.6241387238127
20
3.34338500333428
30
0
41
1
10
81.6802663581155
20
3.64933131682648
30
0
41
1
10
81.4914982494303
20
3.71031955003866
30
0
41
1
10
81.1139773131082
20
3.83189838507317
30
0
41
1
10
80.9252302869301
20
3.89250415476431
30
0
41
1
10
80.3589315010206
20
4.07350880317358
30
0
41
1
10
79.9811849042779
20
4.1929196242738
30
0
41
1
10
78.8480239722219
20
4.54693687029251
30
0
41
1
10
78.0926843720534
20
4.77749301941591
30
0
41
1
10
76.9599866824939
20
5.11558490643733
30
0
41
1
10
76.5824761284605
20
5.22699754366349
30
0
41
1
10
75.8275907332441
20
5.44729059642091
30
0
41
1
10
75.4502476422794
20
5.55624114789029
30
0
41
1
10
74.6952029844897
20
5.77042919829017
30
0
41
1
10
74.3175437793907
20
5.87577182245309
30
0
41
1
10
73.5619818434833
20
6.0830432026701
30
0
41
1
10
73.1841097631806
20
6.18496031971316
30
0
41
1
10
72.4286462552302
20
6.38530425283938
30
0
41
1
10
72.0509946765956
20
6.48374813147106
30
0
41
1
10
71.2958891597928
20
6.67724516659283
30
0
41
1
10
70.9184521543465
20
6.77233222044063
30
0
41
1
10
70.3523956764255
20
6.91229018835725
30
0
41
1
10
70.1637092154246
20
6.95846168250185
30
0
41
1
10
69.7862697890296
20
7.04971646009847
30
0
41
1
10
69.220034442186
20
7.18501417984342
30
0
41
1
10
68.653591245346
20
7.31562220967422
30
0
41
1
10
67.8981728712955
20
7.48565959436789
30
0
41
1
10
67.5203472741212
20
7.56863171142118
30
0
41
1
10
66.7647210729261
20
7.73048010853157
30
0
41
1
10
66.3870345022865
20
7.80933629215147
30
0
41
1
10
65.6319426065766
20
7.96293123526908
30
0
41
1
10
65.254585721949
20
8.03774164863884
30
0
41
1
10
64.4997037910297
20
8.18249567502932
30
0
41
1
10
64.1221978327685
20
8.25247900289287
30
0
41
1
10
62.989530742398
20
8.45537609490651
30
0
41
1
10
62.2342110213975
20
8.58124048668583
30
0
41
1
10
61.101101398426
20
8.75614338843235
30
0
41
1
10
60.7233359793221
20
8.81214348924158
30
0
41
1
10
60.1569948844593
20
8.89255670406337
30
0
41
1
10
59.9682446171362
20
8.91875257186797
30
0
41
1
10
59.5907143709779
20
8.96982866152885
30
0
41
1
10
59.4019420941147
20
8.99471833957853
30
0
41
1
10
58.4580543820775
20
9.11595294194541
30
0
41
1
10
57.7028613459019
20
9.20268084956464
30
0
41
1
10
56.5701025229331
20
9.3176112850476
30
0
41
1
10
56.1925239541271
20
9.35339218854355
30
0
41
1
10
55.626189691133
20
9.40325717642313
30
0
41
1
10
55.4374193009327
20
9.41924550167857
30
0
41
1
10
55.0598799672108
20
9.449938193376
30
0
41
1
10
54.8711069988752
20
9.46463908599907
30
0
41
1
10
54.3046329890831
20
9.5067144557932
30
0
41
1
10
53.926891441962
20
9.53207312666828
30
0
41
1
10
53.1715411718833
20
9.57745762226156
30
0
41
1
10
52.7938878439766
20
9.5974862054606
30
0
41
1
10
51.6610292567649
20
9.64962574375338
30
0
41
1
10
50.90593742888
20
9.67381415080339
30
0
41
1
10
49.9623804246555
20
9.69069123108508
30
0
41
1
10
49.7736794326669
20
9.69339550023867
30
0
41
1
10
49.3961993696909
20
9.69745080849597
30
0
41
1
10
49.2074224026979
20
9.69880303658164
30
0
41
1
10
48.9226941422875
20
9.69982884606938
30
0
41
1
10
48.8267652135993
20
9.70000102674794
30
0
41
1
10
48.7308271353285
20
9.70000006771903
30
0
0
SPLINE
5
CC
100
AcDbEntity
8
1
62
256
6
ByLayer
370
18
48
1
60
0
100
AcDbSpline
70
4
71
3
72
104
73
100
40
0
40
0
40
0
40
0
40
0.0625000000000048
40
0.0625000000000048
40
0.0937500000000081
40
0.0937500000000081
40
0.125000000000011
40
0.125000000000011
40
0.156250000000015
40
0.156250000000015
40
0.164062500000015
40
0.164062500000015
40
0.171875000000016
40
0.187500000000015
40
0.187500000000015
40
0.218750000000014
40
0.218750000000014
40
0.250000000000013
40
0.250000000000013
40
0.265625000000012
40
0.265625000000012
40
0.273437500000012
40
0.273437500000012
40
0.281250000000012
40
0.281250000000012
40
0.312500000000011
40
0.312500000000011
40
0.34375000000001
40
0.34375000000001
40
0.35937500000001
40
0.35937500000001
40
0.36718750000001
40
0.36718750000001
40
0.37500000000001
40
0.37500000000001
40
0.40625000000001
40
0.40625000000001
40
0.42187500000001
40
0.42187500000001
40
0.42968750000001
40
0.42968750000001
40
0.43359375000001
40
0.43359375000001
40
0.43750000000001
40
0.43750000000001
40
0.468750000000008
40
0.468750000000008
40
0.484375000000008
40
0.484375000000008
40
0.492187500000008
40
0.496093750000007
40
0.496093750000007
40
0.500000000000007
40
0.500000000000007
40
0.531250000000006
40
0.531250000000006
40
0.546875000000006
40
0.546875000000006
40
0.554687500000006
40
0.554687500000006
40
0.562500000000005
40
0.562500000000005
40
0.593750000000003
40
0.593750000000003
40
0.609375000000002
40
0.609375000000002
40
0.617187500000001
40
0.617187500000001
40
0.625000000000001
40
0.625000000000001
40
0.65625
40
0.65625
40
0.687499999999998
40
0.687499999999998
40
0.703124999999998
40
0.703124999999998
40
0.710937499999998
40
0.710937499999998
40
0.718749999999997
40
0.718749999999997
40
0.749999999999996
40
0.749999999999996
40
0.781249999999996
40
0.781249999999996
40
0.812499999999995
40
0.812499999999995
40
0.843749999999994
40
0.843749999999994
40
0.874999999999993
40
0.874999999999993
40
0.890624999999993
40
0.890624999999993
40
0.906249999999993
40
0.906249999999993
40
0.937499999999996
40
0.937499999999996
40
0.968749999999998
40
0.968749999999998
40
1
40
1
40
1
40
1
41
1
10
10
20
8.65753540970368
30
0
41
1
10
9.58325596914725
20
8.72322218330879
30
0
41
1
10
9.17334090929722
20
8.77670785703938
30
0
41
1
10
8.56870323825021
20
8.83492444027877
30
0
41
1
10
8.36886519687695
20
8.85064526390261
30
0
41
1
10
7.97263672269756
20
8.87385285379906
30
0
41
1
10
7.77624592564709
20
8.88134200900731
30
0
41
1
10
7.38697630399764
20
8.88699310108311
30
0
41
1
10
7.19409690761105
20
8.88515890820329
30
0
41
1
10
6.9552619802667
20
8.87615179354194
30
0
41
1
10
6.90758127246113
20
8.87401183662368
30
0
41
1
10
6.81272847513802
20
8.86904840550429
30
0
41
1
10
6.67112673784766
20
8.86057559520802
30
0
41
1
10
6.53156843431074
20
8.84894195017901
30
0
41
1
10
6.25521756855517
20
8.82122453117861
30
0
41
1
10
6.07466560102733
20
8.79682701372167
30
0
41
1
10
5.72126436026929
20
8.73464299509368
30
0
41
1
10
5.54841217220576
20
8.69686436353942
30
0
41
1
10
5.29532447008893
20
8.62858902759388
30
0
41
1
10
5.21199560880132
20
8.60389105859676
30
0
41
1
10
5.08862719247784
20
8.56368073340624
30
0
41
1
10
5.04777537798546
20
8.54974960091849
30
0
41
1
10
4.96662853767228
20
8.52078331500741
30
0
41
1
10
4.92633560351979
20
8.50574675137835
30
0
41
1
10
4.72726458093857
20
8.42806703389218
30
0
41
1
10
4.57486614782431
20
8.35769282492907
30
0
41
1
10
4.28473655268323
20
8.19832493994207
30
0
41
1
10
4.1469941338251
20
8.10934862036197
30
0
41
1
10
3.95261409010647
20
7.95955641566829
30
0
41
1
10
3.88986612833838
20
7.90689503359823
30
0
41
1
10
3.79904625188749
20
7.82339430717761
30
0
41
1
10
3.76927493107451
20
7.79475625685069
30
0
41
1
10
3.71124880760601
20
7.73627323169922
30
0
41
1
10
3.682967136336
20
7.70640824265288
30
0
41
1
10
3.54526737474623
20
7.55389134538459
30
0
41
1
10
3.44691727858583
20
7.42171194591938
30
0
41
1
10
3.31873624419691
20
7.20623457288869
30
0
41
1
10
3.27924428008606
20
7.13153153793616
30
0
41
1
10
3.22519057123401
20
7.014806944664
30
0
41
1
10
3.20803775294397
20
6.9751195040954
30
0
41
1
10
3.18365845539387
20
6.91436577974125
30
0
41
1
10
3.17577102874247
20
6.89394370530911
30
0
41
1
10
3.16052666360116
20
6.85289014017886
30
0
41
1
10
3.1531616816718
20
6.83223877144229
30
0
41
1
10
3.0891887528073
20
6.64525342835216
30
0
41
1
10
3.04868850170212
20
6.47108697831416
30
0
41
1
10
3.01300873954818
20
6.1974625605296
30
0
41
1
10
3.00530806089083
20
6.1041866044969
30
0
41
1
10
3.00024993174563
20
5.96106215358932
30
0
41
1
10
2.9993456276016
20
5.88869668975784
30
0
41
1
10
3.00093162787138
20
5.81510000981268
30
0
41
1
10
3.00254938997156
20
5.7657585720319
30
0
41
1
10
3.00363973360507
20
5.74094405349814
30
0
41
1
10
3.01591687136295
20
5.51767546997942
30
0
41
1
10
3.04431981017751
20
5.31734638681542
30
0
41
1
10
3.11129367675753
20
5.0143361216077
30
0
41
1
10
3.13769638252205
20
4.912912413653
30
0
41
1
10
3.18331159655219
20
4.76017591371254
30
0
41
1
10
3.19951930025405
20
4.70916355505113
30
0
41
1
10
3.23393101883798
20
4.60694298234714
30
0
41
1
10
3.25205101586312
20
4.55598837793761
30
0
41
1
10
3.34683623380323
20
4.30257517541403
30
0
41
1
10
3.4362062309113
20
4.10353639776605
30
0
41
1
10
3.58810294800293
20
3.80994945675309
30
0
41
1
10
3.64172200692164
20
3.71291922588875
30
0
41
1
10
3.72641510922918
20
3.56857597447032
30
0
41
1
10
3.75539456388367
20
3.52060566724162
30
0
41
1
10
3.81436395127309
20
3.42566027935288
30
0
41
1
10
3.84439043306361
20
3.37861948341961
30
0
41
1
10
3.99710436210455
20
3.14547347085423
30
0
41
1
10
4.12749721833825
20
2.96551096203049
30
0
41
1
10
4.40218991501862
20
2.61667363539738
30
0
41
1
10
4.54650457505448
20
2.44781062878244
30
0
41
1
10
4.77206337118884
20
2.2017614543804
30
0
41
1
10
4.84876828404478
20
2.12095594813482
30
0
41
1
10
4.96596247319053
20
2.00145153605538
30
0
41
1
10
5.00542414610524
20
1.96186103155259
30
0
41
1
10
5.08481054817557
20
1.8834544436333
30
0
41
1
10
5.12472570431032
20
1.84464611716297
30
0
41
1
10
5.32536009764232
20
1.6524843142231
30
0
41
1
10
5.4892441672086
20
1.50474809533748
30
0
41
1
10
5.82265385562772
20
1.21922820586582
30
0
41
1
10
5.99218284028376
20
1.08145113098689
30
0
41
1
10
6.33599400126963
20
0.814270753282727
30
0
41
1
10
6.51027773109695
20
0.684870711575428
30
0
41
1
10
6.86285110663076
20
0.433156970270289
30
0
41
1
10
7.0411412315155
20
0.310844638022786
30
0
41
1
10
7.40109314228005
20
0.0722455547252707
30
0
41
1
10
7.58275471352459
20
-0.0440409833752824
30
0
41
1
10
7.85738291070967
20
-0.214593031997936
30
0
41
1
10
7.94928225449817
20
-0.270794666320086
30
0
41
1
10
8.133396322789
20
-0.381785828574635
30
0
41
1
10
8.22565550320786
20
-0.436603251619744
30
0
41
1
10
8.50298772677809
20
-0.599158207556684
30
0
41
1
10
8.68861157562725
20
-0.705007243321546
30
0
41
1
10
9.06114237713876
20
-0.912183393587668
30
0
41
1
10
9.2480488322812
20
-1.01351050810609
30
0
41
1
10
9.62308574202359
20
-1.21188021293494
30
0
41
1
10
9.8112158765648
20
-1.30892251057358
30
0
41
1
10
10
20
-1.40380161794948
30
0
0
SPLINE
5
CD
100
AcDbEntity
8
1
62
256
6
ByLayer
370
18
48
1
60
0
100
AcDbSpline
70
4
71
3
72
14
73
10
40
0
40
0
40
0
40
0
40
0.25
40
0.25
40
0.5
40
0.5
40
0.75
40
0.75
40
1
40
1
40
1
40
1
41
1
10
13.9053014105228
20
-3.03642773742561
30
0
41
1
10
13.5713810854248
20
-2.92197995444576
30
0
41
1
10
13.2400932795406
20
-2.80116918017404
30
0
41
1
10
12.5816910217185
20
-2.54896825761415
30
0
41
1
10
12.254570905078
20
-2.41759251442866
30
0
41
1
10
11.6039551320395
20
-2.14524274285625
30
0
41
1
10
11.2804577364688
20
-2.0042752932458
30
0
41
1
10
10.6372143870397
20
-1.71219091979583
30
0
41
1
10
10.3174703259642
20
-1.56107287544447
30
0
41
1
10
10
20
-1.40380161794951
30
0
0
SPLINE
5
CE
100
AcDbEntity
8
1
62
256
6
ByLayer
370
18
48
1
60
0
100
AcDbSpline
70
4
71
4
72
16
73
11
40
0
40
0
40
0
40
0
40
0
40
0.288906254372641
40
0.288906254372641
40
0.288906254372641
40
0.711093745627357
40
0.711093745627357
40
0.711093745627357
40
1
40
1
40
1
40
1
40
1
41
0.996649301320651
10
18.276411048973
20
8.24851394069655
30
0
41
0.994693089955953
10
18.1416714801168
20
7.50291850603747
30
0
41
0.994396532999883
10
17.9080266678487
20
6.52694872466209
30
0
41
1
10
17.5865497811888
20
5.40675451706957
30
0
41
1
10
16.7450489828814
20
2.74829786731695
30
0
41
0.988033871712585
10
16.0908562297479
20
0.90636925163853
30
0
41
1
10
15.4366634766144
20
-0.629575339258366
30
0
41
1
10
14.595162678307
20
-2.31614236379591
30
0
41
0.994396532999883
10
14.2736857916471
20
-2.85586896208263
30
0
41
0.994693089955953
10
14.040040979379
20
-3.08630592770283
30
0
41
0.996649301320651
10
13.9053014105229
20
-3.03642773742562
30
0
0
SPLINE
5
CF
100
AcDbEntity
8
1
62
256
6
ByLayer
370
18
48
1
60
0
100
AcDbSpline
70
4
71
3
72
25
73
21
40
0
40
0
40
0
40
0
40
0.125000000000005
40
0.125000000000005
40
0.250000000000011
40
0.250000000000011
40
0.375000000000016
40
0.375000000000016
40
0.406250000000018
40
0.406250000000018
40
0.437500000000019
40
0.500000000000017
40
0.500000000000017
40
0.625000000000013
40
0.625000000000013
40
0.750000000000009
40
0.750000000000009
40
0.875000000000004
40
0.875000000000004
40
1
40
1
40
1
40
1
41
1
10
10
20
8.65753540970368
30
0
41
1
10
10.34582571641
20
8.69367489602831
30
0
41
1
10
10.6930251268496
20
8.72105195119889
30
0
41
1
10
11.3899591832758
20
8.76125464380272
30
0
41
1
10
11.7396954266931
20
8.7740626632897
30
0
41
1
10
12.4415662009357
20
8.78666184308878
30
0
41
1
10
12.7937019661895
20
8.7864415654912
30
0
41
1
10
13.2353035683744
20
8.77838447328608
30
0
41
1
10
13.32371647206
20
8.77638145544222
30
0
41
1
10
13.5005972074662
20
8.7715977790107
30
0
41
1
10
13.7653175788872
20
8.76327438480212
30
0
41
1
10
14.0282897460675
20
8.75157091075891
30
0
41
1
10
14.5520419077638
20
8.72377442329193
30
0
41
1
10
14.8982865121209
20
8.6993976760532
30
0
41
1
10
15.5856581099432
20
8.63928556366028
30
0
41
1
10
15.9267840582515
20
8.60354105753208
30
0
41
1
10
16.6046758176015
20
8.52089103948182
30
0
41
1
10
16.9414426856137
20
8.47398151021176
30
0
41
1
10
17.6114088090459
20
8.36929430883043
30
0
41
1
10
17.9446113810081
20
8.31152021299195
30
0
41
1
10
18.276411048973
20
8.2485139406966
30
0
0
SPLINE
5
D0
100
AcDbEntity
8
1
62
256
6
ByLayer
370
13
48
1
60
0
100
AcDbSpline
70
4
71
3
72
43
73
39
40
0
40
0
40
0
40
0
40
0.0624999999999984
40
0.0624999999999984
40
0.124999999999997
40
0.124999999999997
40
0.187499999999995
40
0.187499999999995
40
0.249999999999994
40
0.249999999999994
40
0.312499999999992
40
0.312499999999992
40
0.343749999999991
40
0.343749999999991
40
0.351562499999991
40
0.351562499999991
40
0.359374999999991
40
0.374999999999991
40
0.374999999999991
40
0.437499999999992
40
0.437499999999992
40
0.499999999999993
40
0.499999999999993
40
0.562499999999994
40
0.562499999999994
40
0.624999999999995
40
0.624999999999995
40
0.687499999999996
40
0.687499999999996
40
0.749999999999996
40
0.749999999999996
40
0.812499999999997
40
0.812499999999997
40
0.874999999999998
40
0.874999999999998
40
0.937499999999999
40
0.937499999999999
40
1
40
1
40
1
40
1
41
1
10
86.4
20
-7.55984175807319
30
0
41
1
10
86.4832818742562
20
-7.20361223907716
30
0
41
1
10
86.5665637485124
20
-6.8145884359397
30
0
41
1
10
86.7331274970247
20
-5.98587420418585
30
0
41
1
10
86.8164093712808
20
-5.54625802371572
30
0
41
1
10
86.9829731197931
20
-4.63466157679613
30
0
41
1
10
87.0662549940494
20
-4.16276174841917
30
0
41
1
10
87.2328187425617
20
-3.2057837081353
30
0
41
1
10
87.3161006168178
20
-2.72077258377863
30
0
41
1
10
87.4826643653302
20
-1.75535643922243
30
0
41
1
10
87.5659462395863
20
-1.27499307688723
30
0
41
1
10
87.6908690509706
20
-0.568938378034602
30
0
41
1
10
87.7325099880986
20
-0.335974115911853
30
0
41
1
10
87.7845611595088
20
-0.0486732910371188
30
0
41
1
10
87.7949713937907
20
0.0084612595903479
30
0
41
1
10
87.8157918623548
20
0.123198323547626
30
0
41
1
10
87.8470225652009
20
0.295894876939059
30
0
41
1
10
87.878253268047
20
0.470270074060323
30
0
41
1
10
87.9823556108672
20
1.05479564553804
30
0
41
1
10
88.0656374851233
20
1.53304214178433
30
0
41
1
10
88.2322012336356
20
2.49671668280581
30
0
41
1
10
88.3154831078917
20
2.9821074179186
30
0
41
1
10
88.4820468564041
20
3.94272339439766
30
0
41
1
10
88.5653287306603
20
4.41788493215682
30
0
41
1
10
88.7318924791726
20
5.33896646227203
30
0
41
1
10
88.8151743534288
20
5.78480692227694
30
0
41
1
10
88.9817381019411
20
6.62864080958954
30
0
41
1
10
89.0650199761973
20
7.02655765025227
30
0
41
1
10
89.2315837247097
20
7.75882945230759
30
0
41
1
10
89.3148655989658
20
8.09313097585144
30
0
41
1
10
89.4814293474781
20
8.68737359526878
30
0
41
1
10
89.5647112217343
20
8.94729739755175
30
0
41
1
10
89.7312749702467
20
9.38800315018011
30
0
41
1
10
89.8145568445028
20
9.56880453999082
30
0
41
1
10
89.9811205930151
20
9.85245893315587
30
0
41
1
10
90.0644024672714
20
9.95535755051526
30
0
41
1
10
90.2309662157836
20
10.0893499832275
30
0
41
1
10
90.3142480900397
20
10.1205
30
0
41
1
10
90.3975299642959
20
10.1205
30
0
0
SPLINE
5
D1
100
AcDbEntity
8
1
62
256
6
ByLayer
370
13
48
1
60
0
100
AcDbSpline
70
4
71
3
72
78
73
74
40
0
40
0
40
0
40
0
40
0.0312499999999998
40
0.0312499999999998
40
0.0624999999999996
40
0.0624999999999996
40
0.0937499999999994
40
0.0937499999999994
40
0.124999999999999
40
0.124999999999999
40
0.156249999999999
40
0.156249999999999
40
0.187499999999999
40
0.187499999999999
40
0.218749999999999
40
0.218749999999999
40
0.249999999999998
40
0.249999999999998
40
0.281249999999998
40
0.281249999999998
40
0.312499999999998
40
0.312499999999998
40
0.343749999999998
40
0.343749999999998
40
0.374999999999998
40
0.374999999999998
40
0.390624999999997
40
0.390624999999997
40
0.398437499999997
40
0.398437499999997
40
0.406249999999998
40
0.406249999999998
40
0.437499999999997
40
0.437499999999997
40
0.468749999999996
40
0.468749999999996
40
0.499999999999996
40
0.499999999999996
40
0.531249999999995
40
0.531249999999995
40
0.562499999999995
40
0.562499999999995
40
0.593749999999994
40
0.593749999999994
40
0.624999999999994
40
0.624999999999994
40
0.656249999999993
40
0.656249999999993
40
0.687499999999992
40
0.687499999999992
40
0.718749999999992
40
0.718749999999992
40
0.749999999999991
40
0.749999999999991
40
0.781249999999991
40
0.781249999999991
40
0.796874999999991
40
0.796874999999991
40
0.804687499999991
40
0.804687499999991
40
0.812499999999991
40
0.812499999999991
40
0.843749999999993
40
0.843749999999993
40
0.874999999999994
40
0.874999999999994
40
0.906249999999995
40
0.906249999999995
40
0.937499999999997
40
0.937499999999997
40
0.968749999999998
40
0.968749999999998
40
1
40
1
40
1
40
1
41
1
10
90.3500988596742
20
10.1205
30
0
41
1
10
90.417456572012
20
10.1205
30
0
41
1
10
90.4848142843499
20
10.1001476015175
30
0
41
1
10
90.6195297090256
20
10.0136390727768
30
0
41
1
10
90.6868874213635
20
9.94746331264517
30
0
41
1
10
90.8216028460391
20
9.76546137009191
30
0
41
1
10
90.8889605583771
20
9.64961725739795
30
0
41
1
10
91.0236759830528
20
9.36629684159763
30
0
41
1
10
91.0910336953908
20
9.19880791199316
30
0
41
1
10
91.2257491200664
20
8.81255363625868
30
0
41
1
10
91.2931068324043
20
8.59378428840625
30
0
41
1
10
91.42782225708
20
8.10792402791657
30
0
41
1
10
91.4951799694178
20
7.8408396936459
30
0
41
1
10
91.6298953940936
20
7.26387050220993
30
0
41
1
10
91.6972531064315
20
6.95400255393221
30
0
41
1
10
91.8319685311071
20
6.29919769907798
30
0
41
1
10
91.899326243445
20
5.95428541416143
30
0
41
1
10
92.0340416681207
20
5.23869871466658
30
0
41
1
10
92.1013993804586
20
4.86805231946028
30
0
41
1
10
92.2361148051343
20
4.11107199236
30
0
41
1
10
92.3034725174722
20
3.72476471845587
30
0
41
1
10
92.438187942148
20
2.9464665457156
30
0
41
1
10
92.5055456544858
20
2.55449704179046
30
0
41
1
10
92.6402610791615
20
1.77407297308858
30
0
41
1
10
92.7076187914993
20
1.38563233723283
30
0
41
1
10
92.8086553600061
20
0.811500008395285
30
0
41
1
10
92.842334216175
20
0.621532255099737
30
0
41
1
10
92.8928525004285
20
0.339316388099263
30
0
41
1
10
92.909691928513
20
0.245699574292217
30
0
41
1
10
92.9433707846819
20
0.0594698235987323
30
0
41
1
10
92.9602102127665
20
-0.0328371960915206
30
0
41
1
10
93.0444073531887
20
-0.49792924870053
30
0
41
1
10
93.1117650655265
20
-0.878168736628083
30
0
41
1
10
93.2464804902022
20
-1.64839547887766
30
0
41
1
10
93.3138382025401
20
-2.0383749032458
30
0
41
1
10
93.4485536272159
20
-2.81990250031043
30
0
41
1
10
93.5159113395537
20
-3.21143496304092
30
0
41
1
10
93.6506267642294
20
-3.98664724199847
30
0
41
1
10
93.7179844765674
20
-4.37030421263759
30
0
41
1
10
93.852699901243
20
-5.11968479488181
30
0
41
1
10
93.9200576135809
20
-5.48538105090199
30
0
41
1
10
94.0547730382566
20
-6.18886525782529
30
0
41
1
10
94.1221307505945
20
-6.52662553478055
30
0
41
1
10
94.2568461752701
20
-7.16521153374023
30
0
41
1
10
94.324203887608
20
-7.46601404361405
30
0
41
1
10
94.4589193122837
20
-8.02338879424343
30
0
41
1
10
94.5262770246216
20
-8.27994631220969
30
0
41
1
10
94.6609924492974
20
-8.7438492250435
30
0
41
1
10
94.7283501616352
20
-8.95119049880816
30
0
41
1
10
94.863065586311
20
-9.31428158933207
30
0
41
1
10
94.9304232986487
20
-9.47003759410273
30
0
41
1
10
95.0651387233246
20
-9.73014693114291
30
0
41
1
10
95.1324964356623
20
-9.83451440657865
30
0
41
1
10
95.267211860338
20
-9.99428789027456
30
0
41
1
10
95.3345695726759
20
-10.0497125181018
30
0
41
1
10
95.4356061411827
20
-10.0992694398363
30
0
41
1
10
95.4692849973517
20
-10.1102035589766
30
0
41
1
10
95.5198032816051
20
-10.1187042502318
30
0
41
1
10
95.5366427096894
20
-10.1202215735058
30
0
41
1
10
95.5703215658584
20
-10.1207085357614
30
0
41
1
10
95.587160993943
20
-10.1196849554431
30
0
41
1
10
95.6713581343653
20
-10.1080294336467
30
0
41
1
10
95.7387158467031
20
-10.0777305617631
30
0
41
1
10
95.8734312713788
20
-9.97032544940294
30
0
41
1
10
95.9407889837167
20
-9.89319966870494
30
0
41
1
10
96.0755044083924
20
-9.68866721293682
30
0
41
1
10
96.1428621207303
20
-9.56124348480705
30
0
41
1
10
96.277577545406
20
-9.25462636224185
30
0
41
1
10
96.3449352577438
20
-9.07542203232509
30
0
41
1
10
96.4796506824196
20
-8.66617366923015
30
0
41
1
10
96.5470083947573
20
-8.43612792419486
30
0
41
1
10
96.6817238194332
20
-7.92874616227209
30
0
41
1
10
96.7490815317711
20
-7.6514191690186
30
0
41
1
10
96.8164392441089
20
-7.35347857878293
30
0
0
SPLINE
5
D2
100
AcDbEntity
8
1
62
256
6
ByLayer
370
13
48
1
60
0
100
AcDbSpline
70
4
71
3
72
42
73
38
40
0
40
0
40
0
40
0
40
0.062500000000001
40
0.062500000000001
40
0.125000000000002
40
0.125000000000002
40
0.187500000000003
40
0.187500000000003
40
0.250000000000004
40
0.250000000000004
40
0.265625000000004
40
0.265625000000004
40
0.281250000000004
40
0.281250000000004
40
0.312500000000004
40
0.312500000000004
40
0.375000000000004
40
0.375000000000004
40
0.437500000000004
40
0.437500000000004
40
0.500000000000003
40
0.500000000000003
40
0.562500000000003
40
0.562500000000003
40
0.625000000000002
40
0.625000000000002
40
0.687500000000002
40
0.687500000000002
40
0.750000000000002
40
0.750000000000002
40
0.812500000000001
40
0.812500000000001
40
0.875000000000001
40
0.875000000000001
40
0.9375
40
0.9375
40
1
40
1
40
1
40
1
41
1
10
86.4000000000001
20
-5.12288137859585
30
0
41
1
10
86.4729951598322
20
-4.7240565516143
30
0
41
1
10
86.5459903196642
20
-4.31268460819044
30
0
41
1
10
86.6919806393282
20
-3.4776783485209
30
0
41
1
10
86.7649757991604
20
-3.05408034364592
30
0
41
1
10
86.9109661188245
20
-2.20688819075198
30
0
41
1
10
86.9839612786566
20
-1.78331949757143
30
0
41
1
10
87.1299515983208
20
-0.946858651834219
30
0
41
1
10
87.2029467581528
20
-0.533979226870883
30
0
41
1
10
87.2941907079429
20
-0.0298667892266167
30
0
41
1
10
87.3124394979009
20
0.0701526044639706
30
0
41
1
10
87.3489370778169
20
0.272112603313445
30
0
41
1
10
87.3671858677749
20
0.373678606753373
30
0
41
1
10
87.421932237649
20
0.679954576098822
30
0
41
1
10
87.458429817565
20
0.886246994306475
30
0
41
1
10
87.5679225573131
20
1.50984498677462
30
0
41
1
10
87.6409177171453
20
1.93193432633905
30
0
41
1
10
87.7869080368095
20
2.77863505480457
30
0
41
1
10
87.8599031966414
20
3.20322370835118
30
0
41
1
10
88.0058935163056
20
4.04295669391007
30
0
41
1
10
88.0788886761376
20
4.45806672483465
30
0
41
1
10
88.2248789958018
20
5.26598579398586
30
0
41
1
10
88.2978741556338
20
5.65875362782231
30
0
41
1
10
88.443864475298
20
6.40939551405427
30
0
41
1
10
88.5168596351301
20
6.7672289789277
30
0
41
1
10
88.6628499547942
20
7.43693132886392
30
0
41
1
10
88.7358451146262
20
7.74876851357561
30
0
41
1
10
88.8818354342903
20
8.31804534887269
30
0
41
1
10
88.9548305941224
20
8.57546846441463
30
0
41
1
10
89.1008209137867
20
9.03086681946323
30
0
41
1
10
89.1738160736186
20
9.22884291001444
30
0
41
1
10
89.3198063932829
20
9.56391897577359
30
0
41
1
10
89.3928015531149
20
9.70103496103204
30
0
41
1
10
89.538791872779
20
9.91631928192336
30
0
41
1
10
89.6117870326111
20
9.99451342699788
30
0
41
1
10
89.7577773522752
20
10.0965891465336
30
0
41
1
10
89.8307725121073
20
10.1205
30
0
41
1
10
89.9037676719394
20
10.1205
30
0
0
SPLINE
5
D3
100
AcDbEntity
8
1
62
256
6
ByLayer
370
13
48
1
60
0
100
AcDbSpline
70
4
71
3
72
79
73
75
40
0
40
0
40
0
40
0
40
0.0312499999999999
40
0.0312499999999999
40
0.0624999999999997
40
0.0624999999999997
40
0.0937499999999996
40
0.0937499999999996
40
0.125
40
0.125
40
0.156249999999999
40
0.156249999999999
40
0.187499999999999
40
0.187499999999999
40
0.218749999999999
40
0.218749999999999
40
0.249999999999999
40
0.249999999999999
40
0.281249999999999
40
0.281249999999999
40
0.312499999999998
40
0.312499999999998
40
0.343749999999998
40
0.343749999999998
40
0.359374999999998
40
0.359374999999998
40
0.367187499999998
40
0.367187499999998
40
0.374999999999998
40
0.374999999999998
40
0.406249999999999
40
0.406249999999999
40
0.437499999999999
40
0.437499999999999
40
0.468749999999999
40
0.468749999999999
40
0.499999999999999
40
0.499999999999999
40
0.531249999999999
40
0.531249999999999
40
0.5625
40
0.5625
40
0.59375
40
0.59375
40
0.625
40
0.625
40
0.65625
40
0.65625
40
0.6875
40
0.6875
40
0.718750000000001
40
0.718750000000001
40
0.734375000000001
40
0.734375000000001
40
0.742187500000001
40
0.746093750000001
40
0.746093750000001
40
0.750000000000001
40
0.750000000000001
40
0.781250000000001
40
0.781250000000001
40
0.812500000000001
40
0.812500000000001
40
0.843750000000001
40
0.843750000000001
40
0.875
40
0.875
40
0.90625
40
0.90625
40
0.9375
40
0.9375
40
0.96875
40
0.96875
40
1
40
1
40
1
40
1
41
1
10
89.8563365673177
20
10.1205
30
0
41
1
10
89.9288376368676
20
10.1205
30
0
41
1
10
90.0013387064176
20
10.096912576224
30
0
41
1
10
90.1463408455173
20
9.99625535206738
30
0
41
1
10
90.2188419150672
20
9.91915724372063
30
0
41
1
10
90.3638440541671
20
9.70690804555784
30
0
41
1
10
90.436345123717
20
9.57173191805978
30
0
41
1
10
90.5813472628167
20
9.24136761732842
30
0
41
1
10
90.6538483323666
20
9.0461637143959
30
0
41
1
10
90.7988504714666
20
8.59703147705002
30
0
41
1
10
90.8713515410165
20
8.3431018756838
30
0
41
1
10
91.0163536801163
20
7.78132559079157
30
0
41
1
10
91.0888547496661
20
7.47349433257028
30
0
41
1
10
91.233856888766
20
6.81203436410547
30
0
41
1
10
91.3063579583158
20
6.45843580093472
30
0
41
1
10
91.4513600974156
20
5.71617761900541
30
0
41
1
10
91.5238611669656
20
5.3275570062813
30
0
41
1
10
91.6688633060654
20
4.52754473444534
30
0
41
1
10
91.7413643756153
20
4.11619308021926
30
0
41
1
10
91.8863665147152
20
3.28334595076851
30
0
41
1
10
91.958867584265
20
2.86188420407569
30
0
41
1
10
92.1038697233648
20
2.0206487562784
30
0
41
1
10
92.1763707929148
20
1.60089786047789
30
0
41
1
10
92.2851223972397
20
0.98016766287796
30
0
41
1
10
92.3213729320146
20
0.774725244174135
30
0
41
1
10
92.375748734177
20
0.469565258451013
30
0
41
1
10
92.3938740015644
20
0.368344785679653
30
0
41
1
10
92.4301245363394
20
0.167023338660726
30
0
41
1
10
92.4482498037269
20
0.0671446183201283
30
0
41
1
10
92.5388761406643
20
-0.431611348981818
30
0
41
1
10
92.6113772102143
20
-0.840364363149718
30
0
41
1
10
92.756379349314
20
-1.66925257495424
30
0
41
1
10
92.8288804188639
20
-2.08937653191541
30
0
41
1
10
92.9738825579637
20
-2.93075083171786
30
0
41
1
10
93.0463836275138
20
-3.35197771065285
30
0
41
1
10
93.1913857666136
20
-4.18367886822932
30
0
41
1
10
93.2638868361634
20
-4.5941189267312
30
0
41
1
10
93.4088889752632
20
-5.39161855529346
30
0
41
1
10
93.481390044813
20
-5.77863797116026
30
0
41
1
10
93.6263921839129
20
-6.51705709469232
30
0
41
1
10
93.6988932534628
20
-6.86841808354157
30
0
41
1
10
93.8438953925627
20
-7.52488320885377
30
0
41
1
10
93.9163964621126
20
-7.82995787899148
30
0
41
1
10
94.0613986012123
20
-8.3858676155514
30
0
41
1
10
94.1338996707622
20
-8.63668815583793
30
0
41
1
10
94.278901809862
20
-9.07944009286334
30
0
41
1
10
94.351402879412
20
-9.27137363690917
30
0
41
1
10
94.4964050185118
20
-9.59522348175551
30
0
41
1
10
94.5689060880619
20
-9.72715616992767
30
0
41
1
10
94.7139082271616
20
-9.93310664877254
30
0
41
1
10
94.7864092967114
20
-10.0071498093931
30
0
41
1
10
94.8951609010363
20
-10.07829158818
30
0
41
1
10
94.9314114358112
20
-10.0953693228959
30
0
41
1
10
94.9857872379738
20
-10.1115978592062
30
0
41
1
10
95.0129751390549
20
-10.1173662649363
30
0
41
1
10
95.0401630401361
20
-10.1197312150324
30
0
41
1
10
95.0582883075236
20
-10.1205648730389
30
0
41
1
10
95.0673509412173
20
-10.1206116371259
30
0
41
1
10
95.1489146444611
20
-10.1177134330384
30
0
41
1
10
95.2214157140109
20
-10.0913603346664
30
0
41
1
10
95.3664178531108
20
-9.98486867299499
30
0
41
1
10
95.4389189226607
20
-9.90470183382638
30
0
41
1
10
95.5839210617605
20
-9.68613415744605
30
0
41
1
10
95.6564221313105
20
-9.54770863322875
30
0
41
1
10
95.8014242704102
20
-9.21082770222108
30
0
41
1
10
95.8739253399601
20
-9.01235723926465
30
0
41
1
10
96.0189274790599
20
-8.55686288243189
30
0
41
1
10
96.0914285486098
20
-8.29983860892841
30
0
41
1
10
96.2364306877097
20
-7.73223452266359
30
0
41
1
10
96.3089317572595
20
-7.42167102844459
30
0
41
1
10
96.4539338963593
20
-6.7552727920806
30
0
41
1
10
96.5264349659093
20
-6.39946885983056
30
0
41
1
10
96.6714371050091
20
-5.65344068589928
30
0
41
1
10
96.7439381745589
20
-5.26325571342798
30
0
41
1
10
96.8164392441089
20
-4.86203058279909
30
0
0
SPLINE
5
D4
100
AcDbEntity
8
1
62
256
6
ByLayer
370
13
48
1
60
0
100
AcDbSpline
70
4
71
3
72
41
73
37
40
0
40
0
40
0
40
0
40
0.0624999999999984
40
0.0624999999999984
40
0.124999999999997
40
0.124999999999997
40
0.140624999999997
40
0.140624999999997
40
0.156249999999996
40
0.187499999999997
40
0.187499999999997
40
0.249999999999997
40
0.249999999999997
40
0.312499999999997
40
0.312499999999997
40
0.374999999999998
40
0.374999999999998
40
0.437499999999998
40
0.437499999999998
40
0.499999999999998
40
0.499999999999998
40
0.562499999999998
40
0.562499999999998
40
0.624999999999998
40
0.624999999999998
40
0.687499999999999
40
0.687499999999999
40
0.749999999999999
40
0.749999999999999
40
0.812499999999999
40
0.812499999999999
40
0.875
40
0.875
40
0.9375
40
0.9375
40
1
40
1
40
1
40
1
41
1
10
86.4000000000001
20
-2.30680782489003
30
0
41
1
10
86.462708445408
20
-1.94320161067537
30
0
41
1
10
86.525416890816
20
-1.58066657356099
30
0
41
1
10
86.650833781632
20
-0.864244711176923
30
0
41
1
10
86.7135422270399
20
-0.510363168149979
30
0
41
1
10
86.7919277837999
20
-0.0767427965755871
30
0
41
1
10
86.8076048951518
20
0.0092476124038399
30
0
41
1
10
86.8389591178559
20
0.182239110283405
30
0
41
1
10
86.8859904519118
20
0.443053857754478
30
0
41
1
10
86.9330217859678
20
0.707525725699725
30
0
41
1
10
87.0270844540797
20
1.24036567315119
30
0
41
1
10
87.0897928994877
20
1.60082354079373
30
0
41
1
10
87.2152097903038
20
2.32605413917517
30
0
41
1
10
87.2779182357118
20
2.69081808295289
30
0
41
1
10
87.4033351265277
20
3.41744591184937
30
0
41
1
10
87.4660435719355
20
3.7792959937571
30
0
41
1
10
87.5914604627515
20
4.49216124772687
30
0
41
1
10
87.6541689081595
20
4.84315865755821
30
0
41
1
10
87.7795857989755
20
5.52614247456748
30
0
41
1
10
87.8422942443834
20
5.85810924923362
30
0
41
1
10
87.9677111351994
20
6.49518444114085
30
0
41
1
10
88.0304195806074
20
6.80027413947866
30
0
41
1
10
88.1558364714233
20
7.37666309868854
30
0
41
1
10
88.2185449168313
20
7.64794740921602
30
0
41
1
10
88.3439618076472
20
8.15122466620394
30
0
41
1
10
88.4066702530553
20
8.38320864012073
30
0
41
1
10
88.5320871438712
20
8.80418196336041
30
0
41
1
10
88.5947955892792
20
8.99316933492062
30
0
41
1
10
88.7202124800951
20
9.32641077514023
30
0
41
1
10
88.782920925503
20
9.47066950968437
30
0
41
1
10
88.908337816319
20
9.71463663504085
30
0
41
1
10
88.9710462617271
20
9.81435484842518
30
0
41
1
10
89.096463152543
20
9.97112154431997
30
0
41
1
10
89.1591715979509
20
10.0281828923573
30
0
41
1
10
89.2845884887669
20
10.1028652509531
30
0
41
1
10
89.3472969341749
20
10.1205
30
0
41
1
10
89.4100053795829
20
10.1205
30
0
0
SPLINE
5
D5
100
AcDbEntity
8
1
62
256
6
ByLayer
370
13
48
1
60
0
100
AcDbSpline
70
4
71
3
72
80
73
76
40
0
40
0
40
0
40
0
40
0.0312500000000019
40
0.0312500000000019
40
0.0625000000000039
40
0.0625000000000039
40
0.0937500000000058
40
0.0937500000000058
40
0.125000000000008
40
0.125000000000008
40
0.15625000000001
40
0.15625000000001
40
0.187500000000012
40
0.187500000000012
40
0.218750000000014
40
0.218750000000014
40
0.250000000000015
40
0.250000000000015
40
0.281250000000017
40
0.281250000000017
40
0.312500000000019
40
0.312500000000019
40
0.343750000000021
40
0.343750000000021
40
0.347656250000021
40
0.347656250000021
40
0.351562500000021
40
0.351562500000021
40
0.359375000000021
40
0.359375000000021
40
0.375000000000021
40
0.375000000000021
40
0.40625000000002
40
0.40625000000002
40
0.437500000000019
40
0.437500000000019
40
0.468750000000018
40
0.468750000000018
40
0.500000000000017
40
0.500000000000017
40
0.531250000000016
40
0.531250000000016
40
0.562500000000015
40
0.562500000000015
40
0.593750000000014
40
0.593750000000014
40
0.625000000000014
40
0.625000000000014
40
0.656250000000013
40
0.656250000000013
40
0.687500000000012
40
0.687500000000012
40
0.695312500000012
40
0.695312500000012
40
0.703125000000011
40
0.703125000000011
40
0.718750000000011
40
0.718750000000011
40
0.750000000000009
40
0.750000000000009
40
0.781250000000008
40
0.781250000000008
40
0.812500000000007
40
0.812500000000007
40
0.843750000000006
40
0.843750000000006
40
0.875000000000005
40
0.875000000000005
40
0.906250000000004
40
0.906250000000004
40
0.937500000000002
40
0.937500000000002
40
0.968750000000001
40
0.968750000000001
40
1
40
1
40
1
40
1
41
1
10
89.3625742749612
20
10.1205
30
0
41
1
10
89.4402187017232
20
10.1205
30
0
41
1
10
89.5178631284851
20
10.0934368649456
30
0
41
1
10
89.673151982009
20
9.97750101982868
30
0
41
1
10
89.750796408771
20
9.88858854685566
30
0
41
1
10
89.9060852622949
20
9.64362903832566
30
0
41
1
10
89.9837296890568
20
9.48754813236391
30
0
41
1
10
90.1390185425807
20
9.10649937718938
30
0
41
1
10
90.2166629693426
20
8.88151324346089
30
0
41
1
10
90.3719518228666
20
8.36529398595724
30
0
41
1
10
90.4495962496285
20
8.0740656825985
30
0
41
1
10
90.6048851031524
20
7.43262140866952
30
0
41
1
10
90.6825295299144
20
7.08243512519797
30
0
41
1
10
90.8378183834383
20
6.33443581663803
30
0
41
1
10
90.9154628102003
20
5.93667175475451
30
0
41
1
10
91.0707516637241
20
5.10777103314763
30
0
41
1
10
91.1483960904861
20
4.67669135834984
30
0
41
1
10
91.3036849440101
20
3.79667020438575
30
0
41
1
10
91.3813293707721
20
3.34778107070767
30
0
41
1
10
91.536618224296
20
2.44722033922426
30
0
41
1
10
91.6142626510579
20
1.99558686292858
30
0
41
1
10
91.7695515045817
20
1.10279563926807
30
0
41
1
10
91.8471959313439
20
0.661657749560817
30
0
41
1
10
91.934545911451
20
0.177208604949243
30
0
41
1
10
91.9442514647962
20
0.123543352053844
30
0
41
1
10
91.9636625714868
20
0.0165549739457447
30
0
41
1
10
91.973368124832
20
-0.0367069514615821
30
0
41
1
10
92.0024847848676
20
-0.197318200146185
30
0
41
1
10
92.0218958915582
20
-0.305072728143415
30
0
41
1
10
92.0801292116296
20
-0.630164629020186
30
0
41
1
10
92.1189514250106
20
-0.84933608984187
30
0
41
1
10
92.2354180651535
20
-1.51226820383388
30
0
41
1
10
92.3130624919154
20
-1.96152697512213
30
0
41
1
10
92.4683513454394
20
-2.86235638053492
30
0
41
1
10
92.5459957722013
20
-3.31389529655203
30
0
41
1
10
92.7012846257253
20
-4.20475654686473
30
0
41
1
10
92.7789290524872
20
-4.6440308074948
30
0
41
1
10
92.934217906011
20
-5.49483903596956
30
0
41
1
10
93.0118623327731
20
-5.90631630586446
30
0
41
1
10
93.167151186297
20
-6.68661869031834
30
0
41
1
10
93.244795613059
20
-7.055390485434
30
0
41
1
10
93.4000844665828
20
-7.73768136331117
30
0
41
1
10
93.4777288933448
20
-8.05116282472554
30
0
41
1
10
93.6330177468688
20
-8.61399363818219
30
0
41
1
10
93.7106621736307
20
-8.86332905818361
30
0
41
1
10
93.8659510271546
20
-9.29350781871989
30
0
41
1
10
93.9435954539165
20
-9.47436177378941
30
0
41
1
10
94.0988843074405
20
-9.76778300101884
30
0
41
1
10
94.1765287342024
20
-9.88037963044258
30
0
41
1
10
94.3318175877263
20
-10.0414297661418
30
0
41
1
10
94.4094620144883
20
-10.0899220128994
30
0
41
1
10
94.5065175479407
20
-10.114836887054
30
0
41
1
10
94.5259286546312
20
-10.1180401864492
30
0
41
1
10
94.5647508680123
20
-10.1210149036644
30
0
41
1
10
94.5841619747027
20
-10.1208047157842
30
0
41
1
10
94.6423952947741
20
-10.1150446680265
30
0
41
1
10
94.6812175081551
20
-10.1043048456642
30
0
41
1
10
94.797684148298
20
-10.0499048529543
30
0
41
1
10
94.8753285750599
20
-9.98397890178057
30
0
41
1
10
95.0306174285839
20
-9.78654999454244
30
0
41
1
10
95.1082618553459
20
-9.65500994040642
30
0
41
1
10
95.2635507088698
20
-9.32319945981143
30
0
41
1
10
95.3411951356318
20
-9.12290408586324
30
0
41
1
10
95.4964839891556
20
-8.65458284236055
30
0
41
1
10
95.5741284159176
20
-8.38655292579912
30
0
41
1
10
95.7294172694415
20
-7.78838188899564
30
0
41
1
10
95.8070616962035
20
-7.45826178320962
30
0
41
1
10
95.9623505497274
20
-6.74590449750571
30
0
41
1
10
96.0399949764893
20
-6.36371042872935
30
0
41
1
10
96.1952838300132
20
-5.56059343579506
30
0
41
1
10
96.2729282567752
20
-5.13972610420265
30
0
41
1
10
96.4282171102992
20
-4.27452188951119
30
0
41
1
10
96.505861537061
20
-3.83024036262472
30
0
41
1
10
96.6611503905849
20
-2.93362388094735
30
0
41
1
10
96.7387948173468
20
-2.48133293308717
30
0
41
1
10
96.8164392441088
20
-2.03203670737861
30
0
0
SPLINE
5
D6
100
AcDbEntity
8
1
62
256
6
ByLayer
370
13
48
1
60
0
100
AcDbSpline
70
4
71
3
72
34
73
30
40
0
40
0
40
0
40
0
40
0.125
40
0.125
40
0.1875
40
0.1875
40
0.25
40
0.25
40
0.3125
40
0.3125
40
0.375
40
0.375
40
0.437499999999999
40
0.437499999999999
40
0.499999999999999
40
0.499999999999999
40
0.562499999999999
40
0.562499999999999
40
0.624999999999999
40
0.624999999999999
40
0.6875
40
0.6875
40
0.75
40
0.75
40
0.8125
40
0.8125
40
0.875
40
0.875
40
1
40
1
40
1
40
1
41
1
10
86.4
20
0.487464888314946
30
0
41
1
10
86.5048434619678
20
1.07423669359443
30
0
41
1
10
86.6096869239356
20
1.67866917212382
30
0
41
1
10
86.7669521168872
20
2.59045079032359
30
0
41
1
10
86.8193738478711
20
2.89515830160033
30
0
41
1
10
86.9242173098388
20
3.5018189613281
30
0
41
1
10
86.9766390408227
20
3.80376621886299
30
0
41
1
10
87.0814825027904
20
4.40025895245645
30
0
41
1
10
87.1339042337744
20
4.69479720476164
30
0
41
1
10
87.2387476957421
20
5.27169881371572
30
0
41
1
10
87.291169426726
20
5.55405420507668
30
0
41
1
10
87.3960128886938
20
6.10192165151335
30
0
41
1
10
87.4484346196776
20
6.36742577395808
30
0
41
1
10
87.5532780816454
20
6.87726853835028
30
0
41
1
10
87.6056998126293
20
7.12160011963934
30
0
41
1
10
87.7105432745969
20
7.58535012673389
30
0
41
1
10
87.7629650055809
20
7.80476312272822
30
0
41
1
10
87.8678084675487
20
8.21569292589447
30
0
41
1
10
87.9202301985326
20
8.40720647595049
30
0
41
1
10
88.0250736605004
20
8.76025115247523
30
0
41
1
10
88.0774953914842
20
8.92178142828391
30
0
41
1
10
88.1823388534519
20
9.21373233102489
30
0
41
1
10
88.2347605844358
20
9.3441544167575
30
0
41
1
10
88.3396040464037
20
9.57371091870377
30
0
41
1
10
88.3920257773875
20
9.67284872240606
30
0
41
1
10
88.4968692393552
20
9.84053343331038
30
0
41
1
10
88.5492909703391
20
9.90908508958793
30
0
41
1
10
88.7065561632908
20
10.0710244857926
30
0
41
1
10
88.8113996252586
20
10.1205
30
0
41
1
10
88.9162430872263
20
10.1205
30
0
0
SPLINE
5
D7
100
AcDbEntity
8
1
62
256
6
ByLayer
370
13
48
1
60
0
100
AcDbSpline
70
4
71
3
72
84
73
80
40
0
40
0
40
0
40
0
40
0.0312500000000013
40
0.0312500000000013
40
0.0625000000000026
40
0.0625000000000026
40
0.0937500000000039
40
0.0937500000000039
40
0.125000000000005
40
0.125000000000005
40
0.156250000000006
40
0.156250000000006
40
0.187500000000008
40
0.187500000000008
40
0.218750000000009
40
0.218750000000009
40
0.25000000000001
40
0.25000000000001
40
0.281250000000012
40
0.281250000000012
40
0.312500000000013
40
0.312500000000013
40
0.320312500000013
40
0.320312500000013
40
0.328125000000013
40
0.328125000000013
40
0.343750000000013
40
0.343750000000013
40
0.375000000000013
40
0.375000000000013
40
0.406250000000014
40
0.406250000000014
40
0.437500000000014
40
0.437500000000014
40
0.468750000000014
40
0.468750000000014
40
0.500000000000015
40
0.500000000000015
40
0.531250000000015
40
0.531250000000015
40
0.562500000000016
40
0.562500000000016
40
0.593750000000016
40
0.593750000000016
40
0.625000000000016
40
0.625000000000016
40
0.640625000000016
40
0.640625000000016
40
0.648437500000016
40
0.652343750000017
40
0.652343750000017
40
0.656250000000017
40
0.656250000000017
40
0.687500000000015
40
0.687500000000015
40
0.718750000000014
40
0.718750000000014
40
0.750000000000013
40
0.750000000000013
40
0.781250000000011
40
0.781250000000011
40
0.81250000000001
40
0.81250000000001
40
0.843750000000008
40
0.843750000000008
40
0.875000000000007
40
0.875000000000007
40
0.906250000000006
40
0.906250000000006
40
0.937500000000004
40
0.937500000000004
40
0.968750000000003
40
0.968750000000003
40
0.976562500000002
40
0.980468750000002
40
0.980468750000002
40
0.984375000000002
40
0.984375000000002
40
1
40
1
40
1
40
1
41
1
10
88.8688119826046
20
10.1205
30
0
41
1
10
88.9515997665786
20
10.1205
30
0
41
1
10
89.0343875505526
20
10.0897197927013
30
0
41
1
10
89.1999631185006
20
9.95736502553538
30
0
41
1
10
89.2827509024747
20
9.85573588750214
30
0
41
1
10
89.4483264704227
20
9.57559195833304
30
0
41
1
10
89.5311142543967
20
9.39703266821752
30
0
41
1
10
89.6966898223448
20
8.96172450343818
30
0
41
1
10
89.7794776063187
20
8.70495618632924
30
0
41
1
10
89.9450531742667
20
8.11772934572673
30
0
41
1
10
90.0278409582406
20
7.78728671917199
30
0
41
1
10
90.1934165261887
20
7.06309891641226
30
0
41
1
10
90.2762043101626
20
6.66940470671881
30
0
41
1
10
90.4417798781107
20
5.83397353185833
30
0
41
1
10
90.5245676620847
20
5.39231043847212
30
0
41
1
10
90.6901432300327
20
4.47914351869608
30
0
41
1
10
90.7729310140067
20
4.00771718557866
30
0
41
1
10
90.9385065819548
20
3.05381979365708
30
0
41
1
10
91.0212943659287
20
2.57141161591045
30
0
41
1
10
91.1868699338767
20
1.6127690367548
30
0
41
1
10
91.2696577178507
20
1.13657231568311
30
0
41
1
10
91.3731424478183
20
0.553997765505983
30
0
41
1
10
91.3938393938117
20
0.438107583006314
30
0
41
1
10
91.4352332857987
20
0.207759388763947
30
0
41
1
10
91.4559302317922
20
0.0934740363047126
30
0
41
1
10
91.5180210697728
20
-0.248069397701016
30
0
41
1
10
91.5594149617597
20
-0.478933570935368
30
0
41
1
10
91.6835966377207
20
-1.17890873324308
30
0
41
1
10
91.7663844216947
20
-1.65551258008745
30
0
41
1
10
91.9319599896427
20
-2.61449668817917
30
0
41
1
10
92.0147477736168
20
-3.09683845676088
30
0
41
1
10
92.1803233415648
20
-4.05005672121706
30
0
41
1
10
92.2631111255388
20
-4.52086969906483
30
0
41
1
10
92.4286866934868
20
-5.43224675164464
30
0
41
1
10
92.5114744774608
20
-5.87273315199525
30
0
41
1
10
92.6770500454087
20
-6.70530097590915
30
0
41
1
10
92.7598378293828
20
-7.09730894838751
30
0
41
1
10
92.9254133973308
20
-7.81773430519334
30
0
41
1
10
93.0082011813047
20
-8.1461016464055
30
0
41
1
10
93.1737767492527
20
-8.72895394136165
30
0
41
1
10
93.2565645332268
20
-8.98342411061384
30
0
41
1
10
93.4221401011748
20
-9.41409211277491
30
0
41
1
10
93.5049278851488
20
-9.59031032485191
30
0
41
1
10
93.6705034530968
20
-9.86589035103896
30
0
41
1
10
93.7532912370708
20
-9.9652971874531
30
0
41
1
10
93.8774729130319
20
-10.0614096181011
30
0
41
1
10
93.9188668050188
20
-10.0846468112105
30
0
41
1
10
93.9809576429993
20
-10.1071168759644
30
0
41
1
10
94.0120030619895
20
-10.1152575819054
30
0
41
1
10
94.0430484809798
20
-10.1189261198491
30
0
41
1
10
94.0637454269733
20
-10.1203977575194
30
0
41
1
10
94.07409389997
20
-10.1206473772536
30
0
41
1
10
94.1672301569407
20
-10.1185821003159
30
0
41
1
10
94.2500179409149
20
-10.0858109699582
30
0
41
1
10
94.4155935088629
20
-9.94923735781975
30
0
41
1
10
94.4983812928368
20
-9.84538038476686
30
0
41
1
10
94.6639568607849
20
-9.56066578744799
30
0
41
1
10
94.7467446447588
20
-9.37976420136232
30
0
41
1
10
94.9123202127068
20
-8.93981867641813
30
0
41
1
10
94.9951079966809
20
-8.68075624147369
30
0
41
1
10
95.1606835646289
20
-8.08916824325064
30
0
41
1
10
95.2434713486029
20
-7.75665968923676
30
0
41
1
10
95.4090469165509
20
-7.02873256517699
30
0
41
1
10
95.4918347005249
20
-6.63336587382366
30
0
41
1
10
95.6574102684729
20
-5.79510151073296
30
0
41
1
10
95.7401980524469
20
-5.35227811364067
30
0
41
1
10
95.9057736203949
20
-4.43735461947495
30
0
41
1
10
95.9885614043689
20
-3.9653318178068
30
0
41
1
10
96.1541369723169
20
-3.01078761758899
30
0
41
1
10
96.2369247562909
20
-2.52832845357366
30
0
41
1
10
96.4025003242389
20
-1.57005541029639
30
0
41
1
10
96.4852881082129
20
-1.09427839825207
30
0
41
1
10
96.5887728381804
20
-0.512455485373437
30
0
41
1
10
96.6198182571708
20
-0.338862656350358
30
0
41
1
10
96.6508636761608
20
-0.166904293992303
30
0
41
1
10
96.6715606221544
20
-0.0526494153307056
30
0
41
1
10
96.6819090951511
20
0.004154268767536
30
0
41
1
10
96.7336514601349
20
0.289242113137419
30
0
41
1
10
96.7750453521219
20
0.520442125136299
30
0
41
1
10
96.8164392441089
20
0.75405694136586
30
0
0
SPLINE
5
D8
100
AcDbEntity
8
1
62
256
6
ByLayer
370
13
48
1
60
0
100
AcDbSpline
70
4
71
3
72
22
73
18
40
0
40
0
40
0
40
0
40
0.125
40
0.125
40
0.25
40
0.25
40
0.375
40
0.375
40
0.5
40
0.5
40
0.625
40
0.625
40
0.75
40
0.75
40
0.875
40
0.875
40
1
40
1
40
1
40
1
41
1
10
86.4
20
3.32550795208508
30
0
41
1
10
86.4842700331196
20
3.81242702389312
30
0
41
1
10
86.5685400662392
20
4.29497602598658
30
0
41
1
10
86.7370801324784
20
5.23177457407618
30
0
41
1
10
86.8213501655979
20
5.68594050011623
30
0
41
1
10
86.989890231837
20
6.54656734026253
30
0
41
1
10
87.0741602649566
20
6.95294607359617
30
0
41
1
10
87.2427003311957
20
7.70144775643234
30
0
41
1
10
87.3269703643153
20
8.04351208344613
30
0
41
1
10
87.4955104305544
20
8.65188411094212
30
0
41
1
10
87.5797804636741
20
8.91817152493545
30
0
41
1
10
87.7483205299132
20
9.36976851513009
30
0
41
1
10
87.8325905630328
20
9.5550974491353
30
0
41
1
10
88.001130629272
20
9.84584129783858
30
0
41
1
10
88.0854006623915
20
9.95130410487434
30
0
41
1
10
88.2539407286306
20
10.0886036755007
30
0
41
1
10
88.3382107617503
20
10.1205
30
0
41
1
10
88.4224807948698
20
10.1205
30
0
0
SPLINE
5
D9
100
AcDbEntity
8
1
62
256
6
ByLayer
370
13
48
1
60
0
100
AcDbSpline
70
4
71
3
72
82
73
78
40
0
40
0
40
0
40
0
40
0.0312499999999997
40
0.0312499999999997
40
0.0624999999999993
40
0.0624999999999993
40
0.093749999999999
40
0.093749999999999
40
0.124999999999999
40
0.124999999999999
40
0.156249999999998
40
0.156249999999998
40
0.187499999999998
40
0.187499999999998
40
0.218749999999997
40
0.218749999999997
40
0.249999999999997
40
0.249999999999997
40
0.281249999999997
40
0.281249999999997
40
0.296874999999996
40
0.296874999999996
40
0.304687499999996
40
0.304687499999996
40
0.312499999999996
40
0.312499999999996
40
0.343749999999996
40
0.343749999999996
40
0.374999999999996
40
0.374999999999996
40
0.406249999999995
40
0.406249999999995
40
0.437499999999995
40
0.437499999999995
40
0.468749999999994
40
0.468749999999994
40
0.499999999999994
40
0.499999999999994
40
0.531249999999993
40
0.531249999999993
40
0.562499999999993
40
0.562499999999993
40
0.593749999999993
40
0.593749999999993
40
0.609374999999992
40
0.609374999999992
40
0.617187499999992
40
0.617187499999992
40
0.624999999999992
40
0.624999999999992
40
0.656249999999993
40
0.656249999999993
40
0.687499999999993
40
0.687499999999993
40
0.718749999999994
40
0.718749999999994
40
0.749999999999994
40
0.749999999999994
40
0.781249999999994
40
0.781249999999994
40
0.812499999999995
40
0.812499999999995
40
0.843749999999995
40
0.843749999999995
40
0.874999999999996
40
0.874999999999996
40
0.906249999999996
40
0.906249999999996
40
0.921874999999996
40
0.921874999999996
40
0.929687499999997
40
0.929687499999997
40
0.937499999999997
40
0.937499999999997
40
0.968749999999998
40
0.968749999999998
40
1
40
1
40
1
40
1
41
1
10
88.3750496902481
20
10.1205
30
0
41
1
10
88.4629808314342
20
10.1205
30
0
41
1
10
88.5509119726203
20
10.0857606143224
30
0
41
1
10
88.7267742549923
20
9.93583667076877
30
0
41
1
10
88.8147053961784
20
9.820578717562
30
0
41
1
10
88.9905676785504
20
9.50277024930872
30
0
41
1
10
89.0784988197365
20
9.30016285771359
30
0
41
1
10
89.2543611021086
20
8.80710596507356
30
0
41
1
10
89.3422922432947
20
8.51663845086566
30
0
41
1
10
89.5181545256667
20
7.85481600708667
30
0
41
1
10
89.6060856668528
20
7.48349501113012
30
0
41
1
10
89.7819479492249
20
6.67422155445587
30
0
41
1
10
89.869879090411
20
6.2363498791357
30
0
41
1
10
90.045741372783
20
5.31377203469577
30
0
41
1
10
90.133672513969
20
4.82917059294826
30
0
41
1
10
90.3095347963412
20
3.83558645147932
30
0
41
1
10
90.3974659375273
20
3.32670234210067
30
0
41
1
10
90.5733282198993
20
2.306496355761
30
0
41
1
10
90.6612593610854
20
1.795243464398
30
0
41
1
10
90.7931560728645
20
1.04066639789596
30
0
41
1
10
90.8371216434575
20
0.791160441136526
30
0
41
1
10
90.9030699993471
20
0.421373720536394
30
0
41
1
10
90.9250527846436
20
0.298854511657566
30
0
41
1
10
90.9690183552366
20
0.0555139484765164
30
0
41
1
10
90.9910011405331
20
-0.0648838547081709
30
0
41
1
10
91.1009150670156
20
-0.673453615727396
30
0
41
1
10
91.1888462082018
20
-1.17403917033013
30
0
41
1
10
91.3647084905738
20
-2.18726285730844
30
0
41
1
10
91.4526396317598
20
-2.69986060528743
30
0
41
1
10
91.6285019141319
20
-3.71735590091069
30
0
41
1
10
91.7164330553179
20
-4.22217539327158
30
0
41
1
10
91.8922953376901
20
-5.20180706405498
30
0
41
1
10
91.9802264788761
20
-5.67651636749395
30
0
41
1
10
92.1560887612482
20
-6.57384571816826
30
0
41
1
10
92.2440199024343
20
-6.99636434468948
30
0
41
1
10
92.4198821848064
20
-7.77063140769934
30
0
41
1
10
92.5078133259924
20
-8.12230948183284
30
0
41
1
10
92.6836756083645
20
-8.74230306415114
30
0
41
1
10
92.7716067495506
20
-9.01059828586148
30
0
41
1
10
92.9474690319227
20
-9.45873961834931
30
0
41
1
10
93.0354001731088
20
-9.63861552738439
30
0
41
1
10
93.2112624554809
20
-9.91217611299092
30
0
41
1
10
93.2991935966669
20
-10.0059241369884
30
0
41
1
10
93.431090308446
20
-10.0880000923108
30
0
41
1
10
93.475055879039
20
-10.1056404009801
30
0
41
1
10
93.5410042349286
20
-10.1185572597765
30
0
41
1
10
93.5629870202251
20
-10.1206073228807
30
0
41
1
10
93.6069525908181
20
-10.1203840427775
30
0
41
1
10
93.6289353761146
20
-10.1181059822332
30
0
41
1
10
93.7388493025971
20
-10.0954135981171
30
0
41
1
10
93.8267804437832
20
-10.0409532178566
30
0
41
1
10
94.0026427261553
20
-9.84933613925583
30
0
41
1
10
94.0905738673413
20
-9.71210808218186
30
0
41
1
10
94.2664361497134
20
-9.34954988664418
30
0
41
1
10
94.3543672908995
20
-9.12417087286195
30
0
41
1
10
94.5302295732715
20
-8.58661917827729
30
0
41
1
10
94.6181607144576
20
-8.2744411813174
30
0
41
1
10
94.7940229968298
20
-7.57220206380703
30
0
41
1
10
94.8819541380158
20
-7.18218818804536
30
0
41
1
10
95.0578164203878
20
-6.34017888728295
30
0
41
1
10
95.1457475615739
20
-5.88827310389092
30
0
41
1
10
95.321609843946
20
-4.94326077688098
30
0
41
1
10
95.4095409851321
20
-4.45026021161033
30
0
41
1
10
95.5854032675043
20
-3.44567290718169
30
0
41
1
10
95.6733344086903
20
-2.93417888725909
30
0
41
1
10
95.8491966910624
20
-1.91396170751528
30
0
41
1
10
95.9371278322484
20
-1.40529788887741
30
0
41
1
10
96.0690245440275
20
-0.657695695255399
30
0
41
1
10
96.1129901146205
20
-0.411026989833914
30
0
41
1
10
96.17893847051
20
-0.0461475599690004
30
0
41
1
10
96.2009212558066
20
0.0742572685917935
30
0
41
1
10
96.2448868263996
20
0.317772244847106
30
0
41
1
10
96.2668696116961
20
0.440373436296284
30
0
41
1
10
96.3767835381786
20
1.05706593106106
30
0
41
1
10
96.4647146793647
20
1.56239837977696
30
0
41
1
10
96.6405769617368
20
2.58041302286478
30
0
41
1
10
96.7285081029228
20
3.09304482046841
30
0
41
1
10
96.8164392441088
20
3.59903960399947
30
0
0
SPLINE
5
DA
100
AcDbEntity
8
1
62
256
6
ByLayer
370
13
48
1
60
0
100
AcDbSpline
70
4
71
3
72
22
73
18
40
0
40
0
40
0
40
0
40
0.125
40
0.125
40
0.250000000000001
40
0.250000000000001
40
0.375
40
0.375
40
0.5
40
0.5
40
0.625
40
0.625
40
0.75
40
0.75
40
0.875
40
0.875
40
1
40
1
40
1
40
1
41
1
10
86.4
20
6.05554716135697
30
0
41
1
10
86.4636966042714
20
6.38247584652709
30
0
41
1
10
86.5273932085428
20
6.69601800295126
30
0
41
1
10
86.6547864170855
20
7.28896069776371
30
0
41
1
10
86.7184830213569
20
7.56834448840988
30
0
41
1
10
86.8458762298998
20
8.08703009262516
30
0
41
1
10
86.9095728341711
20
8.3263215247614
30
0
41
1
10
87.0369660427139
20
8.76076731202363
30
0
41
1
10
87.1006626469853
20
8.95591892719509
30
0
41
1
10
87.228055855528
20
9.3001155748054
30
0
41
1
10
87.2917524597995
20
9.44916523431522
30
0
41
1
10
87.4191456683423
20
9.7012432426898
30
0
41
1
10
87.4828422726135
20
9.80428199429923
30
0
41
1
10
87.6102354811563
20
9.96624557771253
30
0
41
1
10
87.6739320854278
20
10.0251842507982
30
0
41
1
10
87.8013252939705
20
10.1023040348123
30
0
41
1
10
87.8650218982419
20
10.1205
30
0
41
1
10
87.9287185025133
20
10.1205
30
0
0
SPLINE
5
DB
100
AcDbEntity
8
1
62
256
6
ByLayer
370
13
48
1
60
0
100
AcDbSpline
70
4
71
3
72
87
73
83
40
0
40
0
40
0
40
0
40
0.0312499999999994
40
0.0312499999999994
40
0.0624999999999988
40
0.0624999999999988
40
0.0937499999999982
40
0.0937499999999982
40
0.124999999999998
40
0.124999999999998
40
0.156249999999997
40
0.156249999999997
40
0.187499999999996
40
0.187499999999996
40
0.218749999999996
40
0.218749999999996
40
0.249999999999995
40
0.249999999999995
40
0.281249999999995
40
0.281249999999995
40
0.289062499999995
40
0.289062499999995
40
0.292968749999994
40
0.292968749999994
40
0.296874999999994
40
0.296874999999994
40
0.312499999999994
40
0.312499999999994
40
0.343749999999993
40
0.343749999999993
40
0.374999999999991
40
0.374999999999991
40
0.40624999999999
40
0.40624999999999
40
0.437499999999989
40
0.437499999999989
40
0.468749999999988
40
0.468749999999988
40
0.499999999999987
40
0.499999999999987
40
0.531249999999986
40
0.531249999999986
40
0.562499999999984
40
0.562499999999984
40
0.578124999999984
40
0.578124999999984
40
0.582031249999984
40
0.582031249999984
40
0.585937499999984
40
0.585937499999984
40
0.593749999999984
40
0.593749999999984
40
0.624999999999986
40
0.624999999999986
40
0.656249999999987
40
0.656249999999987
40
0.687499999999988
40
0.687499999999988
40
0.718749999999989
40
0.718749999999989
40
0.74999999999999
40
0.74999999999999
40
0.781249999999991
40
0.781249999999991
40
0.812499999999993
40
0.812499999999993
40
0.843749999999994
40
0.843749999999994
40
0.859374999999994
40
0.859374999999994
40
0.867187499999995
40
0.871093749999995
40
0.871093749999995
40
0.874999999999995
40
0.874999999999995
40
0.906249999999997
40
0.906249999999997
40
0.937499999999998
40
0.937499999999998
40
0.968749999999999
40
0.968749999999999
40
1
40
1
40
1
40
1
41
1
10
87.8812873978916
20
10.1205
30
0
41
1
10
87.9743618962896
20
10.1205
30
0
41
1
10
88.0674363946878
20
10.0815585114378
30
0
41
1
10
88.253585391484
20
9.91290562144309
30
0
41
1
10
88.3466598898821
20
9.78309731048117
30
0
41
1
10
88.5328088866784
20
9.4251434003699
30
0
41
1
10
88.6258833850763
20
9.1969270042265
30
0
41
1
10
88.8120323818725
20
8.64273783412585
30
0
41
1
10
88.9051068802706
20
8.3167526448932
30
0
41
1
10
89.0912558770669
20
7.57712029615345
30
0
41
1
10
89.1843303754649
20
7.1635343162325
30
0
41
1
10
89.3704793722611
20
6.26760992449269
30
0
41
1
10
89.4635538706592
20
5.78539188108562
30
0
41
1
10
89.6497028674554
20
4.77711904227337
30
0
41
1
10
89.7427773658536
20
4.25120476382281
30
0
41
1
10
89.9289263626497
20
3.18238187877898
30
0
41
1
10
90.0220008610478
20
2.63959080042434
30
0
41
1
10
90.208149857844
20
1.56175371259721
30
0
41
1
10
90.3012243562421
20
1.02677565018772
30
0
41
1
10
90.4175674792397
20
0.375251885662237
30
0
41
1
10
90.4408361038393
20
0.245792800276462
30
0
41
1
10
90.4757390407386
20
0.0530587227954982
30
0
41
1
10
90.4873733530384
20
-0.010781237061309
30
0
41
1
10
90.5106419776378
20
-0.139055995169485
30
0
41
1
10
90.5222762899376
20
-0.203438834721368
30
0
41
1
10
90.5804478514363
20
-0.526505560840917
30
0
41
1
10
90.6269851006354
20
-0.788662077928905
30
0
41
1
10
90.7665968482326
20
-1.58300615046645
30
0
41
1
10
90.8596713466308
20
-2.12322984594735
30
0
41
1
10
91.045820343427
20
-3.20344917540001
30
0
41
1
10
91.1388948418249
20
-3.74335813231909
30
0
41
1
10
91.3250438386211
20
-4.79716276754149
30
0
41
1
10
91.4181183370192
20
-5.31092875606831
30
0
41
1
10
91.6042673338155
20
-6.28580480502131
30
0
41
1
10
91.6973418322135
20
-6.74677615410482
30
0
41
1
10
91.8834908290096
20
-7.5927397692528
30
0
41
1
10
91.9765653274078
20
-7.97762873427132
30
0
41
1
10
92.1627143242039
20
-8.65522530526761
30
0
41
1
10
92.2557888226021
20
-8.94789727783791
30
0
41
1
10
92.4419378193984
20
-9.4341646254978
30
0
41
1
10
92.5350123177965
20
-9.62779568429181
30
0
41
1
10
92.7211613145926
20
-9.91837658654319
30
0
41
1
10
92.8142358129908
20
-10.0154102546247
30
0
41
1
10
92.9538475605879
20
-10.0957886466553
30
0
41
1
10
93.0003848097869
20
-10.1117684222313
30
0
41
1
10
93.0585563712857
20
-10.119267683511
30
0
41
1
10
93.0701906835856
20
-10.1201443207358
30
0
41
1
10
93.0934593081851
20
-10.1206792325333
30
0
41
1
10
93.1050936204848
20
-10.1203413304158
30
0
41
1
10
93.1399965573841
20
-10.1174796221636
30
0
41
1
10
93.1632651819835
20
-10.11310309722
30
0
41
1
10
93.2796083049812
20
-10.0783313818858
30
0
41
1
10
93.3726828033793
20
-10.0090783980981
30
0
41
1
10
93.5588318001754
20
-9.77639897116018
30
0
41
1
10
93.6519062985735
20
-9.6128807629382
30
0
41
1
10
93.8380552953698
20
-9.18667878184516
30
0
41
1
10
93.931129793768
20
-8.92394131365367
30
0
41
1
10
94.1172787905641
20
-8.30312676027935
30
0
41
1
10
94.2103532889621
20
-7.9450624931396
30
0
41
1
10
94.3965022857583
20
-7.14694686123471
30
0
41
1
10
94.4895767841565
20
-6.70698043635883
30
0
41
1
10
94.6757257809527
20
-5.76646548396067
30
0
41
1
10
94.7688002793508
20
-5.26604947517978
30
0
41
1
10
94.954949276147
20
-4.23070923097114
30
0
41
1
10
95.0480237745451
20
-3.69592190865751
30
0
41
1
10
95.2341727713413
20
-2.61836615294649
30
0
41
1
10
95.3272472697394
20
-2.0756998128461
30
0
41
1
10
95.4668590173365
20
-1.27315784304949
30
0
41
1
10
95.5133962665356
20
-1.00751828040896
30
0
41
1
10
95.5832021403341
20
-0.613660355108578
30
0
41
1
10
95.6181050772334
20
-0.417877450559757
30
0
41
1
10
95.6530080141327
20
-0.224109179645382
30
0
41
1
10
95.6762766387322
20
-0.0954080241227473
30
0
41
1
10
95.687910951032
20
-0.0314235117684234
30
0
41
1
10
95.7926197617299
20
0.544834372021029
30
0
41
1
10
95.8856942601279
20
1.07322809710175
30
0
41
1
10
96.0718432569241
20
2.14451008041689
30
0
41
1
10
96.1649177553222
20
2.68734709400997
30
0
41
1
10
96.3510667521184
20
3.76416603593839
30
0
41
1
10
96.4441412505165
20
4.29804384406094
30
0
41
1
10
96.6302902473127
20
5.33042025348317
30
0
41
1
10
96.7233647457107
20
5.82878122550542
30
0
41
1
10
96.8164392441089
20
6.29646618956659
30
0
0
SPLINE
5
DC
100
AcDbEntity
8
1
62
256
6
ByLayer
370
13
48
1
60
0
100
AcDbSpline
70
4
71
3
72
14
73
10
40
0
40
0
40
0
40
0
40
0.25
40
0.25
40
0.5
40
0.5
40
0.75
40
0.75
40
1
40
1
40
1
40
1
41
1
10
86.4
20
8.26110214891793
30
0
41
1
10
86.4862463508464
20
8.57960936018944
30
0
41
1
10
86.5724927016929
20
8.85883276062381
30
0
41
1
10
86.7449854033855
20
9.33259491139043
30
0
41
1
10
86.831231754232
20
9.5271525166583
30
0
41
1
10
87.0037244559248
20
9.83235005224907
30
0
41
1
10
87.0899708067711
20
9.9430426209465
30
0
41
1
10
87.262463508464
20
10.087084220288
30
0
41
1
10
87.3487098593104
20
10.1205
30
0
41
1
10
87.4349562101568
20
10.1205
30
0
0
SPLINE
5
DD
100
AcDbEntity
8
1
62
256
6
ByLayer
370
13
48
1
60
0
100
AcDbSpline
70
4
71
3
72
86
73
82
40
0
40
0
40
0
40
0
40
0.0312500000000002
40
0.0312500000000002
40
0.0625000000000005
40
0.0625000000000005
40
0.0937500000000007
40
0.0937500000000007
40
0.125000000000001
40
0.125000000000001
40
0.156250000000001
40
0.156250000000001
40
0.187500000000001
40
0.187500000000001
40
0.218750000000002
40
0.218750000000002
40
0.250000000000002
40
0.250000000000002
40
0.265625000000002
40
0.265625000000002
40
0.273437500000002
40
0.273437500000002
40
0.277343750000002
40
0.277343750000002
40
0.281250000000002
40
0.281250000000002
40
0.312500000000002
40
0.312500000000002
40
0.343750000000002
40
0.343750000000002
40
0.375000000000002
40
0.375000000000002
40
0.406250000000002
40
0.406250000000002
40
0.437500000000001
40
0.437500000000001
40
0.468750000000001
40
0.468750000000001
40
0.500000000000001
40
0.500000000000001
40
0.531250000000001
40
0.531250000000001
40
0.546875000000001
40
0.546875000000001
40
0.550781250000001
40
0.550781250000001
40
0.554687500000001
40
0.554687500000001
40
0.562500000000001
40
0.562500000000001
40
0.593750000000001
40
0.593750000000001
40
0.625000000000001
40
0.625000000000001
40
0.656250000000001
40
0.656250000000001
40
0.687500000000001
40
0.687500000000001
40
0.718750000000001
40
0.718750000000001
40
0.750000000000001
40
0.750000000000001
40
0.781250000000001
40
0.781250000000001
40
0.8125
40
0.8125
40
0.828125
40
0.828125
40
0.8359375
40
0.8359375
40
0.84375
40
0.84375
40
0.875
40
0.875
40
0.90625
40
0.90625
40
0.9375
40
0.9375
40
0.96875
40
0.96875
40
1
40
1
40
1
40
1
41
1
10
87.3875251055351
20
10.1205
30
0
41
1
10
87.4857429611451
20
10.1205
30
0
41
1
10
87.5839608167554
20
10.0771125894962
30
0
41
1
10
87.7803965279757
20
9.88856191996894
30
0
41
1
10
87.8786143835857
20
9.74327279809251
30
0
41
1
10
88.075050094806
20
9.34269714406804
30
0
41
1
10
88.1732679504161
20
9.08732476329777
30
0
41
1
10
88.3697036616364
20
8.46874558760413
30
0
41
1
10
88.4679215172466
20
8.10553815459139
30
0
41
1
10
88.664357228467
20
7.28529282444001
30
0
41
1
10
88.7625750840771
20
6.82835498977983
30
0
41
1
10
88.9590107952973
20
5.84501977931245
30
0
41
1
10
89.0572286509075
20
5.31879280471807
30
0
41
1
10
89.2536643621278
20
4.22739997122298
30
0
41
1
10
89.351882217738
20
3.66241334563389
30
0
41
1
10
89.5483179289582
20
2.52467617158183
30
0
41
1
10
89.6465357845684
20
1.9520566008859
30
0
41
1
10
89.7938625679836
20
1.10753698787317
30
0
41
1
10
89.8429714957887
20
0.828386939476871
30
0
41
1
10
89.9166348874963
20
0.415228729776658
30
0
41
1
10
89.9411893513987
20
0.278433516926924
30
0
41
1
10
89.9780210472526
20
0.0748476191689065
30
0
41
1
10
89.9902982792039
20
0.0074373698551824
30
0
41
1
10
90.0148527431064
20
-0.127846520248596
30
0
41
1
10
90.0271299750577
20
-0.195763050869232
30
0
41
1
10
90.1376250626191
20
-0.809325329256922
30
0
41
1
10
90.2358429182292
20
-1.37147022105887
30
0
41
1
10
90.4322786294496
20
-2.50707252192331
30
0
41
1
10
90.5304964850596
20
-3.08044818565185
30
0
41
1
10
90.7269321962799
20
-4.20988620314782
30
0
41
1
10
90.8251500518901
20
-4.76579733046623
30
0
41
1
10
91.0215857631104
20
-5.82880938857474
30
0
41
1
10
91.1198036187205
20
-6.3357267273002
30
0
41
1
10
91.3162393299408
20
-7.27158465667486
30
0
41
1
10
91.414457185551
20
-7.70037178682279
30
0
41
1
10
91.6108928967712
20
-8.458441090669
30
0
41
1
10
91.7091107523814
20
-8.78765476239604
30
0
41
1
10
91.9055464636017
20
-9.33620191331502
30
0
41
1
10
92.0037643192119
20
-9.55556735816307
30
0
41
1
10
92.2002000304321
20
-9.88575812160835
30
0
41
1
10
92.2984178860423
20
-9.99668781292314
30
0
41
1
10
92.4457446694576
20
-10.0898291555007
30
0
41
1
10
92.4948535972625
20
-10.1087307779739
30
0
41
1
10
92.5562397570189
20
-10.1183824148836
30
0
41
1
10
92.5685169889701
20
-10.119614689499
30
0
41
1
10
92.5930714528727
20
-10.1207159195916
30
0
41
1
10
92.605348684824
20
-10.1205896841499
30
0
41
1
10
92.6421803806778
20
-10.1181665044735
30
0
41
1
10
92.6667348445802
20
-10.113811457881
30
0
41
1
10
92.789507164093
20
-10.0776954645965
30
0
41
1
10
92.8877250197032
20
-10.0026733103209
30
0
41
1
10
93.0841607309235
20
-9.74723276664767
30
0
41
1
10
93.1823785865336
20
-9.5666959522859
30
0
41
1
10
93.3788142977538
20
-9.09506616089752
30
0
41
1
10
93.477032153364
20
-8.80391086781438
30
0
41
1
10
93.6734678645844
20
-8.11701707152105
30
0
41
1
10
93.7716857201945
20
-7.72131103630869
30
0
41
1
10
93.9681214314148
20
-6.84299301953564
30
0
41
1
10
94.0663392870248
20
-6.36050934131811
30
0
41
1
10
94.2627749982452
20
-5.33556371518557
30
0
41
1
10
94.3609928538553
20
-4.79328232694576
30
0
41
1
10
94.5574285650756
20
-3.68008218728511
30
0
41
1
10
94.6556464206857
20
-3.10933207363453
30
0
41
1
10
94.852082131906
20
-1.96946172228536
30
0
41
1
10
94.9502999875161
20
-1.40044954796508
30
0
41
1
10
95.0976267709314
20
-0.566816525173778
30
0
41
1
10
95.1467356987364
20
-0.292201088581805
30
0
41
1
10
95.2203990904441
20
0.113027118524144
30
0
41
1
10
95.2449535543465
20
0.248762814081857
30
0
41
1
10
95.2940624821516
20
0.522652810282665
30
0
41
1
10
95.3186169460541
20
0.66058351482377
30
0
41
1
10
95.4413892655668
20
1.35438547980749
30
0
41
1
10
95.539607121177
20
1.92297210292548
30
0
41
1
10
95.7360428323972
20
3.06275083759652
30
0
41
1
10
95.8342606880074
20
3.63383688829896
30
0
41
1
10
96.0306963992279
20
4.74856819647351
30
0
41
1
10
96.1289142548378
20
5.2920459610078
30
0
41
1
10
96.3253499660582
20
6.32020527268864
30
0
41
1
10
96.4235678216684
20
6.80470572835497
30
0
41
1
10
96.6200035328886
20
7.6876899196933
30
0
41
1
10
96.7182213884988
20
8.08604318104483
30
0
41
1
10
96.8164392441089
20
8.43230535492617
30
0
0
SPLINE
5
DE
100
AcDbEntity
8
1
62
256
6
ByLayer
370
13
48
1
60
0
100
AcDbSpline
70
4
71
3
72
10
73
6
40
0
40
0
40
0
40
0
40
0.5
40
0.5
40
1
40
1
40
1
40
1
41
1
10
86.4
20
9.63673774429759
30
0
41
1
10
86.4901989863
20
9.80433976436072
30
0
41
1
10
86.5803979726001
20
9.92589923947102
30
0
41
1
10
86.7607959452001
20
10.0839377865373
30
0
41
1
10
86.8509949315002
20
10.1205
30
0
41
1
10
86.9411939178002
20
10.1205
30
0
0
SPLINE
5
DF
100
AcDbEntity
8
1
62
256
6
ByLayer
370
13
48
1
60
0
100
AcDbSpline
70
4
71
3
72
132
73
128
40
0
40
0
40
0
40
0
40
0.0312500000000007
40
0.0312500000000007
40
0.0468750000000011
40
0.0468750000000011
40
0.0625000000000014
40
0.0625000000000014
40
0.0781250000000018
40
0.0781250000000018
40
0.0937500000000022
40
0.0937500000000022
40
0.109375000000002
40
0.109375000000002
40
0.125000000000003
40
0.125000000000003
40
0.140625000000003
40
0.140625000000003
40
0.156250000000004
40
0.156250000000004
40
0.171875000000004
40
0.171875000000004
40
0.187500000000004
40
0.187500000000004
40
0.203125000000005
40
0.203125000000005
40
0.218750000000005
40
0.218750000000005
40
0.250000000000006
40
0.250000000000006
40
0.257812500000006
40
0.257812500000006
40
0.261718750000006
40
0.261718750000006
40
0.265625000000006
40
0.265625000000006
40
0.281250000000006
40
0.281250000000006
40
0.312500000000004
40
0.312500000000004
40
0.328125000000003
40
0.328125000000003
40
0.343750000000002
40
0.343750000000002
40
0.359375000000002
40
0.359375000000002
40
0.375000000000001
40
0.375000000000001
40
0.390625
40
0.390625
40
0.406249999999999
40
0.406249999999999
40
0.421874999999999
40
0.421874999999999
40
0.437499999999998
40
0.437499999999998
40
0.453124999999997
40
0.453124999999997
40
0.468749999999996
40
0.468749999999996
40
0.499999999999995
40
0.499999999999995
40
0.515624999999994
40
0.515624999999994
40
0.523437499999994
40
0.523437499999994
40
0.527343749999994
40
0.527343749999994
40
0.531249999999993
40
0.531249999999993
40
0.562499999999994
40
0.562499999999994
40
0.578124999999995
40
0.578124999999995
40
0.593749999999995
40
0.593749999999995
40
0.609374999999995
40
0.609374999999995
40
0.624999999999996
40
0.624999999999996
40
0.640624999999996
40
0.640624999999996
40
0.656249999999996
40
0.656249999999996
40
0.671874999999997
40
0.671874999999997
40
0.687499999999997
40
0.687499999999997
40
0.703124999999997
40
0.703124999999997
40
0.718749999999998
40
0.718749999999998
40
0.734374999999998
40
0.734374999999998
40
0.749999999999998
40
0.749999999999998
40
0.781249999999999
40
0.781249999999999
40
0.785156249999999
40
0.785156249999999
40
0.789062499999999
40
0.789062499999999
40
0.796874999999999
40
0.796874999999999
40
0.8125
40
0.8125
40
0.84375
40
0.84375
40
0.859375
40
0.859375
40
0.875
40
0.875
40
0.890625
40
0.890625
40
0.90625
40
0.90625
40
0.921875
40
0.921875
40
0.9375
40
0.9375
40
0.953125
40
0.953125
40
0.96875
40
0.96875
40
0.984375
40
0.984375
40
1
40
1
40
1
40
1
41
1
10
86.8937628131785
20
10.1205
30
0
41
1
10
86.9971240260006
20
10.1205
30
0
41
1
10
87.1004852388229
20
10.0724218748331
30
0
41
1
10
87.2555270580561
20
9.9152024667122
30
0
41
1
10
87.3072076644673
20
9.84865849711525
30
0
41
1
10
87.4105688772895
20
9.68589515432299
30
0
41
1
10
87.4622494837006
20
9.58967131684565
30
0
41
1
10
87.5656106965228
20
9.3668395319479
30
0
41
1
10
87.617291302934
20
9.24022834218721
30
0
41
1
10
87.7206525157561
20
8.95673290949085
30
0
41
1
10
87.7723331221671
20
8.79984716625339
30
0
41
1
10
87.8756943349894
20
8.45680651171955
30
0
41
1
10
87.9273749414004
20
8.27065220235096
30
0
41
1
10
88.0307361542226
20
7.87098580649081
30
0
41
1
10
88.0824167606338
20
7.65747653637155
30
0
41
1
10
88.1857779734559
20
7.20586800518723
30
0
41
1
10
88.2374585798669
20
6.96777359310468
30
0
41
1
10
88.3408197926892
20
6.47050297786149
30
0
41
1
10
88.3925003991003
20
6.21133319400252
30
0
41
1
10
88.4958616119226
20
5.67598937307014
30
0
41
1
10
88.5475422183336
20
5.3998226569756
30
0
41
1
10
88.6509034311557
20
4.83492298334542
30
0
41
1
10
88.7025840375669
20
4.54619749036993
30
0
41
1
10
88.8059452503891
20
3.96075398057599
30
0
41
1
10
88.8576258568002
20
3.66404285358979
30
0
41
1
10
88.9609870696223
20
3.06711947238824
30
0
41
1
10
89.0126676760334
20
2.76691296409285
30
0
41
1
10
89.1677094952668
20
1.86736799285177
30
0
41
1
10
89.2710707080889
20
1.26938102064398
30
0
41
1
10
89.4002722241166
20
0.541661364102197
30
0
41
1
10
89.4261125273223
20
0.397084697789836
30
0
41
1
10
89.4648729821306
20
0.181935590171577
30
0
41
1
10
89.4777931337333
20
0.110504915063615
30
0
41
1
10
89.5036334369389
20
-0.0317443552381462
30
0
41
1
10
89.5165535885416
20
-0.102788186964176
30
0
41
1
10
89.5811543465555
20
-0.460300813552721
30
0
41
1
10
89.6328349529666
20
-0.751027393175519
30
0
41
1
10
89.7878767721999
20
-1.63297840833331
30
0
41
1
10
89.891237985022
20
-2.23421511441526
30
0
41
1
10
90.0462798042553
20
-3.13358399111104
30
0
41
1
10
90.0979604106664
20
-3.43289406845736
30
0
41
1
10
90.2013216234885
20
-4.02621773879739
30
0
41
1
10
90.2530022298998
20
-4.32022506374648
30
0
41
1
10
90.356363442722
20
-4.89839512894164
30
0
41
1
10
90.408044049133
20
-5.1825506658638
30
0
41
1
10
90.5114052619552
20
-5.7364721489017
30
0
41
1
10
90.5630858683663
20
-6.00623059718754
30
0
41
1
10
90.6664470811885
20
-6.52703916944091
30
0
41
1
10
90.7181276875996
20
-6.77808225059334
30
0
41
1
10
90.8214889004217
20
-7.25758871738057
30
0
41
1
10
90.8731695068329
20
-7.48604625251474
30
0
41
1
10
90.9765307196551
20
-7.91715382311031
30
0
41
1
10
91.0282113260662
20
-8.11979979719143
30
0
41
1
10
91.1315725388883
20
-8.49685082598842
30
0
41
1
10
91.1832531452994
20
-8.67125396213595
30
0
41
1
10
91.2866143581217
20
-8.99027109237872
30
0
41
1
10
91.3382949645328
20
-9.1348853707174
30
0
41
1
10
91.441656177355
20
-9.39368622322203
30
0
41
1
10
91.493336783766
20
-9.507875062658
30
0
41
1
10
91.6483786029993
20
-9.80514764210341
30
0
41
1
10
91.7517398158215
20
-9.94262586459439
30
0
41
1
10
91.9067816350548
20
-10.0657719443156
30
0
41
1
10
91.9584622414658
20
-10.0930599469101
30
0
41
1
10
92.0359831510824
20
-10.1149546460935
30
0
41
1
10
92.0618234542881
20
-10.1190833519867
30
0
41
1
10
92.1005839090965
20
-10.1207478831544
30
0
41
1
10
92.1135040606991
20
-10.1205538635155
30
0
41
1
10
92.1393443639047
20
-10.1186532582971
30
0
41
1
10
92.1522645155076
20
-10.116943303444
30
0
41
1
10
92.2685458799325
20
-10.0945462351682
30
0
41
1
10
92.3719070927547
20
-10.0245214842484
30
0
41
1
10
92.5269489119879
20
-9.83238163187514
30
0
41
1
10
92.578629518399
20
-9.75387227649941
30
0
41
1
10
92.6819907312213
20
-9.56679701773695
30
0
41
1
10
92.7336713376324
20
-9.45822707945891
30
0
41
1
10
92.8370325504545
20
-9.21064407113255
30
0
41
1
10
92.8887131568657
20
-9.07162841284563
30
0
41
1
10
92.9920743696878
20
-8.76362321334796
30
0
41
1
10
93.0437549760989
20
-8.5946329977171
30
0
41
1
10
93.1471161889211
20
-8.22805438147483
30
0
41
1
10
93.1987967953322
20
-8.0304674881699
30
0
41
1
10
93.3021580081544
20
-7.60896597834855
30
0
41
1
10
93.3538386145655
20
-7.38505504563679
30
0
41
1
10
93.4571998273877
20
-6.91399250707371
30
0
41
1
10
93.5088804337988
20
-6.66684646010236
30
0
41
1
10
93.612241646621
20
-6.15307723387792
30
0
41
1
10
93.6639222530321
20
-5.88646093021811
30
0
41
1
10
93.7672834658543
20
-5.33800231309721
30
0
41
1
10
93.8189640722654
20
-5.05616747125907
30
0
41
1
10
93.9223252850875
20
-4.48179235973234
30
0
41
1
10
93.9740058914987
20
-4.18925940067047
30
0
41
1
10
94.0773671043207
20
-3.59805343239188
30
0
41
1
10
94.1290477107319
20
-3.29938690415435
30
0
41
1
10
94.2324089235541
20
-2.70031461992471
30
0
41
1
10
94.2840895299652
20
-2.39991402877433
30
0
41
1
10
94.4391313491985
20
-1.50219323546665
30
0
41
1
10
94.5424925620207
20
-0.908643055128891
30
0
41
1
10
94.6587739264456
20
-0.261322542042251
30
0
41
1
10
94.6716940780485
20
-0.189675924714209
30
0
41
1
10
94.697534381254
20
-0.0469800085635654
30
0
41
1
10
94.7104545328567
20
0.0238864803212095
30
0
41
1
10
94.749214987665
20
0.23773574102114
30
0
41
1
10
94.7750552908706
20
0.381506427416923
30
0
41
1
10
94.8525762004873
20
0.815922525966727
30
0
41
1
10
94.9042568068984
20
1.10968974600252
30
0
41
1
10
95.0592986261316
20
1.9987291906815
30
0
41
1
10
95.1626598389539
20
2.60195617021375
30
0
41
1
10
95.317701658187
20
3.49906796113413
30
0
41
1
10
95.3693822645982
20
3.79675702429461
30
0
41
1
10
95.4727434774204
20
4.38499800443793
30
0
41
1
10
95.5244240838315
20
4.67554320583048
30
0
41
1
10
95.6277852966537
20
5.24492346919911
30
0
41
1
10
95.6794659030648
20
5.52375112185203
30
0
41
1
10
95.782827115887
20
6.06521618047472
30
0
41
1
10
95.8345077222981
20
6.32784618133701
30
0
41
1
10
95.9378689351203
20
6.83275377714781
30
0
41
1
10
95.9895495415313
20
7.07502473149881
30
0
41
1
10
96.0929107543535
20
7.53558367980216
30
0
41
1
10
96.1445913607647
20
7.75386649245567
30
0
41
1
10
96.2479525735868
20
8.1635301241821
30
0
41
1
10
96.299633179998
20
8.35490772885194
30
0
41
1
10
96.4029943928202
20
8.70868112159741
30
0
41
1
10
96.4546749992312
20
8.87107589872821
30
0
41
1
10
96.5580362120535
20
9.16570704493518
30
0
41
1
10
96.6097168184645
20
9.29794454677247
30
0
41
1
10
96.7130780312867
20
9.53198544651772
30
0
41
1
10
96.7647586376978
20
9.63379180078826
30
0
41
1
10
96.8164392441089
20
9.72066230215816
30
0
0
SPLINE
5
E0
100
AcDbEntity
8
1
62
256
6
ByLayer
370
13
48
1
60
0
100
AcDbSpline
70
4
71
3
72
8
73
4
40
0
40
0
40
0
40
0
40
1
40
1
40
1
40
1
41
1
10
86.4000000000001
20
10.1171069306174
30
0
41
1
10
86.4158105418146
20
10.1193807279285
30
0
41
1
10
86.4316210836291
20
10.1205
30
0
41
1
10
86.4474316254436
20
10.1205
30
0
0
SPLINE
5
E1
100
AcDbEntity
8
1
62
256
6
ByLayer
370
13
48
1
60
0
100
AcDbSpline
70
4
71
3
72
134
73
130
40
0
40
0
40
0
40
0
40
0.0156250000000001
40
0.0156250000000001
40
0.0312500000000002
40
0.0312500000000002
40
0.0468750000000002
40
0.0468750000000002
40
0.0625000000000003
40
0.0625000000000003
40
0.0781250000000004
40
0.0781250000000004
40
0.0937500000000004
40
0.0937500000000004
40
0.109375000000001
40
0.109375000000001
40
0.125000000000001
40
0.125000000000001
40
0.140625000000001
40
0.140625000000001
40
0.156250000000001
40
0.156250000000001
40
0.171875000000001
40
0.171875000000001
40
0.187500000000001
40
0.187500000000001
40
0.203125000000001
40
0.203125000000001
40
0.218750000000001
40
0.218750000000001
40
0.234375000000001
40
0.234375000000001
40
0.250000000000001
40
0.250000000000001
40
0.265625000000001
40
0.265625000000001
40
0.281250000000001
40
0.281250000000001
40
0.296875000000001
40
0.296875000000001
40
0.312500000000001
40
0.312500000000001
40
0.328125000000001
40
0.328125000000001
40
0.343750000000001
40
0.343750000000001
40
0.359375000000001
40
0.359375000000001
40
0.375000000000001
40
0.375000000000001
40
0.390625000000001
40
0.390625000000001
40
0.406250000000001
40
0.406250000000001
40
0.421875000000001
40
0.421875000000001
40
0.437500000000001
40
0.437500000000001
40
0.453125000000001
40
0.453125000000001
40
0.468750000000001
40
0.468750000000001
40
0.484375000000001
40
0.484375000000001
40
0.500000000000001
40
0.500000000000001
40
0.515625000000001
40
0.515625000000001
40
0.531250000000001
40
0.531250000000001
40
0.546875000000001
40
0.546875000000001
40
0.562500000000001
40
0.562500000000001
40
0.578125000000001
40
0.578125000000001
40
0.593750000000001
40
0.593750000000001
40
0.609375000000001
40
0.609375000000001
40
0.625000000000001
40
0.625000000000001
40
0.640625000000001
40
0.640625000000001
40
0.656250000000001
40
0.656250000000001
40
0.671875000000001
40
0.671875000000001
40
0.687500000000001
40
0.687500000000001
40
0.703125000000001
40
0.703125000000001
40
0.718750000000001
40
0.718750000000001
40
0.734375000000001
40
0.734375000000001
40
0.750000000000001
40
0.750000000000001
40
0.765625000000001
40
0.765625000000001
40
0.781250000000001
40
0.781250000000001
40
0.796875000000001
40
0.796875000000001
40
0.8125
40
0.8125
40
0.828125
40
0.828125
40
0.84375
40
0.84375
40
0.859375
40
0.859375
40
0.875
40
0.875
40
0.890625
40
0.890625
40
0.90625
40
0.90625
40
0.921875
40
0.921875
40
0.9375
40
0.9375
40
0.953125
40
0.953125
40
0.96875
40
0.96875
40
0.984375
40
0.984375
40
1
40
1
40
1
40
1
41
1
10
86.400000520822
20
10.1205
30
0
41
1
10
86.4542528058391
20
10.1205
30
0
41
1
10
86.5085050908563
20
10.1073065795262
30
0
41
1
10
86.6170096608904
20
10.0518167340305
30
0
41
1
10
86.6712619459076
20
10.0095136551185
30
0
41
1
10
86.7797665159418
20
9.89357034178431
30
0
41
1
10
86.8340188009589
20
9.8199236462701
30
0
41
1
10
86.9425233709932
20
9.63975274747051
30
0
41
1
10
86.9967756560103
20
9.53322304275932
30
0
41
1
10
87.1052802260446
20
9.28662210700588
30
0
41
1
10
87.1595325110617
20
9.14654713946891
30
0
41
1
10
87.2680370810958
20
8.83320967777522
30
0
41
1
10
87.322289366113
20
8.65994590749392
30
0
41
1
10
87.4307939361473
20
8.28168057552159
30
0
41
1
10
87.4850462211643
20
8.07668062572921
30
0
41
1
10
87.5935507911986
20
7.63748470512894
30
0
41
1
10
87.6478030762157
20
7.40329327125502
30
0
41
1
10
87.75630764625
20
6.90925567958701
30
0
41
1
10
87.810559931267
20
6.64941658499708
30
0
41
1
10
87.9190645013013
20
6.10844852175666
30
0
41
1
10
87.9733167863184
20
5.82732836289426
30
0
41
1
10
88.0818213563527
20
5.24874512324931
30
0
41
1
10
88.1360736413698
20
4.95129158320177
30
0
41
1
10
88.244578211404
20
4.34529127474536
30
0
41
1
10
88.2988304964211
20
4.0367537212467
30
0
41
1
10
88.4073350664554
20
3.41385241621757
30
0
41
1
10
88.4615873514725
20
3.09949664531072
30
0
41
1
10
88.5700919215068
20
2.46998200892796
30
0
41
1
10
88.6243442065239
20
2.15482926493942
30
0
41
1
10
88.7328487765582
20
1.52828619467528
30
0
41
1
10
88.7871010615752
20
1.2168998449703
30
0
41
1
10
88.8956056316095
20
0.601845216390075
30
0
41
1
10
88.9498579166267
20
0.298178800243534
30
0
41
1
10
89.0583624866609
20
-0.298177368988718
30
0
41
1
10
89.112614771678
20
-0.601843752518761
30
0
41
1
10
89.2211193417122
20
-1.21689835657941
30
0
41
1
10
89.2753716267293
20
-1.52828469691767
30
0
41
1
10
89.3838761967635
20
-2.15482775529026
30
0
41
1
10
89.4381284817806
20
-2.46998049675741
30
0
41
1
10
89.5466330518149
20
-3.09949513581094
30
0
41
1
10
89.600885336832
20
-3.41385091191324
30
0
41
1
10
89.7093899068664
20
-4.03675223562462
30
0
41
1
10
89.7636421918835
20
-4.34528980261263
30
0
41
1
10
89.8721467619176
20
-4.95129014653284
30
0
41
1
10
89.9263990469348
20
-5.24874370855616
30
0
41
1
10
90.034903616969
20
-5.82732700038767
30
0
41
1
10
90.0891559019861
20
-6.10844718946049
30
0
41
1
10
90.1976604720203
20
-6.64941532064634
30
0
41
1
10
90.2519127570375
20
-6.90925445296927
30
0
41
1
10
90.3604173270718
20
-7.40329212649209
30
0
41
1
10
90.4146696120888
20
-7.63748360448434
30
0
41
1
10
90.5231741821229
20
-8.07667961823313
30
0
41
1
10
90.5774264671402
20
-8.28167961705122
30
0
41
1
10
90.6859310371744
20
-8.65994505029045
30
0
41
1
10
90.7401833221915
20
-8.83320887280814
30
0
41
1
10
90.8486878922257
20
-9.14654644041588
30
0
41
1
10
90.9029401772428
20
-9.28662146162606
30
0
41
1
10
91.0114447472771
20
-9.53322250445439
30
0
41
1
10
91.0656970322941
20
-9.6397522625638
30
0
41
1
10
91.1742016023284
20
-9.81992326635623
30
0
41
1
10
91.2284538873456
20
-9.89357001346283
30
0
41
1
10
91.3369584573798
20
-10.0095134269119
30
0
41
1
10
91.3912107423969
20
-10.0518165543454
30
0
41
1
10
91.4997153124311
20
-10.1073064928599
30
0
41
1
10
91.5539675974483
20
-10.1204999578312
30
0
41
1
10
91.6624721674826
20
-10.1205000421687
30
0
41
1
10
91.7167244524998
20
-10.1073066661924
30
0
41
1
10
91.8252290225339
20
-10.0518169137154
30
0
41
1
10
91.8794813075511
20
-10.009513883325
30
0
41
1
10
91.9879858775853
20
-9.89357067010556
30
0
41
1
10
92.0422381626024
20
-9.81992402618374
30
0
41
1
10
92.1507427326367
20
-9.63975323237696
30
0
41
1
10
92.2049950176538
20
-9.53322358106402
30
0
41
1
10
92.3134995876879
20
-9.28662275238545
30
0
41
1
10
92.3677518727051
20
-9.14654783852171
30
0
41
1
10
92.4762564427393
20
-8.83321048274203
30
0
41
1
10
92.5305087277565
20
-8.65994676469717
30
0
41
1
10
92.6390132977907
20
-8.28168153399176
30
0
41
1
10
92.6932655828078
20
-8.07668163322506
30
0
41
1
10
92.8017701528421
20
-7.63748580577331
30
0
41
1
10
92.8560224378591
20
-7.40329441601776
30
0
41
1
10
92.9645270078934
20
-6.9092569062046
30
0
41
1
10
93.0187792929105
20
-6.64941784934766
30
0
41
1
10
93.1272838629448
20
-6.10844985405268
30
0
41
1
10
93.1815361479619
20
-5.82732972540074
30
0
41
1
10
93.2900407179962
20
-5.24874653794231
30
0
41
1
10
93.3442930030131
20
-4.95129301987058
30
0
41
1
10
93.4527975730475
20
-4.34529274687802
30
0
41
1
10
93.5070498580645
20
-4.03675520686869
30
0
41
1
10
93.6155544280988
20
-3.41385392052183
30
0
41
1
10
93.6698067131159
20
-3.09949815481048
30
0
41
1
10
93.7783112831502
20
-2.46998352109853
30
0
41
1
10
93.8325635681674
20
-2.15483077458862
30
0
41
1
10
93.9410681382016
20
-1.52828769243291
30
0
41
1
10
93.9953204232187
20
-1.21690133336125
30
0
41
1
10
94.1038249932529
20
-0.601846680261474
30
0
41
1
10
94.15807727827
20
-0.298180248965281
30
0
41
1
10
94.2665818483042
20
0.298175955200691
30
0
41
1
10
94.3208341333213
20
0.601842288647504
30
0
41
1
10
94.4293387033557
20
1.21689686818854
30
0
41
1
10
94.4835909883727
20
1.52828319916011
30
0
41
1
10
94.592095558407
20
2.15482624564112
30
0
41
1
10
94.6463478434241
20
2.46997898458687
30
0
41
1
10
94.7548524134584
20
3.09949362631116
30
0
41
1
10
94.8091046984755
20
3.41384940760892
30
0
41
1
10
94.9176092685097
20
4.03675075000251
30
0
41
1
10
94.9718615535268
20
4.34528833047983
30
0
41
1
10
95.0803661235611
20
4.95128870986383
30
0
41
1
10
95.1346184085781
20
5.24874229386293
30
0
41
1
10
95.2431229786124
20
5.8273256378809
30
0
41
1
10
95.2973752636295
20
6.10844585716416
30
0
41
1
10
95.4058798336638
20
6.64941405629543
30
0
41
1
10
95.4601321186809
20
6.90925322635132
30
0
41
1
10
95.5686366887152
20
7.40329098172896
30
0
41
1
10
95.6228889737323
20
7.63748250383952
30
0
41
1
10
95.7313935437665
20
8.07667861073679
30
0
41
1
10
95.7856458287836
20
8.2816786585806
30
0
41
1
10
95.8941503988179
20
8.65994419308672
30
0
41
1
10
95.948402683835
20
8.83320806784084
30
0
41
1
10
96.0569072538692
20
9.14654574136256
30
0
41
1
10
96.1111595388863
20
9.28662081624597
30
0
41
1
10
96.2196641089205
20
9.5332219661492
30
0
41
1
10
96.2739163939376
20
9.63975177765687
30
0
41
1
10
96.3824209639719
20
9.81992288644207
30
0
41
1
10
96.436673248989
20
9.8935696851411
30
0
41
1
10
96.5451778190234
20
10.009513198705
30
0
41
1
10
96.5994301040404
20
10.05181637466
30
0
41
1
10
96.7079346740746
20
10.1073064061933
30
0
41
1
10
96.7621869590917
20
10.1204999156621
30
0
41
1
10
96.8164392441088
20
10.1204999999996
30
0
0
SPLINE
5
E2
100
AcDbEntity
8
1
62
256
6
ByLayer
370
13
48
1
60
0
100
AcDbSpline
70
4
71
3
72
131
73
127
40
0
40
0
40
0
40
0
40
0.0156249999999996
40
0.0156249999999996
40
0.0312499999999992
40
0.0312499999999992
40
0.0468749999999989
40
0.0468749999999989
40
0.0624999999999985
40
0.0624999999999985
40
0.0781249999999981
40
0.0781249999999981
40
0.0937499999999978
40
0.0937499999999978
40
0.109374999999997
40
0.109374999999997
40
0.124999999999997
40
0.124999999999997
40
0.140624999999997
40
0.140624999999997
40
0.156249999999996
40
0.156249999999996
40
0.187499999999996
40
0.187499999999996
40
0.203124999999995
40
0.203124999999995
40
0.210937499999995
40
0.210937499999995
40
0.214843749999995
40
0.214843749999995
40
0.218749999999995
40
0.218749999999995
40
0.249999999999996
40
0.249999999999996
40
0.265624999999996
40
0.265624999999996
40
0.281249999999996
40
0.281249999999996
40
0.296874999999996
40
0.296874999999996
40
0.312499999999996
40
0.312499999999996
40
0.328124999999997
40
0.328124999999997
40
0.343749999999997
40
0.343749999999997
40
0.359374999999997
40
0.359374999999997
40
0.374999999999997
40
0.374999999999997
40
0.390624999999998
40
0.390624999999998
40
0.406249999999998
40
0.406249999999998
40
0.421874999999998
40
0.421874999999998
40
0.437499999999998
40
0.437499999999998
40
0.468749999999999
40
0.468749999999999
40
0.472656249999999
40
0.472656249999999
40
0.476562499999999
40
0.476562499999999
40
0.484374999999999
40
0.484374999999999
40
0.499999999999999
40
0.499999999999999
40
0.531249999999998
40
0.531249999999998
40
0.546874999999998
40
0.546874999999998
40
0.562499999999998
40
0.562499999999998
40
0.578124999999998
40
0.578124999999998
40
0.593749999999997
40
0.593749999999997
40
0.609374999999997
40
0.609374999999997
40
0.624999999999997
40
0.624999999999997
40
0.640624999999997
40
0.640624999999997
40
0.656249999999997
40
0.656249999999997
40
0.671874999999997
40
0.671874999999997
40
0.687499999999996
40
0.687499999999996
40
0.718749999999996
40
0.718749999999996
40
0.734374999999996
40
0.734374999999996
40
0.738281249999996
40
0.738281249999996
40
0.742187499999996
40
0.749999999999996
40
0.749999999999996
40
0.781249999999996
40
0.781249999999996
40
0.796874999999997
40
0.796874999999997
40
0.812499999999997
40
0.812499999999997
40
0.828124999999997
40
0.828124999999997
40
0.843749999999997
40
0.843749999999997
40
0.859374999999998
40
0.859374999999998
40
0.874999999999998
40
0.874999999999998
40
0.890624999999998
40
0.890624999999998
40
0.906249999999999
40
0.906249999999999
40
0.921874999999999
40
0.921874999999999
40
0.937499999999999
40
0.937499999999999
40
0.953124999999999
40
0.953124999999999
40
0.96875
40
0.96875
40
1
40
1
40
1
40
1
41
1
10
86.4
20
9.72066405306688
30
0
41
1
10
86.4516806118363
20
9.63379374283588
30
0
41
1
10
86.5033612236726
20
9.53198757974516
30
0
41
1
10
86.6067224473453
20
9.29794705702571
30
0
41
1
10
86.6584030591816
20
9.16570974102225
30
0
41
1
10
86.7617642828543
20
8.8710789554741
30
0
41
1
10
86.8134448946906
20
8.7086843531545
30
0
41
1
10
86.9168061183632
20
8.35491129350001
30
0
41
1
10
86.9684867301996
20
8.16353384709623
30
0
41
1
10
87.0718479538723
20
7.75387051041895
30
0
41
1
10
87.1235285657086
20
7.53558783453673
30
0
41
1
10
87.2268897893812
20
7.07502913430164
30
0
41
1
10
87.2785704012175
20
6.83275829123943
30
0
41
1
10
87.3819316248902
20
6.3278508898056
30
0
41
1
10
87.4336122367265
20
6.06522097202799
30
0
41
1
10
87.5369734603992
20
5.52375605008965
30
0
41
1
10
87.5886540722355
20
5.24492845103796
30
0
41
1
10
87.6920152959082
20
4.6755482655725
30
0
41
1
10
87.7436959077445
20
4.38500308848785
30
0
41
1
10
87.847057131417
20
3.79676212919964
30
0
41
1
10
87.8987377432534
20
3.49907306259561
30
0
41
1
10
88.0537795787624
20
2.60196122368916
30
0
41
1
10
88.157140802435
20
1.9987341617549
30
0
41
1
10
88.312182637944
20
1.1096945400422
30
0
41
1
10
88.3638632497804
20
0.815927252156371
30
0
41
1
10
88.4413841675348
20
0.381511041629039
30
0
41
1
10
88.467224473453
20
0.237740316207294
30
0
41
1
10
88.5059849323303
20
0.0238909947946411
30
0
41
1
10
88.5189050852893
20
-0.0469754973056808
30
0
41
1
10
88.5447453912075
20
-0.189671403237071
30
0
41
1
10
88.5576655441666
20
-0.261318015944312
30
0
41
1
10
88.6739469207984
20
-0.908638492004286
30
0
41
1
10
88.7773081444709
20
-1.50218867218732
30
0
41
1
10
88.9323499799799
20
-2.39990952518943
30
0
41
1
10
88.9840305918162
20
-2.70031014616305
30
0
41
1
10
89.0873918154889
20
-3.29938251066912
30
0
41
1
10
89.1390724273252
20
-3.59804908936448
30
0
41
1
10
89.2424336509978
20
-4.18925517907249
30
0
41
1
10
89.2941142628341
20
-4.48178820910789
30
0
41
1
10
89.3974754865068
20
-5.05616348196847
30
0
41
1
10
89.4491560983432
20
-5.33799841416553
30
0
41
1
10
89.5525173220158
20
-5.88645722924232
30
0
41
1
10
89.6041979338521
20
-6.15307364049423
30
0
41
1
10
89.7075591575248
20
-6.66684309606441
30
0
41
1
10
89.7592397693611
20
-6.91398926478141
30
0
41
1
10
89.8626009930338
20
-7.38505205718866
30
0
41
1
10
89.91428160487
20
-7.60896312198884
30
0
41
1
10
90.0176428285427
20
-8.03046490207498
30
0
41
1
10
90.0693234403791
20
-8.22805193354546
30
0
41
1
10
90.1726846640516
20
-8.59463082780556
30
0
41
1
10
90.2243652758881
20
-8.76362118327859
30
0
41
1
10
90.3277264995608
20
-9.07162665993073
30
0
41
1
10
90.379407111397
20
-9.21064245552174
30
0
41
1
10
90.4827683350698
20
-9.45822573217407
30
0
41
1
10
90.534448946906
20
-9.56679580146849
30
0
41
1
10
90.6378101705786
20
-9.75387131290057
30
0
41
1
10
90.689490782415
20
-9.8323807899271
30
0
41
1
10
90.844532617924
20
-10.0245209897725
30
0
41
1
10
90.9478938415966
20
-10.0945459486469
30
0
41
1
10
91.0641752182283
20
-10.1169432193497
30
0
41
1
10
91.0770953711874
20
-10.1186531962646
30
0
41
1
10
91.1029356771056
20
-10.1205538447423
30
0
41
1
10
91.1158558300646
20
-10.1207478853981
30
0
41
1
10
91.1546162889418
20
-10.1190834177416
30
0
41
1
10
91.18045659486
20
-10.1149547546463
30
0
41
1
10
91.2579775126146
20
-10.0930601848903
30
0
41
1
10
91.3096581244508
20
-10.0657722699705
30
0
41
1
10
91.4646999599598
20
-9.94262645431311
30
0
41
1
10
91.5680611836324
20
-9.80514840934129
30
0
41
1
10
91.7231030191414
20
-9.50787608333169
30
0
41
1
10
91.7747836309778
20
-9.3936873262044
30
0
41
1
10
91.8781448546504
20
-9.13488663134197
30
0
41
1
10
91.9298254664867
20
-8.9902724283302
30
0
41
1
10
92.0331866901594
20
-8.67125543927449
30
0
41
1
10
92.0848673019957
20
-8.49685236898065
30
0
41
1
10
92.1882285256684
20
-8.11980146028773
30
0
41
1
10
92.2399091375046
20
-7.91715554045163
30
0
41
1
10
92.3432703611772
20
-7.48604806514032
30
0
41
1
10
92.3949509730137
20
-7.25759057104204
30
0
41
1
10
92.4983121966862
20
-6.77808417218549
30
0
41
1
10
92.5499928085226
20
-6.5270411179269
30
0
41
1
10
92.6533540321952
20
-6.00623258511797
30
0
41
1
10
92.7050346440316
20
-5.73647414938432
30
0
41
1
10
92.8083958677042
20
-5.18255267762879
30
0
41
1
10
92.8600764795406
20
-4.89839713944056
30
0
41
1
10
92.9634377032132
20
-4.32022705905413
30
0
41
1
10
93.0151183150496
20
-4.02621972018508
30
0
41
1
10
93.1184795387222
20
-3.43289601101247
30
0
41
1
10
93.1701601505585
20
-3.13358590875941
30
0
41
1
10
93.3252019860674
20
-2.23421694385297
30
0
41
1
10
93.4285632097401
20
-1.63298016099856
30
0
41
1
10
93.5836050452491
20
-0.751029016605088
30
0
41
1
10
93.6352856570854
20
-0.460302391559082
30
0
41
1
10
93.6998864218808
20
-0.102789706507053
30
0
41
1
10
93.7128065748399
20
-0.0317458591446496
30
0
41
1
10
93.738646880758
20
0.11050341748259
30
0
41
1
10
93.7774073396353
20
0.324794877150453
30
0
41
1
10
93.8161677985126
20
0.54165988856289
30
0
41
1
10
93.9453693281034
20
1.26937958905663
30
0
41
1
10
94.0487305517761
20
1.86736660988296
30
0
41
1
10
94.203772387285
20
2.76691167253202
30
0
41
1
10
94.2554529991213
20
3.06711821433356
30
0
41
1
10
94.3588142227941
20
3.66404166779949
30
0
41
1
10
94.4104948346304
20
3.96075283354273
30
0
41
1
10
94.5138560583028
20
4.54619642493032
30
0
41
1
10
94.5655366701392
20
4.83492196073993
30
0
41
1
10
94.6688978938119
20
5.39982172264911
30
0
41
1
10
94.7205785056483
20
5.67598848418493
30
0
41
1
10
94.8239397293208
20
6.21133239693839
30
0
41
1
10
94.8756203411572
20
6.4705022271728
30
0
41
1
10
94.9789815648298
20
6.96777293435196
30
0
41
1
10
95.0306621766662
20
7.20586739199047
30
0
41
1
10
95.1340234003388
20
7.65747601177372
30
0
41
1
10
95.1857040121751
20
7.87098532493187
30
0
41
1
10
95.2890652358478
20
8.270651802846
30
0
41
1
10
95.3407458476842
20
8.45680615122666
30
0
41
1
10
95.4441070713567
20
8.79984687854696
30
0
41
1
10
95.4957876831931
20
8.95673265555718
30
0
41
1
10
95.5991489068658
20
9.24022814971718
30
0
41
1
10
95.6508295187022
20
9.36683936716858
30
0
41
1
10
95.7541907423748
20
9.5896712009208
30
0
41
1
10
95.805871354211
20
9.68589505956302
30
0
41
1
10
95.9092325778837
20
9.84865843809888
30
0
41
1
10
95.96091318972
20
9.91520242227659
30
0
41
1
10
96.115955025229
20
10.0724218646787
30
0
41
1
10
96.2193162489017
20
10.1205
30
0
41
1
10
96.3226774725743
20
10.1205
30
0
0
SPLINE
5
E3
100
AcDbEntity
8
1
62
256
6
ByLayer
370
13
48
1
60
0
100
AcDbSpline
70
4
71
3
72
10
73
6
40
0
40
0
40
0
40
0
40
0.5
40
0.5
40
1
40
1
40
1
40
1
41
1
10
96.2752463679526
20
10.1205
30
0
41
1
10
96.3654451806453
20
10.1205
30
0
41
1
10
96.4556439933381
20
10.0839379278873
30
0
41
1
10
96.6360416187235
20
9.92590001065753
30
0
41
1
10
96.7262404314162
20
9.80434102481644
30
0
41
1
10
96.8164392441089
20
9.63673967981202
30
0
0
SPLINE
5
E4
100
AcDbEntity
8
1
62
256
6
ByLayer
370
13
48
1
60
0
100
AcDbSpline
70
4
71
3
72
86
73
82
40
0
40
0
40
0
40
0
40
0.0312499999999997
40
0.0312499999999997
40
0.0624999999999994
40
0.0624999999999994
40
0.0937499999999991
40
0.0937499999999991
40
0.124999999999999
40
0.124999999999999
40
0.156249999999999
40
0.156249999999999
40
0.164062499999998
40
0.164062499999998
40
0.171874999999998
40
0.171874999999998
40
0.187499999999998
40
0.187499999999998
40
0.218749999999998
40
0.218749999999998
40
0.249999999999997
40
0.249999999999997
40
0.281249999999996
40
0.281249999999996
40
0.312499999999996
40
0.312499999999996
40
0.343749999999995
40
0.343749999999995
40
0.374999999999995
40
0.374999999999995
40
0.406249999999994
40
0.406249999999994
40
0.437499999999994
40
0.437499999999994
40
0.445312499999994
40
0.445312499999994
40
0.449218749999994
40
0.449218749999994
40
0.453124999999994
40
0.453124999999994
40
0.468749999999994
40
0.468749999999994
40
0.499999999999994
40
0.499999999999994
40
0.531249999999995
40
0.531249999999995
40
0.562499999999995
40
0.562499999999995
40
0.593749999999996
40
0.593749999999996
40
0.624999999999996
40
0.624999999999996
40
0.656249999999996
40
0.656249999999996
40
0.687499999999997
40
0.687499999999997
40
0.718749999999998
40
0.718749999999998
40
0.722656249999998
40
0.722656249999998
40
0.726562499999998
40
0.726562499999998
40
0.734374999999998
40
0.734374999999998
40
0.749999999999998
40
0.749999999999998
40
0.781249999999998
40
0.781249999999998
40
0.812499999999998
40
0.812499999999998
40
0.843749999999999
40
0.843749999999999
40
0.874999999999999
40
0.874999999999999
40
0.906249999999999
40
0.906249999999999
40
0.937499999999999
40
0.937499999999999
40
0.96875
40
0.96875
40
1
40
1
40
1
40
1
41
1
10
86.4
20
8.43230902718815
30
0
41
1
10
86.4982178664607
20
8.08604718012484
30
0
41
1
10
86.5964357329212
20
7.68769421187139
30
0
41
1
10
86.7928714658424
20
6.80471050797411
30
0
41
1
10
86.891089332303
20
6.32021024645138
30
0
41
1
10
87.0875250652242
20
5.29205120982328
30
0
41
1
10
87.1857429316848
20
4.74857352623576
30
0
41
1
10
87.382178664606
20
3.63384227242267
30
0
41
1
10
87.4803965310666
20
3.06275619536388
30
0
41
1
10
87.6768322639878
20
1.92297732203482
30
0
41
1
10
87.7750501304484
20
1.35439058690179
30
0
41
1
10
87.8978224635242
20
0.660588446428562
30
0
41
1
10
87.9223769301393
20
0.522657705022596
30
0
41
1
10
87.9714858633696
20
0.248767632016552
30
0
41
1
10
87.9960403299849
20
0.113031852724845
30
0
41
1
10
88.0697037298303
20
-0.292196321102239
30
0
41
1
10
88.1188126630606
20
-0.566811742826104
30
0
41
1
10
88.2661394627515
20
-1.40044474595851
30
0
41
1
10
88.3643573292121
20
-1.96945694072912
30
0
41
1
10
88.5607930621333
20
-3.10932741079188
30
0
41
1
10
88.6590109285939
20
-3.6800776228489
30
0
41
1
10
88.8554466615151
20
-4.79327803689549
30
0
41
1
10
88.9536645279755
20
-5.33555960113191
30
0
41
1
10
89.1501002608969
20
-6.36050564255601
30
0
41
1
10
89.2483181273574
20
-6.84298955991747
30
0
41
1
10
89.4447538602785
20
-7.72130809189576
30
0
41
1
10
89.5429717267392
20
-8.11701440290361
30
0
41
1
10
89.7394074596605
20
-8.80390875577137
30
0
41
1
10
89.837625326121
20
-9.09506432937593
30
0
41
1
10
90.0340610590423
20
-9.56669465765393
30
0
41
1
10
90.1322789255028
20
-9.74723172824176
30
0
41
1
10
90.3287146584241
20
-10.0026727402209
30
0
41
1
10
90.4269325248847
20
-10.0776951065761
30
0
41
1
10
90.5497048579605
20
-10.1138113319332
30
0
41
1
10
90.5742593245756
20
-10.1181664233149
30
0
41
1
10
90.6110910244984
20
-10.120589667709
30
0
41
1
10
90.6233682578059
20
-10.1207159241473
30
0
41
1
10
90.6479227244211
20
-10.1196147364029
30
0
41
1
10
90.6601999577287
20
-10.1183824830699
30
0
41
1
10
90.7215861242665
20
-10.1087309530508
30
0
41
1
10
90.7706950574968
20
-10.0898294176367
30
0
41
1
10
90.9180218571877
20
-9.99668833819257
30
0
41
1
10
91.0162397236483
20
-9.8857588250082
30
0
41
1
10
91.2126754565695
20
-9.55556840567195
30
0
41
1
10
91.3108933230301
20
-9.33620312665883
30
0
41
1
10
91.5073290559512
20
-8.78765627604471
30
0
41
1
10
91.6055469224118
20
-8.45844273861721
30
0
41
1
10
91.8019826553331
20
-7.70037365622565
30
0
41
1
10
91.9002005217936
20
-7.27158661311466
30
0
41
1
10
92.0966362547149
20
-6.33572880296774
30
0
41
1
10
92.1948541211755
20
-5.8288114964281
30
0
41
1
10
92.3912898540967
20
-4.76579945025549
30
0
41
1
10
92.4895077205573
20
-4.20988830279188
30
0
41
1
10
92.6859434534786
20
-3.08045020351091
30
0
41
1
10
92.7841613199391
20
-2.5070744782949
30
0
41
1
10
92.9805970528604
20
-1.37147202830172
30
0
41
1
10
93.078814919321
20
-0.809327048987171
30
0
41
1
10
93.1893100190891
20
-0.1957646660249
30
0
41
1
10
93.2015872523967
20
-0.12784812369847
30
0
41
1
10
93.2261417190118
20
0.0074357899630684
30
0
41
1
10
93.2384189523194
20
0.0748460414519343
30
0
41
1
10
93.2752506522421
20
0.27843194928883
30
0
41
1
10
93.2998051188573
20
0.415227169634306
30
0
41
1
10
93.3734685187027
20
0.828385404177737
30
0
41
1
10
93.422577451933
20
1.10753547228603
30
0
41
1
10
93.5699042516239
20
1.95205515380775
30
0
41
1
10
93.6681221180846
20
2.52467478283296
30
0
41
1
10
93.8645578510058
20
3.66241209489991
30
0
41
1
10
93.9627757174663
20
4.22739880015448
30
0
41
1
10
94.1592114503875
20
5.31879180552932
30
0
41
1
10
94.2574293168481
20
5.84501887225522
30
0
41
1
10
94.4538650497693
20
6.82835426735167
30
0
41
1
10
94.55208291623
20
7.28529219439281
30
0
41
1
10
94.7485186491512
20
8.10553769725533
30
0
41
1
10
94.8467365156118
20
8.46874521050231
30
0
41
1
10
95.043172248533
20
9.0873245253708
30
0
41
1
10
95.1413901149936
20
9.34269696504873
30
0
41
1
10
95.3378258479148
20
9.74327271159416
30
0
41
1
10
95.4360437143754
20
9.88856186711644
30
0
41
1
10
95.6324794472966
20
10.0771125798593
30
0
41
1
10
95.7306973137571
20
10.1205
30
0
41
1
10
95.8289151802178
20
10.1205
30
0
0
SPLINE
5
E5
100
AcDbEntity
8
1
62
256
6
ByLayer
370
13
48
1
60
0
100
AcDbSpline
70
4
71
3
72
14
73
10
40
0
40
0
40
0
40
0
40
0.25
40
0.25
40
0.5
40
0.5
40
0.75
40
0.75
40
1
40
1
40
1
40
1
41
1
10
95.781484075596
20
10.1205
30
0
41
1
10
95.8677303396388
20
10.1205
30
0
41
1
10
95.9539766036816
20
10.0870842878118
30
0
41
1
10
96.126469131767
20
9.94304298833961
30
0
41
1
10
96.2127153958098
20
9.83235065231767
30
0
41
1
10
96.3852079238952
20
9.52715375960665
30
0
41
1
10
96.471454187938
20
9.33259656475695
30
0
41
1
10
96.6439467160234
20
8.85883539866663
30
0
41
1
10
96.7301929800662
20
8.57961257245739
30
0
41
1
10
96.8164392441089
20
8.26110599570018
30
0
0
SPLINE
5
E6
100
AcDbEntity
8
1
62
256
6
ByLayer
370
13
48
1
60
0
100
AcDbSpline
70
4
71
3
72
87
73
83
40
0
40
0
40
0
40
0
40
0.0312500000000032
40
0.0312500000000032
40
0.0625000000000064
40
0.0625000000000064
40
0.0937500000000096
40
0.0937500000000096
40
0.125000000000013
40
0.125000000000013
40
0.128906250000013
40
0.128906250000013
40
0.132812500000013
40
0.140625000000014
40
0.140625000000014
40
0.156250000000014
40
0.156250000000014
40
0.187500000000015
40
0.187500000000015
40
0.218750000000016
40
0.218750000000016
40
0.250000000000018
40
0.250000000000018
40
0.281250000000019
40
0.281250000000019
40
0.31250000000002
40
0.31250000000002
40
0.343750000000021
40
0.343750000000021
40
0.375000000000022
40
0.375000000000022
40
0.406250000000023
40
0.406250000000023
40
0.414062500000023
40
0.414062500000023
40
0.417968750000023
40
0.417968750000023
40
0.421875000000023
40
0.421875000000023
40
0.437500000000023
40
0.437500000000023
40
0.468750000000021
40
0.468750000000021
40
0.50000000000002
40
0.50000000000002
40
0.531250000000019
40
0.531250000000019
40
0.562500000000018
40
0.562500000000018
40
0.593750000000017
40
0.593750000000017
40
0.625000000000015
40
0.625000000000015
40
0.656250000000014
40
0.656250000000014
40
0.687500000000013
40
0.687500000000013
40
0.703125000000012
40
0.703125000000012
40
0.707031250000012
40
0.707031250000012
40
0.710937500000012
40
0.710937500000012
40
0.718750000000011
40
0.718750000000011
40
0.75000000000001
40
0.75000000000001
40
0.781250000000009
40
0.781250000000009
40
0.812500000000008
40
0.812500000000008
40
0.843750000000006
40
0.843750000000006
40
0.875000000000005
40
0.875000000000005
40
0.906250000000004
40
0.906250000000004
40
0.937500000000003
40
0.937500000000003
40
0.968750000000001
40
0.968750000000001
40
1
40
1
40
1
40
1
41
1
10
86.4
20
6.29647142366497
30
0
41
1
10
86.4930745092486
20
5.82878663298118
30
0
41
1
10
86.5861490184971
20
5.33042578188966
30
0
41
1
10
86.7722980369942
20
4.29804950844334
30
0
41
1
10
86.8653725462428
20
3.76417171550355
30
0
41
1
10
87.0515215647399
20
2.6873527124697
30
0
41
1
10
87.1445960739886
20
2.14451562281442
30
0
41
1
10
87.3307450924856
20
1.07323341997161
30
0
41
1
10
87.4238196017341
20
0.544839551639342
30
0
41
1
10
87.5285284246387
20
-0.0314185161751652
30
0
41
1
10
87.5401627382948
20
-0.0954030102890897
30
0
41
1
10
87.5634313656069
20
-0.224104155971929
30
0
41
1
10
87.5983343065751
20
-0.417872413456365
30
0
41
1
10
87.6332372475434
20
-0.613655308696337
30
0
41
1
10
87.7030431294798
20
-1.0075132212028
30
0
41
1
10
87.7495803841041
20
-1.27315278309146
30
0
41
1
10
87.8891921479769
20
-2.0756947762213
30
0
41
1
10
87.9822666572254
20
-2.61836116629831
30
0
41
1
10
88.1684156757226
20
-3.69591709698366
30
0
41
1
10
88.2614901849711
20
-4.23070454438158
30
0
41
1
10
88.4476392034683
20
-5.26604510941081
30
0
41
1
10
88.5407137127168
20
-5.76646131390035
30
0
41
1
10
88.7268627312139
20
-6.70697671208285
30
0
41
1
10
88.8199372404624
20
-7.14694338688133
30
0
41
1
10
89.0060862589595
20
-7.94505954753225
30
0
41
1
10
89.0991607682081
20
-8.30312409327317
30
0
41
1
10
89.2853097867052
20
-8.92393920401074
30
0
41
1
10
89.3783842959538
20
-9.18667695076613
30
0
41
1
10
89.5645333144508
20
-9.61287946380628
30
0
41
1
10
89.6576078236994
20
-9.77639792530852
30
0
41
1
10
89.8437568421965
20
-10.0090778164273
30
0
41
1
10
89.9368313514451
20
-10.0783310111205
30
0
41
1
10
90.0531744880059
20
-10.113102958854
30
0
41
1
10
90.0764431153179
20
-10.1174795287378
30
0
41
1
10
90.1113460562862
20
-10.120341302065
30
0
41
1
10
90.1229803699422
20
-10.1206792253391
30
0
41
1
10
90.1462489972544
20
-10.1201443558034
30
0
41
1
10
90.1578833109104
20
-10.1192677398144
30
0
41
1
10
90.2160548791908
20
-10.1117685851822
30
0
41
1
10
90.262592133815
20
-10.0957888964362
30
0
41
1
10
90.4022038976879
20
-10.0154107670609
30
0
41
1
10
90.4952784069365
20
-9.91837727706277
30
0
41
1
10
90.6814274254335
20
-9.62779672141642
30
0
41
1
10
90.7745019346821
20
-9.43416583103337
30
0
41
1
10
90.9606509531791
20
-8.94789879333356
30
0
41
1
10
91.0537254624278
20
-8.65522696217408
30
0
41
1
10
91.2398744809249
20
-7.97763063204849
30
0
41
1
10
91.3329489901734
20
-7.59274176637976
30
0
41
1
10
91.5190980086705
20
-6.7467782990557
30
0
41
1
10
91.612172517919
20
-6.28580699841569
30
0
41
1
10
91.7983215364161
20
-5.31093099499608
30
0
41
1
10
91.8913960456647
20
-4.79716500361948
30
0
41
1
10
92.0775450641619
20
-3.74336031886426
30
0
41
1
10
92.1706195734104
20
-3.2034513153784
30
0
41
1
10
92.3567685919075
20
-2.1232318616598
30
0
41
1
10
92.449843101156
20
-1.58300808859752
30
0
41
1
10
92.5894548650289
20
-0.788663886959512
30
0
41
1
10
92.6359921196532
20
-0.526507324716334
30
0
41
1
10
92.6941636879335
20
-0.203440540517221
30
0
41
1
10
92.7057980015896
20
-0.139057689267275
30
0
41
1
10
92.7290666289017
20
-0.0107829076227119
30
0
41
1
10
92.7407009425579
20
0.0530570568085409
30
0
41
1
10
92.775603883526
20
0.245791144223148
30
0
41
1
10
92.798872510838
20
0.375250236966394
30
0
41
1
10
92.9152156473988
20
1.02677404199682
30
0
41
1
10
93.0082901566474
20
1.56175214885602
30
0
41
1
10
93.1944391751445
20
2.63958934851016
30
0
41
1
10
93.2875136843929
20
3.18238049425364
30
0
41
1
10
93.4736627028901
20
4.25120353171772
30
0
41
1
10
93.5667372121387
20
4.77711789516428
30
0
41
1
10
93.7528862306358
20
5.78539091242726
30
0
41
1
10
93.8459607398844
20
6.26760904920954
30
0
41
1
10
94.0321097583814
20
7.16353362483679
30
0
41
1
10
94.1251842676301
20
7.57711969517555
30
0
41
1
10
94.3113332861271
20
8.31675221117095
30
0
41
1
10
94.4044077953756
20
8.6427374771726
30
0
41
1
10
94.5905568138727
20
9.1969267797223
30
0
41
1
10
94.6836313231213
20
9.42514323152818
30
0
41
1
10
94.8697803416184
20
9.78309722894511
30
0
41
1
10
94.962854850867
20
9.91290557158098
30
0
41
1
10
95.1490038693642
20
10.0815585023161
30
0
41
1
10
95.2420783786127
20
10.1205
30
0
41
1
10
95.3351528878612
20
10.1205
30
0
0
SPLINE
5
E7
100
AcDbEntity
8
1
62
256
6
ByLayer
370
13
48
1
60
0
100
AcDbSpline
70
4
71
3
72
22
73
18
40
0
40
0
40
0
40
0
40
0.125
40
0.125
40
0.25
40
0.25
40
0.375000000000001
40
0.375000000000001
40
0.500000000000001
40
0.500000000000001
40
0.625000000000001
40
0.625000000000001
40
0.750000000000001
40
0.750000000000001
40
0.875
40
0.875
40
1
40
1
40
1
40
1
41
1
10
95.2877217832395
20
10.1205
30
0
41
1
10
95.3514183441091
20
10.1205
30
0
41
1
10
95.4151149049787
20
10.1023040596563
30
0
41
1
10
95.5425080267178
20
10.0251843835987
30
0
41
1
10
95.6062045875873
20
9.96624579367622
30
0
41
1
10
95.7335977093264
20
9.80428244049142
30
0
41
1
10
95.7972942701961
20
9.70124383599136
30
0
41
1
10
95.9246873919351
20
9.44916618686975
30
0
41
1
10
95.9883839528047
20
9.30011673952924
30
0
41
1
10
96.1157770745438
20
8.95592057683012
30
0
41
1
10
96.1794736354134
20
8.76076923439777
30
0
41
1
10
96.3068667571524
20
8.32632404275006
30
0
41
1
10
96.3705633180219
20
8.08703293345343
30
0
41
1
10
96.497956439761
20
7.56834800921035
30
0
41
1
10
96.5616530006306
20
7.28896457563184
30
0
41
1
10
96.6890461223697
20
6.69602260953241
30
0
41
1
10
96.7527426832393
20
6.38248082467163
30
0
41
1
10
96.8164392441089
20
6.05555250768904
30
0
0
SPLINE
5
E8
100
AcDbEntity
8
1
62
256
6
ByLayer
370
13
48
1
60
0
100
AcDbSpline
70
4
71
3
72
82
73
78
40
0
40
0
40
0
40
0
40
0.0312500000000011
40
0.0312500000000011
40
0.0625000000000023
40
0.0625000000000023
40
0.0703125000000023
40
0.0703125000000023
40
0.0781250000000024
40
0.0781250000000024
40
0.0937500000000022
40
0.0937500000000022
40
0.125000000000001
40
0.125000000000001
40
0.156250000000001
40
0.156250000000001
40
0.1875
40
0.1875
40
0.218749999999999
40
0.218749999999999
40
0.249999999999999
40
0.249999999999999
40
0.281249999999998
40
0.281249999999998
40
0.312499999999997
40
0.312499999999997
40
0.343749999999997
40
0.343749999999997
40
0.374999999999996
40
0.374999999999996
40
0.382812499999996
40
0.382812499999996
40
0.390624999999996
40
0.390624999999996
40
0.406249999999996
40
0.406249999999996
40
0.437499999999996
40
0.437499999999996
40
0.468749999999997
40
0.468749999999997
40
0.499999999999997
40
0.499999999999997
40
0.531249999999998
40
0.531249999999998
40
0.562499999999999
40
0.562499999999999
40
0.593749999999999
40
0.593749999999999
40
0.625
40
0.625
40
0.65625
40
0.65625
40
0.687500000000001
40
0.687500000000001
40
0.695312500000001
40
0.695312500000001
40
0.703125000000001
40
0.703125000000001
40
0.718750000000001
40
0.718750000000001
40
0.750000000000001
40
0.750000000000001
40
0.781250000000001
40
0.781250000000001
40
0.812500000000001
40
0.812500000000001
40
0.843750000000001
40
0.843750000000001
40
0.875
40
0.875
40
0.90625
40
0.90625
40
0.9375
40
0.9375
40
0.96875
40
0.96875
40
1
40
1
40
1
40
1
41
1
10
86.4
20
3.59904559808024
30
0
41
1
10
86.4879311520365
20
3.09305080546525
30
0
41
1
10
86.575862304073
20
2.58041895369914
30
0
41
1
10
86.751724608146
20
1.56240413161837
30
0
41
1
10
86.8396557601826
20
1.05707155825243
30
0
41
1
10
86.9495697002282
20
0.440378878331018
30
0
41
1
10
86.9715524882373
20
0.317777648385515
30
0
41
1
10
87.0155180642556
20
0.0742625925719551
30
0
41
1
10
87.0375008522647
20
-0.046142256773436
30
0
41
1
10
87.103449216292
20
-0.411021657340001
30
0
41
1
10
87.1474147923103
20
-0.657690349948439
30
0
41
1
10
87.2793115203651
20
-1.4052925276402
30
0
41
1
10
87.3672426724016
20
-1.91395636587902
30
0
41
1
10
87.5431049764746
20
-2.93417365397141
30
0
41
1
10
87.6310361285111
20
-3.44566776273768
30
0
41
1
10
87.8068984325841
20
-4.45025531502878
30
0
41
1
10
87.8948295846207
20
-4.94325603934681
30
0
41
1
10
88.0706918886937
20
-5.88826874569685
30
0
41
1
10
88.1586230407302
20
-6.34017474931366
30
0
41
1
10
88.3344853448032
20
-7.18218453339301
30
0
41
1
10
88.4224164968397
20
-7.57219867209562
30
0
41
1
10
88.5982788009127
20
-8.27443833391371
30
0
41
1
10
88.6862099529492
20
-8.58661661206096
30
0
41
1
10
88.8620722570222
20
-9.12416886214206
30
0
41
1
10
88.9500034090587
20
-9.34954815009195
30
0
41
1
10
89.1258657131317
20
-9.71210686597993
30
0
41
1
10
89.2137968651682
20
-9.84933516917383
30
0
41
1
10
89.3896591692412
20
-10.0409526983011
30
0
41
1
10
89.4775903212777
20
-10.095413282984
30
0
41
1
10
89.5875042613234
20
-10.1181058930051
30
0
41
1
10
89.6094870493326
20
-10.1203839972673
30
0
41
1
10
89.6534526253508
20
-10.1206073618598
30
0
41
1
10
89.67543541336
20
-10.1185573412174
30
0
41
1
10
89.7413837773873
20
-10.1056406110701
30
0
41
1
10
89.7853493534057
20
-10.088000389487
30
0
41
1
10
89.9172460814603
20
-10.0059246972197
30
0
41
1
10
90.0051772334969
20
-9.91217685106452
30
0
41
1
10
90.1810395375699
20
-9.6386166121666
30
0
41
1
10
90.2689706896064
20
-9.4587408719097
30
0
41
1
10
90.4448329936794
20
-9.01059985256882
30
0
41
1
10
90.5327641457159
20
-8.74230477511708
30
0
41
1
10
90.7086264497889
20
-8.12231144312889
30
0
41
1
10
90.7965576018254
20
-7.77063347497398
30
0
41
1
10
90.9724199058984
20
-6.99636657682191
30
0
41
1
10
91.0603510579349
20
-6.57384800914284
30
0
41
1
10
91.2362133620079
20
-5.67651872709232
30
0
41
1
10
91.3241445140444
20
-5.20180943346799
30
0
41
1
10
91.5000068181174
20
-4.22217773832713
30
0
41
1
10
91.587937970154
20
-3.71735821187863
30
0
41
1
10
91.7638002742269
20
-2.6998628143383
30
0
41
1
10
91.8517314262635
20
-2.18726499862802
30
0
41
1
10
92.0275937303364
20
-1.17404115496683
30
0
41
1
10
92.1155248823731
20
-0.673455511490289
30
0
41
1
10
92.2254388224187
20
-0.0648856336418362
30
0
41
1
10
92.2474216104278
20
0.0555121850144644
30
0
41
1
10
92.2913871864461
20
0.298852761896796
30
0
41
1
10
92.3133699744552
20
0.42137197832227
30
0
41
1
10
92.3793183384826
20
0.791158723670861
30
0
41
1
10
92.4232839145008
20
1.04066469974686
30
0
41
1
10
92.5551806425555
20
1.79524183261026
30
0
41
1
10
92.643111794592
20
2.3064947795431
30
0
41
1
10
92.818974098665
20
3.32670089694483
30
0
41
1
10
92.9069052507016
20
3.83558508180943
30
0
41
1
10
93.0827675547746
20
4.82916938790237
30
0
41
1
10
93.170698706811
20
5.31377091874464
30
0
41
1
10
93.3465610108841
20
6.23634894590319
30
0
41
1
10
93.4344921629206
20
6.67422071477642
30
0
41
1
10
93.6103544669937
20
7.48349435287821
30
0
41
1
10
93.6982856190301
20
7.85481543663636
30
0
41
1
10
93.8741479231031
20
8.51663804131144
30
0
41
1
10
93.9620790751397
20
8.80710562856683
30
0
41
1
10
94.1379413792127
20
9.30016264664366
30
0
41
1
10
94.2258725312491
20
9.50277009062125
30
0
41
1
10
94.4017348353223
20
9.82057864094941
30
0
41
1
10
94.4896659873586
20
9.93583662387644
30
0
41
1
10
94.6655282914316
20
10.0857606057142
30
0
41
1
10
94.7534594434682
20
10.1205
30
0
41
1
10
94.8413905955047
20
10.1205
30
0
0
SPLINE
5
E9
100
AcDbEntity
8
1
62
256
6
ByLayer
370
13
48
1
60
0
100
AcDbSpline
70
4
71
3
72
22
73
18
40
0
40
0
40
0
40
0
40
0.125
40
0.125
40
0.25
40
0.25
40
0.375
40
0.375
40
0.5
40
0.5
40
0.625
40
0.625
40
0.75
40
0.75
40
0.875
40
0.875
40
1
40
1
40
1
40
1
41
1
10
94.793959490883
20
10.1205
30
0
41
1
10
94.8782294806008
20
10.1205
30
0
41
1
10
94.9624994703184
20
10.0886037084763
30
0
41
1
10
95.131039449754
20
9.95130428403996
30
0
41
1
10
95.2153094394716
20
9.84584159036947
30
0
41
1
10
95.3838494189072
20
9.55509805505983
30
0
41
1
10
95.4681194086249
20
9.36976932118449
30
0
41
1
10
95.6366593880605
20
8.91817281216575
30
0
41
1
10
95.7209293777782
20
8.65188567921254
30
0
41
1
10
95.8894693572137
20
8.0435142751532
30
0
41
1
10
95.9737393469315
20
7.70145029039844
30
0
41
1
10
96.142279326367
20
6.95294932217234
30
0
41
1
10
96.2265493160847
20
6.54657096095488
30
0
41
1
10
96.3950892955201
20
5.68594485794114
30
0
41
1
10
96.4793592852378
20
5.23177929666701
30
0
41
1
10
96.6478992646734
20
4.29498143551581
30
0
41
1
10
96.7321692543911
20
3.81243275541524
30
0
41
1
10
96.8164392441089
20
3.32551397078765
30
0
0
SPLINE
5
EA
100
AcDbEntity
8
1
62
256
6
ByLayer
370
13
48
1
60
0
100
AcDbSpline
70
4
71
3
72
84
73
80
40
0
40
0
40
0
40
0
40
0.0156249999999994
40
0.0156249999999994
40
0.0195312499999995
40
0.0195312499999995
40
0.0234374999999995
40
0.0312499999999994
40
0.0312499999999994
40
0.0624999999999982
40
0.0624999999999982
40
0.0937499999999969
40
0.0937499999999969
40
0.124999999999996
40
0.124999999999996
40
0.156249999999994
40
0.156249999999994
40
0.187499999999993
40
0.187499999999993
40
0.218749999999992
40
0.218749999999992
40
0.24999999999999
40
0.24999999999999
40
0.281249999999989
40
0.281249999999989
40
0.312499999999988
40
0.312499999999988
40
0.343749999999987
40
0.343749999999987
40
0.347656249999987
40
0.347656249999987
40
0.351562499999987
40
0.359374999999987
40
0.359374999999987
40
0.374999999999987
40
0.374999999999987
40
0.406249999999987
40
0.406249999999987
40
0.437499999999987
40
0.437499999999987
40
0.468749999999987
40
0.468749999999987
40
0.499999999999987
40
0.499999999999987
40
0.531249999999987
40
0.531249999999987
40
0.562499999999987
40
0.562499999999987
40
0.593749999999987
40
0.593749999999987
40
0.624999999999987
40
0.624999999999987
40
0.656249999999987
40
0.656249999999987
40
0.671874999999987
40
0.671874999999987
40
0.679687499999987
40
0.679687499999987
40
0.687499999999987
40
0.687499999999987
40
0.718749999999988
40
0.718749999999988
40
0.74999999999999
40
0.74999999999999
40
0.781249999999991
40
0.781249999999991
40
0.812499999999992
40
0.812499999999992
40
0.843749999999993
40
0.843749999999993
40
0.874999999999995
40
0.874999999999995
40
0.906249999999996
40
0.906249999999996
40
0.937499999999997
40
0.937499999999997
40
0.968749999999999
40
0.968749999999999
40
1
40
1
40
1
40
1
41
1
10
86.4
20
0.754062820094845
30
0
41
1
10
86.4413938974122
20
0.520447932905512
30
0
41
1
10
86.4827877948245
20
0.289247844075931
30
0
41
1
10
86.5345301665898
20
0.004159897945641
30
0
41
1
10
86.5448786409429
20
-0.0526437825260189
30
0
41
1
10
86.5655755896489
20
-0.166898650890289
30
0
41
1
10
86.5966210127082
20
-0.338856998974961
30
0
41
1
10
86.6276664357673
20
-0.51244981734763
30
0
41
1
10
86.7311511792979
20
-1.09427270321777
30
0
41
1
10
86.8139389741223
20
-1.57004972100756
30
0
41
1
10
86.9795145637712
20
-2.52832283934626
30
0
41
1
10
87.0623023585957
20
-3.01078207276063
30
0
41
1
10
87.2278779482446
20
-3.96532647842028
30
0
41
1
10
87.310665743069
20
-4.43734941617353
30
0
41
1
10
87.476241332718
20
-5.35227324424184
30
0
41
1
10
87.5590291275424
20
-5.79509683912653
30
0
41
1
10
87.7246047171913
20
-6.63336164629288
30
0
41
1
10
87.8073925120159
20
-7.02872858383429
30
0
41
1
10
87.9729681016648
20
-7.75665622901198
30
0
41
1
10
88.0557558964892
20
-8.08916505781829
30
0
41
1
10
88.2213314861381
20
-8.68075361173373
30
0
41
1
10
88.3041192809625
20
-8.93981632744485
30
0
41
1
10
88.4696948706115
20
-9.37976239875539
30
0
41
1
10
88.552482665436
20
-9.56066425035249
30
0
41
1
10
88.7180582550849
20
-9.84537934707737
30
0
41
1
10
88.8008460499094
20
-9.9492365539985
30
0
41
1
10
88.9664216395583
20
-10.0858105923898
30
0
41
1
10
89.0492094343828
20
-10.1185819151586
30
0
41
1
10
89.1423457035602
20
-10.1206473833444
30
0
41
1
10
89.1526941779133
20
-10.1203977846102
30
0
41
1
10
89.1733911266194
20
-10.1189261893888
30
0
41
1
10
89.2044365496786
20
-10.1152577153845
30
0
41
1
10
89.2354819727378
20
-10.107117074103
30
0
41
1
10
89.2975728188562
20
-10.0846471394024
30
0
41
1
10
89.3389667162684
20
-10.0614100339795
30
0
41
1
10
89.463148408505
20
-9.96529786731418
30
0
41
1
10
89.5459362033295
20
-9.86589120817553
30
0
41
1
10
89.7115117929784
20
-9.59031152646759
30
0
41
1
10
89.7942995878028
20
-9.41409348152172
30
0
41
1
10
89.9598751774518
20
-8.98342578988814
30
0
41
1
10
90.0426629722763
20
-8.72895576394541
30
0
41
1
10
90.2082385619252
20
-8.1461037197447
30
0
41
1
10
90.2910263567496
20
-7.81773648590516
30
0
41
1
10
90.4566019463986
20
-7.0973112999057
30
0
41
1
10
90.539389741223
20
-6.70530339082845
30
0
41
1
10
90.7049653308719
20
-5.87273564744214
30
0
41
1
10
90.7877531256964
20
-5.43224926423764
30
0
41
1
10
90.9533287153453
20
-4.52087220329906
30
0
41
1
10
91.0361165101698
20
-4.05005920000775
30
0
41
1
10
91.2016920998187
20
-3.09684085032322
30
0
41
1
10
91.2844798946432
20
-2.61449902203427
30
0
41
1
10
91.4500554842921
20
-1.65551477099402
30
0
41
1
10
91.5328432791165
20
-1.17891084097636
30
0
41
1
10
91.6570249713532
20
-0.478935544528468
30
0
41
1
10
91.6984188687655
20
-0.248071325012518
30
0
41
1
10
91.7605097148839
20
0.0934721798358282
30
0
41
1
10
91.7812066635898
20
0.207757524658064
30
0
41
1
10
91.8226005610021
20
0.438105733712433
30
0
41
1
10
91.8432975097082
20
0.553995924276535
30
0
41
1
10
91.9467822532388
20
1.13657051808937
30
0
41
1
10
92.0295700480633
20
1.61276728477998
30
0
41
1
10
92.1951456377122
20
2.57140997552264
30
0
41
1
10
92.2779334325367
20
3.0538182192449
30
0
41
1
10
92.4435090221856
20
4.00771575948346
30
0
41
1
10
92.5262968170101
20
4.47914217492379
30
0
41
1
10
92.6918724066589
20
5.39230926890426
30
0
41
1
10
92.7746602014835
20
5.83397245412721
30
0
41
1
10
92.9402357911324
20
6.66940381354806
30
0
41
1
10
93.0230235859569
20
7.06309811590614
30
0
41
1
10
93.1885991756058
20
7.7872860959591
30
0
41
1
10
93.2713869704302
20
8.11772880708909
30
0
41
1
10
93.4369625600791
20
8.70495580139868
30
0
41
1
10
93.5197503549035
20
8.96172418760949
30
0
41
1
10
93.6853259445525
20
9.397032470569
30
0
41
1
10
93.768113739377
20
9.57559180976304
30
0
41
1
10
93.9336893290259
20
9.85573581577225
30
0
41
1
10
94.0164771238503
20
9.95736498159138
30
0
41
1
10
94.1820527134992
20
10.0897197846047
30
0
41
1
10
94.2648405083236
20
10.1205
30
0
41
1
10
94.3476283031482
20
10.1205
30
0
0
SPLINE
5
EB
100
AcDbEntity
8
1
62
256
6
ByLayer
370
13
48
1
60
0
100
AcDbSpline
70
4
71
3
72
34
73
30
40
0
40
0
40
0
40
0
40
0.125
40
0.125
40
0.1875
40
0.1875
40
0.25
40
0.25
40
0.3125
40
0.3125
40
0.375
40
0.375
40
0.4375
40
0.4375
40
0.5
40
0.5
40
0.5625
40
0.5625
40
0.625
40
0.625
40
0.6875
40
0.6875
40
0.75
40
0.75
40
0.8125
40
0.8125
40
0.875
40
0.875
40
1
40
1
40
1
40
1
41
1
10
94.3001971985265
20
10.1205
30
0
41
1
10
94.4050406170924
20
10.1205
30
0
41
1
10
94.5098840356584
20
10.0710245270088
30
0
41
1
10
94.6671491635072
20
9.90908527009293
30
0
41
1
10
94.7195708727902
20
9.84053367306691
30
0
41
1
10
94.8244142913562
20
9.6728491073942
30
0
41
1
10
94.8768360006391
20
9.57371138968048
30
0
41
1
10
94.9816794192051
20
9.34415508612884
30
0
41
1
10
95.034101128488
20
9.21373311280647
30
0
41
1
10
95.1389445470539
20
8.92178245937654
30
0
41
1
10
95.1913662563369
20
8.76025232046723
30
0
41
1
10
95.2962096749029
20
8.40720793864296
30
0
41
1
10
95.3486313841858
20
8.21569454638029
30
0
41
1
10
95.4534748027518
20
7.80476507458854
30
0
41
1
10
95.5058965120347
20
7.58535225216181
30
0
41
1
10
95.6107399306007
20
7.1216026016736
30
0
41
1
10
95.6631616398837
20
6.8772712034056
30
0
41
1
10
95.7680050584496
20
6.36742880748267
30
0
41
1
10
95.8204267677326
20
6.10192487046677
30
0
41
1
10
95.9252701862985
20
5.55405779010877
30
0
41
1
10
95.9776918955814
20
5.27170257937939
30
0
41
1
10
96.0825353141474
20
4.6948013201162
30
0
41
1
10
96.1349570234303
20
4.40026323685552
30
0
41
1
10
96.2398004419963
20
3.80377082390214
30
0
41
1
10
96.2922221512792
20
3.50182371795322
30
0
41
1
10
96.3970655698452
20
2.89516333935893
30
0
41
1
10
96.4494872791281
20
2.59045595762581
30
0
41
1
10
96.6067524069771
20
1.67867469034979
30
0
41
1
10
96.711595825543
20
1.07424239479235
30
0
41
1
10
96.8164392441089
20
0.487470718028362
30
0
0
SPLINE
5
EC
100
AcDbEntity
8
1
62
256
6
ByLayer
370
13
48
1
60
0
100
AcDbSpline
70
4
71
3
72
80
73
76
40
0
40
0
40
0
40
0
40
0.0312500000000006
40
0.0312500000000006
40
0.0625000000000011
40
0.0625000000000011
40
0.0937500000000017
40
0.0937500000000017
40
0.125000000000002
40
0.125000000000002
40
0.156250000000003
40
0.156250000000003
40
0.187500000000003
40
0.187500000000003
40
0.218750000000004
40
0.218750000000004
40
0.250000000000004
40
0.250000000000004
40
0.281250000000005
40
0.281250000000005
40
0.296875000000005
40
0.296875000000005
40
0.304687500000005
40
0.304687500000005
40
0.312500000000005
40
0.312500000000005
40
0.343750000000006
40
0.343750000000006
40
0.375000000000008
40
0.375000000000008
40
0.406250000000009
40
0.406250000000009
40
0.43750000000001
40
0.43750000000001
40
0.468750000000011
40
0.468750000000011
40
0.500000000000012
40
0.500000000000012
40
0.531250000000014
40
0.531250000000014
40
0.562500000000015
40
0.562500000000015
40
0.593750000000016
40
0.593750000000016
40
0.625000000000017
40
0.625000000000017
40
0.640625000000018
40
0.640625000000018
40
0.648437500000018
40
0.648437500000018
40
0.652343750000018
40
0.652343750000018
40
0.656250000000018
40
0.656250000000018
40
0.687500000000017
40
0.687500000000017
40
0.718750000000015
40
0.718750000000015
40
0.750000000000013
40
0.750000000000013
40
0.781250000000012
40
0.781250000000012
40
0.81250000000001
40
0.81250000000001
40
0.843750000000008
40
0.843750000000008
40
0.875000000000007
40
0.875000000000007
40
0.906250000000005
40
0.906250000000005
40
0.937500000000003
40
0.937500000000003
40
0.968750000000002
40
0.968750000000002
40
1
40
1
40
1
40
1
41
1
10
86.4
20
-2.0320306798157
30
0
41
1
10
86.4776444376124
20
-2.48132694230159
30
0
41
1
10
86.5552888752248
20
-2.93361795675696
30
0
41
1
10
86.7105777504496
20
-3.83023463409151
30
0
41
1
10
86.7882221880621
20
-4.27451629007598
30
0
41
1
10
86.9435110632869
20
-5.1397208218828
30
0
41
1
10
87.0211555008993
20
-5.56058834148098
30
0
41
1
10
87.1764443761241
20
-6.36370575886033
30
0
41
1
10
87.2540888137365
20
-6.74590006401198
30
0
41
1
10
87.4093776889614
20
-7.4582578546094
30
0
41
1
10
87.4870221265739
20
-7.78837822881252
30
0
41
1
10
87.6423110017987
20
-8.38654981505218
30
0
41
1
10
87.719955439411
20
-8.65458001252429
30
0
41
1
10
87.8752443146358
20
-9.12290181092635
30
0
41
1
10
87.9528887522483
20
-9.32319745877862
30
0
41
1
10
88.1081776274731
20
-9.65500846376068
30
0
41
1
10
88.1858220650855
20
-9.78654876833767
30
0
41
1
10
88.3411109403102
20
-9.98397814151775
30
0
41
1
10
88.4187553779227
20
-10.0499043081941
30
0
41
1
10
88.5352220343414
20
-10.1043045934944
30
0
41
1
10
88.5740442531476
20
-10.1150445083191
30
0
41
1
10
88.632277581357
20
-10.1208046869697
30
0
41
1
10
88.65168869076
20
-10.1210149166904
30
0
41
1
10
88.6905109095662
20
-10.1180402844144
30
0
41
1
10
88.7099220189693
20
-10.1148370278203
30
0
41
1
10
88.8069775659849
20
-10.0899223690101
30
0
41
1
10
88.8846220035972
20
-10.0414302989079
30
0
41
1
10
89.0399108788221
20
-9.88038051555452
30
0
41
1
10
89.1175553164344
20
-9.76778406178096
30
0
41
1
10
89.2728441916593
20
-9.47436317328305
30
0
41
1
10
89.3504886292717
20
-9.29350938123446
30
0
41
1
10
89.5057775044965
20
-8.86333092225317
30
0
41
1
10
89.583421942109
20
-8.61399564071866
30
0
41
1
10
89.7387108173338
20
-8.05116506945313
30
0
41
1
10
89.8163552549462
20
-7.73768371170891
30
0
41
1
10
89.9716441301711
20
-7.0553929997356
30
0
41
1
10
90.0492885677835
20
-6.68662126683054
30
0
41
1
10
90.2045774430082
20
-5.90631896345062
30
0
41
1
10
90.2822218806207
20
-5.49484171243407
30
0
41
1
10
90.4375107558456
20
-4.64403348137705
30
0
41
1
10
90.5151551934579
20
-4.20475919933224
30
0
41
1
10
90.6704440686827
20
-3.31389787282526
30
0
41
1
10
90.7480885062952
20
-2.86235890208837
30
0
41
1
10
90.9033773815199
20
-1.96152936315525
30
0
41
1
10
90.9810218191324
20
-1.51227051312188
30
0
41
1
10
91.097488475551
20
-0.849338270301502
30
0
41
1
10
91.1363106943572
20
-0.630166764750612
30
0
41
1
10
91.1945440225666
20
-0.305074794956795
30
0
41
1
10
91.2139551319696
20
-0.197320243682782
30
0
41
1
10
91.2430717960743
20
-0.0367089597273207
30
0
41
1
10
91.2527773507758
20
0.0165529747472135
30
0
41
1
10
91.2721884601789
20
0.123541359297633
30
0
41
1
10
91.2818940148806
20
0.177206615567116
30
0
41
1
10
91.3692440071945
20
0.661655791930116
30
0
41
1
10
91.446888444807
20
1.10279371979226
30
0
41
1
10
91.6021773200317
20
1.99558503949837
30
0
41
1
10
91.6798217576441
20
2.44721857369657
30
0
41
1
10
91.8351106328689
20
3.34777943830454
30
0
41
1
10
91.9127550704814
20
3.7966686471998
30
0
41
1
10
92.0680439457062
20
4.67668996404026
30
0
41
1
10
92.1456883833185
20
5.10776972647224
30
0
41
1
10
92.3009772585434
20
5.93667062889213
30
0
41
1
10
92.3786216961557
20
6.33443478391331
30
0
41
1
10
92.5339105713806
20
7.08243427639121
30
0
41
1
10
92.611555008993
20
7.43262065059699
30
0
41
1
10
92.7668438842178
20
8.07406509608688
30
0
41
1
10
92.8444883218302
20
8.36529348023538
30
0
41
1
10
92.9997771970551
20
8.88151288351099
30
0
41
1
10
93.0774216346675
20
9.10649908220424
30
0
41
1
10
93.2327105098923
20
9.48754794810046
30
0
41
1
10
93.3103549475048
20
9.64362889982343
30
0
41
1
10
93.4656438227296
20
9.88858847996599
30
0
41
1
10
93.543288260342
20
9.97750097881087
30
0
41
1
10
93.6985771355669
20
10.0934368573588
30
0
41
1
10
93.7762215731792
20
10.1205
30
0
41
1
10
93.8538660107916
20
10.1205
30
0
0
SPLINE
5
ED
100
AcDbEntity
8
1
62
256
6
ByLayer
370
13
48
1
60
0
100
AcDbSpline
70
4
71
3
72
42
73
38
40
0
40
0
40
0
40
0
40
0.0625000000000004
40
0.0625000000000004
40
0.125000000000001
40
0.125000000000001
40
0.187500000000001
40
0.187500000000001
40
0.250000000000002
40
0.250000000000002
40
0.312500000000002
40
0.312500000000002
40
0.375000000000002
40
0.375000000000002
40
0.437500000000003
40
0.437500000000003
40
0.500000000000003
40
0.500000000000003
40
0.562500000000004
40
0.562500000000004
40
0.625000000000004
40
0.625000000000004
40
0.687500000000005
40
0.687500000000005
40
0.750000000000006
40
0.750000000000006
40
0.812500000000006
40
0.812500000000006
40
0.843750000000006
40
0.843750000000006
40
0.859375000000006
40
0.859375000000006
40
0.875000000000006
40
0.875000000000006
40
0.937500000000003
40
0.937500000000003
40
1
40
1
40
1
40
1
41
1
10
93.80643490617
20
10.1205
30
0
41
1
10
93.869143329877
20
10.1205
30
0
41
1
10
93.9318517535841
20
10.1028652631808
30
0
41
1
10
94.0572686009982
20
10.0281829576634
30
0
41
1
10
94.1199770247053
20
9.97112165050046
30
0
41
1
10
94.2453938721195
20
9.81435506774918
30
0
41
1
10
94.3081022958264
20
9.7146369266548
30
0
41
1
10
94.4335191432406
20
9.47066997791671
30
0
41
1
10
94.4962275669476
20
9.32641134771362
30
0
41
1
10
94.6216444143617
20
8.99317014620729
30
0
41
1
10
94.6843528380688
20
8.80418290901895
30
0
41
1
10
94.8097696854829
20
8.38320987969524
30
0
41
1
10
94.87247810919
20
8.1512260653069
30
0
41
1
10
94.997894956604
20
7.64794914507121
30
0
41
1
10
95.0606033803113
20
7.37666501173806
30
0
41
1
10
95.1860202277254
20
6.80027641520277
30
0
41
1
10
95.2487286514324
20
6.49518690230724
30
0
41
1
10
95.3741454988465
20
5.85811207926372
30
0
41
1
10
95.4368539225536
20
5.52614548798007
30
0
41
1
10
95.5622707699678
20
4.84316202569519
30
0
41
1
10
95.6249791936747
20
4.49216478717358
30
0
41
1
10
95.7503960410888
20
3.77929985514479
30
0
41
1
10
95.8131044647959
20
3.41744992384827
30
0
41
1
10
95.93852131221
20
2.69082236904066
30
0
41
1
10
96.001229735917
20
2.32605854873458
30
0
41
1
10
96.1266465833312
20
1.60082816628594
30
0
41
1
10
96.1893550070382
20
1.24037039111096
30
0
41
1
10
96.2834176425989
20
0.70753055811943
30
0
41
1
10
96.3147718544524
20
0.531216013621645
30
0
41
1
10
96.3618031722327
20
0.269182683845855
30
0
41
1
10
96.3774802781595
20
0.182244036108813
30
0
41
1
10
96.408834490013
20
0.0092525643903514
30
0
41
1
10
96.4245115959397
20
-0.0767378014027429
30
0
41
1
10
96.5028971255736
20
-0.510357938952865
30
0
41
1
10
96.5656055492807
20
-0.86423930122595
30
0
41
1
10
96.6910223966947
20
-1.58066082687441
30
0
41
1
10
96.7537308204018
20
-1.94319570804208
30
0
41
1
10
96.8164392441089
20
-2.30680178506253
30
0
0
SPLINE
5
EE
100
AcDbEntity
8
1
62
256
6
ByLayer
370
13
48
1
60
0
100
AcDbSpline
70
4
71
3
72
79
73
75
40
0
40
0
40
0
40
0
40
0.0312500000000003
40
0.0312500000000003
40
0.0625000000000007
40
0.0625000000000007
40
0.093750000000001
40
0.093750000000001
40
0.125000000000001
40
0.125000000000001
40
0.156250000000002
40
0.156250000000002
40
0.187500000000002
40
0.187500000000002
40
0.218750000000002
40
0.218750000000002
40
0.250000000000003
40
0.250000000000003
40
0.253906250000003
40
0.253906250000003
40
0.257812500000003
40
0.265625000000003
40
0.265625000000003
40
0.281250000000003
40
0.281250000000003
40
0.312500000000003
40
0.312500000000003
40
0.343750000000003
40
0.343750000000003
40
0.375000000000002
40
0.375000000000002
40
0.406250000000002
40
0.406250000000002
40
0.437500000000002
40
0.437500000000002
40
0.468750000000002
40
0.468750000000002
40
0.500000000000002
40
0.500000000000002
40
0.531250000000002
40
0.531250000000002
40
0.562500000000002
40
0.562500000000002
40
0.593750000000001
40
0.593750000000001
40
0.625000000000001
40
0.625000000000001
40
0.632812500000001
40
0.632812500000001
40
0.640625000000001
40
0.640625000000001
40
0.656250000000001
40
0.656250000000001
40
0.687500000000001
40
0.687500000000001
40
0.718750000000001
40
0.718750000000001
40
0.750000000000001
40
0.750000000000001
40
0.781250000000001
40
0.781250000000001
40
0.812500000000001
40
0.812500000000001
40
0.84375
40
0.84375
40
0.875
40
0.875
40
0.90625
40
0.90625
40
0.9375
40
0.9375
40
0.96875
40
0.96875
40
1
40
1
40
1
40
1
41
1
10
86.4
20
-4.86202481828039
30
0
41
1
10
86.4725010804004
20
-5.26325011440105
30
0
41
1
10
86.5450021608008
20
-5.65343527940533
30
0
41
1
10
86.6900043216015
20
-6.39946388286907
30
0
41
1
10
86.7625054020019
20
-6.75526805206795
30
0
41
1
10
86.9075075628026
20
-7.42166679251366
30
0
41
1
10
86.980008643203
20
-7.73223055378864
30
0
41
1
10
87.1250108040036
20
-8.29983518739257
30
0
41
1
10
87.197511884404
20
-8.5568597410961
30
0
41
1
10
87.3425140452048
20
-9.01235465440513
30
0
41
1
10
87.4150151256051
20
-9.21082539356959
30
0
41
1
10
87.5600172864059
20
-9.54770685807151
30
0
41
1
10
87.6325183668063
20
-9.68613263953574
30
0
41
1
10
87.777520527607
20
-9.90470080030104
30
0
41
1
10
87.8500216080073
20
-9.98486786660038
30
0
41
1
10
87.9950237688081
20
-10.0913599457489
30
0
41
1
10
88.0675248492084
20
-10.1177132344857
30
0
41
1
10
88.1490885646588
20
-10.1206116307144
30
0
41
1
10
88.1581511997089
20
-10.1205648876067
30
0
41
1
10
88.176276469809
20
-10.1197312719529
30
0
41
1
10
88.2034643749591
20
-10.1173663856249
30
0
41
1
10
88.2306522801093
20
-10.1115980443211
30
0
41
1
10
88.2850280904096
20
-10.0953696375711
30
0
41
1
10
88.3212786306098
20
-10.0782919901764
30
0
41
1
10
88.4300302512103
20
-10.0071504746872
30
0
41
1
10
88.5025313316106
20
-9.93310749142233
30
0
41
1
10
88.6475334924113
20
-9.72715736155433
30
0
41
1
10
88.7200345728117
20
-9.59522484496497
30
0
41
1
10
88.8650367336124
20
-9.27137532712732
30
0
41
1
10
88.9375378140129
20
-9.07944193845779
30
0
41
1
10
89.0825399748136
20
-8.63669028595791
30
0
41
1
10
89.1550410552139
20
-8.38586987477086
30
0
41
1
10
89.3000432160146
20
-7.82996036200242
30
0
41
1
10
89.372544296415
20
-7.52488578652048
30
0
41
1
10
89.5175464572158
20
-6.86842081116293
30
0
41
1
10
89.5900475376161
20
-6.51705987760042
30
0
41
1
10
89.7350496984168
20
-5.77864082432626
30
0
41
1
10
89.8075507788172
20
-5.39162142344557
30
0
41
1
10
89.9525529396179
20
-4.59412178753306
30
0
41
1
10
90.0250540200183
20
-4.18368170673079
30
0
41
1
10
90.170056180819
20
-3.35198047338181
30
0
41
1
10
90.2425572612194
20
-2.93075354102021
30
0
41
1
10
90.38755942202
20
-2.08937911123067
30
0
41
1
10
90.4600605024204
20
-1.66925507775181
30
0
41
1
10
90.6050626632211
20
-0.84036669833381
30
0
41
1
10
90.6775637436216
20
-0.431613593101758
30
0
41
1
10
90.7681900941221
20
0.0671424921855817
30
0
41
1
10
90.7863153642222
20
0.167021207326968
30
0
41
1
10
90.8225659044224
20
0.368342668736943
30
0
41
1
10
90.8406911745224
20
0.469563149279367
30
0
41
1
10
90.8950669848226
20
0.774723160054634
30
0
41
1
10
90.9313175250229
20
0.98016559778182
30
0
41
1
10
91.0400691456235
20
1.60089585940028
30
0
41
1
10
91.1125702260239
20
2.02064680720665
30
0
41
1
10
91.2575723868246
20
2.86188237618688
30
0
41
1
10
91.3300734672249
20
3.28334419205788
30
0
41
1
10
91.4750756280257
20
4.1161914735608
30
0
41
1
10
91.547576708426
20
4.52754321064805
30
0
41
1
10
91.6925788692267
20
5.32755565657635
30
0
41
1
10
91.7650799496271
20
5.71617636050536
30
0
41
1
10
91.9100821104278
20
6.45843472663242
30
0
41
1
10
91.9825831908282
20
6.81203338276171
30
0
41
1
10
92.127585351629
20
7.47349353202878
30
0
41
1
10
92.2000864320293
20
7.78132487806027
30
0
41
1
10
92.3450885928299
20
8.3431013272895
30
0
41
1
10
92.4175896732304
20
8.5970310051587
30
0
41
1
10
92.5625918340311
20
9.04616337968551
30
0
41
1
10
92.6350929144314
20
9.24136734328718
30
0
41
1
10
92.7800950752322
20
9.57173174712227
30
0
41
1
10
92.8525961556326
20
9.7069079170611
30
0
41
1
10
92.9975983164333
20
9.91915718162699
30
0
41
1
10
93.0700993968337
20
9.99625531395279
30
0
41
1
10
93.2151015576345
20
10.0969125691457
30
0
41
1
10
93.2876026380348
20
10.1205
30
0
41
1
10
93.3601037184351
20
10.1205
30
0
0
SPLINE
5
EF
100
AcDbEntity
8
1
62
256
6
ByLayer
370
13
48
1
60
0
100
AcDbSpline
70
4
71
3
72
42
73
38
40
0
40
0
40
0
40
0
40
0.0625
40
0.0625
40
0.125
40
0.125
40
0.1875
40
0.1875
40
0.25
40
0.25
40
0.3125
40
0.3125
40
0.375
40
0.375
40
0.4375
40
0.4375
40
0.5
40
0.5
40
0.5625
40
0.5625
40
0.625
40
0.625
40
0.6875
40
0.6875
40
0.718749999999999
40
0.718749999999999
40
0.734375
40
0.734375
40
0.75
40
0.75
40
0.8125
40
0.8125
40
0.875
40
0.875
40
0.9375
40
0.9375
40
1
40
1
40
1
40
1
41
1
10
93.3126726138134
20
10.1205
30
0
41
1
10
93.3856677519445
20
10.1205
30
0
41
1
10
93.4586628900757
20
10.0965891607877
30
0
41
1
10
93.604653166338
20
9.9945135037828
30
0
41
1
10
93.6776483044692
20
9.91631940702817
30
0
41
1
10
93.8236385807315
20
9.7010352199417
30
0
41
1
10
93.8966337188626
20
9.56391932020247
30
0
41
1
10
94.042623995125
20
9.22884346212587
30
0
41
1
10
94.115619133256
20
9.03086749375021
30
0
41
1
10
94.2616094095183
20
8.57546941476571
30
0
41
1
10
94.3346045476496
20
8.31804645309339
30
0
41
1
10
94.4805948239119
20
7.74876994798069
30
0
41
1
10
94.5535899620431
20
7.43693293953393
30
0
41
1
10
94.6995802383054
20
6.76723095201223
30
0
41
1
10
94.7725753764366
20
6.40939767321899
30
0
41
1
10
94.9185656526989
20
5.65875615502168
30
0
41
1
10
94.9915607908301
20
5.26598850306942
30
0
41
1
10
95.1375510670923
20
4.45806978026977
30
0
41
1
10
95.2105462052234
20
4.0429599137598
30
0
41
1
10
95.3565364814858
20
3.20322722895224
30
0
41
1
10
95.4295316196168
20
2.77863871171777
30
0
41
1
10
95.5755218958792
20
1.93193822095961
30
0
41
1
10
95.6485170340104
20
1.50984898279441
30
0
41
1
10
95.7580097412073
20
0.886251114200434
30
0
41
1
10
95.7945073102727
20
0.679958732611595
30
0
41
1
10
95.8492536638711
20
0.373682811192623
30
0
41
1
10
95.8675024484038
20
0.272116822562936
30
0
41
1
10
95.9040000174694
20
0.0701568510238246
30
0
41
1
10
95.9222488020022
20
-0.0298625199102105
30
0
41
1
10
96.0134927246661
20
-0.533974723023078
30
0
41
1
10
96.0864878627973
20
-0.946853967662236
30
0
41
1
10
96.2324781390596
20
-1.78331448347541
30
0
41
1
10
96.3054732771907
20
-2.20688302712352
30
0
41
1
10
96.4514635534531
20
-3.0540749289911
30
0
41
1
10
96.5244586915843
20
-3.47767283246151
30
0
41
1
10
96.6704489678466
20
-4.31267895339903
30
0
41
1
10
96.7434441059778
20
-4.72405085958809
30
0
41
1
10
96.8164392441089
20
-5.12287568734843
30
0
0
SPLINE
5
F0
100
AcDbEntity
8
1
62
256
6
ByLayer
370
13
48
1
60
0
100
AcDbSpline
70
4
71
3
72
76
73
72
40
0
40
0
40
0
40
0
40
0.0312499999999996
40
0.0312499999999996
40
0.0624999999999992
40
0.0624999999999992
40
0.0937499999999989
40
0.0937499999999989
40
0.124999999999999
40
0.124999999999999
40
0.156249999999998
40
0.156249999999998
40
0.187499999999998
40
0.187499999999998
40
0.195312499999998
40
0.195312499999998
40
0.203124999999998
40
0.218749999999998
40
0.218749999999998
40
0.249999999999998
40
0.249999999999998
40
0.281249999999997
40
0.281249999999997
40
0.312499999999997
40
0.312499999999997
40
0.343749999999997
40
0.343749999999997
40
0.374999999999996
40
0.374999999999996
40
0.406249999999996
40
0.406249999999996
40
0.437499999999996
40
0.437499999999996
40
0.468749999999995
40
0.468749999999995
40
0.499999999999995
40
0.499999999999995
40
0.531249999999995
40
0.531249999999995
40
0.562499999999994
40
0.562499999999994
40
0.593749999999994
40
0.593749999999994
40
0.601562499999994
40
0.601562499999994
40
0.609374999999994
40
0.624999999999994
40
0.624999999999994
40
0.656249999999995
40
0.656249999999995
40
0.687499999999995
40
0.687499999999995
40
0.718749999999996
40
0.718749999999996
40
0.749999999999996
40
0.749999999999996
40
0.781249999999997
40
0.781249999999997
40
0.812499999999997
40
0.812499999999997
40
0.843749999999998
40
0.843749999999998
40
0.874999999999998
40
0.874999999999998
40
0.906249999999999
40
0.906249999999999
40
0.937499999999999
40
0.937499999999999
40
0.96875
40
0.96875
40
1
40
1
40
1
40
1
41
1
10
86.4
20
-7.35347397132074
30
0
41
1
10
86.4673577231883
20
-7.65141482108558
30
0
41
1
10
86.5347154463766
20
-7.92874208576015
30
0
41
1
10
86.6694308927532
20
-8.43612439956698
30
0
41
1
10
86.7367886159416
20
-8.66617042500437
30
0
41
1
10
86.8715040623183
20
-9.07541934333108
30
0
41
1
10
86.9388617855066
20
-9.25462394802895
30
0
41
1
10
87.0735772318832
20
-9.56124160190751
30
0
41
1
10
87.1409349550715
20
-9.68866558654165
30
0
41
1
10
87.2756504014482
20
-9.89319852750396
30
0
41
1
10
87.3430081246365
20
-9.9703245368861
30
0
41
1
10
87.4777235710131
20
-10.0777300728497
30
0
41
1
10
87.5450812942015
20
-10.1080291396648
30
0
41
1
10
87.6292784481868
20
-10.119684882488
30
0
41
1
10
87.6461178789839
20
-10.1207085056522
30
0
41
1
10
87.6797967405781
20
-10.120221627852
30
0
41
1
10
87.7303150329693
20
-10.1156708004916
30
0
41
1
10
87.7808333253605
20
-10.099269751724
30
0
41
1
10
87.8818699101431
20
-10.0497130917701
30
0
41
1
10
87.9492276333312
20
-9.9942886410318
30
0
41
1
10
88.083943079708
20
-9.83451550891522
30
0
41
1
10
88.1513008028964
20
-9.73014820794469
30
0
41
1
10
88.286016249273
20
-9.47003920841644
30
0
41
1
10
88.3533739724613
20
-9.3142833666578
30
0
41
1
10
88.4880894188378
20
-8.95119258177326
30
0
41
1
10
88.5554471420262
20
-8.74385145059765
30
0
41
1
10
88.6901625884029
20
-8.2799487945662
30
0
41
1
10
88.7575203115912
20
-8.02339139077986
30
0
41
1
10
88.8922357579678
20
-7.46601683422864
30
0
41
1
10
88.9595934811562
20
-7.16521440423284
30
0
41
1
10
89.0943089275328
20
-6.52662852776044
30
0
41
1
10
89.161666650721
20
-6.18886829341253
30
0
41
1
10
89.2963820970977
20
-5.48538413471388
30
0
41
1
10
89.363739820286
20
-5.11968788432714
30
0
41
1
10
89.4984552666626
20
-4.37030727968403
30
0
41
1
10
89.565812989851
20
-3.98665028104168
30
0
41
1
10
89.7005284362276
20
-3.21143791807844
30
0
41
1
10
89.767886159416
20
-2.81990539937968
30
0
41
1
10
89.9026016057926
20
-2.03837766940668
30
0
41
1
10
89.9699593289809
20
-1.64839816812997
30
0
41
1
10
90.1046747753575
20
-0.878171258466267
30
0
41
1
10
90.1720324985459
20
-0.497931680056695
30
0
41
1
10
90.2562296525313
20
-0.0328395101451804
30
0
41
1
10
90.2730690833283
20
0.0594675219025476
30
0
41
1
10
90.3067479449224
20
0.245697286109845
30
0
41
1
10
90.3572662373136
20
0.526546112136458
30
0
41
1
10
90.4077845297051
20
0.811497768785955
30
0
41
1
10
90.5088211144874
20
1.38563015750989
30
0
41
1
10
90.5761788376758
20
1.7740708419708
30
0
41
1
10
90.7108942840524
20
2.55449502427245
30
0
41
1
10
90.7782520072407
20
2.94646459319503
30
0
41
1
10
90.9129674536173
20
3.72476290976289
30
0
41
1
10
90.9803251768057
20
4.11107026249076
30
0
41
1
10
91.1150406231823
20
4.86805075695608
30
0
41
1
10
91.1823983463706
20
5.23869724068749
30
0
41
1
10
91.3171137927473
20
5.95428412161777
30
0
41
1
10
91.3844715159356
20
6.29919649942096
30
0
41
1
10
91.5191869623121
20
6.95400153849641
30
0
41
1
10
91.5865446855005
20
7.26386957808248
30
0
41
1
10
91.7212601318772
20
7.84083894481213
30
0
41
1
10
91.7886178550654
20
8.10792336304553
30
0
41
1
10
91.9233333014421
20
8.59378377929002
30
0
41
1
10
91.9906910246305
20
8.81255319892057
30
0
41
1
10
92.1254064710071
20
9.19880760268433
30
0
41
1
10
92.1927641941954
20
9.36629658853678
30
0
41
1
10
92.3274796405722
20
9.64961709970541
30
0
41
1
10
92.3948373637604
20
9.76546125152638
30
0
41
1
10
92.5295528101371
20
9.94746325530173
30
0
41
1
10
92.5969105333253
20
10.0136390375418
30
0
41
1
10
92.7316259797019
20
10.1001475949463
30
0
41
1
10
92.7989837028903
20
10.1205
30
0
41
1
10
92.8663414260786
20
10.1205
30
0
0
SPLINE
5
F1
100
AcDbEntity
8
1
62
256
6
ByLayer
370
13
48
1
60
0
100
AcDbSpline
70
4
71
3
72
43
73
39
40
0
40
0
40
0
40
0
40
0.0625000000000003
40
0.0625000000000003
40
0.125000000000001
40
0.125000000000001
40
0.187500000000001
40
0.187500000000001
40
0.250000000000001
40
0.250000000000001
40
0.312500000000001
40
0.312500000000001
40
0.375000000000002
40
0.375000000000002
40
0.437500000000002
40
0.437500000000002
40
0.500000000000002
40
0.500000000000002
40
0.562500000000002
40
0.562500000000002
40
0.625000000000002
40
0.625000000000002
40
0.640625000000002
40
0.648437500000003
40
0.648437500000003
40
0.656250000000003
40
0.656250000000003
40
0.687500000000003
40
0.687500000000003
40
0.750000000000002
40
0.750000000000002
40
0.812500000000002
40
0.812500000000002
40
0.875000000000001
40
0.875000000000001
40
0.937500000000001
40
0.937500000000001
40
1
40
1
40
1
40
1
41
1
10
92.8189103214569
20
10.1205
30
0
41
1
10
92.9021921740122
20
10.1205
30
0
41
1
10
92.9854740265674
20
10.089349999519
30
0
41
1
10
93.1520377316779
20
9.95535763896777
30
0
41
1
10
93.235319584233
20
9.85245907755009
30
0
41
1
10
93.4018832893437
20
9.56880483907068
30
0
41
1
10
93.485165141899
20
9.38800354805323
30
0
41
1
10
93.6517288470094
20
8.94729803319825
30
0
41
1
10
93.7350106995647
20
8.68737436989474
30
0
41
1
10
93.9015744046752
20
8.09313205934026
30
0
41
1
10
93.9848562572304
20
7.75883070561702
30
0
41
1
10
94.1514199623409
20
7.02655925908414
30
0
41
1
10
94.2347018148961
20
6.62864260401292
30
0
41
1
10
94.4012655200066
20
5.78480908568216
30
0
41
1
10
94.484547372562
20
5.3389688089471
30
0
41
1
10
94.6511110776725
20
4.41788762564841
30
0
41
1
10
94.7343929302277
20
3.94272625134624
30
0
41
1
10
94.9009566353382
20
2.98211056839821
30
0
41
1
10
94.9842384878934
20
2.49671996332427
30
0
41
1
10
95.1508021930039
20
1.53304564114123
30
0
41
1
10
95.2340840455591
20
1.05479923371215
30
0
41
1
10
95.3381863612531
20
0.47027374634493
30
0
41
1
10
95.3694170559614
20
0.295898572458611
30
0
41
1
10
95.4006477506697
20
0.123202039329584
30
0
41
1
10
95.4214682138086
20
0.0084649882248868
30
0
41
1
10
95.4318784453778
20
-0.0486695414568317
30
0
41
1
10
95.4839296032249
20
-0.335970248880187
30
0
41
1
10
95.5255705295025
20
-0.568934419097218
30
0
41
1
10
95.6504933083353
20
-1.27498885221456
30
0
41
1
10
95.7337751608906
20
-1.75535205067078
30
0
41
1
10
95.9003388660012
20
-2.7207679161595
30
0
41
1
10
95.9836207185564
20
-3.20577892546967
30
0
41
1
10
96.1501844236669
20
-4.16275680598309
30
0
41
1
10
96.2334662762222
20
-4.6346565897945
30
0
41
1
10
96.4000299813327
20
-5.54625303418717
30
0
41
1
10
96.4833118338879
20
-5.98586925681605
30
0
41
1
10
96.6498755389983
20
-6.81458366602391
30
0
41
1
10
96.7331573915537
20
-7.20360760448736
30
0
41
1
10
96.8164392441089
20
-7.55983730254846
30
0
0
SPLINE
5
F2
100
AcDbEntity
8
1
62
256
6
ByLayer
370
13
48
1
60
0
100
AcDbSpline
70
4
71
3
72
76
73
72
40
0
40
0
40
0
40
0
40
0.0312499999999997
40
0.0312499999999997
40
0.0624999999999995
40
0.0624999999999995
40
0.0937499999999992
40
0.0937499999999992
40
0.124999999999999
40
0.124999999999999
40
0.132812499999999
40
0.132812499999999
40
0.140624999999998
40
0.156249999999998
40
0.156249999999998
40
0.187499999999997
40
0.187499999999997
40
0.218749999999996
40
0.218749999999996
40
0.249999999999996
40
0.249999999999996
40
0.281249999999995
40
0.281249999999995
40
0.312499999999994
40
0.312499999999994
40
0.343749999999994
40
0.343749999999994
40
0.374999999999993
40
0.374999999999993
40
0.406249999999992
40
0.406249999999992
40
0.437499999999991
40
0.437499999999991
40
0.46874999999999
40
0.46874999999999
40
0.49999999999999
40
0.49999999999999
40
0.531249999999989
40
0.531249999999989
40
0.562499999999988
40
0.562499999999988
40
0.570312499999988
40
0.570312499999988
40
0.578124999999988
40
0.593749999999988
40
0.593749999999988
40
0.624999999999989
40
0.624999999999989
40
0.65624999999999
40
0.65624999999999
40
0.68749999999999
40
0.68749999999999
40
0.718749999999991
40
0.718749999999991
40
0.749999999999992
40
0.749999999999992
40
0.781249999999993
40
0.781249999999993
40
0.812499999999994
40
0.812499999999994
40
0.843749999999995
40
0.843749999999995
40
0.874999999999996
40
0.874999999999996
40
0.906249999999997
40
0.906249999999997
40
0.937499999999998
40
0.937499999999998
40
0.968749999999999
40
0.968749999999999
40
1
40
1
40
1
40
1
41
1
10
86.4
20
-9.12801654741011
30
0
41
1
10
86.4622143659763
20
-9.29611015487822
30
0
41
1
10
86.5244287319525
20
-9.44221884932821
30
0
41
1
10
86.6488574639051
20
-9.6905162912492
30
0
41
1
10
86.7110718298814
20
-9.79271419349013
30
0
41
1
10
86.835500561834
20
-9.95491301131304
30
0
41
1
10
86.8977149278102
20
-10.0149261428039
30
0
41
1
10
87.0221436597628
20
-10.0958146293718
30
0
41
1
10
87.084358025739
20
-10.1167031940544
30
0
41
1
10
87.1621259832093
20
-10.1208566393299
30
0
41
1
10
87.1776795747034
20
-10.1206011786039
30
0
41
1
10
87.2087867576915
20
-10.117894354071
30
0
41
1
10
87.2554475321737
20
-10.1105225976063
30
0
41
1
10
87.302108306656
20
-10.0929152109288
30
0
41
1
10
87.3954298556204
20
-10.0433132830082
30
0
41
1
10
87.4576442215966
20
-9.99102784474255
30
0
41
1
10
87.5820729535492
20
-9.84477657449943
30
0
41
1
10
87.6442873195253
20
-9.75079818322206
30
0
41
1
10
87.768716051478
20
-9.51914995378451
30
0
41
1
10
87.8309304174542
20
-9.38147021495354
30
0
41
1
10
87.9553591494067
20
-9.06201403510269
30
0
41
1
10
88.017573515383
20
-8.88023238647972
30
0
41
1
10
88.1420022473357
20
-8.47400724118074
30
0
41
1
10
88.2042166133119
20
-8.24956474245968
30
0
41
1
10
88.3286453452644
20
-7.76136111813011
30
0
41
1
10
88.3908597112407
20
-7.49760769310265
30
0
41
1
10
88.5152884431932
20
-6.9359040812607
30
0
41
1
10
88.5775028091696
20
-6.63796751807109
30
0
41
1
10
88.701931541122
20
-6.0144739756133
30
0
41
1
10
88.7641459070983
20
-5.68893459474086
30
0
41
1
10
88.8885746390508
20
-5.01778936244875
30
0
41
1
10
88.9507890050272
20
-4.67220243403889
30
0
41
1
10
89.0752177369797
20
-3.96893513198486
30
0
41
1
10
89.1374321029559
20
-3.61127231358191
30
0
41
1
10
89.2618608349086
20
-2.89168794801586
30
0
41
1
10
89.3240752008847
20
-2.52978046544484
30
0
41
1
10
89.4485039328374
20
-1.80892136983951
30
0
41
1
10
89.5107182988135
20
-1.44997914473493
30
0
41
1
10
89.6351470307661
20
-0.741289586588238
30
0
41
1
10
89.6973613967424
20
-0.391546768422643
30
0
41
1
10
89.7751293542128
20
0.036725572875298
30
0
41
1
10
89.7906829457067
20
0.122249067174153
30
0
41
1
10
89.8217901286949
20
0.294625395484957
30
0
41
1
10
89.8684509031772
20
0.554449986805338
30
0
41
1
10
89.9151116776593
20
0.81772750814585
30
0
41
1
10
90.0084332266237
20
1.34790529998193
30
0
41
1
10
90.0706475926
20
1.7062220324691
30
0
41
1
10
90.1950763245525
20
2.42647023642599
30
0
41
1
10
90.2572906905288
20
2.78839279042018
30
0
41
1
10
90.3817194224814
20
3.50872741573383
30
0
41
1
10
90.4439337884576
20
3.86712583316529
30
0
41
1
10
90.5683625204102
20
4.57262478997362
30
0
41
1
10
90.6305768863865
20
4.91970802822516
30
0
41
1
10
90.7550056183391
20
5.59459664692034
30
0
41
1
10
90.8172199843153
20
5.92238312355312
30
0
41
1
10
90.9416487162678
20
6.55105753387591
30
0
41
1
10
91.003863082244
20
6.85192762285561
30
0
41
1
10
91.1282918141966
20
7.42006981796777
30
0
41
1
10
91.1905061801729
20
7.68732782219899
30
0
41
1
10
91.3149349121254
20
8.18295700100521
30
0
41
1
10
91.3771492781017
20
8.41131985646231
30
0
41
1
10
91.5015780100543
20
8.82562383953237
30
0
41
1
10
91.5637923760305
20
9.01156333269117
30
0
41
1
10
91.688221107983
20
9.33939123095564
30
0
41
1
10
91.7504354739593
20
9.48128430475992
30
0
41
1
10
91.874864205912
20
9.72124737241822
30
0
41
1
10
91.9370785718882
20
9.81932690332062
30
0
41
1
10
92.0615073038407
20
9.97352878854105
30
0
41
1
10
92.123721669817
20
10.0296635399352
30
0
41
1
10
92.2481504017694
20
10.1031425425984
30
0
41
1
10
92.3103647677459
20
10.1205
30
0
41
1
10
92.3725791337221
20
10.1205
30
0
0
SPLINE
5
F3
100
AcDbEntity
8
1
62
256
6
ByLayer
370
13
48
1
60
0
100
AcDbSpline
70
4
71
3
72
44
73
40
40
0
40
0
40
0
40
0
40
0.0624999999999982
40
0.0624999999999982
40
0.124999999999996
40
0.124999999999996
40
0.187499999999995
40
0.187499999999995
40
0.249999999999993
40
0.249999999999993
40
0.312499999999991
40
0.312499999999991
40
0.374999999999989
40
0.374999999999989
40
0.437499999999987
40
0.437499999999987
40
0.499999999999985
40
0.499999999999985
40
0.562499999999983
40
0.562499999999983
40
0.578124999999983
40
0.578124999999983
40
0.585937499999983
40
0.585937499999983
40
0.593749999999983
40
0.593749999999983
40
0.624999999999984
40
0.624999999999984
40
0.687499999999987
40
0.687499999999987
40
0.74999999999999
40
0.74999999999999
40
0.812499999999992
40
0.812499999999992
40
0.874999999999995
40
0.874999999999995
40
0.937499999999997
40
0.937499999999997
40
1
40
1
40
1
40
1
41
1
10
92.3251480291003
20
10.1205
30
0
41
1
10
92.4187165960797
20
10.1205
30
0
41
1
10
92.5122851630591
20
10.0811420386749
30
0
41
1
10
92.6994222970178
20
9.91062866296789
30
0
41
1
10
92.792990863997
20
9.77937380607912
30
0
41
1
10
92.9801279979558
20
9.41743306317088
30
0
41
1
10
93.0736965649352
20
9.18667497492501
30
0
41
1
10
93.2608336988939
20
8.62643980614931
30
0
41
1
10
93.3544022658731
20
8.29695113776694
30
0
41
1
10
93.5415393998318
20
7.54969002765296
30
0
41
1
10
93.6351079668112
20
7.13198195602993
30
0
41
1
10
93.8222451007699
20
6.2276809786928
30
0
41
1
10
93.9158136677491
20
5.74121278870476
30
0
41
1
10
94.1029508017079
20
4.72482638117674
30
0
41
1
10
94.1965193686872
20
4.19505231296918
30
0
41
1
10
94.383656502646
20
3.1193184852261
30
0
41
1
10
94.4772250696252
20
2.57347784014112
30
0
41
1
10
94.664362203584
20
1.49059256083461
30
0
41
1
10
94.7579307705633
20
0.953615306020623
30
0
41
1
10
94.8748914792875
20
0.300279485489995
30
0
41
1
10
94.8982836210323
20
0.17049190939801
30
0
41
1
10
94.9333718336496
20
-0.0226846473341595
30
0
41
1
10
94.945067904522
20
-0.0869662342513493
30
0
41
1
10
94.9684600462669
20
-0.216310105870775
30
0
41
1
10
94.9801561171393
20
-0.281224190976019
30
0
41
1
10
95.0386364715013
20
-0.606927836839247
30
0
41
1
10
95.085420754991
20
-0.87113235212621
30
0
41
1
10
95.22577360546
20
-1.6713236501277
30
0
41
1
10
95.3193421724394
20
-2.21504972177553
30
0
41
1
10
95.5064793063981
20
-3.30084457911647
30
0
41
1
10
95.6000478733774
20
-3.8428212373662
30
0
41
1
10
95.7871850073361
20
-4.898755097265
30
0
41
1
10
95.8807535743155
20
-5.41257730415543
30
0
41
1
10
96.0678907082741
20
-6.38522060992878
30
0
41
1
10
96.1614592752535
20
-6.84390035255214
30
0
41
1
10
96.3485964092122
20
-7.68296335764231
30
0
41
1
10
96.4421649761915
20
-8.06324488936789
30
0
41
1
10
96.6293021101501
20
-8.72972409312354
30
0
41
1
10
96.7228706771295
20
-9.01589129851959
30
0
41
1
10
96.8164392441089
20
-9.25191712322609
30
0
0
SPLINE
5
F4
100
AcDbEntity
8
1
62
256
6
ByLayer
370
13
48
1
60
0
100
AcDbSpline
70
4
71
3
72
78
73
74
40
0
40
0
40
0
40
0
40
0.0312500000000009
40
0.0312500000000009
40
0.0468750000000014
40
0.0468750000000014
40
0.0546875000000014
40
0.0546875000000014
40
0.0625000000000014
40
0.0625000000000014
40
0.0937500000000004
40
0.0937500000000004
40
0.124999999999999
40
0.124999999999999
40
0.156249999999998
40
0.156249999999998
40
0.187499999999997
40
0.187499999999997
40
0.218749999999996
40
0.218749999999996
40
0.249999999999995
40
0.249999999999995
40
0.281249999999994
40
0.281249999999994
40
0.312499999999993
40
0.312499999999993
40
0.343749999999992
40
0.343749999999992
40
0.374999999999991
40
0.374999999999991
40
0.40624999999999
40
0.40624999999999
40
0.437499999999989
40
0.437499999999989
40
0.468749999999988
40
0.468749999999988
40
0.499999999999987
40
0.499999999999987
40
0.515624999999986
40
0.515624999999986
40
0.523437499999986
40
0.523437499999986
40
0.531249999999986
40
0.531249999999986
40
0.562499999999987
40
0.562499999999987
40
0.593749999999988
40
0.593749999999988
40
0.624999999999989
40
0.624999999999989
40
0.65624999999999
40
0.65624999999999
40
0.687499999999991
40
0.687499999999991
40
0.718749999999992
40
0.718749999999992
40
0.749999999999992
40
0.749999999999992
40
0.781249999999993
40
0.781249999999993
40
0.812499999999994
40
0.812499999999994
40
0.843749999999995
40
0.843749999999995
40
0.874999999999996
40
0.874999999999996
40
0.906249999999997
40
0.906249999999997
40
0.937499999999998
40
0.937499999999998
40
0.968749999999999
40
0.968749999999999
40
1
40
1
40
1
40
1
41
1
10
86.4
20
-10.0049182848697
30
0
41
1
10
86.4570710087643
20
-10.0549156793389
30
0
41
1
10
86.5141420175285
20
-10.0879511881919
30
0
41
1
10
86.5997485306748
20
-10.1141774595395
30
0
41
1
10
86.6282840350569
20
-10.1190369137547
30
0
41
1
10
86.67108729163
20
-10.1208052898246
30
0
41
1
10
86.6853550438212
20
-10.1204826301303
30
0
41
1
10
86.7138905482033
20
-10.117986392985
30
0
41
1
10
86.7281583003943
20
-10.1158091083458
30
0
41
1
10
86.7994970613496
20
-10.1001498739209
30
0
41
1
10
86.8565680701138
20
-10.0723267931367
30
0
41
1
10
86.9707100876423
20
-9.98316849300087
30
0
41
1
10
87.0277810964066
20
-9.92182471502773
30
0
41
1
10
87.1419231139349
20
-9.7634142048899
30
0
41
1
10
87.1989941226992
20
-9.66633969925539
30
0
41
1
10
87.3131361402276
20
-9.43523265335944
30
0
41
1
10
87.3702071489918
20
-9.30119426854137
30
0
41
1
10
87.4843491665202
20
-8.99610890671599
30
0
41
1
10
87.5414201752844
20
-8.82505909288989
30
0
41
1
10
87.6555621928129
20
-8.44721908475896
30
0
41
1
10
87.7126332015772
20
-8.24042982600787
30
0
41
1
10
87.8267752191056
20
-7.79372898202482
30
0
41
1
10
87.8838462278699
20
-7.55382233517406
30
0
41
1
10
87.9979882453983
20
-7.0447667980699
30
0
41
1
10
88.0550592541624
20
-6.77562643293908
30
0
41
1
10
88.1692012716909
20
-6.21304135843786
30
0
41
1
10
88.2262722804551
20
-5.91960774519126
30
0
41
1
10
88.3404142979837
20
-5.31413310171345
30
0
41
1
10
88.3974853067479
20
-5.00210432659537
30
0
41
1
10
88.5116273242762
20
-4.36553928994465
30
0
41
1
10
88.5686983330406
20
-4.04101493342955
30
0
41
1
10
88.6828403505691
20
-3.3855934357656
30
0
41
1
10
88.7399113593332
20
-3.05470654471162
30
0
41
1
10
88.8540533768617
20
-2.39239234824794
30
0
41
1
10
88.9111243856258
20
-2.06097275429349
30
0
41
1
10
89.0252664031543
20
-1.40285077871877
30
0
41
1
10
89.0823374119185
20
-1.07615319322397
30
0
41
1
10
89.1679439250648
20
-0.593015429006726
30
0
41
1
10
89.196479429447
20
-0.433114549678095
30
0
41
1
10
89.2392826860201
20
-0.195341402200143
30
0
41
1
10
89.2535504382112
20
-0.116429621091527
30
0
41
1
10
89.2820859425933
20
0.0406471316364332
30
0
41
1
10
89.2963536947844
20
0.119139997249817
30
0
41
1
10
89.3676924557396
20
0.514300949457351
30
0
41
1
10
89.4247634645039
20
0.83614316684961
30
0
41
1
10
89.5389054820323
20
1.48726121007113
30
0
41
1
10
89.5959764907965
20
1.81653391635683
30
0
41
1
10
89.710118508325
20
2.47768698391548
30
0
41
1
10
89.7671895170892
20
2.80956131221615
30
0
41
1
10
89.8813315346176
20
3.47039646792459
30
0
41
1
10
89.9384025433819
20
3.79934844343367
30
0
41
1
10
90.0525445609104
20
4.44834663909128
30
0
41
1
10
90.1096155696746
20
4.76838177949855
30
0
41
1
10
90.223757587203
20
5.39338474559565
30
0
41
1
10
90.2808285959673
20
5.69834034254123
30
0
41
1
10
90.3949706134957
20
6.28720763119134
30
0
41
1
10
90.4520416222599
20
6.5711073685498
30
0
41
1
10
90.5661836397883
20
7.11243984502707
30
0
41
1
10
90.6232546485526
20
7.36986241137137
30
0
41
1
10
90.7373966660811
20
7.853708669806
30
0
41
1
10
90.7944676748452
20
8.08012524931419
30
0
41
1
10
90.9086096923736
20
8.49858277745597
30
0
41
1
10
90.9656807011379
20
8.69062045441629
30
0
41
1
10
91.0798227186664
20
9.03825677601225
30
0
41
1
10
91.1368937274307
20
9.19385613063821
30
0
41
1
10
91.251035744959
20
9.4679041068535
30
0
41
1
10
91.3081067537233
20
9.58635694401815
30
0
41
1
10
91.4222487712517
20
9.7866756174644
30
0
41
1
10
91.4793197800159
20
9.86854824813443
30
0
41
1
10
91.5934617975443
20
9.99737658999098
30
0
41
1
10
91.6505328063087
20
10.0443405390168
30
0
41
1
10
91.7646748238371
20
10.1058979558653
30
0
41
1
10
91.8217458326013
20
10.1205
30
0
41
1
10
91.8788168413655
20
10.1205
30
0
0
SPLINE
5
F5
100
AcDbEntity
8
1
62
256
6
ByLayer
370
13
48
1
60
0
100
AcDbSpline
70
4
71
3
72
66
73
62
40
0
40
0
40
0
40
0
40
0.0624999999999999
40
0.0624999999999999
40
0.0937499999999998
40
0.0937499999999998
40
0.125
40
0.125
40
0.15625
40
0.15625
40
0.1875
40
0.1875
40
0.21875
40
0.21875
40
0.25
40
0.25
40
0.28125
40
0.28125
40
0.3125
40
0.3125
40
0.34375
40
0.34375
40
0.375
40
0.375
40
0.40625
40
0.40625
40
0.4375
40
0.4375
40
0.499999999999999
40
0.499999999999999
40
0.515624999999999
40
0.515624999999999
40
0.523437499999999
40
0.523437499999999
40
0.531249999999999
40
0.531249999999999
40
0.562499999999999
40
0.562499999999999
40
0.624999999999999
40
0.624999999999999
40
0.656249999999999
40
0.656249999999999
40
0.687499999999999
40
0.687499999999999
40
0.718749999999999
40
0.718749999999999
40
0.749999999999999
40
0.749999999999999
40
0.781249999999999
40
0.781249999999999
40
0.812499999999999
40
0.812499999999999
40
0.843749999999999
40
0.843749999999999
40
0.874999999999999
40
0.874999999999999
40
0.90625
40
0.90625
40
0.9375
40
0.9375
40
1
40
1
40
1
40
1
41
1
10
91.8313857367438
20
10.1205
30
0
41
1
10
91.9352410181473
20
10.1205
30
0
41
1
10
92.0390962995507
20
10.0719583620151
30
0
41
1
10
92.1948792216559
20
9.91317388281902
30
0
41
1
10
92.2468068623576
20
9.8459642265141
30
0
41
1
10
92.350662143761
20
9.68156904076275
30
0
41
1
10
92.4025897844627
20
9.58437895337332
30
0
41
1
10
92.5064450658662
20
9.35931695858267
30
0
41
1
10
92.558372706568
20
9.23144176032335
30
0
41
1
10
92.6622279879714
20
8.94514104178543
30
0
41
1
10
92.7141556286731
20
8.78671403318387
30
0
41
1
10
92.8180109100765
20
8.44035230378631
30
0
41
1
10
92.8699385507783
20
8.25241826431528
30
0
41
1
10
92.9737938321817
20
7.84900951847317
30
0
41
1
10
93.0257214728834
20
7.63353777071737
30
0
41
1
10
93.1295767542869
20
7.17789062403273
30
0
41
1
10
93.1815043949886
20
6.93772026272512
30
0
41
1
10
93.285359676392
20
6.43626185538685
30
0
41
1
10
93.3372873170937
20
6.17498043817255
30
0
41
1
10
93.4411425984972
20
5.63545768212657
30
0
41
1
10
93.4930702391988
20
5.35722386544538
30
0
41
1
10
93.5969255206022
20
4.7883107313512
30
0
41
1
10
93.648853161304
20
4.4976390447325
30
0
41
1
10
93.7527084427074
20
3.90849087189955
30
0
41
1
10
93.8046360834092
20
3.61002138817764
30
0
41
1
10
93.9084913648124
20
3.00982232902669
30
0
41
1
10
93.9604190055143
20
2.70809855078562
30
0
41
1
10
94.1162019276195
20
1.80441906337308
30
0
41
1
10
94.220057209023
20
1.20424002417636
30
0
41
1
10
94.3498763107773
20
0.474547839141451
30
0
41
1
10
94.375840131128
20
0.32961443918856
30
0
41
1
10
94.4147858616544
20
0.113986343948909
30
0
41
1
10
94.4277677718298
20
0.0425398782064406
30
0
41
1
10
94.4537315921807
20
-0.100328810489913
30
0
41
1
10
94.4667135023561
20
-0.172073107856619
30
0
41
1
10
94.5316230532331
20
-0.532241440499575
30
0
41
1
10
94.583550693935
20
-0.825029312691498
30
0
41
1
10
94.7393336160401
20
-1.71283699468688
30
0
41
1
10
94.8431888974435
20
-2.31754141125637
30
0
41
1
10
94.9989718195486
20
-3.22086786810121
30
0
41
1
10
95.0508994602504
20
-3.52128959359877
30
0
41
1
10
95.1547547416539
20
-4.11633110899595
30
0
41
1
10
95.2066823823557
20
-4.41094435927317
30
0
41
1
10
95.3105376637591
20
-4.9897455200317
30
0
41
1
10
95.3624653044608
20
-5.27392598827919
30
0
41
1
10
95.4663205858642
20
-5.82726467429592
30
0
41
1
10
95.5182482265659
20
-6.09641522643005
30
0
41
1
10
95.6221035079694
20
-6.61535308854477
30
0
41
1
10
95.6740311486711
20
-6.86513328943994
30
0
41
1
10
95.7778864300745
20
-7.34147008398193
30
0
41
1
10
95.8298140707761
20
-7.56802087711972
30
0
41
1
10
95.9336693521796
20
-7.99471560586267
30
0
41
1
10
95.9855969928814
20
-8.19485564115763
30
0
41
1
10
96.0894522742848
20
-8.5663703302256
30
0
41
1
10
96.1413799149865
20
-8.73774331333971
30
0
41
1
10
96.2452351963901
20
-9.05027466733372
30
0
41
1
10
96.2971628370918
20
-9.19143361962878
30
0
41
1
10
96.4010181184951
20
-9.44301310640535
30
0
41
1
10
96.4529457591968
20
-9.55343621034757
30
0
41
1
10
96.608728681302
20
-9.83912751659616
30
0
41
1
10
96.7125839627055
20
-9.96851177167648
30
0
41
1
10
96.8164392441089
20
-10.0425985952361
30
0
0
SPLINE
5
F6
100
AcDbEntity
8
1
62
256
6
ByLayer
370
13
48
1
60
0
100
AcDbSpline
70
4
71
3
72
66
73
62
40
0
40
0
40
0
40
0
40
0.0625000000000001
40
0.0625000000000001
40
0.0937500000000001
40
0.0937500000000001
40
0.125
40
0.125
40
0.15625
40
0.15625
40
0.1875
40
0.1875
40
0.21875
40
0.21875
40
0.25
40
0.25
40
0.28125
40
0.28125
40
0.3125
40
0.3125
40
0.34375
40
0.34375
40
0.375
40
0.375
40
0.4375
40
0.4375
40
0.46875
40
0.46875
40
0.4765625
40
0.4765625
40
0.484375
40
0.484375
40
0.5
40
0.5
40
0.5625
40
0.5625
40
0.59375
40
0.59375
40
0.625
40
0.625
40
0.65625
40
0.65625
40
0.6875
40
0.6875
40
0.71875
40
0.71875
40
0.75
40
0.75
40
0.78125
40
0.78125
40
0.8125
40
0.8125
40
0.84375
40
0.84375
40
0.875
40
0.875
40
0.90625
40
0.90625
40
0.9375
40
0.9375
40
1
40
1
40
1
40
1
41
1
10
86.4
20
-10.0425993383076
30
0
41
1
10
86.5038553031044
20
-9.96851286632204
30
0
41
1
10
86.6077106062087
20
-9.8391289671863
30
0
41
1
10
86.7634935608653
20
-9.55343817137756
30
0
41
1
10
86.8154212124175
20
-9.44301523360429
30
0
41
1
10
86.9192765155218
20
-9.19143606587647
30
0
41
1
10
86.9712041670739
20
-9.05027726644786
30
0
41
1
10
87.0750594701783
20
-8.73774619979974
30
0
41
1
10
87.1269871217305
20
-8.56637335115187
30
0
41
1
10
87.2308424248349
20
-8.19485890819868
30
0
41
1
10
87.282770076387
20
-7.99471898454109
30
0
41
1
10
87.3866253794914
20
-7.5680244528657
30
0
41
1
10
87.4385530310435
20
-7.34147374515067
30
0
41
1
10
87.5424083341478
20
-6.86513709318399
30
0
41
1
10
87.5943359857001
20
-6.61535694943888
30
0
41
1
10
87.6981912888044
20
-6.09641917277054
30
0
41
1
10
87.7501189403565
20
-5.82726864893539
30
0
41
1
10
87.853974243461
20
-5.27392999155694
30
0
41
1
10
87.9059018950131
20
-4.98974952365603
30
0
41
1
10
88.0097571981175
20
-4.41094833785149
30
0
41
1
10
88.0616848496696
20
-4.11633506219215
30
0
41
1
10
88.165540152774
20
-3.5212934735672
30
0
41
1
10
88.2174678043262
20
-3.22087170023602
30
0
41
1
10
88.3732507589829
20
-2.31754507217514
30
0
41
1
10
88.4771060620871
20
-1.7128405045392
30
0
41
1
10
88.6328890167437
20
-0.825032566547407
30
0
41
1
10
88.6848166682958
20
-0.532244604130767
30
0
41
1
10
88.749726232736
20
-0.172076155127428
30
0
41
1
10
88.7627081456241
20
-0.100331834308776
30
0
41
1
10
88.7886719714001
20
0.0425369015921717
30
0
41
1
10
88.8016538842883
20
0.113983363354492
30
0
41
1
10
88.8405996229524
20
0.329611479245301
30
0
41
1
10
88.8665634487284
20
0.474544894610631
30
0
41
1
10
88.9963825776089
20
1.20423716502006
30
0
41
1
10
89.1002378807132
20
1.80441629954245
30
0
41
1
10
89.2560208353697
20
2.70809596733588
30
0
41
1
10
89.3079484869219
20
3.00981981184915
30
0
41
1
10
89.4118037900262
20
3.61001901422321
30
0
41
1
10
89.4637314415784
20
3.90848857489377
30
0
41
1
10
89.5675867446828
20
4.49763690997546
30
0
41
1
10
89.619514396235
20
4.78830868188928
30
0
41
1
10
89.7233696993393
20
5.35722199198796
30
0
41
1
10
89.7752973508915
20
5.63545589937124
30
0
41
1
10
89.8791526539959
20
6.17497883887415
30
0
41
1
10
89.931080305548
20
6.43626034883442
30
0
41
1
10
90.0349356086524
20
6.93771894017837
30
0
41
1
10
90.0868632602046
20
7.17788939273643
30
0
41
1
10
90.1907185633089
20
7.63353671699687
30
0
41
1
10
90.2426462148611
20
7.84900855106963
30
0
41
1
10
90.3465015179654
20
8.25241746155237
30
0
41
1
10
90.3984291695176
20
8.44035157934064
30
0
41
1
10
90.502284472622
20
8.78671345490704
30
0
41
1
10
90.5542121241741
20
8.9451405313566
30
0
41
1
10
90.6580674272785
20
9.23144137339941
30
0
41
1
10
90.7099950788307
20
9.35931662731508
30
0
41
1
10
90.813850381935
20
9.58437872031121
30
0
41
1
10
90.8657780334871
20
9.68156885025189
30
0
41
1
10
90.9696333365915
20
9.84596410786651
30
0
41
1
10
91.0215609881437
20
9.91317379348766
30
0
41
1
10
91.1773439428002
20
10.0719583416064
30
0
41
1
10
91.2811992459046
20
10.1205
30
0
41
1
10
91.385054549009
20
10.1205
30
0
0
SPLINE
5
F7
100
AcDbEntity
8
1
62
256
6
ByLayer
370
13
48
1
60
0
100
AcDbSpline
70
4
71
3
72
77
73
73
40
0
40
0
40
0
40
0
40
0.0312500000000004
40
0.0312500000000004
40
0.0625000000000008
40
0.0625000000000008
40
0.0937500000000013
40
0.0937500000000013
40
0.125000000000002
40
0.125000000000002
40
0.156250000000002
40
0.156250000000002
40
0.187500000000003
40
0.187500000000003
40
0.218750000000003
40
0.218750000000003
40
0.250000000000003
40
0.250000000000003
40
0.281250000000004
40
0.281250000000004
40
0.312500000000004
40
0.312500000000004
40
0.343750000000004
40
0.343750000000004
40
0.375000000000005
40
0.375000000000005
40
0.406250000000005
40
0.406250000000005
40
0.437500000000006
40
0.437500000000006
40
0.468750000000006
40
0.468750000000006
40
0.476562500000006
40
0.476562500000006
40
0.484375000000006
40
0.500000000000006
40
0.500000000000006
40
0.531250000000005
40
0.531250000000005
40
0.562500000000005
40
0.562500000000005
40
0.593750000000004
40
0.593750000000004
40
0.625000000000004
40
0.625000000000004
40
0.656250000000003
40
0.656250000000003
40
0.687500000000002
40
0.687500000000002
40
0.718750000000002
40
0.718750000000002
40
0.750000000000001
40
0.750000000000001
40
0.781250000000001
40
0.781250000000001
40
0.8125
40
0.8125
40
0.84375
40
0.84375
40
0.874999999999999
40
0.874999999999999
40
0.906249999999998
40
0.906249999999998
40
0.937499999999998
40
0.937499999999998
40
0.945312499999998
40
0.945312499999998
40
0.953124999999998
40
0.953124999999998
40
0.968749999999999
40
0.968749999999999
40
1
40
1
40
1
40
1
41
1
10
91.3376234443873
20
10.1205
30
0
41
1
10
91.3946944423011
20
10.1205
30
0
41
1
10
91.4517654402149
20
10.1058979614258
30
0
41
1
10
91.5659074360424
20
10.0443405685665
30
0
41
1
10
91.6229784339561
20
9.9973766379776
30
0
41
1
10
91.7371204297837
20
9.86854834710647
30
0
41
1
10
91.7941914276975
20
9.78667574899251
30
0
41
1
10
91.9083334235249
20
9.58635715525497
30
0
41
1
10
91.9654044214387
20
9.46790436524827
30
0
41
1
10
92.0795464172662
20
9.19385649747414
30
0
41
1
10
92.1366174151801
20
9.03825720413303
30
0
41
1
10
92.2507594110076
20
8.69062101769541
30
0
41
1
10
92.3078304089213
20
8.49858341460558
30
0
41
1
10
92.4219724047489
20
8.08012604420856
30
0
41
1
10
92.4790434026626
20
7.85370954856694
30
0
41
1
10
92.5931853984902
20
7.36986346439699
30
0
41
1
10
92.6502563964039
20
7.11244098843932
30
0
41
1
10
92.7643983922314
20
6.5711086951992
30
0
41
1
10
92.8214693901452
20
6.28720905067786
30
0
41
1
10
92.9356113859728
20
5.69834194588432
30
0
41
1
10
92.9926823838866
20
5.39338643994509
30
0
41
1
10
93.1068243797141
20
4.76838364995442
30
0
41
1
10
93.1638953776279
20
4.44834859463654
30
0
41
1
10
93.2780373734553
20
3.79935055972098
30
0
41
1
10
93.3351083713692
20
3.47039865985772
30
0
41
1
10
93.4492503671967
20
2.80956364329913
30
0
41
1
10
93.5063213651105
20
2.47768937850006
30
0
41
1
10
93.620463360938
20
1.81653642406371
30
0
41
1
10
93.6775343588517
20
1.48726376740026
30
0
41
1
10
93.7916763546792
20
0.836145808780429
30
0
41
1
10
93.8487473525931
20
0.51430362637214
30
0
41
1
10
93.9200860999852
20
0.119142708817833
30
0
41
1
10
93.9343538494636
20
0.0406498405802438
30
0
41
1
10
93.9628893484205
20
-0.116426864968503
30
0
41
1
10
94.0056925968559
20
-0.353161283621972
30
0
41
1
10
94.0484958452912
20
-0.593012534165581
30
0
41
1
10
94.134102342162
20
-1.07615016481276
30
0
41
1
10
94.1911733400756
20
-1.40284766568996
30
0
41
1
10
94.3053153359032
20
-2.06096948602382
30
0
41
1
10
94.3623863338169
20
-2.39238900936911
30
0
41
1
10
94.4765283296445
20
-3.05470308388149
30
0
41
1
10
94.5335993275583
20
-3.38558992361038
30
0
41
1
10
94.6477413233858
20
-4.04101134280987
30
0
41
1
10
94.7048123212995
20
-4.36553567220324
30
0
41
1
10
94.8189543171271
20
-5.00210068283309
30
0
41
1
10
94.8760253150409
20
-5.31412945906732
30
0
41
1
10
94.9901673108684
20
-5.91960413564928
30
0
41
1
10
95.0472383087821
20
-6.21303778089393
30
0
41
1
10
95.1613803046096
20
-6.77562295113296
30
0
41
1
10
95.2184513025234
20
-7.04476338000615
30
0
41
1
10
95.332593298351
20
-7.5538190752309
30
0
41
1
10
95.3896642962648
20
-7.79372581645416
30
0
41
1
10
95.5038062920922
20
-8.24042687678332
30
0
41
1
10
95.560877290006
20
-8.44721625749489
30
0
41
1
10
95.6750192858336
20
-8.82505653247264
30
0
41
1
10
95.7320902837473
20
-8.99610649116707
30
0
41
1
10
95.8462322795748
20
-9.30119215981804
30
0
41
1
10
95.9033032774886
20
-9.43523070657363
30
0
41
1
10
96.0174452733162
20
-9.66633808701602
30
0
41
1
10
96.0745162712299
20
-9.76341276524113
30
0
41
1
10
96.1886582670575
20
-9.92182362481762
30
0
41
1
10
96.2457292649712
20
-9.98316757962436
30
0
41
1
10
96.3598712607987
20
-10.0723262317767
30
0
41
1
10
96.4169422587125
20
-10.1001494877344
30
0
41
1
10
96.4882810061048
20
-10.1158089369456
30
0
41
1
10
96.5025487555832
20
-10.1179862643355
30
0
41
1
10
96.53108425454
20
-10.1204825865008
30
0
41
1
10
96.5453520040186
20
-10.1208052880567
30
0
41
1
10
96.5881552524538
20
-10.119037040338
30
0
41
1
10
96.6166907514107
20
-10.1141776755144
30
0
41
1
10
96.7022972482813
20
-10.087951683669
30
0
41
1
10
96.7593682461951
20
-10.0549163763183
30
0
41
1
10
96.8164392441089
20
-10.0049191974061
30
0
0
SPLINE
5
F8
100
AcDbEntity
8
1
62
256
6
ByLayer
370
13
48
1
60
0
100
AcDbSpline
70
4
71
3
72
44
73
40
40
0
40
0
40
0
40
0
40
0.0625000000000001
40
0.0625000000000001
40
0.125
40
0.125
40
0.1875
40
0.1875
40
0.25
40
0.25
40
0.3125
40
0.3125
40
0.375
40
0.375
40
0.40625
40
0.40625
40
0.4140625
40
0.4140625
40
0.421875
40
0.421875
40
0.4375
40
0.4375
40
0.5
40
0.5
40
0.5625
40
0.5625
40
0.625
40
0.625
40
0.6875
40
0.6875
40
0.75
40
0.75
40
0.8125
40
0.8125
40
0.875
40
0.875
40
0.9375
40
0.9375
40
1
40
1
40
1
40
1
41
1
10
86.4
20
-9.25191975076095
30
0
41
1
10
86.4935685886803
20
-9.01589424044889
30
0
41
1
10
86.5871371773605
20
-8.72972732361271
30
0
41
1
10
86.7742743547211
20
-8.06324861467687
30
0
41
1
10
86.8678429434012
20
-7.68296728897747
30
0
41
1
10
87.0549801207618
20
-6.84390459441082
30
0
41
1
10
87.148548709442
20
-6.38522495620805
30
0
41
1
10
87.3356858868025
20
-5.41258175551644
30
0
41
1
10
87.4292544754829
20
-4.89875954939876
30
0
41
1
10
87.6163916528433
20
-3.84282560155049
30
0
41
1
10
87.7099602415236
20
-3.3008488548119
30
0
41
1
10
87.8970974188841
20
-2.2150537562477
30
0
41
1
10
87.9906660075644
20
-1.67132753210868
30
0
41
1
10
88.1310188905848
20
-0.871135978673379
30
0
41
1
10
88.1778031849249
20
-0.606931373794708
30
0
41
1
10
88.2362835528501
20
-0.281227612455012
30
0
41
1
10
88.2479796264352
20
-0.216313504079437
30
0
41
1
10
88.2713717736052
20
-0.0869695856183057
30
0
41
1
10
88.2830678471902
20
-0.0226879690551129
30
0
41
1
10
88.3181560679454
20
0.170488606680152
30
0
41
1
10
88.3415482151154
20
0.300276196913927
30
0
41
1
10
88.4585089509658
20
0.953612095616734
30
0
41
1
10
88.552077539646
20
1.49058943715104
30
0
41
1
10
88.7392147170066
20
2.57347493626182
30
0
41
1
10
88.8327833056867
20
3.11931571445768
30
0
41
1
10
89.0199204830473
20
4.19504984445052
30
0
41
1
10
89.1134890717275
20
4.72482408172837
30
0
41
1
10
89.300626249088
20
5.74121084509048
30
0
41
1
10
89.3941948377682
20
6.22767922168214
30
0
41
1
10
89.5813320151287
20
7.13198056708666
30
0
41
1
10
89.6749006038091
20
7.54968881998036
30
0
41
1
10
89.8620377811696
20
8.29695026573452
30
0
41
1
10
89.9556063698498
20
8.62643908834391
30
0
41
1
10
90.1427435472103
20
9.18667452333602
30
0
41
1
10
90.2363121358906
20
9.41743272353372
30
0
41
1
10
90.4234493132511
20
9.77937364205698
30
0
41
1
10
90.5170179019314
20
9.91062856267089
30
0
41
1
10
90.7041550792919
20
10.0811420203328
30
0
41
1
10
90.7977236679722
20
10.1205
30
0
41
1
10
90.8912922566524
20
10.1205
30
0
0
SPLINE
5
F9
100
AcDbEntity
8
1
62
256
6
ByLayer
370
13
48
1
60
0
100
AcDbSpline
70
4
71
3
72
78
73
74
40
0
40
0
40
0
40
0
40
0.031250000000001
40
0.031250000000001
40
0.062500000000002
40
0.062500000000002
40
0.093750000000003
40
0.093750000000003
40
0.125000000000004
40
0.125000000000004
40
0.156250000000005
40
0.156250000000005
40
0.187500000000006
40
0.187500000000006
40
0.218750000000007
40
0.218750000000007
40
0.250000000000008
40
0.250000000000008
40
0.281250000000009
40
0.281250000000009
40
0.31250000000001
40
0.31250000000001
40
0.343750000000011
40
0.343750000000011
40
0.375000000000012
40
0.375000000000012
40
0.406250000000013
40
0.406250000000013
40
0.421875000000013
40
0.421875000000013
40
0.429687500000013
40
0.429687500000013
40
0.437500000000013
40
0.437500000000013
40
0.468750000000013
40
0.468750000000013
40
0.500000000000012
40
0.500000000000012
40
0.531250000000011
40
0.531250000000011
40
0.56250000000001
40
0.56250000000001
40
0.59375000000001
40
0.59375000000001
40
0.625000000000009
40
0.625000000000009
40
0.656250000000008
40
0.656250000000008
40
0.687500000000007
40
0.687500000000007
40
0.718750000000007
40
0.718750000000007
40
0.750000000000006
40
0.750000000000006
40
0.781250000000005
40
0.781250000000005
40
0.812500000000004
40
0.812500000000004
40
0.843750000000004
40
0.843750000000004
40
0.859375000000003
40
0.859375000000003
40
0.867187500000003
40
0.867187500000003
40
0.875000000000003
40
0.875000000000003
40
0.906250000000002
40
0.906250000000002
40
0.937500000000002
40
0.937500000000002
40
0.968750000000001
40
0.968750000000001
40
1
40
1
40
1
40
1
41
1
10
90.8438611520307
20
10.1205
30
0
41
1
10
90.9060755071566
20
10.1205
30
0
41
1
10
90.9682898622824
20
10.1031425486637
30
0
41
1
10
91.0927185725341
20
10.029663572315
30
0
41
1
10
91.1549329276598
20
9.97352884118163
30
0
41
1
10
91.2793616379114
20
9.8193270120409
30
0
41
1
10
91.3415759930372
20
9.72124751696765
30
0
41
1
10
91.4660047032889
20
9.48128453686593
30
0
41
1
10
91.5282190584147
20
9.33939151479535
30
0
41
1
10
91.6526477686663
20
9.01156373494678
30
0
41
1
10
91.7148621237922
20
8.82562430847022
30
0
41
1
10
91.8392908340438
20
8.41132047137077
30
0
41
1
10
91.9015051891696
20
8.18295769519474
30
0
41
1
10
92.0259338994212
20
7.68732868392746
30
0
41
1
10
92.088148254547
20
7.4200707679401
30
0
41
1
10
92.2125769647986
20
6.85192875369927
30
0
41
1
10
92.2747913199245
20
6.55105875732872
30
0
41
1
10
92.399220030176
20
5.9223845315457
30
0
41
1
10
92.4614343853019
20
5.59459814682461
30
0
41
1
10
92.5858630955536
20
4.91970970631596
30
0
41
1
10
92.6480774506794
20
4.57262655432334
30
0
41
1
10
92.772506160931
20
3.86712776007855
30
0
41
1
10
92.8347205160568
20
3.50872941894141
30
0
41
1
10
92.9591492263085
20
2.78839493298631
30
0
41
1
10
93.0213635814342
20
2.42647244205287
30
0
41
1
10
93.1457922916858
20
1.70622434896194
30
0
41
1
10
93.2080066468117
20
1.34790766428262
30
0
41
1
10
93.3013281795004
20
0.817729932143294
30
0
41
1
10
93.3324353570633
20
0.642211602488885
30
0
41
1
10
93.3790961234077
20
0.381236455216737
30
0
41
1
10
93.3946497121892
20
0.294627868728099
30
0
41
1
10
93.4257568897521
20
0.122251554356808
30
0
41
1
10
93.4413104785335
20
0.0367280589715619
30
0
41
1
10
93.5190784224408
20
-0.391544164456718
30
0
41
1
10
93.5812927775666
20
-0.741286891231368
30
0
41
1
10
93.7057214878182
20
-1.44997627815692
30
0
41
1
10
93.767935842944
20
-1.80891842344752
30
0
41
1
10
93.8923645531958
20
-2.52977737722998
30
0
41
1
10
93.9545789083215
20
-2.89168479781404
30
0
41
1
10
94.0790076185731
20
-3.61126906335201
30
0
41
1
10
94.1412219736989
20
-3.96893184373869
30
0
41
1
10
94.2656506839505
20
-4.67219909902852
30
0
41
1
10
94.3278650390763
20
-5.01778601871371
30
0
41
1
10
94.452293749328
20
-5.68893126658745
30
0
41
1
10
94.5145081044537
20
-6.0144706717829
30
0
41
1
10
94.6389368147054
20
-6.6379642975005
30
0
41
1
10
94.7011511698312
20
-6.93590091963282
30
0
41
1
10
94.8255798800828
20
-7.49760468302455
30
0
41
1
10
94.8877942352087
20
-7.76135820065218
30
0
41
1
10
95.0122229454603
20
-8.24956204037602
30
0
41
1
10
95.0744373005861
20
-8.47400466187281
30
0
41
1
10
95.1988660108377
20
-8.88023007731215
30
0
41
1
10
95.2610803659636
20
-9.06201187327395
30
0
41
1
10
95.3855090762153
20
-9.3814683653321
30
0
41
1
10
95.4477234313409
20
-9.51914826900364
30
0
41
1
10
95.5721521415927
20
-9.75079683796565
30
0
41
1
10
95.6343664967184
20
-9.84477540390208
30
0
41
1
10
95.75879520697
20
-9.9910270258022
30
0
41
1
10
95.8210095620958
20
-10.0433126410476
30
0
41
1
10
95.9143310947845
20
-10.0929148311929
30
0
41
1
10
95.9454382723474
20
-10.1046531758536
30
0
41
1
10
95.9920990386918
20
-10.1154366810886
30
0
41
1
10
96.0076526274734
20
-10.1178942329599
30
0
41
1
10
96.0387598050362
20
-10.1206011425092
30
0
41
1
10
96.0543133938176
20
-10.1208566450444
30
0
41
1
10
96.1320813377249
20
-10.1167034145817
30
0
41
1
10
96.1942956928508
20
-10.0958150385014
30
0
41
1
10
96.3187244031025
20
-10.0149269610069
30
0
41
1
10
96.3809387582282
20
-9.95491404999837
30
0
41
1
10
96.5053674684798
20
-9.79271570073783
30
0
41
1
10
96.5675818236056
20
-9.69051804657713
30
0
41
1
10
96.6920105338572
20
-9.4422211212833
30
0
41
1
10
96.7542248889831
20
-9.29611269536599
30
0
41
1
10
96.8164392441089
20
-9.12801936176902
30
0
0
SPLINE
5
FA
100
AcDbEntity
8
1
62
256
6
ByLayer
370
13
48
1
60
0
100
AcDbSpline
70
4
71
3
72
8
73
4
40
0
40
0
40
0
40
0
40
1
40
1
40
1
40
1
41
1
10
96.8164392441087
20
-2.14027694873013
30
0
41
1
10
98.0442928294059
20
-1.43899673470159
30
0
41
1
10
99.272146414703
20
-0.725566217563483
30
0
41
1
10
100.5
20
1.137E-13
30
0
0
SPLINE
5
FB
100
AcDbEntity
8
1
62
256
6
ByLayer
370
13
48
1
60
0
100
AcDbSpline
70
4
71
3
72
8
73
4
40
0
40
0
40
0
40
0
40
1
40
1
40
1
40
1
41
1
10
96.8164392441089
20
9.57995645750935
30
0
41
1
10
98.0442928294059
20
6.39064446051668
30
0
41
1
10
99.272146414703
20
3.19730396784567
30
0
41
1
10
100.5
20
0
30
0
0
SPLINE
5
FC
100
AcDbEntity
8
1
62
256
6
ByLayer
370
13
48
1
60
0
100
AcDbSpline
70
4
71
3
72
8
73
4
40
0
40
0
40
0
40
0
40
1
40
1
40
1
40
1
41
1
10
96.8164392441089
20
7.01468373272962
30
0
41
1
10
98.0442928294059
20
4.68541315741169
30
0
41
1
10
99.2721464147029
20
2.34716936300052
30
0
41
1
10
100.5
20
1.137E-13
30
0
0
SPLINE
5
FD
100
AcDbEntity
8
1
62
256
6
ByLayer
370
13
48
1
60
0
100
AcDbSpline
70
4
71
3
72
8
73
4
40
0
40
0
40
0
40
0
40
1
40
1
40
1
40
1
41
1
10
96.8164392441089
20
-9.30441250431903
30
0
41
1
10
98.0442928294059
20
-6.20783038184888
30
0
41
1
10
99.2721464147029
20
-3.10633849470483
30
0
41
1
10
100.5
20
-1.421E-13
30
0
0
SPLINE
5
FE
100
AcDbEntity
8
1
62
256
6
ByLayer
370
13
48
1
60
0
100
AcDbSpline
70
4
71
3
72
8
73
4
40
0
40
0
40
0
40
0
40
1
40
1
40
1
40
1
41
1
10
96.8164392441087
20
1.45658053424288
30
0
41
1
10
98.0442928294059
20
0.958756572264889
30
0
41
1
10
99.272146414703
20
0.473226461365499
30
0
41
1
10
100.5
20
-5.68E-14
30
0
0
SPLINE
5
FF
100
AcDbEntity
8
1
62
256
6
ByLayer
370
13
48
1
60
0
100
AcDbSpline
70
4
71
3
72
8
73
4
40
0
40
0
40
0
40
0
40
1
40
1
40
1
40
1
41
1
10
96.8164392441089
20
6.09762048949443
30
0
41
1
10
98.0442928294059
20
4.07499812656766
30
0
41
1
10
99.272146414703
20
2.04244415160756
30
0
41
1
10
100.5
20
-8.53E-14
30
0
0
SPLINE
5
100
100
AcDbEntity
8
1
62
256
6
ByLayer
370
13
48
1
60
0
100
AcDbSpline
70
4
71
3
72
8
73
4
40
0
40
0
40
0
40
0
40
1
40
1
40
1
40
1
41
1
10
96.8164392441089
20
-9.63596235110754
30
0
41
1
10
98.0442928294059
20
-6.4201759388464
30
0
41
1
10
99.2721464147028
20
-3.20816670597486
30
0
41
1
10
100.5
20
-7.39E-13
30
0
0
SPLINE
5
101
100
AcDbEntity
8
1
62
256
6
ByLayer
370
13
48
1
60
0
100
AcDbSpline
70
4
71
3
72
8
73
4
40
0
40
0
40
0
40
0
40
1
40
1
40
1
40
1
41
1
10
96.8164392441087
20
8.39728286619058
30
0
41
1
10
98.044292829406
20
5.59125254561442
30
0
41
1
10
99.2721464147033
20
2.79213928266748
30
0
41
1
10
100.500000000001
20
-1.4211E-12
30
0
0
SPLINE
5
102
100
AcDbEntity
8
1
62
256
6
ByLayer
370
13
48
1
60
0
100
AcDbSpline
70
4
71
3
72
8
73
4
40
0
40
0
40
0
40
0
40
1
40
1
40
1
40
1
41
1
10
96.8164392441089
20
-9.98138660927825
30
0
41
1
10
98.044292829406
20
-6.65631102558589
30
0
41
1
10
99.2721464147031
20
-3.32915957893508
30
0
41
1
10
100.5
20
4.832E-13
30
0
0
SPLINE
5
103
100
AcDbEntity
8
1
62
256
6
ByLayer
370
13
48
1
60
0
100
AcDbSpline
70
4
71
3
72
8
73
4
40
0
40
0
40
0
40
0
40
1
40
1
40
1
40
1
41
1
10
96.8164392441087
20
9.84313479811536
30
0
41
1
10
98.044292829406
20
6.55920056713757
30
0
41
1
10
99.2721464147033
20
3.27813338136534
30
0
41
1
10
100.500000000001
20
-1.6769E-12
30
0
0
SPLINE
5
104
100
AcDbEntity
8
1
62
256
6
ByLayer
370
13
48
1
60
0
100
AcDbSpline
70
4
71
3
72
8
73
4
40
0
40
0
40
0
40
0
40
1
40
1
40
1
40
1
41
1
10
96.8164392441087
20
-0.949091324026739
30
0
41
1
10
98.0442928294059
20
-0.645099278383299
30
0
41
1
10
99.272146414703
20
-0.328733329422363
30
0
41
1
10
100.5
20
5.68E-14
30
0
0
SPLINE
5
105
100
AcDbEntity
8
1
62
256
6
ByLayer
370
13
48
1
60
0
100
AcDbSpline
70
4
71
3
72
8
73
4
40
0
40
0
40
0
40
0
40
1
40
1
40
1
40
1
41
1
10
96.8164392441087
20
-4.41510255472537
30
0
41
1
10
98.0442928294059
20
-2.95458335726943
30
0
41
1
10
99.272146414703
20
-1.48287249594423
30
0
41
1
10
100.5
20
1.99E-13
30
0
0
SPLINE
5
106
100
AcDbEntity
8
1
62
256
6
ByLayer
370
13
48
1
60
0
100
AcDbSpline
70
4
71
3
72
8
73
4
40
0
40
0
40
0
40
0
40
1
40
1
40
1
40
1
41
1
10
96.8164392441089
20
-0.691653417252866
30
0
41
1
10
98.0442928294059
20
-0.448704839539431
30
0
41
1
10
99.2721464147029
20
-0.21815216436255
30
0
41
1
10
100.5
20
-2.84E-14
30
0
0
SPLINE
5
107
100
AcDbEntity
8
1
62
256
6
ByLayer
370
13
48
1
60
0
100
AcDbSpline
70
4
71
3
72
8
73
4
40
0
40
0
40
0
40
0
40
1
40
1
40
1
40
1
41
1
10
96.8164392441089
20
-7.14212137051715
30
0
41
1
10
98.0442928294059
20
-4.75261004682628
30
0
41
1
10
99.2721464147029
20
-2.37188679179403
30
0
41
1
10
100.5
20
-1.137E-13
30
0
0
SPLINE
5
108
100
AcDbEntity
8
1
62
256
6
ByLayer
370
13
48
1
60
0
100
AcDbSpline
70
4
71
3
72
8
73
4
40
0
40
0
40
0
40
0
40
1
40
1
40
1
40
1
41
1
10
96.8164392441089
20
-8.76506185163342
30
0
41
1
10
98.0442928294059
20
-5.84958685301729
30
0
41
1
10
99.2721464147028
20
-2.9278797334814
30
0
41
1
10
100.5
20
-6.821E-13
30
0
0
SPLINE
5
109
100
AcDbEntity
8
1
62
256
6
ByLayer
370
13
48
1
60
0
100
AcDbSpline
70
4
71
3
72
8
73
4
40
0
40
0
40
0
40
0
40
1
40
1
40
1
40
1
41
1
10
96.8164392441089
20
-6.44030398559815
30
0
41
1
10
98.0442928294059
20
-4.30312166686002
30
0
41
1
10
99.2721464147029
20
-2.15633908566033
30
0
41
1
10
100.5
20
-8.53E-14
30
0
0
SPLINE
5
10A
100
AcDbEntity
8
1
62
256
6
ByLayer
370
13
48
1
60
0
100
AcDbSpline
70
4
71
3
72
8
73
4
40
0
40
0
40
0
40
0
40
1
40
1
40
1
40
1
41
1
10
96.8164392441089
20
-9.71178025792258
30
0
41
1
10
98.0442928294059
20
-6.47801596500983
30
0
41
1
10
99.2721464147028
20
-3.24073390857947
30
0
41
1
10
100.5
20
-7.39E-13
30
0
0
SPLINE
5
10B
100
AcDbEntity
8
1
62
256
6
ByLayer
370
13
48
1
60
0
100
AcDbSpline
70
4
71
3
72
8
73
4
40
0
40
0
40
0
40
0
40
1
40
1
40
1
40
1
41
1
10
96.8164392441089
20
9.12404226158839
30
0
41
1
10
98.0442928294059
20
6.08807171454106
30
0
41
1
10
99.272146414703
20
3.04670364843199
30
0
41
1
10
100.5
20
-8.53E-14
30
0
0
SPLINE
5
10C
100
AcDbEntity
8
1
62
256
6
ByLayer
370
13
48
1
60
0
100
AcDbSpline
70
4
71
3
72
8
73
4
40
0
40
0
40
0
40
0
40
1
40
1
40
1
40
1
41
1
10
96.8164392441087
20
5.88950729847639
30
0
41
1
10
98.0442928294059
20
3.91623256683243
30
0
41
1
10
99.272146414703
20
1.95305017146092
30
0
41
1
10
100.5
20
-2.842E-13
30
0
0
SPLINE
5
10D
100
AcDbEntity
8
1
62
256
6
ByLayer
370
13
48
1
60
0
100
AcDbSpline
70
4
71
3
72
8
73
4
40
0
40
0
40
0
40
0
40
1
40
1
40
1
40
1
41
1
10
96.8164392441089
20
-10.0940260542761
30
0
41
1
10
98.0442928294059
20
-6.72845247254986
30
0
41
1
10
99.2721464147029
20
-3.36375429618127
30
0
41
1
10
100.5
20
-1.421E-13
30
0
0
SPLINE
5
10E
100
AcDbEntity
8
1
62
256
6
ByLayer
370
13
48
1
60
0
100
AcDbSpline
70
4
71
3
72
8
73
4
40
0
40
0
40
0
40
0
40
1
40
1
40
1
40
1
41
1
10
96.8164392441087
20
9.00932017685031
30
0
41
1
10
98.0442928294058
20
6.00055243761162
30
0
41
1
10
99.2721464147027
20
2.99742535081339
30
0
41
1
10
100.5
20
6.821E-13
30
0
0
SPLINE
5
10F
100
AcDbEntity
8
1
62
256
6
ByLayer
370
13
48
1
60
0
100
AcDbSpline
70
4
71
3
72
8
73
4
40
0
40
0
40
0
40
0
40
1
40
1
40
1
40
1
41
1
10
96.8164392441089
20
9.89997916906691
30
0
41
1
10
98.0442928294059
20
6.60256604689354
30
0
41
1
10
99.272146414703
20
3.30255059655323
30
0
41
1
10
100.5
20
0
30
0
0
SPLINE
5
110
100
AcDbEntity
8
1
62
256
6
ByLayer
370
13
48
1
60
0
100
AcDbSpline
70
4
71
3
72
8
73
4
40
0
40
0
40
0
40
0
40
1
40
1
40
1
40
1
41
1
10
96.8164392441089
20
-10.1094071978639
30
0
41
1
10
98.044292829406
20
-6.74018645182858
30
0
41
1
10
99.2721464147031
20
-3.3703611894671
30
0
41
1
10
100.5
20
4.832E-13
30
0
0
SPLINE
5
111
100
AcDbEntity
8
1
62
256
6
ByLayer
370
13
48
1
60
0
100
AcDbSpline
70
4
71
3
72
8
73
4
40
0
40
0
40
0
40
0
40
1
40
1
40
1
40
1
41
1
10
96.8164392441089
20
4.0182455887057
30
0
41
1
10
98.0442928294059
20
2.69023544205223
30
0
41
1
10
99.2721464147029
20
1.35081113302772
30
0
41
1
10
100.5
20
5.68E-14
30
0
0
SPLINE
5
112
100
AcDbEntity
8
1
62
256
6
ByLayer
370
13
48
1
60
0
100
AcDbSpline
70
4
71
3
72
8
73
4
40
0
40
0
40
0
40
0
40
1
40
1
40
1
40
1
41
1
10
96.8164392441087
20
2.63694236221693
30
0
41
1
10
98.0442928294059
20
1.74596430449978
30
0
41
1
10
99.272146414703
20
0.866977580953801
30
0
41
1
10
100.5
20
-1.137E-13
30
0
0
SPLINE
5
113
100
AcDbEntity
8
1
62
256
6
ByLayer
370
13
48
1
60
0
100
AcDbSpline
70
4
71
3
72
8
73
4
40
0
40
0
40
0
40
0
40
1
40
1
40
1
40
1
41
1
10
96.8164392441087
20
3.77989921727991
30
0
41
1
10
98.0442928294059
20
2.5084055691587
30
0
41
1
10
99.272146414703
20
1.24843064147385
30
0
41
1
10
100.5
20
-1.705E-13
30
0
0
SPLINE
5
114
100
AcDbEntity
8
1
62
256
6
ByLayer
370
13
48
1
60
0
100
AcDbSpline
70
4
71
3
72
8
73
4
40
0
40
0
40
0
40
0
40
1
40
1
40
1
40
1
41
1
10
96.8164392441089
20
-8.63309382775924
30
0
41
1
10
98.0442928294059
20
-5.74891098007009
30
0
41
1
10
99.2721464147029
20
-2.87119352897631
30
0
41
1
10
100.5
20
-1.137E-13
30
0
0
SPLINE
5
115
100
AcDbEntity
8
1
62
256
6
ByLayer
370
13
48
1
60
0
100
AcDbSpline
70
4
71
3
72
8
73
4
40
0
40
0
40
0
40
0
40
1
40
1
40
1
40
1
41
1
10
96.8164392441089
20
-7.32277821045153
30
0
41
1
10
98.0442928294059
20
-4.89042968320729
30
0
41
1
10
99.2721464147028
20
-2.44948703367916
30
0
41
1
10
100.5
20
-5.684E-13
30
0
0
SPLINE
5
116
100
AcDbEntity
8
1
62
256
6
ByLayer
370
13
48
1
60
0
100
AcDbSpline
70
4
71
3
72
8
73
4
40
0
40
0
40
0
40
0
40
1
40
1
40
1
40
1
41
1
10
96.8164392441089
20
-5.24734262935789
30
0
41
1
10
98.0442928294059
20
-3.48760270236986
30
0
41
1
10
99.2721464147029
20
-1.73847665009382
30
0
41
1
10
100.5
20
-8.53E-14
30
0
0
SPLINE
5
117
100
AcDbEntity
8
1
62
256
6
ByLayer
370
13
48
1
60
0
100
AcDbSpline
70
4
71
3
72
8
73
4
40
0
40
0
40
0
40
0
40
1
40
1
40
1
40
1
41
1
10
96.8164392441089
20
-3.05588593809429
30
0
41
1
10
98.0442928294059
20
-2.02541082212031
30
0
41
1
10
99.2721464147029
20
-1.00677529219428
30
0
41
1
10
100.5
20
-5.68E-14
30
0
0
SPLINE
5
118
100
AcDbEntity
8
1
62
256
6
ByLayer
370
13
48
1
60
0
100
AcDbSpline
70
4
71
3
72
8
73
4
40
0
40
0
40
0
40
0
40
1
40
1
40
1
40
1
41
1
10
96.8164392441087
20
-5.46647418180939
30
0
41
1
10
98.0442928294059
20
-3.65477395860006
30
0
41
1
10
99.272146414703
20
-1.83260351227608
30
0
41
1
10
100.5
20
2.558E-13
30
0
0
SPLINE
5
119
100
AcDbEntity
8
1
62
256
6
ByLayer
370
13
48
1
60
0
100
AcDbSpline
70
4
71
3
72
8
73
4
40
0
40
0
40
0
40
0
40
1
40
1
40
1
40
1
41
1
10
96.8164392441089
20
-7.94394998229993
30
0
41
1
10
98.0442928294059
20
-5.28826749601811
30
0
41
1
10
99.2721464147029
20
-2.64026622127673
30
0
41
1
10
100.5
20
-1.137E-13
30
0
0
SPLINE
5
11A
100
AcDbEntity
8
1
62
256
6
ByLayer
370
13
48
1
60
0
100
AcDbSpline
70
4
71
3
72
8
73
4
40
0
40
0
40
0
40
0
40
1
40
1
40
1
40
1
41
1
10
96.8164392441087
20
7.66613027161824
30
0
41
1
10
98.0442928294059
20
5.10264085181163
30
0
41
1
10
99.272146414703
20
2.54724677650341
30
0
41
1
10
100.5
20
-3.695E-13
30
0
0
SPLINE
5
11B
100
AcDbEntity
8
1
62
256
6
ByLayer
370
13
48
1
60
0
100
AcDbSpline
70
4
71
3
72
8
73
4
40
0
40
0
40
0
40
0
40
1
40
1
40
1
40
1
41
1
10
96.8164392441087
20
0.255557141493341
30
0
41
1
10
98.0442928294059
20
0.15794889786676
30
0
41
1
10
99.272146414703
20
0.0727626342027463
30
0
41
1
10
100.5
20
0
30
0
0
SPLINE
5
11C
100
AcDbEntity
8
1
62
256
6
ByLayer
370
13
48
1
60
0
100
AcDbSpline
70
4
71
3
72
8
73
4
40
0
40
0
40
0
40
0
40
1
40
1
40
1
40
1
41
1
10
96.8164392441089
20
8.53870371475082
30
0
41
1
10
98.0442928294059
20
5.69913979711524
30
0
41
1
10
99.272146414703
20
2.85288590073074
30
0
41
1
10
100.5
20
0
30
0
0
SPLINE
5
11D
100
AcDbEntity
8
1
62
256
6
ByLayer
370
13
48
1
60
0
100
AcDbSpline
70
4
71
3
72
8
73
4
40
0
40
0
40
0
40
0
40
1
40
1
40
1
40
1
41
1
10
96.8164392441089
20
5.09406262563354
30
0
41
1
10
98.0442928294059
20
3.40677933151522
30
0
41
1
10
99.2721464147029
20
1.7087469121349
30
0
41
1
10
100.5
20
8.53E-14
30
0
0
SPLINE
5
11E
100
AcDbEntity
8
1
62
256
6
ByLayer
370
13
48
1
60
0
100
AcDbSpline
70
4
71
3
72
8
73
4
40
0
40
0
40
0
40
0
40
1
40
1
40
1
40
1
41
1
10
96.8164392441087
20
9.49356046699458
30
0
41
1
10
98.0442928294058
20
6.32473461729236
30
0
41
1
10
99.2721464147027
20
3.1601930023036
30
0
41
1
10
100.5
20
7.105E-13
30
0
0
SPLINE
5
11F
100
AcDbEntity
8
1
62
256
6
ByLayer
370
13
48
1
60
0
100
AcDbSpline
70
4
71
3
72
8
73
4
40
0
40
0
40
0
40
0
40
1
40
1
40
1
40
1
41
1
10
96.8164392441089
20
-8.10137897772753
30
0
41
1
10
98.0442928294059
20
-5.40836705556711
30
0
41
1
10
99.2721464147029
20
-2.70788905874753
30
0
41
1
10
100.5
20
-1.137E-13
30
0
0
SPLINE
5
120
100
AcDbEntity
8
1
62
256
6
ByLayer
370
13
48
1
60
0
100
AcDbSpline
70
4
71
3
72
8
73
4
40
0
40
0
40
0
40
0
40
1
40
1
40
1
40
1
41
1
10
96.8164392441089
20
-9.93546135971891
30
0
41
1
10
98.0442928294059
20
-6.6212755340029
30
0
41
1
10
99.2721464147029
20
-3.30943261772151
30
0
41
1
10
100.5
20
-1.421E-13
30
0
0
SPLINE
5
121
100
AcDbEntity
8
1
62
256
6
ByLayer
370
13
48
1
60
0
100
AcDbSpline
70
4
71
3
72
8
73
4
40
0
40
0
40
0
40
0
40
1
40
1
40
1
40
1
41
1
10
96.8164392441089
20
10.0795708807114
30
0
41
1
10
98.0442928294059
20
6.72083037034864
30
0
41
1
10
99.272146414703
20
3.36095061330158
30
0
41
1
10
100.5
20
0
30
0
0
SPLINE
5
122
100
AcDbEntity
8
1
62
256
6
ByLayer
370
13
48
1
60
0
100
AcDbSpline
70
4
71
3
72
8
73
4
40
0
40
0
40
0
40
0
40
1
40
1
40
1
40
1
41
1
10
96.8164392441089
20
-9.19977741568954
30
0
41
1
10
98.0442928294059
20
-6.12800628068098
30
0
41
1
10
99.2721464147029
20
-3.06139301580552
30
0
41
1
10
100.5
20
-1.421E-13
30
0
0
SPLINE
5
123
100
AcDbEntity
8
1
62
256
6
ByLayer
370
13
48
1
60
0
100
AcDbSpline
70
4
71
3
72
8
73
4
40
0
40
0
40
0
40
0
40
1
40
1
40
1
40
1
41
1
10
96.8164392441089
20
1.71168429120584
30
0
41
1
10
98.0442928294059
20
1.15337033301043
30
0
41
1
10
99.2721464147029
20
0.582805004050442
30
0
41
1
10
100.5
20
8.53E-14
30
0
0
SPLINE
5
124
100
AcDbEntity
8
1
62
256
6
ByLayer
370
13
48
1
60
0
100
AcDbSpline
70
4
71
3
72
8
73
4
40
0
40
0
40
0
40
0
40
1
40
1
40
1
40
1
41
1
10
96.8164392441087
20
-3.30110278914827
30
0
41
1
10
98.0442928294059
20
-2.21248205207749
30
0
41
1
10
99.272146414703
20
-1.11210696390356
30
0
41
1
10
100.5
20
1.705E-13
30
0
0
SPLINE
5
125
100
AcDbEntity
8
1
62
256
6
ByLayer
370
13
48
1
60
0
100
AcDbSpline
70
4
71
3
72
8
73
4
40
0
40
0
40
0
40
0
40
1
40
1
40
1
40
1
41
1
10
96.8164392441089
20
-6.23898191469786
30
0
41
1
10
98.0442928294059
20
-4.1495369223411
30
0
41
1
10
99.2721464147029
20
-2.06986219718885
30
0
41
1
10
100.5
20
-8.53E-14
30
0
0
SPLINE
5
126
100
AcDbEntity
8
1
62
256
6
ByLayer
370
13
48
1
60
0
100
AcDbSpline
70
4
71
3
72
8
73
4
40
0
40
0
40
0
40
0
40
1
40
1
40
1
40
1
41
1
10
96.8164392441087
20
4.86923828006391
30
0
41
1
10
98.0442928294059
20
3.23526515265965
30
0
41
1
10
99.272146414703
20
1.61217473914559
30
0
41
1
10
100.5
20
-2.274E-13
30
0
0
SPLINE
5
127
100
AcDbEntity
8
1
62
256
6
ByLayer
370
13
48
1
60
0
100
AcDbSpline
70
4
71
3
72
8
73
4
40
0
40
0
40
0
40
0
40
1
40
1
40
1
40
1
41
1
10
96.8164392441087
20
10.0530844655502
30
0
41
1
10
98.0442928294059
20
6.70062439249631
30
0
41
1
10
99.272146414703
20
3.3495735061631
30
0
41
1
10
100.5
20
-4.832E-13
30
0
0
SPLINE
5
128
100
AcDbEntity
8
1
62
256
6
ByLayer
370
13
48
1
60
0
100
AcDbSpline
70
4
71
3
72
8
73
4
40
0
40
0
40
0
40
0
40
1
40
1
40
1
40
1
41
1
10
96.8164392441089
20
-4.18126989726588
30
0
41
1
10
98.044292829406
20
-2.77619691014277
30
0
41
1
10
99.272146414703
20
-1.38243084764574
30
0
41
1
10
100.5
20
5.68E-14
30
0
0
SPLINE
5
129
100
AcDbEntity
8
1
62
256
6
ByLayer
370
13
48
1
60
0
100
AcDbSpline
70
4
71
3
72
8
73
4
40
0
40
0
40
0
40
0
40
1
40
1
40
1
40
1
41
1
10
96.8164392441089
20
0.513658554969794
30
0
41
1
10
98.0442928294059
20
0.354849513241362
30
0
41
1
10
99.2721464147029
20
0.18362880524765
30
0
41
1
10
100.5
20
2.84E-14
30
0
0
SPLINE
5
12A
100
AcDbEntity
8
1
62
256
6
ByLayer
370
13
48
1
60
0
100
AcDbSpline
70
4
71
3
72
8
73
4
40
0
40
0
40
0
40
0
40
1
40
1
40
1
40
1
41
1
10
96.8164392441089
20
-1.88715430004601
30
0
41
1
10
98.044292829406
20
-1.24589432344459
30
0
41
1
10
99.272146414703
20
-0.616838650029706
30
0
41
1
10
100.5
20
2.84E-14
30
0
0
SPLINE
5
12B
100
AcDbEntity
8
1
62
256
6
ByLayer
370
13
48
1
60
0
100
AcDbSpline
70
4
71
3
72
8
73
4
40
0
40
0
40
0
40
0
40
1
40
1
40
1
40
1
41
1
10
96.8164392441089
20
7.83224383218661
30
0
41
1
10
98.0442928294059
20
5.22936569944986
30
0
41
1
10
99.272146414703
20
2.61860002548744
30
0
41
1
10
100.5
20
0
30
0
0
SPLINE
5
12C
100
AcDbEntity
8
1
62
256
6
ByLayer
370
13
48
1
60
0
100
AcDbSpline
70
4
71
3
72
8
73
4
40
0
40
0
40
0
40
0
40
1
40
1
40
1
40
1
41
1
10
96.8164392441087
20
6.82623377757685
30
0
41
1
10
98.0442928294059
20
4.54164830298043
30
0
41
1
10
99.272146414703
20
2.26622162745721
30
0
41
1
10
100.5
20
-3.126E-13
30
0
0
SPLINE
5
12D
100
AcDbEntity
8
1
62
256
6
ByLayer
370
13
48
1
60
0
100
AcDbSpline
70
4
71
3
72
8
73
4
40
0
40
0
40
0
40
0
40
1
40
1
40
1
40
1
41
1
10
96.8164392441089
20
2.88542982114606
30
0
41
1
10
98.0442928294059
20
1.93553061844207
30
0
41
1
10
99.2721464147029
20
0.973714125915365
30
0
41
1
10
100.5
20
5.68E-14
30
0
0
LINE
5
7D
100
AcDbEntity
8
80
62
256
6
ByLayer
370
18
48
1
60
0
100
AcDbLine
10
0
20
0
30
0
11
-5
21
0
31
0
39
0
210
0
220
0
230
1
0
LINE
5
7E
100
AcDbEntity
8
4
62
256
6
ByLayer
370
18
48
0.05
60
0
100
AcDbLine
10
-5
20
0
30
0
11
105.5
21
0
31
0
39
0
210
0
220
0
230
1
0
LINE
5
80
100
AcDbEntity
8
81
62
256
6
ByLayer
370
18
48
1
60
0
100
AcDbLine
10
100.5
20
0
30
0
11
105.5
21
0
31
0
39
0
210
0
220
0
230
1
0
LINE
5
81
100
AcDbEntity
8
SK4
62
256
6
ByLayer
370
18
48
0.05
60
0
100
AcDbLine
10
-61
20
0
30
0
11
105.5
21
0
31
0
39
0
210
0
220
0
230
1
0
LINE
5
83
100
AcDbEntity
8
1
62
256
6
ByLayer
370
18
48
1
60
0
100
AcDbLine
10
10
20
-9.7
30
0
11
48.730203
21
-9.7
31
0
39
0
210
0
220
0
230
1
0
LINE
5
84
100
AcDbEntity
8
1
62
256
6
ByLayer
370
18
48
1
60
0
100
AcDbLine
10
48.730203
20
9.7
30
0
11
10
21
9.7
31
0
39
0
210
0
220
0
230
1
0
LINE
5
85
100
AcDbEntity
8
1
62
256
6
ByLayer
370
18
48
1
60
0
100
AcDbLine
10
100.5
20
0
30
0
11
96.816439
21
10.1205
31
0
39
0
210
0
220
0
230
1
0
LINE
5
86
100
AcDbEntity
8
1
62
256
6
ByLayer
370
18
48
1
60
0
100
AcDbLine
10
96.816439
20
-10.1205
30
0
11
100.5
21
0
31
0
39
0
210
0
220
0
230
1
0
LINE
5
87
100
AcDbEntity
8
1
62
256
6
ByLayer
370
18
48
1
60
0
100
AcDbLine
10
10
20
9.7
30
0
11
0
21
12.7
31
0
39
0
210
0
220
0
230
1
0
LINE
5
88
100
AcDbEntity
8
1
62
256
6
ByLayer
370
18
48
1
60
0
100
AcDbLine
10
0
20
-12.7
30
0
11
10
21
-9.7
31
0
39
0
210
0
220
0
230
1
0
LINE
5
89
100
AcDbEntity
8
1
62
256
6
ByLayer
370
18
48
1
60
0
100
AcDbLine
10
86.4
20
-10.1205
30
0
11
96.816439
21
-10.1205
31
0
39
0
210
0
220
0
230
1
0
LINE
5
8A
100
AcDbEntity
8
1
62
256
6
ByLayer
370
18
48
1
60
0
100
AcDbLine
10
100.5
20
0
30
0
11
96.816439
21
10.1205
31
0
39
0
210
0
220
0
230
1
0
LINE
5
8B
100
AcDbEntity
8
1
62
256
6
ByLayer
370
18
48
1
60
0
100
AcDbLine
10
96.816439
20
-10.1205
30
0
11
100.5
21
0
31
0
39
0
210
0
220
0
230
1
0
LINE
5
8C
100
AcDbEntity
8
SK1
62
256
6
ByLayer
370
18
48
1
60
0
100
AcDbLine
10
-55
20
-12.7
30
0
11
0
21
-12.7
31
0
39
0
210
0
220
0
230
1
0
LINE
5
8E
100
AcDbEntity
8
SK1
62
256
6
ByLayer
370
18
48
1
60
0
100
AcDbLine
10
0
20
12.7
30
0
11
-55
21
12.7
31
0
39
0
210
0
220
0
230
1
0
LINE
5
8F
100
AcDbEntity
8
SK1
62
256
6
ByLayer
370
18
48
1
60
0
100
AcDbLine
10
-56
20
-11.7
30
0
11
-55
21
-12.7
31
0
39
0
210
0
220
0
230
1
0
LINE
5
90
100
AcDbEntity
8
SK1
62
256
6
ByLayer
370
18
48
1
60
0
100
AcDbLine
10
-55
20
12.7
30
0
11
-56
21
11.7
31
0
39
0
210
0
220
0
230
1
0
LINE
5
91
100
AcDbEntity
8
1
62
256
6
ByLayer
370
18
48
1
60
0
100
AcDbLine
10
0
20
12.7
30
0
11
0
21
-12.7
31
0
39
0
210
0
220
0
230
1
0
LINE
5
92
100
AcDbEntity
8
1
62
256
6
ByLayer
370
18
48
1
60
0
100
AcDbLine
10
96.816439
20
10.1205
30
0
11
96.816439
21
9.799131
31
0
39
0
210
0
220
0
230
1
0
LINE
5
93
100
AcDbEntity
8
1
62
256
6
ByLayer
370
18
48
1
60
0
100
AcDbLine
10
96.816439
20
-10.1205
30
0
11
96.816439
21
-1.444027
31
0
39
0
210
0
220
0
230
1
0
LINE
5
94
100
AcDbEntity
8
1
62
256
6
ByLayer
370
18
48
1
60
0
100
AcDbLine
10
10
20
-9.7
30
0
11
10
21
-1.403802
31
0
39
0
210
0
220
0
230
1
0
LINE
5
95
100
AcDbEntity
8
1
62
256
6
ByLayer
370
18
48
1
60
0
100
AcDbLine
10
10
20
9.7
30
0
11
10
21
8.657535
31
0
39
0
210
0
220
0
230
1
0
LINE
5
96
100
AcDbEntity
8
SK1
62
256
6
ByLayer
370
18
48
1
60
0
100
AcDbLine
10
-9.573685
20
-7.42967
30
0
11
-9.573685
21
7.42967
31
0
39
0
210
0
220
0
230
1
0
LINE
5
97
100
AcDbEntity
8
SK1
62
256
6
ByLayer
370
18
48
1
60
0
100
AcDbLine
10
0
20
12.7
30
0
11
0
21
-12.7
31
0
39
0
210
0
220
0
230
1
0
LINE
5
98
100
AcDbEntity
8
SK1
62
256
6
ByLayer
370
18
48
1
60
0
100
AcDbLine
10
-9.573685
20
-7.42967
30
0
11
-46.761964
21
-7.42967
31
0
39
0
210
0
220
0
230
1
0
LINE
5
99
100
AcDbEntity
8
SK1
62
256
6
ByLayer
370
18
48
1
60
0
100
AcDbLine
10
-46.761964
20
7.42967
30
0
11
-9.573685
21
7.42967
31
0
39
0
210
0
220
0
230
1
0
LINE
5
9A
100
AcDbEntity
8
SK1
62
256
6
ByLayer
370
18
48
1
60
0
100
AcDbLine
10
-56
20
-11.7
30
0
11
-56
21
11.7
31
0
39
0
210
0
220
0
230
1
0
LINE
5
9B
100
AcDbEntity
8
SK1
62
256
6
ByLayer
370
18
48
1
60
0
100
AcDbLine
10
-55
20
-12.7
30
0
11
-55
21
12.7
31
0
39
0
210
0
220
0
230
1
0
LINE
5
9C
100
AcDbEntity
8
SK1
62
256
6
ByLayer
370
18
48
1
60
0
100
AcDbLine
10
-46.761964
20
-7.42967
30
0
11
-46.761964
21
7.42967
31
0
39
0
210
0
220
0
230
1
0
LINE
5
9D
100
AcDbEntity
8
1
62
256
6
ByLayer
370
18
48
1
60
0
100
AcDbLine
10
96.816439
20
10.1205
30
0
11
96.816439
21
-10.1205
31
0
39
0
210
0
220
0
230
1
0
LINE
5
9E
100
AcDbEntity
8
1
62
256
6
ByLayer
370
18
48
1
60
0
100
AcDbLine
10
96.816439
20
10.1205
30
0
11
96.816439
21
-10.1205
31
0
39
0
210
0
220
0
230
1
0
LINE
5
9F
100
AcDbEntity
8
1
62
256
6
ByLayer
370
18
48
1
60
0
100
AcDbLine
10
96.816439
20
10.1205
30
0
11
96.816439
21
-10.1205
31
0
39
0
210
0
220
0
230
1
0
LINE
5
A0
100
AcDbEntity
8
1
62
256
6
ByLayer
370
18
48
1
60
0
100
AcDbLine
10
86.4
20
10.1205
30
0
11
86.4
21
-10.1205
31
0
39
0
210
0
220
0
230
1
0
LINE
5
A1
100
AcDbEntity
8
1
62
256
6
ByLayer
370
18
48
1
60
0
100
AcDbLine
10
86.4
20
10.1205
30
0
11
86.4
21
-10.1205
31
0
39
0
210
0
220
0
230
1
0
LINE
5
A2
100
AcDbEntity
8
1
62
256
6
ByLayer
370
18
48
1
60
0
100
AcDbLine
10
96.816439
20
10.1205
30
0
11
96.816439
21
-10.1205
31
0
39
0
210
0
220
0
230
1
0
LINE
5
A3
100
AcDbEntity
8
1
62
256
6
ByLayer
370
18
48
1
60
0
100
AcDbLine
10
86.4
20
10.1205
30
0
11
86.4
21
-10.1205
31
0
39
0
210
0
220
0
230
1
0
LINE
5
A4
100
AcDbEntity
8
1
62
256
6
ByLayer
370
18
48
1
60
0
100
AcDbLine
10
96.816439
20
10.1205
30
0
11
96.816439
21
-10.1205
31
0
39
0
210
0
220
0
230
1
0
LINE
5
A5
100
AcDbEntity
8
SK2
62
256
6
ByLayer
370
13
48
1
60
0
100
AcDbLine
10
-62.5
20
-12.7
30
0
11
-62.5
21
42.040455
31
0
39
0
210
0
220
0
230
1
0
LINE
5
A7
100
AcDbEntity
8
SK2
62
256
6
ByLayer
370
13
48
1
60
0
100
AcDbLine
10
-57.5875
20
12.7
30
0
11
-64.5
21
12.7
31
0
39
0
210
0
220
0
230
1
0
LINE
5
A8
100
AcDbEntity
8
SK2
62
256
6
ByLayer
370
13
48
1
60
0
100
AcDbLine
10
-57.5875
20
-12.7
30
0
11
-64.5
21
-12.7
31
0
39
0
210
0
220
0
230
1
0
LINE
5
A9
100
AcDbEntity
8
1
62
256
6
ByLayer
370
18
48
1
60
1
100
AcDbLine
10
-62.5
20
12.7
30
0
11
-62.039216
21
9.200002
31
0
39
0
210
0
220
0
230
1
0
LINE
5
AA
100
AcDbEntity
8
1
62
256
6
ByLayer
370
18
48
1
60
1
100
AcDbLine
10
-62.039216
20
9.200002
30
0
11
-62.960784
21
9.199998
31
0
39
0
210
0
220
0
230
1
0
LINE
5
AB
100
AcDbEntity
8
1
62
256
6
ByLayer
370
18
48
1
60
1
100
AcDbLine
10
-62.960784
20
9.199998
30
0
11
-62.5
21
12.7
31
0
39
0
210
0
220
0
230
1
0
LINE
5
AC
100
AcDbEntity
8
1
62
256
6
ByLayer
370
18
48
1
60
1
100
AcDbLine
10
-62.5
20
-12.7
30
0
11
-62.960784
21
-9.200002
31
0
39
0
210
0
220
0
230
1
0
LINE
5
AD
100
AcDbEntity
8
1
62
256
6
ByLayer
370
18
48
1
60
1
100
AcDbLine
10
-62.960784
20
-9.200002
30
0
11
-62.039216
21
-9.199998
31
0
39
0
210
0
220
0
230
1
0
LINE
5
AE
100
AcDbEntity
8
1
62
256
6
ByLayer
370
18
48
1
60
1
100
AcDbLine
10
-62.039216
20
-9.199998
30
0
11
-62.5
21
-12.7
31
0
39
0
210
0
220
0
230
1
0
LINE
5
AF
100
AcDbEntity
8
2
62
256
6
ByLayer
370
13
48
1
60
0
100
AcDbLine
10
108
20
-10.1205
30
0
11
108
21
38.711069
31
0
39
0
210
0
220
0
230
1
0
LINE
5
B1
100
AcDbEntity
8
2
62
256
6
ByLayer
370
13
48
1
60
0
100
AcDbLine
10
98.403939
20
10.1205
30
0
11
110
21
10.1205
31
0
39
0
210
0
220
0
230
1
0
LINE
5
B2
100
AcDbEntity
8
2
62
256
6
ByLayer
370
13
48
1
60
0
100
AcDbLine
10
98.403939
20
-10.1205
30
0
11
110
21
-10.1205
31
0
39
0
210
0
220
0
230
1
0
LINE
5
B3
100
AcDbEntity
8
1
62
256
6
ByLayer
370
18
48
1
60
1
100
AcDbLine
10
108
20
10.1205
30
0
11
108.460784
21
6.620502
31
0
39
0
210
0
220
0
230
1
0
LINE
5
B4
100
AcDbEntity
8
1
62
256
6
ByLayer
370
18
48
1
60
1
100
AcDbLine
10
108.460784
20
6.620502
30
0
11
107.539216
21
6.620498
31
0
39
0
210
0
220
0
230
1
0
LINE
5
B5
100
AcDbEntity
8
1
62
256
6
ByLayer
370
18
48
1
60
1
100
AcDbLine
10
107.539216
20
6.620498
30
0
11
108
21
10.1205
31
0
39
0
210
0
220
0
230
1
0
LINE
5
B6
100
AcDbEntity
8
1
62
256
6
ByLayer
370
18
48
1
60
1
100
AcDbLine
10
108
20
-10.1205
30
0
11
107.539216
21
-6.620502
31
0
39
0
210
0
220
0
230
1
0
LINE
5
B7
100
AcDbEntity
8
1
62
256
6
ByLayer
370
18
48
1
60
1
100
AcDbLine
10
107.539216
20
-6.620502
30
0
11
108.460784
21
-6.620498
31
0
39
0
210
0
220
0
230
1
0
LINE
5
B8
100
AcDbEntity
8
1
62
256
6
ByLayer
370
18
48
1
60
1
100
AcDbLine
10
108.460784
20
-6.620498
30
0
11
108
21
-10.1205
31
0
39
0
210
0
220
0
230
1
0
LINE
5
B9
100
AcDbEntity
8
SK2
62
256
6
ByLayer
370
13
48
1
60
0
100
AcDbLine
10
101.042957
20
-1.491762
30
0
11
107.682423
21
-19.733545
31
0
39
0
210
0
220
0
230
1
0
LINE
5
BA
100
AcDbEntity
8
SK2
62
256
6
ByLayer
370
13
48
1
60
0
100
AcDbLine
10
101.042957
20
1.491762
30
0
11
107.682423
21
19.733545
31
0
39
0
210
0
220
0
230
1
0
LINE
5
BB
100
AcDbEntity
8
1
62
256
6
ByLayer
370
18
48
1
60
1
100
AcDbLine
10
106.998383
20
-17.85416
30
0
11
110.051575
21
-16.082064
31
0
39
0
210
0
220
0
230
1
0
LINE
5
BC
100
AcDbEntity
8
1
62
256
6
ByLayer
370
18
48
1
60
1
100
AcDbLine
10
110.051575
20
-16.082064
30
0
11
110.406196
21
-16.93267
31
0
39
0
210
0
220
0
230
1
0
LINE
5
BD
100
AcDbEntity
8
1
62
256
6
ByLayer
370
18
48
1
60
1
100
AcDbLine
10
110.406196
20
-16.93267
30
0
11
106.998383
21
-17.85416
31
0
39
0
210
0
220
0
230
1
0
LINE
5
BE
100
AcDbEntity
8
1
62
256
6
ByLayer
370
18
48
1
60
1
100
AcDbLine
10
106.998383
20
17.85416
30
0
11
110.406193
21
16.932671
31
0
39
0
210
0
220
0
230
1
0
LINE
5
BF
100
AcDbEntity
8
1
62
256
6
ByLayer
370
18
48
1
60
1
100
AcDbLine
10
110.406193
20
16.932671
30
0
11
110.051579
21
16.082063
31
0
39
0
210
0
220
0
230
1
0
LINE
5
C0
100
AcDbEntity
8
1
62
256
6
ByLayer
370
18
48
1
60
1
100
AcDbLine
10
110.051579
20
16.082063
30
0
11
106.998383
21
17.85416
31
0
39
0
210
0
220
0
230
1
0
LINE
5
132
100
AcDbEntity
8
1
62
256
6
ByLayer
370
18
48
1
60
1
100
AcDbLine
10
-62.5
20
12.7
30
0
11
-62.039216
21
9.200002
31
0
39
0
210
0
220
0
230
1
0
LINE
5
133
100
AcDbEntity
8
1
62
256
6
ByLayer
370
18
48
1
60
1
100
AcDbLine
10
-62.039216
20
9.200002
30
0
11
-62.960784
21
9.199998
31
0
39
0
210
0
220
0
230
1
0
LINE
5
134
100
AcDbEntity
8
1
62
256
6
ByLayer
370
18
48
1
60
1
100
AcDbLine
10
-62.960784
20
9.199998
30
0
11
-62.5
21
12.7
31
0
39
0
210
0
220
0
230
1
0
LINE
5
136
100
AcDbEntity
8
1
62
256
6
ByLayer
370
18
48
1
60
1
100
AcDbLine
10
-62.5
20
-12.7
30
0
11
-62.960784
21
-9.200002
31
0
39
0
210
0
220
0
230
1
0
LINE
5
137
100
AcDbEntity
8
1
62
256
6
ByLayer
370
18
48
1
60
1
100
AcDbLine
10
-62.960784
20
-9.200002
30
0
11
-62.039216
21
-9.199998
31
0
39
0
210
0
220
0
230
1
0
LINE
5
138
100
AcDbEntity
8
1
62
256
6
ByLayer
370
18
48
1
60
1
100
AcDbLine
10
-62.039216
20
-9.199998
30
0
11
-62.5
21
-12.7
31
0
39
0
210
0
220
0
230
1
0
LINE
5
13C
100
AcDbEntity
8
1
62
256
6
ByLayer
370
18
48
1
60
1
100
AcDbLine
10
108
20
10.1205
30
0
11
108.460784
21
6.620502
31
0
39
0
210
0
220
0
230
1
0
LINE
5
13D
100
AcDbEntity
8
1
62
256
6
ByLayer
370
18
48
1
60
1
100
AcDbLine
10
108.460784
20
6.620502
30
0
11
107.539216
21
6.620498
31
0
39
0
210
0
220
0
230
1
0
LINE
5
13E
100
AcDbEntity
8
1
62
256
6
ByLayer
370
18
48
1
60
1
100
AcDbLine
10
107.539216
20
6.620498
30
0
11
108
21
10.1205
31
0
39
0
210
0
220
0
230
1
0
LINE
5
140
100
AcDbEntity
8
1
62
256
6
ByLayer
370
18
48
1
60
1
100
AcDbLine
10
108
20
-10.1205
30
0
11
107.539216
21
-6.620502
31
0
39
0
210
0
220
0
230
1
0
LINE
5
141
100
AcDbEntity
8
1
62
256
6
ByLayer
370
18
48
1
60
1
100
AcDbLine
10
107.539216
20
-6.620502
30
0
11
108.460784
21
-6.620498
31
0
39
0
210
0
220
0
230
1
0
LINE
5
142
100
AcDbEntity
8
1
62
256
6
ByLayer
370
18
48
1
60
1
100
AcDbLine
10
108.460784
20
-6.620498
30
0
11
108
21
-10.1205
31
0
39
0
210
0
220
0
230
1
0
LINE
5
145
100
AcDbEntity
8
1
62
256
6
ByLayer
370
18
48
1
60
1
100
AcDbLine
10
106.998383
20
-17.85416
30
0
11
110.051575
21
-16.082064
31
0
39
0
210
0
220
0
230
1
0
LINE
5
146
100
AcDbEntity
8
1
62
256
6
ByLayer
370
18
48
1
60
1
100
AcDbLine
10
110.051575
20
-16.082064
30
0
11
110.406196
21
-16.93267
31
0
39
0
210
0
220
0
230
1
0
LINE
5
147
100
AcDbEntity
8
1
62
256
6
ByLayer
370
18
48
1
60
1
100
AcDbLine
10
110.406196
20
-16.93267
30
0
11
106.998383
21
-17.85416
31
0
39
0
210
0
220
0
230
1
0
LINE
5
149
100
AcDbEntity
8
1
62
256
6
ByLayer
370
18
48
1
60
1
100
AcDbLine
10
106.998383
20
17.85416
30
0
11
110.406193
21
16.932671
31
0
39
0
210
0
220
0
230
1
0
LINE
5
14A
100
AcDbEntity
8
1
62
256
6
ByLayer
370
18
48
1
60
1
100
AcDbLine
10
110.406193
20
16.932671
30
0
11
110.051579
21
16.082063
31
0
39
0
210
0
220
0
230
1
0
LINE
5
14B
100
AcDbEntity
8
1
62
256
6
ByLayer
370
18
48
1
60
1
100
AcDbLine
10
110.051579
20
16.082063
30
0
11
106.998383
21
17.85416
31
0
39
0
210
0
220
0
230
1
0
MTEXT
5
12E
100
AcDbEntity
8
SK2
62
256
6
ByLayer
370
18
48
1
60
0
100
AcDbMText
10
-63.841114
20
24.358437
30
0
210
0
220
0
230
1
1
%%c
40
3
41
0
44
1.084337
50
90
71
7
72
5
7
iso_b_vert
0
MTEXT
5
131
100
AcDbEntity
8
SK2
62
256
6
ByLayer
370
18
48
1
60
0
100
AcDbMText
10
-63.841114
20
30.335
30
0
210
0
220
0
230
1
1
\W0.7728;25.400
40
3
41
0
44
1.084337
50
90
71
7
72
5
7
iso_b_vert
0
MTEXT
5
13A
100
AcDbEntity
8
2
62
256
6
ByLayer
370
18
48
1
60
0
100
AcDbMText
10
106.658886
20
21.778937
30
0
210
0
220
0
230
1
1
%%c
40
3
41
0
44
1.084337
50
90
71
7
72
5
7
iso_b_vert
0
MTEXT
5
13B
100
AcDbEntity
8
2
62
256
6
ByLayer
370
18
48
1
60
0
100
AcDbMText
10
106.658886
20
27.7555
30
0
210
0
220
0
230
1
1
\W0.7667;20.241
40
3
41
0
44
1.084337
50
90
71
7
72
5
7
iso_b_vert
0
MTEXT
5
144
100
AcDbEntity
8
SK2
62
256
6
ByLayer
370
18
48
1
60
0
100
AcDbMText
10
120.409114
20
3.734657
30
0
210
0
220
0
230
1
1
\W0.7071;140%%d
40
3
41
0
44
1.084337
50
270
71
7
72
5
7
iso_b_vert
0
MTEXT
5
14D
100
AcDbEntity
8
SK6
62
256
6
ByLayer
370
18
48
1
60
0
100
AcDbMText
10
-5.542511
20
-67.114886
30
0
210
0
220
0
230
1
1
\W0.7662;H85351/64
40
3
41
0
44
1.084337
50
0
71
7
72
5
7
iso_b_vert
0
HATCH
5
135
100
AcDbEntity
8
SK2
62
256
6
ByLayer
370
13
48
1
60
0
100
AcDbHatch
10
0
20
0
30
0
210
0
220
0
230
1
2
ANSI31
70
0
71
0
91
1
92
5
93
3
72
1
10
-62.5
20
12.7
11
-62.0392162584472
21
9.20000169255317
72
1
10
-62.0392162584472
20
9.20000169255317
11
-62.9607837415528
21
9.1999983074468
72
1
10
-62.9607837415528
20
9.1999983074468
11
-62.5
21
12.7
97
0
75
0
76
1
52
0
41
0.0062
77
0
78
1
53
45
43
0
44
0
45
-0.0139193969876572
46
0.0139193969876572
79
0
47
0
98
1
10
0
20
0
0
HATCH
5
139
100
AcDbEntity
8
SK2
62
256
6
ByLayer
370
13
48
1
60
0
100
AcDbHatch
10
0
20
0
30
0
210
0
220
0
230
1
2
ANSI31
70
0
71
0
91
1
92
5
93
3
72
1
10
-62.5
20
-12.7
11
-62.9607837415528
21
-9.20000169255317
72
1
10
-62.9607837415528
20
-9.20000169255317
11
-62.0392162584472
21
-9.1999983074468
72
1
10
-62.0392162584472
20
-9.1999983074468
11
-62.5
21
-12.7
97
0
75
0
76
1
52
0
41
0.0062
77
0
78
1
53
45
43
0
44
0
45
-0.0139193969876572
46
0.0139193969876572
79
0
47
0
98
1
10
0
20
0
0
HATCH
5
13F
100
AcDbEntity
8
2
62
256
6
ByLayer
370
13
48
1
60
0
100
AcDbHatch
10
0
20
0
30
0
210
0
220
0
230
1
2
ANSI31
70
0
71
0
91
1
92
5
93
3
72
1
10
108
20
10.1205
11
108.460783741553
21
6.62050169255318
72
1
10
108.460783741553
20
6.62050169255318
11
107.539216258447
21
6.62049830744681
72
1
10
107.539216258447
20
6.62049830744681
11
108
21
10.1205
97
0
75
0
76
1
52
0
41
0.0062
77
0
78
1
53
45
43
0
44
0
45
-0.0139193969876572
46
0.0139193969876572
79
0
47
0
98
1
10
0
20
0
0
HATCH
5
143
100
AcDbEntity
8
2
62
256
6
ByLayer
370
13
48
1
60
0
100
AcDbHatch
10
0
20
0
30
0
210
0
220
0
230
1
2
ANSI31
70
0
71
0
91
1
92
5
93
3
72
1
10
108
20
-10.1205
11
107.539216258447
21
-6.62050169255318
72
1
10
107.539216258447
20
-6.62050169255318
11
108.460783741553
21
-6.62049830744681
72
1
10
108.460783741553
20
-6.62049830744681
11
108
21
-10.1205
97
0
75
0
76
1
52
0
41
0.0062
77
0
78
1
53
45
43
0
44
0
45
-0.0139193969876572
46
0.0139193969876572
79
0
47
0
98
1
10
0
20
0
0
HATCH
5
148
100
AcDbEntity
8
SK2
62
256
6
ByLayer
370
13
48
1
60
0
100
AcDbHatch
10
0
20
0
30
0
210
0
220
0
230
1
2
ANSI31
70
0
71
0
91
1
92
5
93
3
72
1
10
106.998382723188
20
-17.8541597949323
11
110.051575425693
21
-16.0820638240607
72
1
10
110.051575425693
20
-16.0820638240607
11
110.406195833975
21
-16.9326700737196
72
1
10
110.406195833975
20
-16.9326700737196
11
106.998382723188
21
-17.8541597949323
97
0
75
0
76
1
52
0
41
0.0062
77
0
78
1
53
45
43
0
44
0
45
-0.0139193969876572
46
0.0139193969876572
79
0
47
0
98
1
10
0
20
0
0
HATCH
5
14C
100
AcDbEntity
8
SK2
62
256
6
ByLayer
370
13
48
1
60
0
100
AcDbHatch
10
0
20
0
30
0
210
0
220
0
230
1
2
ANSI31
70
0
71
0
91
1
92
5
93
3
72
1
10
106.998382723188
20
17.8541597949323
11
110.406192709519
21
16.9326713763016
72
1
10
110.406192709519
20
16.9326713763016
11
110.051578550149
21
16.0820625214787
72
1
10
110.051578550149
20
16.0820625214787
11
106.998382723188
21
17.8541597949323
97
0
75
0
76
1
52
0
41
0.0062
77
0
78
1
53
45
43
0
44
0
45
-0.0139193969876572
46
0.0139193969876572
79
0
47
0
98
1
10
0
20
0
0
DIMENSION
5
150
100
AcDbEntity
8
SK2
62
256
6
ByLayer
370
18
48
1
60
0
100
AcDbDimension
2
_U0
10
100.5
20
-45.952229
30
0
11
22.25
21
-45.952229
31
0
70
32
71
1
72
1
41
1
210
0
220
0
230
1
3
Standard
100
AcDbAlignedDimension
13
-56
23
-12.7
33
0
14
100.5
24
0
34
0
50
0
100
AcDbRotatedDimension
1001
ACAD
1000
DSTYLE
1002
{
1070
   371
1070
    13
1070
   372
1070
    13
1070
     3
1000

1070
   170
1070
     0
1070
   144
1040
1.0
1070
   277
1070
     2
1070
   284
1070
     8
1070
   278
1070
    46
1070
   146
1040
1.166667
1070
   345
1005
16
1070
   347
1005
16
1070
   346
1005
16
1070
   344
1005
0
1070
   343
1005
0
1070
   172
1070
     1
1070
    76
1070
     0
1070
    75
1070
     0
1070
   282
1070
     0
1070
   281
1070
     0
1070
    71
1070
     0
1070
    74
1070
     0
1070
   279
1070
     0
1070
   173
1070
     1
1070
   340
1005
12F
1070
   271
1070
     2
1070
   272
1070
     3
1070
    77
1070
     1
1070
    73
1070
     1
1070
   171
1070
     3
1070
   274
1070
     4
1070
   177
1070
     2
1070
   176
1070
     2
1070
   178
1070
     2
1070
    78
1070
     8
1070
    48
1040
-0.1
1070
    41
1040
3.5
1070
   147
1040
1.5
1070
    42
1040
1.5875
1070
    44
1040
2.0
1070
   140
1040
3.0
1002
}
1001
ACAD_DSTYLE_DIM_LINETYPE
1070
   380
1005
16
1001
ACAD_DSTYLE_DIM_EXT1_LINETYPE
1070
   381
1005
16
1001
ACAD_DSTYLE_DIM_EXT2_LINETYPE
1070
   382
1005
16
0
DIMENSION
5
169
100
AcDbEntity
8
SK2
62
256
6
ByLayer
370
18
48
1
60
0
100
AcDbDimension
2
_U1
10
3
20
-35.952229
30
0
11
51.75
21
-35.952229
31
0
70
32
71
1
72
1
41
1
210
0
220
0
230
1
3
Standard
100
AcDbAlignedDimension
13
100.5
23
0
33
0
14
3
24
-10.1205
34
0
50
0
100
AcDbRotatedDimension
1001
ACAD
1000
DSTYLE
1002
{
1070
   371
1070
    13
1070
   372
1070
    13
1070
     3
1000

1070
   170
1070
     0
1070
   144
1040
1.0
1070
   277
1070
     2
1070
   284
1070
     8
1070
   278
1070
    46
1070
   146
1040
1.166667
1070
   345
1005
16
1070
   347
1005
16
1070
   346
1005
16
1070
   344
1005
0
1070
   343
1005
0
1070
   172
1070
     1
1070
    76
1070
     0
1070
    75
1070
     0
1070
   282
1070
     0
1070
   281
1070
     0
1070
    71
1070
     0
1070
    74
1070
     0
1070
   279
1070
     0
1070
   173
1070
     1
1070
   340
1005
12F
1070
   271
1070
     2
1070
   272
1070
     3
1070
    77
1070
     1
1070
    73
1070
     1
1070
   171
1070
     3
1070
   274
1070
     4
1070
   177
1070
     2
1070
   176
1070
     2
1070
   178
1070
     2
1070
    78
1070
     8
1070
    48
1040
-0.1
1070
    41
1040
3.5
1070
   147
1040
1.5
1070
    42
1040
1.5875
1070
    44
1040
2.0
1070
   140
1040
3.0
1002
}
1001
ACAD_DSTYLE_DIM_LINETYPE
1070
   380
1005
16
1001
ACAD_DSTYLE_DIM_EXT1_LINETYPE
1070
   381
1005
16
1001
ACAD_DSTYLE_DIM_EXT2_LINETYPE
1070
   382
1005
16
0
DIMENSION
5
181
100
AcDbEntity
8
SK2
62
256
6
ByLayer
370
18
48
1
60
0
100
AcDbDimension
2
_U2
10
0
20
-35.952229
30
0
11
-28
21
-35.952229
31
0
70
32
71
1
72
1
41
1
210
0
220
0
230
1
3
Standard
100
AcDbAlignedDimension
13
-56
23
-12.7
33
0
14
0
24
-12.7
34
0
50
0
100
AcDbRotatedDimension
1001
ACAD
1000
DSTYLE
1002
{
1070
   371
1070
    13
1070
   372
1070
    13
1070
     3
1000

1070
   170
1070
     0
1070
   144
1040
1.0
1070
   277
1070
     2
1070
   284
1070
     8
1070
   278
1070
    46
1070
   146
1040
1.166667
1070
   345
1005
16
1070
   347
1005
16
1070
   346
1005
16
1070
   344
1005
0
1070
   343
1005
0
1070
   172
1070
     1
1070
    76
1070
     0
1070
    75
1070
     0
1070
   282
1070
     0
1070
   281
1070
     0
1070
    71
1070
     0
1070
    74
1070
     0
1070
   279
1070
     0
1070
   173
1070
     1
1070
   340
1005
12F
1070
   271
1070
     2
1070
   272
1070
     3
1070
    77
1070
     1
1070
    73
1070
     1
1070
   171
1070
     3
1070
   274
1070
     4
1070
   177
1070
     2
1070
   176
1070
     2
1070
   178
1070
     2
1070
    78
1070
     8
1070
    48
1040
-0.1
1070
    41
1040
3.5
1070
   147
1040
1.5
1070
    42
1040
1.5875
1070
    44
1040
2.0
1070
   140
1040
3.0
1002
}
1001
ACAD_DSTYLE_DIM_LINETYPE
1070
   380
1005
16
1001
ACAD_DSTYLE_DIM_EXT1_LINETYPE
1070
   381
1005
16
1001
ACAD_DSTYLE_DIM_EXT2_LINETYPE
1070
   382
1005
16
0
DIMENSION
5
199
100
AcDbEntity
8
SK2
62
256
6
ByLayer
370
18
48
1
60
0
100
AcDbDimension
2
_U3
10
27
20
32.952229
30
0
11
63.75
21
32.952229
31
0
70
32
71
1
72
1
41
1
210
0
220
0
230
1
3
Standard
100
AcDbAlignedDimension
13
100.5
23
0
33
0
14
27
24
10.1205
34
0
50
0
100
AcDbRotatedDimension
1001
ACAD
1000
DSTYLE
1002
{
1070
   371
1070
    13
1070
   372
1070
    13
1070
     3
1000

1070
   170
1070
     0
1070
   144
1040
1.0
1070
   277
1070
     2
1070
   284
1070
     8
1070
   278
1070
    46
1070
   146
1040
1.166667
1070
   345
1005
16
1070
   347
1005
16
1070
   346
1005
16
1070
   344
1005
0
1070
   343
1005
0
1070
   172
1070
     1
1070
    76
1070
     0
1070
    75
1070
     0
1070
   282
1070
     0
1070
   281
1070
     0
1070
    71
1070
     0
1070
    74
1070
     0
1070
   279
1070
     0
1070
   173
1070
     1
1070
   340
1005
12F
1070
   271
1070
     2
1070
   272
1070
     3
1070
    77
1070
     1
1070
    73
1070
     1
1070
   171
1070
     3
1070
   274
1070
     4
1070
   177
1070
     2
1070
   176
1070
     2
1070
   178
1070
     2
1070
    78
1070
     8
1070
    48
1040
-0.1
1070
    41
1040
3.5
1070
   147
1040
1.5
1070
    42
1040
1.5875
1070
    44
1040
2.0
1070
   140
1040
3.0
1002
}
1001
ACAD_DSTYLE_DIM_LINETYPE
1070
   380
1005
16
1001
ACAD_DSTYLE_DIM_EXT1_LINETYPE
1070
   381
1005
16
1001
ACAD_DSTYLE_DIM_EXT2_LINETYPE
1070
   382
1005
16
0
ENDSEC
0
SECTION
2
OBJECTS
0
DICTIONARY
5
221
330
0
100
AcDbDictionary
280
0
281
1
3
ACAD_GROUP
350
222
3
ACAD_MLINESTYLE
350
223
0
DICTIONARY
5
222
330
0
100
AcDbDictionary
280
0
281
1
0
DICTIONARY
5
223
330
0
100
AcDbDictionary
280
0
281
1
3
Standard
350
18
0
MLINESTYLE
5
18
330
223
100
AcDbMlineStyle
2
Standard
70
0
3

62
256
51
90
52
90
71
2
49
-0.5
62
256
6
ByLayer
49
0.5
62
256
6
ByLayer
0
RASTERVARIABLES
5
20f
330

100
AcDbRasterVariables
90
0
70
1
71
1
72
1
0
ENDSEC
0
EOF
