0
SECTION
2
HEADER
9
$ACADVER
1
AC1015
9
$DWGCODEPAGE
3
ANSI_1252
9
$HANDSEED
5
21d
9
$ANGBASE
50
0
9
$ANGDIR
70
0
9
$ATTMODE
70
1
9
$AUNITS
70
0
9
$AUPREC
70
0
9
$CECOLOR
62
256
9
$CELTSCALE
40
1
9
$CELTYPE
6
ByLayer
9
$CELWEIGHT
370
18
9
$CLAYER
8
0
9
$CMLJUST
70
0
9
$CMLSCALE
40
1
9
$CMLSTYLE
2
Standard
9
$DIMSTYLE
2
Standard
9
$TEXTSIZE
40
0.2
9
$TEXTSTYLE
7
Standard
9
$LUNITS
70
2
9
$LUPREC
70
4
9
$EXTNAMES
290
1
9
$INSUNITS
70
4
9
$LTSCALE
40
1
9
$LWDISPLAY
290
1
9
$PDMODE
70
0
9
$PDSIZE
40
0
9
$PLINEGEN
70
0
0
ENDSEC
0
SECTION
2
CLASSES
0
CLASS
1
RASTERVARIABLES
2
AcDbRasterVariables
3
ISM
90
0
280
0
281
0
0
ENDSEC
0
SECTION
2
TABLES
0
TABLE
2
VPORT
5
213
100
AcDbSymbolTable
0
VPORT
5
1
100
AcDbSymbolTableRecord
100
AcDbViewportTableRecord
2
*Active
70
0
10
0
20
0
11
1
21
1
12
-1
22
1
13
0
23
0
14
0.5
24
0.5
15
10
25
10
16
0
26
0
36
1
17
0
27
0
37
0
0
ENDTAB
0
TABLE
2
LTYPE
5
214
100
AcDbSymbolTable
0
LTYPE
5
14
100
AcDbSymbolTableRecord
100
AcDbLinetypeTableRecord
70
0
2
ByBlock
3

72
65
73
0
40
0
0
LTYPE
5
15
100
AcDbSymbolTableRecord
100
AcDbLinetypeTableRecord
70
0
2
ByLayer
3

72
65
73
0
40
0
0
LTYPE
5
16
100
AcDbSymbolTableRecord
100
AcDbLinetypeTableRecord
70
0
2
Continuous
3
Solid line
72
65
73
0
40
0
0
LTYPE
5
6E
100
AcDbSymbolTableRecord
100
AcDbLinetypeTableRecord
70
0
2
CENTER
3
____ _ ____ _ ____ _ ____
72
65
73
4
40
47.5
49
22
74
0
49
-8.5
74
0
49
8.5
74
0
49
-8.5
74
0
0
LTYPE
5
6F
100
AcDbSymbolTableRecord
100
AcDbLinetypeTableRecord
70
0
2
DASHED
3
__ __ __ __ __ __ __ __ __
72
65
73
2
40
25.72
49
12.86
74
0
49
-12.86
74
0
0
ENDTAB
0
TABLE
2
LAYER
5
215
100
AcDbSymbolTable
0
LAYER
5
10
100
AcDbSymbolTableRecord
100
AcDbLayerTableRecord
2
0
70
0
62
7
6
Continuous
290
1
370
-3
390
0
0
LAYER
5
71
100
AcDbSymbolTableRecord
100
AcDbLayerTableRecord
2
81
70
0
62
-3
6
Continuous
290
1
370
-3
390
0
0
LAYER
5
73
100
AcDbSymbolTableRecord
100
AcDbLayerTableRecord
2
80
70
0
62
-6
6
Continuous
290
1
370
-3
390
0
0
LAYER
5
75
100
AcDbSymbolTableRecord
100
AcDbLayerTableRecord
2
1
70
0
62
4
6
Continuous
290
1
370
-3
390
0
0
LAYER
5
7F
100
AcDbSymbolTableRecord
100
AcDbLayerTableRecord
2
4
70
0
62
-2
6
CENTER
290
1
370
-3
390
0
0
LAYER
5
B0
100
AcDbSymbolTableRecord
100
AcDbLayerTableRecord
2
2
70
0
62
7
6
Continuous
290
1
370
-3
390
0
0
LAYER
5
142
100
AcDbSymbolTableRecord
100
AcDbLayerTableRecord
2
Defpoints
70
0
62
7
6
Continuous
290
0
370
-3
390
0
0
LAYER
5
1ff
100
AcDbSymbolTableRecord
100
AcDbLayerTableRecord
2
SK4
70
0
62
2
6
CENTER
290
1
370
-3
390
0
0
LAYER
5
200
100
AcDbSymbolTableRecord
100
AcDbLayerTableRecord
2
SK1
70
0
62
4
6
Continuous
290
1
370
-3
390
0
0
LAYER
5
201
100
AcDbSymbolTableRecord
100
AcDbLayerTableRecord
2
SK2
70
0
62
7
6
Continuous
290
1
370
-3
390
0
0
LAYER
5
202
100
AcDbSymbolTableRecord
100
AcDbLayerTableRecord
2
SK6
70
0
62
5
6
Continuous
290
1
370
-3
390
0
0
ENDTAB
0
TABLE
2
STYLE
5
216
100
AcDbSymbolTable
0
STYLE
5
11
100
AcDbSymbolTableRecord
100
AcDbTextStyleTableRecord
2
Standard
3
txt
70
0
71
0
40
0
41
1
42
0
50
0
0
STYLE
5
11E
100
AcDbSymbolTableRecord
100
AcDbTextStyleTableRecord
2
iso_b_vert
3
simplex.shx
70
0
71
0
40
0
41
1
42
0
50
0
0
STYLE
5
11F
100
AcDbSymbolTableRecord
100
AcDbTextStyleTableRecord
2
DWGDirectTextStyle
3
simplex
70
0
71
0
40
0
41
1
42
0
50
0
0
ENDTAB
0
TABLE
2
DIMSTYLE
5
217
100
AcDbSymbolTable
100
AcDbDimStyleTable
0
DIMSTYLE
105
27
100
AcDbSymbolTableRecord
100
AcDbDimStyleTableRecord
2
Standard
70
0
3
<>
41
0.18
42
0.0625
44
0.18
140
0.18
147
0.09
73
0
74
0
77
1
271
2
275
0
278
52
280
0
340
11
0
ENDTAB
0
TABLE
2
VIEW
5
218
100
AcDbSymbolTable
0
ENDTAB
0
TABLE
2
UCS
5
219
100
AcDbSymbolTable
0
ENDTAB
0
TABLE
2
APPID
5
21a
100
AcDbSymbolTable
0
APPID
5
12
100
AcDbSymbolTableRecord
100
AcDbRegAppTableRecord
2
ACAD
70
0
0
APPID
5
13E
100
AcDbSymbolTableRecord
100
AcDbRegAppTableRecord
2
ACAD_DSTYLE_DIMBREAK
70
0
0
APPID
5
1BE
100
AcDbSymbolTableRecord
100
AcDbRegAppTableRecord
2
ACAD_DSTYLE_DIM_LINETYPE
70
0
0
APPID
5
1BF
100
AcDbSymbolTableRecord
100
AcDbRegAppTableRecord
2
ACAD_DSTYLE_DIM_EXT1_LINETYPE
70
0
0
APPID
5
1C0
100
AcDbSymbolTableRecord
100
AcDbRegAppTableRecord
2
ACAD_DSTYLE_DIM_EXT2_LINETYPE
70
0
0
APPID
5
1FB
100
AcDbSymbolTableRecord
100
AcDbRegAppTableRecord
2
ACAD_MLEADERVER
70
0
0
ENDTAB
0
TABLE
2
BLOCK_RECORD
5
21b
100
AcDbSymbolTable
0
BLOCK_RECORD
5
1F
100
AcDbSymbolTableRecord
100
AcDbBlockTableRecord
2
*Model_Space
340
0
70
0
0
BLOCK_RECORD
5
1B
100
AcDbSymbolTableRecord
100
AcDbBlockTableRecord
2
*Paper_Space
340
0
70
0
0
BLOCK_RECORD
5
23
100
AcDbSymbolTableRecord
100
AcDbBlockTableRecord
2
*Paper_Space0
340
0
70
0
0
BLOCK_RECORD
5
143
100
AcDbSymbolTableRecord
100
AcDbBlockTableRecord
2
*D1
340
0
70
0
0
BLOCK_RECORD
5
14F
100
AcDbSymbolTableRecord
100
AcDbBlockTableRecord
2
_U0
340
0
70
0
0
BLOCK_RECORD
5
15B
100
AcDbSymbolTableRecord
100
AcDbBlockTableRecord
2
*D3
340
0
70
0
0
BLOCK_RECORD
5
167
100
AcDbSymbolTableRecord
100
AcDbBlockTableRecord
2
_U1
340
0
70
0
0
BLOCK_RECORD
5
173
100
AcDbSymbolTableRecord
100
AcDbBlockTableRecord
2
*D5
340
0
70
0
0
BLOCK_RECORD
5
17F
100
AcDbSymbolTableRecord
100
AcDbBlockTableRecord
2
_U2
340
0
70
0
0
BLOCK_RECORD
5
18B
100
AcDbSymbolTableRecord
100
AcDbBlockTableRecord
2
*D7
340
0
70
0
0
BLOCK_RECORD
5
197
100
AcDbSymbolTableRecord
100
AcDbBlockTableRecord
2
_U3
340
0
70
0
0
ENDTAB
0
ENDSEC
0
SECTION
2
BLOCKS
0
BLOCK
5
20
100
AcDbEntity
8
0
100
AcDbBlockBegin
2
*Model_Space
70
0
10
0
20
0
30
0
3
*Model_Space
0
ENDBLK
5
21
100
AcDbEntity
8
0
100
AcDbBlockEnd
0
BLOCK
5
1C
100
AcDbEntity
8
0
100
AcDbBlockBegin
2
*Paper_Space
70
0
10
0
20
0
30
0
3
*Paper_Space
0
ENDBLK
5
1D
100
AcDbEntity
8
0
100
AcDbBlockEnd
0
BLOCK
5
24
100
AcDbEntity
8
0
100
AcDbBlockBegin
2
*Paper_Space0
70
0
10
0
20
0
30
0
3
*Paper_Space0
0
ENDBLK
5
25
100
AcDbEntity
8
0
100
AcDbBlockEnd
0
BLOCK
5
144
100
AcDbEntity
8
0
100
AcDbBlockBegin
2
*D1
70
1
10
0
20
0
30
0
3
*D1
0
LINE
5
146
100
AcDbEntity
8
0
62
256
6
ByLayer
370
-2
48
1
60
0
100
AcDbLine
10
-48
20
-11.1125
30
0
11
-48
21
-47.952229
31
0
39
0
210
0
220
0
230
1
0
LINE
5
147
100
AcDbEntity
8
0
62
256
6
ByLayer
370
-2
48
1
60
0
100
AcDbLine
10
83.5
20
-1.5875
30
0
11
83.5
21
-47.952229
31
0
39
0
210
0
220
0
230
1
0
LINE
5
148
100
AcDbEntity
8
0
62
256
6
ByLayer
370
-2
48
1
60
0
100
AcDbLine
10
-44.5
20
-45.952229
30
0
11
80
21
-45.952229
31
0
39
0
210
0
220
0
230
1
0
SOLID
5
149
100
AcDbEntity
8
0
62
256
6
ByLayer
370
-1
48
1
60
0
100
AcDbTrace
10
-44.5
20
-45.368896
30
0
11
-44.5
21
-46.535563
31
0
12
-48
22
-45.952229
32
0
13
-48
23
-45.952229
33
0
39
0
210
0
220
0
230
1
0
SOLID
5
14A
100
AcDbEntity
8
0
62
256
6
ByLayer
370
-1
48
1
60
0
100
AcDbTrace
10
80
20
-46.535563
30
0
11
80
21
-45.368896
31
0
12
83.5
22
-45.952229
32
0
13
83.5
23
-45.952229
33
0
39
0
210
0
220
0
230
1
0
MTEXT
5
14B
100
AcDbEntity
8
0
62
256
6
ByLayer
370
18
48
1
60
0
100
AcDbMText
10
17.75
20
-39.952229
30
0
210
0
220
0
230
1
1
\A1;131.5
40
3
41
0
44
1
50
0
71
5
72
5
7
iso_b_vert
0
POINT
5
14C
100
AcDbEntity
8
Defpoints
62
0
6
ByLayer
370
-1
48
1
60
0
100
AcDbPoint
10
-48
20
-9.525
30
0
39
0
210
0
220
0
230
1
50
360
0
POINT
5
14D
100
AcDbEntity
8
Defpoints
62
0
6
ByLayer
370
-1
48
1
60
0
100
AcDbPoint
10
83.5
20
0
30
0
39
0
210
0
220
0
230
1
50
360
0
POINT
5
14E
100
AcDbEntity
8
Defpoints
62
0
6
ByLayer
370
-1
48
1
60
0
100
AcDbPoint
10
83.5
20
-45.952229
30
0
39
0
210
0
220
0
230
1
50
360
0
ENDBLK
5
145
100
AcDbEntity
8
0
100
AcDbBlockEnd
0
BLOCK
5
156
100
AcDbEntity
8
0
100
AcDbBlockBegin
2
_U0
70
0
10
0
20
0
30
0
3
_U0
0
MTEXT
5
150
100
AcDbEntity
8
SK2
62
256
6
ByLayer
370
18
48
1
60
0
100
AcDbMText
10
12.896601
20
-45.067115
30
0
210
0
220
0
230
1
1
\W0.6532;131.50
40
3
41
0
44
1.084337
50
0
71
7
72
5
7
iso_b_vert
0
LINE
5
151
100
AcDbEntity
8
SK2
62
256
6
ByLayer
370
13
48
1
60
0
100
AcDbLine
10
-48
20
-11.1125
30
0
11
-48
21
-47.952229
31
0
39
0
210
0
220
0
230
1
0
LINE
5
152
100
AcDbEntity
8
SK2
62
256
6
ByLayer
370
13
48
1
60
0
100
AcDbLine
10
83.5
20
-1.5875
30
0
11
83.5
21
-47.952229
31
0
39
0
210
0
220
0
230
1
0
LINE
5
153
100
AcDbEntity
8
SK2
62
256
6
ByLayer
370
13
48
1
60
0
100
AcDbLine
10
-48
20
-45.952229
30
0
11
83.5
21
-45.952229
31
0
39
0
210
0
220
0
230
1
0
SOLID
5
154
100
AcDbEntity
8
SK2
62
256
6
ByLayer
370
18
48
1
60
0
100
AcDbTrace
10
-48
20
-45.952229
30
0
11
-44.500002
21
-45.491446
31
0
12
-44.499998
22
-46.413013
32
0
13
-44.499998
23
-46.413013
33
0
39
0
210
0
220
0
230
1
0
SOLID
5
155
100
AcDbEntity
8
SK2
62
256
6
ByLayer
370
18
48
1
60
0
100
AcDbTrace
10
83.5
20
-45.952229
30
0
11
80.000002
21
-46.413013
31
0
12
79.999998
22
-45.491446
32
0
13
79.999998
23
-45.491446
33
0
39
0
210
0
220
0
230
1
0
ENDBLK
5
157
100
AcDbEntity
8
0
100
AcDbBlockEnd
0
BLOCK
5
15C
100
AcDbEntity
8
0
100
AcDbBlockBegin
2
*D3
70
1
10
0
20
0
30
0
3
*D3
0
LINE
5
15E
100
AcDbEntity
8
0
62
256
6
ByLayer
370
-2
48
1
60
0
100
AcDbLine
10
83.5
20
-1.5875
30
0
11
83.5
21
-37.952229
31
0
39
0
210
0
220
0
230
1
0
LINE
5
15F
100
AcDbEntity
8
0
62
256
6
ByLayer
370
-2
48
1
60
0
100
AcDbLine
10
3
20
-9.7235
30
0
11
3
21
-37.952229
31
0
39
0
210
0
220
0
230
1
0
LINE
5
160
100
AcDbEntity
8
0
62
256
6
ByLayer
370
-2
48
1
60
0
100
AcDbLine
10
80
20
-35.952229
30
0
11
6.5
21
-35.952229
31
0
39
0
210
0
220
0
230
1
0
SOLID
5
161
100
AcDbEntity
8
0
62
256
6
ByLayer
370
-1
48
1
60
0
100
AcDbTrace
10
80
20
-36.535563
30
0
11
80
21
-35.368896
31
0
12
83.5
22
-35.952229
32
0
13
83.5
23
-35.952229
33
0
39
0
210
0
220
0
230
1
0
SOLID
5
162
100
AcDbEntity
8
0
62
256
6
ByLayer
370
-1
48
1
60
0
100
AcDbTrace
10
6.5
20
-35.368896
30
0
11
6.5
21
-36.535563
31
0
12
3
22
-35.952229
32
0
13
3
23
-35.952229
33
0
39
0
210
0
220
0
230
1
0
MTEXT
5
163
100
AcDbEntity
8
0
62
256
6
ByLayer
370
18
48
1
60
0
100
AcDbMText
10
43.25
20
-29.952229
30
0
210
0
220
0
230
1
1
\A1;80.5
40
3
41
0
44
1
50
0
71
5
72
5
7
iso_b_vert
0
POINT
5
164
100
AcDbEntity
8
Defpoints
62
0
6
ByLayer
370
-1
48
1
60
0
100
AcDbPoint
10
83.5
20
0
30
0
39
0
210
0
220
0
230
1
50
360
0
POINT
5
165
100
AcDbEntity
8
Defpoints
62
0
6
ByLayer
370
-1
48
1
60
0
100
AcDbPoint
10
3
20
-8.136
30
0
39
0
210
0
220
0
230
1
50
360
0
POINT
5
166
100
AcDbEntity
8
Defpoints
62
0
6
ByLayer
370
-1
48
1
60
0
100
AcDbPoint
10
3
20
-35.952229
30
0
39
0
210
0
220
0
230
1
50
360
0
ENDBLK
5
15D
100
AcDbEntity
8
0
100
AcDbBlockEnd
0
BLOCK
5
16E
100
AcDbEntity
8
0
100
AcDbBlockBegin
2
_U1
70
0
10
0
20
0
30
0
3
_U1
0
MTEXT
5
168
100
AcDbEntity
8
SK2
62
256
6
ByLayer
370
18
48
1
60
0
100
AcDbMText
10
38.76763
20
-35.067115
30
0
210
0
220
0
230
1
1
\W0.7468;80.50
40
3
41
0
44
1.084337
50
0
71
7
72
5
7
iso_b_vert
0
LINE
5
169
100
AcDbEntity
8
SK2
62
256
6
ByLayer
370
13
48
1
60
0
100
AcDbLine
10
83.5
20
-1.5875
30
0
11
83.5
21
-37.952229
31
0
39
0
210
0
220
0
230
1
0
LINE
5
16A
100
AcDbEntity
8
SK2
62
256
6
ByLayer
370
13
48
1
60
0
100
AcDbLine
10
3
20
-9.7235
30
0
11
3
21
-37.952229
31
0
39
0
210
0
220
0
230
1
0
LINE
5
16B
100
AcDbEntity
8
SK2
62
256
6
ByLayer
370
13
48
1
60
0
100
AcDbLine
10
83.5
20
-35.952229
30
0
11
3
21
-35.952229
31
0
39
0
210
0
220
0
230
1
0
SOLID
5
16C
100
AcDbEntity
8
SK2
62
256
6
ByLayer
370
18
48
1
60
0
100
AcDbTrace
10
83.5
20
-35.952229
30
0
11
80.000002
21
-36.413013
31
0
12
79.999998
22
-35.491446
32
0
13
79.999998
23
-35.491446
33
0
39
0
210
0
220
0
230
1
0
SOLID
5
16D
100
AcDbEntity
8
SK2
62
256
6
ByLayer
370
18
48
1
60
0
100
AcDbTrace
10
3
20
-35.952229
30
0
11
6.499998
21
-35.491446
31
0
12
6.500002
22
-36.413013
32
0
13
6.500002
23
-36.413013
33
0
39
0
210
0
220
0
230
1
0
ENDBLK
5
16F
100
AcDbEntity
8
0
100
AcDbBlockEnd
0
BLOCK
5
174
100
AcDbEntity
8
0
100
AcDbBlockBegin
2
*D5
70
1
10
0
20
0
30
0
3
*D5
0
LINE
5
176
100
AcDbEntity
8
0
62
256
6
ByLayer
370
-2
48
1
60
0
100
AcDbLine
10
-48
20
-11.1125
30
0
11
-48
21
-37.952229
31
0
39
0
210
0
220
0
230
1
0
LINE
5
177
100
AcDbEntity
8
0
62
256
6
ByLayer
370
-2
48
1
60
0
100
AcDbLine
10
0
20
-11.1125
30
0
11
0
21
-37.952229
31
0
39
0
210
0
220
0
230
1
0
LINE
5
178
100
AcDbEntity
8
0
62
256
6
ByLayer
370
-2
48
1
60
0
100
AcDbLine
10
-44.5
20
-35.952229
30
0
11
-3.5
21
-35.952229
31
0
39
0
210
0
220
0
230
1
0
SOLID
5
179
100
AcDbEntity
8
0
62
256
6
ByLayer
370
-1
48
1
60
0
100
AcDbTrace
10
-44.5
20
-35.368896
30
0
11
-44.5
21
-36.535563
31
0
12
-48
22
-35.952229
32
0
13
-48
23
-35.952229
33
0
39
0
210
0
220
0
230
1
0
SOLID
5
17A
100
AcDbEntity
8
0
62
256
6
ByLayer
370
-1
48
1
60
0
100
AcDbTrace
10
-3.5
20
-36.535563
30
0
11
-3.5
21
-35.368896
31
0
12
0
22
-35.952229
32
0
13
0
23
-35.952229
33
0
39
0
210
0
220
0
230
1
0
MTEXT
5
17B
100
AcDbEntity
8
0
62
256
6
ByLayer
370
18
48
1
60
0
100
AcDbMText
10
-24
20
-29.952229
30
0
210
0
220
0
230
1
1
\A1;48
40
3
41
0
44
1
50
0
71
5
72
5
7
iso_b_vert
0
POINT
5
17C
100
AcDbEntity
8
Defpoints
62
0
6
ByLayer
370
-1
48
1
60
0
100
AcDbPoint
10
-48
20
-9.525
30
0
39
0
210
0
220
0
230
1
50
360
0
POINT
5
17D
100
AcDbEntity
8
Defpoints
62
0
6
ByLayer
370
-1
48
1
60
0
100
AcDbPoint
10
0
20
-9.525
30
0
39
0
210
0
220
0
230
1
50
360
0
POINT
5
17E
100
AcDbEntity
8
Defpoints
62
0
6
ByLayer
370
-1
48
1
60
0
100
AcDbPoint
10
0
20
-35.952229
30
0
39
0
210
0
220
0
230
1
50
360
0
ENDBLK
5
175
100
AcDbEntity
8
0
100
AcDbBlockEnd
0
BLOCK
5
186
100
AcDbEntity
8
0
100
AcDbBlockBegin
2
_U2
70
0
10
0
20
0
30
0
3
_U2
0
MTEXT
5
180
100
AcDbEntity
8
SK2
62
256
6
ByLayer
370
18
48
1
60
0
100
AcDbMText
10
-28.640313
20
-35.067115
30
0
210
0
220
0
230
1
1
\W0.7694;48.00
40
3
41
0
44
1.084337
50
0
71
7
72
5
7
iso_b_vert
0
LINE
5
181
100
AcDbEntity
8
SK2
62
256
6
ByLayer
370
13
48
1
60
0
100
AcDbLine
10
-48
20
-11.1125
30
0
11
-48
21
-37.952229
31
0
39
0
210
0
220
0
230
1
0
LINE
5
182
100
AcDbEntity
8
SK2
62
256
6
ByLayer
370
13
48
1
60
0
100
AcDbLine
10
0
20
-11.1125
30
0
11
0
21
-37.952229
31
0
39
0
210
0
220
0
230
1
0
LINE
5
183
100
AcDbEntity
8
SK2
62
256
6
ByLayer
370
13
48
1
60
0
100
AcDbLine
10
-48
20
-35.952229
30
0
11
0
21
-35.952229
31
0
39
0
210
0
220
0
230
1
0
SOLID
5
184
100
AcDbEntity
8
SK2
62
256
6
ByLayer
370
18
48
1
60
0
100
AcDbTrace
10
-48
20
-35.952229
30
0
11
-44.500002
21
-35.491446
31
0
12
-44.499998
22
-36.413013
32
0
13
-44.499998
23
-36.413013
33
0
39
0
210
0
220
0
230
1
0
SOLID
5
185
100
AcDbEntity
8
SK2
62
256
6
ByLayer
370
18
48
1
60
0
100
AcDbTrace
10
0
20
-35.952229
30
0
11
-3.499998
21
-36.413013
31
0
12
-3.500002
22
-35.491446
32
0
13
-3.500002
23
-35.491446
33
0
39
0
210
0
220
0
230
1
0
ENDBLK
5
187
100
AcDbEntity
8
0
100
AcDbBlockEnd
0
BLOCK
5
18C
100
AcDbEntity
8
0
100
AcDbBlockBegin
2
*D7
70
1
10
0
20
0
30
0
3
*D7
0
LINE
5
18E
100
AcDbEntity
8
0
62
256
6
ByLayer
370
-2
48
1
60
0
100
AcDbLine
10
83.5
20
1.5875
30
0
11
83.5
21
34.952229
31
0
39
0
210
0
220
0
230
1
0
LINE
5
18F
100
AcDbEntity
8
0
62
256
6
ByLayer
370
-2
48
1
60
0
100
AcDbLine
10
24
20
9.7235
30
0
11
24
21
34.952229
31
0
39
0
210
0
220
0
230
1
0
LINE
5
190
100
AcDbEntity
8
0
62
256
6
ByLayer
370
-2
48
1
60
0
100
AcDbLine
10
80
20
32.952229
30
0
11
27.5
21
32.952229
31
0
39
0
210
0
220
0
230
1
0
SOLID
5
191
100
AcDbEntity
8
0
62
256
6
ByLayer
370
-1
48
1
60
0
100
AcDbTrace
10
80
20
32.368896
30
0
11
80
21
33.535563
31
0
12
83.5
22
32.952229
32
0
13
83.5
23
32.952229
33
0
39
0
210
0
220
0
230
1
0
SOLID
5
192
100
AcDbEntity
8
0
62
256
6
ByLayer
370
-1
48
1
60
0
100
AcDbTrace
10
27.5
20
33.535563
30
0
11
27.5
21
32.368896
31
0
12
24
22
32.952229
32
0
13
24
23
32.952229
33
0
39
0
210
0
220
0
230
1
0
MTEXT
5
193
100
AcDbEntity
8
0
62
256
6
ByLayer
370
18
48
1
60
0
100
AcDbMText
10
53.75
20
38.952229
30
0
210
0
220
0
230
1
1
\A1;59.5
40
3
41
0
44
1
50
0
71
5
72
5
7
iso_b_vert
0
POINT
5
194
100
AcDbEntity
8
Defpoints
62
0
6
ByLayer
370
-1
48
1
60
0
100
AcDbPoint
10
83.5
20
0
30
0
39
0
210
0
220
0
230
1
50
360
0
POINT
5
195
100
AcDbEntity
8
Defpoints
62
0
6
ByLayer
370
-1
48
1
60
0
100
AcDbPoint
10
24
20
8.136
30
0
39
0
210
0
220
0
230
1
50
360
0
POINT
5
196
100
AcDbEntity
8
Defpoints
62
0
6
ByLayer
370
-1
48
1
60
0
100
AcDbPoint
10
24
20
32.952229
30
0
39
0
210
0
220
0
230
1
50
360
0
ENDBLK
5
18D
100
AcDbEntity
8
0
100
AcDbBlockEnd
0
BLOCK
5
19E
100
AcDbEntity
8
0
100
AcDbBlockBegin
2
_U3
70
0
10
0
20
0
30
0
3
_U3
0
MTEXT
5
198
100
AcDbEntity
8
SK2
62
256
6
ByLayer
370
18
48
1
60
0
100
AcDbMText
10
49.26763
20
33.837344
30
0
210
0
220
0
230
1
1
\W0.7468;59.50
40
3
41
0
44
1.084337
50
0
71
7
72
5
7
iso_b_vert
0
LINE
5
199
100
AcDbEntity
8
SK2
62
256
6
ByLayer
370
13
48
1
60
0
100
AcDbLine
10
83.5
20
1.5875
30
0
11
83.5
21
34.952229
31
0
39
0
210
0
220
0
230
1
0
LINE
5
19A
100
AcDbEntity
8
SK2
62
256
6
ByLayer
370
13
48
1
60
0
100
AcDbLine
10
24
20
9.7235
30
0
11
24
21
34.952229
31
0
39
0
210
0
220
0
230
1
0
LINE
5
19B
100
AcDbEntity
8
SK2
62
256
6
ByLayer
370
13
48
1
60
0
100
AcDbLine
10
83.5
20
32.952229
30
0
11
24
21
32.952229
31
0
39
0
210
0
220
0
230
1
0
SOLID
5
19C
100
AcDbEntity
8
SK2
62
256
6
ByLayer
370
18
48
1
60
0
100
AcDbTrace
10
83.5
20
32.952229
30
0
11
80.000002
21
32.491446
31
0
12
79.999998
22
33.413013
32
0
13
79.999998
23
33.413013
33
0
39
0
210
0
220
0
230
1
0
SOLID
5
19D
100
AcDbEntity
8
SK2
62
256
6
ByLayer
370
18
48
1
60
0
100
AcDbTrace
10
24
20
32.952229
30
0
11
27.499998
21
33.413013
31
0
12
27.500002
22
32.491446
32
0
13
27.500002
23
32.491446
33
0
39
0
210
0
220
0
230
1
0
ENDBLK
5
19F
100
AcDbEntity
8
0
100
AcDbBlockEnd
0
ENDSEC
0
SECTION
2
ENTITIES
0
ARC
5
C1
100
AcDbEntity
8
SK2
62
256
6
ByLayer
370
13
48
1
60
0
100
AcDbCircle
39
0
10
83.5
20
0
30
0
40
19
210
0
220
0
230
1
100
AcDbArc
50
290
51
70
0
ELLIPSE
5
C2
100
AcDbEntity
8
SK1
62
256
6
ByLayer
370
18
48
1
60
0
100
AcDbEllipse
10
-32.117794
20
0
30
0
11
-1.74965632802376E-15
21
-9.52500000000022
31
0
210
0
220
0
230
1
40
0.932515
41
-1.99646903598621
42
-1.14512361760358
0
ELLIPSE
5
C3
100
AcDbEntity
8
SK1
62
256
6
ByLayer
370
18
48
1
60
0
100
AcDbEllipse
10
-15.214312
20
0
30
0
11
10.2143119629885
21
-1.15738337235711E-14
31
0
210
0
220
0
230
1
40
0.932515
41
-0.425672709191254
42
0.425672709191253
0
POINT
5
70
100
AcDbEntity
8
81
62
256
6
ByLayer
370
18
48
1
60
0
100
AcDbPoint
10
83.5
20
0
30
0
39
0
210
0
220
0
230
1
50
360
0
POINT
5
72
100
AcDbEntity
8
80
62
256
6
ByLayer
370
18
48
1
60
0
100
AcDbPoint
10
0
20
0
30
0
39
0
210
0
220
0
230
1
50
360
0
POINT
5
74
100
AcDbEntity
8
1
62
256
6
ByLayer
370
18
48
1
60
1
100
AcDbPoint
10
-48
20
-9.525
30
0
39
0
210
0
220
0
230
1
50
360
0
POINT
5
76
100
AcDbEntity
8
1
62
256
6
ByLayer
370
18
48
1
60
1
100
AcDbPoint
10
83.5
20
0
30
0
39
0
210
0
220
0
230
1
50
360
0
POINT
5
77
100
AcDbEntity
8
1
62
256
6
ByLayer
370
18
48
1
60
1
100
AcDbPoint
10
83.5
20
0
30
0
39
0
210
0
220
0
230
1
50
360
0
POINT
5
78
100
AcDbEntity
8
1
62
256
6
ByLayer
370
18
48
1
60
1
100
AcDbPoint
10
3
20
-8.136
30
0
39
0
210
0
220
0
230
1
50
360
0
POINT
5
79
100
AcDbEntity
8
1
62
256
6
ByLayer
370
18
48
1
60
1
100
AcDbPoint
10
-48
20
-9.525
30
0
39
0
210
0
220
0
230
1
50
360
0
POINT
5
7A
100
AcDbEntity
8
1
62
256
6
ByLayer
370
18
48
1
60
1
100
AcDbPoint
10
0
20
-9.525
30
0
39
0
210
0
220
0
230
1
50
360
0
POINT
5
7B
100
AcDbEntity
8
1
62
256
6
ByLayer
370
18
48
1
60
1
100
AcDbPoint
10
83.5
20
0
30
0
39
0
210
0
220
0
230
1
50
360
0
POINT
5
7C
100
AcDbEntity
8
1
62
256
6
ByLayer
370
18
48
1
60
1
100
AcDbPoint
10
24
20
8.136
30
0
39
0
210
0
220
0
230
1
50
360
0
SPLINE
5
C4
100
AcDbEntity
8
1
62
256
6
ByLayer
370
18
48
1
60
0
100
AcDbSpline
70
4
71
3
72
22
73
18
40
0
40
0
40
0
40
0
40
0.0625000000000029
40
0.0625000000000029
40
0.125000000000006
40
0.125000000000006
40
0.250000000000003
40
0.250000000000003
40
0.499999999999998
40
0.499999999999998
40
0.562499999999999
40
0.562499999999999
40
0.625
40
0.625
40
0.750000000000001
40
0.750000000000001
40
1
40
1
40
1
40
1
41
1
10
80.5387381740151
20
-1.1613248834966
30
0
41
1
10
80.3585100155702
20
-1.09639408778358
30
0
41
1
10
80.1783523698617
20
-1.03130738476045
30
0
41
1
10
79.81818134718
20
-0.900813533505755
30
0
41
1
10
79.6381677484002
20
-0.835407068963917
30
0
41
1
10
79.0981762407763
20
-0.639172426302451
30
0
41
1
10
78.7382005087949
20
-0.50845968783068
30
0
41
1
10
77.6584039055563
20
-0.116438186481218
30
0
41
1
10
76.9387017424734
20
0.144722765057225
30
0
41
1
10
76.0395613440297
20
0.471725417803753
30
0
41
1
10
75.8597607055098
20
0.537161855054507
30
0
41
1
10
75.500193779723
20
0.668049350617878
30
0
41
1
10
75.3204221831943
20
0.733485706360966
30
0
41
1
10
74.7809615290755
20
0.929272568214628
30
0
41
1
10
74.4211495940458
20
1.05916461868432
30
0
41
1
10
73.3412989578093
20
1.44722184842783
30
0
41
1
10
72.6208259677932
20
1.70371648912959
30
0
41
1
10
71.9
20
1.9585948071973
30
0
0
SPLINE
5
C5
100
AcDbEntity
8
1
62
256
6
ByLayer
370
18
48
1
60
0
100
AcDbSpline
70
4
71
3
72
83
73
79
40
0
40
0
40
0
40
0
40
0.0312499999999993
40
0.0312499999999993
40
0.0624999999999985
40
0.0624999999999985
40
0.124999999999999
40
0.124999999999999
40
0.140625
40
0.140625
40
0.156250000000001
40
0.156250000000001
40
0.187500000000003
40
0.187500000000003
40
0.250000000000006
40
0.250000000000006
40
0.281250000000007
40
0.281250000000007
40
0.296875000000007
40
0.296875000000007
40
0.312500000000007
40
0.312500000000007
40
0.343750000000008
40
0.343750000000008
40
0.375000000000009
40
0.375000000000009
40
0.40625000000001
40
0.40625000000001
40
0.437500000000011
40
0.437500000000011
40
0.453125000000011
40
0.453125000000011
40
0.468750000000011
40
0.468750000000011
40
0.500000000000012
40
0.500000000000012
40
0.531250000000012
40
0.531250000000012
40
0.539062500000012
40
0.539062500000012
40
0.546875000000012
40
0.562500000000011
40
0.562500000000011
40
0.59375000000001
40
0.59375000000001
40
0.625000000000009
40
0.625000000000009
40
0.640625000000008
40
0.640625000000008
40
0.656250000000006
40
0.656250000000006
40
0.687500000000002
40
0.687500000000002
40
0.718749999999997
40
0.718749999999997
40
0.726562499999997
40
0.726562499999997
40
0.734374999999997
40
0.734374999999997
40
0.749999999999996
40
0.749999999999996
40
0.781249999999995
40
0.781249999999995
40
0.812499999999994
40
0.843749999999993
40
0.843749999999993
40
0.851562499999994
40
0.851562499999994
40
0.859374999999995
40
0.874999999999996
40
0.874999999999996
40
0.906249999999997
40
0.937499999999998
40
0.968749999999999
40
0.968749999999999
40
0.984374999999999
40
0.984374999999999
40
1
40
1
40
1
40
1
41
1
10
80.5387381740102
20
7.87762466681485
30
0
41
1
10
80.589552725909
20
7.75163181788398
30
0
41
1
10
80.6404471955434
20
7.62374763863218
30
0
41
1
10
80.7424823378695
20
7.36449499083673
30
0
41
1
10
80.7936229207892
20
7.23312585841049
30
0
41
1
10
80.9475048518217
20
6.83411479350806
30
0
41
1
10
81.0507203478768
20
6.56159720897131
30
0
41
1
10
81.1806352033759
20
6.21341451589504
30
0
41
1
10
81.206661829808
20
6.14339892724294
30
0
41
1
10
81.2588001701555
20
6.00261577427591
30
0
41
1
10
81.2849218256929
20
5.93182029773271
30
0
41
1
10
81.3629418431427
20
5.71958104092005
30
0
41
1
10
81.4146525374313
20
5.5778676366526
30
0
41
1
10
81.5688129278161
20
5.15206106501174
30
0
41
1
10
81.6703430786325
20
4.86732159469514
30
0
41
1
10
81.8197742942958
20
4.43859597668072
30
0
41
1
10
81.8690963796425
20
4.2954137387681
30
0
41
1
10
81.9420715721138
20
4.08013352032145
30
0
41
1
10
81.9662273197969
20
4.00828847384958
30
0
41
1
10
82.0141344052322
20
3.86440499352986
30
0
41
1
10
82.0378954100513
20
3.79233505938282
30
0
41
1
10
82.1081065828064
20
3.57684880534623
30
0
41
1
10
82.1536116766044
20
3.43381639794546
30
0
41
1
10
82.2411927210601
20
3.14875729334955
30
0
41
1
10
82.2832743640838
20
3.00673152957637
30
0
41
1
10
82.362737935818
20
2.72338449514567
30
0
41
1
10
82.4001271337698
20
2.58206344580907
30
0
41
1
10
82.468285348335
20
2.29974432638858
30
0
41
1
10
82.4990569332055
20
2.15874550590533
30
0
41
1
10
82.538192054355
20
1.9471427735123
30
0
41
1
10
82.5500704722326
20
1.87647764943009
30
0
41
1
10
82.57087583563
20
1.7364406874469
30
0
41
1
10
82.5798323612573
20
1.6669231895703
30
0
41
1
10
82.6019267275479
20
1.45993266294778
30
0
41
1
10
82.6102423183362
20
1.3240145641596
30
0
41
1
10
82.6124930437193
20
1.05681576945426
30
0
41
1
10
82.6064151693387
20
0.925537317097138
30
0
41
1
10
82.5898868114621
20
0.764765550822716
30
0
41
1
10
82.5861353068829
20
0.732750984338225
30
0
41
1
10
82.577781157405
20
0.669183618509379
30
0
41
1
10
82.5640184040668
20
0.574847972444701
30
0
41
1
10
82.546774735793
20
0.483520753548845
30
0
41
1
10
82.5082260140965
20
0.304779538990999
30
0
41
1
10
82.4771339929089
20
0.190829084265346
30
0
41
1
10
82.4069711887195
20
-0.0270628389954766
30
0
41
1
10
82.3679062968229
20
-0.131007259593019
30
0
41
1
10
82.3048834458433
20
-0.279534659553434
30
0
41
1
10
82.2831018020115
20
-0.327861669378223
30
0
41
1
10
82.2386552309198
20
-0.421205934290384
30
0
41
1
10
82.2159464330205
20
-0.46633368197601
30
0
41
1
10
82.1466278168196
20
-0.59722336785876
30
0
41
1
10
82.0988415674193
20
-0.678504251485947
30
0
41
1
10
82.0010493388006
20
-0.829511328874872
30
0
41
1
10
81.9510367380161
20
-0.899235337773405
30
0
41
1
10
81.8874348807345
20
-0.979182070507335
30
0
41
1
10
81.874659394852
20
-0.994810156889969
30
0
41
1
10
81.8490029546409
20
-1.02534087299893
30
0
41
1
10
81.8361112895723
20
-1.04025483319589
30
0
41
1
10
81.7974456892146
20
-1.08372434075676
30
0
41
1
10
81.7716384045657
20
-1.11106240688113
30
0
41
1
10
81.6941662740575
20
-1.18826310350553
30
0
41
1
10
81.6424549957188
20
-1.23332217017847
30
0
41
1
10
81.5389999907796
20
-1.31095153822164
30
0
41
1
10
81.4355100456954
20
-1.3760895385758
30
0
41
1
10
81.3319211423305
20
-1.41628874065103
30
0
41
1
10
81.2670938156497
20
-1.4334545658208
30
0
41
1
10
81.2541135656852
20
-1.43649045400102
30
0
41
1
10
81.2282565253892
20
-1.44173776817218
30
0
41
1
10
81.1895898767914
20
-1.44838331517451
30
0
41
1
10
81.1512672604956
20
-1.4513936822714
30
0
41
1
10
81.075047072945
20
-1.45265035059432
30
0
41
1
10
80.9745532898173
20
-1.44163846845456
30
0
41
1
10
80.8266817555616
20
-1.38775122375787
30
0
41
1
10
80.7296659622547
20
-1.32687058266691
30
0
41
1
10
80.6573601050237
20
-1.27164718511514
30
0
41
1
10
80.6333933555406
20
-1.25168597042085
30
0
41
1
10
80.5858261800602
20
-1.20877046828272
30
0
41
1
10
80.5622065774821
20
-1.1858016946729
30
0
41
1
10
80.5387381740102
20
-1.16132488349484
30
0
0
SPLINE
5
C6
100
AcDbEntity
8
1
62
256
6
ByLayer
370
18
48
1
60
0
100
AcDbSpline
70
4
71
3
72
18
73
14
40
0
40
0
40
0
40
0
40
0.0437943047622642
40
0.0437943047622642
40
0.235035443809806
40
0.235035443809806
40
0.617517721904883
40
0.617517721904883
40
0.713138291428659
40
0.713138291428659
40
0.808758860952435
40
0.808758860952435
40
1
40
1
40
1
40
1
41
1
10
74.8933664913297
20
8.13498354014897
30
0
41
1
10
74.9757063008781
20
8.13499787954638
30
0
41
1
10
75.0580416448441
20
8.13484517188394
30
0
41
1
10
75.4999343657023
20
8.13312827561435
30
0
41
1
10
75.859630227967
20
8.12855742763725
30
0
41
1
10
76.9388996068079
20
8.10545410937607
30
0
41
1
10
77.6586736865742
20
8.0775732761729
30
0
41
1
10
78.5582703834888
20
8.02685297827256
30
0
41
1
10
78.7381798148912
20
8.01590994930376
30
0
41
1
10
79.0979887408059
20
7.99241489280678
30
0
41
1
10
79.2778956157
20
7.9798647555823
30
0
41
1
10
79.817873981452
20
7.93994369737146
30
0
41
1
10
80.1781905985016
20
7.91030846737124
30
0
41
1
10
80.5387381740151
20
7.87762466681443
30
0
0
SPLINE
5
C7
100
AcDbEntity
8
1
62
256
6
ByLayer
370
18
48
1
60
0
100
AcDbSpline
70
4
71
3
72
36
73
32
40
0
40
0
40
0
40
0
40
0.0240093421616877
40
0.0240093421616877
40
0.0890753860175748
40
0.0890753860175748
40
0.219207473729349
40
0.219207473729349
40
0.284273517585235
40
0.284273517585235
40
0.316806539513179
40
0.316806539513179
40
0.349339561441123
40
0.349339561441123
40
0.414405605297009
40
0.414405605297009
40
0.479471649152896
40
0.479471649152896
40
0.544537693008783
40
0.544537693008783
40
0.577070714936728
40
0.577070714936728
40
0.609603736864673
40
0.609603736864673
40
0.739735824576449
40
0.739735824576449
40
0.869867912288226
40
0.869867912288226
40
0.934933956144113
40
0.934933956144113
40
1
40
1
40
1
40
1
41
1
10
58.5771253072574
20
5.63738959670476
30
0
41
1
10
58.6837502029103
20
5.66248483188289
30
0
41
1
10
58.7903803237131
20
5.68735494933352
30
0
41
1
10
59.1859937789746
20
5.77880797281406
30
0
41
1
10
59.4749896536386
20
5.84401418089925
30
0
41
1
10
60.3419268527596
20
6.03507605067762
30
0
41
1
10
60.9198390365533
20
6.15634935243904
30
0
41
1
10
61.7863570124491
20
6.32954783122779
30
0
41
1
10
62.0751114387274
20
6.38586701510783
30
0
41
1
10
62.5082146289268
20
6.46803208979256
30
0
41
1
10
62.6525904795146
20
6.49501408463354
30
0
41
1
10
62.9414314734608
20
6.54805456315958
30
0
41
1
10
63.0858896521086
20
6.57412454083456
30
0
41
1
10
63.5193549005456
20
6.65102629955538
30
0
41
1
10
63.8084477240312
20
6.70055811059788
30
0
41
1
10
64.3868163489669
20
6.79623820338594
30
0
41
1
10
64.6761549402885
20
6.84239214357211
30
0
41
1
10
65.2546516206596
20
6.93131315169458
30
0
41
1
10
65.543782972149
20
6.97407778455855
30
0
41
1
10
65.9772669282732
20
7.03570710705463
30
0
41
1
10
66.1217255579234
20
7.05583091082715
30
0
41
1
10
66.410566599213
20
7.09523824069527
30
0
41
1
10
66.5549514840301
20
7.11451820915545
30
0
41
1
10
67.2768814140888
20
7.20858956634135
30
0
41
1
10
67.8546894508929
20
7.27616207097435
30
0
41
1
10
69.0103771677557
20
7.39669934688382
30
0
41
1
10
69.5882726140404
20
7.44964774997948
30
0
41
1
10
70.4548995907429
20
7.51816106262973
30
0
41
1
10
70.7436903131947
20
7.53919892081518
30
0
41
1
10
71.3215893852708
20
7.57735454307269
30
0
41
1
10
71.6107282264541
20
7.59446609775082
30
0
41
1
10
71.8999999999998
20
7.60966225242359
30
0
0
SPLINE
5
C8
100
AcDbEntity
8
1
62
256
6
ByLayer
370
18
48
1
60
0
100
AcDbSpline
70
4
71
3
72
65
73
61
40
0
40
0
40
0
40
0
40
0.0305754293671869
40
0.0305754293671869
40
0.0611508587343739
40
0.0611508587343739
40
0.122301717468747
40
0.122301717468747
40
0.152877146835933
40
0.152877146835933
40
0.168164861519525
40
0.168164861519525
40
0.183452576203118
40
0.183452576203118
40
0.244603434937492
40
0.244603434937492
40
0.275178864304679
40
0.275178864304679
40
0.305754293671867
40
0.305754293671867
40
0.336329723039055
40
0.336329723039055
40
0.351617437722648
40
0.351617437722648
40
0.366905152406242
40
0.397480581773428
40
0.397480581773428
40
0.428056011140615
40
0.428056011140615
40
0.443343725824209
40
0.443343725824209
40
0.458631440507802
40
0.458631440507802
40
0.48920686987499
40
0.48920686987499
40
0.550357728609365
40
0.550357728609365
40
0.580933157976552
40
0.580933157976552
40
0.611508587343739
40
0.611508587343739
40
0.672659446078113
40
0.672659446078113
40
0.7032348754453
40
0.7032348754453
40
0.718522590128893
40
0.718522590128893
40
0.733810304812487
40
0.733810304812487
40
0.794961163546863
40
0.794961163546863
40
0.825536592914052
40
0.825536592914052
40
0.856112022281241
40
0.856112022281241
40
0.91726288101562
40
0.91726288101562
40
0.978413739749999
40
0.978413739749999
40
1
40
1
40
1
40
1
41
1
10
71.9
20
1.70789429523256
30
0
41
1
10
71.5925842651905
20
1.81131383652729
30
0
41
1
10
71.2854193637543
20
1.91447844824029
30
0
41
1
10
70.6711776513258
20
2.11909925086152
30
0
41
1
10
70.3641083246538
20
2.22058109129324
30
0
41
1
10
69.4431020369568
20
2.52270723764832
30
0
41
1
10
68.8293538972262
20
2.72100339451484
30
0
41
1
10
67.9092802790348
20
3.01422354259128
30
0
41
1
10
67.6026928728382
20
3.11129039423287
30
0
41
1
10
67.1429176279696
20
3.25573402476002
30
0
41
1
10
66.9896702836182
20
3.30367139832848
30
0
41
1
10
66.6831306003593
20
3.39894858524806
30
0
41
1
10
66.529842087714
20
3.44629880249292
30
0
41
1
10
65.7633177973472
20
3.68164496805755
30
0
41
1
10
65.1498411212744
20
3.86544628841153
30
0
41
1
10
64.2293793514594
20
4.13480920024583
30
0
41
1
10
63.9225207584357
20
4.22354631487551
30
0
41
1
10
63.3087475263849
20
4.39895101970643
30
0
41
1
10
63.0018676371678
20
4.48570008830049
30
0
41
1
10
62.3877358794946
20
4.65634789916939
30
0
41
1
10
62.0804713404395
20
4.74022009998748
30
0
41
1
10
61.6193038596049
20
4.86392541260653
30
0
41
1
10
61.4655314449836
20
4.90481008844014
30
0
41
1
10
61.1581008688414
20
4.98582983246851
30
0
41
1
10
60.6970509094683
20
5.10625526432517
30
0
41
1
10
60.2362993137702
20
5.22340338577803
30
0
41
1
10
59.6222622404523
20
5.37675445257929
30
0
41
1
10
59.3154004941299
20
5.45202196138422
30
0
41
1
10
58.8553156779304
20
5.56273274443348
30
0
41
1
10
58.7019839690179
20
5.59926099504307
30
0
41
1
10
58.3953122525375
20
5.67143050509168
30
0
41
1
10
58.2419720230541
20
5.70707190495469
30
0
41
1
10
57.7819448031748
20
5.81268720111274
30
0
41
1
10
57.4752528271476
20
5.88135599322669
30
0
41
1
10
56.5551897020416
20
6.08223825200818
30
0
41
1
10
55.9418263834451
20
6.20933268378144
30
0
41
1
10
55.0219673943566
20
6.38994787760106
30
0
41
1
10
54.7154122940289
20
6.4485285435793
30
0
41
1
10
54.1020922556747
20
6.56187228000488
30
0
41
1
10
53.7952901027035
20
6.6165827621524
30
0
41
1
10
52.8745107591731
20
6.77495517947287
30
0
41
1
10
52.260152210696
20
6.872858930473
30
0
41
1
10
51.3380078930694
20
7.00835489519528
30
0
41
1
10
51.0305132360486
20
7.05163154224243
30
0
41
1
10
50.5697287096449
20
7.11358418041524
30
0
41
1
10
50.4161814303957
20
7.13374039386815
30
0
41
1
10
50.1091188066315
20
7.17299349516082
30
0
41
1
10
49.9555985886578
20
7.19208567473035
30
0
41
1
10
49.1880554793306
20
7.2848964735233
30
0
41
1
10
48.5742208482168
20
7.35070069095164
30
0
41
1
10
47.6539027795862
20
7.43698848903452
30
0
41
1
10
47.34720461525
20
7.46367907188096
30
0
41
1
10
46.733984218628
20
7.51290993619813
30
0
41
1
10
46.4274937625761
20
7.53546570549824
30
0
41
1
10
45.5079503592986
20
7.59664913536463
30
0
41
1
10
44.8945967893796
20
7.6287049486694
30
0
41
1
10
43.6674289837026
20
7.67564723945236
30
0
41
1
10
43.0536229257157
20
7.69053621574761
30
0
41
1
10
42.2229554796086
20
7.69890626733121
30
0
41
1
10
42.0062005893076
20
7.69999843133246
30
0
41
1
10
41.789351539215
20
7.69999918644331
30
0
0
SPLINE
5
C9
100
AcDbEntity
8
1
62
256
6
ByLayer
370
18
48
1
60
0
100
AcDbSpline
70
4
71
3
72
12
73
8
40
0
40
0
40
0
40
0
40
0.721761025078441
40
0.721761025078441
40
0.902201281348048
40
0.902201281348048
40
1
40
1
40
1
40
1
41
1
10
71.9
20
-8.06171639302008
30
0
41
1
10
72.621045396384
20
-8.09681550368515
30
0
41
1
10
73.3416158124401
20
-8.11927021913661
30
0
41
1
10
74.2413013278506
20
-8.1316491398556
30
0
41
1
10
74.421186182695
20
-8.13333699294878
30
0
41
1
10
74.6984783157794
20
-8.13471566348122
30
0
41
1
10
74.7959259162037
20
-8.1349665722029
30
0
41
1
10
74.8933672628459
20
-8.13498354028337
30
0
0
SPLINE
5
CA
100
AcDbEntity
8
1
62
256
6
ByLayer
370
18
48
1
60
0
100
AcDbSpline
70
4
71
3
72
124
73
120
40
0
40
0
40
0
40
0
40
0.0312500000000026
40
0.0312500000000026
40
0.0625000000000052
40
0.0625000000000052
40
0.0703125000000056
40
0.0703125000000056
40
0.0781250000000061
40
0.0781250000000061
40
0.0937500000000064
40
0.0937500000000064
40
0.125000000000007
40
0.125000000000007
40
0.140625000000007
40
0.140625000000007
40
0.156250000000007
40
0.156250000000007
40
0.171875000000007
40
0.171875000000007
40
0.187500000000007
40
0.187500000000007
40
0.218750000000006
40
0.218750000000006
40
0.234375000000006
40
0.234375000000006
40
0.250000000000006
40
0.250000000000006
40
0.281250000000005
40
0.281250000000005
40
0.296875000000004
40
0.296875000000004
40
0.304687500000004
40
0.304687500000004
40
0.312500000000004
40
0.312500000000004
40
0.343750000000003
40
0.343750000000003
40
0.359375000000003
40
0.359375000000003
40
0.367187500000003
40
0.367187500000003
40
0.375000000000003
40
0.375000000000003
40
0.382812500000002
40
0.382812500000002
40
0.390625000000002
40
0.390625000000002
40
0.406250000000002
40
0.406250000000002
40
0.4375
40
0.4375
40
0.4453125
40
0.4453125
40
0.453125
40
0.453125
40
0.46875
40
0.46875
40
0.499999999999999
40
0.499999999999999
40
0.515624999999999
40
0.515624999999999
40
0.523437499999999
40
0.523437499999999
40
0.531249999999999
40
0.531249999999999
40
0.546874999999999
40
0.546874999999999
40
0.5625
40
0.5625
40
0.593750000000001
40
0.593750000000001
40
0.609375000000002
40
0.609375000000002
40
0.625000000000003
40
0.625000000000003
40
0.656250000000004
40
0.656250000000004
40
0.671875000000004
40
0.671875000000004
40
0.687500000000005
40
0.687500000000005
40
0.718750000000006
40
0.718750000000006
40
0.734375000000006
40
0.734375000000006
40
0.750000000000007
40
0.750000000000007
40
0.757812500000007
40
0.757812500000007
40
0.765625000000008
40
0.765625000000008
40
0.781250000000008
40
0.781250000000008
40
0.812500000000008
40
0.812500000000008
40
0.828125000000007
40
0.828125000000007
40
0.835937500000007
40
0.835937500000007
40
0.843750000000007
40
0.843750000000007
40
0.859375000000008
40
0.859375000000008
40
0.875000000000008
40
0.875000000000008
40
0.890625000000008
40
0.890625000000008
40
0.898437500000008
40
0.898437500000008
40
0.906250000000008
40
0.906250000000008
40
0.937500000000005
40
0.937500000000005
40
0.968750000000002
40
0.968750000000002
40
0.984375000000001
40
0.984375000000001
40
1
40
1
40
1
40
1
41
1
10
16.4579846464234
20
6.72791339734891
30
0
41
1
10
17.036085076467
20
6.63048795596762
30
0
41
1
10
17.6140899265295
20
6.52700560340745
30
0
41
1
10
18.7695158000957
20
6.30764149514926
30
0
41
1
10
19.3469394056106
20
6.19176210122544
30
0
41
1
10
20.0681252905919
20
6.03871324783705
30
0
41
1
10
20.2123320420425
20
6.00769102946234
30
0
41
1
10
20.5006808976969
20
5.94480954933155
30
0
41
1
10
20.6448256619582
20
5.91295466917455
30
0
41
1
10
21.0772802450025
20
5.81635060472493
30
0
41
1
10
21.3656665122001
20
5.75067122595584
30
0
41
1
10
22.2310194601698
20
5.54976021840767
30
0
41
1
10
22.8081314385753
20
5.41057277868305
30
0
41
1
10
23.6738625624047
20
5.19341710441984
30
0
41
1
10
23.9624489663417
20
5.11963041250834
30
0
41
1
10
24.5395916036645
20
4.96911278055774
30
0
41
1
10
24.8280995989139
20
4.89226677240543
30
0
41
1
10
25.4054712011113
20
4.73647833855085
30
0
41
1
10
25.6943659464087
20
4.65761645679143
30
0
41
1
10
26.2724614118684
20
4.49772741333891
30
0
41
1
10
26.5617165457484
20
4.41669453557847
30
0
41
1
10
27.4295632513893
20
4.17033579909719
30
0
41
1
10
28.0076073458404
20
4.00194457840342
30
0
41
1
10
28.873592455432
20
3.74232001198067
30
0
41
1
10
29.1620528337189
20
3.65454512291669
30
0
41
1
10
29.7391222405992
20
3.47796237088468
30
0
41
1
10
30.0276919277707
20
3.38905627229175
30
0
41
1
10
30.8933648977353
20
3.12014891623477
30
0
41
1
10
31.4704604464925
20
2.93803920565179
30
0
41
1
10
32.335806835963
20
2.65988802038885
30
0
41
1
10
32.6242026847047
20
2.56632864249866
30
0
41
1
10
33.0566905638017
20
2.42463848629265
30
0
41
1
10
33.2008405324999
20
2.37719674153237
30
0
41
1
10
33.4891904424472
20
2.28209936357357
30
0
41
1
10
33.6333991102378
20
2.23446837743609
30
0
41
1
10
34.3546316635553
20
1.99596728193748
30
0
41
1
10
34.9321263643466
20
1.80379572768945
30
0
41
1
10
35.798827459912
20
1.51264543661296
30
0
41
1
10
36.0878064509959
20
1.41511747366752
30
0
41
1
10
36.5213586064337
20
1.26799878146255
30
0
41
1
10
36.6658899080223
20
1.21882123048187
30
0
41
1
10
36.9549743394833
20
1.12016955447521
30
0
41
1
10
37.0995423348559
20
1.07067360117577
30
0
41
1
10
37.3885645992254
20
0.971519043701278
30
0
41
1
10
37.5330349309029
20
0.921864617496311
30
0
41
1
10
37.8219766701586
20
0.822646753778457
30
0
41
1
10
37.9664459261669
20
0.77307684147587
30
0
41
1
10
38.3998277312198
20
0.624420246772246
30
0
41
1
10
38.6887089456268
20
0.525370688032922
30
0
41
1
10
39.5551520626676
20
0.228143171040813
30
0
41
1
10
40.1325300622855
20
0.0299338262395565
30
0
41
1
10
40.8537026345747
20
-0.218590908669483
30
0
41
1
10
40.9979094044165
20
-0.268334603533873
30
0
41
1
10
41.2862609469918
20
-0.367917962620623
30
0
41
1
10
41.4304031023149
20
-0.417765230924886
30
0
41
1
10
41.8628303870511
20
-0.567175801228331
30
0
41
1
10
42.1511806795511
20
-0.666419922436432
30
0
41
1
10
43.0165019521071
20
-0.962854782446016
30
0
41
1
10
43.5936324016265
20
-1.15907345053688
30
0
41
1
10
44.4594501028267
20
-1.45203067638647
30
0
41
1
10
44.7480752586496
20
-1.54945736766106
30
0
41
1
10
45.1810058079128
20
-1.69536013032609
30
0
41
1
10
45.3253126564648
20
-1.7439609621043
30
0
41
1
10
45.6139276049261
20
-1.84107222619923
30
0
41
1
10
45.7582398643414
20
-1.88957062524054
30
0
41
1
10
46.1913064789612
20
-2.03456191586858
30
0
41
1
10
46.4802303907439
20
-2.13043723023074
30
0
41
1
10
47.0584155843609
20
-2.32087434592691
30
0
41
1
10
47.3477639143686
20
-2.41547255198557
30
0
41
1
10
48.2154340261293
20
-2.69722031936928
30
0
41
1
10
48.7933974948392
20
-2.88232744252093
30
0
41
1
10
49.6593197466444
20
-3.15666423757182
30
0
41
1
10
49.9477475150993
20
-3.24766260502415
30
0
41
1
10
50.524718687168
20
-3.42731197625864
30
0
41
1
10
50.8132537643011
20
-3.51599155463441
30
0
41
1
10
51.6788521652557
20
-3.77904380065627
30
0
41
1
10
52.2559352107012
20
-3.95036830827331
30
0
41
1
10
53.1213230780509
20
-4.20195115434825
30
0
41
1
10
53.4097453636507
20
-4.28491131892164
30
0
41
1
10
53.9864581011312
20
-4.44912822041306
30
0
41
1
10
54.2747568710741
20
-4.5303591983118
30
0
41
1
10
55.1402556900854
20
-4.76958177903364
30
0
41
1
10
55.7178120466601
20
-4.92371705810817
30
0
41
1
10
56.5846533728264
20
-5.14771178768669
30
0
41
1
10
56.8736885868913
20
-5.22116436300206
30
0
41
1
10
57.4518892738039
20
-5.36572884970178
30
0
41
1
10
57.7411143820627
20
-5.43687365818926
30
0
41
1
10
58.1746257361353
20
-5.54172768235244
30
0
41
1
10
58.3190940101143
20
-5.57635478100198
30
0
41
1
10
58.6080400141496
20
-5.64479857959159
30
0
41
1
10
58.752523823117
20
-5.67860375194158
30
0
41
1
10
59.1859937789746
20
-5.77880797281409
30
0
41
1
10
59.4749896536385
20
-5.84401418089925
30
0
41
1
10
60.3419268527596
20
-6.03507605067762
30
0
41
1
10
60.9198390365532
20
-6.15634935243907
30
0
41
1
10
61.7863570124491
20
-6.32954783122779
30
0
41
1
10
62.0751114387273
20
-6.38586701510783
30
0
41
1
10
62.5082146289267
20
-6.46803208979256
30
0
41
1
10
62.6525904795146
20
-6.49501408463357
30
0
41
1
10
62.9414314734608
20
-6.54805456315961
30
0
41
1
10
63.0858896521086
20
-6.57412454083456
30
0
41
1
10
63.5193549005456
20
-6.65102629955541
30
0
41
1
10
63.8084477240311
20
-6.70055811059788
30
0
41
1
10
64.3868163489669
20
-6.79623820338594
30
0
41
1
10
64.6761549402885
20
-6.84239214357211
30
0
41
1
10
65.2546516206595
20
-6.93131315169458
30
0
41
1
10
65.543782972149
20
-6.97407778455855
30
0
41
1
10
65.9772669282732
20
-7.03570710705463
30
0
41
1
10
66.1217255579234
20
-7.05583091082715
30
0
41
1
10
66.4105665992129
20
-7.09523824069527
30
0
41
1
10
66.5549514840301
20
-7.11451820915545
30
0
41
1
10
67.2768814140888
20
-7.2085895663414
30
0
41
1
10
67.8546894508928
20
-7.27616207097435
30
0
41
1
10
69.0103771677557
20
-7.39669934688382
30
0
41
1
10
69.5882726140404
20
-7.44964774997948
30
0
41
1
10
70.4548995907428
20
-7.51816106262973
30
0
41
1
10
70.7436903131946
20
-7.53919892081518
30
0
41
1
10
71.3215893852708
20
-7.57735454307272
30
0
41
1
10
71.6107282264543
20
-7.59446609775085
30
0
41
1
10
71.9
20
-7.60966225242359
30
0
0
SPLINE
5
CB
100
AcDbEntity
8
1
62
256
6
ByLayer
370
18
48
1
60
0
100
AcDbSpline
70
4
71
3
72
88
73
84
40
0
40
0
40
0
40
0
40
0.0006258702339722
40
0.0006258702339722
40
0.0107205584134278
40
0.0107205584134278
40
0.030909934772339
40
0.030909934772339
40
0.0712886874901605
40
0.0712886874901605
40
0.0914780638490708
40
0.0914780638490708
40
0.111667440207981
40
0.111667440207981
40
0.152046192925802
40
0.152046192925802
40
0.172235569284712
40
0.172235569284712
40
0.182330257464167
40
0.182330257464167
40
0.192424945643622
40
0.192424945643622
40
0.232803698361442
40
0.232803698361442
40
0.252993074720352
40
0.252993074720352
40
0.273182451079262
40
0.273182451079262
40
0.313561203797082
40
0.313561203797082
40
0.353939956514902
40
0.353939956514902
40
0.374129332873811
40
0.374129332873811
40
0.39431870923272
40
0.39431870923272
40
0.434697461950539
40
0.434697461950539
40
0.454886838309448
40
0.454886838309448
40
0.475076214668357
40
0.475076214668357
40
0.515454967386174
40
0.515454967386174
40
0.535644343745082
40
0.535644343745082
40
0.555833720103991
40
0.555833720103991
40
0.596212472821807
40
0.596212472821807
40
0.606307161001261
40
0.606307161001261
40
0.616401849180716
40
0.616401849180716
40
0.636591225539625
40
0.636591225539625
40
0.656780601898534
40
0.656780601898534
40
0.676969978257443
40
0.676969978257443
40
0.717348730975262
40
0.717348730975262
40
0.737538107334172
40
0.737538107334172
40
0.757727483693081
40
0.757727483693081
40
0.798106236410901
40
0.798106236410901
40
0.808200924590356
40
0.808200924590356
40
0.818295612769811
40
0.818295612769811
40
0.838484989128721
40
0.838484989128721
40
0.87886374184654
40
0.87886374184654
40
0.89905311820545
40
0.89905311820545
40
0.91924249456436
40
0.91924249456436
40
0.95962124728218
40
0.95962124728218
40
1
40
1
40
1
40
1
41
1
10
58.5771685209359
20
-5.62862889213639
30
0
41
1
10
58.5676617280904
20
-5.63086953874642
30
0
41
1
10
58.558154927409
20
-5.63310849680423
30
0
41
1
10
58.3953122525375
20
-5.67143050509168
30
0
41
1
10
58.2419720230541
20
-5.70707190495469
30
0
41
1
10
57.7819448031748
20
-5.81268720111271
30
0
41
1
10
57.4752528271477
20
-5.88135599322669
30
0
41
1
10
56.5551897020416
20
-6.08223825200815
30
0
41
1
10
55.9418263834451
20
-6.20933268378144
30
0
41
1
10
55.0219673943566
20
-6.38994787760106
30
0
41
1
10
54.7154122940289
20
-6.4485285435793
30
0
41
1
10
54.1020922556746
20
-6.56187228000488
30
0
41
1
10
53.7952901027034
20
-6.6165827621524
30
0
41
1
10
52.8745107591731
20
-6.77495517947287
30
0
41
1
10
52.260152210696
20
-6.87285893047297
30
0
41
1
10
51.3380078930694
20
-7.00835489519528
30
0
41
1
10
51.0305132360486
20
-7.05163154224243
30
0
41
1
10
50.5697287096449
20
-7.11358418041522
30
0
41
1
10
50.4161814303957
20
-7.13374039386815
30
0
41
1
10
50.1091188066315
20
-7.17299349516082
30
0
41
1
10
49.9555985886578
20
-7.19208567473032
30
0
41
1
10
49.1880554793305
20
-7.2848964735233
30
0
41
1
10
48.5742208482168
20
-7.35070069095164
30
0
41
1
10
47.6539027795861
20
-7.43698848903452
30
0
41
1
10
47.3472046152499
20
-7.46367907188096
30
0
41
1
10
46.733984218628
20
-7.5129099361981
30
0
41
1
10
46.4274937625761
20
-7.53546570549824
30
0
41
1
10
45.5079503592986
20
-7.59664913536463
30
0
41
1
10
44.8945967893796
20
-7.6287049486694
30
0
41
1
10
43.6674289837027
20
-7.67564723945236
30
0
41
1
10
43.0536229257156
20
-7.69053621574761
30
0
41
1
10
42.1327056589131
20
-7.69981565129487
30
0
41
1
10
41.8256684565985
20
-7.70071875302597
30
0
41
1
10
41.2111128480139
20
-7.69814593994121
30
0
41
1
10
40.9035475399091
20
-7.69467379740141
30
0
41
1
10
39.9813901475472
20
-7.67775555176894
30
0
41
1
10
39.3670842115389
20
-7.65783108037564
30
0
41
1
10
38.4464936330122
20
-7.61490800976085
30
0
41
1
10
38.1398030970225
20
-7.59840673616091
30
0
41
1
10
37.5265335250205
20
-7.56110079852732
30
0
41
1
10
37.2198844465329
20
-7.5403369131013
30
0
41
1
10
36.2998841456266
20
-7.47178792463774
30
0
41
1
10
35.6865006063696
20
-7.4177510150696
30
0
41
1
10
34.7664988860307
20
-7.32409559765969
30
0
41
1
10
34.4598477234787
20
-7.29076948154628
30
0
41
1
10
33.8465886916624
20
-7.21984927393575
30
0
41
1
10
33.5399731534219
20
-7.18225478401618
30
0
41
1
10
32.6195787040867
20
-7.06369586935531
30
0
41
1
10
32.0054134739346
20
-6.97682713702611
30
0
41
1
10
31.2371153120567
20
-6.85835387084231
30
0
41
1
10
31.0834260902236
20
-6.83416358442781
30
0
41
1
10
30.7759923668062
20
-6.78478266981054
30
0
41
1
10
30.6222338941693
20
-6.75958915068313
30
0
41
1
10
30.1611546316507
20
-6.68253992061582
30
0
41
1
10
29.8539723616256
20
-6.62916545666599
30
0
41
1
10
29.2398321263336
20
-6.51865328687546
30
0
41
1
10
28.9327965817969
20
-6.46163708087448
30
0
41
1
10
28.3187478072256
20
-6.34419792677932
30
0
41
1
10
28.0117473394613
20
-6.28375516094636
30
0
41
1
10
27.0908470384151
20
-6.0972353120024
30
0
41
1
10
26.477051811811
20
-5.96597424817477
30
0
41
1
10
25.556721733453
20
-5.75832180080485
30
0
41
1
10
25.2500122011629
20
-5.68728778793763
30
0
41
1
10
24.6363059645612
20
-5.54241565145148
30
0
41
1
10
24.3293430616549
20
-5.46851682837726
30
0
41
1
10
23.4081719048932
20
-5.24237018815379
30
0
41
1
10
22.7936701964732
20
-5.08570905098415
30
0
41
1
10
22.0251963999339
20
-4.88214237191022
30
0
41
1
10
21.8714637908074
20
-4.84103584868086
30
0
41
1
10
21.5641185338005
20
-4.75808216073827
30
0
41
1
10
21.4104981612305
20
-4.71622489075145
30
0
41
1
10
20.9497255975803
20
-4.58966970525597
30
0
41
1
10
20.6426096093976
20
-4.50411212415503
30
0
41
1
10
19.7213202996482
20
-4.24424297079608
30
0
41
1
10
19.1072790998749
20
-4.06656979498021
30
0
41
1
10
18.1865853589284
20
-3.7931043843912
30
0
41
1
10
17.8797527814423
20
-3.70077787520552
30
0
41
1
10
17.2662346576642
20
-3.51372370097653
30
0
41
1
10
16.9595711943902
20
-3.41893488032116
30
0
41
1
10
16.0392236883042
20
-3.13246388596534
30
0
41
1
10
15.4252819569402
20
-2.93843994630475
30
0
41
1
10
14.1968564789176
20
-2.54380077892438
30
0
41
1
10
13.5823645885359
20
-2.34320889086558
30
0
41
1
10
12.9677094157163
20
-2.13893287637745
30
0
0
SPLINE
5
CC
100
AcDbEntity
8
1
62
256
6
ByLayer
370
18
48
1
60
0
100
AcDbSpline
70
4
71
3
72
100
73
96
40
0
40
0
40
0
40
0
40
0.0625000000000027
40
0.0625000000000027
40
0.125000000000005
40
0.125000000000005
40
0.156250000000006
40
0.156250000000006
40
0.187500000000007
40
0.187500000000007
40
0.203125000000007
40
0.203125000000007
40
0.218750000000008
40
0.218750000000008
40
0.250000000000008
40
0.250000000000008
40
0.281250000000007
40
0.281250000000007
40
0.296875000000007
40
0.296875000000007
40
0.304687500000007
40
0.304687500000007
40
0.312500000000007
40
0.312500000000007
40
0.343750000000009
40
0.343750000000009
40
0.375000000000011
40
0.375000000000011
40
0.382812500000011
40
0.382812500000011
40
0.390625000000011
40
0.390625000000011
40
0.406250000000011
40
0.406250000000011
40
0.421875000000011
40
0.421875000000011
40
0.42968750000001
40
0.43359375000001
40
0.43359375000001
40
0.43750000000001
40
0.43750000000001
40
0.468750000000011
40
0.468750000000011
40
0.484375000000011
40
0.484375000000011
40
0.488281250000011
40
0.488281250000011
40
0.492187500000011
40
0.492187500000011
40
0.500000000000011
40
0.500000000000011
40
0.531250000000013
40
0.531250000000013
40
0.535156250000013
40
0.535156250000013
40
0.539062500000013
40
0.539062500000013
40
0.546875000000013
40
0.546875000000013
40
0.562500000000013
40
0.562500000000013
40
0.593750000000015
40
0.593750000000015
40
0.601562500000015
40
0.601562500000015
40
0.609375000000015
40
0.609375000000015
40
0.625000000000014
40
0.625000000000014
40
0.656250000000013
40
0.656250000000013
40
0.687500000000012
40
0.687500000000012
40
0.695312500000012
40
0.695312500000012
40
0.703125000000011
40
0.718750000000011
40
0.718750000000011
40
0.75000000000001
40
0.75000000000001
40
0.781250000000008
40
0.781250000000008
40
0.812500000000007
40
0.812500000000007
40
0.843750000000006
40
0.843750000000006
40
0.875000000000005
40
0.875000000000005
40
0.906250000000004
40
0.906250000000004
40
0.937500000000002
40
0.937500000000002
40
0.968750000000001
40
0.968750000000001
40
1
40
1
40
1
40
1
41
1
10
10
20
7.15684400853394
30
0
41
1
10
9.60429962571581
20
7.20734492436767
30
0
41
1
10
9.2135357133013
20
7.2501863372438
30
0
41
1
10
8.44210710064701
20
7.31735444586761
30
0
41
1
10
8.06143488152978
20
7.34171382133417
30
0
41
1
10
7.4983171355903
20
7.36030859163145
30
0
41
1
10
7.31192854788395
20
7.36349607575275
30
0
41
1
10
6.94188300847912
20
7.36283589885372
30
0
41
1
10
6.75822537046059
20
7.35899249868297
30
0
41
1
10
6.48489541457846
20
7.3469439234843
30
0
41
1
10
6.39414527896906
20
7.34187749561056
30
0
41
1
10
6.21338938566726
20
7.3294307472718
30
0
41
1
10
6.1232704892937
20
7.32203575568653
30
0
41
1
10
5.85599706090366
20
7.29621113834341
30
0
41
1
10
5.68137463668796
20
7.27413330164188
30
0
41
1
10
5.33975120579996
20
7.21856719430713
30
0
41
1
10
5.17274543633391
20
7.18508979913105
30
0
41
1
10
4.92855045624367
20
7.12456014984403
30
0
41
1
10
4.84820716036569
20
7.1026585483759
30
0
41
1
10
4.72938313173131
20
7.0669237253426
30
0
41
1
10
4.69003804439831
20
7.05452474444633
30
0
41
1
10
4.61201542590379
20
7.02873419817101
30
0
41
1
10
4.5734408407896
20
7.01537715442754
30
0
41
1
10
4.38280011284584
20
6.94618970413239
30
0
41
1
10
4.23739398145125
20
6.88320015082908
30
0
41
1
10
3.96256504411107
20
6.73887092861403
30
0
41
1
10
3.83311421800107
20
6.65756927708429
30
0
41
1
10
3.68320128663706
20
6.54149498628848
30
0
41
1
10
3.6538183730033
20
6.5175515988519
30
0
41
1
10
3.59632243802903
20
6.46810296895242
30
0
41
1
10
3.56839445970127
20
6.44275621517269
30
0
41
1
10
3.48714025711445
20
6.36478772448743
30
0
41
1
10
3.43633512682007
20
6.31023784734239
30
0
41
1
10
3.34187657530339
20
6.19555519012201
30
0
41
1
10
3.29822143842364
20
6.13542382506535
30
0
41
1
10
3.23854408445894
20
6.04061299434528
30
0
41
1
10
3.21015894790824
20
5.99205242161685
30
0
41
1
10
3.18406093431108
20
5.94166029874754
30
0
41
1
10
3.16718433081817
20
5.90764601930138
30
0
41
1
10
3.15899734813237
20
5.89040771883913
30
0
41
1
10
3.08793291026458
20
5.73377016343986
30
0
41
1
10
3.04419462259375
20
5.58612476613322
30
0
41
1
10
3.00868591650686
20
5.35131696657533
30
0
41
1
10
3.00188684006173
20
5.27081767937875
30
0
41
1
10
2.99995756390436
20
5.16727173821701
30
0
41
1
10
2.99990069541872
20
5.14641627961859
30
0
41
1
10
3.00045387280096
20
5.10440871597925
30
0
41
1
10
3.00106541149964
20
5.08322574311481
30
0
41
1
10
3.00390467943743
20
5.01944518333616
30
0
41
1
10
3.00712450499009
20
4.97678992184203
30
0
41
1
10
3.02964541062229
20
4.76286192722773
30
0
41
1
10
3.06809911946507
20
4.58963853973185
30
0
41
1
10
3.13242573386518
20
4.39270356745169
30
0
41
1
10
3.13986743146265
20
4.37079324529034
30
0
41
1
10
3.15533547048145
20
4.32691616014554
30
0
41
1
10
3.16337233126495
20
4.30492187458111
30
0
41
1
10
3.18827672991532
20
4.23906012365441
30
0
41
1
10
3.20589467259296
20
4.19541801348507
30
0
41
1
10
3.26161769792958
20
4.06524744475306
30
0
41
1
10
3.30258578292683
20
3.97947315276863
30
0
41
1
10
3.4358137461052
20
3.72490795597898
30
0
41
1
10
3.53834406190964
20
3.5588616009737
30
0
41
1
10
3.6810506511755
20
3.35531627248227
30
0
41
1
10
3.71036326271096
20
3.31475930049098
30
0
41
1
10
3.76996204273794
20
3.23461671533357
30
0
41
1
10
3.80029273352594
20
3.19496441848358
30
0
41
1
10
3.8927803342705
20
3.07718893936089
30
0
41
1
10
3.95642977289265
20
3.00024487434297
30
0
41
1
10
4.15269445046312
20
2.77362668668474
30
0
41
1
10
4.29059927060294
20
2.62814631867664
30
0
41
1
10
4.57795830347612
20
2.34639823782342
30
0
41
1
10
4.72742724615389
20
2.21014194546373
30
0
41
1
10
4.92033977932502
20
2.04469103768221
30
0
41
1
10
4.9591671533619
20
2.01189748007562
30
0
41
1
10
5.03711516625509
20
1.94701429942373
30
0
41
1
10
5.15455801792297
20
1.85067679048154
30
0
41
1
10
5.27347491479154
20
1.75713094392472
30
0
41
1
10
5.51306944754768
20
1.57337029421262
30
0
41
1
10
5.67514026375318
20
1.45529143296693
30
0
41
1
10
6.00307614345883
20
1.22631268918011
30
0
41
1
10
6.16894369973735
20
1.11541783387722
30
0
41
1
10
6.50377388326041
20
0.899509953633412
30
0
41
1
10
6.67273765218491
20
0.794499358294757
30
0
41
1
10
7.0131893124784
20
0.589319259211237
30
0
41
1
10
7.18467758612206
20
0.489150755704685
30
0
41
1
10
7.52971463934233
20
0.292822936780596
30
0
41
1
10
7.7032633552262
20
0.196663804779576
30
0
41
1
10
8.05206132348863
20
0.0077160306592248
30
0
41
1
10
8.22731027471519
20
-0.0850728512054673
30
0
41
1
10
8.57925863301915
20
-0.267723338530402
30
0
41
1
10
8.75601926225241
20
-0.357614498449806
30
0
41
1
10
9.11012715619842
20
-0.534346827349481
30
0
41
1
10
9.28755748734267
20
-0.621232455893391
30
0
41
1
10
9.64317903480543
20
-0.792098735921229
30
0
41
1
10
9.82137017773127
20
-0.876078962529533
30
0
41
1
10
10
20
-0.958522157466518
30
0
0
SPLINE
5
CD
100
AcDbEntity
8
1
62
256
6
ByLayer
370
18
48
1
60
0
100
AcDbSpline
70
4
71
3
72
14
73
10
40
0
40
0
40
0
40
0
40
0.25
40
0.25
40
0.5
40
0.5
40
0.75
40
0.75
40
1
40
1
40
1
40
1
41
1
10
12.9677094157164
20
-2.13893287637742
30
0
41
1
10
12.7159370328905
20
-2.05274635689355
30
0
41
1
10
12.4655953979843
20
-1.96284634811173
30
0
41
1
10
11.9671950397788
20
-1.77686260967951
30
0
41
1
10
11.7191343389132
20
-1.68078404839102
30
0
41
1
10
11.2248928895843
20
-1.48329436337576
30
0
41
1
10
10.9787108697084
20
-1.38188701984115
30
0
41
1
10
10.4880543896483
20
-1.17404928877548
30
0
41
1
10
10.2435795754876
20
-1.06762067879103
30
0
41
1
10
10
20
-0.958522157466518
30
0
0
SPLINE
5
CE
100
AcDbEntity
8
1
62
256
6
ByLayer
370
18
48
1
60
0
100
AcDbSpline
70
4
71
4
72
16
73
11
40
0
40
0
40
0
40
0
40
0
40
0.2882410983156
40
0.2882410983156
40
0.2882410983156
40
0.720983626094243
40
0.720983626094243
40
0.720983626094243
40
1
40
1
40
1
40
1
40
1
41
0.996448247546704
10
16.4579846464234
20
6.7279133973489
30
0
41
0.994681733113663
10
16.3463637476271
20
6.09965575176058
30
0
41
0.994691078456578
10
16.1598403035695
20
5.30484882714639
30
0
41
1
10
15.9079330988318
20
4.41429691700063
30
0
41
1
10
15.2387609917926
20
2.28411855941022
30
0
41
0.988033871712585
10
14.7128470310699
20
0.81114541326477
30
0
41
1
10
14.1869330703471
20
-0.387990620925279
30
0
41
1
10
13.5263227780937
20
-1.64155308635102
30
0
41
0.995025449087857
10
13.2820742721489
20
-2.02199172963742
30
0
41
0.994698566492453
10
13.0974447432758
20
-2.18464625233286
30
0
41
0.996233469415121
10
12.9824348875436
20
-2.14542916551498
30
0
0
SPLINE
5
CF
100
AcDbEntity
8
1
62
256
6
ByLayer
370
18
48
1
60
0
100
AcDbSpline
70
4
71
3
72
23
73
19
40
0
40
0
40
0
40
0
40
0.124999999999998
40
0.124999999999998
40
0.249999999999996
40
0.249999999999996
40
0.374999999999994
40
0.374999999999994
40
0.499999999999992
40
0.499999999999992
40
0.562499999999991
40
0.593749999999991
40
0.593749999999991
40
0.62499999999999
40
0.62499999999999
40
0.749999999999991
40
0.749999999999991
40
1
40
1
40
1
40
1
41
1
10
10
20
7.15684400853394
30
0
41
1
10
10.2754435276997
20
7.16708962904099
30
0
41
1
10
10.5501492816679
20
7.1732325742876
30
0
41
1
10
11.0982052732151
20
7.17834211644123
30
0
41
1
10
11.3715548890411
20
7.17730151450058
30
0
41
1
10
11.9169943821279
20
7.16849069944013
30
0
41
1
10
12.1890837976788
20
7.1607150733434
30
0
41
1
10
12.7320920411837
20
7.13850245398615
30
0
41
1
10
13.0030105159816
20
7.1240606352334
30
0
41
1
10
13.4085812562885
20
7.09728155265927
30
0
41
1
10
13.6111649971545
20
7.08261091129484
30
0
41
1
10
13.8134610862041
20
7.06598584973079
30
0
41
1
10
13.9482629871361
20
7.05446424509407
30
0
41
1
10
14.0156505393825
20
7.04848252271111
30
0
41
1
10
14.3518264757921
20
7.01752713442207
30
0
41
1
10
14.6187853653783
20
6.9893743998484
30
0
41
1
10
15.4146199060774
20
6.8947125225842
30
0
41
1
10
15.9384714510076
20
6.81795205471863
30
0
41
1
10
16.4579846464234
20
6.72791339734891
30
0
0
SPLINE
5
D0
100
AcDbEntity
8
1
62
256
6
ByLayer
370
13
48
1
60
0
100
AcDbSpline
70
4
71
3
72
22
73
18
40
0
40
0
40
0
40
0
40
0.125
40
0.125
40
0.25
40
0.25
40
0.375
40
0.375
40
0.5
40
0.5
40
0.625
40
0.625
40
0.75
40
0.75
40
0.875
40
0.875
40
1
40
1
40
1
40
1
41
1
10
78.8434433199924
20
8.136
30
0
41
1
10
78.9140806055765
20
8.136
30
0
41
1
10
78.9847178911607
20
8.10980348097476
30
0
41
1
10
79.1259924623288
20
7.9969666800466
30
0
41
1
10
79.1966297479129
20
7.91027593918619
30
0
41
1
10
79.337904319081
20
7.6712697031883
30
0
41
1
10
79.4085416046651
20
7.51891398802491
30
0
41
1
10
79.5498161758333
20
7.14777692788178
30
0
41
1
10
79.6204534614172
20
6.92898015774628
30
0
41
1
10
79.7617280325854
20
6.42942963106796
30
0
41
1
10
79.8323653181695
20
6.14869457815288
30
0
41
1
10
79.9736398893376
20
5.53498396020817
30
0
41
1
10
80.0442771749217
20
5.20205956449706
30
0
41
1
10
80.1855517460898
20
4.49786770444544
30
0
41
1
10
80.256189031674
20
4.12667056801081
30
0
41
1
10
80.3974636028421
20
3.36212819773502
30
0
41
1
10
80.4681008884262
20
2.96885318919181
30
0
41
1
10
80.5387381740102
20
2.57265814313232
30
0
0
SPLINE
5
D1
100
AcDbEntity
8
1
62
256
6
ByLayer
370
13
48
1
60
0
100
AcDbSpline
70
4
71
3
72
77
73
73
40
0
40
0
40
0
40
0
40
0.03125
40
0.03125
40
0.0625
40
0.0625
40
0.0703125
40
0.0703125
40
0.0781249999999999
40
0.0781249999999999
40
0.0937499999999999
40
0.0937499999999999
40
0.125
40
0.125
40
0.15625
40
0.15625
40
0.1875
40
0.1875
40
0.21875
40
0.21875
40
0.25
40
0.25
40
0.28125
40
0.28125
40
0.3125
40
0.3125
40
0.34375
40
0.34375
40
0.375
40
0.375
40
0.40625
40
0.40625
40
0.4375
40
0.4375
40
0.46875
40
0.46875
40
0.5
40
0.5
40
0.53125
40
0.53125
40
0.5390625
40
0.5390625
40
0.546875
40
0.5625
40
0.5625
40
0.59375
40
0.59375
40
0.625
40
0.625
40
0.65625
40
0.65625
40
0.6875
40
0.6875
40
0.71875
40
0.71875
40
0.75
40
0.75
40
0.78125
40
0.78125
40
0.8125
40
0.8125
40
0.84375
40
0.84375
40
0.875
40
0.875
40
0.90625
40
0.90625
40
0.9375
40
0.9375
40
0.96875
40
0.96875
40
1
40
1
40
1
40
1
41
1
10
71.9
20
-7.90152863649922
30
0
41
1
10
71.9486568432878
20
-7.96867569127304
30
0
41
1
10
71.9973136865756
20
-8.02060413892463
30
0
41
1
10
72.0946273731513
20
-8.09590694531596
30
0
41
1
10
72.1432842164391
20
-8.11928919393361
30
0
41
1
10
72.2041052705488
20
-8.13226968610397
30
0
41
1
10
72.2162694813708
20
-8.13405469981834
30
0
41
1
10
72.2405979030146
20
-8.13604693184126
30
0
41
1
10
72.2527621138366
20
-8.1362580137087
30
0
41
1
10
72.2892547463025
20
-8.1345635677518
30
0
41
1
10
72.3135831679464
20
-8.13030244288299
30
0
41
1
10
72.3865684328781
20
-8.10759653330331
30
0
41
1
10
72.4352252761659
20
-8.07921023679893
30
0
41
1
10
72.5325389627416
20
-7.99349899626557
30
0
41
1
10
72.5811958060294
20
-7.93616622668659
30
0
41
1
10
72.678509492605
20
-7.79080793063474
30
0
41
1
10
72.7271663358928
20
-7.70277556750321
30
0
41
1
10
72.8244800224684
20
-7.49519016092682
30
0
41
1
10
72.8731368657562
20
-7.37563238941485
30
0
41
1
10
72.9704505523318
20
-7.10527226729658
30
0
41
1
10
73.0191073956196
20
-6.9544682886654
30
0
41
1
10
73.1164210821952
20
-6.62309483290579
30
0
41
1
10
73.1650779254831
20
-6.4425274351089
30
0
41
1
10
73.2623916120587
20
-6.0543043063436
30
0
41
1
10
73.3110484553465
20
-5.84665438476713
30
0
41
1
10
73.4083621419221
20
-5.40802258306505
30
0
41
1
10
73.4570189852099
20
-5.17704961540864
30
0
41
1
10
73.5543326717855
20
-4.69638342275778
30
0
41
1
10
73.6029895150733
20
-4.44670104570335
30
0
41
1
10
73.7003032016489
20
-3.93378168347977
30
0
41
1
10
73.7489600449367
20
-3.67055603011477
30
0
41
1
10
73.8462737315124
20
-3.13593123310798
30
0
41
1
10
73.8949305748002
20
-2.86454248984774
30
0
41
1
10
73.9922442613758
20
-2.31885677838886
30
0
41
1
10
74.0409011046636
20
-2.04456818068874
30
0
41
1
10
74.1382147912392
20
-1.49794672451418
30
0
41
1
10
74.1868716345271
20
-1.22561958786599
30
0
41
1
10
74.2841853211027
20
-0.687170400224602
30
0
41
1
10
74.3328421643904
20
-0.421051303834389
30
0
41
1
10
74.3936632185003
20
-0.0944709600028943
30
0
41
1
10
74.4058274293222
20
-0.0296257966217581
30
0
41
1
10
74.4301558509661
20
0.1002186844498
30
0
41
1
10
74.4666484834319
20
0.29593463863182
30
0
41
1
10
74.5031411158977
20
0.494287192972195
30
0
41
1
10
74.5761263808295
20
0.893875467400363
30
0
41
1
10
74.6247832241173
20
1.16413470379524
30
0
41
1
10
74.7220969106929
20
1.70844095503671
30
0
41
1
10
74.7707537539808
20
1.98248339247911
30
0
41
1
10
74.8680674405563
20
2.52972800980166
30
0
41
1
10
74.9167242838441
20
2.80292285792055
30
0
41
1
10
75.0140379704198
20
3.34334513672138
30
0
41
1
10
75.0626948137076
20
3.61056289020726
30
0
41
1
10
75.1600085002832
20
4.13366193462963
30
0
41
1
10
75.208665343571
20
4.38953211658966
30
0
41
1
10
75.3059790301467
20
4.88464091965793
30
0
41
1
10
75.3546358734345
20
5.12386831408759
30
0
41
1
10
75.4519495600101
20
5.58081084965548
30
0
41
1
10
75.5006064032978
20
5.79851612186826
30
0
41
1
10
75.5979200898735
20
6.20827032580516
30
0
41
1
10
75.6465769331613
20
6.40031206717785
30
0
41
1
10
75.7438906197369
20
6.75559246303433
30
0
41
1
10
75.7925474630247
20
6.91882747691295
30
0
41
1
10
75.8898611496003
20
7.21451032941081
30
0
41
1
10
75.9385179928881
20
7.34695832219745
30
0
41
1
10
76.0358316794637
20
7.58029832260183
30
0
41
1
10
76.0844885227515
20
7.68119389305352
30
0
41
1
10
76.1818022093272
20
7.85181770678057
30
0
41
1
10
76.230459052615
20
7.92155205753121
30
0
41
1
10
76.3277727391906
20
8.03125078823987
30
0
41
1
10
76.3764295824784
20
8.07122272227252
30
0
41
1
10
76.473743269054
20
8.12359336953332
30
0
41
1
10
76.5224001123419
20
8.136
30
0
41
1
10
76.5710569556296
20
8.136
30
0
0
SPLINE
5
D2
100
AcDbEntity
8
1
62
256
6
ByLayer
370
13
48
1
60
0
100
AcDbSpline
70
4
71
3
72
38
73
34
40
0
40
0
40
0
40
0
40
0.125
40
0.125
40
0.1875
40
0.1875
40
0.250000000000001
40
0.250000000000001
40
0.312500000000001
40
0.312500000000001
40
0.375000000000001
40
0.375000000000001
40
0.437500000000001
40
0.437500000000001
40
0.500000000000001
40
0.500000000000001
40
0.562500000000001
40
0.562500000000001
40
0.625000000000001
40
0.625000000000001
40
0.687500000000001
40
0.687500000000001
40
0.750000000000001
40
0.750000000000001
40
0.812500000000001
40
0.812500000000001
40
0.875000000000001
40
0.875000000000001
40
0.937500000000001
40
0.937500000000001
40
0.968750000000001
40
0.968750000000001
40
1
40
1
40
1
40
1
41
1
10
78.3474831137028
20
8.136
30
0
41
1
10
78.4387854078823
20
8.136
30
0
41
1
10
78.5300877020618
20
8.09211694855719
30
0
41
1
10
78.667041143331
20
7.94802045725461
30
0
41
1
10
78.7126922904207
20
7.88699190325735
30
0
41
1
10
78.8039945846002
20
7.73768387115666
30
0
41
1
10
78.8496457316899
20
7.64939969104125
30
0
41
1
10
78.9409480258694
20
7.44506387022844
30
0
41
1
10
78.9865991729591
20
7.32900910993175
30
0
41
1
10
79.0779014671386
20
7.06948842144857
30
0
41
1
10
79.1235526142283
20
6.92602156420398
30
0
41
1
10
79.2148549084078
20
6.61296872990104
30
0
41
1
10
79.2605060554975
20
6.44338437211437
30
0
41
1
10
79.351808349677
20
6.08031507471412
30
0
41
1
10
79.3974594967668
20
5.88683430187186
30
0
41
1
10
79.4887617909463
20
5.47903002574495
30
0
41
1
10
79.534412938036
20
5.26471284365422
30
0
41
1
10
79.6257152322154
20
4.8189736912137
30
0
41
1
10
79.6713663793053
20
4.58755947072368
30
0
41
1
10
79.7626686734847
20
4.11183011040987
30
0
41
1
10
79.8083198205744
20
3.86752323089556
30
0
41
1
10
79.8996221147538
20
3.3704345101529
30
0
41
1
10
79.9452732618436
20
3.11766050945428
30
0
41
1
10
80.0365755560231
20
2.60804052329337
30
0
41
1
10
80.0822267031128
20
2.35120118476789
30
0
41
1
10
80.1735289972922
20
1.83761039949854
30
0
41
1
10
80.2191801443821
20
1.58086390167477
30
0
41
1
10
80.3104824385616
20
1.07119995068894
30
0
41
1
10
80.3561335856513
20
0.818285550941994
30
0
41
1
10
80.4246103062858
20
0.444187163916809
30
0
41
1
10
80.4474358798307
20
0.320362084322426
30
0
41
1
10
80.4930870269205
20
0.0748044114777997
30
0
41
1
10
80.5159126004654
20
-0.0462866176663113
30
0
41
1
10
80.5387381740102
20
-0.168901673899654
30
0
0
SPLINE
5
D3
100
AcDbEntity
8
1
62
256
6
ByLayer
370
13
48
1
60
0
100
AcDbSpline
70
4
71
3
72
50
73
46
40
0
40
0
40
0
40
0
40
0.0625000000000008
40
0.0625000000000008
40
0.125000000000001
40
0.125000000000001
40
0.187500000000002
40
0.187500000000002
40
0.218750000000003
40
0.218750000000003
40
0.250000000000003
40
0.250000000000003
40
0.312500000000005
40
0.312500000000005
40
0.375000000000006
40
0.375000000000006
40
0.437500000000007
40
0.437500000000007
40
0.468750000000008
40
0.468750000000008
40
0.476562500000008
40
0.476562500000008
40
0.484375000000008
40
0.484375000000008
40
0.500000000000008
40
0.500000000000008
40
0.562500000000007
40
0.562500000000007
40
0.625000000000007
40
0.625000000000007
40
0.687500000000006
40
0.687500000000006
40
0.718750000000005
40
0.718750000000005
40
0.750000000000005
40
0.750000000000005
40
0.781250000000004
40
0.781250000000004
40
0.812500000000004
40
0.812500000000004
40
0.875000000000003
40
0.875000000000003
40
0.937500000000001
40
0.937500000000001
40
1
40
1
40
1
40
1
41
1
10
71.9
20
-8.09831636572406
30
0
41
1
10
71.9869811822779
20
-8.0520782934141
30
0
41
1
10
72.0739623645559
20
-7.96160679367324
30
0
41
1
10
72.2479247291117
20
-7.68139134738541
30
0
41
1
10
72.3349059113896
20
-7.49153033663427
30
0
41
1
10
72.5088682759454
20
-7.01123409498405
30
0
41
1
10
72.5958494582234
20
-6.7207686282315
30
0
41
1
10
72.7263212316402
20
-6.21783414416072
30
0
41
1
10
72.7698118227792
20
-6.03908157246366
30
0
41
1
10
72.8567930050571
20
-5.66182532004248
30
0
41
1
10
72.9002835961961
20
-5.46332617980806
30
0
41
1
10
73.030755369613
20
-4.84280996248319
30
0
41
1
10
73.1177365518908
20
-4.39566195918772
30
0
41
1
10
73.2916989164467
20
-3.4635744609254
30
0
41
1
10
73.3786800987246
20
-2.9788362419398
30
0
41
1
10
73.5526424632804
20
-2.00218650077807
30
0
41
1
10
73.6396236455583
20
-1.51042117678648
30
0
41
1
10
73.7700954189751
20
-0.787081542243101
30
0
41
1
10
73.8135860101142
20
-0.548305126963896
30
0
41
1
10
73.8679492490379
20
-0.25436617738336
30
0
41
1
10
73.8788218968227
20
-0.19580376018618
30
0
41
1
10
73.9005671923921
20
-0.0791650623206124
30
0
41
1
10
73.9114398401769
20
-0.0212368005715007
30
0
41
1
10
73.944057783531
20
0.152863187193788
30
0
41
1
10
73.9658030791005
20
0.269942141530436
30
0
41
1
10
74.0745295569479
20
0.859693626653069
30
0
41
1
10
74.1615107392258
20
1.34572970670939
30
0
41
1
10
74.3354731037816
20
2.32337349856331
30
0
41
1
10
74.4224542860596
20
2.81487312110735
30
0
41
1
10
74.5964166506154
20
3.77436796558717
30
0
41
1
10
74.6833978328933
20
4.24217932660903
30
0
41
1
10
74.8138696063102
20
4.90321139428235
30
0
41
1
10
74.8573601974491
20
5.11678039129222
30
0
41
1
10
74.9443413797271
20
5.52690155757654
30
0
41
1
10
74.987831970866
20
5.72344803745833
30
0
41
1
10
75.0748131531439
20
6.09650654325179
30
0
41
1
10
75.1183037442829
20
6.27301419197391
30
0
41
1
10
75.2052849265608
20
6.60359260832004
30
0
41
1
10
75.2487755176998
20
6.75766074824315
30
0
41
1
10
75.3792472911166
20
7.18368885815337
30
0
41
1
10
75.4662284733946
20
7.41908834280483
30
0
41
1
10
75.6401908379504
20
7.78844661744739
30
0
41
1
10
75.7271720202283
20
7.92249054332581
30
0
41
1
10
75.9011343847841
20
8.09619780379677
30
0
41
1
10
75.988115567062
20
8.136
30
0
41
1
10
76.0750967493399
20
8.136
30
0
0
SPLINE
5
D4
100
AcDbEntity
8
1
62
256
6
ByLayer
370
13
48
1
60
0
100
AcDbSpline
70
4
71
3
72
42
73
38
40
0
40
0
40
0
40
0
40
0.0624999999999999
40
0.0624999999999999
40
0.125
40
0.125
40
0.1875
40
0.1875
40
0.25
40
0.25
40
0.3125
40
0.3125
40
0.375
40
0.375
40
0.4375
40
0.4375
40
0.5
40
0.5
40
0.5625
40
0.5625
40
0.624999999999999
40
0.624999999999999
40
0.687499999999999
40
0.687499999999999
40
0.749999999999999
40
0.749999999999999
40
0.781249999999999
40
0.781249999999999
40
0.796875
40
0.796875
40
0.8125
40
0.8125
40
0.875
40
0.875
40
0.9375
40
0.9375
40
1
40
1
40
1
40
1
41
1
10
77.8515229074131
20
8.136
30
0
41
1
10
77.9075065588006
20
8.136
30
0
41
1
10
77.963490210188
20
8.11956709344079
30
0
41
1
10
78.0754575129629
20
8.04971051189145
30
0
41
1
10
78.1314411643503
20
7.99627088455716
30
0
41
1
10
78.2434084671252
20
7.84929234818324
30
0
41
1
10
78.2993921185126
20
7.75573888032577
30
0
41
1
10
78.4113594212876
20
7.52693835477558
30
0
41
1
10
78.4673430726749
20
7.39168107395705
30
0
41
1
10
78.5793103754498
20
7.07977619252438
30
0
41
1
10
78.6352940268372
20
6.90312541022502
30
0
41
1
10
78.7472613296122
20
6.51084530565612
30
0
41
1
10
78.8032449809995
20
6.29522142543183
30
0
41
1
10
78.9152122837744
20
5.82948614948884
30
0
41
1
10
78.9711959351619
20
5.57938859424092
30
0
41
1
10
79.0831632379368
20
5.0509841688895
30
0
41
1
10
79.1391468893243
20
4.77269737835584
30
0
41
1
10
79.2511141920991
20
4.19546093489765
30
0
41
1
10
79.3070978434865
20
3.89653406531548
30
0
41
1
10
79.4190651462614
20
3.2861745897786
30
0
41
1
10
79.4750487976488
20
2.97476359076012
30
0
41
1
10
79.5870161004237
20
2.34752291293665
30
0
41
1
10
79.6429997518112
20
2.03171050265186
30
0
41
1
10
79.7549670545861
20
1.40308963755535
30
0
41
1
10
79.8109507059735
20
1.09029234844598
30
0
41
1
10
79.8949261830546
20
0.628094097345098
30
0
41
1
10
79.9229180087484
20
0.475184717300777
30
0
41
1
10
79.964905747289
20
0.248054985001858
30
0
41
1
10
79.9789016601357
20
0.172716798602892
30
0
41
1
10
80.0068934858294
20
0.02285901250508
30
0
41
1
10
80.0208893986764
20
-0.0515131686369728
30
0
41
1
10
80.0908689629107
20
-0.426677642720563
30
0
41
1
10
80.1468526142982
20
-0.733336874535865
30
0
41
1
10
80.258819917073
20
-1.35434337323676
30
0
41
1
10
80.3148035684604
20
-1.66868408648995
30
0
41
1
10
80.4267708712352
20
-2.2983983191485
30
0
41
1
10
80.4827545226227
20
-2.61375886471407
30
0
41
1
10
80.5387381740102
20
-2.92581073398432
30
0
0
SPLINE
5
D5
100
AcDbEntity
8
1
62
256
6
ByLayer
370
13
48
1
60
0
100
AcDbSpline
70
4
71
3
72
42
73
38
40
0
40
0
40
0
40
0
40
0.0625
40
0.0625
40
0.125
40
0.125
40
0.1875
40
0.1875
40
0.25
40
0.25
40
0.3125
40
0.3125
40
0.375
40
0.375
40
0.40625
40
0.40625
40
0.421875
40
0.421875
40
0.4375
40
0.4375
40
0.5
40
0.5
40
0.5625
40
0.5625
40
0.625
40
0.625
40
0.6875
40
0.6875
40
0.75
40
0.75
40
0.8125
40
0.8125
40
0.875
40
0.875
40
0.9375
40
0.9375
40
1
40
1
40
1
40
1
41
1
10
71.9000000000001
20
-7.32148704954133
30
0
41
1
10
71.9766486779803
20
-7.11860669708472
30
0
41
1
10
72.0532973559605
20
-6.87657857070008
30
0
41
1
10
72.2065947119208
20
-6.32041251675582
30
0
41
1
10
72.2832433899011
20
-6.00630833475648
30
0
41
1
10
72.4365407458615
20
-5.31931621094128
30
0
41
1
10
72.5131894238418
20
-4.94651255687924
30
0
41
1
10
72.6664867798022
20
-4.16081755944057
30
0
41
1
10
72.7431354577824
20
-3.74803468223513
30
0
41
1
10
72.8964328137428
20
-2.90343862128896
30
0
41
1
10
72.9730814917231
20
-2.47172409680465
30
0
41
1
10
73.1263788476834
20
-1.609446723959
30
0
41
1
10
73.2030275256637
20
-1.17894798089867
30
0
41
1
10
73.318000542634
20
-0.546651779440651
30
0
41
1
10
73.3563248816241
20
-0.338095939668733
30
0
41
1
10
73.4138113901093
20
-0.0298185584705948
30
0
41
1
10
73.4329735596043
20
0.0719177973321621
30
0
41
1
10
73.4712978985943
20
0.277847200468585
30
0
41
1
10
73.4904600680895
20
0.381555958039087
30
0
41
1
10
73.5862709155647
20
0.903319622805327
30
0
41
1
10
73.662919593545
20
1.33121054540948
30
0
41
1
10
73.8162169495054
20
2.19222728600883
30
0
41
1
10
73.8928656274856
20
2.62529798603205
30
0
41
1
10
74.046162983446
20
3.47712495028702
30
0
41
1
10
74.1228116614262
20
3.89578847889001
30
0
41
1
10
74.2761090173867
20
4.69770373734849
30
0
41
1
10
74.3527576953668
20
5.08084632791983
30
0
41
1
10
74.5060550513273
20
5.79220181527563
30
0
41
1
10
74.5827037293075
20
6.12032244488847
30
0
41
1
10
74.7360010852679
20
6.70685037982528
30
0
41
1
10
74.8126497632481
20
6.96521175929661
30
0
41
1
10
74.9659471192086
20
7.40434602531235
30
0
41
1
10
75.0425957971888
20
7.58512970200414
30
0
41
1
10
75.1958931531492
20
7.86868644146713
30
0
41
1
10
75.2725418311294
20
7.97151493925213
30
0
41
1
10
75.4258391870899
20
8.10513407961483
30
0
41
1
10
75.50248786507
20
8.136
30
0
41
1
10
75.5791365430503
20
8.136
30
0
0
SPLINE
5
D6
100
AcDbEntity
8
1
62
256
6
ByLayer
370
13
48
1
60
0
100
AcDbSpline
70
4
71
3
72
42
73
38
40
0
40
0
40
0
40
0
40
0.0625000000000012
40
0.0625000000000012
40
0.125000000000002
40
0.125000000000002
40
0.187500000000003
40
0.187500000000003
40
0.250000000000005
40
0.250000000000005
40
0.312500000000006
40
0.312500000000006
40
0.375000000000007
40
0.375000000000007
40
0.437500000000008
40
0.437500000000008
40
0.500000000000009
40
0.500000000000009
40
0.56250000000001
40
0.56250000000001
40
0.625000000000011
40
0.625000000000011
40
0.656250000000012
40
0.656250000000012
40
0.671875000000012
40
0.671875000000012
40
0.687500000000012
40
0.687500000000012
40
0.750000000000009
40
0.750000000000009
40
0.812500000000007
40
0.812500000000007
40
0.875000000000005
40
0.875000000000005
40
0.937500000000002
40
0.937500000000002
40
1
40
1
40
1
40
1
41
1
10
77.3555627011234
20
8.136
30
0
41
1
10
77.4218788568086
20
8.136
30
0
41
1
10
77.4881950124937
20
8.11292068188033
30
0
41
1
10
77.620827323864
20
8.01388254283373
30
0
41
1
10
77.6871434795491
20
7.9378867515594
30
0
41
1
10
77.8197757909194
20
7.72845733809078
30
0
41
1
10
77.8860919466046
20
7.5949928145364
30
0
41
1
10
78.0187242579748
20
7.26935264988677
30
0
41
1
10
78.08504041366
20
7.07716170059129
30
0
41
1
10
78.2176727250303
20
6.63681006700156
30
0
41
1
10
78.2839888807154
20
6.38865668627898
30
0
41
1
10
78.4166211920857
20
5.84327901640788
30
0
41
1
10
78.4829373477708
20
5.54608552926683
30
0
41
1
10
78.6155696591411
20
4.91310850167505
30
0
41
1
10
78.6818858148262
20
4.57737273587068
30
0
41
1
10
78.8145181261965
20
3.88016335881321
30
0
41
1
10
78.8808342818817
20
3.51874281551917
30
0
41
1
10
79.013466593252
20
2.78382660944709
30
0
41
1
10
79.0797827489371
20
2.41037714605682
30
0
41
1
10
79.2124150603074
20
1.66434208340655
30
0
41
1
10
79.2787312159926
20
1.29178755151148
30
0
41
1
10
79.3782054495203
20
0.741875579708136
30
0
41
1
10
79.4113635273628
20
0.560040455482181
30
0
41
1
10
79.4611006441266
20
0.290343824324424
30
0
41
1
10
79.4776796830479
20
0.20095299227475
30
0
41
1
10
79.5108377608905
20
0.0233137171684632
30
0
41
1
10
79.5274167998118
20
-0.064751930855607
30
0
41
1
10
79.6103119944182
20
-0.509733216755052
30
0
41
1
10
79.6766281501033
20
-0.874809523060293
30
0
41
1
10
79.8092604614736
20
-1.61395053095663
30
0
41
1
10
79.8755766171587
20
-1.98799675118454
30
0
41
1
10
80.008208928529
20
-2.7334383670389
30
0
41
1
10
80.0745250842142
20
-3.10479780836619
30
0
41
1
10
80.2071573955844
20
-3.8316024228192
30
0
41
1
10
80.2734735512697
20
-4.18699832808963
30
0
41
1
10
80.4061058626399
20
-4.86828868574756
30
0
41
1
10
80.472422018325
20
-5.19413027516433
30
0
41
1
10
80.5387381740102
20
-5.49905285324866
30
0
0
SPLINE
5
D7
100
AcDbEntity
8
1
62
256
6
ByLayer
370
13
48
1
60
0
100
AcDbSpline
70
4
71
3
72
42
73
38
40
0
40
0
40
0
40
0
40
0.0624999999999999
40
0.0624999999999999
40
0.125
40
0.125
40
0.1875
40
0.1875
40
0.25
40
0.25
40
0.3125
40
0.3125
40
0.328125
40
0.328125
40
0.34375
40
0.34375
40
0.375
40
0.375
40
0.4375
40
0.4375
40
0.5
40
0.5
40
0.5625
40
0.5625
40
0.625
40
0.625
40
0.6875
40
0.6875
40
0.75
40
0.75
40
0.8125
40
0.8125
40
0.875
40
0.875
40
0.9375
40
0.9375
40
1
40
1
40
1
40
1
41
1
10
71.9
20
-5.49905682535086
30
0
41
1
10
71.9663161736825
20
-5.19413434539052
30
0
41
1
10
72.0326323473651
20
-4.86829281841614
30
0
41
1
10
72.1652646947301
20
-4.18700251563328
30
0
41
1
10
72.2315808684126
20
-3.83160660285651
30
0
41
1
10
72.3642132157776
20
-3.10480191264483
30
0
41
1
10
72.4305293894602
20
-2.73344240316695
30
0
41
1
10
72.5631617368252
20
-1.98800060489222
30
0
41
1
10
72.6294779105077
20
-1.61395427050101
30
0
41
1
10
72.7621102578727
20
-0.874813004884942
30
0
41
1
10
72.8284264315552
20
-0.50973655510569
30
0
41
1
10
72.9113216486584
20
-0.0647550814250337
30
0
41
1
10
72.927900692079
20
0.023310596900302
30
0
41
1
10
72.9610587789202
20
0.200949893573863
30
0
41
1
10
72.9776378223409
20
0.290340737423207
30
0
41
1
10
73.0273749526028
20
0.560037407058587
30
0
41
1
10
73.060533039444
20
0.74187256104841
30
0
41
1
10
73.1600072999677
20
1.29178463447963
30
0
41
1
10
73.2263234736502
20
1.66433925070996
30
0
41
1
10
73.3589558210152
20
2.41037451221098
30
0
41
1
10
73.4252719946978
20
2.78382409011701
30
0
41
1
10
73.5579043420628
20
3.5187405481206
30
0
41
1
10
73.6242205157454
20
3.88016122879378
30
0
41
1
10
73.7568528631104
20
4.57737089239882
30
0
41
1
10
73.8231690367929
20
4.91310680730209
30
0
41
1
10
73.955801384158
20
5.54608413156339
30
0
41
1
10
74.0221175578404
20
5.84327776619153
30
0
41
1
10
74.1547499052054
20
6.38865571636541
30
0
41
1
10
74.2210660788879
20
6.63680922983292
30
0
41
1
10
74.3536984262529
20
7.07716110368898
30
0
41
1
10
74.4200145999355
20
7.26935216046957
30
0
41
1
10
74.5526469473005
20
7.5949925085817
30
0
41
1
10
74.618963120983
20
7.72845710811791
30
0
41
1
10
74.751595468348
20
7.93788664051314
30
0
41
1
10
74.8179116420305
20
8.013882474768
30
0
41
1
10
74.9505439893956
20
8.11292066931293
30
0
41
1
10
75.0168601630781
20
8.136
30
0
41
1
10
75.0831763367606
20
8.136
30
0
0
SPLINE
5
D8
100
AcDbEntity
8
1
62
256
6
ByLayer
370
13
48
1
60
0
100
AcDbSpline
70
4
71
3
72
42
73
38
40
0
40
0
40
0
40
0
40
0.0624999999999999
40
0.0624999999999999
40
0.125
40
0.125
40
0.1875
40
0.1875
40
0.25
40
0.25
40
0.3125
40
0.3125
40
0.375
40
0.375
40
0.4375
40
0.4375
40
0.5
40
0.5
40
0.5625
40
0.5625
40
0.578124999999999
40
0.578124999999999
40
0.593749999999999
40
0.593749999999999
40
0.625
40
0.625
40
0.6875
40
0.6875
40
0.75
40
0.75
40
0.8125
40
0.8125
40
0.875
40
0.875
40
0.9375
40
0.9375
40
1
40
1
40
1
40
1
41
1
10
76.8596024948337
20
8.136
30
0
41
1
10
76.9362511548166
20
8.136
30
0
41
1
10
77.0128998147994
20
8.1051340941759
30
0
41
1
10
77.1661971347651
20
7.97151501881373
30
0
41
1
10
77.242845794748
20
7.86868657155452
30
0
41
1
10
77.3961431147137
20
7.58512997139724
30
0
41
1
10
77.4727917746966
20
7.40434638353432
30
0
41
1
10
77.6260890946622
20
6.96521232906653
30
0
41
1
10
77.702737754645
20
6.70685107228863
30
0
41
1
10
77.8560350746106
20
6.12032340505004
30
0
41
1
10
77.9326837345935
20
5.79220292033622
30
0
41
1
10
78.0859810545592
20
5.08084772828943
30
0
41
1
10
78.1626297145421
20
4.69770528798085
30
0
41
1
10
78.3159270345077
20
3.89579031752132
30
0
41
1
10
78.3925756944906
20
3.47712692652814
30
0
41
1
10
78.5458730144563
20
2.62530021004022
30
0
41
1
10
78.6225216744392
20
2.19222962011506
30
0
41
1
10
78.7758189944047
20
1.33121306337529
30
0
41
1
10
78.8524676543876
20
0.903322214547018
30
0
41
1
10
78.9482784793662
20
0.381558617924782
30
0
41
1
10
78.9674406443619
20
0.277849872794206
30
0
41
1
10
79.0057649743533
20
0.071920492181647
30
0
41
1
10
79.0249271393491
20
-0.0298158454801012
30
0
41
1
10
79.0824136343361
20
-0.338093113808128
30
0
41
1
10
79.1207379643276
20
-0.54664888025809
30
0
41
1
10
79.2357109543019
20
-1.17894487134606
30
0
41
1
10
79.3123596142847
20
-1.60944348694102
30
0
41
1
10
79.4656569342504
20
-2.47172065245567
30
0
41
1
10
79.5423055942333
20
-2.9034350972556
30
0
41
1
10
79.6956029141988
20
-3.7480310669628
30
0
41
1
10
79.7722515741818
20
-4.16081393279899
30
0
41
1
10
79.9255488941474
20
-4.94650898864907
30
0
41
1
10
80.0021975541302
20
-5.3193127125972
30
0
41
1
10
80.155494874096
20
-6.0063050581588
30
0
41
1
10
80.2321435340788
20
-6.32040939198498
30
0
41
1
10
80.3854408540445
20
-6.87657581893239
30
0
41
1
10
80.4620895140274
20
-7.11860416633127
30
0
41
1
10
80.5387381740102
20
-7.32148476296376
30
0
0
SPLINE
5
D9
100
AcDbEntity
8
1
62
256
6
ByLayer
370
13
48
1
60
0
100
AcDbSpline
70
4
71
3
72
41
73
37
40
0
40
0
40
0
40
0
40
0.0624999999999998
40
0.0624999999999998
40
0.125
40
0.125
40
0.1875
40
0.1875
40
0.203125
40
0.203125
40
0.21875
40
0.249999999999999
40
0.249999999999999
40
0.312499999999999
40
0.312499999999999
40
0.374999999999999
40
0.374999999999999
40
0.437499999999999
40
0.437499999999999
40
0.499999999999999
40
0.499999999999999
40
0.5625
40
0.5625
40
0.625
40
0.625
40
0.6875
40
0.6875
40
0.75
40
0.75
40
0.8125
40
0.8125
40
0.875
40
0.875
40
0.9375
40
0.9375
40
1
40
1
40
1
40
1
41
1
10
71.9
20
-2.92581554920116
30
0
41
1
10
71.9559836693849
20
-2.61376361396123
30
0
41
1
10
72.0119673387696
20
-2.29840297974081
30
0
41
1
10
72.1239346775393
20
-1.66868853559339
30
0
41
1
10
72.1799183469241
20
-1.35434769955759
30
0
41
1
10
72.2918856856937
20
-0.733340933026568
30
0
41
1
10
72.3478693550786
20
-0.426681556202539
30
0
41
1
10
72.4178489418096
20
-0.0515168939078308
30
0
41
1
10
72.4318448591557
20
0.0228553163975107
30
0
41
1
10
72.4598366938481
20
0.172713123843892
30
0
41
1
10
72.5018244458868
20
0.398726387111282
30
0
41
1
10
72.5438121979254
20
0.628090499561466
30
0
41
1
10
72.6277877020025
20
1.0902888458649
30
0
41
1
10
72.6837713713874
20
1.4030862124348
30
0
41
1
10
72.795738710157
20
2.03170725892824
30
0
41
1
10
72.8517223795418
20
2.34751977315429
30
0
41
1
10
72.9636897183115
20
2.9747606812675
30
0
41
1
10
73.0196733876962
20
3.28617180662437
30
0
41
1
10
73.1316407264659
20
3.89653155064815
30
0
41
1
10
73.1876243958507
20
4.19545856235277
30
0
41
1
10
73.2995917346203
20
4.77269529728366
30
0
41
1
10
73.3555754040051
20
5.05098223712915
30
0
41
1
10
73.4675427427747
20
5.57938695875046
30
0
41
1
10
73.5235264121596
20
5.82948466091386
30
0
41
1
10
73.6354937509291
20
6.29522021900198
30
0
41
1
10
73.691477420314
20
6.51084423441901
30
0
41
1
10
73.8034447590836
20
6.90312458983533
30
0
41
1
10
73.8594284284684
20
7.07977548776634
30
0
41
1
10
73.971395767238
20
7.39168057547764
30
0
41
1
10
74.0273794366228
20
7.52693794693781
30
0
41
1
10
74.1393467753924
20
7.75573862617961
30
0
41
1
10
74.1953304447773
20
7.84929215709784
30
0
41
1
10
74.3072977835469
20
7.99627079214255
30
0
41
1
10
74.3632814529317
20
8.0497104551084
30
0
41
1
10
74.4752487917013
20
8.11956708285229
30
0
41
1
10
74.5312324610861
20
8.136
30
0
41
1
10
74.5872161304709
20
8.136
30
0
0
SPLINE
5
DA
100
AcDbEntity
8
1
62
256
6
ByLayer
370
13
48
1
60
0
100
AcDbSpline
70
4
71
3
72
50
73
46
40
0
40
0
40
0
40
0
40
0.0625000000000001
40
0.0625000000000001
40
0.125
40
0.125
40
0.1875
40
0.1875
40
0.218750000000001
40
0.218750000000001
40
0.250000000000001
40
0.250000000000001
40
0.281250000000001
40
0.281250000000001
40
0.312500000000001
40
0.312500000000001
40
0.375000000000002
40
0.375000000000002
40
0.437500000000004
40
0.437500000000004
40
0.500000000000005
40
0.500000000000005
40
0.515625000000005
40
0.515625000000005
40
0.523437500000005
40
0.523437500000005
40
0.531250000000005
40
0.531250000000005
40
0.562500000000005
40
0.562500000000005
40
0.625000000000005
40
0.625000000000005
40
0.687500000000005
40
0.687500000000005
40
0.750000000000005
40
0.750000000000005
40
0.781250000000004
40
0.781250000000004
40
0.812500000000004
40
0.812500000000004
40
0.875000000000003
40
0.875000000000003
40
0.937500000000001
40
0.937500000000001
40
1
40
1
40
1
40
1
41
1
10
76.363642288544
20
8.136
30
0
41
1
10
76.4506234528246
20
8.136
30
0
41
1
10
76.5376046171052
20
8.09619782036989
30
0
41
1
10
76.7115669456662
20
7.92249063457854
30
0
41
1
10
76.7985481099467
20
7.78844676694459
30
0
41
1
10
76.9725104385078
20
7.41908865185354
30
0
41
1
10
77.0594916027884
20
7.18368926856093
30
0
41
1
10
77.1899633492092
20
6.75766133638877
30
0
41
1
10
77.2334539313495
20
6.60359325990893
30
0
41
1
10
77.32043509563
20
6.27301497679198
30
0
41
1
10
77.3639256777703
20
6.09650739785025
30
0
41
1
10
77.4509068420508
20
5.72344903541827
30
0
41
1
10
77.4943974241911
20
5.52690262911045
30
0
41
1
10
77.5813785884716
20
5.11678161094079
30
0
41
1
10
77.6248691706119
20
4.90321268846384
30
0
41
1
10
77.7553409170328
20
4.24218084149175
30
0
41
1
10
77.8423220813133
20
3.77436962353386
30
0
41
1
10
78.0162844098745
20
2.81487503670272
30
0
41
1
10
78.1032655741549
20
2.3233755286212
30
0
41
1
10
78.277227902716
20
1.34573192464364
30
0
41
1
10
78.3642090669966
20
0.859695918018389
30
0
41
1
10
78.4729355223474
20
0.269944497316118
30
0
41
1
10
78.4946808134175
20
0.152865554516808
30
0
41
1
10
78.5272987500226
20
-0.0212344179342665
30
0
41
1
10
78.5381713955578
20
-0.0791626556738265
30
0
41
1
10
78.5599166866279
20
-0.195801315931476
30
0
41
1
10
78.5707893321629
20
-0.254363714462528
30
0
41
1
10
78.6251525598383
20
-0.548302571525568
30
0
41
1
10
78.6686431419785
20
-0.787078915381358
30
0
41
1
10
78.7991148883993
20
-1.51041834849286
30
0
41
1
10
78.8860960526798
20
-2.00218355536302
30
0
41
1
10
79.0600583812409
20
-2.97883312496498
30
0
41
1
10
79.1470395455216
20
-3.46357128982783
30
0
41
1
10
79.3210018740826
20
-4.39565876592988
30
0
41
1
10
79.4079830383632
20
-4.84280680144624
30
0
41
1
10
79.5384547847839
20
-5.46332313822498
30
0
41
1
10
79.5819453669242
20
-5.66182232998995
30
0
41
1
10
79.6689265312048
20
-6.03907870812708
30
0
41
1
10
79.7124171133451
20
-6.21783135400636
30
0
41
1
10
79.8428888597659
20
-6.72076609164517
30
0
41
1
10
79.9298700240464
20
-7.01123176917744
30
0
41
1
10
80.1038323526075
20
-7.49152848853646
30
0
41
1
10
80.1908135168881
20
-7.68138976586292
30
0
41
1
10
80.3647758454491
20
-7.9616057661072
30
0
41
1
10
80.4517570097296
20
-8.05207755293156
30
0
41
1
10
80.5387381740102
20
-8.09831590649847
30
0
0
SPLINE
5
DB
100
AcDbEntity
8
1
62
256
6
ByLayer
370
13
48
1
60
0
100
AcDbSpline
70
4
71
3
72
38
73
34
40
0
40
0
40
0
40
0
40
0.0312499999999997
40
0.0312499999999997
40
0.0624999999999994
40
0.0624999999999994
40
0.124999999999999
40
0.124999999999999
40
0.187499999999999
40
0.187499999999999
40
0.25
40
0.25
40
0.3125
40
0.3125
40
0.375
40
0.375
40
0.4375
40
0.4375
40
0.5
40
0.5
40
0.5625
40
0.5625
40
0.625
40
0.625
40
0.6875
40
0.6875
40
0.75
40
0.75
40
0.8125
40
0.8125
40
0.875
40
0.875
40
1
40
1
40
1
40
1
41
1
10
71.9000000000001
20
-0.168906314481688
30
0
41
1
10
71.9228255825436
20
-0.0462911832335919
30
0
41
1
10
71.9456511650872
20
0.0747998870402284
30
0
41
1
10
71.9913023301743
20
0.320357605624537
30
0
41
1
10
72.0141279127179
20
0.44418271089873
30
0
41
1
10
72.0826046603485
20
0.818281183471214
30
0
41
1
10
72.1282558254356
20
1.0711956516341
30
0
41
1
10
72.2195581556098
20
1.58085976173788
30
0
41
1
10
72.265209320697
20
1.83760635026809
30
0
41
1
10
72.3565116508711
20
2.35119733741538
30
0
41
1
10
72.4021628159583
20
2.60803678711207
30
0
41
1
10
72.4934651461325
20
3.11765701283753
30
0
41
1
10
72.5391163112196
20
3.37043114192346
30
0
41
1
10
72.6304186413937
20
3.86752013208937
30
0
41
1
10
72.6760698064809
20
4.11182715262782
30
0
41
1
10
72.7673721366551
20
4.58755680200176
30
0
41
1
10
72.8130233017422
20
4.81897117051136
30
0
41
1
10
72.9043256319164
20
5.26471061973064
30
0
41
1
10
72.9499767970035
20
5.47902795056174
30
0
41
1
10
73.0412791271777
20
5.88683251853769
30
0
41
1
10
73.0869302922649
20
6.08031343447033
30
0
41
1
10
73.1782326224391
20
6.44338300651532
30
0
41
1
10
73.2238837875262
20
6.61296749584142
30
0
41
1
10
73.3151861177004
20
6.92602057675703
30
0
41
1
10
73.3608372827875
20
7.06948754906543
30
0
41
1
10
73.4521396129617
20
7.32900844762472
30
0
41
1
10
73.4977907780489
20
7.44506330293078
30
0
41
1
10
73.589093108223
20
7.64939929165783
30
0
41
1
10
73.6347442733102
20
7.7376835446812
30
0
41
1
10
73.7260466034844
20
7.88699169996795
30
0
41
1
10
73.7716977685715
20
7.94802030425103
30
0
41
1
10
73.9086512638328
20
8.09211691371524
30
0
41
1
10
73.999953594007
20
8.136
30
0
41
1
10
74.0912559241813
20
8.136
30
0
0
SPLINE
5
DC
100
AcDbEntity
8
1
62
256
6
ByLayer
370
13
48
1
60
0
100
AcDbSpline
70
4
71
3
72
78
73
74
40
0
40
0
40
0
40
0
40
0.0312499999999993
40
0.0312499999999993
40
0.0624999999999986
40
0.0624999999999986
40
0.093749999999998
40
0.093749999999998
40
0.124999999999997
40
0.124999999999997
40
0.156249999999997
40
0.156249999999997
40
0.187499999999996
40
0.187499999999996
40
0.218749999999995
40
0.218749999999995
40
0.249999999999995
40
0.249999999999995
40
0.281249999999995
40
0.281249999999995
40
0.312499999999994
40
0.312499999999994
40
0.343749999999994
40
0.343749999999994
40
0.374999999999994
40
0.374999999999994
40
0.406249999999994
40
0.406249999999994
40
0.437499999999994
40
0.437499999999994
40
0.453124999999994
40
0.453124999999994
40
0.460937499999994
40
0.460937499999994
40
0.468749999999994
40
0.468749999999994
40
0.499999999999994
40
0.499999999999994
40
0.531249999999995
40
0.531249999999995
40
0.562499999999995
40
0.562499999999995
40
0.593749999999995
40
0.593749999999995
40
0.624999999999996
40
0.624999999999996
40
0.656249999999996
40
0.656249999999996
40
0.687499999999996
40
0.687499999999996
40
0.718749999999997
40
0.718749999999997
40
0.749999999999997
40
0.749999999999997
40
0.781249999999997
40
0.781249999999997
40
0.812499999999998
40
0.812499999999998
40
0.843749999999998
40
0.843749999999998
40
0.874999999999998
40
0.874999999999998
40
0.906249999999999
40
0.906249999999999
40
0.921874999999999
40
0.921874999999999
40
0.929687499999999
40
0.929687499999999
40
0.937499999999999
40
0.937499999999999
40
0.96875
40
0.96875
40
1
40
1
40
1
40
1
41
1
10
75.8676820822544
20
8.136
30
0
41
1
10
75.9163389165435
20
8.136
30
0
41
1
10
75.9649957508327
20
8.12359337412954
30
0
41
1
10
76.062309419411
20
8.07122274673287
30
0
41
1
10
76.1109662537
20
8.03125082797547
30
0
41
1
10
76.2082799222783
20
7.9215521395229
30
0
41
1
10
76.2569367565674
20
7.85181781575974
30
0
41
1
10
76.3542504251456
20
7.68119406807361
30
0
41
1
10
76.4029072594347
20
7.58029853667992
30
0
41
1
10
76.5002209280129
20
7.34695862597124
30
0
41
1
10
76.5488777623021
20
7.21451068382339
30
0
41
1
10
76.6461914308803
20
6.91882794276219
30
0
41
1
10
76.6948482651695
20
6.75559298967812
30
0
41
1
10
76.7921619337477
20
6.40031272324563
30
0
41
1
10
76.8408187680369
20
6.20827105049486
30
0
41
1
10
76.9381324366151
20
5.79851698857294
30
0
41
1
10
76.9867892709042
20
5.58081178974246
30
0
41
1
10
77.0841029394825
20
5.12386940218735
30
0
41
1
10
77.1327597737716
20
4.88464208237599
30
0
41
1
10
77.2300734423498
20
4.38953342616225
30
0
41
1
10
77.2787302766389
20
4.13366331642706
30
0
41
1
10
77.3760439452172
20
3.6105644106965
30
0
41
1
10
77.4247007795063
20
3.34334672366882
30
0
41
1
10
77.5220144480846
20
2.80292456921356
30
0
41
1
10
77.5706712823737
20
2.52972977897713
30
0
41
1
10
77.667984950952
20
1.98248526680672
30
0
41
1
10
77.7166417852411
20
1.70844287663311
30
0
41
1
10
77.8139554538193
20
1.16413670813358
30
0
41
1
10
77.8626122881084
20
0.893877507214285
30
0
41
1
10
77.9355975395421
20
0.49428927688993
30
0
41
1
10
77.9599259566867
20
0.362054253852222
30
0
41
1
10
77.9964185824035
20
0.165459705931028
30
0
41
1
10
78.0085827909759
20
0.100220804561161
30
0
41
1
10
78.0329112081204
20
-0.029623666312375
30
0
41
1
10
78.0450754166927
20
-0.0944688044302779
30
0
41
1
10
78.1058964595541
20
-0.421049054419626
30
0
41
1
10
78.1545532938432
20
-0.687168078241342
30
0
41
1
10
78.2518669624214
20
-1.22561712992413
30
0
41
1
10
78.3005237967105
20
-1.49794420319293
30
0
41
1
10
78.3978374652888
20
-2.04456554625838
30
0
41
1
10
78.4464942995779
20
-2.31885409424288
30
0
41
1
10
78.5438079681562
20
-2.86453972430758
30
0
41
1
10
78.5924648024452
20
-3.1359284359051
30
0
41
1
10
78.6897784710235
20
-3.67055319147164
30
0
41
1
10
78.7384353053127
20
-3.93377883507418
30
0
41
1
10
78.8357489738909
20
-4.44669820249376
30
0
41
1
10
78.88440580818
20
-4.69638059451805
30
0
41
1
10
78.9817194767583
20
-5.17704684324468
30
0
41
1
10
79.0303763110473
20
-5.40801985201219
30
0
41
1
10
79.1276899796256
20
-5.84665176180866
30
0
41
1
10
79.1763468139147
20
-6.05430175036605
30
0
41
1
10
79.273660482493
20
-6.44252503697504
30
0
41
1
10
79.3223173167821
20
-6.62309252562511
30
0
41
1
10
79.4196309853604
20
-6.95446618343789
30
0
41
1
10
79.4682878196495
20
-7.10527027325401
30
0
41
1
10
79.5656014882277
20
-7.37563063338831
30
0
41
1
10
79.6142583225169
20
-7.49518853171372
30
0
41
1
10
79.7115719910951
20
-7.70277420219861
30
0
41
1
10
79.7602288253842
20
-7.79080670240816
30
0
41
1
10
79.8575424939625
20
-7.93616527740178
30
0
41
1
10
79.9061993282515
20
-7.9934981888305
30
0
41
1
10
80.0035129968298
20
-8.07920971269783
30
0
41
1
10
80.052169831119
20
-8.10759615067687
30
0
41
1
10
80.1251550825527
20
-8.13030226885778
30
0
41
1
10
80.1494834996971
20
-8.13456346266491
30
0
41
1
10
80.185976125414
20
-8.13625801078328
30
0
41
1
10
80.1981403339863
20
-8.13604696270227
30
0
41
1
10
80.2224687511309
20
-8.13405480049067
30
0
41
1
10
80.2346329597032
20
-8.13226982247051
30
0
41
1
10
80.2954540025646
20
-8.11928951269044
30
0
41
1
10
80.3441108368537
20
-8.09590742259397
30
0
41
1
10
80.441424505432
20
-8.02060495682119
30
0
41
1
10
80.4900813397211
20
-7.96867669127272
30
0
41
1
10
80.5387381740102
20
-7.90152982865433
30
0
0
SPLINE
5
DD
100
AcDbEntity
8
1
62
256
6
ByLayer
370
13
48
1
60
0
100
AcDbSpline
70
4
71
3
72
22
73
18
40
0
40
0
40
0
40
0
40
0.125
40
0.125
40
0.25
40
0.25
40
0.375
40
0.375
40
0.5
40
0.5
40
0.625
40
0.625
40
0.75
40
0.75
40
0.875
40
0.875
40
1
40
1
40
1
40
1
41
1
10
71.9
20
2.57265329778005
30
0
41
1
10
71.9706373215788
20
2.96884856991127
30
0
41
1
10
72.0412746431576
20
3.36212383354109
30
0
41
1
10
72.1825492863153
20
4.12666675083619
30
0
41
1
10
72.2531866078941
20
4.49786417905943
30
0
41
1
10
72.3944612510517
20
5.2020566308332
30
0
41
1
10
72.4650985726306
20
5.53498132626962
30
0
41
1
10
72.6063732157882
20
6.1486925211496
30
0
41
1
10
72.6770105373669
20
6.42942785107499
30
0
41
1
10
72.8182851805246
20
6.92897888305842
30
0
41
1
10
72.8889225021034
20
7.14777588136894
30
0
41
1
10
73.030197145261
20
7.51891333244973
30
0
41
1
10
73.1008344668399
20
7.67126921036731
30
0
41
1
10
73.2421091099975
20
7.91027570126249
30
0
41
1
10
73.3127464315763
20
7.99696653434964
30
0
41
1
10
73.454021074734
20
8.10980345417644
30
0
41
1
10
73.5246583963128
20
8.136
30
0
41
1
10
73.5952957178915
20
8.136
30
0
0
SPLINE
5
DE
100
AcDbEntity
8
1
62
256
6
ByLayer
370
13
48
1
60
0
100
AcDbSpline
70
4
71
3
72
76
73
72
40
0
40
0
40
0
40
0
40
0.03125
40
0.03125
40
0.0625
40
0.0625
40
0.09375
40
0.09375
40
0.125
40
0.125
40
0.15625
40
0.15625
40
0.1875
40
0.1875
40
0.21875
40
0.21875
40
0.25
40
0.25
40
0.28125
40
0.28125
40
0.3125
40
0.3125
40
0.34375
40
0.34375
40
0.375
40
0.375
40
0.40625
40
0.40625
40
0.4140625
40
0.4140625
40
0.421875
40
0.421875
40
0.4375
40
0.4375
40
0.46875
40
0.46875
40
0.5
40
0.5
40
0.53125
40
0.53125
40
0.5625
40
0.5625
40
0.59375
40
0.59375
40
0.625
40
0.625
40
0.65625
40
0.65625
40
0.6875
40
0.6875
40
0.71875
40
0.71875
40
0.75
40
0.75
40
0.78125
40
0.78125
40
0.8125
40
0.8125
40
0.828125
40
0.828125
40
0.84375
40
0.84375
40
0.875
40
0.875
40
0.90625
40
0.90625
40
0.9375
40
0.9375
40
0.96875
40
0.96875
40
1
40
1
40
1
40
1
41
1
10
75.3717218759647
20
8.136
30
0
41
1
10
75.4255449624027
20
8.136
30
0
41
1
10
75.4793680488406
20
8.12081348348994
30
0
41
1
10
75.5870142217166
20
8.05638724993725
30
0
41
1
10
75.6408373081546
20
8.0071344230775
30
0
41
1
10
75.7484834810306
20
7.87174908449788
30
0
41
1
10
75.8023065674685
20
7.78560443351824
30
0
41
1
10
75.9099527403444
20
7.57487360274098
30
0
41
1
10
75.9637758267825
20
7.45027848126003
30
0
41
1
10
76.0714219996584
20
7.1626745780726
30
0
41
1
10
76.1252450860964
20
6.99966216850177
30
0
41
1
10
76.2328912589724
20
6.63703764414643
30
0
41
1
10
76.2867143454102
20
6.43742859545975
30
0
41
1
10
76.3943605182862
20
6.00522360969765
30
0
41
1
10
76.4481836047242
20
5.7726375519328
30
0
41
1
10
76.5558297776001
20
5.2796951070253
30
0
41
1
10
76.6096528640381
20
5.01935409043
30
0
41
1
10
76.717299036914
20
4.47733678820686
30
0
41
1
10
76.771122123352
20
4.1956788877344
30
0
41
1
10
76.878768296228
20
3.61816455865372
30
0
41
1
10
76.9325913826659
20
3.3223265639198
30
0
41
1
10
77.0402375555419
20
2.72372654353549
30
0
41
1
10
77.0940606419798
20
2.42098032559264
30
0
41
1
10
77.2017068148558
20
1.81545268058503
30
0
41
1
10
77.2555299012938
20
1.51268264917792
30
0
41
1
10
77.3631760741697
20
0.913196528878615
30
0
41
1
10
77.4169991606078
20
0.616486763545055
30
0
41
1
10
77.4842780186552
20
0.252522124121668
30
0
41
1
10
77.4977337902646
20
0.180072521046924
30
0
41
1
10
77.5246453334837
20
0.035926860636522
30
0
41
1
10
77.5381011050932
20
-0.0355724439946243
30
0
41
1
10
77.5784684199216
20
-0.251787217725592
30
0
41
1
10
77.6053799631406
20
-0.397440014773906
30
0
41
1
10
77.6861145927976
20
-0.838096850851315
30
0
41
1
10
77.7399376792355
20
-1.1368337564449
30
0
41
1
10
77.8475838521115
20
-1.73894905170226
30
0
41
1
10
77.9014069385495
20
-2.04231984968987
30
0
41
1
10
78.0090531114254
20
-2.6473931488286
30
0
41
1
10
78.0628761978634
20
-2.94908304705916
30
0
41
1
10
78.1705223707394
20
-3.54377366177863
30
0
41
1
10
78.2243454571773
20
-3.83675770607445
30
0
41
1
10
78.3319916300533
20
-4.40674856404138
30
0
41
1
10
78.3858147164913
20
-4.6837366816296
30
0
41
1
10
78.4934608893672
20
-5.21471996530164
30
0
41
1
10
78.5472839758052
20
-5.4686972264177
30
0
41
1
10
78.6549301486812
20
-5.94747586045855
30
0
41
1
10
78.7087532351191
20
-6.17226303732392
30
0
41
1
10
78.8163994079951
20
-6.58780394394196
30
0
41
1
10
78.870222494433
20
-6.7785494260566
30
0
41
1
10
78.9778686673089
20
-7.12281913979768
30
0
41
1
10
79.0316917537469
20
-7.27634204287219
30
0
41
1
10
79.1393379266228
20
-7.54479459305057
30
0
41
1
10
79.1931610130608
20
-7.6597293629126
30
0
41
1
10
79.3008071859368
20
-7.85138940331143
30
0
41
1
10
79.3546302723747
20
-7.92812462647382
30
0
41
1
10
79.4622764452507
20
-8.04529180058992
30
0
41
1
10
79.5160995316887
20
-8.08573633330309
30
0
41
1
10
79.5968341613457
20
-8.12148707784311
30
0
41
1
10
79.6237457045646
20
-8.1292592695489
30
0
41
1
10
79.6775687910026
20
-8.13697510123902
30
0
41
1
10
79.7044803342216
20
-8.13698123630959
30
0
41
1
10
79.7852149638786
20
-8.12544610140088
30
0
41
1
10
79.8390380503166
20
-8.10207649384014
30
0
41
1
10
79.9466842231924
20
-8.02048088816196
30
0
41
1
10
80.0005073096305
20
-7.96224182872035
30
0
41
1
10
80.1081534825064
20
-7.80836152399698
30
0
41
1
10
80.1619765689444
20
-7.71270872318846
30
0
41
1
10
80.2696227418203
20
-7.48280932272081
30
0
41
1
10
80.3234458282583
20
-7.34855492735059
30
0
41
1
10
80.4310920011343
20
-7.04191400406688
30
0
41
1
10
80.4849150875722
20
-6.86952543188485
30
0
41
1
10
80.5387381740102
20
-6.67920565807702
30
0
0
SPLINE
5
DF
100
AcDbEntity
8
1
62
256
6
ByLayer
370
13
48
1
60
0
100
AcDbSpline
70
4
71
3
72
22
73
18
40
0
40
0
40
0
40
0
40
0.125
40
0.125
40
0.25
40
0.25
40
0.375
40
0.375
40
0.5
40
0.5
40
0.625
40
0.625
40
0.75
40
0.75
40
0.875
40
0.875
40
1
40
1
40
1
40
1
41
1
10
71.9
20
5.20261192351063
30
0
41
1
10
71.9499723129834
20
5.44191707373804
30
0
41
1
10
71.9999446259668
20
5.67039304589491
30
0
41
1
10
72.0998892519336
20
6.10103248472237
30
0
41
1
10
72.149861564917
20
6.30318706292641
30
0
41
1
10
72.2498061908839
20
6.67756791652383
30
0
41
1
10
72.2997785038673
20
6.84978933591546
30
0
41
1
10
72.3997231298341
20
7.16196003247589
30
0
41
1
10
72.4496954428176
20
7.30190890965821
30
0
41
1
10
72.5496400687844
20
7.54854235356851
30
0
41
1
10
72.5996123817678
20
7.65523060779648
30
0
41
1
10
72.6995570077346
20
7.83565085567378
30
0
41
1
10
72.749529320718
20
7.90938963421166
30
0
41
1
10
72.8494739466848
20
8.02535779461695
30
0
41
1
10
72.8994462596683
20
8.06759574866831
30
0
41
1
10
72.9993908856351
20
8.12291232752403
30
0
41
1
10
73.0493631986185
20
8.136
30
0
41
1
10
73.0993355116019
20
8.136
30
0
0
SPLINE
5
E0
100
AcDbEntity
8
1
62
256
6
ByLayer
370
13
48
1
60
0
100
AcDbSpline
70
4
71
3
72
77
73
73
40
0
40
0
40
0
40
0
40
0.0312499999999998
40
0.0312499999999998
40
0.0624999999999997
40
0.0624999999999997
40
0.0937499999999995
40
0.0937499999999995
40
0.124999999999999
40
0.124999999999999
40
0.156249999999999
40
0.156249999999999
40
0.187499999999999
40
0.187499999999999
40
0.218749999999999
40
0.218749999999999
40
0.249999999999999
40
0.249999999999999
40
0.281249999999999
40
0.281249999999999
40
0.312499999999999
40
0.312499999999999
40
0.343749999999999
40
0.343749999999999
40
0.374999999999998
40
0.374999999999998
40
0.382812499999998
40
0.382812499999998
40
0.390624999999998
40
0.406249999999998
40
0.406249999999998
40
0.437499999999998
40
0.437499999999998
40
0.468749999999998
40
0.468749999999998
40
0.499999999999998
40
0.499999999999998
40
0.531249999999998
40
0.531249999999998
40
0.562499999999998
40
0.562499999999998
40
0.593749999999998
40
0.593749999999998
40
0.624999999999998
40
0.624999999999998
40
0.656249999999998
40
0.656249999999998
40
0.687499999999998
40
0.687499999999998
40
0.718749999999998
40
0.718749999999998
40
0.749999999999998
40
0.749999999999998
40
0.757812499999998
40
0.757812499999998
40
0.765624999999998
40
0.765624999999998
40
0.781249999999998
40
0.781249999999998
40
0.812499999999998
40
0.812499999999998
40
0.843749999999999
40
0.843749999999999
40
0.874999999999999
40
0.874999999999999
40
0.906249999999999
40
0.906249999999999
40
0.937499999999999
40
0.937499999999999
40
0.96875
40
0.96875
40
1
40
1
40
1
40
1
41
1
10
74.8757616696751
20
8.136
30
0
41
1
10
74.9347510082619
20
8.136
30
0
41
1
10
74.9937403468487
20
8.11775079431212
30
0
41
1
10
75.1117190240223
20
8.03995546907765
30
0
41
1
10
75.1707083626092
20
7.98038865454831
30
0
41
1
10
75.2886870397829
20
7.81644201481387
30
0
41
1
10
75.3476763783697
20
7.71204371809878
30
0
41
1
10
75.4656550555433
20
7.45684165119189
30
0
41
1
10
75.5246443941301
20
7.30602588081467
30
0
41
1
10
75.6426230713037
20
6.9587937914653
30
0
41
1
10
75.7016124098906
20
6.76237565123699
30
0
41
1
10
75.8195910870642
20
6.32736162631446
30
0
41
1
10
75.878580425651
20
6.08877587057549
30
0
41
1
10
75.9965591028247
20
5.57534705517998
30
0
41
1
10
76.0555484414115
20
5.30052497854393
30
0
41
1
10
76.1735271185852
20
4.72256768910111
30
0
41
1
10
76.232516457172
20
4.41946044525918
30
0
41
1
10
76.3504951343456
20
3.79414912632086
30
0
41
1
10
76.4094844729325
20
3.47197455266212
30
0
41
1
10
76.5274631501061
20
2.81813304616443
30
0
41
1
10
76.5864524886929
20
2.48649185039594
30
0
41
1
10
76.7044311658666
20
1.82286152764559
30
0
41
1
10
76.7634205044534
20
1.49089072262686
30
0
41
1
10
76.8813991816271
20
0.834612499663365
30
0
41
1
10
76.9403885202139
20
0.510314643395816
30
0
41
1
10
77.0141251934474
20
0.113767492110611
30
0
41
1
10
77.0288725280942
20
0.0351470569737842
30
0
41
1
10
77.0583671973876
20
-0.122335754827986
30
0
41
1
10
77.1026092013277
20
-0.35995052963915
30
0
41
1
10
77.1468512052679
20
-0.601359066493814
30
0
41
1
10
77.2353352131481
20
-1.08807744967487
30
0
41
1
10
77.2943245517349
20
-1.41780526045361
30
0
41
1
10
77.4123032289085
20
-2.08037487050313
30
0
41
1
10
77.4712925674953
20
-2.4132018870217
30
0
41
1
10
77.5892712446689
20
-3.07323591313758
30
0
41
1
10
77.6482605832558
20
-3.40041989386236
30
0
41
1
10
77.7662392604295
20
-4.03966687793047
30
0
41
1
10
77.8252285990163
20
-4.3517013418232
30
0
41
1
10
77.9432072761899
20
-4.95116784856165
30
0
41
1
10
78.0021966147767
20
-5.23857060793296
30
0
41
1
10
78.1201752919504
20
-5.78019924061067
30
0
41
1
10
78.1791646305372
20
-6.03440068997685
30
0
41
1
10
78.2971433077109
20
-6.50278662307312
30
0
41
1
10
78.3561326462977
20
-6.71695624888324
30
0
41
1
10
78.4741113234713
20
-7.10077865453471
30
0
41
1
10
78.5331006620581
20
-7.27042844752447
30
0
41
1
10
78.6510793392318
20
-7.56332536046602
30
0
41
1
10
78.7100686778186
20
-7.68658069911328
30
0
41
1
10
78.8280473549922
20
-7.88733313241278
30
0
41
1
10
78.887036693579
20
-7.96484657490342
30
0
41
1
10
79.0050153707528
20
-8.07690771106115
30
0
41
1
10
79.0640047093397
20
-8.11147568483852
30
0
41
1
10
79.1377413825731
20
-8.13056608868169
30
0
41
1
10
79.1524887172199
20
-8.13318118119125
30
0
41
1
10
79.1819833865133
20
-8.13608380532307
30
0
41
1
10
79.19673072116
20
-8.13637840944253
30
0
41
1
10
79.2409727251001
20
-8.13383856103258
30
0
41
1
10
79.2704673943934
20
-8.12753047349486
30
0
41
1
10
79.3589514022737
20
-8.0938312536407
30
0
41
1
10
79.4179407408605
20
-8.05162005624155
30
0
41
1
10
79.5359194180342
20
-7.92361829471395
30
0
41
1
10
79.594908756621
20
-7.83780785576212
30
0
41
1
10
79.7128874337947
20
-7.62016359265704
30
0
41
1
10
79.7718767723815
20
-7.48831462005424
30
0
41
1
10
79.8898554495552
20
-7.17837743057723
30
0
41
1
10
79.9488447881419
20
-7.00028289034455
30
0
41
1
10
80.0668234653156
20
-6.60020422976922
30
0
41
1
10
80.1258128039024
20
-6.37822532630736
30
0
41
1
10
80.2437914810761
20
-5.89531822065877
30
0
41
1
10
80.3027808196629
20
-5.63440690327025
30
0
41
1
10
80.4207594968366
20
-5.0808319241583
30
0
41
1
10
80.4797488354233
20
-4.78819398930679
30
0
41
1
10
80.5387381740102
20
-4.48408027003083
30
0
0
SPLINE
5
E1
100
AcDbEntity
8
1
62
256
6
ByLayer
370
13
48
1
60
0
100
AcDbSpline
70
4
71
3
72
14
73
10
40
0
40
0
40
0
40
0
40
0.25
40
0.25
40
0.5
40
0.5
40
0.75
40
0.75
40
1
40
1
40
1
40
1
41
1
10
71.9
20
7.14560061400826
30
0
41
1
10
71.9586146087761
20
7.31696713562559
30
0
41
1
10
72.017229217552
20
7.46579748390923
30
0
41
1
10
72.1344584351041
20
7.71762807084107
30
0
41
1
10
72.1930730438801
20
7.82064009247057
30
0
41
1
10
72.3103022614321
20
7.98241777660604
30
0
41
1
10
72.3689168702081
20
8.04120138671422
30
0
41
1
10
72.4861460877602
20
8.11798247364689
30
0
41
1
10
72.5447606965362
20
8.136
30
0
41
1
10
72.6033753053122
20
8.136
30
0
0
SPLINE
5
E2
100
AcDbEntity
8
1
62
256
6
ByLayer
370
13
48
1
60
0
100
AcDbSpline
70
4
71
3
72
79
73
75
40
0
40
0
40
0
40
0
40
0.0312499999999999
40
0.0312499999999999
40
0.0624999999999998
40
0.0624999999999998
40
0.0937499999999997
40
0.0937499999999997
40
0.125
40
0.125
40
0.15625
40
0.15625
40
0.187499999999999
40
0.187499999999999
40
0.218749999999999
40
0.218749999999999
40
0.249999999999999
40
0.249999999999999
40
0.281249999999999
40
0.281249999999999
40
0.312499999999999
40
0.312499999999999
40
0.343749999999999
40
0.343749999999999
40
0.351562499999999
40
0.351562499999999
40
0.359374999999999
40
0.359374999999999
40
0.374999999999999
40
0.374999999999999
40
0.40625
40
0.40625
40
0.437500000000001
40
0.437500000000001
40
0.468750000000001
40
0.468750000000001
40
0.500000000000002
40
0.500000000000002
40
0.531250000000003
40
0.531250000000003
40
0.562500000000003
40
0.562500000000003
40
0.593750000000004
40
0.593750000000004
40
0.625000000000005
40
0.625000000000005
40
0.656250000000006
40
0.656250000000006
40
0.687500000000006
40
0.687500000000006
40
0.695312500000006
40
0.699218750000006
40
0.699218750000006
40
0.703125000000006
40
0.703125000000006
40
0.718750000000006
40
0.718750000000006
40
0.750000000000005
40
0.750000000000005
40
0.781250000000004
40
0.781250000000004
40
0.812500000000004
40
0.812500000000004
40
0.843750000000003
40
0.843750000000003
40
0.875000000000002
40
0.875000000000002
40
0.906250000000002
40
0.906250000000002
40
0.937500000000001
40
0.937500000000001
40
0.968750000000001
40
0.968750000000001
40
1
40
1
40
1
40
1
41
1
10
74.3798014633853
20
8.136
30
0
41
1
10
74.443957054121
20
8.136
30
0
41
1
10
74.5081126448567
20
8.11440447279915
30
0
41
1
10
74.6364238263281
20
8.02191096066716
30
0
41
1
10
74.7005794170636
20
7.95098158974628
30
0
41
1
10
74.8288905985351
20
7.75557377724684
30
0
41
1
10
74.8930461892708
20
7.63106854051651
30
0
41
1
10
75.0213573707421
20
7.32708631025875
30
0
41
1
10
75.0855129614778
20
7.14759470999348
30
0
41
1
10
75.2138241429491
20
6.73569136299565
30
0
41
1
10
75.2779797336848
20
6.50328312651766
30
0
41
1
10
75.4062909151561
20
5.99125869899993
30
0
41
1
10
75.4704465058919
20
5.71166559806636
30
0
41
1
10
75.5987576873632
20
5.11424544856533
30
0
41
1
10
75.6629132780989
20
4.79645679173487
30
0
41
1
10
75.7912244595702
20
4.13393708078738
30
0
41
1
10
75.8553800503059
20
3.78925096721065
30
0
41
1
10
75.9836912317772
20
3.08525853984983
30
0
41
1
10
76.0478468225129
20
2.72599377414474
30
0
41
1
10
76.1761580039843
20
2.00486165539243
30
0
41
1
10
76.24031359472
20
1.64302483838458
30
0
41
1
10
76.3686247761913
20
0.927354276311036
30
0
41
1
10
76.4327803669269
20
0.573536738489111
30
0
41
1
10
76.5129748553466
20
0.141569201811279
30
0
41
1
10
76.5290137530305
20
0.0558984977402304
30
0
41
1
10
76.5610915483983
20
-0.115257363402833
30
0
41
1
10
76.5771304460823
20
-0.201387158505071
30
0
41
1
10
76.625247139134
20
-0.46126534789002
30
0
41
1
10
76.6573249345018
20
-0.636507136306733
30
0
41
1
10
76.7535583206053
20
-1.16669987264359
30
0
41
1
10
76.817713911341
20
-1.52618268062315
30
0
41
1
10
76.9460250928124
20
-2.24751013743736
30
0
41
1
10
77.010180683548
20
-2.60933044903894
30
0
41
1
10
77.1384918650194
20
-3.32385032755931
30
0
41
1
10
77.2026474557551
20
-3.67651250949211
30
0
41
1
10
77.3309586372264
20
-4.3603863916363
30
0
41
1
10
77.3951142279621
20
-4.69155349276724
30
0
41
1
10
77.5234254094333
20
-5.32051710873205
30
0
41
1
10
77.5875810001691
20
-5.61827109776007
30
0
41
1
10
77.7158921816404
20
-6.17024315544691
30
0
41
1
10
77.7800477723761
20
-6.4244305168267
30
0
41
1
10
77.9083589538474
20
-6.88199368276594
30
0
41
1
10
77.9725145445831
20
-7.08535716233996
30
0
41
1
10
78.1008257260545
20
-7.43755300479191
30
0
41
1
10
78.1649813167902
20
-7.58639248550654
30
0
41
1
10
78.2932924982616
20
-7.82945346145851
30
0
41
1
10
78.3574480889973
20
-7.92369727148326
30
0
41
1
10
78.4857592704687
20
-8.06065060472207
30
0
41
1
10
78.5499148612043
20
-8.10339040651206
30
0
41
1
10
78.6301093496239
20
-8.12800367079024
30
0
41
1
10
78.6541676961497
20
-8.13323341886306
30
0
41
1
10
78.6782260426755
20
-8.13534407446042
30
0
41
1
10
78.6942649403594
20
-8.1360710796844
30
0
41
1
10
78.7022843892015
20
-8.1360960232563
30
0
41
1
10
78.7423816334113
20
-8.13453159605245
30
0
41
1
10
78.7744594287791
20
-8.12784359369439
30
0
41
1
10
78.8706928148826
20
-8.09027182858367
30
0
41
1
10
78.9348484056183
20
-8.04181537887087
30
0
41
1
10
79.0631595870896
20
-7.89293305233056
30
0
41
1
10
79.1273151778253
20
-7.79247742246909
30
0
41
1
10
79.2556263592967
20
-7.53682500049078
30
0
41
1
10
79.3197819500324
20
-7.38160731149412
30
0
41
1
10
79.4480931315038
20
-7.01689144763782
30
0
41
1
10
79.5122487222394
20
-6.80738827300749
30
0
41
1
10
79.6405599037107
20
-6.33820848046324
30
0
41
1
10
79.7047154944464
20
-6.07854648154199
30
0
41
1
10
79.8330266759178
20
-5.51666796159876
30
0
41
1
10
79.8971822666534
20
-5.21448394058783
30
0
41
1
10
80.0254934481248
20
-4.57797287287957
30
0
41
1
10
80.0896490388604
20
-4.24368911538724
30
0
41
1
10
80.2179602203318
20
-3.5550139869485
30
0
41
1
10
80.2821158110675
20
-3.20066681063565
30
0
41
1
10
80.4104269925389
20
-2.48417262634155
30
0
41
1
10
80.4745825832745
20
-2.12206170766257
30
0
41
1
10
80.5387381740102
20
-1.76172255476317
30
0
0
SPLINE
5
E3
100
AcDbEntity
8
1
62
256
6
ByLayer
370
13
48
1
60
0
100
AcDbSpline
70
4
71
3
72
8
73
4
40
0
40
0
40
0
40
0
40
1
40
1
40
1
40
1
41
1
10
71.9
20
8.05693600641914
30
0
41
1
10
71.9691383663409
20
8.11090740541428
30
0
41
1
10
72.0382767326817
20
8.136
30
0
41
1
10
72.1074150990225
20
8.136
30
0
0
SPLINE
5
E4
100
AcDbEntity
8
1
62
256
6
ByLayer
370
13
48
1
60
0
100
AcDbSpline
70
4
71
3
72
82
73
78
40
0
40
0
40
0
40
0
40
0.0312500000000004
40
0.0312500000000004
40
0.0625000000000007
40
0.0625000000000007
40
0.093750000000001
40
0.093750000000001
40
0.125000000000001
40
0.125000000000001
40
0.156250000000002
40
0.156250000000002
40
0.187500000000002
40
0.187500000000002
40
0.218750000000002
40
0.218750000000002
40
0.250000000000003
40
0.250000000000003
40
0.281250000000003
40
0.281250000000003
40
0.312500000000004
40
0.312500000000004
40
0.320312500000004
40
0.320312500000004
40
0.328125000000004
40
0.328125000000004
40
0.343750000000004
40
0.343750000000004
40
0.375000000000004
40
0.375000000000004
40
0.406250000000005
40
0.406250000000005
40
0.437500000000005
40
0.437500000000005
40
0.468750000000005
40
0.468750000000005
40
0.500000000000005
40
0.500000000000005
40
0.531250000000005
40
0.531250000000005
40
0.562500000000006
40
0.562500000000006
40
0.593750000000006
40
0.593750000000006
40
0.625000000000006
40
0.625000000000006
40
0.640625000000006
40
0.640625000000006
40
0.648437500000006
40
0.648437500000006
40
0.656250000000006
40
0.656250000000006
40
0.687500000000005
40
0.687500000000005
40
0.718750000000005
40
0.718750000000005
40
0.750000000000004
40
0.750000000000004
40
0.781250000000004
40
0.781250000000004
40
0.812500000000003
40
0.812500000000003
40
0.843750000000003
40
0.843750000000003
40
0.875000000000002
40
0.875000000000002
40
0.906250000000002
40
0.906250000000002
40
0.937500000000001
40
0.937500000000001
40
0.96875
40
0.96875
40
0.9765625
40
0.9765625
40
0.984375
40
0.984375
40
1
40
1
40
1
40
1
41
1
10
73.8838412570956
20
8.136
30
0
41
1
10
73.9531630999802
20
8.136
30
0
41
1
10
74.0224849428647
20
8.11077357042478
30
0
41
1
10
74.1611286286337
20
8.00223786338657
30
0
41
1
10
74.2304504715183
20
7.91888258380948
30
0
41
1
10
74.3690941572873
20
7.68909681501404
30
0
41
1
10
74.4384160001719
20
7.54262909593868
30
0
41
1
10
74.5770596859409
20
7.18564693349882
30
0
41
1
10
74.6463815288254
20
6.9751168738791
30
0
41
1
10
74.7850252145944
20
6.49390062770811
30
0
41
1
10
74.854347057479
20
6.22322906359574
30
0
41
1
10
74.9929907432481
20
5.63052368925469
30
0
41
1
10
75.0623125861326
20
5.30853409775281
30
0
41
1
10
75.2009562719016
20
4.62599415382735
30
0
41
1
10
75.2702781147862
20
4.26550674062355
30
0
41
1
10
75.4089218005552
20
3.5211221169906
30
0
41
1
10
75.4782436434398
20
3.13728985785482
30
0
41
1
10
75.6168873292088
20
2.36173068142543
30
0
41
1
10
75.6862091720934
20
1.9700553674688
30
0
41
1
10
75.8248528578625
20
1.19288608395496
30
0
41
1
10
75.894174700747
20
0.807421898443948
30
0
41
1
10
75.9808270043526
20
0.336574373164865
30
0
41
1
10
75.9981574650737
20
0.242946500133087
30
0
41
1
10
76.032818386516
20
0.0569202834953728
30
0
41
1
10
76.0501488472372
20
-0.0351077027679594
30
0
41
1
10
76.1021402294006
20
-0.313856216005206
30
0
41
1
10
76.1368011508428
20
-0.502175850376375
30
0
41
1
10
76.2407839151696
20
-1.07277742664988
30
0
41
1
10
76.3101057580542
20
-1.4607916144337
30
0
41
1
10
76.4487494438232
20
-2.24003273330209
30
0
41
1
10
76.5180712867077
20
-2.63122454818634
30
0
41
1
10
76.6567149724767
20
-3.4023199380236
30
0
41
1
10
76.7260368153613
20
-3.78216777986972
30
0
41
1
10
76.8646805011304
20
-4.51499049011812
30
0
41
1
10
76.9340023440149
20
-4.8678993454422
30
0
41
1
10
77.0726460297839
20
-5.53204981479138
30
0
41
1
10
77.1419678726684
20
-5.84323142283671
30
0
41
1
10
77.2806115584375
20
-6.41188028077715
30
0
41
1
10
77.349933401322
20
-6.66930950251185
30
0
41
1
10
77.4885770870911
20
-7.12268200381587
30
0
41
1
10
77.5578989299755
20
-7.31861796159416
30
0
41
1
10
77.6965426157446
20
-7.64621247096304
30
0
41
1
10
77.7658644586292
20
-7.7778926331512
30
0
41
1
10
77.9045081443983
20
-7.97893320698805
30
0
41
1
10
77.9738299872827
20
-8.0483340379364
30
0
41
1
10
78.0778127516095
20
-8.10999419106136
30
0
41
1
10
78.1124736730517
20
-8.12349941756784
30
0
41
1
10
78.1644650552151
20
-8.13389899477843
30
0
41
1
10
78.1817955159363
20
-8.13572351659866
30
0
41
1
10
78.2164564373786
20
-8.13621822073071
30
0
41
1
10
78.2337868980997
20
-8.13489728161696
30
0
41
1
10
78.3204392017053
20
-8.12013628789757
30
0
41
1
10
78.3897610445898
20
-8.08212683959817
30
0
41
1
10
78.5284047303589
20
-7.94658266909923
30
0
41
1
10
78.5977265732434
20
-7.84900282268922
30
0
41
1
10
78.7363702590125
20
-7.59014691521642
30
0
41
1
10
78.805692101897
20
-7.42883752005511
30
0
41
1
10
78.9443357876661
20
-7.04262094966336
30
0
41
1
10
79.0136576305506
20
-6.81770463368895
30
0
41
1
10
79.1523013163196
20
-6.309324640667
30
0
41
1
10
79.2216231592042
20
-6.02588285754831
30
0
41
1
10
79.3602668449732
20
-5.41028123106582
30
0
41
1
10
79.4295886878577
20
-5.0781711997877
30
0
41
1
10
79.5682323736268
20
-4.37874295843005
30
0
41
1
10
79.6375542165114
20
-4.01148970126465
30
0
41
1
10
79.7761979022804
20
-3.25718707123795
30
0
41
1
10
79.8455197451649
20
-2.87020074798184
30
0
41
1
10
79.9841634309339
20
-2.0917596411004
30
0
41
1
10
80.0534852738185
20
-1.70035187681509
30
0
41
1
10
80.1921289595876
20
-0.926611024920419
30
0
41
1
10
80.261450802472
20
-0.544302382918829
30
0
41
1
10
80.3481031060777
20
-0.0787564716689246
30
0
41
1
10
80.3654335667989
20
0.0133189260164954
30
0
41
1
10
80.4000944882412
20
0.198955679478615
30
0
41
1
10
80.4174249489623
20
0.292399732126285
30
0
41
1
10
80.4694163311257
20
0.574392522255238
30
0
41
1
10
80.5040772525679
20
0.76460807667479
30
0
41
1
10
80.5387381740102
20
0.956391409101542
30
0
0
SPLINE
5
E5
100
AcDbEntity
8
1
62
256
6
ByLayer
370
13
48
1
60
0
100
AcDbSpline
70
4
71
3
72
83
73
79
40
0
40
0
40
0
40
0
40
0.0312500000000011
40
0.0312500000000011
40
0.0625000000000022
40
0.0625000000000022
40
0.0937500000000033
40
0.0937500000000033
40
0.125000000000004
40
0.125000000000004
40
0.156250000000005
40
0.156250000000005
40
0.187500000000007
40
0.187500000000007
40
0.218750000000008
40
0.218750000000008
40
0.250000000000009
40
0.250000000000009
40
0.28125000000001
40
0.28125000000001
40
0.29687500000001
40
0.29687500000001
40
0.300781250000011
40
0.300781250000011
40
0.304687500000011
40
0.304687500000011
40
0.312500000000011
40
0.312500000000011
40
0.343750000000012
40
0.343750000000012
40
0.375000000000012
40
0.375000000000012
40
0.406250000000013
40
0.406250000000013
40
0.437500000000013
40
0.437500000000013
40
0.468750000000014
40
0.468750000000014
40
0.500000000000014
40
0.500000000000014
40
0.531250000000015
40
0.531250000000015
40
0.562500000000015
40
0.562500000000015
40
0.593750000000016
40
0.593750000000016
40
0.601562500000016
40
0.601562500000016
40
0.605468750000016
40
0.605468750000016
40
0.609375000000015
40
0.625000000000015
40
0.625000000000015
40
0.656250000000014
40
0.656250000000014
40
0.687500000000013
40
0.687500000000013
40
0.718750000000012
40
0.718750000000012
40
0.750000000000011
40
0.750000000000011
40
0.78125000000001
40
0.78125000000001
40
0.812500000000009
40
0.812500000000009
40
0.843750000000008
40
0.843750000000008
40
0.875000000000007
40
0.875000000000007
40
0.890625000000006
40
0.890625000000006
40
0.906250000000005
40
0.906250000000005
40
0.937500000000004
40
0.937500000000004
40
0.968750000000002
40
0.968750000000002
40
1
40
1
40
1
40
1
41
1
10
73.387881050806
20
8.136
30
0
41
1
10
73.4623691458394
20
8.136
30
0
41
1
10
73.5368572408728
20
8.10685701754653
30
0
41
1
10
73.6858334309395
20
7.98092092380932
30
0
41
1
10
73.7603215259729
20
7.8840623492141
30
0
41
1
10
73.9092977160396
20
7.6169736400613
30
0
41
1
10
73.9837858110729
20
7.44669381017712
30
0
41
1
10
74.1327620011398
20
7.03261569670181
30
0
41
1
10
74.2072500961731
20
6.78880411481364
30
0
41
1
10
74.3562262862399
20
6.23411107448899
30
0
41
1
10
74.4307143812733
20
5.92326396377282
30
0
41
1
10
74.5796905713401
20
5.24725702186532
30
0
41
1
10
74.6541786663734
20
4.88217284736615
30
0
41
1
10
74.8031548564401
20
4.1150642815507
30
0
41
1
10
74.8776429514735
20
3.71313423522341
30
0
41
1
10
75.0266191415403
20
2.89167273342701
30
0
41
1
10
75.1011072365737
20
2.4722264520162
30
0
41
1
10
75.2500834266404
20
1.63423889698379
30
0
41
1
10
75.3245715216738
20
1.21575355239392
30
0
41
1
10
75.4363036642238
20
0.600323092888061
30
0
41
1
10
75.4735477117406
20
0.397200512746025
30
0
41
1
10
75.5201027711364
20
0.146788931200945
30
0
41
1
10
75.5294137830156
20
0.0968805402621342
30
0
41
1
10
75.5480358067739
20
-0.0025668964858312
30
0
41
1
10
75.5573468186531
20
-0.052118970459702
30
0
41
1
10
75.5852798542907
20
-0.201692416013231
30
0
41
1
10
75.603901878049
20
-0.302131738494722
30
0
41
1
10
75.6970119968407
20
-0.807498477396138
30
0
41
1
10
75.771500091874
20
-1.22209604092845
30
0
41
1
10
75.9204762819408
20
-2.05779545754518
30
0
41
1
10
75.9949643769742
20
-2.47885298318002
30
0
41
1
10
76.1439405670409
20
-3.30982877861158
30
0
41
1
10
76.2184286620743
20
-3.71966993820928
30
0
41
1
10
76.367404852141
20
-4.50889048247259
30
0
41
1
10
76.4418929471744
20
-4.88817561484055
30
0
41
1
10
76.5908691372412
20
-5.59792797623817
30
0
41
1
10
76.6653572322746
20
-5.92831035613759
30
0
41
1
10
76.8143334223413
20
-6.52566275671535
30
0
41
1
10
76.8888215173747
20
-6.79258319983086
30
0
41
1
10
77.0377977074414
20
-7.25428773293498
30
0
41
1
10
77.1122858024748
20
-7.44906992058341
30
0
41
1
10
77.2612619925416
20
-7.76444730180631
30
0
41
1
10
77.335750087575
20
-7.88508226067572
30
0
41
1
10
77.4847262776418
20
-8.05618046695483
30
0
41
1
10
77.5592143726751
20
-8.10670637698087
30
0
41
1
10
77.6523244914667
20
-8.1312972044652
30
0
41
1
10
77.6709465152251
20
-8.13429511503023
30
0
41
1
10
77.6988795508627
20
-8.1360305115326
30
0
41
1
10
77.7081905627419
20
-8.13615055896554
30
0
41
1
10
77.7268125865003
20
-8.13548179211551
30
0
41
1
10
77.7733676458961
20
-8.13152411131111
30
0
41
1
10
77.819922705292
20
-8.11586771799975
30
0
41
1
10
77.9316548478421
20
-8.05402721618489
30
0
41
1
10
78.0061429428754
20
-7.98031169427838
30
0
41
1
10
78.1551191329421
20
-7.76085528477043
30
0
41
1
10
78.2296072279755
20
-7.61505710001464
30
0
41
1
10
78.3785834180422
20
-7.24928942490411
30
0
41
1
10
78.4530715130757
20
-7.02929272910509
30
0
41
1
10
78.6020477031424
20
-6.51936641981382
30
0
41
1
10
78.6765357981758
20
-6.22945522781842
30
0
41
1
10
78.8255119882425
20
-5.59050305800818
30
0
41
1
10
78.9000000832759
20
-5.24152599554998
30
0
41
1
10
79.0489762733427
20
-4.50055585938074
30
0
41
1
10
79.1234643683761
20
-4.10865409032019
30
0
41
1
10
79.2724405584427
20
-3.30084565370365
30
0
41
1
10
79.3469286534761
20
-2.88502999552099
30
0
41
1
10
79.4959048435429
20
-2.04845779508634
30
0
41
1
10
79.5703929385763
20
-1.62776817575087
30
0
41
1
10
79.6821250811264
20
-1.00552709977322
30
0
41
1
10
79.7193691286431
20
-0.799553948308585
30
0
41
1
10
79.7938572236764
20
-0.392206790373905
30
0
41
1
10
79.8311012711931
20
-0.190982215723977
30
0
41
1
10
79.9428334137432
20
0.404514884146863
30
0
41
1
10
80.0173215087766
20
0.813684681542327
30
0
41
1
10
80.1662976988433
20
1.64362594212125
30
0
41
1
10
80.2407857938767
20
2.06436477572234
30
0
41
1
10
80.3897619839435
20
2.90080615662714
30
0
41
1
10
80.4642500789768
20
3.31644137873076
30
0
41
1
10
80.5387381740102
20
3.72004221570882
30
0
0
SPLINE
5
E6
100
AcDbEntity
8
1
62
256
6
ByLayer
370
13
48
1
60
0
100
AcDbSpline
70
4
71
3
72
84
73
80
40
0
40
0
40
0
40
0
40
0.0312499999999996
40
0.0312499999999996
40
0.0624999999999993
40
0.0624999999999993
40
0.0937499999999989
40
0.0937499999999989
40
0.124999999999999
40
0.124999999999999
40
0.156249999999998
40
0.156249999999998
40
0.187499999999998
40
0.187499999999998
40
0.218749999999998
40
0.218749999999998
40
0.249999999999997
40
0.249999999999997
40
0.281249999999997
40
0.281249999999997
40
0.285156249999997
40
0.285156249999997
40
0.289062499999997
40
0.296874999999997
40
0.296874999999997
40
0.312499999999997
40
0.312499999999997
40
0.343749999999998
40
0.343749999999998
40
0.374999999999998
40
0.374999999999998
40
0.406249999999999
40
0.406249999999999
40
0.437499999999999
40
0.437499999999999
40
0.46875
40
0.46875
40
0.5
40
0.5
40
0.531250000000001
40
0.531250000000001
40
0.562500000000001
40
0.562500000000001
40
0.566406250000001
40
0.566406250000001
40
0.570312500000001
40
0.578125000000002
40
0.578125000000002
40
0.593750000000002
40
0.593750000000002
40
0.625000000000002
40
0.625000000000002
40
0.656250000000002
40
0.656250000000002
40
0.687500000000002
40
0.687500000000002
40
0.718750000000001
40
0.718750000000001
40
0.750000000000001
40
0.750000000000001
40
0.781250000000001
40
0.781250000000001
40
0.812500000000001
40
0.812500000000001
40
0.843750000000001
40
0.843750000000001
40
0.851562500000001
40
0.851562500000001
40
0.859375000000001
40
0.859375000000001
40
0.875000000000001
40
0.875000000000001
40
0.90625
40
0.90625
40
0.9375
40
0.9375
40
0.96875
40
0.96875
40
1
40
1
40
1
40
1
41
1
10
72.8919208445163
20
8.136
30
0
41
1
10
72.9715751916985
20
8.136
30
0
41
1
10
73.0512295388808
20
8.10265361709543
30
0
41
1
10
73.2105382332452
20
7.95794552200735
30
0
41
1
10
73.2901925804274
20
7.84649302949711
30
0
41
1
10
73.4495012747919
20
7.53917727474223
30
0
41
1
10
73.5291556219742
20
7.34325018928917
30
0
41
1
10
73.6884643163386
20
6.86813865515236
30
0
41
1
10
73.7681186635208
20
6.58894897068384
30
0
41
1
10
73.9274273578853
20
5.95716320960457
30
0
41
1
10
74.0070817050675
20
5.60463310497431
30
0
41
1
10
74.1663903994319
20
4.84382498480085
30
0
41
1
10
74.2460447466142
20
4.43566593490641
30
0
41
1
10
74.4053534409787
20
3.58619150995148
30
0
41
1
10
74.4850077881609
20
3.14500692949713
30
0
41
1
10
74.6443164825253
20
2.25308881943263
30
0
41
1
10
74.7239708297076
20
1.80245673981074
30
0
41
1
10
74.883279524072
20
0.912635854157486
30
0
41
1
10
74.9629338712543
20
0.473497808758282
30
0
41
1
10
75.0525450118343
20
-0.0050761707267384
30
0
41
1
10
75.062501805232
20
-0.0580683382555378
30
0
41
1
10
75.0824153920275
20
-0.164748569809603
30
0
41
1
10
75.1122857722208
20
-0.325386496155119
30
0
41
1
10
75.1421561524143
20
-0.487758564843603
30
0
41
1
10
75.201896912801
20
-0.814467524498667
30
0
41
1
10
75.2417240863921
20
-1.03490369175054
30
0
41
1
10
75.3612056071654
20
-1.70093462590253
30
0
41
1
10
75.4408599543476
20
-2.15137784656545
30
0
41
1
10
75.600168648712
20
-3.04462563647184
30
0
41
1
10
75.6798229958943
20
-3.48733215398113
30
0
41
1
10
75.8391316902587
20
-4.34164514723429
30
0
41
1
10
75.918786037441
20
-4.75312176747354
30
0
41
1
10
76.0780947318054
20
-5.52214882662085
30
0
41
1
10
76.1577490789876
20
-5.87957781594733
30
0
41
1
10
76.3170577733521
20
-6.52225709243726
30
0
41
1
10
76.3967121205343
20
-6.80743638397507
30
0
41
1
10
76.5560208148988
20
-7.29497554378841
30
0
41
1
10
76.635675162081
20
-7.49733535897957
30
0
41
1
10
76.7949838564455
20
-7.81732245051032
30
0
41
1
10
76.8746382036277
20
-7.93501011294899
30
0
41
1
10
77.0339468979922
20
-8.09149480789782
30
0
41
1
10
77.1136012451744
20
-8.13038178659951
30
0
41
1
10
77.2032123857544
20
-8.13606092673118
30
0
41
1
10
77.2131691791523
20
-8.13616796040031
30
0
41
1
10
77.2330827659478
20
-8.13534173943003
30
0
41
1
10
77.2629531461411
20
-8.13253123892963
30
0
41
1
10
77.2928235263344
20
-8.12489484632277
30
0
41
1
10
77.3525642867211
20
-8.10290429707214
30
0
41
1
10
77.3923914603122
20
-8.07927840557974
30
0
41
1
10
77.5118729810856
20
-7.97950138501449
30
0
41
1
10
77.5915273282678
20
-7.87424656501705
30
0
41
1
10
77.7508360226322
20
-7.57957077689534
30
0
41
1
10
77.8304903698145
20
-7.39008273877531
30
0
41
1
10
77.9897990641789
20
-6.92746202028735
30
0
41
1
10
78.0694534113611
20
-6.65431889369591
30
0
41
1
10
78.2287621057256
20
-6.03358601750071
30
0
41
1
10
78.3084164529078
20
-5.68605710844068
30
0
41
1
10
78.4677251472722
20
-4.93370116503363
30
0
41
1
10
78.5473794944545
20
-4.52899036572435
30
0
41
1
10
78.706688188819
20
-3.68462149521025
30
0
41
1
10
78.7863425360012
20
-3.24509491291212
30
0
41
1
10
78.9456512303656
20
-2.3547630508935
30
0
41
1
10
79.0253055775478
20
-1.90406249630243
30
0
41
1
10
79.1846142719123
20
-1.01267371895693
30
0
41
1
10
79.2642686190945
20
-0.572040260762719
30
0
41
1
10
79.3638365530724
20
-0.0377901835446153
30
0
41
1
10
79.3837501398679
20
0.067909706227681
30
0
41
1
10
79.4235773134591
20
0.281914635639396
30
0
41
1
10
79.4434909002545
20
0.389720713027543
30
0
41
1
10
79.5032316606412
20
0.715212188606387
30
0
41
1
10
79.5430588342323
20
0.934981410799253
30
0
41
1
10
79.6625403550057
20
1.59952203893926
30
0
41
1
10
79.7421947021879
20
2.04965785790964
30
0
41
1
10
79.9015033965524
20
2.9439811322647
30
0
41
1
10
79.9811577437346
20
3.38807404594161
30
0
41
1
10
80.140466438099
20
4.24695791638823
30
0
41
1
10
80.2201207852812
20
4.66162019553656
30
0
41
1
10
80.3794294796458
20
5.43862886524019
30
0
41
1
10
80.459083826828
20
5.80085157422704
30
0
41
1
10
80.5387381740101
20
6.12755496600945
30
0
0
SPLINE
5
E7
100
AcDbEntity
8
1
62
256
6
ByLayer
370
13
48
1
60
0
100
AcDbSpline
70
4
71
3
72
86
73
82
40
0
40
0
40
0
40
0
40
0.0312499999999999
40
0.0312499999999999
40
0.0624999999999998
40
0.0624999999999998
40
0.0937499999999997
40
0.0937499999999997
40
0.125
40
0.125
40
0.15625
40
0.15625
40
0.1875
40
0.1875
40
0.218749999999999
40
0.218749999999999
40
0.249999999999999
40
0.249999999999999
40
0.257812499999999
40
0.257812499999999
40
0.265624999999999
40
0.265624999999999
40
0.281249999999999
40
0.281249999999999
40
0.312499999999999
40
0.312499999999999
40
0.343749999999999
40
0.343749999999999
40
0.374999999999998
40
0.374999999999998
40
0.406249999999998
40
0.406249999999998
40
0.437499999999998
40
0.437499999999998
40
0.468749999999998
40
0.468749999999998
40
0.499999999999998
40
0.499999999999998
40
0.515624999999998
40
0.515624999999998
40
0.523437499999998
40
0.523437499999998
40
0.527343749999997
40
0.527343749999997
40
0.531249999999997
40
0.531249999999997
40
0.562499999999997
40
0.562499999999997
40
0.593749999999997
40
0.593749999999997
40
0.624999999999997
40
0.624999999999997
40
0.656249999999997
40
0.656249999999997
40
0.687499999999997
40
0.687499999999997
40
0.718749999999997
40
0.718749999999997
40
0.749999999999997
40
0.749999999999997
40
0.781249999999997
40
0.781249999999997
40
0.789062499999998
40
0.789062499999998
40
0.792968749999998
40
0.792968749999998
40
0.796874999999998
40
0.796874999999998
40
0.812499999999998
40
0.812499999999998
40
0.843749999999998
40
0.843749999999998
40
0.874999999999999
40
0.874999999999999
40
0.906249999999999
40
0.906249999999999
40
0.937499999999999
40
0.937499999999999
40
0.96875
40
0.96875
40
1
40
1
40
1
40
1
41
1
10
72.3959606382266
20
8.136
30
0
41
1
10
72.4807812375577
20
8.136
30
0
41
1
10
72.5656018368887
20
8.09816203836189
30
0
41
1
10
72.7352430355509
20
7.93329769699156
30
0
41
1
10
72.820063634882
20
7.80614827744898
30
0
41
1
10
72.9897048335442
20
7.45569165856813
30
0
41
1
10
73.0745254328752
20
7.23230560115434
30
0
41
1
10
73.2441666315374
20
6.69241625311221
30
0
41
1
10
73.3289872308685
20
6.37592470880762
30
0
41
1
10
73.4986284295306
20
5.66404040072192
30
0
41
1
10
73.5834490288617
20
5.2687606385177
30
0
41
1
10
73.7530902275238
20
4.42281222018914
30
0
41
1
10
73.837910826855
20
3.9723181847886
30
0
41
1
10
74.0075520255172
20
3.0442387605124
30
0
41
1
10
74.0923726248482
20
2.5668221100596
30
0
41
1
10
74.2620138235104
20
1.61256339304094
30
0
41
1
10
74.3468344228414
20
1.1358301606318
30
0
41
1
10
74.4528601720053
20
0.55445540647824
30
0
41
1
10
74.474065321838
20
0.438891772153028
30
0
41
1
10
74.5164756215036
20
0.209472091597149
30
0
41
1
10
74.5376807713363
20
0.0957994918146881
30
0
41
1
10
74.6012962208347
20
-0.243418268323722
30
0
41
1
10
74.6437065205001
20
-0.47345623604059
30
0
41
1
10
74.7709374194968
20
-1.17196483966353
30
0
41
1
10
74.8557580188279
20
-1.64902379637388
30
0
41
1
10
75.02539921749
20
-2.60328054030254
30
0
41
1
10
75.1102198168211
20
-3.08036759833209
30
0
41
1
10
75.2798610154833
20
-4.00705461697132
30
0
41
1
10
75.3646816148143
20
-4.45648488339361
30
0
41
1
10
75.5343228134766
20
-5.29962310227379
30
0
41
1
10
75.6191434128075
20
-5.69315719765746
30
0
41
1
10
75.7887846114697
20
-6.40105361194219
30
0
41
1
10
75.8736052108009
20
-6.71530521355243
30
0
41
1
10
76.043246409463
20
-7.25049213567715
30
0
41
1
10
76.128067008794
20
-7.47141836112186
30
0
41
1
10
76.2977082074563
20
-7.81701567926336
30
0
41
1
10
76.3825288067873
20
-7.94176741380676
30
0
41
1
10
76.5097597057839
20
-8.06203013104016
30
0
41
1
10
76.5521700054495
20
-8.09104303900702
30
0
41
1
10
76.6157854549477
20
-8.11911148417113
30
0
41
1
10
76.6369906047806
20
-8.12589539142371
30
0
41
1
10
76.6687983295296
20
-8.13238044041935
30
0
41
1
10
76.679400904446
20
-8.13392712326427
30
0
41
1
10
76.7006060542789
20
-8.13581988109965
30
0
41
1
10
76.7112086291953
20
-8.13616696655976
30
0
41
1
10
76.8066318034428
20
-8.13400360008285
30
0
41
1
10
76.8914524027738
20
-8.09404056432516
30
0
41
1
10
77.0610936014359
20
-7.9246483219265
30
0
41
1
10
77.145914200767
20
-7.79509653762065
30
0
41
1
10
77.3155553994291
20
-7.43977786838656
30
0
41
1
10
77.4003759987603
20
-7.21393394131289
30
0
41
1
10
77.5700171974224
20
-6.66935351827584
30
0
41
1
10
77.6548377967536
20
-6.35063142775982
30
0
41
1
10
77.8244789954157
20
-5.63478420325401
30
0
41
1
10
77.9092995947467
20
-5.23777432804118
30
0
41
1
10
78.0789407934089
20
-4.38904997329766
30
0
41
1
10
78.16376139274
20
-3.93751083179546
30
0
41
1
10
78.3334025914022
20
-3.00807585235034
30
0
41
1
10
78.4182231907333
20
-2.53034776057171
30
0
41
1
10
78.5878643893954
20
-1.57612001806314
30
0
41
1
10
78.6726849887265
20
-1.09972729669695
30
0
41
1
10
78.7787107378904
20
-0.519083809590853
30
0
41
1
10
78.7999158877232
20
-0.403681590518573
30
0
41
1
10
78.8317236124723
20
-0.231879537860976
30
0
41
1
10
78.8423261873886
20
-0.174828845627587
30
0
41
1
10
78.8635313372214
20
-0.0611933702554381
30
0
41
1
10
78.8741339121378
20
-0.0047698995188341
30
0
41
1
10
78.9271467867198
20
0.278401727877537
30
0
41
1
10
78.9695570863852
20
0.508781558935794
30
0
41
1
10
79.0967879853818
20
1.2081302632146
30
0
41
1
10
79.181608584713
20
1.68550004810086
30
0
41
1
10
79.3512497833751
20
2.63972170732012
30
0
41
1
10
79.4360703827062
20
3.11646096789639
30
0
41
1
10
79.6057115813683
20
4.04171870954016
30
0
41
1
10
79.6905321806994
20
4.49006657770354
30
0
41
1
10
79.8601733793616
20
5.33036049236048
30
0
41
1
10
79.9449939786927
20
5.72213349164514
30
0
41
1
10
80.1146351773548
20
6.42601734270599
30
0
41
1
10
80.1994557766859
20
6.7380197877591
30
0
41
1
10
80.369096975348
20
7.26849330350214
30
0
41
1
10
80.4539175746791
20
7.48695792165441
30
0
41
1
10
80.5387381740102
20
7.65732847095109
30
0
0
SPLINE
5
E8
100
AcDbEntity
8
1
62
256
6
ByLayer
370
13
48
1
60
0
100
AcDbSpline
70
4
71
3
72
102
73
98
40
0
40
0
40
0
40
0
40
0.0312499999999998
40
0.0312499999999998
40
0.0624999999999996
40
0.0624999999999996
40
0.0781249999999995
40
0.0781249999999995
40
0.0937499999999995
40
0.0937499999999995
40
0.109375
40
0.109375
40
0.125
40
0.125
40
0.140624999999999
40
0.140624999999999
40
0.156249999999999
40
0.156249999999999
40
0.171874999999999
40
0.171874999999999
40
0.187499999999999
40
0.187499999999999
40
0.218749999999999
40
0.218749999999999
40
0.25
40
0.25
40
0.28125
40
0.28125
40
0.3125
40
0.3125
40
0.328125
40
0.328125
40
0.34375
40
0.34375
40
0.359375
40
0.359375
40
0.375
40
0.375
40
0.390625
40
0.390625
40
0.40625
40
0.40625
40
0.421875
40
0.421875
40
0.4375
40
0.4375
40
0.46875
40
0.46875
40
0.5
40
0.5
40
0.53125
40
0.53125
40
0.5625
40
0.5625
40
0.578125
40
0.578125
40
0.59375
40
0.59375
40
0.609375
40
0.609375
40
0.625
40
0.625
40
0.640625
40
0.640625
40
0.65625
40
0.65625
40
0.671875
40
0.671875
40
0.6875
40
0.6875
40
0.71875
40
0.71875
40
0.75
40
0.75
40
0.78125
40
0.78125
40
0.8125
40
0.8125
40
0.828125
40
0.828125
40
0.84375
40
0.84375
40
0.859375
40
0.859375
40
0.875
40
0.875
40
0.890625
40
0.890625
40
0.90625
40
0.90625
40
0.921875
40
0.921875
40
0.9375
40
0.9375
40
0.96875
40
0.96875
40
1
40
1
40
1
40
1
41
1
10
71.9000004319369
20
8.136
30
0
41
1
10
71.9899872834169
20
8.136
30
0
41
1
10
72.0799741348968
20
8.09338081089751
30
0
41
1
10
72.2599478378567
20
7.90696417193948
30
0
41
1
10
72.3499346893366
20
7.76300333803022
30
0
41
1
10
72.4849149665565
20
7.46563484636133
30
0
41
1
10
72.5299083922965
20
7.35302677997322
30
0
41
1
10
72.6198952437764
20
7.10113076808253
30
0
41
1
10
72.6648886695163
20
6.96184179668697
30
0
41
1
10
72.7548755209963
20
6.65774943554604
30
0
41
1
10
72.7998689467362
20
6.49294734162669
30
0
41
1
10
72.8898557982161
20
6.13987209732019
30
0
41
1
10
72.9348492239561
20
5.95160259423258
30
0
41
1
10
73.024836075436
20
5.55443942583074
30
0
41
1
10
73.069829501176
20
5.34555143871708
30
0
41
1
10
73.1598163526559
20
4.91066026115431
30
0
41
1
10
73.2048097783959
20
4.68466415300705
30
0
41
1
10
73.2947966298759
20
4.21953365177177
30
0
41
1
10
73.3397900556158
20
3.98040692860329
30
0
41
1
10
73.4297769070957
20
3.49323549343691
30
0
41
1
10
73.4747703328357
20
3.24519818942375
30
0
41
1
10
73.6097506100556
20
2.4940606441863
30
0
41
1
10
73.6997374615356
20
1.98413794865687
30
0
41
1
10
73.8797111644953
20
0.976765897934229
30
0
41
1
10
73.9696980159754
20
0.47941896301748
30
0
41
1
10
74.1496717189353
20
-0.479417812413317
30
0
41
1
10
74.2396585704151
20
-0.976764698647543
30
0
41
1
10
74.4196322733749
20
-1.98413673025061
30
0
41
1
10
74.5096191248549
20
-2.49405942734731
30
0
41
1
10
74.6445994020748
20
-3.24519699511308
30
0
41
1
10
74.6895928278147
20
-3.49323430997049
30
0
41
1
10
74.7795796792947
20
-3.98040577364668
30
0
41
1
10
74.8245731050347
20
-4.21953251448178
30
0
41
1
10
74.9145599565146
20
-4.68466305767046
30
0
41
1
10
74.9595533822545
20
-4.9106591901043
30
0
41
1
10
75.0495402337344
20
-5.34555042228928
30
0
41
1
10
75.0945336594744
20
-5.55443843973697
30
0
41
1
10
75.1845205109544
20
-5.95160167394295
30
0
41
1
10
75.2295139366943
20
-6.13987121249787
30
0
41
1
10
75.3195007881743
20
-6.49294653168764
30
0
41
1
10
75.3644942139142
20
-6.6577486650194
30
0
41
1
10
75.4544810653941
20
-6.96184110757008
30
0
41
1
10
75.4994744911342
20
-7.10113012095917
30
0
41
1
10
75.5894613426141
20
-7.35302621799551
30
0
41
1
10
75.634454768354
20
-7.4656343275322
30
0
41
1
10
75.7694350455739
20
-7.76300294831941
30
0
41
1
10
75.8594218970539
20
-7.90696386775582
30
0
41
1
10
76.0393956000137
20
-8.09338066768103
30
0
41
1
10
76.1293824514937
20
-8.13599993219992
30
0
41
1
10
76.3093561544536
20
-8.13600006779993
30
0
41
1
10
76.3993430059334
20
-8.0933809541138
30
0
41
1
10
76.5793167088933
20
-7.90696447612294
30
0
41
1
10
76.6693035603732
20
-7.76300372774085
30
0
41
1
10
76.8042838375931
20
-7.46563536519028
30
0
41
1
10
76.8492772633331
20
-7.35302734195076
30
0
41
1
10
76.9392641148131
20
-7.10113141520568
30
0
41
1
10
76.984257540553
20
-6.96184248580369
30
0
41
1
10
77.0742443920329
20
-6.65775020607251
30
0
41
1
10
77.1192378177728
20
-6.49294815156554
30
0
41
1
10
77.2092246692528
20
-6.13987298214235
30
0
41
1
10
77.2542180949928
20
-5.95160351452205
30
0
41
1
10
77.3442049464727
20
-5.55444041192436
30
0
41
1
10
77.3891983722127
20
-5.34555245514477
30
0
41
1
10
77.4791852236926
20
-4.9106613322042
30
0
41
1
10
77.5241786494325
20
-4.68466524834349
30
0
41
1
10
77.6141655009125
20
-4.21953478906167
30
0
41
1
10
77.6591589266524
20
-3.98040808355978
30
0
41
1
10
77.7491457781323
20
-3.49323667690325
30
0
41
1
10
77.7941392038723
20
-3.24519938373436
30
0
41
1
10
77.9291194810922
20
-2.4940618610253
30
0
41
1
10
78.0191063325722
20
-1.98413916706312
30
0
41
1
10
78.199080035532
20
-0.976767097220943
30
0
41
1
10
78.289066887012
20
-0.479420141705305
30
0
41
1
10
78.4690405899718
20
0.479416689892815
30
0
41
1
10
78.5590274414517
20
0.976763499360885
30
0
41
1
10
78.7390011444116
20
1.98413551184436
30
0
41
1
10
78.8289879958916
20
2.49405821050828
30
0
41
1
10
78.9639682731114
20
3.24519580080238
30
0
41
1
10
79.0089616988514
20
3.49323312650404
30
0
41
1
10
79.0989485503313
20
3.98040461869002
30
0
41
1
10
79.1439419760712
20
4.21953137719171
30
0
41
1
10
79.2339288275513
20
4.68466196233379
30
0
41
1
10
79.2789222532912
20
4.91065811905415
30
0
41
1
10
79.3689091047711
20
5.34554940586133
30
0
41
1
10
79.4139025305111
20
5.55443745364303
30
0
41
1
10
79.503889381991
20
5.95160075365317
30
0
41
1
10
79.5488828077309
20
6.13987032767534
30
0
41
1
10
79.6388696592109
20
6.49294572174838
30
0
41
1
10
79.6838630849508
20
6.65774789449253
30
0
41
1
10
79.7738499364308
20
6.96184041845299
30
0
41
1
10
79.8188433621708
20
7.10112947383558
30
0
41
1
10
79.9088302136507
20
7.35302565601759
30
0
41
1
10
79.9538236393906
20
7.46563380870285
30
0
41
1
10
80.0888039166106
20
7.76300255860838
30
0
41
1
10
80.1787907680904
20
7.90696356357196
30
0
41
1
10
80.3587644710503
20
8.09338052446435
30
0
41
1
10
80.4487513225303
20
8.13599986439968
30
0
41
1
10
80.5387381740102
20
8.13599999999968
30
0
0
SPLINE
5
E9
100
AcDbEntity
8
1
62
256
6
ByLayer
370
13
48
1
60
0
100
AcDbSpline
70
4
71
3
72
84
73
80
40
0
40
0
40
0
40
0
40
0.0312500000000014
40
0.0312500000000014
40
0.0625000000000028
40
0.0625000000000028
40
0.0937500000000042
40
0.0937500000000042
40
0.125000000000006
40
0.125000000000006
40
0.156250000000007
40
0.156250000000007
40
0.187500000000008
40
0.187500000000008
40
0.203125000000009
40
0.203125000000009
40
0.207031250000009
40
0.207031250000009
40
0.210937500000009
40
0.218750000000009
40
0.218750000000009
40
0.250000000000009
40
0.250000000000009
40
0.28125000000001
40
0.28125000000001
40
0.31250000000001
40
0.31250000000001
40
0.34375000000001
40
0.34375000000001
40
0.37500000000001
40
0.37500000000001
40
0.40625000000001
40
0.40625000000001
40
0.437500000000011
40
0.437500000000011
40
0.468750000000011
40
0.468750000000011
40
0.472656250000011
40
0.472656250000011
40
0.476562500000011
40
0.48437500000001
40
0.48437500000001
40
0.50000000000001
40
0.50000000000001
40
0.531250000000009
40
0.531250000000009
40
0.562500000000007
40
0.562500000000007
40
0.593750000000006
40
0.593750000000006
40
0.625000000000004
40
0.625000000000004
40
0.656250000000003
40
0.656250000000003
40
0.687500000000002
40
0.687500000000002
40
0.71875
40
0.71875
40
0.734375
40
0.734375
40
0.7421875
40
0.7421875
40
0.749999999999999
40
0.749999999999999
40
0.78125
40
0.78125
40
0.8125
40
0.8125
40
0.84375
40
0.84375
40
0.875
40
0.875
40
0.90625
40
0.90625
40
0.9375
40
0.9375
40
0.96875
40
0.96875
40
1
40
1
40
1
40
1
41
1
10
71.9
20
7.65733020612527
30
0
41
1
10
71.9848206083298
20
7.4869599622707
30
0
41
1
10
72.0696412166596
20
7.26849564394348
30
0
41
1
10
72.239282433319
20
6.73802268120232
30
0
41
1
10
72.3241030416489
20
6.42602048898905
30
0
41
1
10
72.4937442583084
20
5.7221370661639
30
0
41
1
10
72.5785648666381
20
5.3303642420419
30
0
41
1
10
72.7482060832977
20
4.49007058384916
30
0
41
1
10
72.8330266916275
20
4.04172279697781
30
0
41
1
10
73.002667908287
20
3.11646512601024
30
0
41
1
10
73.0874885166167
20
2.6397258550131
30
0
41
1
10
73.2571297332763
20
1.68550410037335
30
0
41
1
10
73.341950341606
20
1.20813423075839
30
0
41
1
10
73.4691812541007
20
0.50878536233256
30
0
41
1
10
73.5115915582655
20
0.278405470416288
30
0
41
1
10
73.5646044384717
20
-0.0047662387416096
30
0
41
1
10
73.5752070145129
20
-0.0611897033045352
30
0
41
1
10
73.5964121665953
20
-0.174825170670743
30
0
41
1
10
73.628219894719
20
-0.345976795188676
30
0
41
1
10
73.6600276228427
20
-0.519080116604528
30
0
41
1
10
73.7660533832549
20
-1.09972358836347
30
0
41
1
10
73.8508739915846
20
-1.57611632536225
30
0
41
1
10
74.0205152082441
20
-2.53034416436796
30
0
41
1
10
74.1053358165739
20
-3.00807233714536
30
0
41
1
10
74.2749770332335
20
-3.93750754328926
30
0
41
1
10
74.3597976415632
20
-4.38904683049984
30
0
41
1
10
74.5294388582227
20
-5.23777152807619
30
0
41
1
10
74.6142594665525
20
-5.63478160025755
30
0
41
1
10
74.783900683212
20
-6.3506292462323
30
0
41
1
10
74.8687212915418
20
-6.66935156099171
30
0
41
1
10
75.0383625082013
20
-7.21393243209732
30
0
41
1
10
75.1231831165311
20
-7.43977658276657
30
0
41
1
10
75.2928243331907
20
-7.79509567456503
30
0
41
1
10
75.3776449415203
20
-7.92464765773508
30
0
41
1
10
75.5472861581799
20
-8.09404025808379
30
0
41
1
10
75.6321067665097
20
-8.13400345295591
30
0
41
1
10
75.7275299508807
20
-8.13616697324503
30
0
41
1
10
75.738132526922
20
-8.13581990466815
30
0
41
1
10
75.7593376790043
20
-8.13392718102074
30
0
41
1
10
75.7911454071279
20
-8.12928745434687
30
0
41
1
10
75.8229531352516
20
-8.11911164568687
30
0
41
1
10
75.8865685914989
20
-8.09104330557955
30
0
41
1
10
75.9289788956639
20
-8.06203046848384
30
0
41
1
10
76.0562098081585
20
-7.94176796375996
30
0
41
1
10
76.1410304164882
20
-7.8170163708011
30
0
41
1
10
76.3106716331478
20
-7.47141931949474
30
0
41
1
10
76.3954922414775
20
-7.25049321914801
30
0
41
1
10
76.5651334581371
20
-6.71530651477417
30
0
41
1
10
76.6499540664668
20
-6.40105500566753
30
0
41
1
10
76.8195952831264
20
-5.69315873288232
30
0
41
1
10
76.9044158914561
20
-5.2996246864285
30
0
41
1
10
77.0740571081157
20
-4.45648651941019
30
0
41
1
10
77.1588777164454
20
-4.00705625597212
30
0
41
1
10
77.328518933105
20
-3.08036920365919
30
0
41
1
10
77.4133395414348
20
-2.6032821091041
30
0
41
1
10
77.5829807580942
20
-1.64902526470823
30
0
41
1
10
77.667801366424
20
-1.1719662441935
30
0
41
1
10
77.7950322789187
20
-0.473457534619797
30
0
41
1
10
77.8374425830835
20
-0.24341952987686
30
0
41
1
10
77.9010580393309
20
0.0957982872090781
30
0
41
1
10
77.9222631914132
20
0.209470880601316
30
0
41
1
10
77.9646734955782
20
0.438890573556478
30
0
41
1
10
77.9858786476606
20
0.554454214736836
30
0
41
1
10
78.0919044080728
20
1.13582900646017
30
0
41
1
10
78.1767250164025
20
1.61256227963392
30
0
41
1
10
78.3463662330621
20
2.56682109746708
30
0
41
1
10
78.4311868413919
20
3.04423780796756
30
0
41
1
10
78.6008280580514
20
3.97231736504099
30
0
41
1
10
78.6856486663812
20
4.4228114731265
30
0
41
1
10
78.8552898830407
20
5.26876003937011
30
0
41
1
10
78.9401104913704
20
5.66403987669705
30
0
41
1
10
79.1097517080299
20
6.37592432653992
30
0
41
1
10
79.1945723163598
20
6.69241593738164
30
0
41
1
10
79.3642135330193
20
7.23230540138925
30
0
41
1
10
79.449034141349
20
7.45569150819188
30
0
41
1
10
79.6186753580086
20
7.80614820474389
30
0
41
1
10
79.7034959663383
20
7.93329765259512
30
0
41
1
10
79.8731371829978
20
8.09816203028655
30
0
41
1
10
79.9579577913277
20
8.136
30
0
41
1
10
80.0427783996574
20
8.136
30
0
0
SPLINE
5
EA
100
AcDbEntity
8
1
62
256
6
ByLayer
370
13
48
1
60
0
100
AcDbSpline
70
4
71
3
72
84
73
80
40
0
40
0
40
0
40
0
40
0.0312500000000004
40
0.0312500000000004
40
0.0625000000000007
40
0.0625000000000007
40
0.0937500000000011
40
0.0937500000000011
40
0.125000000000001
40
0.125000000000001
40
0.140625000000002
40
0.140625000000002
40
0.148437500000002
40
0.148437500000002
40
0.156250000000002
40
0.156250000000002
40
0.187500000000002
40
0.187500000000002
40
0.218750000000002
40
0.218750000000002
40
0.250000000000002
40
0.250000000000002
40
0.281250000000003
40
0.281250000000003
40
0.312500000000003
40
0.312500000000003
40
0.343750000000003
40
0.343750000000003
40
0.375000000000003
40
0.375000000000003
40
0.406250000000003
40
0.406250000000003
40
0.421875000000004
40
0.421875000000004
40
0.429687500000004
40
0.433593750000004
40
0.433593750000004
40
0.437500000000004
40
0.437500000000004
40
0.468750000000004
40
0.468750000000004
40
0.500000000000005
40
0.500000000000005
40
0.531250000000005
40
0.531250000000005
40
0.562500000000005
40
0.562500000000005
40
0.593750000000006
40
0.593750000000006
40
0.625000000000006
40
0.625000000000006
40
0.656250000000006
40
0.656250000000006
40
0.687500000000007
40
0.687500000000007
40
0.703125000000007
40
0.703125000000007
40
0.710937500000007
40
0.714843750000007
40
0.714843750000007
40
0.718750000000007
40
0.718750000000007
40
0.750000000000006
40
0.750000000000006
40
0.781250000000005
40
0.781250000000005
40
0.812500000000005
40
0.812500000000005
40
0.843750000000004
40
0.843750000000004
40
0.875000000000003
40
0.875000000000003
40
0.906250000000002
40
0.906250000000002
40
0.937500000000002
40
0.937500000000002
40
0.968750000000001
40
0.968750000000001
40
1
40
1
40
1
40
1
41
1
10
71.9
20
6.12755850919828
30
0
41
1
10
71.979654356181
20
5.80085533539994
30
0
41
1
10
72.0593087123618
20
5.43863280848942
30
0
41
1
10
72.2186174247236
20
4.6616244158231
30
0
41
1
10
72.2982717809046
20
4.24696223160754
30
0
41
1
10
72.4575804932664
20
3.38807846338113
30
0
41
1
10
72.5372348494474
20
2.94398555712203
30
0
41
1
10
72.6965435618092
20
2.04966222294073
30
0
41
1
10
72.7761979179901
20
1.59952633693411
30
0
41
1
10
72.8956794522615
20
0.934985568040929
30
0
41
1
10
72.9355066303519
20
0.715216292272117
30
0
41
1
10
72.9952473974876
20
0.389724728462767
30
0
41
1
10
73.0151609865328
20
0.281918620353622
30
0
41
1
10
73.0549881646233
20
0.0679136272285064
30
0
41
1
10
73.0749017536685
20
-0.0377862802938864
30
0
41
1
10
73.1744696988947
20
-0.572036318705727
30
0
41
1
10
73.2541240550756
20
-1.01266976966386
30
0
41
1
10
73.4134327674374
20
-1.90405859086408
30
0
41
1
10
73.4930871236183
20
-2.35475919667113
30
0
41
1
10
73.6523958359802
20
-3.24509122346277
30
0
41
1
10
73.7320501921611
20
-3.68461791937918
30
0
41
1
10
73.8913589045229
20
-4.52898707349121
30
0
41
1
10
73.9710132607038
20
-4.93369804272683
30
0
41
1
10
74.1303219730656
20
-5.68605436609715
30
0
41
1
10
74.2099763292466
20
-6.03358348503076
30
0
41
1
10
74.3692850416084
20
-6.6543167978989
30
0
41
1
10
74.4489393977892
20
-6.92746015108497
30
0
41
1
10
74.6082481101511
20
-7.39008131540479
30
0
41
1
10
74.687902466332
20
-7.57956957260544
30
0
41
1
10
74.8472111786938
20
-7.87424577190455
30
0
41
1
10
74.9268655348747
20
-7.97950078394203
30
0
41
1
10
75.0463470691461
20
-8.07927806361243
30
0
41
1
10
75.0861742472366
20
-8.10290403671439
30
0
41
1
10
75.1459150143723
20
-8.12489470074263
30
0
41
1
10
75.1757853979401
20
-8.13253114883491
30
0
41
1
10
75.205655781508
20
-8.13534170192219
30
0
41
1
10
75.2255693705532
20
-8.13616795730459
30
0
41
1
10
75.2355261650757
20
-8.13606094047282
30
0
41
1
10
75.3251373157793
20
-8.13038195382609
30
0
41
1
10
75.4047916719602
20
-8.09149511704419
30
0
41
1
10
75.5641003843221
20
-7.93501070539702
30
0
41
1
10
75.643754740503
20
-7.81732318426612
30
0
41
1
10
75.8030634528648
20
-7.49733636039795
30
0
41
1
10
75.8827178090457
20
-7.29497667144335
30
0
41
1
10
76.0420265214076
20
-6.80743773483476
30
0
41
1
10
76.1216808775884
20
-6.5222585401458
30
0
41
1
10
76.2809895899503
20
-5.87957941762969
30
0
41
1
10
76.3606439461312
20
-5.52215048536399
30
0
41
1
10
76.519952658493
20
-4.75312349698294
30
0
41
1
10
76.599607014674
20
-4.34164689047134
30
0
41
1
10
76.7589157270357
20
-3.48733388521819
30
0
41
1
10
76.8385700832167
20
-3.0446273420732
30
0
41
1
10
76.9978787955785
20
-2.15137947105029
30
0
41
1
10
77.0775331517594
20
-1.70093619501864
30
0
41
1
10
77.1970146860308
20
-1.03490516447155
30
0
41
1
10
77.2368418641212
20
-0.814468962872013
30
0
41
1
10
77.2965826312569
20
-0.487759949462003
30
0
41
1
10
77.3264530148248
20
-0.325387853336792
30
0
41
1
10
77.3563233983925
20
-0.164749898908951
30
0
41
1
10
77.3762369874378
20
-0.058069648510326
30
0
41
1
10
77.3861937819604
20
-0.0050774708679455
30
0
41
1
10
77.4758049326639
20
0.473496531782132
30
0
41
1
10
77.5554592888449
20
0.912634607626757
30
0
41
1
10
77.7147680012068
20
1.80245557375204
30
0
41
1
10
77.7944223573876
20
2.25308770341962
30
0
41
1
10
77.9537310697494
20
3.14500592951887
30
0
41
1
10
78.0333854259304
20
3.58619057594018
30
0
41
1
10
78.1926941382923
20
4.43566514151971
30
0
41
1
10
78.2723484944731
20
4.84382426600575
30
0
41
1
10
78.4316572068349
20
5.60463253452278
30
0
41
1
10
78.5113115630159
20
5.95716271281876
30
0
41
1
10
78.6706202753777
20
6.58894861098284
30
0
41
1
10
78.7502746315587
20
6.86813835880304
30
0
41
1
10
78.9095833439205
20
7.34325000257112
30
0
41
1
10
78.9892377001014
20
7.53917713428311
30
0
41
1
10
79.1485464124632
20
7.84649296164838
30
0
41
1
10
79.2282007686441
20
7.95794548053573
30
0
41
1
10
79.3875094810059
20
8.10265360952329
30
0
41
1
10
79.4671638371868
20
8.136
30
0
41
1
10
79.5468181933677
20
8.136
30
0
0
SPLINE
5
EB
100
AcDbEntity
8
1
62
256
6
ByLayer
370
13
48
1
60
0
100
AcDbSpline
70
4
71
3
72
83
73
79
40
0
40
0
40
0
40
0
40
0.0312499999999999
40
0.0312499999999999
40
0.0624999999999998
40
0.0624999999999998
40
0.0937499999999997
40
0.0937499999999997
40
0.109375
40
0.109375
40
0.124999999999999
40
0.124999999999999
40
0.156249999999999
40
0.156249999999999
40
0.187499999999999
40
0.187499999999999
40
0.218749999999999
40
0.218749999999999
40
0.249999999999998
40
0.249999999999998
40
0.281249999999998
40
0.281249999999998
40
0.312499999999998
40
0.312499999999998
40
0.343749999999997
40
0.343749999999997
40
0.374999999999997
40
0.374999999999997
40
0.390624999999997
40
0.390624999999997
40
0.394531249999997
40
0.394531249999997
40
0.398437499999997
40
0.398437499999997
40
0.406249999999997
40
0.406249999999997
40
0.437499999999998
40
0.437499999999998
40
0.468749999999999
40
0.468749999999999
40
0.499999999999999
40
0.499999999999999
40
0.53125
40
0.53125
40
0.562500000000001
40
0.562500000000001
40
0.593750000000001
40
0.593750000000001
40
0.625000000000002
40
0.625000000000002
40
0.656250000000003
40
0.656250000000003
40
0.687500000000003
40
0.687500000000003
40
0.695312500000003
40
0.695312500000003
40
0.699218750000003
40
0.699218750000003
40
0.703125000000003
40
0.718750000000003
40
0.718750000000003
40
0.750000000000003
40
0.750000000000003
40
0.781250000000002
40
0.781250000000002
40
0.812500000000002
40
0.812500000000002
40
0.843750000000002
40
0.843750000000002
40
0.875000000000001
40
0.875000000000001
40
0.906250000000001
40
0.906250000000001
40
0.937500000000001
40
0.937500000000001
40
0.96875
40
0.96875
40
1
40
1
40
1
40
1
41
1
10
71.9
20
3.7200468964588
30
0
41
1
10
71.974488104032
20
3.31644610408853
30
0
41
1
10
72.0489762080641
20
2.90081088605405
30
0
41
1
10
72.1979524161283
20
2.06436944375903
30
0
41
1
10
72.2724405201603
20
1.64363054485824
30
0
41
1
10
72.4214167282245
20
0.813689102452173
30
0
41
1
10
72.4959048322565
20
0.404519188676602
30
0
41
1
10
72.6076369883046
20
-0.190978109187711
30
0
41
1
10
72.6448810403206
20
-0.392202589800775
30
0
41
1
10
72.7193691443527
20
-0.799549733903973
30
0
41
1
10
72.7566131963687
20
-1.00552288448239
30
0
41
1
10
72.8683453524168
20
-1.62776397758904
30
0
41
1
10
72.9428334564489
20
-2.04845363494246
30
0
41
1
10
73.0918096645131
20
-2.88502596949675
30
0
41
1
10
73.1662977685451
20
-3.30084172384491
30
0
41
1
10
73.3152739766092
20
-4.10865040824112
30
0
41
1
10
73.3897620806413
20
-4.50055232890472
30
0
41
1
10
73.5387382887054
20
-5.2415228124448
30
0
41
1
10
73.6132263927375
20
-5.59050007057357
30
0
41
1
10
73.7622026008016
20
-6.22945265757781
30
0
41
1
10
73.8366907048337
20
-6.51936407094496
30
0
41
1
10
73.9856669128978
20
-7.02929082738726
30
0
41
1
10
74.0601550169299
20
-7.24928774881894
30
0
41
1
10
74.209131224994
20
-7.61505585973603
30
0
41
1
10
74.2836193290261
20
-7.76085425457623
30
0
41
1
10
74.4325955370902
20
-7.98031105422297
30
0
41
1
10
74.5070836411222
20
-8.05402675616875
30
0
41
1
10
74.6188157971703
20
-8.11586749976092
30
0
41
1
10
74.6560598491864
20
-8.12839269034328
30
0
41
1
10
74.7026149142064
20
-8.13468989020259
30
0
41
1
10
74.7119259272104
20
-8.13548175615915
30
0
41
1
10
74.7305479532184
20
-8.13615055735275
30
0
41
1
10
74.7398589662224
20
-8.13603052676601
30
0
41
1
10
74.7677920052344
20
-8.13429518141939
30
0
41
1
10
74.7864140312424
20
-8.13129730527052
30
0
41
1
10
74.8795241612826
20
-8.10670665108688
30
0
41
1
10
74.9540122653146
20
-8.05618088371759
30
0
41
1
10
75.1029884733787
20
-7.88508296008476
30
0
41
1
10
75.1774765774108
20
-7.76444814114126
30
0
41
1
10
75.3264527854749
20
-7.44907102433754
30
0
41
1
10
75.400940889507
20
-7.25428896108974
30
0
41
1
10
75.5499170975712
20
-6.79258464897868
30
0
41
1
10
75.6244052016032
20
-6.52566430236485
30
0
41
1
10
75.7733814096673
20
-5.92831205788406
30
0
41
1
10
75.8478695136994
20
-5.59792973752903
30
0
41
1
10
75.9968457217635
20
-4.88817745475836
30
0
41
1
10
76.0713338257955
20
-4.50889234148389
30
0
41
1
10
76.2203100338596
20
-3.71967179758994
30
0
41
1
10
76.2947981378917
20
-3.3098306193325
30
0
41
1
10
76.4437743459558
20
-2.47885475641684
30
0
41
1
10
76.5182624499879
20
-2.05779718204369
30
0
41
1
10
76.667238658052
20
-1.22209764805598
30
0
41
1
10
76.7417267620841
20
-0.807500015965132
30
0
41
1
10
76.8348368921241
20
-0.302133185408167
30
0
41
1
10
76.8534589181322
20
-0.201693844295079
30
0
41
1
10
76.8813919571442
20
-0.0521203704531104
30
0
41
1
10
76.8907029701483
20
-0.0025682866690317
30
0
41
1
10
76.9093249961563
20
0.0968791552231494
30
0
41
1
10
76.9558800611763
20
0.346418496241142
30
0
41
1
10
77.0024351261963
20
0.600321738576099
30
0
41
1
10
77.1141672822445
20
1.21575224620833
30
0
41
1
10
77.1886553862765
20
1.63423763224239
30
0
41
1
10
77.3376315943406
20
2.47222528712274
30
0
41
1
10
77.4121196983726
20
2.89167162693701
30
0
41
1
10
77.5610959064368
20
3.71313325770859
30
0
41
1
10
77.6355840104689
20
4.11506337457448
30
0
41
1
10
77.784560218533
20
4.8821720862444
30
0
41
1
10
77.8590483225651
20
5.2472563359996
30
0
41
1
10
78.0080245306291
20
5.92326342464261
30
0
41
1
10
78.0825126346613
20
6.23411060677347
30
0
41
1
10
78.2314888427254
20
6.78880377839928
30
0
41
1
10
78.3059769467575
20
7.03261542013027
30
0
41
1
10
78.4549531548216
20
7.44669363653674
30
0
41
1
10
78.5294412588536
20
7.61697350950109
30
0
41
1
10
78.6784174669178
20
7.88406228617717
30
0
41
1
10
78.7529055709498
20
7.98092088523882
30
0
41
1
10
78.901881779014
20
8.10685701047512
30
0
41
1
10
78.9763698830461
20
8.136
30
0
41
1
10
79.0508579870781
20
8.136
30
0
0
SPLINE
5
EC
100
AcDbEntity
8
1
62
256
6
ByLayer
370
13
48
1
60
0
100
AcDbSpline
70
4
71
3
72
82
73
78
40
0
40
0
40
0
40
0
40
0.0156249999999993
40
0.0156249999999993
40
0.023437499999999
40
0.023437499999999
40
0.0312499999999988
40
0.0312499999999988
40
0.062499999999998
40
0.062499999999998
40
0.0937499999999973
40
0.0937499999999973
40
0.124999999999997
40
0.124999999999997
40
0.156249999999996
40
0.156249999999996
40
0.187499999999995
40
0.187499999999995
40
0.218749999999994
40
0.218749999999994
40
0.249999999999994
40
0.249999999999994
40
0.281249999999993
40
0.281249999999993
40
0.312499999999992
40
0.312499999999992
40
0.343749999999991
40
0.343749999999991
40
0.351562499999991
40
0.351562499999991
40
0.359374999999991
40
0.359374999999991
40
0.374999999999991
40
0.374999999999991
40
0.406249999999991
40
0.406249999999991
40
0.437499999999991
40
0.437499999999991
40
0.468749999999991
40
0.468749999999991
40
0.499999999999992
40
0.499999999999992
40
0.531249999999992
40
0.531249999999992
40
0.562499999999992
40
0.562499999999992
40
0.593749999999992
40
0.593749999999992
40
0.624999999999992
40
0.624999999999992
40
0.656249999999992
40
0.656249999999992
40
0.671874999999992
40
0.671874999999992
40
0.679687499999992
40
0.679687499999992
40
0.687499999999993
40
0.687499999999993
40
0.718749999999993
40
0.718749999999993
40
0.749999999999994
40
0.749999999999994
40
0.781249999999995
40
0.781249999999995
40
0.812499999999996
40
0.812499999999996
40
0.843749999999996
40
0.843749999999996
40
0.874999999999997
40
0.874999999999997
40
0.906249999999998
40
0.906249999999998
40
0.937499999999999
40
0.937499999999999
40
0.968749999999999
40
0.968749999999999
40
1
40
1
40
1
40
1
41
1
10
71.9
20
0.956396189026634
30
0
41
1
10
71.9346609259417
20
0.764612805791216
30
0
41
1
10
71.9693218518833
20
0.574397195139596
30
0
41
1
10
72.0213132407957
20
0.29240431413433
30
0
41
1
10
72.0386437037665
20
0.198960230106479
30
0
41
1
10
72.0733046297081
20
0.0133234119717827
30
0
41
1
10
72.090635092679
20
-0.0787519829917755
30
0
41
1
10
72.1772874075328
20
-0.544297856691855
30
0
41
1
10
72.2466092594161
20
-0.926606489448204
30
0
41
1
10
72.3852529631826
20
-1.70034737273363
30
0
41
1
10
72.4545748150657
20
-2.09175517772891
30
0
41
1
10
72.5932185188321
20
-2.87019642003523
30
0
41
1
10
72.6625403707154
20
-3.25718283805387
30
0
41
1
10
72.8011840744818
20
-4.01148570948635
30
0
41
1
10
72.870505926365
20
-4.37873911329058
30
0
41
1
10
73.0091496301314
20
-5.07816769069683
30
0
41
1
10
73.0784714820146
20
-5.4102779113193
30
0
41
1
10
73.217115185781
20
-6.02587994420415
30
0
41
1
10
73.2864370376643
20
-6.30932194427166
30
0
41
1
10
73.4250807414307
20
-6.81770238061259
30
0
41
1
10
73.4944025933139
20
-7.04261892284134
30
0
41
1
10
73.6330462970803
20
-7.42883593716479
30
0
41
1
10
73.7023681489635
20
-7.5901455499189
30
0
41
1
10
73.84101185273
20
-7.84900186943676
30
0
41
1
10
73.9103337046132
20
-7.94658191026556
30
0
41
1
10
74.0489774083796
20
-8.08212643715891
30
0
41
1
10
74.1182992602629
20
-8.12013604744811
30
0
41
1
10
74.2049515751169
20
-8.13489722101252
30
0
41
1
10
74.2222820380876
20
-8.13621819477706
30
0
41
1
10
74.2569429640292
20
-8.13572355854143
30
0
41
1
10
74.2742734270001
20
-8.13389907097462
30
0
41
1
10
74.3262648159125
20
-8.12349959726686
30
0
41
1
10
74.3609257418541
20
-8.10999444075745
30
0
41
1
10
74.4649085196789
20
-8.04833449903691
30
0
41
1
10
74.5342303715621
20
-7.97893381096412
30
0
41
1
10
74.6728740753285
20
-7.77789351671018
30
0
41
1
10
74.7421959272117
20
-7.64621349117289
30
0
41
1
10
74.8808396309781
20
-7.31861923773991
30
0
41
1
10
74.9501614828613
20
-7.12268339917463
30
0
41
1
10
75.0888051866278
20
-6.66931110862436
30
0
41
1
10
75.1581270385111
20
-6.4118819783655
30
0
41
1
10
75.2967707422774
20
-5.84323326843713
30
0
41
1
10
75.3660925941605
20
-5.5320517168945
30
0
41
1
10
75.504736297927
20
-4.86790132294772
30
0
41
1
10
75.5740581498103
20
-4.51499248653357
30
0
41
1
10
75.7127018535767
20
-3.78216977882565
30
0
41
1
10
75.7820237054599
20
-3.40232192065759
30
0
41
1
10
75.9206674092263
20
-2.63122646929941
30
0
41
1
10
75.9899892611095
20
-2.24003460928054
30
0
41
1
10
76.128632964876
20
-1.46079337998057
30
0
41
1
10
76.1979548167592
20
-1.07277912695835
30
0
41
1
10
76.301937594584
20
-0.502177444529934
30
0
41
1
10
76.3365985205256
20
-0.313857773388207
30
0
41
1
10
76.388589909438
20
-0.0351092036945317
30
0
41
1
10
76.4059203724088
20
0.0569187928508654
30
0
41
1
10
76.4405812983504
20
0.242945020560313
30
0
41
1
10
76.4579117613212
20
0.336572899660013
30
0
41
1
10
76.5445640761752
20
0.807420457963673
30
0
41
1
10
76.6138859280584
20
1.19288467857302
30
0
41
1
10
76.7525296318248
20
1.97005404896834
30
0
41
1
10
76.8218514837081
20
2.36172941471588
30
0
41
1
10
76.9604951874745
20
3.13728870835169
30
0
41
1
10
77.0298170393577
20
3.52112103288928
30
0
41
1
10
77.1684607431241
20
4.26550579552105
30
0
41
1
10
77.2377825950073
20
4.62599328228578
30
0
41
1
10
77.3764262987738
20
5.30853337448212
30
0
41
1
10
77.445748150657
20
5.63052304064493
30
0
41
1
10
77.5843918544234
20
6.22322855811694
30
0
41
1
10
77.6537137063066
20
6.49390019065413
30
0
41
1
10
77.792357410073
20
6.97511656133145
30
0
41
1
10
77.8616792619562
20
7.18564667700676
30
0
41
1
10
78.0003229657227
20
7.54262893537123
30
0
41
1
10
78.0696448176059
20
7.68909669431511
30
0
41
1
10
78.2082885213723
20
7.9188825255371
30
0
41
1
10
78.2776103732555
20
8.00223782769226
30
0
41
1
10
78.416254077022
20
8.11077356385195
30
0
41
1
10
78.4855759289051
20
8.136
30
0
41
1
10
78.5548977807883
20
8.136
30
0
0
SPLINE
5
ED
100
AcDbEntity
8
1
62
256
6
ByLayer
370
13
48
1
60
0
100
AcDbSpline
70
4
71
3
72
8
73
4
40
0
40
0
40
0
40
0
40
1
40
1
40
1
40
1
41
1
10
80.3313239388615
20
8.136
30
0
41
1
10
80.4004620172444
20
8.136
30
0
41
1
10
80.4696000956272
20
8.11090761517897
30
0
41
1
10
80.5387381740102
20
8.0569366807824
30
0
0
SPLINE
5
EE
100
AcDbEntity
8
1
62
256
6
ByLayer
370
13
48
1
60
0
100
AcDbSpline
70
4
71
3
72
79
73
75
40
0
40
0
40
0
40
0
40
0.0312499999999996
40
0.0312499999999996
40
0.0624999999999992
40
0.0624999999999992
40
0.0937499999999988
40
0.0937499999999988
40
0.124999999999998
40
0.124999999999998
40
0.156249999999998
40
0.156249999999998
40
0.187499999999998
40
0.187499999999998
40
0.218749999999997
40
0.218749999999997
40
0.249999999999997
40
0.249999999999997
40
0.281249999999997
40
0.281249999999997
40
0.296874999999996
40
0.296874999999996
40
0.300781249999996
40
0.300781249999996
40
0.304687499999996
40
0.312499999999996
40
0.312499999999996
40
0.343749999999997
40
0.343749999999997
40
0.374999999999997
40
0.374999999999997
40
0.406249999999997
40
0.406249999999997
40
0.437499999999997
40
0.437499999999997
40
0.468749999999998
40
0.468749999999998
40
0.499999999999998
40
0.499999999999998
40
0.531249999999998
40
0.531249999999998
40
0.562499999999999
40
0.562499999999999
40
0.593749999999999
40
0.593749999999999
40
0.624999999999999
40
0.624999999999999
40
0.640624999999999
40
0.640624999999999
40
0.648437499999999
40
0.648437499999999
40
0.656249999999999
40
0.656249999999999
40
0.687499999999999
40
0.687499999999999
40
0.718749999999999
40
0.718749999999999
40
0.749999999999999
40
0.749999999999999
40
0.781249999999999
40
0.781249999999999
40
0.812499999999999
40
0.812499999999999
40
0.843749999999999
40
0.843749999999999
40
0.874999999999999
40
0.874999999999999
40
0.90625
40
0.90625
40
0.9375
40
0.9375
40
0.96875
40
0.96875
40
1
40
1
40
1
40
1
41
1
10
71.9
20
-1.76171770269116
30
0
41
1
10
71.9641555997344
20
-2.12205689080724
30
0
41
1
10
72.0283111994688
20
-2.48416786884002
30
0
41
1
10
72.1566223989375
20
-3.20066222182675
30
0
41
1
10
72.2207779986718
20
-3.55500950750329
30
0
41
1
10
72.3490891981405
20
-4.24368490119505
30
0
41
1
10
72.4132447978749
20
-4.57796881456289
30
0
41
1
10
72.5415559973436
20
-5.21448023160838
30
0
41
1
10
72.605711597078
20
-5.51666444602645
30
0
41
1
10
72.7340227965467
20
-6.078543376986
30
0
41
1
10
72.7981783962811
20
-6.33820559343459
30
0
41
1
10
72.9264895957499
20
-6.80738582952253
30
0
41
1
10
72.9906451954842
20
-7.01688923008427
30
0
41
1
10
73.1189563949529
20
-7.38160553885328
30
0
41
1
10
73.1831119946872
20
-7.53682344676713
30
0
41
1
10
73.311423194156
20
-7.79247628678866
30
0
41
1
10
73.3755787938903
20
-7.89293211574628
30
0
41
1
10
73.5038899933591
20
-8.04181481189534
30
0
41
1
10
73.5680455930934
20
-8.09027143212472
30
0
41
1
10
73.664278992695
20
-8.1278434282965
30
0
41
1
10
73.6963567925621
20
-8.13453150358967
30
0
41
1
10
73.7364540423961
20
-8.13609601674787
30
0
41
1
10
73.7444734923629
20
-8.1360710900382
30
0
41
1
10
73.7605123922966
20
-8.13534411886448
30
0
41
1
10
73.7845707421968
20
-8.13323351454741
30
0
41
1
10
73.8086290920972
20
-8.12800381831551
30
0
41
1
10
73.8888235917652
20
-8.10339072782588
30
0
41
1
10
73.9529791914996
20
-8.06065106829269
30
0
41
1
10
74.0812903909683
20
-7.9236980181129
30
0
41
1
10
74.1454459907027
20
-7.82945434885715
30
0
41
1
10
74.2737571901714
20
-7.5863936436611
30
0
41
1
10
74.3379127899058
20
-7.4375542928847
30
0
41
1
10
74.4662239893745
20
-7.08535869005794
30
0
41
1
10
74.5303795891089
20
-6.88199532011782
30
0
41
1
10
74.6586907885775
20
-6.42443234516116
30
0
41
1
10
74.7228463883119
20
-6.17024506508847
30
0
41
1
10
74.8511575877806
20
-5.61827313661496
30
0
41
1
10
74.915313187515
20
-5.32051919547666
30
0
41
1
10
75.0436243869837
20
-4.69155564061168
30
0
41
1
10
75.1077799867181
20
-4.36038855270434
30
0
41
1
10
75.2360911861868
20
-3.67651466493717
30
0
41
1
10
75.3002467859211
20
-3.32385246419517
30
0
41
1
10
75.4285579853898
20
-2.60933252168638
30
0
41
1
10
75.4927135851243
20
-2.24751216495309
30
0
41
1
10
75.621024784593
20
-1.52618459896709
30
0
41
1
10
75.6851803843273
20
-1.16670172699082
30
0
41
1
10
75.7814137839289
20
-0.636508886333303
30
0
41
1
10
75.8134915837961
20
-0.461267061753972
30
0
41
1
10
75.8616082835968
20
-0.201388816720851
30
0
41
1
10
75.8776471835304
20
-0.115259002834705
30
0
41
1
10
75.9097249833976
20
0.0558968962385507
30
0
41
1
10
75.9257638833312
20
0.141567596421595
30
0
41
1
10
76.0059583829992
20
0.573535162265472
30
0
41
1
10
76.0701139827335
20
0.92735273138851
30
0
41
1
10
76.1984251822022
20
1.64302337183415
30
0
41
1
10
76.2625807819365
20
2.00486023592188
30
0
41
1
10
76.3908919814053
20
2.72599246260603
30
0
41
1
10
76.4550475811396
20
3.08525728915868
30
0
41
1
10
76.5833587806083
20
3.78924984803572
30
0
41
1
10
76.6475143803427
20
4.13393603226095
30
0
41
1
10
76.7758255798115
20
4.7964558887877
30
0
41
1
10
76.8399811795458
20
5.11424462051613
30
0
41
1
10
76.9682923790145
20
5.71166491778351
30
0
41
1
10
77.0324479787489
20
5.99125809154904
30
0
41
1
10
77.1607591782176
20
6.50328265669367
30
0
41
1
10
77.224914777952
20
6.73569095793763
30
0
41
1
10
77.3532259774207
20
7.14759442175156
30
0
41
1
10
77.4173815771551
20
7.32708607405343
30
0
41
1
10
77.5456927766238
20
7.63106839298339
30
0
41
1
10
77.6098483763581
20
7.75557366635294
30
0
41
1
10
77.738159575827
20
7.95098153618869
30
0
41
1
10
77.8023151755613
20
8.021910927823
30
0
41
1
10
77.9306263750299
20
8.11440446672293
30
0
41
1
10
77.9947819747643
20
8.136
30
0
41
1
10
78.0589375744987
20
8.136
30
0
0
SPLINE
5
EF
100
AcDbEntity
8
1
62
256
6
ByLayer
370
13
48
1
60
0
100
AcDbSpline
70
4
71
3
72
14
73
10
40
0
40
0
40
0
40
0
40
0.25
40
0.25
40
0.5
40
0.5
40
0.75
40
0.75
40
1
40
1
40
1
40
1
41
1
10
79.8353637325719
20
8.136
30
0
41
1
10
79.8939782693584
20
8.136
30
0
41
1
10
79.9525928061448
20
8.11798251801156
30
0
41
1
10
80.0698218797179
20
8.04120162525314
30
0
41
1
10
80.1284364165045
20
7.98241816507695
30
0
41
1
10
80.2456654900775
20
7.82064089615477
30
0
41
1
10
80.3042800268641
20
7.71762913990617
30
0
41
1
10
80.4215091004371
20
7.46579919848941
30
0
41
1
10
80.4801236372236
20
7.31696923038189
30
0
41
1
10
80.5387381740102
20
7.14560313964066
30
0
0
SPLINE
5
F0
100
AcDbEntity
8
1
62
256
6
ByLayer
370
13
48
1
60
0
100
AcDbSpline
70
4
71
3
72
78
73
74
40
0
40
0
40
0
40
0
40
0.0312500000000008
40
0.0312500000000008
40
0.0625000000000016
40
0.0625000000000016
40
0.0937500000000024
40
0.0937500000000024
40
0.125000000000003
40
0.125000000000003
40
0.156250000000004
40
0.156250000000004
40
0.187500000000005
40
0.187500000000005
40
0.218750000000005
40
0.218750000000005
40
0.234375000000006
40
0.234375000000006
40
0.242187500000006
40
0.242187500000006
40
0.250000000000006
40
0.250000000000006
40
0.281250000000006
40
0.281250000000006
40
0.312500000000007
40
0.312500000000007
40
0.343750000000007
40
0.343750000000007
40
0.375000000000007
40
0.375000000000007
40
0.406250000000007
40
0.406250000000007
40
0.437500000000007
40
0.437500000000007
40
0.468750000000008
40
0.468750000000008
40
0.500000000000008
40
0.500000000000008
40
0.531250000000008
40
0.531250000000008
40
0.562500000000008
40
0.562500000000008
40
0.593750000000009
40
0.593750000000009
40
0.609375000000009
40
0.609375000000009
40
0.617187500000009
40
0.617187500000009
40
0.625000000000008
40
0.625000000000008
40
0.656250000000008
40
0.656250000000008
40
0.687500000000007
40
0.687500000000007
40
0.718750000000006
40
0.718750000000006
40
0.750000000000005
40
0.750000000000005
40
0.781250000000005
40
0.781250000000005
40
0.812500000000004
40
0.812500000000004
40
0.843750000000003
40
0.843750000000003
40
0.875000000000002
40
0.875000000000002
40
0.906250000000002
40
0.906250000000002
40
0.937500000000001
40
0.937500000000001
40
0.968750000000001
40
0.968750000000001
40
1
40
1
40
1
40
1
41
1
10
71.9
20
-4.48407581641379
30
0
41
1
10
71.9589893475855
20
-4.78818969367282
30
0
41
1
10
72.0179786951711
20
-5.08082780575671
30
0
41
1
10
72.1359573903421
20
-5.63440316813907
30
0
41
1
10
72.1949467379276
20
-5.89531469151493
30
0
41
1
10
72.3129254330986
20
-6.37822222547746
30
0
41
1
10
72.3719147806841
20
-6.60020135120402
30
0
41
1
10
72.4898934758551
20
-7.00028045920473
30
0
41
1
10
72.5488828234407
20
-7.17837522454064
30
0
41
1
10
72.6668615186117
20
-7.48831285455216
30
0
41
1
10
72.7258508661972
20
-7.62016204254604
30
0
41
1
10
72.8438295613682
20
-7.83780671657985
30
0
41
1
10
72.9028189089537
20
-7.92361735105234
30
0
41
1
10
73.0207976041248
20
-8.05161947684431
30
0
41
1
10
73.0797869517103
20
-8.09383084299199
30
0
41
1
10
73.1682709730886
20
-8.12753029326262
30
0
41
1
10
73.1977656468812
20
-8.13383845384752
30
0
41
1
10
73.2420076575703
20
-8.13637840607905
30
0
41
1
10
73.2567549944667
20
-8.13608383553239
30
0
41
1
10
73.2862496682595
20
-8.13318127983186
30
0
41
1
10
73.3009970051559
20
-8.13056622177564
30
0
41
1
10
73.3747336896379
20
-8.11147599117143
30
0
41
1
10
73.4337230372233
20
-8.07690815915501
30
0
41
1
10
73.5517017323943
20
-7.96484730633981
30
0
41
1
10
73.6106910799798
20
-7.88733400540897
30
0
41
1
10
73.7286697751508
20
-7.68658184732021
30
0
41
1
10
73.7876591227363
20
-7.56332664229106
30
0
41
1
10
73.9056378179074
20
-7.27042998058451
30
0
41
1
10
73.9646271654929
20
-7.10078030517352
30
0
41
1
10
74.082605860664
20
-6.71695811131573
30
0
41
1
10
74.1415952082494
20
-6.50278857968615
30
0
41
1
10
74.2595739034205
20
-6.0344028060799
30
0
41
1
10
74.318563251006
20
-5.78020142200202
30
0
41
1
10
74.4365419461769
20
-5.23857288824652
30
0
41
1
10
74.4955312937625
20
-4.95117016250708
30
0
41
1
10
74.6135099889336
20
-4.35170369168506
30
0
41
1
10
74.672499336519
20
-4.03966923009378
30
0
41
1
10
74.79047803169
20
-3.40042222244904
30
0
41
1
10
74.8494673792756
20
-3.07323821587616
30
0
41
1
10
74.9674460744466
20
-2.41320411518208
30
0
41
1
10
75.0264354220321
20
-2.08037704996755
30
0
41
1
10
75.1444141172031
20
-1.41780732607381
30
0
41
1
10
75.2034034647887
20
-1.08807945017688
30
0
41
1
10
75.2918874861669
20
-0.601360961905129
30
0
41
1
10
75.3213821599596
20
-0.440421901067737
30
0
41
1
10
75.3656241706487
20
-0.201543031308688
30
0
41
1
10
75.3803715075451
20
-0.122337539510454
30
0
41
1
10
75.4098661813379
20
0.035145310181889
30
0
41
1
10
75.4246135182343
20
0.113765744231046
30
0
41
1
10
75.4983502027162
20
0.510312924017683
30
0
41
1
10
75.5573395503017
20
0.834610810392121
30
0
41
1
10
75.6753182454727
20
1.49088910814589
30
0
41
1
10
75.7343075930582
20
1.82285995785531
30
0
41
1
10
75.8522862882293
20
2.48649038312865
30
0
41
1
10
75.9112756358148
20
2.81813163672845
30
0
41
1
10
76.0292543309857
20
3.47197326906428
30
0
41
1
10
76.0882436785713
20
3.79414791071849
30
0
41
1
10
76.2062223737423
20
4.41945937150683
30
0
41
1
10
76.2652117213278
20
4.72256668918243
30
0
41
1
10
76.3831904164988
20
5.30052412697583
30
0
41
1
10
76.4421797640844
20
5.57534627810287
30
0
41
1
10
76.5601584592553
20
6.08877523784997
30
0
41
1
10
76.6191478068408
20
6.32736106342509
30
0
41
1
10
76.7371265020118
20
6.76237521872076
30
0
41
1
10
76.7961158495974
20
6.95879341946926
30
0
41
1
10
76.9140945447684
20
7.30602561717737
30
0
41
1
10
76.9730838923539
20
7.45684143538745
30
0
41
1
10
77.091062587525
20
7.7120435835289
30
0
41
1
10
77.1500519351105
20
7.81644191365081
30
0
41
1
10
77.2680306302815
20
7.9803886056533
30
0
41
1
10
77.327019977867
20
8.0399554390566
30
0
41
1
10
77.444998673038
20
8.11775078873069
30
0
41
1
10
77.5039880206234
20
8.136
30
0
41
1
10
77.562977368209
20
8.136
30
0
0
SPLINE
5
F1
100
AcDbEntity
8
1
62
256
6
ByLayer
370
13
48
1
60
0
100
AcDbSpline
70
4
71
3
72
22
73
18
40
0
40
0
40
0
40
0
40
0.125
40
0.125
40
0.25
40
0.25
40
0.375
40
0.375
40
0.5
40
0.5
40
0.625
40
0.625
40
0.75
40
0.75
40
0.875
40
0.875
40
1
40
1
40
1
40
1
41
1
10
79.3394035262821
20
8.136
30
0
41
1
10
79.3893758032708
20
8.136
30
0
41
1
10
79.4393480802595
20
8.12291234640946
30
0
41
1
10
79.5392926342369
20
8.06759584931541
30
0
41
1
10
79.5892649112255
20
8.02535795817289
30
0
41
1
10
79.6892094652028
20
7.90938997184233
30
0
41
1
10
79.7391817421915
20
7.83565130449949
30
0
41
1
10
79.8391262961688
20
7.65523132857041
30
0
41
1
10
79.8890985731575
20
7.54854323511464
30
0
41
1
10
79.9890431271349
20
7.3019101598934
30
0
41
1
10
80.0390154041235
20
7.16196149063057
30
0
41
1
10
80.1389599581008
20
6.84979125057831
30
0
41
1
10
80.1889322350895
20
6.67757007975811
30
0
41
1
10
80.2888767890669
20
6.30318975364551
30
0
41
1
10
80.3388490660556
20
6.10103545431846
30
0
41
1
10
80.4387936200329
20
5.67039659022115
30
0
41
1
10
80.4887658970215
20
5.44192091386756
30
0
41
1
10
80.5387381740102
20
5.20261606038932
30
0
0
SPLINE
5
F2
100
AcDbEntity
8
1
62
256
6
ByLayer
370
13
48
1
60
0
100
AcDbSpline
70
4
71
3
72
76
73
72
40
0
40
0
40
0
40
0
40
0.0312499999999998
40
0.0312499999999998
40
0.0624999999999996
40
0.0624999999999996
40
0.0937499999999994
40
0.0937499999999994
40
0.124999999999999
40
0.124999999999999
40
0.156249999999999
40
0.156249999999999
40
0.171874999999999
40
0.171874999999999
40
0.187499999999999
40
0.187499999999999
40
0.218749999999999
40
0.218749999999999
40
0.249999999999998
40
0.249999999999998
40
0.281249999999998
40
0.281249999999998
40
0.312499999999998
40
0.312499999999998
40
0.343749999999998
40
0.343749999999998
40
0.374999999999997
40
0.374999999999997
40
0.406249999999997
40
0.406249999999997
40
0.437499999999997
40
0.437499999999997
40
0.468749999999997
40
0.468749999999997
40
0.499999999999997
40
0.499999999999997
40
0.531249999999996
40
0.531249999999996
40
0.562499999999996
40
0.562499999999996
40
0.578124999999996
40
0.578124999999996
40
0.585937499999996
40
0.585937499999996
40
0.593749999999996
40
0.593749999999996
40
0.624999999999996
40
0.624999999999996
40
0.656249999999996
40
0.656249999999996
40
0.687499999999997
40
0.687499999999997
40
0.718749999999997
40
0.718749999999997
40
0.749999999999997
40
0.749999999999997
40
0.781249999999998
40
0.781249999999998
40
0.812499999999998
40
0.812499999999998
40
0.843749999999998
40
0.843749999999998
40
0.874999999999999
40
0.874999999999999
40
0.906249999999999
40
0.906249999999999
40
0.937499999999999
40
0.937499999999999
40
0.96875
40
0.96875
40
1
40
1
40
1
40
1
41
1
10
71.9
20
-6.67920260339622
30
0
41
1
10
71.9538230954367
20
-6.86952260008488
30
0
41
1
10
72.0076461908734
20
-7.04191139762926
30
0
41
1
10
72.1152923817467
20
-7.34855276592469
30
0
41
1
10
72.1691154771834
20
-7.48280738091228
30
0
41
1
10
72.2767616680567
20
-7.71270720567341
30
0
41
1
10
72.3305847634933
20
-7.80836021114013
30
0
41
1
10
72.4382309543667
20
-7.96224090330307
30
0
41
1
10
72.4920540498034
20
-8.02048014552292
30
0
41
1
10
72.5997002406767
20
-8.10207609055101
30
0
41
1
10
72.6535233361133
20
-8.1254458546922
30
0
41
1
10
72.7342579792683
20
-8.13698120344915
30
0
41
1
10
72.7611695269866
20
-8.13697513510022
30
0
41
1
10
72.8149926224232
20
-8.12925944079751
30
0
41
1
10
72.8419041701416
20
-8.12148731861171
30
0
41
1
10
72.9226388132965
20
-8.08573678420146
30
0
41
1
10
72.9764619087333
20
-8.04529239369916
30
0
41
1
10
73.0841080996065
20
-7.92812550255175
30
0
41
1
10
73.1379311950432
20
-7.85139042013046
30
0
41
1
10
73.2455773859165
20
-7.6597306532349
30
0
41
1
10
73.2994004813532
20
-7.54479601611163
30
0
41
1
10
73.4070466722264
20
-7.27634371670882
30
0
41
1
10
73.4608697676631
20
-7.12282093164467
30
0
41
1
10
73.5685159585365
20
-6.77855143306758
30
0
41
1
10
73.6223390539732
20
-6.58780604808231
30
0
41
1
10
73.7299852448465
20
-6.17226531006401
30
0
41
1
10
73.7838083402831
20
-5.94747820465253
30
0
41
1
10
73.8914545311565
20
-5.4686996850447
30
0
41
1
10
73.9452776265931
20
-5.21472246690294
30
0
41
1
10
74.0529238174664
20
-4.68373924021009
30
0
41
1
10
74.1067469129031
20
-4.4067511366344
30
0
41
1
10
74.2143931037764
20
-3.83676027950872
30
0
41
1
10
74.268216199213
20
-3.54377622205931
30
0
41
1
10
74.3758623900864
20
-2.94908555752284
30
0
41
1
10
74.4296854855231
20
-2.64739562265186
30
0
41
1
10
74.5373316763963
20
-2.04232223165437
30
0
41
1
10
74.591154771833
20
-1.73895137847154
30
0
41
1
10
74.6988009627063
20
-1.13683595972208
30
0
41
1
10
74.752624058143
20
-0.838098985850792
30
0
41
1
10
74.833358701298
20
-0.397442041559032
30
0
41
1
10
74.8602702490163
20
-0.251789207470324
30
0
41
1
10
74.9006375705938
20
-0.0355743771883965
30
0
41
1
10
74.9140933444529
20
0.035924939332574
30
0
41
1
10
74.9410048921713
20
0.180070610495136
30
0
41
1
10
74.9544606660305
20
0.252520219358075
30
0
41
1
10
75.0217395353263
20
0.616484889801256
30
0
41
1
10
75.0755626307629
20
0.913194686641106
30
0
41
1
10
75.1832088216362
20
1.51268088320299
30
0
41
1
10
75.2370319170729
20
1.81545095937128
30
0
41
1
10
75.3446781079462
20
2.42097870594554
30
0
41
1
10
75.3985012033829
20
2.72372498069345
30
0
41
1
10
75.5061473942562
20
3.32232512436241
30
0
41
1
10
75.5599704896928
20
3.61816318556893
30
0
41
1
10
75.6676166805662
20
4.19567765384329
30
0
41
1
10
75.7214397760029
20
4.47733562702351
30
0
41
1
10
75.8290859668762
20
5.01935307673537
30
0
41
1
10
75.8829090623128
20
5.27969416809421
30
0
41
1
10
75.9905552531861
20
5.77263676014709
30
0
41
1
10
76.0443783486228
20
6.0052228902758
30
0
41
1
10
76.1520245394962
20
6.43742801419467
30
0
41
1
10
76.2058476349328
20
6.63703712865956
30
0
41
1
10
76.3134938258061
20
6.99966177458029
30
0
41
1
10
76.3673169212428
20
7.16267423992983
30
0
41
1
10
76.4749631121161
20
7.45027824238852
30
0
41
1
10
76.5287862075527
20
7.57487340736083
30
0
41
1
10
76.636432398426
20
7.78560431180944
30
0
41
1
10
76.6902554938627
20
7.87174899297429
30
0
41
1
10
76.797901684736
20
8.00713437879057
30
0
41
1
10
76.8517247801727
20
8.05638722271109
30
0
41
1
10
76.959370971046
20
8.1208134784018
30
0
41
1
10
77.0131940664827
20
8.136
30
0
41
1
10
77.0670171619194
20
8.136
30
0
0
SPLINE
5
F3
100
AcDbEntity
8
1
62
256
6
ByLayer
370
13
48
1
60
0
100
AcDbSpline
70
4
71
3
72
8
73
4
40
0
40
0
40
0
40
0
40
1
40
1
40
1
40
1
41
1
10
80.5387381740102
20
8.11814840097699
30
0
41
1
10
81.5258254493401
20
5.41263064569509
30
0
41
1
10
82.5129127246701
20
2.70656931316356
30
0
41
1
10
83.5
20
0
30
0
0
SPLINE
5
F4
100
AcDbEntity
8
1
62
256
6
ByLayer
370
13
48
1
60
0
100
AcDbSpline
70
4
71
3
72
8
73
4
40
0
40
0
40
0
40
0
40
1
40
1
40
1
40
1
41
1
10
80.5387381740102
20
-6.19196514118039
30
0
41
1
10
81.5258254493401
20
-4.12276721528627
30
0
41
1
10
82.5129127246701
20
-2.05876979288229
30
0
41
1
10
83.5
20
0
30
0
0
SPLINE
5
F5
100
AcDbEntity
8
1
62
256
6
ByLayer
370
13
48
1
60
0
100
AcDbSpline
70
4
71
3
72
8
73
4
40
0
40
0
40
0
40
0
40
1
40
1
40
1
40
1
41
1
10
80.5387381740102
20
-8.00058817900913
30
0
41
1
10
81.5258254493401
20
-5.33518456827167
30
0
41
1
10
82.5129127246701
20
-2.66831014685624
30
0
41
1
10
83.5
20
0
30
0
0
SPLINE
5
F6
100
AcDbEntity
8
1
62
256
6
ByLayer
370
13
48
1
60
0
100
AcDbSpline
70
4
71
3
72
8
73
4
40
0
40
0
40
0
40
0
40
1
40
1
40
1
40
1
41
1
10
80.5387381740102
20
-1.64310766224912
30
0
41
1
10
81.5258254493401
20
-1.10327057072303
30
0
41
1
10
82.5129127246701
20
-0.55556560372483
30
0
41
1
10
83.5
20
0
30
0
0
SPLINE
5
F7
100
AcDbEntity
8
1
62
256
6
ByLayer
370
13
48
1
60
0
100
AcDbSpline
70
4
71
3
72
8
73
4
40
0
40
0
40
0
40
0
40
1
40
1
40
1
40
1
41
1
10
80.5387381740102
20
4.70067267616619
30
0
41
1
10
81.5258254493401
20
3.14033668076414
30
0
41
1
10
82.5129127246701
20
1.57343890904448
30
0
41
1
10
83.5
20
0
30
0
0
SPLINE
5
F8
100
AcDbEntity
8
1
62
256
6
ByLayer
370
13
48
1
60
0
100
AcDbSpline
70
4
71
3
72
8
73
4
40
0
40
0
40
0
40
0
40
1
40
1
40
1
40
1
41
1
10
80.5387381740102
20
6.02186649019157
30
0
41
1
10
81.5258254493401
20
4.00917732558335
30
0
41
1
10
82.5129127246701
20
2.00187970238883
30
0
41
1
10
83.5
20
0
30
0
0
SPLINE
5
F9
100
AcDbEntity
8
1
62
256
6
ByLayer
370
13
48
1
60
0
100
AcDbSpline
70
4
71
3
72
8
73
4
40
0
40
0
40
0
40
0
40
1
40
1
40
1
40
1
41
1
10
80.5387381740102
20
7.94980829773007
30
0
41
1
10
81.5258254493401
20
5.30158047102367
30
0
41
1
10
82.5129127246701
20
2.65163275055244
30
0
41
1
10
83.5
20
0
30
0
0
SPLINE
5
FA
100
AcDbEntity
8
1
62
256
6
ByLayer
370
13
48
1
60
0
100
AcDbSpline
70
4
71
3
72
8
73
4
40
0
40
0
40
0
40
0
40
1
40
1
40
1
40
1
41
1
10
80.5387381740102
20
-1.01014694966648
30
0
41
1
10
81.5258254493401
20
-0.665462497121467
30
0
41
1
10
82.5129127246701
20
-0.328745382538386
30
0
41
1
10
83.5
20
0
30
0
0
SPLINE
5
FB
100
AcDbEntity
8
1
62
256
6
ByLayer
370
13
48
1
60
0
100
AcDbSpline
70
4
71
3
72
8
73
4
40
0
40
0
40
0
40
0
40
1
40
1
40
1
40
1
41
1
10
80.5387381740102
20
-5.3454558935743
30
0
41
1
10
81.5258254493401
20
-3.5575829002149
30
0
41
1
10
82.5129127246701
20
-1.77575646543013
30
0
41
1
10
83.5
20
0
30
0
0
SPLINE
5
FC
100
AcDbEntity
8
1
62
256
6
ByLayer
370
13
48
1
60
0
100
AcDbSpline
70
4
71
3
72
8
73
4
40
0
40
0
40
0
40
0
40
1
40
1
40
1
40
1
41
1
10
80.5387381740102
20
-4.90844374318925
30
0
41
1
10
81.5258254493401
20
-3.27870062397201
30
0
41
1
10
82.5129127246701
20
-1.64254552647105
30
0
41
1
10
83.5
20
0
30
0
0
SPLINE
5
FD
100
AcDbEntity
8
1
62
256
6
ByLayer
370
13
48
1
60
0
100
AcDbSpline
70
4
71
3
72
8
73
4
40
0
40
0
40
0
40
0
40
1
40
1
40
1
40
1
41
1
10
80.5387381740102
20
5.14869953710615
30
0
41
1
10
81.5258254493402
20
3.42624806946736
30
0
41
1
10
82.5129127246704
20
1.71000737463947
30
0
41
1
10
83.5000000000005
20
-7.958E-13
30
0
0
SPLINE
5
FE
100
AcDbEntity
8
1
62
256
6
ByLayer
370
13
48
1
60
0
100
AcDbSpline
70
4
71
3
72
8
73
4
40
0
40
0
40
0
40
0
40
1
40
1
40
1
40
1
41
1
10
80.5387381740102
20
1.39014827994976
30
0
41
1
10
81.5258254493401
20
0.93467836421479
30
0
41
1
10
82.5129127246701
20
0.471293560950016
30
0
41
1
10
83.5
20
0
30
0
0
SPLINE
5
FF
100
AcDbEntity
8
1
62
256
6
ByLayer
370
13
48
1
60
0
100
AcDbSpline
70
4
71
3
72
8
73
4
40
0
40
0
40
0
40
0
40
1
40
1
40
1
40
1
41
1
10
80.5387381740102
20
-0.449376652578621
30
0
41
1
10
81.52582544934
20
-0.307603117780502
30
0
41
1
10
82.5129127246698
20
-0.157810231766064
30
0
41
1
10
83.4999999999996
20
-8.53E-14
30
0
0
SPLINE
5
100
100
AcDbEntity
8
1
62
256
6
ByLayer
370
13
48
1
60
0
100
AcDbSpline
70
4
71
3
72
8
73
4
40
0
40
0
40
0
40
0
40
1
40
1
40
1
40
1
41
1
10
80.5387381740102
20
4.16282048356902
30
0
41
1
10
81.5258254493401
20
2.76831353992407
30
0
41
1
10
82.5129127246701
20
1.38070063814496
30
0
41
1
10
83.5
20
0
30
0
0
SPLINE
5
101
100
AcDbEntity
8
1
62
256
6
ByLayer
370
13
48
1
60
0
100
AcDbSpline
70
4
71
3
72
8
73
4
40
0
40
0
40
0
40
0
40
1
40
1
40
1
40
1
41
1
10
80.5387381740102
20
8.05046560982754
30
0
41
1
10
81.5258254493401
20
5.36581561939082
30
0
41
1
10
82.5129127246701
20
2.68231531863617
30
0
41
1
10
83.5
20
0
30
0
0
SPLINE
5
102
100
AcDbEntity
8
1
62
256
6
ByLayer
370
13
48
1
60
0
100
AcDbSpline
70
4
71
3
72
8
73
4
40
0
40
0
40
0
40
0
40
1
40
1
40
1
40
1
41
1
10
80.5387381740102
20
-7.85924184624056
30
0
41
1
10
81.5258254493401
20
-5.23741773309553
30
0
41
1
10
82.5129127246701
20
-2.6176589676833
30
0
41
1
10
83.5
20
0
30
0
0
SPLINE
5
103
100
AcDbEntity
8
1
62
256
6
ByLayer
370
13
48
1
60
0
100
AcDbSpline
70
4
71
3
72
8
73
4
40
0
40
0
40
0
40
0
40
1
40
1
40
1
40
1
41
1
10
80.5387381740102
20
-3.89731505463155
30
0
41
1
10
81.52582544934
20
-2.605259624902
30
0
41
1
10
82.5129127246698
20
-1.30614890042034
30
0
41
1
10
83.4999999999996
20
-5.969E-13
30
0
0
SPLINE
5
104
100
AcDbEntity
8
1
62
256
6
ByLayer
370
13
48
1
60
0
100
AcDbSpline
70
4
71
3
72
8
73
4
40
0
40
0
40
0
40
0
40
1
40
1
40
1
40
1
41
1
10
80.5387381740102
20
-6.90292377217807
30
0
41
1
10
81.5258254493401
20
-4.59769849672082
30
0
41
1
10
82.5129127246701
20
-2.29671382350912
30
0
41
1
10
83.5
20
0
30
0
0
SPLINE
5
105
100
AcDbEntity
8
1
62
256
6
ByLayer
370
13
48
1
60
0
100
AcDbSpline
70
4
71
3
72
8
73
4
40
0
40
0
40
0
40
0
40
1
40
1
40
1
40
1
41
1
10
80.5387381740102
20
-7.69490454774248
30
0
41
1
10
81.5258254493401
20
-5.13254476826748
30
0
41
1
10
82.5129127246701
20
-2.56756533568785
30
0
41
1
10
83.5
20
0
30
0
0
SPLINE
5
106
100
AcDbEntity
8
1
62
256
6
ByLayer
370
13
48
1
60
0
100
AcDbSpline
70
4
71
3
72
8
73
4
40
0
40
0
40
0
40
0
40
1
40
1
40
1
40
1
41
1
10
80.5387381740102
20
3.66938069700194
30
0
41
1
10
81.5258254493401
20
2.45342158384142
30
0
41
1
10
82.5129127246701
20
1.23028931152521
30
0
41
1
10
83.5
20
0
30
0
0
SPLINE
5
107
100
AcDbEntity
8
1
62
256
6
ByLayer
370
13
48
1
60
0
100
AcDbSpline
70
4
71
3
72
8
73
4
40
0
40
0
40
0
40
0
40
1
40
1
40
1
40
1
41
1
10
80.5387381740102
20
-7.22076889318316
30
0
41
1
10
81.5258254493401
20
-4.81754651787719
30
0
41
1
10
82.5129127246699
20
-2.41061299484235
30
0
41
1
10
83.4999999999998
20
-5.684E-13
30
0
0
SPLINE
5
108
100
AcDbEntity
8
1
62
256
6
ByLayer
370
13
48
1
60
0
100
AcDbSpline
70
4
71
3
72
8
73
4
40
0
40
0
40
0
40
0
40
1
40
1
40
1
40
1
41
1
10
80.5387381740102
20
5.62906047786814
30
0
41
1
10
81.5258254493401
20
3.75850549702628
30
0
41
1
10
82.5129127246701
20
1.88214376899589
30
0
41
1
10
83.5000000000001
20
-1.137E-13
30
0
0
SPLINE
5
109
100
AcDbEntity
8
1
62
256
6
ByLayer
370
13
48
1
60
0
100
AcDbSpline
70
4
71
3
72
8
73
4
40
0
40
0
40
0
40
0
40
1
40
1
40
1
40
1
41
1
10
80.5387381740102
20
6.43422041873691
30
0
41
1
10
81.5258254493401
20
4.29439546868397
30
0
41
1
10
82.5129127246701
20
2.14964591823832
30
0
41
1
10
83.5
20
0
30
0
0
SPLINE
5
10A
100
AcDbEntity
8
1
62
256
6
ByLayer
370
13
48
1
60
0
100
AcDbSpline
70
4
71
3
72
8
73
4
40
0
40
0
40
0
40
0
40
1
40
1
40
1
40
1
41
1
10
80.5387381740102
20
7.60743597819865
30
0
41
1
10
81.5258254493401
20
5.07447142239849
30
0
41
1
10
82.5129127246701
20
2.53864830715369
30
0
41
1
10
83.5
20
0
30
0
0
SPLINE
5
10B
100
AcDbEntity
8
1
62
256
6
ByLayer
370
13
48
1
60
0
100
AcDbSpline
70
4
71
3
72
8
73
4
40
0
40
0
40
0
40
0
40
1
40
1
40
1
40
1
41
1
10
80.5387381740102
20
0.754191828873047
30
0
41
1
10
81.5258254493401
20
0.494798189654944
30
0
41
1
10
82.5129127246701
20
0.243399822791162
30
0
41
1
10
83.5
20
0
30
0
0
SPLINE
5
10C
100
AcDbEntity
8
1
62
256
6
ByLayer
370
13
48
1
60
0
100
AcDbSpline
70
4
71
3
72
8
73
4
40
0
40
0
40
0
40
0
40
1
40
1
40
1
40
1
41
1
10
80.5387381740102
20
7.0985264424294
30
0
41
1
10
81.5258254493401
20
4.73627522864496
30
0
41
1
10
82.5129127246701
20
2.37008936752625
30
0
41
1
10
83.5
20
-5.68E-14
30
0
0
SPLINE
5
10D
100
AcDbEntity
8
1
62
256
6
ByLayer
370
13
48
1
60
0
100
AcDbSpline
70
4
71
3
72
8
73
4
40
0
40
0
40
0
40
0
40
1
40
1
40
1
40
1
41
1
10
80.5387381740102
20
-7.46276792620677
30
0
41
1
10
81.5258254493401
20
-4.97197984683305
30
0
41
1
10
82.5129127246701
20
-2.48437963585607
30
0
41
1
10
83.5
20
0
30
0
0
SPLINE
5
10E
100
AcDbEntity
8
1
62
256
6
ByLayer
370
13
48
1
60
0
100
AcDbSpline
70
4
71
3
72
8
73
4
40
0
40
0
40
0
40
0
40
1
40
1
40
1
40
1
41
1
10
80.5387381740102
20
-2.19028376434076
30
0
41
1
10
81.5258254493401
20
-1.45245472206201
30
0
41
1
10
82.5129127246701
20
-0.722356944128904
30
0
41
1
10
83.5
20
0
30
0
0
SPLINE
5
10F
100
AcDbEntity
8
1
62
256
6
ByLayer
370
13
48
1
60
0
100
AcDbSpline
70
4
71
3
72
8
73
4
40
0
40
0
40
0
40
0
40
1
40
1
40
1
40
1
41
1
10
80.5387381740102
20
-3.3224722608262
30
0
41
1
10
81.5258254493401
20
-2.20765071936208
30
0
41
1
10
82.51291272467
20
-1.10015512063811
30
0
41
1
10
83.4999999999999
20
-1.137E-13
30
0
0
SPLINE
5
110
100
AcDbEntity
8
1
62
256
6
ByLayer
370
13
48
1
60
0
100
AcDbSpline
70
4
71
3
72
8
73
4
40
0
40
0
40
0
40
0
40
1
40
1
40
1
40
1
41
1
10
80.5387381740102
20
2.55776093744663
30
0
41
1
10
81.5258254493401
20
1.7127977206535
30
0
41
1
10
82.5129127246701
20
0.860206992167008
30
0
41
1
10
83.5
20
0
30
0
0
SPLINE
5
111
100
AcDbEntity
8
1
62
256
6
ByLayer
370
13
48
1
60
0
100
AcDbSpline
70
4
71
3
72
8
73
4
40
0
40
0
40
0
40
0
40
1
40
1
40
1
40
1
41
1
10
80.5387381740102
20
-8.0836661739329
30
0
41
1
10
81.5258254493401
20
-5.38820135581344
30
0
41
1
10
82.5129127246699
20
-2.69363415146586
30
0
41
1
10
83.4999999999998
20
-6.253E-13
30
0
0
SPLINE
5
112
100
AcDbEntity
8
1
62
256
6
ByLayer
370
13
48
1
60
0
100
AcDbSpline
70
4
71
3
72
8
73
4
40
0
40
0
40
0
40
0
40
1
40
1
40
1
40
1
41
1
10
80.5387381740102
20
-2.80086878971039
30
0
41
1
10
81.5258254493401
20
-1.87478591642051
30
0
41
1
10
82.5129127246701
20
-0.941158881996984
30
0
41
1
10
83.5
20
0
30
0
0
SPLINE
5
113
100
AcDbEntity
8
1
62
256
6
ByLayer
370
13
48
1
60
0
100
AcDbSpline
70
4
71
3
72
8
73
4
40
0
40
0
40
0
40
0
40
1
40
1
40
1
40
1
41
1
10
80.5387381740102
20
-6.58856069565226
30
0
41
1
10
81.5258254493401
20
-4.39708556119737
30
0
41
1
10
82.5129127246699
20
-2.20088902650744
30
0
41
1
10
83.4999999999998
20
-5.116E-13
30
0
0
SPLINE
5
114
100
AcDbEntity
8
1
62
256
6
ByLayer
370
13
48
1
60
0
100
AcDbSpline
70
4
71
3
72
8
73
4
40
0
40
0
40
0
40
0
40
1
40
1
40
1
40
1
41
1
10
80.5387381740102
20
1.94125001591675
30
0
41
1
10
81.5258254493401
20
1.28636768551277
30
0
41
1
10
82.5129127246701
20
0.639281521114185
30
0
41
1
10
83.5
20
0
30
0
0
SPLINE
5
115
100
AcDbEntity
8
1
62
256
6
ByLayer
370
13
48
1
60
0
100
AcDbSpline
70
4
71
3
72
8
73
4
40
0
40
0
40
0
40
0
40
1
40
1
40
1
40
1
41
1
10
80.5387381740102
20
6.76320651963198
30
0
41
1
10
81.5258254493402
20
4.50434018667156
30
0
41
1
10
82.5129127246704
20
2.24992813548513
30
0
41
1
10
83.5000000000005
20
-1.0232E-12
30
0
0
SPLINE
5
116
100
AcDbEntity
8
1
62
256
6
ByLayer
370
13
48
1
60
0
100
AcDbSpline
70
4
71
3
72
8
73
4
40
0
40
0
40
0
40
0
40
1
40
1
40
1
40
1
41
1
10
80.5387381740102
20
-4.38192727878729
30
0
41
1
10
81.5258254493401
20
-2.91451821198822
30
0
41
1
10
82.5129127246701
20
-1.45386939138101
30
0
41
1
10
83.5
20
0
30
0
0
SPLINE
5
117
100
AcDbEntity
8
1
62
256
6
ByLayer
370
13
48
1
60
0
100
AcDbSpline
70
4
71
3
72
8
73
4
40
0
40
0
40
0
40
0
40
1
40
1
40
1
40
1
41
1
10
80.5387381740102
20
-5.81211986042157
30
0
41
1
10
81.5258254493402
20
-3.88036636573355
30
0
41
1
10
82.5129127246702
20
-1.94298457623648
30
0
41
1
10
83.5000000000002
20
4.547E-13
30
0
0
SPLINE
5
118
100
AcDbEntity
8
1
62
256
6
ByLayer
370
13
48
1
60
0
100
AcDbSpline
70
4
71
3
72
8
73
4
40
0
40
0
40
0
40
0
40
1
40
1
40
1
40
1
41
1
10
80.5387381740102
20
-8.13112795268489
30
0
41
1
10
81.5258254493402
20
-5.42102985450501
30
0
41
1
10
82.5129127246702
20
-2.71064198613851
30
0
41
1
10
83.5000000000002
20
6.253E-13
30
0
0
SPLINE
5
119
100
AcDbEntity
8
1
62
256
6
ByLayer
370
13
48
1
60
0
100
AcDbSpline
70
4
71
3
72
8
73
4
40
0
40
0
40
0
40
0
40
1
40
1
40
1
40
1
41
1
10
80.5387381740102
20
7.35649067455051
30
0
41
1
10
81.52582544934
20
4.90089685799776
30
0
41
1
10
82.5129127246698
20
2.44872255323693
30
0
41
1
10
83.4999999999996
20
1.1369E-12
30
0
0
SPLINE
5
11A
100
AcDbEntity
8
1
62
256
6
ByLayer
370
13
48
1
60
0
100
AcDbSpline
70
4
71
3
72
8
73
4
40
0
40
0
40
0
40
0
40
1
40
1
40
1
40
1
41
1
10
80.5387381740102
20
0.192103368357806
30
0
41
1
10
81.5258254493401
20
0.136097615356874
30
0
41
1
10
82.5129127246702
20
0.0720628667424137
30
0
41
1
10
83.5000000000001
20
0
30
0
0
SPLINE
5
11B
100
AcDbEntity
8
1
62
256
6
ByLayer
370
13
48
1
60
0
100
AcDbSpline
70
4
71
3
72
8
73
4
40
0
40
0
40
0
40
0
40
1
40
1
40
1
40
1
41
1
10
80.5387381740102
20
3.08581157537148
30
0
41
1
10
81.5258254493401
20
2.04977682694664
30
0
41
1
10
82.5129127246701
20
1.02116846940265
30
0
41
1
10
83.5
20
0
30
0
0
SPLINE
5
11C
100
AcDbEntity
8
1
62
256
6
ByLayer
370
13
48
1
60
0
100
AcDbSpline
70
4
71
3
72
8
73
4
40
0
40
0
40
0
40
0
40
1
40
1
40
1
40
1
41
1
10
80.5387381740102
20
7.788731150399
30
0
41
1
10
81.5258254493402
20
5.19016616967349
30
0
41
1
10
82.5129127246704
20
2.59391107295079
30
0
41
1
10
83.5000000000005
20
-1.1937E-12
30
0
0
LINE
5
7D
100
AcDbEntity
8
80
62
256
6
ByLayer
370
18
48
1
60
0
100
AcDbLine
10
0
20
0
30
0
11
-5
21
0
31
0
39
0
210
0
220
0
230
1
0
LINE
5
7E
100
AcDbEntity
8
4
62
256
6
ByLayer
370
18
48
0.05
60
0
100
AcDbLine
10
-5
20
0
30
0
11
88.5
21
0
31
0
39
0
210
0
220
0
230
1
0
LINE
5
80
100
AcDbEntity
8
81
62
256
6
ByLayer
370
18
48
1
60
0
100
AcDbLine
10
83.5
20
0
30
0
11
88.5
21
0
31
0
39
0
210
0
220
0
230
1
0
LINE
5
81
100
AcDbEntity
8
SK4
62
256
6
ByLayer
370
18
48
0.05
60
0
100
AcDbLine
10
-53
20
0
30
0
11
88.5
21
0
31
0
39
0
210
0
220
0
230
1
0
LINE
5
83
100
AcDbEntity
8
1
62
256
6
ByLayer
370
18
48
1
60
0
100
AcDbLine
10
10
20
-7.7
30
0
11
41.788747
21
-7.7
31
0
39
0
210
0
220
0
230
1
0
LINE
5
84
100
AcDbEntity
8
1
62
256
6
ByLayer
370
18
48
1
60
0
100
AcDbLine
10
41.788747
20
7.7
30
0
11
10
21
7.7
31
0
39
0
210
0
220
0
230
1
0
LINE
5
85
100
AcDbEntity
8
1
62
256
6
ByLayer
370
18
48
1
60
0
100
AcDbLine
10
83.5
20
0
30
0
11
80.538738
21
8.136
31
0
39
0
210
0
220
0
230
1
0
LINE
5
86
100
AcDbEntity
8
1
62
256
6
ByLayer
370
18
48
1
60
0
100
AcDbLine
10
80.538738
20
-8.136
30
0
11
83.5
21
0
31
0
39
0
210
0
220
0
230
1
0
LINE
5
87
100
AcDbEntity
8
1
62
256
6
ByLayer
370
18
48
1
60
0
100
AcDbLine
10
10
20
7.7
30
0
11
0
21
9.525
31
0
39
0
210
0
220
0
230
1
0
LINE
5
88
100
AcDbEntity
8
1
62
256
6
ByLayer
370
18
48
1
60
0
100
AcDbLine
10
0
20
-9.525
30
0
11
10
21
-7.7
31
0
39
0
210
0
220
0
230
1
0
LINE
5
89
100
AcDbEntity
8
1
62
256
6
ByLayer
370
18
48
1
60
0
100
AcDbLine
10
71.9
20
-8.136
30
0
11
80.538738
21
-8.136
31
0
39
0
210
0
220
0
230
1
0
LINE
5
8A
100
AcDbEntity
8
1
62
256
6
ByLayer
370
18
48
1
60
0
100
AcDbLine
10
83.5
20
0
30
0
11
80.538738
21
8.136
31
0
39
0
210
0
220
0
230
1
0
LINE
5
8B
100
AcDbEntity
8
1
62
256
6
ByLayer
370
18
48
1
60
0
100
AcDbLine
10
80.538738
20
-8.136
30
0
11
83.5
21
0
31
0
39
0
210
0
220
0
230
1
0
LINE
5
8C
100
AcDbEntity
8
SK1
62
256
6
ByLayer
370
18
48
1
60
0
100
AcDbLine
10
-48
20
-8.525
30
0
11
-47
21
-9.525
31
0
39
0
210
0
220
0
230
1
0
LINE
5
8E
100
AcDbEntity
8
SK1
62
256
6
ByLayer
370
18
48
1
60
0
100
AcDbLine
10
-47
20
9.525
30
0
11
-48
21
8.525
31
0
39
0
210
0
220
0
230
1
0
LINE
5
8F
100
AcDbEntity
8
SK1
62
256
6
ByLayer
370
18
48
1
60
0
100
AcDbLine
10
-47
20
-9.525
30
0
11
0
21
-9.525
31
0
39
0
210
0
220
0
230
1
0
LINE
5
90
100
AcDbEntity
8
SK1
62
256
6
ByLayer
370
18
48
1
60
0
100
AcDbLine
10
0
20
9.525
30
0
11
-47
21
9.525
31
0
39
0
210
0
220
0
230
1
0
LINE
5
91
100
AcDbEntity
8
1
62
256
6
ByLayer
370
18
48
1
60
0
100
AcDbLine
10
0
20
9.525
30
0
11
0
21
-9.525
31
0
39
0
210
0
220
0
230
1
0
LINE
5
92
100
AcDbEntity
8
1
62
256
6
ByLayer
370
18
48
1
60
0
100
AcDbLine
10
80.538738
20
8.136
30
0
11
80.538738
21
7.877625
31
0
39
0
210
0
220
0
230
1
0
LINE
5
93
100
AcDbEntity
8
1
62
256
6
ByLayer
370
18
48
1
60
0
100
AcDbLine
10
80.538738
20
-8.136
30
0
11
80.538738
21
-1.161325
31
0
39
0
210
0
220
0
230
1
0
LINE
5
94
100
AcDbEntity
8
1
62
256
6
ByLayer
370
18
48
1
60
0
100
AcDbLine
10
10
20
-7.7
30
0
11
10
21
-0.958522
31
0
39
0
210
0
220
0
230
1
0
LINE
5
95
100
AcDbEntity
8
1
62
256
6
ByLayer
370
18
48
1
60
0
100
AcDbLine
10
10
20
7.7
30
0
11
10
21
7.156844
31
0
39
0
210
0
220
0
230
1
0
LINE
5
96
100
AcDbEntity
8
SK1
62
256
6
ByLayer
370
18
48
1
60
0
100
AcDbLine
10
-48
20
-8.525
30
0
11
-48
21
8.525
31
0
39
0
210
0
220
0
230
1
0
LINE
5
97
100
AcDbEntity
8
SK1
62
256
6
ByLayer
370
18
48
1
60
0
100
AcDbLine
10
-40.207362
20
-3.933192
30
0
11
-40.207362
21
3.933192
31
0
39
0
210
0
220
0
230
1
0
LINE
5
98
100
AcDbEntity
8
SK1
62
256
6
ByLayer
370
18
48
1
60
0
100
AcDbLine
10
0
20
9.525
30
0
11
0
21
-9.525
31
0
39
0
210
0
220
0
230
1
0
LINE
5
99
100
AcDbEntity
8
SK1
62
256
6
ByLayer
370
18
48
1
60
0
100
AcDbLine
10
-47
20
-9.525
30
0
11
-47
21
9.525
31
0
39
0
210
0
220
0
230
1
0
LINE
5
9A
100
AcDbEntity
8
SK1
62
256
6
ByLayer
370
18
48
1
60
0
100
AcDbLine
10
-5.911513
20
-3.933192
30
0
11
-40.207362
21
-3.933192
31
0
39
0
210
0
220
0
230
1
0
LINE
5
9B
100
AcDbEntity
8
SK1
62
256
6
ByLayer
370
18
48
1
60
0
100
AcDbLine
10
-40.207362
20
3.933192
30
0
11
-5.911513
21
3.933192
31
0
39
0
210
0
220
0
230
1
0
LINE
5
9C
100
AcDbEntity
8
SK1
62
256
6
ByLayer
370
18
48
1
60
0
100
AcDbLine
10
-5.911513
20
-3.933192
30
0
11
-5.911513
21
3.933192
31
0
39
0
210
0
220
0
230
1
0
LINE
5
9D
100
AcDbEntity
8
1
62
256
6
ByLayer
370
18
48
1
60
0
100
AcDbLine
10
80.538738
20
8.136
30
0
11
80.538738
21
-8.136
31
0
39
0
210
0
220
0
230
1
0
LINE
5
9E
100
AcDbEntity
8
1
62
256
6
ByLayer
370
18
48
1
60
0
100
AcDbLine
10
80.538738
20
8.136
30
0
11
80.538738
21
-8.136
31
0
39
0
210
0
220
0
230
1
0
LINE
5
9F
100
AcDbEntity
8
1
62
256
6
ByLayer
370
18
48
1
60
0
100
AcDbLine
10
80.538738
20
8.136
30
0
11
80.538738
21
-8.136
31
0
39
0
210
0
220
0
230
1
0
LINE
5
A0
100
AcDbEntity
8
1
62
256
6
ByLayer
370
18
48
1
60
0
100
AcDbLine
10
71.9
20
8.136
30
0
11
71.9
21
-8.136
31
0
39
0
210
0
220
0
230
1
0
LINE
5
A1
100
AcDbEntity
8
1
62
256
6
ByLayer
370
18
48
1
60
0
100
AcDbLine
10
71.9
20
8.136
30
0
11
71.9
21
-8.136
31
0
39
0
210
0
220
0
230
1
0
LINE
5
A2
100
AcDbEntity
8
1
62
256
6
ByLayer
370
18
48
1
60
0
100
AcDbLine
10
80.538738
20
8.136
30
0
11
80.538738
21
-8.136
31
0
39
0
210
0
220
0
230
1
0
LINE
5
A3
100
AcDbEntity
8
1
62
256
6
ByLayer
370
18
48
1
60
0
100
AcDbLine
10
71.9
20
8.136
30
0
11
71.9
21
-8.136
31
0
39
0
210
0
220
0
230
1
0
LINE
5
A4
100
AcDbEntity
8
1
62
256
6
ByLayer
370
18
48
1
60
0
100
AcDbLine
10
80.538738
20
8.136
30
0
11
80.538738
21
-8.136
31
0
39
0
210
0
220
0
230
1
0
LINE
5
A5
100
AcDbEntity
8
SK2
62
256
6
ByLayer
370
13
48
1
60
0
100
AcDbLine
10
-54.5
20
-9.525
30
0
11
-54.5
21
37.799683
31
0
39
0
210
0
220
0
230
1
0
LINE
5
A7
100
AcDbEntity
8
SK2
62
256
6
ByLayer
370
13
48
1
60
0
100
AcDbLine
10
-49.5875
20
9.525
30
0
11
-56.5
21
9.525
31
0
39
0
210
0
220
0
230
1
0
LINE
5
A8
100
AcDbEntity
8
SK2
62
256
6
ByLayer
370
13
48
1
60
0
100
AcDbLine
10
-49.5875
20
-9.525
30
0
11
-56.5
21
-9.525
31
0
39
0
210
0
220
0
230
1
0
LINE
5
A9
100
AcDbEntity
8
1
62
256
6
ByLayer
370
18
48
1
60
1
100
AcDbLine
10
-54.5
20
9.525
30
0
11
-54.039216
21
6.025002
31
0
39
0
210
0
220
0
230
1
0
LINE
5
AA
100
AcDbEntity
8
1
62
256
6
ByLayer
370
18
48
1
60
1
100
AcDbLine
10
-54.039216
20
6.025002
30
0
11
-54.960784
21
6.024998
31
0
39
0
210
0
220
0
230
1
0
LINE
5
AB
100
AcDbEntity
8
1
62
256
6
ByLayer
370
18
48
1
60
1
100
AcDbLine
10
-54.960784
20
6.024998
30
0
11
-54.5
21
9.525
31
0
39
0
210
0
220
0
230
1
0
LINE
5
AC
100
AcDbEntity
8
1
62
256
6
ByLayer
370
18
48
1
60
1
100
AcDbLine
10
-54.5
20
-9.525
30
0
11
-54.960784
21
-6.025002
31
0
39
0
210
0
220
0
230
1
0
LINE
5
AD
100
AcDbEntity
8
1
62
256
6
ByLayer
370
18
48
1
60
1
100
AcDbLine
10
-54.960784
20
-6.025002
30
0
11
-54.039216
21
-6.024998
31
0
39
0
210
0
220
0
230
1
0
LINE
5
AE
100
AcDbEntity
8
1
62
256
6
ByLayer
370
18
48
1
60
1
100
AcDbLine
10
-54.039216
20
-6.024998
30
0
11
-54.5
21
-9.525
31
0
39
0
210
0
220
0
230
1
0
LINE
5
AF
100
AcDbEntity
8
2
62
256
6
ByLayer
370
13
48
1
60
0
100
AcDbLine
10
91
20
-8.136
30
0
11
91
21
36.410683
31
0
39
0
210
0
220
0
230
1
0
LINE
5
B1
100
AcDbEntity
8
2
62
256
6
ByLayer
370
13
48
1
60
0
100
AcDbLine
10
82.126238
20
8.136
30
0
11
93
21
8.136
31
0
39
0
210
0
220
0
230
1
0
LINE
5
B2
100
AcDbEntity
8
2
62
256
6
ByLayer
370
13
48
1
60
0
100
AcDbLine
10
82.126238
20
-8.136
30
0
11
93
21
-8.136
31
0
39
0
210
0
220
0
230
1
0
LINE
5
B3
100
AcDbEntity
8
1
62
256
6
ByLayer
370
18
48
1
60
1
100
AcDbLine
10
91
20
8.136
30
0
11
91.460784
21
4.636002
31
0
39
0
210
0
220
0
230
1
0
LINE
5
B4
100
AcDbEntity
8
1
62
256
6
ByLayer
370
18
48
1
60
1
100
AcDbLine
10
91.460784
20
4.636002
30
0
11
90.539216
21
4.635998
31
0
39
0
210
0
220
0
230
1
0
LINE
5
B5
100
AcDbEntity
8
1
62
256
6
ByLayer
370
18
48
1
60
1
100
AcDbLine
10
90.539216
20
4.635998
30
0
11
91
21
8.136
31
0
39
0
210
0
220
0
230
1
0
LINE
5
B6
100
AcDbEntity
8
1
62
256
6
ByLayer
370
18
48
1
60
1
100
AcDbLine
10
91
20
-8.136
30
0
11
90.539216
21
-4.636002
31
0
39
0
210
0
220
0
230
1
0
LINE
5
B7
100
AcDbEntity
8
1
62
256
6
ByLayer
370
18
48
1
60
1
100
AcDbLine
10
90.539216
20
-4.636002
30
0
11
91.460784
21
-4.635998
31
0
39
0
210
0
220
0
230
1
0
LINE
5
B8
100
AcDbEntity
8
1
62
256
6
ByLayer
370
18
48
1
60
1
100
AcDbLine
10
91.460784
20
-4.635998
30
0
11
91
21
-8.136
31
0
39
0
210
0
220
0
230
1
0
LINE
5
B9
100
AcDbEntity
8
SK2
62
256
6
ByLayer
370
13
48
1
60
0
100
AcDbLine
10
84.042957
20
-1.491762
30
0
11
90.682423
21
-19.733545
31
0
39
0
210
0
220
0
230
1
0
LINE
5
BA
100
AcDbEntity
8
SK2
62
256
6
ByLayer
370
13
48
1
60
0
100
AcDbLine
10
84.042957
20
1.491762
30
0
11
90.682423
21
19.733545
31
0
39
0
210
0
220
0
230
1
0
LINE
5
BB
100
AcDbEntity
8
1
62
256
6
ByLayer
370
18
48
1
60
1
100
AcDbLine
10
89.998383
20
-17.85416
30
0
11
93.051575
21
-16.082064
31
0
39
0
210
0
220
0
230
1
0
LINE
5
BC
100
AcDbEntity
8
1
62
256
6
ByLayer
370
18
48
1
60
1
100
AcDbLine
10
93.051575
20
-16.082064
30
0
11
93.406196
21
-16.93267
31
0
39
0
210
0
220
0
230
1
0
LINE
5
BD
100
AcDbEntity
8
1
62
256
6
ByLayer
370
18
48
1
60
1
100
AcDbLine
10
93.406196
20
-16.93267
30
0
11
89.998383
21
-17.85416
31
0
39
0
210
0
220
0
230
1
0
LINE
5
BE
100
AcDbEntity
8
1
62
256
6
ByLayer
370
18
48
1
60
1
100
AcDbLine
10
89.998383
20
17.85416
30
0
11
93.406193
21
16.932671
31
0
39
0
210
0
220
0
230
1
0
LINE
5
BF
100
AcDbEntity
8
1
62
256
6
ByLayer
370
18
48
1
60
1
100
AcDbLine
10
93.406193
20
16.932671
30
0
11
93.051579
21
16.082063
31
0
39
0
210
0
220
0
230
1
0
LINE
5
C0
100
AcDbEntity
8
1
62
256
6
ByLayer
370
18
48
1
60
1
100
AcDbLine
10
93.051579
20
16.082063
30
0
11
89.998383
21
17.85416
31
0
39
0
210
0
220
0
230
1
0
LINE
5
121
100
AcDbEntity
8
1
62
256
6
ByLayer
370
18
48
1
60
1
100
AcDbLine
10
-54.5
20
9.525
30
0
11
-54.039216
21
6.025002
31
0
39
0
210
0
220
0
230
1
0
LINE
5
122
100
AcDbEntity
8
1
62
256
6
ByLayer
370
18
48
1
60
1
100
AcDbLine
10
-54.039216
20
6.025002
30
0
11
-54.960784
21
6.024998
31
0
39
0
210
0
220
0
230
1
0
LINE
5
123
100
AcDbEntity
8
1
62
256
6
ByLayer
370
18
48
1
60
1
100
AcDbLine
10
-54.960784
20
6.024998
30
0
11
-54.5
21
9.525
31
0
39
0
210
0
220
0
230
1
0
LINE
5
125
100
AcDbEntity
8
1
62
256
6
ByLayer
370
18
48
1
60
1
100
AcDbLine
10
-54.5
20
-9.525
30
0
11
-54.960784
21
-6.025002
31
0
39
0
210
0
220
0
230
1
0
LINE
5
126
100
AcDbEntity
8
1
62
256
6
ByLayer
370
18
48
1
60
1
100
AcDbLine
10
-54.960784
20
-6.025002
30
0
11
-54.039216
21
-6.024998
31
0
39
0
210
0
220
0
230
1
0
LINE
5
127
100
AcDbEntity
8
1
62
256
6
ByLayer
370
18
48
1
60
1
100
AcDbLine
10
-54.039216
20
-6.024998
30
0
11
-54.5
21
-9.525
31
0
39
0
210
0
220
0
230
1
0
LINE
5
12B
100
AcDbEntity
8
1
62
256
6
ByLayer
370
18
48
1
60
1
100
AcDbLine
10
91
20
8.136
30
0
11
91.460784
21
4.636002
31
0
39
0
210
0
220
0
230
1
0
LINE
5
12C
100
AcDbEntity
8
1
62
256
6
ByLayer
370
18
48
1
60
1
100
AcDbLine
10
91.460784
20
4.636002
30
0
11
90.539216
21
4.635998
31
0
39
0
210
0
220
0
230
1
0
LINE
5
12D
100
AcDbEntity
8
1
62
256
6
ByLayer
370
18
48
1
60
1
100
AcDbLine
10
90.539216
20
4.635998
30
0
11
91
21
8.136
31
0
39
0
210
0
220
0
230
1
0
LINE
5
12F
100
AcDbEntity
8
1
62
256
6
ByLayer
370
18
48
1
60
1
100
AcDbLine
10
91
20
-8.136
30
0
11
90.539216
21
-4.636002
31
0
39
0
210
0
220
0
230
1
0
LINE
5
130
100
AcDbEntity
8
1
62
256
6
ByLayer
370
18
48
1
60
1
100
AcDbLine
10
90.539216
20
-4.636002
30
0
11
91.460784
21
-4.635998
31
0
39
0
210
0
220
0
230
1
0
LINE
5
131
100
AcDbEntity
8
1
62
256
6
ByLayer
370
18
48
1
60
1
100
AcDbLine
10
91.460784
20
-4.635998
30
0
11
91
21
-8.136
31
0
39
0
210
0
220
0
230
1
0
LINE
5
134
100
AcDbEntity
8
1
62
256
6
ByLayer
370
18
48
1
60
1
100
AcDbLine
10
89.998383
20
-17.85416
30
0
11
93.051575
21
-16.082064
31
0
39
0
210
0
220
0
230
1
0
LINE
5
135
100
AcDbEntity
8
1
62
256
6
ByLayer
370
18
48
1
60
1
100
AcDbLine
10
93.051575
20
-16.082064
30
0
11
93.406196
21
-16.93267
31
0
39
0
210
0
220
0
230
1
0
LINE
5
136
100
AcDbEntity
8
1
62
256
6
ByLayer
370
18
48
1
60
1
100
AcDbLine
10
93.406196
20
-16.93267
30
0
11
89.998383
21
-17.85416
31
0
39
0
210
0
220
0
230
1
0
LINE
5
138
100
AcDbEntity
8
1
62
256
6
ByLayer
370
18
48
1
60
1
100
AcDbLine
10
89.998383
20
17.85416
30
0
11
93.406193
21
16.932671
31
0
39
0
210
0
220
0
230
1
0
LINE
5
139
100
AcDbEntity
8
1
62
256
6
ByLayer
370
18
48
1
60
1
100
AcDbLine
10
93.406193
20
16.932671
30
0
11
93.051579
21
16.082063
31
0
39
0
210
0
220
0
230
1
0
LINE
5
13A
100
AcDbEntity
8
1
62
256
6
ByLayer
370
18
48
1
60
1
100
AcDbLine
10
93.051579
20
16.082063
30
0
11
89.998383
21
17.85416
31
0
39
0
210
0
220
0
230
1
0
MTEXT
5
11D
100
AcDbEntity
8
SK2
62
256
6
ByLayer
370
18
48
1
60
0
100
AcDbMText
10
-55.841114
20
21.183438
30
0
210
0
220
0
230
1
1
%%c
40
3
41
0
44
1.084337
50
90
71
7
72
5
7
iso_b_vert
0
MTEXT
5
120
100
AcDbEntity
8
SK2
62
256
6
ByLayer
370
18
48
1
60
0
100
AcDbMText
10
-55.841114
20
27.16
30
0
210
0
220
0
230
1
1
\W0.7022;19.050
40
3
41
0
44
1.084337
50
90
71
7
72
5
7
iso_b_vert
0
MTEXT
5
129
100
AcDbEntity
8
2
62
256
6
ByLayer
370
18
48
1
60
0
100
AcDbMText
10
89.658886
20
19.794438
30
0
210
0
220
0
230
1
1
%%c
40
3
41
0
44
1.084337
50
90
71
7
72
5
7
iso_b_vert
0
MTEXT
5
12A
100
AcDbEntity
8
2
62
256
6
ByLayer
370
18
48
1
60
0
100
AcDbMText
10
89.658886
20
25.771
30
0
210
0
220
0
230
1
1
\W0.7022;16.272
40
3
41
0
44
1.084337
50
90
71
7
72
5
7
iso_b_vert
0
MTEXT
5
133
100
AcDbEntity
8
SK2
62
256
6
ByLayer
370
18
48
1
60
0
100
AcDbMText
10
103.409114
20
3.734657
30
0
210
0
220
0
230
1
1
\W0.7071;140%%d
40
3
41
0
44
1.084337
50
270
71
7
72
5
7
iso_b_vert
0
MTEXT
5
13C
100
AcDbEntity
8
SK6
62
256
6
ByLayer
370
18
48
1
60
0
100
AcDbMText
10
-10.358397
20
-67.114886
30
0
210
0
220
0
230
1
1
\W0.7771;H85341/64
40
3
41
0
44
1.084337
50
0
71
7
72
5
7
iso_b_vert
0
HATCH
5
124
100
AcDbEntity
8
SK2
62
256
6
ByLayer
370
13
48
1
60
0
100
AcDbHatch
10
0
20
0
30
0
210
0
220
0
230
1
2
ANSI31
70
0
71
0
91
1
92
5
93
3
72
1
10
-54.5
20
9.52500000000001
11
-54.0392162584472
21
6.02500169255319
72
1
10
-54.0392162584472
20
6.02500169255319
11
-54.9607837415528
21
6.02499830744682
72
1
10
-54.9607837415528
20
6.02499830744682
11
-54.5
21
9.52500000000001
97
0
75
0
76
1
52
0
41
0.0062
77
0
78
1
53
45
43
0
44
0
45
-0.0139193969876572
46
0.0139193969876572
79
0
47
0
98
1
10
0
20
0
0
HATCH
5
128
100
AcDbEntity
8
SK2
62
256
6
ByLayer
370
13
48
1
60
0
100
AcDbHatch
10
0
20
0
30
0
210
0
220
0
230
1
2
ANSI31
70
0
71
0
91
1
92
5
93
3
72
1
10
-54.5
20
-9.52499999999998
11
-54.9607837415528
21
-6.02500169255316
72
1
10
-54.9607837415528
20
-6.02500169255316
11
-54.0392162584472
21
-6.02499830744679
72
1
10
-54.0392162584472
20
-6.02499830744679
11
-54.5
21
-9.52499999999998
97
0
75
0
76
1
52
0
41
0.0062
77
0
78
1
53
45
43
0
44
0
45
-0.0139193969876572
46
0.0139193969876572
79
0
47
0
98
1
10
0
20
0
0
HATCH
5
12E
100
AcDbEntity
8
2
62
256
6
ByLayer
370
13
48
1
60
0
100
AcDbHatch
10
0
20
0
30
0
210
0
220
0
230
1
2
ANSI31
70
0
71
0
91
1
92
5
93
3
72
1
10
91
20
8.13600000000002
11
91.4607837415528
21
4.63600169255321
72
1
10
91.4607837415528
20
4.63600169255321
11
90.5392162584472
21
4.63599830744684
72
1
10
90.5392162584472
20
4.63599830744684
11
91
21
8.13600000000002
97
0
75
0
76
1
52
0
41
0.0062
77
0
78
1
53
45
43
0
44
0
45
-0.0139193969876572
46
0.0139193969876572
79
0
47
0
98
1
10
0
20
0
0
HATCH
5
132
100
AcDbEntity
8
2
62
256
6
ByLayer
370
13
48
1
60
0
100
AcDbHatch
10
0
20
0
30
0
210
0
220
0
230
1
2
ANSI31
70
0
71
0
91
1
92
5
93
3
72
1
10
91
20
-8.136
11
90.5392162584472
21
-4.63600169255318
72
1
10
90.5392162584472
20
-4.63600169255318
11
91.4607837415528
21
-4.63599830744681
72
1
10
91.4607837415528
20
-4.63599830744681
11
91
21
-8.136
97
0
75
0
76
1
52
0
41
0.0062
77
0
78
1
53
45
43
0
44
0
45
-0.0139193969876572
46
0.0139193969876572
79
0
47
0
98
1
10
0
20
0
0
HATCH
5
137
100
AcDbEntity
8
SK2
62
256
6
ByLayer
370
13
48
1
60
0
100
AcDbHatch
10
0
20
0
30
0
210
0
220
0
230
1
2
ANSI31
70
0
71
0
91
1
92
5
93
3
72
1
10
89.9983827231877
20
-17.8541597949323
11
93.0515754256929
21
-16.0820638240608
72
1
10
93.0515754256929
20
-16.0820638240608
11
93.4061958339751
21
-16.9326700737196
72
1
10
93.4061958339751
20
-16.9326700737196
11
89.9983827231877
21
-17.8541597949323
97
0
75
0
76
1
52
0
41
0.0062
77
0
78
1
53
45
43
0
44
0
45
-0.0139193969876572
46
0.0139193969876572
79
0
47
0
98
1
10
0
20
0
0
HATCH
5
13B
100
AcDbEntity
8
SK2
62
256
6
ByLayer
370
13
48
1
60
0
100
AcDbHatch
10
0
20
0
30
0
210
0
220
0
230
1
2
ANSI31
70
0
71
0
91
1
92
5
93
3
72
1
10
89.9983827231877
20
17.8541597949323
11
93.4061927095191
21
16.9326713763016
72
1
10
93.4061927095191
20
16.9326713763016
11
93.0515785501489
21
16.0820625214788
72
1
10
93.0515785501489
20
16.0820625214788
11
89.9983827231877
21
17.8541597949323
97
0
75
0
76
1
52
0
41
0.0062
77
0
78
1
53
45
43
0
44
0
45
-0.0139193969876572
46
0.0139193969876572
79
0
47
0
98
1
10
0
20
0
0
DIMENSION
5
13F
100
AcDbEntity
8
SK2
62
256
6
ByLayer
370
18
48
1
60
0
100
AcDbDimension
2
_U0
10
83.5
20
-45.952229
30
0
11
17.75
21
-45.952229
31
0
70
32
71
1
72
1
41
1
210
0
220
0
230
1
3
Standard
100
AcDbAlignedDimension
13
-48
23
-9.525
33
0
14
83.5
24
0
34
0
50
0
100
AcDbRotatedDimension
1001
ACAD
1000
DSTYLE
1002
{
1070
   371
1070
    13
1070
   372
1070
    13
1070
     3
1000

1070
   170
1070
     0
1070
   144
1040
1.0
1070
   277
1070
     2
1070
   284
1070
     8
1070
   278
1070
    46
1070
   146
1040
1.166667
1070
   345
1005
16
1070
   347
1005
16
1070
   346
1005
16
1070
   344
1005
0
1070
   343
1005
0
1070
   172
1070
     1
1070
    76
1070
     0
1070
    75
1070
     0
1070
   282
1070
     0
1070
   281
1070
     0
1070
    71
1070
     0
1070
    74
1070
     0
1070
   279
1070
     0
1070
   173
1070
     1
1070
   340
1005
11E
1070
   271
1070
     2
1070
   272
1070
     3
1070
    77
1070
     1
1070
    73
1070
     1
1070
   171
1070
     3
1070
   274
1070
     4
1070
   177
1070
     2
1070
   176
1070
     2
1070
   178
1070
     2
1070
    78
1070
     8
1070
    48
1040
-0.1
1070
    41
1040
3.5
1070
   147
1040
1.5
1070
    42
1040
1.5875
1070
    44
1040
2.0
1070
   140
1040
3.0
1002
}
1001
ACAD_DSTYLE_DIM_LINETYPE
1070
   380
1005
16
1001
ACAD_DSTYLE_DIM_EXT1_LINETYPE
1070
   381
1005
16
1001
ACAD_DSTYLE_DIM_EXT2_LINETYPE
1070
   382
1005
16
0
DIMENSION
5
158
100
AcDbEntity
8
SK2
62
256
6
ByLayer
370
18
48
1
60
0
100
AcDbDimension
2
_U1
10
3
20
-35.952229
30
0
11
43.25
21
-35.952229
31
0
70
32
71
1
72
1
41
1
210
0
220
0
230
1
3
Standard
100
AcDbAlignedDimension
13
83.5
23
0
33
0
14
3
24
-8.136
34
0
50
0
100
AcDbRotatedDimension
1001
ACAD
1000
DSTYLE
1002
{
1070
   371
1070
    13
1070
   372
1070
    13
1070
     3
1000

1070
   170
1070
     0
1070
   144
1040
1.0
1070
   277
1070
     2
1070
   284
1070
     8
1070
   278
1070
    46
1070
   146
1040
1.166667
1070
   345
1005
16
1070
   347
1005
16
1070
   346
1005
16
1070
   344
1005
0
1070
   343
1005
0
1070
   172
1070
     1
1070
    76
1070
     0
1070
    75
1070
     0
1070
   282
1070
     0
1070
   281
1070
     0
1070
    71
1070
     0
1070
    74
1070
     0
1070
   279
1070
     0
1070
   173
1070
     1
1070
   340
1005
11E
1070
   271
1070
     2
1070
   272
1070
     3
1070
    77
1070
     1
1070
    73
1070
     1
1070
   171
1070
     3
1070
   274
1070
     4
1070
   177
1070
     2
1070
   176
1070
     2
1070
   178
1070
     2
1070
    78
1070
     8
1070
    48
1040
-0.1
1070
    41
1040
3.5
1070
   147
1040
1.5
1070
    42
1040
1.5875
1070
    44
1040
2.0
1070
   140
1040
3.0
1002
}
1001
ACAD_DSTYLE_DIM_LINETYPE
1070
   380
1005
16
1001
ACAD_DSTYLE_DIM_EXT1_LINETYPE
1070
   381
1005
16
1001
ACAD_DSTYLE_DIM_EXT2_LINETYPE
1070
   382
1005
16
0
DIMENSION
5
170
100
AcDbEntity
8
SK2
62
256
6
ByLayer
370
18
48
1
60
0
100
AcDbDimension
2
_U2
10
0
20
-35.952229
30
0
11
-24
21
-35.952229
31
0
70
32
71
1
72
1
41
1
210
0
220
0
230
1
3
Standard
100
AcDbAlignedDimension
13
-48
23
-9.525
33
0
14
0
24
-9.525
34
0
50
0
100
AcDbRotatedDimension
1001
ACAD
1000
DSTYLE
1002
{
1070
   371
1070
    13
1070
   372
1070
    13
1070
     3
1000

1070
   170
1070
     0
1070
   144
1040
1.0
1070
   277
1070
     2
1070
   284
1070
     8
1070
   278
1070
    46
1070
   146
1040
1.166667
1070
   345
1005
16
1070
   347
1005
16
1070
   346
1005
16
1070
   344
1005
0
1070
   343
1005
0
1070
   172
1070
     1
1070
    76
1070
     0
1070
    75
1070
     0
1070
   282
1070
     0
1070
   281
1070
     0
1070
    71
1070
     0
1070
    74
1070
     0
1070
   279
1070
     0
1070
   173
1070
     1
1070
   340
1005
11E
1070
   271
1070
     2
1070
   272
1070
     3
1070
    77
1070
     1
1070
    73
1070
     1
1070
   171
1070
     3
1070
   274
1070
     4
1070
   177
1070
     2
1070
   176
1070
     2
1070
   178
1070
     2
1070
    78
1070
     8
1070
    48
1040
-0.1
1070
    41
1040
3.5
1070
   147
1040
1.5
1070
    42
1040
1.5875
1070
    44
1040
2.0
1070
   140
1040
3.0
1002
}
1001
ACAD_DSTYLE_DIM_LINETYPE
1070
   380
1005
16
1001
ACAD_DSTYLE_DIM_EXT1_LINETYPE
1070
   381
1005
16
1001
ACAD_DSTYLE_DIM_EXT2_LINETYPE
1070
   382
1005
16
0
DIMENSION
5
188
100
AcDbEntity
8
SK2
62
256
6
ByLayer
370
18
48
1
60
0
100
AcDbDimension
2
_U3
10
24
20
32.952229
30
0
11
53.75
21
32.952229
31
0
70
32
71
1
72
1
41
1
210
0
220
0
230
1
3
Standard
100
AcDbAlignedDimension
13
83.5
23
0
33
0
14
24
24
8.136
34
0
50
0
100
AcDbRotatedDimension
1001
ACAD
1000
DSTYLE
1002
{
1070
   371
1070
    13
1070
   372
1070
    13
1070
     3
1000

1070
   170
1070
     0
1070
   144
1040
1.0
1070
   277
1070
     2
1070
   284
1070
     8
1070
   278
1070
    46
1070
   146
1040
1.166667
1070
   345
1005
16
1070
   347
1005
16
1070
   346
1005
16
1070
   344
1005
0
1070
   343
1005
0
1070
   172
1070
     1
1070
    76
1070
     0
1070
    75
1070
     0
1070
   282
1070
     0
1070
   281
1070
     0
1070
    71
1070
     0
1070
    74
1070
     0
1070
   279
1070
     0
1070
   173
1070
     1
1070
   340
1005
11E
1070
   271
1070
     2
1070
   272
1070
     3
1070
    77
1070
     1
1070
    73
1070
     1
1070
   171
1070
     3
1070
   274
1070
     4
1070
   177
1070
     2
1070
   176
1070
     2
1070
   178
1070
     2
1070
    78
1070
     8
1070
    48
1040
-0.1
1070
    41
1040
3.5
1070
   147
1040
1.5
1070
    42
1040
1.5875
1070
    44
1040
2.0
1070
   140
1040
3.0
1002
}
1001
ACAD_DSTYLE_DIM_LINETYPE
1070
   380
1005
16
1001
ACAD_DSTYLE_DIM_EXT1_LINETYPE
1070
   381
1005
16
1001
ACAD_DSTYLE_DIM_EXT2_LINETYPE
1070
   382
1005
16
0
ENDSEC
0
SECTION
2
OBJECTS
0
DICTIONARY
5
210
330
0
100
AcDbDictionary
280
0
281
1
3
ACAD_GROUP
350
211
3
ACAD_MLINESTYLE
350
212
0
DICTIONARY
5
211
330
0
100
AcDbDictionary
280
0
281
1
0
DICTIONARY
5
212
330
0
100
AcDbDictionary
280
0
281
1
3
Standard
350
18
0
MLINESTYLE
5
18
330
212
100
AcDbMlineStyle
2
Standard
70
0
3

62
256
51
90
52
90
71
2
49
-0.5
62
256
6
ByLayer
49
0.5
62
256
6
ByLayer
0
RASTERVARIABLES
5
1fe
330

100
AcDbRasterVariables
90
0
70
1
71
1
72
1
0
ENDSEC
0
EOF
